  0
SECTION
  2
HEADER
  9
$ACADVER
  1
AC1009
  9
$INSBASE
 10
4.460305
 20
229.2
 30
0.0
  9
$EXTMIN
 10
4.460305
 20
229.2
 30
0.0
  9
$EXTMAX
 10
844.460305
 20
823.2
 30
0.0
  9
$LIMMIN
 10
4.460305
 20
229.2
  9
$LIMMAX
 10
844.460305
 20
823.2
  9
$ORTHOMODE
 70
     0
  9
$REGENMODE
 70
     1
  9
$FILLMODE
 70
     1
  9
$QTEXTMODE
 70
     0
  9
$MIRRTEXT
 70
     1
  9
$DRAGMODE
 70
     2
  9
$LTSCALE
 40
2.0
  9
$OSMODE
 70
     0
  9
$ATTMODE
 70
     1
  9
$TEXTSIZE
 40
0.2
  9
$TRACEWID
 40
0.05
  9
$TEXTSTYLE
  7
STANDARD
  9
$CLAYER
  8
0
  9
$CELTYPE
  6
BYLAYER
  9
$CECOLOR
 62
     7
  9
$DIMSCALE
 40
2.0
  9
$DIMASZ
 40
3.5
  9
$DIMEXO
 40
0.0625
  9
$DIMDLI
 40
0.38
  9
$DIMRND
 40
0.0
  9
$DIMDLE
 40
0.0
  9
$DIMEXE
 40
0.18
  9
$DIMTP
 40
0.0
  9
$DIMTM
 40
0.0
  9
$DIMTXT
 40
3.5
  9
$DIMCEN
 40
0.09
  9
$DIMTSZ
 40
0.0
  9
$DIMTOL
 70
     0
  9
$DIMLIM
 70
     0
  9
$DIMTIH
 70
     1
  9
$DIMTOH
 70
     1
  9
$DIMSE1
 70
     0
  9
$DIMSE2
 70
     0
  9
$DIMTAD
 70
     1
  9
$DIMZIN
 70
     0
  9
$DIMBLK
  1

  9
$DIMASO
 70
     1
  9
$DIMSHO
 70
     1
  9
$DIMPOST
  1

  9
$DIMAPOST
  1

  9
$DIMALT
 70
     0
  9
$DIMALTD
 70
     2
  9
$DIMALTF
 40
25.4
  9
$DIMLFAC
 40
1.0
  9
$DIMTOFL
 70
     0
  9
$DIMTVP
 40
0.0
  9
$DIMTIX
 70
     0
  9
$DIMSOXD
 70
     0
  9
$DIMSAH
 70
     0
  9
$DIMBLK1
  1

  9
$DIMBLK2
  1

  9
$DIMSTYLE
  2
STANDARD
  9
$DIMCLRD
 70
     0
  9
$DIMCLRE
 70
     0
  9
$DIMCLRT
 70
     0
  9
$DIMTFAC
 40
1.0
  9
$DIMGAP
 40
0.09
  9
$LUNITS
 70
     2
  9
$LUPREC
 70
     2
  9
$AXISMODE
 70
     0
  9
$AXISUNIT
 10
0.0
 20
0.0
  9
$SKETCHINC
 40
0.1
  9
$FILLETRAD
 40
0.0
  9
$AUNITS
 70
     0
  9
$AUPREC
 70
     0
  9
$MENU
  1
acad
  9
$ELEVATION
 40
0.0
  9
$PELEVATION
 40
0.0
  9
$THICKNESS
 40
0.0
  9
$LIMCHECK
 70
     0
  9
$BLIPMODE
 70
     1
  9
$CHAMFERA
 40
0.0
  9
$CHAMFERB
 40
0.0
  9
$SKPOLY
 70
     0
  9
$TDCREATE
 40
0.000000000
  9
$TDUPDATE
 40
0.000000000
  9
$TDINDWG
 40
0.0000000000
  9
$TDUSRTIMER
 40
0.0000000000
  9
$USRTIMER
 70
     1
  9
$ANGBASE
 50
0.0
  9
$ANGDIR
 70
     0
  9
$PDMODE
 70
     0
  9
$PDSIZE
 40
0.0
  9
$PLINEWID
 40
0.0
  9
$COORDS
 70
     0
  9
$SPLFRAME
 70
     0
  9
$SPLINETYPE
 70
     6
  9
$SPLINESEGS
 70
     8
  9
$ATTDIA
 70
     0
  9
$ATTREQ
 70
     1
  9
$HANDLING
 70
     1
  9
$HANDSEED
  5
196
  9
$SURFTAB1
 70
     6
  9
$SURFTAB2
 70
     6
  9
$SURFTYPE
 70
     6
  9
$SURFU
 70
     6
  9
$SURFV
 70
     6
  9
$UCSNAME
  2

  9
$UCSORG
 10
0.0
 20
0.0
 30
0.0
  9
$UCSXDIR
 10
1.0
 20
0.0
 30
0.0
  9
$UCSYDIR
 10
0.0
 20
1.0
 30
0.0
  9
$PUCSNAME
  2

  9
$PUCSORG
 10
0.0
 20
0.0
 30
0.0
  9
$PUCSXDIR
 10
1.0
 20
0.0
 30
0.0
  9
$PUCSYDIR
 10
0.0
 20
1.0
 30
0.0
  9
$USERI1
 70
     0
  9
$USERI2
 70
     0
  9
$USERI3
 70
     0
  9
$USERI4
 70
     0
  9
$USERI5
 70
     0
  9
$USERR1
 40
0.0
  9
$USERR2
 40
0.0
  9
$USERR3
 40
0.0
  9
$USERR4
 40
0.0
  9
$USERR5
 40
0.0
  9
$WORLDVIEW
 70
     1
  9
$SHADEDGE
 70
     3
  9
$SHADEDIF
 70
    70
  9
$TILEMODE
 70
     1
  9
$MAXACTVP
 70
    16
  9
$PINSBASE
 10
0.0
 20
0.0
 30
0.0
  9
$PLIMCHECK
 70
     0
  9
$PEXTMIN
 10
1.000000E+20
 20
1.000000E+20
 30
1.000000E+20
  9
$PEXTMAX
 10
-1.000000E+20
 20
-1.000000E+20
 30
-1.000000E+20
  9
$PLIMMIN
 10
4.460305
 20
229.2
  9
$PLIMMAX
 10
844.460305
 20
823.2
  9
$UNITMODE
 70
     0
  9
$VISRETAIN
 70
     0
  9
$PLINEGEN
 70
     1
  9
$PSLTSCALE
 70
     0
  9
$TREEDEPTH
 70
  3020
  9
$DWGCODEPAGE
  3
dos850
  0
ENDSEC
  0
SECTION
  2
TABLES
  0
TABLE
  2
VPORT
 70
     1
  0
VPORT
  2
*ACTIVE
 70
     0
 10
0.0
 20
0.0
 11
1.0
 21
1.0
 12
420.0
 22
297.0
 13
0.0
 23
0.0
 14
1.0
 24
1.0
 15
0.0
 25
0.0
 16
0.0
 26
0.0
 36
1.0
 17
4.460305
 27
229.2
 37
0.0
 40
594.0
 41
1.604229
 42
50.0
 43
0.0
 44
0.0
 50
0.0
 51
0.0
 71
     0
 72
   100
 73
     1
 74
     1
 75
     0
 76
     0
 77
     0
 78
     0
  0
ENDTAB
  0
TABLE
  2
LTYPE
 70
     3
  0
LTYPE
  2
CONTINUOUS
 70
    64
  3
Solid line
 72
    65
 73
     0
 40
0.0
  0
LTYPE
  2
DASHED
 70
    64
  3
__ __ __ __ __
 72
    65
 73
     2
 40
6.25
 49
5.0
 49
-1.25
  0
LTYPE
  2
DASHDOT
 70
    64
  3
__ . __ . __ . __ . __
 72
    65
 73
     4
 40
7.5
 49
5.0
 49
-1.25
 49
0.0
 49
-1.25
  0
ENDTAB
  0
TABLE
  2
LAYER
 70
    10
  0
LAYER
  2
0
 70
     0
 62
     7
  6
CONTINUOUS
  0
LAYER
  2
LC-INFO-1-2-MM-A3-0
 70
     1
 62
    -1
  6
CONTINUOUS
  0
LAYER
  2
LC-005-003-MTH-0
 70
     0
 62
     2
  6
CONTINUOUS
  0
LAYER
  2
LC-006-003-MTG-0
 70
     0
 62
     2
  6
CONTINUOUS
  0
LAYER
  2
LC-004-003-----0
 70
     0
 62
     2
  6
CONTINUOUS
  0
LAYER
  2
LC-007-005-----0
 70
     0
 62
     2
  6
CONTINUOUS
  0
LAYER
  2
LC-002-000-----0
 70
     0
 62
     7
  6
CONTINUOUS
  0
LAYER
  2
LC-001-002-----0
 70
     0
 62
     1
  6
CONTINUOUS
  0
LAYER
  2
LC-003-002-RND-0
 70
     0
 62
     1
  6
CONTINUOUS
  0
LAYER
  2
LC-000
 70
     0
 62
     7
  6
CONTINUOUS
  0
ENDTAB
  0
TABLE
  2
STYLE
 70
     4
  0
STYLE
  2
STANDARD
 70
     0
 40
0.0
 41
1.0
 50
0.0
 71
     0
 42
0.0
  3
txt
  4

  0
STYLE
  2
LC-STANDARD
 70
    64
 40
0.0
 41
1.0
 50
0.0
 71
     0
 42
3.5
  3
MONOTXT
  4

  0
STYLE
  2
LC-TXTSTYLE-150-400-0-0-D2
 70
    64
 40
0.0
 41
1.0
 50
15.0
 71
     0
 42
3.5
  3
MONOTXT
  4

  0
STYLE
  2
LC-TXTSTYLE-150-400-0-0-D3
 70
    64
 40
0.0
 41
1.0
 50
15.0
 71
     0
 42
3.5
  3
LC-STANDARD
  4

  0
ENDTAB
  0
TABLE
  2
VIEW
 70
     0
  0
ENDTAB
  0
TABLE
  2
UCS
 70
     0
  0
ENDTAB
  0
TABLE
  2
APPID
 70
     1
  0
APPID
  2
ACAD
 70
     0
  0
ENDTAB
  0
TABLE
  2
DIMSTYLE
 70
     3
  0
DIMSTYLE
  2
STANDARD
 70
     0
  3

  4

  5

  6

  7

 40
1.0
 41
0.18
 42
0.0625
 43
0.38
 44
0.18
 45
0.0
 46
0.0
 47
0.0
 48
0.0
 71
     0
 72
     0
 73
     1
 74
     1
 75
     0
 76
     0
 77
     0
 78
     0
140
0.18
141
0.09
142
0.0
143
25.4
144
1.0
145
0.0
146
1.0
147
0.09
170
     0
171
     2
172
     0
173
     0
174
     0
175
     0
176
     0
177
     0
178
     0
  0
DIMSTYLE
  2
LC-STANDARD
 70
     0
  3

  4

  5

  6

  7

 40
1.0
 41
3.5
 42
0.0
 43
7.5
 44
1.8
 45
0.0
 46
0.0
 47
0.0
 48
0.0
 71
     0
 72
     0
 73
     0
 74
     0
 75
     0
 76
     0
 77
     1
 78
     8
140
3.5
141
0.0
142
0.0
143
25.4
144
1.0
145
0.0
146
0.71
147
1.5
170
     0
171
     2
172
     1
173
     0
174
     0
175
     0
176
     0
177
     0
178
     3
  0
DIMSTYLE
  2
LC-DIM-L-0090-02-02
 70
     0
  3

  4

  5

  6

  7

 40
2.0
 41
3.5
 42
0.0
 43
7.5
 44
1.8
 45
0.0
 46
0.0
 47
0.0
 48
0.0
 71
     0
 72
     0
 73
     0
 74
     0
 75
     0
 76
     0
 77
     1
 78
     8
140
9.0
141
0.0
142
0.0
143
25.4
144
1.0
145
0.0
146
0.71
147
1.5
170
     0
171
     2
172
     0
173
     0
174
     0
175
     0
176
     2
177
     2
178
     6
  0
ENDTAB
  0
ENDSEC
  0
SECTION
  2
BLOCKS
  0
BLOCK
  8
0
  5
23
  2
BLK1
 70
    64
 10
0.0
 20
0.0
 30
0.0
  3
BLK1
  0
ENDBLK
  8
0
  5
24
  0
BLOCK
  8
0
  5
26
  2
BLK2
 70
    64
 10
0.0
 20
0.0
 30
0.0
  3
BLK2
  0
ENDBLK
  8
0
  5
27
  0
BLOCK
  8
0
  5
29
  2
*D2
 70
    65
 10
0.0
 20
0.0
 30
0.0
  3
*D2
  0
LINE
  8
LC-005-003-MTH-0
  6
CONTINUOUS
  5
2B
 10
125.933951
 20
590.58443
 30
0.0
 11
125.933951
 21
668.8
 31
0.0
  0
LINE
  8
LC-005-003-MTH-0
  6
CONTINUOUS
  5
2C
 10
385.933951
 20
590.58443
 30
0.0
 11
385.933951
 21
668.8
 31
0.0
  0
LINE
  8
LC-006-003-MTG-0
  6
CONTINUOUS
  5
2E
 10
125.933951
 20
658.0
 30
0.0
 11
385.933951
 21
658.0
 31
0.0
  0
LINE
  8
LC-004-003-----0
  6
CONTINUOUS
  5
30
 10
143.779958
 20
660.349471
 30
0.0
 11
125.933951
 21
658.0
 31
0.0
  0
LINE
  8
LC-004-003-----0
  6
CONTINUOUS
  5
31
 10
125.933951
 20
658.0
 30
0.0
 11
143.779958
 21
655.650529
 31
0.0
  0
LINE
  8
LC-004-003-----0
  6
CONTINUOUS
  5
32
 10
143.779958
 20
655.650529
 30
0.0
 11
143.779958
 21
660.349471
 31
0.0
  0
LINE
  8
LC-004-003-----0
  6
CONTINUOUS
  5
33
 10
143.819996
 20
659.738609
 30
0.0
 11
130.613951
 21
658.0
 31
0.0
  0
LINE
  8
LC-004-003-----0
  6
CONTINUOUS
  5
34
 10
130.613951
 20
658.0
 30
0.0
 11
143.819996
 21
656.261391
 31
0.0
  0
LINE
  8
LC-004-003-----0
  6
CONTINUOUS
  5
35
 10
143.860034
 20
659.127746
 30
0.0
 11
135.293951
 21
658.0
 31
0.0
  0
LINE
  8
LC-004-003-----0
  6
CONTINUOUS
  5
36
 10
135.293951
 20
658.0
 30
0.0
 11
143.860034
 21
656.872254
 31
0.0
  0
LINE
  8
LC-004-003-----0
  6
CONTINUOUS
  5
37
 10
143.900072
 20
658.516884
 30
0.0
 11
139.973951
 21
658.0
 31
0.0
  0
LINE
  8
LC-004-003-----0
  6
CONTINUOUS
  5
38
 10
139.973951
 20
658.0
 30
0.0
 11
143.900072
 21
657.483116
 31
0.0
  0
LINE
  8
LC-004-003-----0
  6
CONTINUOUS
  5
39
 10
368.087943
 20
655.650529
 30
0.0
 11
385.933951
 21
658.0
 31
0.0
  0
LINE
  8
LC-004-003-----0
  6
CONTINUOUS
  5
3A
 10
385.933951
 20
658.0
 30
0.0
 11
368.087943
 21
660.349471
 31
0.0
  0
LINE
  8
LC-004-003-----0
  6
CONTINUOUS
  5
3B
 10
368.087943
 20
660.349471
 30
0.0
 11
368.087943
 21
655.650529
 31
0.0
  0
LINE
  8
LC-004-003-----0
  6
CONTINUOUS
  5
3C
 10
368.047905
 20
656.261391
 30
0.0
 11
381.253951
 21
658.0
 31
0.0
  0
LINE
  8
LC-004-003-----0
  6
CONTINUOUS
  5
3D
 10
381.253951
 20
658.0
 30
0.0
 11
368.047905
 21
659.738609
 31
0.0
  0
LINE
  8
LC-004-003-----0
  6
CONTINUOUS
  5
3E
 10
368.007867
 20
656.872254
 30
0.0
 11
376.573951
 21
658.0
 31
0.0
  0
LINE
  8
LC-004-003-----0
  6
CONTINUOUS
  5
3F
 10
376.573951
 20
658.0
 30
0.0
 11
368.007867
 21
659.127746
 31
0.0
  0
LINE
  8
LC-004-003-----0
  6
CONTINUOUS
  5
40
 10
367.967829
 20
657.483116
 30
0.0
 11
371.893951
 21
658.0
 31
0.0
  0
LINE
  8
LC-004-003-----0
  6
CONTINUOUS
  5
41
 10
371.893951
 20
658.0
 30
0.0
 11
367.967829
 21
658.516884
 31
0.0
  0
TEXT
  8
LC-004-003-----0
  6
CONTINUOUS
 62
     6
  5
43
 10
239.595338
 20
668.431999
 30
0.0
 40
18.0
  1
260
 41
0.9
 51
15.0
  7
LC-TXTSTYLE-150-400-0-0-D0
 72
     1
 11
258.729197
 21
668.431999
 31
0.0
  0
ENDBLK
  8
0
  5
44
  0
BLOCK
  8
0
  5
46
  2
*D3
 70
    65
 10
0.0
 20
0.0
 30
0.0
  3
*D3
  0
LINE
  8
LC-005-003-MTH-0
  6
CONTINUOUS
  5
47
 10
350.633014
 20
466.161947
 30
0.0
 11
444.8
 21
466.161947
 31
0.0
  0
LINE
  8
LC-005-003-MTH-0
  6
CONTINUOUS
  5
48
 10
371.933951
 20
617.58443
 30
0.0
 11
444.8
 21
617.58443
 31
0.0
  0
LINE
  8
LC-006-003-MTG-0
  6
CONTINUOUS
  5
49
 10
434.0
 20
466.161947
 30
0.0
 11
434.0
 21
617.58443
 31
0.0
  0
LINE
  8
LC-004-003-----0
  6
CONTINUOUS
  5
4A
 10
431.650529
 20
484.007955
 30
0.0
 11
434.0
 21
466.161947
 31
0.0
  0
LINE
  8
LC-004-003-----0
  6
CONTINUOUS
  5
4B
 10
434.0
 20
466.161947
 30
0.0
 11
436.349471
 21
484.007955
 31
0.0
  0
LINE
  8
LC-004-003-----0
  6
CONTINUOUS
  5
4C
 10
436.349471
 20
484.007955
 30
0.0
 11
431.650529
 21
484.007955
 31
0.0
  0
LINE
  8
LC-004-003-----0
  6
CONTINUOUS
  5
4D
 10
432.261391
 20
484.047993
 30
0.0
 11
434.0
 21
470.841947
 31
0.0
  0
LINE
  8
LC-004-003-----0
  6
CONTINUOUS
  5
4E
 10
434.0
 20
470.841947
 30
0.0
 11
435.738609
 21
484.047993
 31
0.0
  0
LINE
  8
LC-004-003-----0
  6
CONTINUOUS
  5
4F
 10
432.872254
 20
484.088031
 30
0.0
 11
434.0
 21
475.521947
 31
0.0
  0
LINE
  8
LC-004-003-----0
  6
CONTINUOUS
  5
50
 10
434.0
 20
475.521947
 30
0.0
 11
435.127746
 21
484.088031
 31
0.0
  0
LINE
  8
LC-004-003-----0
  6
CONTINUOUS
  5
51
 10
433.483116
 20
484.128069
 30
0.0
 11
434.0
 21
480.201947
 31
0.0
  0
LINE
  8
LC-004-003-----0
  6
CONTINUOUS
  5
52
 10
434.0
 20
480.201947
 30
0.0
 11
434.516884
 21
484.128069
 31
0.0
  0
LINE
  8
LC-004-003-----0
  6
CONTINUOUS
  5
53
 10
436.349471
 20
599.738422
 30
0.0
 11
434.0
 21
617.58443
 31
0.0
  0
LINE
  8
LC-004-003-----0
  6
CONTINUOUS
  5
54
 10
434.0
 20
617.58443
 30
0.0
 11
431.650529
 21
599.738422
 31
0.0
  0
LINE
  8
LC-004-003-----0
  6
CONTINUOUS
  5
55
 10
431.650529
 20
599.738422
 30
0.0
 11
436.349471
 21
599.738422
 31
0.0
  0
LINE
  8
LC-004-003-----0
  6
CONTINUOUS
  5
56
 10
435.738609
 20
599.698384
 30
0.0
 11
434.0
 21
612.90443
 31
0.0
  0
LINE
  8
LC-004-003-----0
  6
CONTINUOUS
  5
57
 10
434.0
 20
612.90443
 30
0.0
 11
432.261391
 21
599.698384
 31
0.0
  0
LINE
  8
LC-004-003-----0
  6
CONTINUOUS
  5
58
 10
435.127746
 20
599.658346
 30
0.0
 11
434.0
 21
608.22443
 31
0.0
  0
LINE
  8
LC-004-003-----0
  6
CONTINUOUS
  5
59
 10
434.0
 20
608.22443
 30
0.0
 11
432.872254
 21
599.658346
 31
0.0
  0
LINE
  8
LC-004-003-----0
  6
CONTINUOUS
  5
5A
 10
434.516884
 20
599.618308
 30
0.0
 11
434.0
 21
603.54443
 31
0.0
  0
LINE
  8
LC-004-003-----0
  6
CONTINUOUS
  5
5B
 10
434.0
 20
603.54443
 30
0.0
 11
433.483116
 21
599.618308
 31
0.0
  0
TEXT
  8
LC-004-003-----0
  6
CONTINUOUS
 62
     6
  5
5C
 10
423.568001
 20
525.534576
 30
0.0
 40
18.0
  1
150
 50
90.0
 51
15.0
  7
LC-TXTSTYLE-150-400-0-0-D0
 72
     1
 11
423.568001
 21
544.668434
 31
0.0
  0
ENDBLK
  8
0
  5
5D
  0
BLOCK
  8
0
  5
5F
  2
*X4
 70
    65
 10
125.933951
 20
560.58443
 30
0.0
  3
*X4
  0
LINE
  8
LC-007-005-----0
  6
CONTINUOUS
  5
61
 10
144.805642
 20
560.58443
 30
0.0
 11
149.933951
 21
565.712738
 31
0.0
  0
LINE
  8
LC-007-005-----0
  6
CONTINUOUS
  5
62
 10
138.956142
 20
563.220211
 30
0.0
 11
149.933951
 21
574.19802
 31
0.0
  0
LINE
  8
LC-007-005-----0
  6
CONTINUOUS
  5
63
 10
138.933951
 20
571.683301
 30
0.0
 11
149.933951
 21
582.683301
 31
0.0
  0
LINE
  8
LC-007-005-----0
  6
CONTINUOUS
  5
64
 10
138.933951
 20
580.168582
 30
0.0
 11
155.25298
 21
596.487612
 31
0.0
  0
LINE
  8
LC-007-005-----0
  6
CONTINUOUS
  5
65
 10
137.452056
 20
587.171968
 30
0.0
 11
147.864517
 21
597.58443
 31
0.0
  0
LINE
  8
LC-007-005-----0
  6
CONTINUOUS
  5
66
 10
129.379235
 20
587.58443
 30
0.0
 11
141.962971
 21
600.168165
 31
0.0
  0
LINE
  8
LC-007-005-----0
  6
CONTINUOUS
  5
67
 10
125.933951
 20
592.624426
 30
0.0
 11
141.933951
 21
608.624426
 31
0.0
  0
LINE
  8
LC-007-005-----0
  6
CONTINUOUS
  5
68
 10
127.77333
 20
602.949087
 30
0.0
 11
141.565464
 21
616.741221
 31
0.0
  0
LINE
  8
LC-007-005-----0
  6
CONTINUOUS
  5
69
 10
130.879159
 20
614.540197
 30
0.0
 11
133.923391
 21
617.58443
 31
0.0
  0
ENDBLK
  8
0
  5
6A
  0
BLOCK
  8
0
  5
6C
  2
*X5
 70
    65
 10
154.478951
 20
466.161947
 30
0.0
  3
*X5
  0
LINE
  8
LC-007-005-----0
  6
CONTINUOUS
  5
6D
 10
157.187701
 20
589.51706
 30
0.0
 11
157.120331
 21
589.58443
 31
0.0
  0
LINE
  8
LC-007-005-----0
  6
CONTINUOUS
  5
6E
 10
157.187701
 20
583.860206
 30
0.0
 11
154.478951
 21
586.568956
 31
0.0
  0
LINE
  8
LC-007-005-----0
  6
CONTINUOUS
  5
6F
 10
157.187701
 20
578.203352
 30
0.0
 11
154.478951
 21
580.912102
 31
0.0
  0
LINE
  8
LC-007-005-----0
  6
CONTINUOUS
  5
70
 10
164.821451
 20
564.912747
 30
0.0
 11
162.115269
 21
567.61893
 31
0.0
  0
LINE
  8
LC-007-005-----0
  6
CONTINUOUS
  5
71
 10
157.187701
 20
572.546497
 30
0.0
 11
154.478951
 21
575.255247
 31
0.0
  0
LINE
  8
LC-007-005-----0
  6
CONTINUOUS
  5
72
 10
164.821451
 20
559.255893
 30
0.0
 11
161.964951
 21
562.112393
 31
0.0
  0
LINE
  8
LC-007-005-----0
  6
CONTINUOUS
  5
73
 10
159.413414
 20
564.66393
 30
0.0
 11
154.478951
 21
569.598393
 31
0.0
  0
LINE
  8
LC-007-005-----0
  6
CONTINUOUS
  5
74
 10
164.821451
 20
553.599039
 30
0.0
 11
159.870585
 21
558.549905
 31
0.0
  0
LINE
  8
LC-007-005-----0
  6
CONTINUOUS
  5
75
 10
164.821451
 20
547.942185
 30
0.0
 11
161.964951
 21
550.798685
 31
0.0
  0
LINE
  8
LC-007-005-----0
  6
CONTINUOUS
  5
76
 10
164.821451
 20
542.28533
 30
0.0
 11
158.716195
 21
548.390587
 31
0.0
  0
LINE
  8
LC-007-005-----0
  6
CONTINUOUS
  5
77
 10
164.821451
 20
536.628476
 30
0.0
 11
161.811302
 21
539.638625
 31
0.0
  0
LINE
  8
LC-007-005-----0
  6
CONTINUOUS
  5
78
 10
164.821451
 20
530.971622
 30
0.0
 11
161.964951
 21
533.828122
 31
0.0
  0
LINE
  8
LC-007-005-----0
  6
CONTINUOUS
  5
79
 10
160.478434
 20
535.314638
 30
0.0
 11
158.172701
 21
537.620372
 31
0.0
  0
LINE
  8
LC-007-005-----0
  6
CONTINUOUS
  5
7A
 10
164.821451
 20
525.314768
 30
0.0
 11
160.868834
 21
529.267384
 31
0.0
  0
LINE
  8
LC-007-005-----0
  6
CONTINUOUS
  5
7B
 10
164.821451
 20
519.657913
 30
0.0
 11
161.964951
 21
522.514413
 31
0.0
  0
LINE
  8
LC-007-005-----0
  6
CONTINUOUS
  5
7C
 10
158.478971
 20
526.000393
 30
0.0
 11
158.172701
 21
526.306663
 31
0.0
  0
LINE
  8
LC-007-005-----0
  6
CONTINUOUS
  5
7D
 10
164.821451
 20
514.001059
 30
0.0
 11
159.714443
 21
519.108066
 31
0.0
  0
LINE
  8
LC-007-005-----0
  6
CONTINUOUS
  5
7E
 10
164.821451
 20
508.344205
 30
0.0
 11
161.964951
 21
511.200705
 31
0.0
  0
LINE
  8
LC-007-005-----0
  6
CONTINUOUS
  5
7F
 10
164.821451
 20
502.687351
 30
0.0
 11
158.560053
 21
508.948748
 31
0.0
  0
LINE
  8
LC-007-005-----0
  6
CONTINUOUS
  5
80
 10
164.821451
 20
497.030496
 30
0.0
 11
161.727012
 21
500.124936
 31
0.0
  0
LINE
  8
LC-007-005-----0
  6
CONTINUOUS
  5
81
 10
164.821451
 20
491.373642
 30
0.0
 11
161.964951
 21
494.230142
 31
0.0
  0
LINE
  8
LC-007-005-----0
  6
CONTINUOUS
  5
82
 10
160.207989
 20
495.987104
 30
0.0
 11
158.172701
 21
498.022392
 31
0.0
  0
LINE
  8
LC-007-005-----0
  6
CONTINUOUS
  5
83
 10
164.821451
 20
485.716788
 30
0.0
 11
160.712692
 21
489.825546
 31
0.0
  0
LINE
  8
LC-007-005-----0
  6
CONTINUOUS
  5
84
 10
164.821451
 20
480.059934
 30
0.0
 11
161.964951
 21
482.916434
 31
0.0
  0
LINE
  8
LC-007-005-----0
  6
CONTINUOUS
  5
85
 10
158.208526
 20
486.672858
 30
0.0
 11
158.172701
 21
486.708684
 31
0.0
  0
LINE
  8
LC-007-005-----0
  6
CONTINUOUS
  5
86
 10
164.821451
 20
474.403079
 30
0.0
 11
159.558302
 21
479.666228
 31
0.0
  0
LINE
  8
LC-007-005-----0
  6
CONTINUOUS
  5
87
 10
164.821451
 20
468.746225
 30
0.0
 11
161.964951
 21
471.602725
 31
0.0
  0
LINE
  8
LC-007-005-----0
  6
CONTINUOUS
  5
88
 10
161.748874
 20
466.161947
 30
0.0
 11
158.403911
 21
469.50691
 31
0.0
  0
ENDBLK
  8
0
  5
89
  0
BLOCK
  8
0
  5
8B
  2
*X6
 70
    65
 10
355.933951
 20
560.58443
 30
0.0
  3
*X6
  0
LINE
  8
LC-007-005-----0
  6
CONTINUOUS
  5
8C
 10
365.422958
 20
560.58443
 30
0.0
 11
372.933951
 21
568.095422
 31
0.0
  0
LINE
  8
LC-007-005-----0
  6
CONTINUOUS
  5
8D
 10
361.933951
 20
565.580704
 30
0.0
 11
372.933951
 21
576.580704
 31
0.0
  0
LINE
  8
LC-007-005-----0
  6
CONTINUOUS
  5
8E
 10
384.233998
 20
587.880751
 30
0.0
 11
385.637629
 21
589.284382
 31
0.0
  0
LINE
  8
LC-007-005-----0
  6
CONTINUOUS
  5
8F
 10
361.933951
 20
574.065985
 30
0.0
 11
372.980864
 21
585.112899
 31
0.0
  0
LINE
  8
LC-007-005-----0
  6
CONTINUOUS
  5
90
 10
375.405482
 20
587.537516
 30
0.0
 11
385.515199
 21
597.647233
 31
0.0
  0
LINE
  8
LC-007-005-----0
  6
CONTINUOUS
  5
91
 10
361.933951
 20
582.551267
 30
0.0
 11
383.722048
 21
604.339364
 31
0.0
  0
LINE
  8
LC-007-005-----0
  6
CONTINUOUS
  5
92
 10
360.421497
 20
589.524094
 30
0.0
 11
381.928897
 21
611.031494
 31
0.0
  0
LINE
  8
LC-007-005-----0
  6
CONTINUOUS
  5
93
 10
355.933951
 20
593.521829
 30
0.0
 11
359.996551
 21
597.58443
 31
0.0
  0
LINE
  8
LC-007-005-----0
  6
CONTINUOUS
  5
94
 10
369.933951
 20
607.521829
 30
0.0
 11
379.69479
 21
617.282669
 31
0.0
  0
LINE
  8
LC-007-005-----0
  6
CONTINUOUS
  5
95
 10
369.992779
 20
616.065939
 30
0.0
 11
371.452442
 21
617.525602
 31
0.0
  0
ENDBLK
  8
0
  5
96
  0
BLOCK
  8
0
  5
98
  2
*X7
 70
    65
 10
347.046451
 20
466.161947
 30
0.0
  3
*X7
  0
LINE
  8
LC-007-005-----0
  6
CONTINUOUS
  5
99
 10
357.388951
 20
587.305709
 30
0.0
 11
355.11023
 21
589.58443
 31
0.0
  0
LINE
  8
LC-007-005-----0
  6
CONTINUOUS
  5
9A
 10
357.388951
 20
581.648855
 30
0.0
 11
354.680201
 21
584.357605
 31
0.0
  0
LINE
  8
LC-007-005-----0
  6
CONTINUOUS
  5
9B
 10
357.388951
 20
575.992
 30
0.0
 11
354.680201
 21
578.70075
 31
0.0
  0
LINE
  8
LC-007-005-----0
  6
CONTINUOUS
  5
9C
 10
357.388951
 20
570.335146
 30
0.0
 11
354.680201
 21
573.043896
 31
0.0
  0
LINE
  8
LC-007-005-----0
  6
CONTINUOUS
  5
9D
 10
356.674868
 20
565.392375
 30
0.0
 11
354.266039
 21
567.801204
 31
0.0
  0
LINE
  8
LC-007-005-----0
  6
CONTINUOUS
  5
9E
 10
351.746459
 20
564.66393
 30
0.0
 11
348.803051
 21
567.607337
 31
0.0
  0
LINE
  8
LC-007-005-----0
  6
CONTINUOUS
  5
9F
 10
353.695201
 20
557.058333
 30
0.0
 11
352.279145
 21
558.474389
 31
0.0
  0
LINE
  8
LC-007-005-----0
  6
CONTINUOUS
  5
A0
 10
349.902951
 20
560.850583
 30
0.0
 11
347.046451
 21
563.707083
 31
0.0
  0
LINE
  8
LC-007-005-----0
  6
CONTINUOUS
  5
A1
 10
350.387673
 20
554.709007
 30
0.0
 11
347.046451
 21
558.050229
 31
0.0
  0
LINE
  8
LC-007-005-----0
  6
CONTINUOUS
  5
A2
 10
353.665363
 20
545.774463
 30
0.0
 11
347.046451
 21
552.393375
 31
0.0
  0
LINE
  8
LC-007-005-----0
  6
CONTINUOUS
  5
A3
 10
349.902951
 20
543.880021
 30
0.0
 11
347.046451
 21
546.736521
 31
0.0
  0
LINE
  8
LC-007-005-----0
  6
CONTINUOUS
  5
A4
 10
352.510972
 20
535.615145
 30
0.0
 11
347.046451
 21
541.079666
 31
0.0
  0
LINE
  8
LC-007-005-----0
  6
CONTINUOUS
  5
A5
 10
349.902951
 20
532.566312
 30
0.0
 11
347.046451
 21
535.422812
 31
0.0
  0
LINE
  8
LC-007-005-----0
  6
CONTINUOUS
  5
A6
 10
351.356582
 20
525.455827
 30
0.0
 11
347.046451
 21
529.765958
 31
0.0
  0
LINE
  8
LC-007-005-----0
  6
CONTINUOUS
  5
A7
 10
353.695201
 20
517.460354
 30
0.0
 11
352.0087
 21
519.146854
 31
0.0
  0
LINE
  8
LC-007-005-----0
  6
CONTINUOUS
  5
A8
 10
349.902951
 20
521.252604
 30
0.0
 11
347.046451
 21
524.109104
 31
0.0
  0
LINE
  8
LC-007-005-----0
  6
CONTINUOUS
  5
A9
 10
350.270633
 20
515.228067
 30
0.0
 11
347.046451
 21
518.452249
 31
0.0
  0
LINE
  8
LC-007-005-----0
  6
CONTINUOUS
  5
AA
 10
353.509221
 20
506.332625
 30
0.0
 11
347.046451
 21
512.795395
 31
0.0
  0
LINE
  8
LC-007-005-----0
  6
CONTINUOUS
  5
AB
 10
349.902951
 20
504.282041
 30
0.0
 11
347.046451
 21
507.138541
 31
0.0
  0
LINE
  8
LC-007-005-----0
  6
CONTINUOUS
  5
AC
 10
352.354831
 20
496.173307
 30
0.0
 11
347.046451
 21
501.481687
 31
0.0
  0
LINE
  8
LC-007-005-----0
  6
CONTINUOUS
  5
AD
 10
349.902951
 20
492.968332
 30
0.0
 11
347.046451
 21
495.824832
 31
0.0
  0
LINE
  8
LC-007-005-----0
  6
CONTINUOUS
  5
AE
 10
351.20044
 20
486.013989
 30
0.0
 11
347.046451
 21
490.167978
 31
0.0
  0
LINE
  8
LC-007-005-----0
  6
CONTINUOUS
  5
AF
 10
353.695201
 20
477.862374
 30
0.0
 11
351.738255
 21
479.81932
 31
0.0
  0
LINE
  8
LC-007-005-----0
  6
CONTINUOUS
  5
B0
 10
349.902951
 20
481.654624
 30
0.0
 11
347.046451
 21
484.511124
 31
0.0
  0
LINE
  8
LC-007-005-----0
  6
CONTINUOUS
  5
B1
 10
350.167989
 20
475.732731
 30
0.0
 11
347.046451
 21
478.85427
 31
0.0
  0
LINE
  8
LC-007-005-----0
  6
CONTINUOUS
  5
B2
 10
353.35308
 20
466.890787
 30
0.0
 11
347.046451
 21
473.197415
 31
0.0
  0
LINE
  8
LC-007-005-----0
  6
CONTINUOUS
  5
B3
 10
348.425065
 20
466.161947
 30
0.0
 11
347.046451
 21
467.540561
 31
0.0
  0
ENDBLK
  8
0
  5
B4
  0
BLOCK
  8
0
  5
B6
  2
*X8
 70
    65
 10
357.433951
 20
582.756806
 30
0.0
  3
*X8
  0
LINE
  8
LC-007-005-----0
  6
DASHED
  5
B8
 10
359.337843
 20
582.783586
 30
0.0
 11
361.933951
 21
585.379694
 31
0.0
  0
LINE
  8
LC-007-005-----0
  6
DASHED
  5
B9
 10
358.341335
 20
583.201291
 30
0.0
 11
361.933951
 21
586.793907
 31
0.0
  0
LINE
  8
LC-007-005-----0
  6
CONTINUOUS
  5
BA
 10
357.433951
 20
585.122334
 30
0.0
 11
361.124463
 21
588.812846
 31
0.0
  0
LINE
  8
LC-007-005-----0
  6
CONTINUOUS
  5
BB
 10
357.433951
 20
586.536548
 30
0.0
 11
360.177119
 21
589.279716
 31
0.0
  0
ENDBLK
  8
0
  5
BC
  0
BLOCK
  8
0
  5
BE
  2
*X9
 70
    65
 10
149.933951
 20
582.756806
 30
0.0
  3
*X9
  0
LINE
  8
LC-007-005-----0
  6
DASHED
  5
BF
 10
151.521424
 20
582.85656
 30
0.0
 11
154.433951
 21
585.769087
 31
0.0
  0
LINE
  8
LC-007-005-----0
  6
DASHED
  5
C0
 10
150.630138
 20
583.379488
 30
0.0
 11
154.431868
 21
587.181218
 31
0.0
  0
LINE
  8
LC-007-005-----0
  6
CONTINUOUS
  5
C1
 10
149.933951
 20
585.511728
 30
0.0
 11
153.399833
 21
588.97761
 31
0.0
  0
LINE
  8
LC-007-005-----0
  6
CONTINUOUS
  5
C2
 10
149.933951
 20
586.925942
 30
0.0
 11
152.337213
 21
589.329204
 31
0.0
  0
ENDBLK
  8
0
  5
C3
  0
ENDSEC
  0
SECTION
  2
ENTITIES
  0
VIEWPORT
  8
LC-000
  5
190
 67
     1
 68
     1
 10
420.0
 20
297.0
 30
0.0
 40
840.0
 41
594.0
 69
     1
1001
ACAD
1000
MVIEW
1002
{
1070
    16
1010
0.0
1020
0.0
1030
0.0
1010
0.0
1020
0.0
1030
1.0
1040
0.0
1040
594.0
1040
420.0
1040
297.0
1040
50.0
1040
0.0
1040
0.0
1070
     0
1070
   100
1070
     1
1070
     1
1070
     0
1070
     0
1070
     0
1070
     0
1040
0.0
1040
0.0
1040
0.0
1040
1.0
1040
1.0
1040
0.0
1040
0.0
1070
     0
1002
{
1002
}
1002
}
  0
VIEWPORT
  8
0
  5
191
 67
     1
 68
     1
 10
0.0
 20
0.0
 30
0.0
 40
0.0
 41
0.0
 69
     1
1001
ACAD
1000
MVIEW
1002
{
1070
    16
1010
0.0
1020
0.0
1030
0.0
1010
0.0
1020
0.0
1030
1.0
1040
0.0
1040
594.0
1040
0.0
1040
0.0
1040
50.0
1040
0.0
1040
0.0
1070
     0
1070
   100
1070
     0
1070
     1
1070
     0
1070
     0
1070
     0
1070
     0
1040
0.0
1040
0.0
1040
0.0
1040
0.5
1040
0.5
1040
0.5
1040
0.5
1070
     0
1002
{
1002
}
1002
}
  0
INSERT
  8
0
  5
C5
  2
BLK1
 10
0.0
 20
0.0
 30
0.0
  0
INSERT
  8
0
  5
C6
  2
BLK2
 10
0.0
 20
0.0
 30
0.0
  0
DIMENSION
  8
0
  5
C7
  2
*D2
 10
255.933951
 20
658.0
 30
0.0
 11
255.933951
 21
658.0
 31
0.0
 13
125.933951
 23
590.58443
 33
0.0
 14
385.933951
 24
590.58443
 34
0.0
  3
LC-DIM-L-0090-02-02
  0
DIMENSION
  8
0
  5
C8
  2
*D3
 10
434.0
 20
541.873188
 30
0.0
 11
434.0
 21
541.873188
 31
0.0
  1
150
 13
371.933951
 23
617.58443
 33
0.0
 14
350.633014
 24
466.161947
 34
0.0
 50
90.0
  3
LC-DIM-L-0090-02-02
  0
INSERT
  8
0
  5
C9
  2
*X4
 10
125.933951
 20
560.58443
 30
0.0
  0
INSERT
  8
0
  5
CA
  2
*X5
 10
154.478951
 20
466.161947
 30
0.0
  0
INSERT
  8
0
  5
CB
  2
*X6
 10
355.933951
 20
560.58443
 30
0.0
  0
INSERT
  8
0
  5
CC
  2
*X7
 10
347.046451
 20
466.161947
 30
0.0
  0
INSERT
  8
0
  5
CD
  2
*X8
 10
357.433951
 20
582.756806
 30
0.0
  0
INSERT
  8
0
  5
CE
  2
*X9
 10
149.933951
 20
582.756806
 30
0.0
  0
LINE
  8
LC-001-002-----0
  6
CONTINUOUS
  5
D0
 10
161.964951
 20
563.67893
 30
0.0
 11
161.964951
 21
559.866905
 31
0.0
  0
ARC
  8
LC-003-002-RND-0
  6
CONTINUOUS
  5
D2
 10
160.979951
 20
563.67893
 30
0.0
 40
0.985
 50
0.0
 51
90.0
  0
LINE
  8
LC-001-002-----0
  6
CONTINUOUS
  5
D3
 10
158.172701
 20
548.244958
 30
0.0
 11
158.172701
 21
545.782458
 31
0.0
  0
ARC
  8
LC-003-002-RND-0
  6
CONTINUOUS
  5
D4
 10
158.172701
 20
568.60393
 30
0.0
 40
0.985
 50
180.0
 51
270.0
  0
LINE
  8
LC-001-002-----0
  6
CONTINUOUS
  5
D5
 10
161.964951
 20
553.86051
 30
0.0
 11
161.964951
 21
550.016905
 31
0.0
  0
ARC
  8
LC-003-002-RND-0
  6
CONTINUOUS
  5
D6
 10
160.979951
 20
553.86051
 30
0.0
 40
0.985
 50
0.0
 51
75.0
  0
ARC
  8
LC-003-002-RND-0
  6
CONTINUOUS
  5
D7
 10
160.979951
 20
559.866905
 30
0.0
 40
0.985
 50
285.0
 51
0.0
  0
LINE
  8
LC-001-002-----0
  6
CONTINUOUS
  5
D8
 10
161.234888
 20
466.161947
 30
0.0
 11
255.933951
 21
466.161947
 31
0.0
  0
LINE
  8
LC-001-002-----0
  6
CONTINUOUS
  5
D9
 10
161.964951
 20
540.166905
 30
0.0
 11
161.964951
 21
544.01051
 31
0.0
  0
LINE
  8
LC-001-002-----0
  6
CONTINUOUS
  5
DA
 10
158.172701
 20
538.394958
 30
0.0
 11
161.234888
 21
539.215468
 31
0.0
  0
LINE
  8
LC-001-002-----0
  6
CONTINUOUS
  5
DB
 10
158.172701
 20
535.932458
 30
0.0
 11
158.172701
 21
538.394958
 31
0.0
  0
LINE
  8
LC-001-002-----0
  6
CONTINUOUS
  5
DC
 10
158.172701
 20
535.932458
 30
0.0
 11
161.234888
 21
535.111947
 31
0.0
  0
ARC
  8
LC-003-002-RND-0
  6
CONTINUOUS
  5
DD
 10
160.979951
 20
534.16051
 30
0.0
 40
0.985
 50
0.0
 51
75.0
  0
ARC
  8
LC-003-002-RND-0
  6
CONTINUOUS
  5
DE
 10
160.979951
 20
540.166905
 30
0.0
 40
0.985
 50
285.0
 51
0.0
  0
LINE
  8
LC-001-002-----0
  6
CONTINUOUS
  5
DF
 10
161.964951
 20
530.316905
 30
0.0
 11
161.964951
 21
534.16051
 31
0.0
  0
ARC
  8
LC-003-002-RND-0
  6
CONTINUOUS
  5
E0
 10
160.979951
 20
530.316905
 30
0.0
 40
0.985
 50
285.0
 51
0.0
  0
LINE
  8
LC-001-002-----0
  6
CONTINUOUS
  5
E1
 10
158.172701
 20
528.544958
 30
0.0
 11
161.234888
 21
529.365468
 31
0.0
  0
LINE
  8
LC-001-002-----0
  6
CONTINUOUS
  5
E2
 10
158.172701
 20
526.082458
 30
0.0
 11
158.172701
 21
528.544958
 31
0.0
  0
LINE
  8
LC-001-002-----0
  6
CONTINUOUS
  5
E3
 10
158.172701
 20
558.094958
 30
0.0
 11
161.234888
 21
558.915468
 31
0.0
  0
LINE
  8
LC-001-002-----0
  6
CONTINUOUS
  5
E4
 10
158.172701
 20
526.082458
 30
0.0
 11
161.234888
 21
525.261947
 31
0.0
  0
ARC
  8
LC-003-002-RND-0
  6
CONTINUOUS
  5
E5
 10
160.979951
 20
550.016905
 30
0.0
 40
0.985
 50
285.0
 51
0.0
  0
ARC
  8
LC-003-002-RND-0
  6
CONTINUOUS
  5
E6
 10
160.979951
 20
544.01051
 30
0.0
 40
0.985
 50
0.0
 51
75.0
  0
LINE
  8
LC-001-002-----0
  6
CONTINUOUS
  5
E7
 10
158.172701
 20
555.632458
 30
0.0
 11
161.234888
 21
554.811947
 31
0.0
  0
ARC
  8
LC-003-002-RND-0
  6
CONTINUOUS
  5
E8
 10
160.979951
 20
524.31051
 30
0.0
 40
0.985
 50
0.0
 51
75.0
  0
LINE
  8
LC-001-002-----0
  6
CONTINUOUS
  5
E9
 10
158.172701
 20
548.244958
 30
0.0
 11
161.234888
 21
549.065468
 31
0.0
  0
LINE
  8
LC-001-002-----0
  6
CONTINUOUS
  5
EA
 10
158.172701
 20
545.782458
 30
0.0
 11
161.234888
 21
544.961947
 31
0.0
  0
LINE
  8
LC-001-002-----0
  6
CONTINUOUS
  5
EB
 10
161.964951
 20
520.466905
 30
0.0
 11
161.964951
 21
524.31051
 31
0.0
  0
ARC
  8
LC-003-002-RND-0
  6
CONTINUOUS
  5
EC
 10
160.979951
 20
520.466905
 30
0.0
 40
0.985
 50
285.0
 51
0.0
  0
LINE
  8
LC-001-002-----0
  6
CONTINUOUS
  5
ED
 10
158.172701
 20
518.694958
 30
0.0
 11
161.234888
 21
519.515468
 31
0.0
  0
LINE
  8
LC-001-002-----0
  6
CONTINUOUS
  5
EE
 10
158.172701
 20
516.232458
 30
0.0
 11
158.172701
 21
518.694958
 31
0.0
  0
LINE
  8
LC-001-002-----0
  6
CONTINUOUS
  5
EF
 10
158.172701
 20
516.232458
 30
0.0
 11
161.234888
 21
515.411947
 31
0.0
  0
ARC
  8
LC-003-002-RND-0
  6
CONTINUOUS
  5
F0
 10
160.979951
 20
514.46051
 30
0.0
 40
0.985
 50
0.0
 51
75.0
  0
LINE
  8
LC-001-002-----0
  6
CONTINUOUS
  5
F1
 10
161.964951
 20
510.616905
 30
0.0
 11
161.964951
 21
514.46051
 31
0.0
  0
ARC
  8
LC-003-002-RND-0
  6
CONTINUOUS
  5
F2
 10
162.851451
 20
565.64893
 30
0.0
 40
1.97
 50
0.0
 51
90.0
  0
ARC
  8
LC-003-002-RND-0
  6
CONTINUOUS
  5
F3
 10
160.979951
 20
510.616905
 30
0.0
 40
0.985
 50
285.0
 51
0.0
  0
LINE
  8
LC-001-002-----0
  6
CONTINUOUS
  5
F4
 10
158.172701
 20
508.844958
 30
0.0
 11
161.234888
 21
509.665468
 31
0.0
  0
LINE
  8
LC-001-002-----0
  6
CONTINUOUS
  5
F5
 10
158.172701
 20
508.844958
 30
0.0
 11
158.172701
 21
506.382458
 31
0.0
  0
LINE
  8
LC-001-002-----0
  6
CONTINUOUS
  5
F6
 10
158.172701
 20
506.382458
 30
0.0
 11
161.234888
 21
505.561947
 31
0.0
  0
ARC
  8
LC-003-002-RND-0
  6
CONTINUOUS
  5
F7
 10
160.979951
 20
504.61051
 30
0.0
 40
0.985
 50
0.0
 51
75.0
  0
LINE
  8
LC-001-002-----0
  6
CONTINUOUS
  5
F8
 10
161.964951
 20
504.61051
 30
0.0
 11
161.964951
 21
500.766905
 31
0.0
  0
ARC
  8
LC-003-002-RND-0
  6
CONTINUOUS
  5
F9
 10
160.979951
 20
500.766905
 30
0.0
 40
0.985
 50
285.0
 51
0.0
  0
LINE
  8
LC-001-002-----0
  6
CONTINUOUS
  5
FA
 10
158.172701
 20
498.994958
 30
0.0
 11
161.234888
 21
499.815468
 31
0.0
  0
LINE
  8
LC-001-002-----0
  6
CONTINUOUS
  5
FB
 10
158.172701
 20
498.994958
 30
0.0
 11
158.172701
 21
496.532458
 31
0.0
  0
LINE
  8
LC-001-002-----0
  6
CONTINUOUS
  5
FC
 10
158.172701
 20
496.532458
 30
0.0
 11
161.234888
 21
495.711947
 31
0.0
  0
ARC
  8
LC-003-002-RND-0
  6
CONTINUOUS
  5
FD
 10
160.979951
 20
494.76051
 30
0.0
 40
0.985
 50
0.0
 51
75.0
  0
LINE
  8
LC-001-002-----0
  6
CONTINUOUS
  5
FE
 10
161.964951
 20
494.76051
 30
0.0
 11
161.964951
 21
490.916905
 31
0.0
  0
LINE
  8
LC-001-002-----0
  6
CONTINUOUS
  5
FF
 10
349.902951
 20
563.67893
 30
0.0
 11
349.902951
 21
559.866905
 31
0.0
  0
ARC
  8
LC-003-002-RND-0
  6
CONTINUOUS
  5
100
 10
350.887951
 20
563.67893
 30
0.0
 40
0.985
 50
90.0
 51
180.0
  0
LINE
  8
LC-001-002-----0
  6
CONTINUOUS
  5
101
 10
353.695201
 20
548.244958
 30
0.0
 11
353.695201
 21
545.782458
 31
0.0
  0
LINE
  8
LC-001-002-----0
  6
CONTINUOUS
  5
102
 10
354.926451
 20
564.66393
 30
0.0
 11
350.887951
 21
564.66393
 31
0.0
  0
ARC
  8
LC-003-002-RND-0
  6
CONTINUOUS
  5
103
 10
354.926451
 20
567.12643
 30
0.0
 40
2.4625
 50
270.0
 51
0.0
  0
ARC
  8
LC-003-002-RND-0
  6
CONTINUOUS
  5
104
 10
353.695201
 20
568.60393
 30
0.0
 40
0.985
 50
270.0
 51
0.0
  0
LINE
  8
LC-001-002-----0
  6
CONTINUOUS
  5
105
 10
349.902951
 20
553.86051
 30
0.0
 11
349.902951
 21
550.016905
 31
0.0
  0
LINE
  8
LC-001-002-----0
  6
CONTINUOUS
  5
106
 10
158.172701
 20
558.094958
 30
0.0
 11
158.172701
 21
555.632458
 31
0.0
  0
ARC
  8
LC-003-002-RND-0
  6
CONTINUOUS
  5
107
 10
350.887951
 20
553.86051
 30
0.0
 40
0.985
 50
105.0
 51
180.0
  0
ARC
  8
LC-003-002-RND-0
  6
CONTINUOUS
  5
108
 10
350.887951
 20
559.866905
 30
0.0
 40
0.985
 50
180.0
 51
255.0
  0
LINE
  8
LC-001-002-----0
  6
CONTINUOUS
  5
109
 10
350.633014
 20
466.161947
 30
0.0
 11
255.933951
 21
466.161947
 31
0.0
  0
LINE
  8
LC-001-002-----0
  6
CONTINUOUS
  5
10A
 10
349.902951
 20
540.166905
 30
0.0
 11
349.902951
 21
544.01051
 31
0.0
  0
LINE
  8
LC-001-002-----0
  6
CONTINUOUS
  5
10B
 10
353.695201
 20
538.394958
 30
0.0
 11
350.633014
 21
539.215468
 31
0.0
  0
LINE
  8
LC-001-002-----0
  6
CONTINUOUS
  5
10C
 10
353.695201
 20
535.932458
 30
0.0
 11
353.695201
 21
538.394958
 31
0.0
  0
LINE
  8
LC-001-002-----0
  6
CONTINUOUS
  5
10D
 10
353.695201
 20
535.932458
 30
0.0
 11
350.633014
 21
535.111947
 31
0.0
  0
ARC
  8
LC-003-002-RND-0
  6
CONTINUOUS
  5
10E
 10
350.887951
 20
534.16051
 30
0.0
 40
0.985
 50
105.0
 51
180.0
  0
ARC
  8
LC-003-002-RND-0
  6
CONTINUOUS
  5
10F
 10
350.887951
 20
540.166905
 30
0.0
 40
0.985
 50
180.0
 51
255.0
  0
LINE
  8
LC-001-002-----0
  6
CONTINUOUS
  5
110
 10
349.902951
 20
530.316905
 30
0.0
 11
349.902951
 21
534.16051
 31
0.0
  0
ARC
  8
LC-003-002-RND-0
  6
CONTINUOUS
  5
111
 10
350.887951
 20
530.316905
 30
0.0
 40
0.985
 50
180.0
 51
255.0
  0
LINE
  8
LC-001-002-----0
  6
CONTINUOUS
  5
112
 10
353.695201
 20
528.544958
 30
0.0
 11
350.633014
 21
529.365468
 31
0.0
  0
LINE
  8
LC-001-002-----0
  6
CONTINUOUS
  5
113
 10
353.695201
 20
526.082458
 30
0.0
 11
353.695201
 21
528.544958
 31
0.0
  0
LINE
  8
LC-001-002-----0
  6
CONTINUOUS
  5
114
 10
353.695201
 20
558.094958
 30
0.0
 11
350.633014
 21
558.915468
 31
0.0
  0
LINE
  8
LC-001-002-----0
  6
CONTINUOUS
  5
115
 10
353.695201
 20
526.082458
 30
0.0
 11
350.633014
 21
525.261947
 31
0.0
  0
ARC
  8
LC-003-002-RND-0
  6
CONTINUOUS
  5
116
 10
350.887951
 20
550.016905
 30
0.0
 40
0.985
 50
180.0
 51
255.0
  0
ARC
  8
LC-003-002-RND-0
  6
CONTINUOUS
  5
117
 10
350.887951
 20
544.01051
 30
0.0
 40
0.985
 50
105.0
 51
180.0
  0
LINE
  8
LC-001-002-----0
  6
CONTINUOUS
  5
118
 10
353.695201
 20
555.632458
 30
0.0
 11
350.633014
 21
554.811947
 31
0.0
  0
ARC
  8
LC-003-002-RND-0
  6
CONTINUOUS
  5
119
 10
350.887951
 20
524.31051
 30
0.0
 40
0.985
 50
105.0
 51
180.0
  0
LINE
  8
LC-001-002-----0
  6
CONTINUOUS
  5
11A
 10
353.695201
 20
548.244958
 30
0.0
 11
350.633014
 21
549.065468
 31
0.0
  0
LINE
  8
LC-001-002-----0
  6
CONTINUOUS
  5
11B
 10
353.695201
 20
545.782458
 30
0.0
 11
350.633014
 21
544.961947
 31
0.0
  0
LINE
  8
LC-001-002-----0
  6
CONTINUOUS
  5
11C
 10
349.902951
 20
520.466905
 30
0.0
 11
349.902951
 21
524.31051
 31
0.0
  0
ARC
  8
LC-003-002-RND-0
  6
CONTINUOUS
  5
11D
 10
350.887951
 20
520.466905
 30
0.0
 40
0.985
 50
180.0
 51
255.0
  0
LINE
  8
LC-001-002-----0
  6
CONTINUOUS
  5
11E
 10
353.695201
 20
518.694958
 30
0.0
 11
350.633014
 21
519.515468
 31
0.0
  0
LINE
  8
LC-001-002-----0
  6
CONTINUOUS
  5
11F
 10
353.695201
 20
516.232458
 30
0.0
 11
353.695201
 21
518.694958
 31
0.0
  0
LINE
  8
LC-001-002-----0
  6
CONTINUOUS
  5
120
 10
353.695201
 20
516.232458
 30
0.0
 11
350.633014
 21
515.411947
 31
0.0
  0
LINE
  8
LC-001-002-----0
  6
CONTINUOUS
  5
121
 10
347.046451
 20
565.64893
 30
0.0
 11
347.046451
 21
466.161947
 31
0.0
  0
ARC
  8
LC-003-002-RND-0
  6
CONTINUOUS
  5
122
 10
350.887951
 20
514.46051
 30
0.0
 40
0.985
 50
105.0
 51
180.0
  0
LINE
  8
LC-001-002-----0
  6
CONTINUOUS
  5
123
 10
349.902951
 20
510.616905
 30
0.0
 11
349.902951
 21
514.46051
 31
0.0
  0
ARC
  8
LC-003-002-RND-0
  6
CONTINUOUS
  5
124
 10
349.016451
 20
565.64893
 30
0.0
 40
1.97
 50
90.0
 51
180.0
  0
ARC
  8
LC-003-002-RND-0
  6
CONTINUOUS
  5
125
 10
350.887951
 20
510.616905
 30
0.0
 40
0.985
 50
180.0
 51
255.0
  0
LINE
  8
LC-001-002-----0
  6
CONTINUOUS
  5
126
 10
353.695201
 20
508.844958
 30
0.0
 11
350.633014
 21
509.665468
 31
0.0
  0
LINE
  8
LC-001-002-----0
  6
CONTINUOUS
  5
127
 10
353.695201
 20
508.844958
 30
0.0
 11
353.695201
 21
506.382458
 31
0.0
  0
LINE
  8
LC-001-002-----0
  6
CONTINUOUS
  5
128
 10
353.695201
 20
506.382458
 30
0.0
 11
350.633014
 21
505.561947
 31
0.0
  0
ARC
  8
LC-003-002-RND-0
  6
CONTINUOUS
  5
129
 10
350.887951
 20
504.61051
 30
0.0
 40
0.985
 50
105.0
 51
180.0
  0
LINE
  8
LC-001-002-----0
  6
CONTINUOUS
  5
12A
 10
349.902951
 20
504.61051
 30
0.0
 11
349.902951
 21
500.766905
 31
0.0
  0
ARC
  8
LC-003-002-RND-0
  6
CONTINUOUS
  5
12B
 10
350.887951
 20
500.766905
 30
0.0
 40
0.985
 50
180.0
 51
255.0
  0
LINE
  8
LC-001-002-----0
  6
CONTINUOUS
  5
12C
 10
353.695201
 20
498.994958
 30
0.0
 11
350.633014
 21
499.815468
 31
0.0
  0
LINE
  8
LC-001-002-----0
  6
CONTINUOUS
  5
12D
 10
353.695201
 20
498.994958
 30
0.0
 11
353.695201
 21
496.532458
 31
0.0
  0
LINE
  8
LC-001-002-----0
  6
CONTINUOUS
  5
12E
 10
353.695201
 20
496.532458
 30
0.0
 11
350.633014
 21
495.711947
 31
0.0
  0
ARC
  8
LC-003-002-RND-0
  6
CONTINUOUS
  5
12F
 10
350.887951
 20
494.76051
 30
0.0
 40
0.985
 50
105.0
 51
180.0
  0
LINE
  8
LC-001-002-----0
  6
CONTINUOUS
  5
130
 10
349.902951
 20
494.76051
 30
0.0
 11
349.902951
 21
490.916905
 31
0.0
  0
LINE
  8
LC-001-002-----0
  6
CONTINUOUS
  5
131
 10
353.695201
 20
558.094958
 30
0.0
 11
353.695201
 21
555.632458
 31
0.0
  0
LINE
  8
LC-001-002-----0
  6
CONTINUOUS
  5
132
 10
353.695201
 20
489.144958
 30
0.0
 11
350.633014
 21
489.965468
 31
0.0
  0
LINE
  8
LC-001-002-----0
  6
CONTINUOUS
  5
133
 10
353.695201
 20
567.61893
 30
0.0
 11
349.016451
 21
567.61893
 31
0.0
  0
LINE
  8
LC-001-002-----0
  6
CONTINUOUS
  5
134
 10
158.172701
 20
489.144958
 30
0.0
 11
161.234888
 21
489.965468
 31
0.0
  0
LINE
  8
LC-001-002-----0
  6
CONTINUOUS
  5
135
 10
353.695201
 20
486.682458
 30
0.0
 11
353.695201
 21
489.144958
 31
0.0
  0
LINE
  8
LC-001-002-----0
  6
CONTINUOUS
  5
136
 10
158.172701
 20
567.61893
 30
0.0
 11
162.851451
 21
567.61893
 31
0.0
  0
LINE
  8
LC-001-002-----0
  6
CONTINUOUS
  5
137
 10
158.172701
 20
486.682458
 30
0.0
 11
158.172701
 21
489.144958
 31
0.0
  0
LINE
  8
LC-001-002-----0
  6
CONTINUOUS
  5
138
 10
158.172701
 20
486.682458
 30
0.0
 11
161.234888
 21
485.861947
 31
0.0
  0
ARC
  8
LC-003-002-RND-0
  6
CONTINUOUS
  5
139
 10
160.979951
 20
484.91051
 30
0.0
 40
0.985
 50
0.0
 51
75.0
  0
LINE
  8
LC-001-002-----0
  6
CONTINUOUS
  5
13A
 10
161.964951
 20
481.066905
 30
0.0
 11
161.964951
 21
484.91051
 31
0.0
  0
ARC
  8
LC-003-002-RND-0
  6
CONTINUOUS
  5
13B
 10
160.979951
 20
490.916905
 30
0.0
 40
0.985
 50
285.0
 51
0.0
  0
LINE
  8
LC-001-002-----0
  6
CONTINUOUS
  5
13C
 10
158.172701
 20
479.294958
 30
0.0
 11
161.234888
 21
480.115468
 31
0.0
  0
LINE
  8
LC-001-002-----0
  6
CONTINUOUS
  5
13D
 10
158.172701
 20
476.832458
 30
0.0
 11
158.172701
 21
479.294958
 31
0.0
  0
ARC
  8
LC-003-002-RND-0
  6
CONTINUOUS
  5
13E
 10
160.979951
 20
481.066905
 30
0.0
 40
0.985
 50
285.0
 51
0.0
  0
LINE
  8
LC-001-002-----0
  6
CONTINUOUS
  5
13F
 10
353.695201
 20
486.682458
 30
0.0
 11
350.633014
 21
485.861947
 31
0.0
  0
LINE
  8
LC-001-002-----0
  6
CONTINUOUS
  5
140
 10
158.172701
 20
469.444958
 30
0.0
 11
158.172701
 21
466.982458
 31
0.0
  0
LINE
  8
LC-001-002-----0
  6
CONTINUOUS
  5
141
 10
158.172701
 20
466.982458
 30
0.0
 11
161.234888
 21
466.161947
 31
0.0
  0
ARC
  8
LC-003-002-RND-0
  6
CONTINUOUS
  5
142
 10
350.887951
 20
484.91051
 30
0.0
 40
0.985
 50
105.0
 51
180.0
  0
LINE
  8
LC-001-002-----0
  6
CONTINUOUS
  5
143
 10
349.902951
 20
481.066905
 30
0.0
 11
349.902951
 21
484.91051
 31
0.0
  0
LINE
  8
LC-001-002-----0
  6
CONTINUOUS
  5
144
 10
353.695201
 20
479.294958
 30
0.0
 11
350.633014
 21
480.115468
 31
0.0
  0
ARC
  8
LC-003-002-RND-0
  6
CONTINUOUS
  5
145
 10
350.887951
 20
490.916905
 30
0.0
 40
0.985
 50
180.0
 51
255.0
  0
LINE
  8
LC-001-002-----0
  6
CONTINUOUS
  5
146
 10
353.695201
 20
476.832458
 30
0.0
 11
353.695201
 21
479.294958
 31
0.0
  0
LINE
  8
LC-001-002-----0
  6
CONTINUOUS
  5
147
 10
353.695201
 20
476.832458
 30
0.0
 11
350.633014
 21
476.011947
 31
0.0
  0
LINE
  8
LC-001-002-----0
  6
CONTINUOUS
  5
148
 10
353.695201
 20
469.444958
 30
0.0
 11
350.633014
 21
470.265468
 31
0.0
  0
ARC
  8
LC-003-002-RND-0
  6
CONTINUOUS
  5
149
 10
350.887951
 20
475.06051
 30
0.0
 40
0.985
 50
105.0
 51
180.0
  0
LINE
  8
LC-001-002-----0
  6
CONTINUOUS
  5
14A
 10
353.695201
 20
469.444958
 30
0.0
 11
353.695201
 21
466.982458
 31
0.0
  0
ARC
  8
LC-003-002-RND-0
  6
CONTINUOUS
  5
14B
 10
350.887951
 20
481.066905
 30
0.0
 40
0.985
 50
180.0
 51
255.0
  0
ARC
  8
LC-003-002-RND-0
  6
CONTINUOUS
  5
14C
 10
350.887951
 20
471.216905
 30
0.0
 40
0.985
 50
180.0
 51
255.0
  0
LINE
  8
LC-001-002-----0
  6
CONTINUOUS
  5
14D
 10
156.202701
 20
589.58443
 30
0.0
 11
355.646732
 21
589.58443
 31
0.0
  0
LINE
  8
LC-001-002-----0
  6
CONTINUOUS
  5
14E
 10
353.695201
 20
466.982458
 30
0.0
 11
350.633014
 21
466.161947
 31
0.0
  0
LINE
  8
LC-001-002-----0
  6
CONTINUOUS
  5
14F
 10
164.821451
 20
565.64893
 30
0.0
 11
164.821451
 21
466.161947
 31
0.0
  0
LINE
  8
LC-001-002-----0
  6
CONTINUOUS
  5
150
 10
350.633014
 20
466.161947
 30
0.0
 11
345.933951
 21
466.161947
 31
0.0
  0
LINE
  8
LC-001-002-----0
  6
CONTINUOUS
  5
151
 10
139.933951
 20
617.58443
 30
0.0
 11
371.933951
 21
617.58443
 31
0.0
  0
LINE
  8
LC-001-002-----0
  6
CONTINUOUS
 62
     2
  5
152
 10
210.240073
 20
671.73
 30
0.0
 11
225.240073
 21
671.73
 31
0.0
  0
LINE
  8
LC-001-002-----0
  6
CONTINUOUS
 62
     2
  5
153
 10
210.240073
 20
686.73
 30
0.0
 11
210.240073
 21
671.73
 31
0.0
  0
LINE
  8
LC-001-002-----0
  6
CONTINUOUS
 62
     2
  5
154
 10
225.240073
 20
686.73
 30
0.0
 11
225.240073
 21
671.73
 31
0.0
  0
LINE
  8
LC-001-002-----0
  6
CONTINUOUS
 62
     2
  5
155
 10
210.240073
 20
686.73
 30
0.0
 11
225.240073
 21
686.73
 31
0.0
  0
ARC
  8
LC-001-002-----0
  6
CONTINUOUS
  5
156
 10
152.183951
 20
585.006806
 30
0.0
 40
2.25
 50
180.0
 51
0.0
  0
ARC
  8
LC-001-002-----0
  6
CONTINUOUS
  5
157
 10
152.183951
 20
587.08443
 30
0.0
 40
2.25
 50
0.0
 51
180.0
  0
LINE
  8
LC-001-002-----0
  6
CONTINUOUS
  5
158
 10
154.433951
 20
587.08443
 30
0.0
 11
154.433951
 21
585.006806
 31
0.0
  0
LINE
  8
LC-001-002-----0
  6
CONTINUOUS
  5
159
 10
161.234888
 20
476.011947
 30
0.0
 11
158.172701
 21
476.832458
 31
0.0
  0
LINE
  8
LC-001-002-----0
  6
CONTINUOUS
  5
15A
 10
158.172701
 20
469.444958
 30
0.0
 11
161.234888
 21
470.265468
 31
0.0
  0
LINE
  8
LC-001-002-----0
  6
CONTINUOUS
  5
15B
 10
349.902951
 20
471.216905
 30
0.0
 11
349.902951
 21
475.06051
 31
0.0
  0
LINE
  8
LC-001-002-----0
  6
CONTINUOUS
  5
15C
 10
157.187701
 20
589.58443
 30
0.0
 11
157.187701
 21
568.60393
 31
0.0
  0
LINE
  8
LC-001-002-----0
  6
CONTINUOUS
  5
15D
 10
149.933951
 20
560.58443
 30
0.0
 11
149.933951
 21
587.58443
 31
0.0
  0
ARC
  8
LC-003-002-RND-0
  6
CONTINUOUS
  5
15E
 10
151.933951
 20
587.58443
 30
0.0
 40
2.0
 50
90.0
 51
180.0
  0
LINE
  8
LC-001-002-----0
  6
CONTINUOUS
  5
15F
 10
151.933951
 20
589.58443
 30
0.0
 11
156.202701
 21
589.58443
 31
0.0
  0
ARC
  8
LC-003-002-RND-0
  6
CONTINUOUS
  5
160
 10
135.933951
 20
584.58443
 30
0.0
 40
3.0
 50
0.0
 51
90.0
  0
LINE
  8
LC-001-002-----0
  6
CONTINUOUS
  5
161
 10
138.933951
 20
563.58443
 30
0.0
 11
138.933951
 21
584.58443
 31
0.0
  0
ARC
  8
LC-003-002-RND-0
  6
CONTINUOUS
  5
162
 10
141.933951
 20
563.58443
 30
0.0
 40
3.0
 50
180.0
 51
270.0
  0
LINE
  8
LC-001-002-----0
  6
CONTINUOUS
  5
163
 10
125.933951
 20
590.58443
 30
0.0
 11
125.933951
 21
596.08443
 31
0.0
  0
ARC
  8
LC-003-002-RND-0
  6
CONTINUOUS
  5
164
 10
128.933951
 20
590.58443
 30
0.0
 40
3.0
 50
180.0
 51
270.0
  0
LINE
  8
LC-001-002-----0
  6
CONTINUOUS
  5
165
 10
128.933951
 20
587.58443
 30
0.0
 11
135.933951
 21
587.58443
 31
0.0
  0
LINE
  8
LC-001-002-----0
  6
CONTINUOUS
  5
166
 10
155.933951
 20
589.58443
 30
0.0
 11
155.933951
 21
594.58443
 31
0.0
  0
ARC
  8
LC-003-002-RND-0
  6
CONTINUOUS
  5
167
 10
152.933951
 20
594.58443
 30
0.0
 40
3.0
 50
0.0
 51
90.0
  0
LINE
  8
LC-001-002-----0
  6
CONTINUOUS
  5
168
 10
125.933951
 20
596.08443
 30
0.0
 11
131.297661
 21
616.102068
 31
0.0
  0
ARC
  8
LC-003-002-RND-0
  6
CONTINUOUS
  5
169
 10
133.229512
 20
615.58443
 30
0.0
 40
2.0
 50
90.0
 51
165.0
  0
LINE
  8
LC-001-002-----0
  6
CONTINUOUS
  5
16A
 10
141.933951
 20
600.58443
 30
0.0
 11
141.933951
 21
615.58443
 31
0.0
  0
LINE
  8
LC-001-002-----0
  6
CONTINUOUS
  5
16B
 10
133.229512
 20
617.58443
 30
0.0
 11
139.933951
 21
617.58443
 31
0.0
  0
LINE
  8
LC-001-002-----0
  6
CONTINUOUS
  5
16C
 10
156.941451
 20
564.66393
 30
0.0
 11
160.979951
 21
564.66393
 31
0.0
  0
ARC
  8
LC-003-002-RND-0
  6
CONTINUOUS
  5
16D
 10
156.941451
 20
567.12643
 30
0.0
 40
2.4625
 50
180.0
 51
270.0
  0
LINE
  8
LC-001-002-----0
  6
CONTINUOUS
  5
16E
 10
154.478951
 20
589.58443
 30
0.0
 11
154.478951
 21
567.12643
 31
0.0
  0
LINE
  8
LC-001-002-----0
  6
CONTINUOUS
  5
16F
 10
161.964951
 20
471.216905
 30
0.0
 11
161.964951
 21
475.06051
 31
0.0
  0
ARC
  8
LC-003-002-RND-0
  6
CONTINUOUS
  5
170
 10
160.979951
 20
475.06051
 30
0.0
 40
0.985
 50
0.0
 51
75.0
  0
ARC
  8
LC-003-002-RND-0
  6
CONTINUOUS
  5
171
 10
160.979951
 20
471.216905
 30
0.0
 40
0.985
 50
285.0
 51
0.0
  0
LINE
  8
LC-001-002-----0
  6
CONTINUOUS
  5
172
 10
361.933951
 20
560.58443
 30
0.0
 11
361.933951
 21
587.58443
 31
0.0
  0
LINE
  8
LC-001-002-----0
  6
CONTINUOUS
  5
173
 10
385.933951
 20
590.58443
 30
0.0
 11
385.933951
 21
596.08443
 31
0.0
  0
LINE
  8
LC-001-002-----0
  6
CONTINUOUS
  5
174
 10
385.933951
 20
596.08443
 30
0.0
 11
380.570241
 21
616.102068
 31
0.0
  0
LINE
  8
LC-001-002-----0
  6
CONTINUOUS
  5
175
 10
355.933951
 20
589.58443
 30
0.0
 11
355.933951
 21
594.58443
 31
0.0
  0
ARC
  8
LC-003-002-RND-0
  6
CONTINUOUS
  5
176
 10
382.933951
 20
590.58443
 30
0.0
 40
3.0
 50
270.0
 51
0.0
  0
LINE
  8
LC-001-002-----0
  6
CONTINUOUS
  5
177
 10
372.933951
 20
563.58443
 30
0.0
 11
372.933951
 21
584.58443
 31
0.0
  0
ARC
  8
LC-003-002-RND-0
  6
CONTINUOUS
  5
178
 10
375.933951
 20
584.58443
 30
0.0
 40
3.0
 50
90.0
 51
180.0
  0
ARC
  8
LC-003-002-RND-0
  6
CONTINUOUS
  5
179
 10
369.933951
 20
563.58443
 30
0.0
 40
3.0
 50
270.0
 51
0.0
  0
ARC
  8
LC-003-002-RND-0
  6
CONTINUOUS
  5
17A
 10
366.933951
 20
600.58443
 30
0.0
 40
3.0
 50
270.0
 51
0.0
  0
LINE
  8
LC-001-002-----0
  6
CONTINUOUS
  5
17B
 10
369.933951
 20
600.58443
 30
0.0
 11
369.933951
 21
615.58443
 31
0.0
  0
ARC
  8
LC-003-002-RND-0
  6
CONTINUOUS
  5
17C
 10
378.638389
 20
615.58443
 30
0.0
 40
2.0
 50
15.0
 51
90.0
  0
LINE
  8
LC-001-002-----0
  6
CONTINUOUS
  5
17D
 10
382.933951
 20
587.58443
 30
0.0
 11
375.933951
 21
587.58443
 31
0.0
  0
ARC
  8
LC-003-002-RND-0
  6
CONTINUOUS
  5
17E
 10
359.933951
 20
587.58443
 30
0.0
 40
2.0
 50
0.0
 51
90.0
  0
LINE
  8
LC-001-002-----0
  6
CONTINUOUS
  5
17F
 10
359.933951
 20
589.58443
 30
0.0
 11
355.665201
 21
589.58443
 31
0.0
  0
LINE
  8
LC-001-002-----0
  6
CONTINUOUS
  5
180
 10
357.433951
 20
587.08443
 30
0.0
 11
357.433951
 21
585.006806
 31
0.0
  0
ARC
  8
LC-001-002-----0
  6
CONTINUOUS
  5
181
 10
359.683951
 20
587.08443
 30
0.0
 40
2.25
 50
0.0
 51
180.0
  0
ARC
  8
LC-001-002-----0
  6
CONTINUOUS
  5
182
 10
359.683951
 20
585.006806
 30
0.0
 40
2.25
 50
180.0
 51
0.0
  0
ARC
  8
LC-003-002-RND-0
  6
CONTINUOUS
  5
183
 10
371.933951
 20
615.58443
 30
0.0
 40
2.0
 50
90.0
 51
180.0
  0
LINE
  8
LC-001-002-----0
  6
CONTINUOUS
  5
184
 10
378.638389
 20
617.58443
 30
0.0
 11
371.933951
 21
617.58443
 31
0.0
  0
ARC
  8
LC-003-002-RND-0
  6
CONTINUOUS
  5
185
 10
145.933951
 20
600.58443
 30
0.0
 40
3.0
 50
180.0
 51
270.0
  0
ARC
  8
LC-003-002-RND-0
  6
CONTINUOUS
  5
186
 10
139.933951
 20
615.58443
 30
0.0
 40
2.0
 50
0.0
 51
90.0
  0
LINE
  8
LC-001-002-----0
  6
CONTINUOUS
  5
187
 10
141.933951
 20
560.58443
 30
0.0
 11
161.964951
 21
560.58443
 31
0.0
  0
LINE
  8
LC-001-002-----0
  6
CONTINUOUS
  5
188
 10
369.933951
 20
560.58443
 30
0.0
 11
349.902951
 21
560.58443
 31
0.0
  0
LINE
  8
LC-001-002-----0
  6
CONTINUOUS
  5
189
 10
357.388951
 20
589.58443
 30
0.0
 11
357.388951
 21
567.12643
 31
0.0
  0
LINE
  8
LC-001-002-----0
  6
CONTINUOUS
  5
18A
 10
354.680201
 20
589.58443
 30
0.0
 11
354.680201
 21
568.60393
 31
0.0
  0
LINE
  8
LC-001-002-----0
  6
DASHDOT
 62
     2
  5
18C
 10
255.933951
 20
617.58443
 30
0.0
 11
255.933951
 21
466.161947
 31
0.0
  0
ARC
  8
LC-003-002-RND-0
  6
CONTINUOUS
  5
18D
 10
358.933951
 20
594.58443
 30
0.0
 40
3.0
 50
90.0
 51
180.0
  0
LINE
  8
LC-001-002-----0
  6
CONTINUOUS
  5
18E
 10
144.933951
 20
597.58443
 30
0.0
 11
366.933951
 21
597.58443
 31
0.0
  0
ENDSEC
  0
EOF
