  0
SECTION
  2
HEADER
  9
$ACADVER
  1
AC1009
  9
$INSBASE
 10
0.0
 20
0.0
 30
0.0
  9
$EXTMIN
 10
0.0
 20
0.0
 30
0.0
  9
$EXTMAX
 10
840.0
 20
594.0
 30
0.0
  9
$LIMMIN
 10
0.0
 20
0.0
  9
$LIMMAX
 10
840.0
 20
594.0
  9
$ORTHOMODE
 70
     0
  9
$REGENMODE
 70
     1
  9
$FILLMODE
 70
     1
  9
$QTEXTMODE
 70
     0
  9
$MIRRTEXT
 70
     1
  9
$DRAGMODE
 70
     2
  9
$LTSCALE
 40
2.0
  9
$OSMODE
 70
     0
  9
$ATTMODE
 70
     1
  9
$TEXTSIZE
 40
0.2
  9
$TRACEWID
 40
0.05
  9
$TEXTSTYLE
  7
STANDARD
  9
$CLAYER
  8
0
  9
$CELTYPE
  6
BYLAYER
  9
$CECOLOR
 62
     7
  9
$DIMSCALE
 40
2.0
  9
$DIMASZ
 40
3.5
  9
$DIMEXO
 40
0.0625
  9
$DIMDLI
 40
0.38
  9
$DIMRND
 40
0.0
  9
$DIMDLE
 40
0.0
  9
$DIMEXE
 40
0.18
  9
$DIMTP
 40
0.0
  9
$DIMTM
 40
0.0
  9
$DIMTXT
 40
3.5
  9
$DIMCEN
 40
0.09
  9
$DIMTSZ
 40
0.0
  9
$DIMTOL
 70
     0
  9
$DIMLIM
 70
     0
  9
$DIMTIH
 70
     1
  9
$DIMTOH
 70
     1
  9
$DIMSE1
 70
     0
  9
$DIMSE2
 70
     0
  9
$DIMTAD
 70
     1
  9
$DIMZIN
 70
     0
  9
$DIMBLK
  1

  9
$DIMASO
 70
     1
  9
$DIMSHO
 70
     1
  9
$DIMPOST
  1

  9
$DIMAPOST
  1

  9
$DIMALT
 70
     0
  9
$DIMALTD
 70
     2
  9
$DIMALTF
 40
25.4
  9
$DIMLFAC
 40
1.0
  9
$DIMTOFL
 70
     0
  9
$DIMTVP
 40
0.0
  9
$DIMTIX
 70
     0
  9
$DIMSOXD
 70
     0
  9
$DIMSAH
 70
     0
  9
$DIMBLK1
  1

  9
$DIMBLK2
  1

  9
$DIMSTYLE
  2
STANDARD
  9
$DIMCLRD
 70
     0
  9
$DIMCLRE
 70
     0
  9
$DIMCLRT
 70
     0
  9
$DIMTFAC
 40
1.0
  9
$DIMGAP
 40
0.09
  9
$LUNITS
 70
     2
  9
$LUPREC
 70
     2
  9
$AXISMODE
 70
     0
  9
$AXISUNIT
 10
0.0
 20
0.0
  9
$SKETCHINC
 40
0.1
  9
$FILLETRAD
 40
0.0
  9
$AUNITS
 70
     0
  9
$AUPREC
 70
     0
  9
$MENU
  1
acad
  9
$ELEVATION
 40
0.0
  9
$PELEVATION
 40
0.0
  9
$THICKNESS
 40
0.0
  9
$LIMCHECK
 70
     0
  9
$BLIPMODE
 70
     1
  9
$CHAMFERA
 40
0.0
  9
$CHAMFERB
 40
0.0
  9
$SKPOLY
 70
     0
  9
$TDCREATE
 40
0.000000000
  9
$TDUPDATE
 40
0.000000000
  9
$TDINDWG
 40
0.0000000000
  9
$TDUSRTIMER
 40
0.0000000000
  9
$USRTIMER
 70
     1
  9
$ANGBASE
 50
0.0
  9
$ANGDIR
 70
     0
  9
$PDMODE
 70
     0
  9
$PDSIZE
 40
0.0
  9
$PLINEWID
 40
0.0
  9
$COORDS
 70
     0
  9
$SPLFRAME
 70
     0
  9
$SPLINETYPE
 70
     6
  9
$SPLINESEGS
 70
     8
  9
$ATTDIA
 70
     0
  9
$ATTREQ
 70
     1
  9
$HANDLING
 70
     1
  9
$HANDSEED
  5
1A9
  9
$SURFTAB1
 70
     6
  9
$SURFTAB2
 70
     6
  9
$SURFTYPE
 70
     6
  9
$SURFU
 70
     6
  9
$SURFV
 70
     6
  9
$UCSNAME
  2

  9
$UCSORG
 10
0.0
 20
0.0
 30
0.0
  9
$UCSXDIR
 10
1.0
 20
0.0
 30
0.0
  9
$UCSYDIR
 10
0.0
 20
1.0
 30
0.0
  9
$PUCSNAME
  2

  9
$PUCSORG
 10
0.0
 20
0.0
 30
0.0
  9
$PUCSXDIR
 10
1.0
 20
0.0
 30
0.0
  9
$PUCSYDIR
 10
0.0
 20
1.0
 30
0.0
  9
$USERI1
 70
     0
  9
$USERI2
 70
     0
  9
$USERI3
 70
     0
  9
$USERI4
 70
     0
  9
$USERI5
 70
     0
  9
$USERR1
 40
0.0
  9
$USERR2
 40
0.0
  9
$USERR3
 40
0.0
  9
$USERR4
 40
0.0
  9
$USERR5
 40
0.0
  9
$WORLDVIEW
 70
     1
  9
$SHADEDGE
 70
     3
  9
$SHADEDIF
 70
    70
  9
$TILEMODE
 70
     1
  9
$MAXACTVP
 70
    16
  9
$PINSBASE
 10
0.0
 20
0.0
 30
0.0
  9
$PLIMCHECK
 70
     0
  9
$PEXTMIN
 10
1.000000E+20
 20
1.000000E+20
 30
1.000000E+20
  9
$PEXTMAX
 10
-1.000000E+20
 20
-1.000000E+20
 30
-1.000000E+20
  9
$PLIMMIN
 10
0.0
 20
0.0
  9
$PLIMMAX
 10
840.0
 20
594.0
  9
$UNITMODE
 70
     0
  9
$VISRETAIN
 70
     0
  9
$PLINEGEN
 70
     1
  9
$PSLTSCALE
 70
     0
  9
$TREEDEPTH
 70
  3020
  9
$DWGCODEPAGE
  3
dos850
  0
ENDSEC
  0
SECTION
  2
TABLES
  0
TABLE
  2
VPORT
 70
     1
  0
VPORT
  2
*ACTIVE
 70
     0
 10
0.0
 20
0.0
 11
1.0
 21
1.0
 12
420.0
 22
297.0
 13
0.0
 23
0.0
 14
1.0
 24
1.0
 15
0.0
 25
0.0
 16
0.0
 26
0.0
 36
1.0
 17
0.0
 27
0.0
 37
0.0
 40
594.0
 41
1.604229
 42
50.0
 43
0.0
 44
0.0
 50
0.0
 51
0.0
 71
     0
 72
   100
 73
     1
 74
     1
 75
     0
 76
     0
 77
     0
 78
     0
  0
ENDTAB
  0
TABLE
  2
LTYPE
 70
     3
  0
LTYPE
  2
CONTINUOUS
 70
    64
  3
Solid line
 72
    65
 73
     0
 40
0.0
  0
LTYPE
  2
DASHED
 70
    64
  3
__ __ __ __ __
 72
    65
 73
     2
 40
6.25
 49
5.0
 49
-1.25
  0
LTYPE
  2
DASHDOT
 70
    64
  3
__ . __ . __ . __ . __
 72
    65
 73
     4
 40
7.5
 49
5.0
 49
-1.25
 49
0.0
 49
-1.25
  0
ENDTAB
  0
TABLE
  2
LAYER
 70
     9
  0
LAYER
  2
0
 70
     0
 62
     7
  6
CONTINUOUS
  0
LAYER
  2
LC-INFO-1-2-MM-A3-0
 70
     1
 62
    -1
  6
CONTINUOUS
  0
LAYER
  2
LC-003-005-----0
 70
     0
 62
     2
  6
CONTINUOUS
  0
LAYER
  2
LC-005-003-MTH-0
 70
     0
 62
     2
  6
CONTINUOUS
  0
LAYER
  2
LC-006-003-MTG-0
 70
     0
 62
     2
  6
CONTINUOUS
  0
LAYER
  2
LC-004-003-----0
 70
     0
 62
     2
  6
CONTINUOUS
  0
LAYER
  2
LC-001-002-----0
 70
     0
 62
     1
  6
CONTINUOUS
  0
LAYER
  2
LC-002-002-RND-0
 70
     0
 62
     1
  6
CONTINUOUS
  0
LAYER
  2
LC-000
 70
     0
 62
     7
  6
CONTINUOUS
  0
ENDTAB
  0
TABLE
  2
STYLE
 70
     4
  0
STYLE
  2
STANDARD
 70
     0
 40
0.0
 41
1.0
 50
0.0
 71
     0
 42
0.0
  3
txt
  4

  0
STYLE
  2
LC-STANDARD
 70
    64
 40
0.0
 41
1.0
 50
0.0
 71
     0
 42
3.5
  3
MONOTXT
  4

  0
STYLE
  2
LC-TXTSTYLE-150-400-0-0-D2
 70
    64
 40
0.0
 41
1.0
 50
15.0
 71
     0
 42
3.5
  3
MONOTXT
  4

  0
STYLE
  2
LC-TXTSTYLE-150-400-0-0-D3
 70
    64
 40
0.0
 41
1.0
 50
15.0
 71
     0
 42
3.5
  3
LC-STANDARD
  4

  0
ENDTAB
  0
TABLE
  2
VIEW
 70
     0
  0
ENDTAB
  0
TABLE
  2
UCS
 70
     0
  0
ENDTAB
  0
TABLE
  2
APPID
 70
     1
  0
APPID
  2
ACAD
 70
     0
  0
ENDTAB
  0
TABLE
  2
DIMSTYLE
 70
     3
  0
DIMSTYLE
  2
STANDARD
 70
     0
  3

  4

  5

  6

  7

 40
1.0
 41
0.18
 42
0.0625
 43
0.38
 44
0.18
 45
0.0
 46
0.0
 47
0.0
 48
0.0
 71
     0
 72
     0
 73
     1
 74
     1
 75
     0
 76
     0
 77
     0
 78
     0
140
0.18
141
0.09
142
0.0
143
25.4
144
1.0
145
0.0
146
1.0
147
0.09
170
     0
171
     2
172
     0
173
     0
174
     0
175
     0
176
     0
177
     0
178
     0
  0
DIMSTYLE
  2
LC-STANDARD
 70
     0
  3

  4

  5

  6

  7

 40
1.0
 41
3.5
 42
0.0
 43
7.5
 44
1.8
 45
0.0
 46
0.0
 47
0.0
 48
0.0
 71
     0
 72
     0
 73
     0
 74
     0
 75
     0
 76
     0
 77
     1
 78
     8
140
3.5
141
0.0
142
0.0
143
25.4
144
1.0
145
0.0
146
0.71
147
1.5
170
     0
171
     2
172
     1
173
     0
174
     0
175
     0
176
     0
177
     0
178
     3
  0
DIMSTYLE
  2
LC-DIM-L-0090-02-02
 70
     0
  3

  4

  5

  6

  7

 40
2.0
 41
3.5
 42
0.0
 43
7.5
 44
1.8
 45
0.0
 46
0.0
 47
0.0
 48
0.0
 71
     0
 72
     0
 73
     0
 74
     0
 75
     0
 76
     0
 77
     1
 78
     8
140
9.0
141
0.0
142
0.0
143
25.4
144
1.0
145
0.0
146
0.71
147
1.5
170
     0
171
     2
172
     0
173
     0
174
     0
175
     0
176
     2
177
     2
178
     6
  0
ENDTAB
  0
ENDSEC
  0
SECTION
  2
BLOCKS
  0
BLOCK
  8
0
  5
23
  2
*X0
 70
    65
 10
317.567411
 20
400.58895
 30
0.0
  3
*X0
  0
LINE
  8
LC-003-005-----0
  6
CONTINUOUS
  5
25
 10
320.484039
 20
400.81137
 30
0.0
 11
321.344992
 21
401.672322
 31
0.0
  0
LINE
  8
LC-003-005-----0
  6
CONTINUOUS
  5
26
 10
320.033954
 20
400.644127
 30
0.0
 11
321.512235
 21
402.122408
 31
0.0
  0
LINE
  8
LC-003-005-----0
  6
CONTINUOUS
  5
27
 10
319.700358
 20
400.593374
 30
0.0
 11
321.562988
 21
402.456004
 31
0.0
  0
LINE
  8
LC-003-005-----0
  6
CONTINUOUS
  5
28
 10
319.436224
 20
400.612082
 30
0.0
 11
321.567411
 21
402.74327
 31
0.0
  0
LINE
  8
LC-003-005-----0
  6
CONTINUOUS
  5
29
 10
319.195778
 20
400.654479
 30
0.0
 11
321.567411
 21
403.026113
 31
0.0
  0
LINE
  8
LC-003-005-----0
  6
CONTINUOUS
  5
2A
 10
318.955332
 20
400.696876
 30
0.0
 11
321.567411
 21
403.308955
 31
0.0
  0
LINE
  8
LC-003-005-----0
  6
CONTINUOUS
  5
2B
 10
318.742575
 20
400.766961
 30
0.0
 11
321.567411
 21
403.591798
 31
0.0
  0
LINE
  8
LC-003-005-----0
  6
CONTINUOUS
  5
2C
 10
318.556195
 20
400.863424
 30
0.0
 11
321.567411
 21
403.874641
 31
0.0
  0
LINE
  8
LC-003-005-----0
  6
CONTINUOUS
  5
2D
 10
318.385483
 20
400.975555
 30
0.0
 11
321.567411
 21
404.157483
 31
0.0
  0
LINE
  8
LC-003-005-----0
  6
CONTINUOUS
  5
2E
 10
318.229464
 20
401.102378
 30
0.0
 11
321.562429
 21
404.435344
 31
0.0
  0
LINE
  8
LC-003-005-----0
  6
CONTINUOUS
  5
2F
 10
318.087682
 20
401.243439
 30
0.0
 11
321.528932
 21
404.68469
 31
0.0
  0
LINE
  8
LC-003-005-----0
  6
CONTINUOUS
  5
30
 10
317.960126
 20
401.398726
 30
0.0
 11
321.470544
 21
404.909145
 31
0.0
  0
LINE
  8
LC-003-005-----0
  6
CONTINUOUS
  5
31
 10
317.847228
 20
401.568671
 30
0.0
 11
321.391965
 21
405.113408
 31
0.0
  0
LINE
  8
LC-003-005-----0
  6
CONTINUOUS
  5
32
 10
317.749934
 20
401.75422
 30
0.0
 11
321.29598
 21
405.300266
 31
0.0
  0
LINE
  8
LC-003-005-----0
  6
CONTINUOUS
  5
33
 10
317.669875
 20
401.957004
 30
0.0
 11
321.18429
 21
405.471418
 31
0.0
  0
LINE
  8
LC-003-005-----0
  6
CONTINUOUS
  5
34
 10
317.60973
 20
402.179701
 30
0.0
 11
321.057886
 21
405.627857
 31
0.0
  0
LINE
  8
LC-003-005-----0
  6
CONTINUOUS
  5
35
 10
317.573995
 20
402.426808
 30
0.0
 11
320.917238
 21
405.770052
 31
0.0
  0
LINE
  8
LC-003-005-----0
  6
CONTINUOUS
  5
36
 10
317.567411
 20
402.703068
 30
0.0
 11
320.76237
 21
405.898027
 31
0.0
  0
LINE
  8
LC-003-005-----0
  6
CONTINUOUS
  5
37
 10
317.567411
 20
402.985911
 30
0.0
 11
320.592864
 21
406.011363
 31
0.0
  0
LINE
  8
LC-003-005-----0
  6
CONTINUOUS
  5
38
 10
317.567411
 20
403.268753
 30
0.0
 11
320.40779
 21
406.109131
 31
0.0
  0
LINE
  8
LC-003-005-----0
  6
CONTINUOUS
  5
39
 10
317.567411
 20
403.551596
 30
0.0
 11
320.20554
 21
406.189724
 31
0.0
  0
LINE
  8
LC-003-005-----0
  6
CONTINUOUS
  5
3A
 10
317.567411
 20
403.834439
 30
0.0
 11
319.983475
 21
406.250502
 31
0.0
  0
LINE
  8
LC-003-005-----0
  6
CONTINUOUS
  5
3B
 10
317.567411
 20
404.117281
 30
0.0
 11
319.737171
 21
406.287041
 31
0.0
  0
LINE
  8
LC-003-005-----0
  6
CONTINUOUS
  5
3C
 10
317.570375
 20
404.403087
 30
0.0
 11
319.438882
 21
406.271595
 31
0.0
  0
LINE
  8
LC-003-005-----0
  6
CONTINUOUS
  5
3D
 10
317.615747
 20
404.731303
 30
0.0
 11
319.09549
 21
406.211046
 31
0.0
  0
LINE
  8
LC-003-005-----0
  6
CONTINUOUS
  5
3E
 10
317.767197
 20
405.165595
 30
0.0
 11
318.696075
 21
406.094473
 31
0.0
  0
ENDBLK
  8
0
  5
3F
  0
BLOCK
  8
0
  5
41
  2
*D1
 70
    65
 10
0.0
 20
0.0
 30
0.0
  3
*D1
  0
LINE
  8
LC-005-003-MTH-0
  6
CONTINUOUS
  5
43
 10
146.567411
 20
412.441604
 30
0.0
 11
146.567411
 21
444.8
 31
0.0
  0
LINE
  8
LC-005-003-MTH-0
  6
CONTINUOUS
  5
44
 10
324.567411
 20
412.441604
 30
0.0
 11
324.567411
 21
444.8
 31
0.0
  0
LINE
  8
LC-006-003-MTG-0
  6
CONTINUOUS
  5
46
 10
146.567411
 20
434.0
 30
0.0
 11
324.567411
 21
434.0
 31
0.0
  0
LINE
  8
LC-004-003-----0
  6
CONTINUOUS
  5
48
 10
164.413419
 20
436.349471
 30
0.0
 11
146.567411
 21
434.0
 31
0.0
  0
LINE
  8
LC-004-003-----0
  6
CONTINUOUS
  5
49
 10
146.567411
 20
434.0
 30
0.0
 11
164.413419
 21
431.650529
 31
0.0
  0
LINE
  8
LC-004-003-----0
  6
CONTINUOUS
  5
4A
 10
164.413419
 20
431.650529
 30
0.0
 11
164.413419
 21
436.349471
 31
0.0
  0
LINE
  8
LC-004-003-----0
  6
CONTINUOUS
  5
4B
 10
164.453457
 20
435.738609
 30
0.0
 11
151.247411
 21
434.0
 31
0.0
  0
LINE
  8
LC-004-003-----0
  6
CONTINUOUS
  5
4C
 10
151.247411
 20
434.0
 30
0.0
 11
164.453457
 21
432.261391
 31
0.0
  0
LINE
  8
LC-004-003-----0
  6
CONTINUOUS
  5
4D
 10
164.493495
 20
435.127746
 30
0.0
 11
155.927411
 21
434.0
 31
0.0
  0
LINE
  8
LC-004-003-----0
  6
CONTINUOUS
  5
4E
 10
155.927411
 20
434.0
 30
0.0
 11
164.493495
 21
432.872254
 31
0.0
  0
LINE
  8
LC-004-003-----0
  6
CONTINUOUS
  5
4F
 10
164.533533
 20
434.516884
 30
0.0
 11
160.607411
 21
434.0
 31
0.0
  0
LINE
  8
LC-004-003-----0
  6
CONTINUOUS
  5
50
 10
160.607411
 20
434.0
 30
0.0
 11
164.533533
 21
433.483116
 31
0.0
  0
LINE
  8
LC-004-003-----0
  6
CONTINUOUS
  5
51
 10
306.721404
 20
431.650529
 30
0.0
 11
324.567411
 21
434.0
 31
0.0
  0
LINE
  8
LC-004-003-----0
  6
CONTINUOUS
  5
52
 10
324.567411
 20
434.0
 30
0.0
 11
306.721404
 21
436.349471
 31
0.0
  0
LINE
  8
LC-004-003-----0
  6
CONTINUOUS
  5
53
 10
306.721404
 20
436.349471
 30
0.0
 11
306.721404
 21
431.650529
 31
0.0
  0
LINE
  8
LC-004-003-----0
  6
CONTINUOUS
  5
54
 10
306.681366
 20
432.261391
 30
0.0
 11
319.887411
 21
434.0
 31
0.0
  0
LINE
  8
LC-004-003-----0
  6
CONTINUOUS
  5
55
 10
319.887411
 20
434.0
 30
0.0
 11
306.681366
 21
435.738609
 31
0.0
  0
LINE
  8
LC-004-003-----0
  6
CONTINUOUS
  5
56
 10
306.641328
 20
432.872254
 30
0.0
 11
315.207411
 21
434.0
 31
0.0
  0
LINE
  8
LC-004-003-----0
  6
CONTINUOUS
  5
57
 10
315.207411
 20
434.0
 30
0.0
 11
306.641328
 21
435.127746
 31
0.0
  0
LINE
  8
LC-004-003-----0
  6
CONTINUOUS
  5
58
 10
306.60129
 20
433.483116
 30
0.0
 11
310.527411
 21
434.0
 31
0.0
  0
LINE
  8
LC-004-003-----0
  6
CONTINUOUS
  5
59
 10
310.527411
 20
434.0
 30
0.0
 11
306.60129
 21
434.516884
 31
0.0
  0
TEXT
  8
LC-004-003-----0
  6
CONTINUOUS
 62
     6
  5
5B
 10
213.871318
 20
444.431999
 30
0.0
 40
18.0
  1
Ø178
 41
0.9
 51
15.0
  7
LC-TXTSTYLE-150-400-0-0-D0
 72
     1
 11
238.362657
 21
444.431999
 31
0.0
  0
ENDBLK
  8
0
  5
5C
  0
BLOCK
  8
0
  5
5E
  2
*D2
 70
    65
 10
0.0
 20
0.0
 30
0.0
  3
*D2
  0
LINE
  8
LC-005-003-MTH-0
  6
CONTINUOUS
  5
5F
 10
246.675071
 20
300.520377
 30
0.0
 11
374.8
 21
300.520377
 31
0.0
  0
LINE
  8
LC-005-003-MTH-0
  6
CONTINUOUS
  5
60
 10
323.067411
 20
413.941604
 30
0.0
 11
374.8
 21
413.941604
 31
0.0
  0
LINE
  8
LC-006-003-MTG-0
  6
CONTINUOUS
  5
61
 10
364.0
 20
300.520377
 30
0.0
 11
364.0
 21
413.941604
 31
0.0
  0
LINE
  8
LC-004-003-----0
  6
CONTINUOUS
  5
62
 10
361.650529
 20
318.366384
 30
0.0
 11
364.0
 21
300.520377
 31
0.0
  0
LINE
  8
LC-004-003-----0
  6
CONTINUOUS
  5
63
 10
364.0
 20
300.520377
 30
0.0
 11
366.349471
 21
318.366384
 31
0.0
  0
LINE
  8
LC-004-003-----0
  6
CONTINUOUS
  5
64
 10
366.349471
 20
318.366384
 30
0.0
 11
361.650529
 21
318.366384
 31
0.0
  0
LINE
  8
LC-004-003-----0
  6
CONTINUOUS
  5
65
 10
362.261391
 20
318.406422
 30
0.0
 11
364.0
 21
305.200377
 31
0.0
  0
LINE
  8
LC-004-003-----0
  6
CONTINUOUS
  5
66
 10
364.0
 20
305.200377
 30
0.0
 11
365.738609
 21
318.406422
 31
0.0
  0
LINE
  8
LC-004-003-----0
  6
CONTINUOUS
  5
67
 10
362.872254
 20
318.44646
 30
0.0
 11
364.0
 21
309.880377
 31
0.0
  0
LINE
  8
LC-004-003-----0
  6
CONTINUOUS
  5
68
 10
364.0
 20
309.880377
 30
0.0
 11
365.127746
 21
318.44646
 31
0.0
  0
LINE
  8
LC-004-003-----0
  6
CONTINUOUS
  5
69
 10
363.483116
 20
318.486499
 30
0.0
 11
364.0
 21
314.560377
 31
0.0
  0
LINE
  8
LC-004-003-----0
  6
CONTINUOUS
  5
6A
 10
364.0
 20
314.560377
 30
0.0
 11
364.516884
 21
318.486499
 31
0.0
  0
LINE
  8
LC-004-003-----0
  6
CONTINUOUS
  5
6B
 10
366.349471
 20
396.095597
 30
0.0
 11
364.0
 21
413.941604
 31
0.0
  0
LINE
  8
LC-004-003-----0
  6
CONTINUOUS
  5
6C
 10
364.0
 20
413.941604
 30
0.0
 11
361.650529
 21
396.095597
 31
0.0
  0
LINE
  8
LC-004-003-----0
  6
CONTINUOUS
  5
6D
 10
361.650529
 20
396.095597
 30
0.0
 11
366.349471
 21
396.095597
 31
0.0
  0
LINE
  8
LC-004-003-----0
  6
CONTINUOUS
  5
6E
 10
365.738609
 20
396.055559
 30
0.0
 11
364.0
 21
409.261604
 31
0.0
  0
LINE
  8
LC-004-003-----0
  6
CONTINUOUS
  5
6F
 10
364.0
 20
409.261604
 30
0.0
 11
362.261391
 21
396.055559
 31
0.0
  0
LINE
  8
LC-004-003-----0
  6
CONTINUOUS
  5
70
 10
365.127746
 20
396.015521
 30
0.0
 11
364.0
 21
404.581604
 31
0.0
  0
LINE
  8
LC-004-003-----0
  6
CONTINUOUS
  5
71
 10
364.0
 20
404.581604
 30
0.0
 11
362.872254
 21
396.015521
 31
0.0
  0
LINE
  8
LC-004-003-----0
  6
CONTINUOUS
  5
72
 10
364.516884
 20
395.975483
 30
0.0
 11
364.0
 21
399.901604
 31
0.0
  0
LINE
  8
LC-004-003-----0
  6
CONTINUOUS
  5
73
 10
364.0
 20
399.901604
 30
0.0
 11
363.483116
 21
395.975483
 31
0.0
  0
TEXT
  8
LC-004-003-----0
  6
CONTINUOUS
 62
     6
  5
74
 10
353.568001
 20
340.892378
 30
0.0
 40
18.0
  1
115
 50
90.0
 51
15.0
  7
LC-TXTSTYLE-150-400-0-0-D0
 72
     1
 11
353.568001
 21
360.026236
 31
0.0
  0
ENDBLK
  8
0
  5
75
  0
BLOCK
  8
0
  5
77
  2
*X3
 70
    65
 10
149.567411
 20
400.58895
 30
0.0
  3
*X3
  0
LINE
  8
LC-003-005-----0
  6
CONTINUOUS
  5
78
 10
152.466566
 20
400.802467
 30
0.0
 11
153.353894
 21
401.689796
 31
0.0
  0
LINE
  8
LC-003-005-----0
  6
CONTINUOUS
  5
79
 10
152.056434
 20
400.675178
 30
0.0
 11
153.514895
 21
402.133639
 31
0.0
  0
LINE
  8
LC-003-005-----0
  6
CONTINUOUS
  5
7A
 10
151.713042
 20
400.614629
 30
0.0
 11
153.563577
 21
402.465164
 31
0.0
  0
LINE
  8
LC-003-005-----0
  6
CONTINUOUS
  5
7B
 10
151.410672
 20
400.595102
 30
0.0
 11
153.567411
 21
402.751841
 31
0.0
  0
LINE
  8
LC-003-005-----0
  6
CONTINUOUS
  5
7C
 10
151.162993
 20
400.630266
 30
0.0
 11
153.567411
 21
403.034684
 31
0.0
  0
LINE
  8
LC-003-005-----0
  6
CONTINUOUS
  5
7D
 10
150.939846
 20
400.689961
 30
0.0
 11
153.567411
 21
403.317527
 31
0.0
  0
LINE
  8
LC-003-005-----0
  6
CONTINUOUS
  5
7E
 10
150.736682
 20
400.76964
 30
0.0
 11
153.567411
 21
403.600369
 31
0.0
  0
LINE
  8
LC-003-005-----0
  6
CONTINUOUS
  5
7F
 10
150.550798
 20
400.866598
 30
0.0
 11
153.567411
 21
403.883212
 31
0.0
  0
LINE
  8
LC-003-005-----0
  6
CONTINUOUS
  5
80
 10
150.380542
 20
400.979186
 30
0.0
 11
153.567411
 21
404.166055
 31
0.0
  0
LINE
  8
LC-003-005-----0
  6
CONTINUOUS
  5
81
 10
150.224959
 20
401.106445
 30
0.0
 11
153.561848
 21
404.443334
 31
0.0
  0
LINE
  8
LC-003-005-----0
  6
CONTINUOUS
  5
82
 10
150.083606
 20
401.247935
 30
0.0
 11
153.527498
 21
404.691827
 31
0.0
  0
LINE
  8
LC-003-005-----0
  6
CONTINUOUS
  5
83
 10
149.956486
 20
401.403657
 30
0.0
 11
153.468442
 21
404.915613
 31
0.0
  0
LINE
  8
LC-003-005-----0
  6
CONTINUOUS
  5
84
 10
149.844044
 20
401.574058
 30
0.0
 11
153.389301
 21
405.119315
 31
0.0
  0
LINE
  8
LC-003-005-----0
  6
CONTINUOUS
  5
85
 10
149.747244
 20
401.760101
 30
0.0
 11
153.29282
 21
405.305676
 31
0.0
  0
LINE
  8
LC-003-005-----0
  6
CONTINUOUS
  5
86
 10
149.667743
 20
401.963443
 30
0.0
 11
153.180672
 21
405.476371
 31
0.0
  0
LINE
  8
LC-003-005-----0
  6
CONTINUOUS
  5
87
 10
149.608259
 20
402.186802
 30
0.0
 11
153.053832
 21
405.632374
 31
0.0
  0
LINE
  8
LC-003-005-----0
  6
CONTINUOUS
  5
88
 10
149.573365
 20
402.43475
 30
0.0
 11
152.912755
 21
405.77414
 31
0.0
  0
LINE
  8
LC-003-005-----0
  6
CONTINUOUS
  5
89
 10
149.567411
 20
402.711639
 30
0.0
 11
152.757452
 21
405.90168
 31
0.0
  0
LINE
  8
LC-003-005-----0
  6
CONTINUOUS
  5
8A
 10
149.567411
 20
402.994482
 30
0.0
 11
152.58749
 21
406.01456
 31
0.0
  0
LINE
  8
LC-003-005-----0
  6
CONTINUOUS
  5
8B
 10
149.567411
 20
403.277324
 30
0.0
 11
152.401923
 21
406.111836
 31
0.0
  0
LINE
  8
LC-003-005-----0
  6
CONTINUOUS
  5
8C
 10
149.567411
 20
403.560167
 30
0.0
 11
152.191465
 21
406.184221
 31
0.0
  0
LINE
  8
LC-003-005-----0
  6
CONTINUOUS
  5
8D
 10
149.567411
 20
403.84301
 30
0.0
 11
151.951019
 21
406.226618
 31
0.0
  0
LINE
  8
LC-003-005-----0
  6
CONTINUOUS
  5
8E
 10
149.567411
 20
404.125853
 30
0.0
 11
151.710574
 21
406.269015
 31
0.0
  0
LINE
  8
LC-003-005-----0
  6
CONTINUOUS
  5
8F
 10
149.57089
 20
404.412174
 30
0.0
 11
151.449495
 21
406.290779
 31
0.0
  0
LINE
  8
LC-003-005-----0
  6
CONTINUOUS
  5
90
 10
149.618263
 20
404.74239
 30
0.0
 11
151.11928
 21
406.243406
 31
0.0
  0
LINE
  8
LC-003-005-----0
  6
CONTINUOUS
  5
91
 10
149.775426
 20
405.182395
 30
0.0
 11
150.679275
 21
406.086244
 31
0.0
  0
ENDBLK
  8
0
  5
92
  0
BLOCK
  8
0
  5
94
  2
*X4
 70
    65
 10
146.567411
 20
302.677127
 30
0.0
  3
*X4
  0
LINE
  8
LC-003-005-----0
  6
CONTINUOUS
  5
95
 10
234.910676
 20
302.792927
 30
0.0
 11
235.567411
 21
303.449662
 31
0.0
  0
LINE
  8
LC-003-005-----0
  6
CONTINUOUS
  5
96
 10
232.50622
 20
303.216898
 30
0.0
 11
235.095874
 21
305.806552
 31
0.0
  0
LINE
  8
LC-003-005-----0
  6
CONTINUOUS
  5
97
 10
230.101763
 20
303.640868
 30
0.0
 11
232.691417
 21
306.230522
 31
0.0
  0
LINE
  8
LC-003-005-----0
  6
CONTINUOUS
  5
98
 10
227.697306
 20
304.064839
 30
0.0
 11
230.28696
 21
306.654493
 31
0.0
  0
LINE
  8
LC-003-005-----0
  6
CONTINUOUS
  5
99
 10
225.29285
 20
304.488809
 30
0.0
 11
227.882504
 21
307.078463
 31
0.0
  0
LINE
  8
LC-003-005-----0
  6
CONTINUOUS
  5
9A
 10
222.888393
 20
304.91278
 30
0.0
 11
225.478047
 21
307.502434
 31
0.0
  0
LINE
  8
LC-003-005-----0
  6
CONTINUOUS
  5
9B
 10
220.483937
 20
305.336751
 30
0.0
 11
223.073591
 21
307.926404
 31
0.0
  0
LINE
  8
LC-003-005-----0
  6
CONTINUOUS
  5
9C
 10
218.07948
 20
305.760721
 30
0.0
 11
220.669134
 21
308.350375
 31
0.0
  0
LINE
  8
LC-003-005-----0
  6
CONTINUOUS
  5
9D
 10
215.675024
 20
306.184692
 30
0.0
 11
218.264678
 21
308.774346
 31
0.0
  0
LINE
  8
LC-003-005-----0
  6
CONTINUOUS
  5
9E
 10
213.270567
 20
306.608662
 30
0.0
 11
215.860221
 21
309.198316
 31
0.0
  0
LINE
  8
LC-003-005-----0
  6
CONTINUOUS
  5
9F
 10
210.866111
 20
307.032633
 30
0.0
 11
213.455765
 21
309.622287
 31
0.0
  0
LINE
  8
LC-003-005-----0
  6
CONTINUOUS
  5
A0
 10
208.461654
 20
307.456603
 30
0.0
 11
211.051308
 21
310.046257
 31
0.0
  0
LINE
  8
LC-003-005-----0
  6
CONTINUOUS
  5
A1
 10
206.057197
 20
307.880574
 30
0.0
 11
208.646851
 21
310.470228
 31
0.0
  0
LINE
  8
LC-003-005-----0
  6
CONTINUOUS
  5
A2
 10
203.652741
 20
308.304544
 30
0.0
 11
206.242395
 21
310.894198
 31
0.0
  0
LINE
  8
LC-003-005-----0
  6
CONTINUOUS
  5
A3
 10
201.248284
 20
308.728515
 30
0.0
 11
203.837938
 21
311.318169
 31
0.0
  0
LINE
  8
LC-003-005-----0
  6
CONTINUOUS
  5
A4
 10
198.843828
 20
309.152486
 30
0.0
 11
201.433482
 21
311.74214
 31
0.0
  0
LINE
  8
LC-003-005-----0
  6
CONTINUOUS
  5
A5
 10
196.439371
 20
309.576456
 30
0.0
 11
199.029025
 21
312.16611
 31
0.0
  0
LINE
  8
LC-003-005-----0
  6
CONTINUOUS
  5
A6
 10
194.034915
 20
310.000427
 30
0.0
 11
196.624569
 21
312.590081
 31
0.0
  0
LINE
  8
LC-003-005-----0
  6
CONTINUOUS
  5
A7
 10
191.630458
 20
310.424397
 30
0.0
 11
194.220112
 21
313.014051
 31
0.0
  0
LINE
  8
LC-003-005-----0
  6
CONTINUOUS
  5
A8
 10
189.226002
 20
310.848368
 30
0.0
 11
191.815655
 21
313.438022
 31
0.0
  0
LINE
  8
LC-003-005-----0
  6
CONTINUOUS
  5
A9
 10
186.821545
 20
311.272338
 30
0.0
 11
189.411199
 21
313.861992
 31
0.0
  0
LINE
  8
LC-003-005-----0
  6
CONTINUOUS
  5
AA
 10
184.417088
 20
311.696309
 30
0.0
 11
187.006742
 21
314.285963
 31
0.0
  0
LINE
  8
LC-003-005-----0
  6
CONTINUOUS
  5
AB
 10
182.012632
 20
312.12028
 30
0.0
 11
184.602286
 21
314.709934
 31
0.0
  0
LINE
  8
LC-003-005-----0
  6
CONTINUOUS
  5
AC
 10
179.608175
 20
312.54425
 30
0.0
 11
182.197829
 21
315.133904
 31
0.0
  0
LINE
  8
LC-003-005-----0
  6
CONTINUOUS
  5
AD
 10
177.266575
 20
313.031077
 30
0.0
 11
179.793373
 21
315.557875
 31
0.0
  0
LINE
  8
LC-003-005-----0
  6
CONTINUOUS
  5
AE
 10
175.099503
 20
313.692432
 30
0.0
 11
177.48585
 21
316.07878
 31
0.0
  0
LINE
  8
LC-003-005-----0
  6
CONTINUOUS
  5
AF
 10
173.086681
 20
314.508037
 30
0.0
 11
175.372623
 21
316.793979
 31
0.0
  0
LINE
  8
LC-003-005-----0
  6
CONTINUOUS
  5
B0
 10
171.21183
 20
315.461613
 30
0.0
 11
173.426497
 21
317.676281
 31
0.0
  0
LINE
  8
LC-003-005-----0
  6
CONTINUOUS
  5
B1
 10
169.463963
 20
316.542173
 30
0.0
 11
171.629911
 21
318.708122
 31
0.0
  0
LINE
  8
LC-003-005-----0
  6
CONTINUOUS
  5
B2
 10
167.835843
 20
317.742481
 30
0.0
 11
169.971747
 21
319.878385
 31
0.0
  0
LINE
  8
LC-003-005-----0
  6
CONTINUOUS
  5
B3
 10
166.323123
 20
319.058188
 30
0.0
 11
168.445488
 21
321.180553
 31
0.0
  0
LINE
  8
LC-003-005-----0
  6
CONTINUOUS
  5
B4
 10
164.923869
 20
320.487361
 30
0.0
 11
167.048279
 21
322.611771
 31
0.0
  0
LINE
  8
LC-003-005-----0
  6
CONTINUOUS
  5
B5
 10
163.638374
 20
322.030293
 30
0.0
 11
165.780547
 21
324.172466
 31
0.0
  0
LINE
  8
LC-003-005-----0
  6
CONTINUOUS
  5
B6
 10
162.469177
 20
323.689523
 30
0.0
 11
164.64606
 21
325.866406
 31
0.0
  0
LINE
  8
LC-003-005-----0
  6
CONTINUOUS
  5
B7
 10
161.421333
 20
325.470106
 30
0.0
 11
163.65243
 21
327.701204
 31
0.0
  0
LINE
  8
LC-003-005-----0
  6
CONTINUOUS
  5
B8
 10
160.502963
 20
327.380163
 30
0.0
 11
162.812248
 21
329.689448
 31
0.0
  0
LINE
  8
LC-003-005-----0
  6
CONTINUOUS
  5
B9
 10
159.726265
 20
329.431893
 30
0.0
 11
162.145274
 21
331.850902
 31
0.0
  0
LINE
  8
LC-003-005-----0
  6
CONTINUOUS
  5
BA
 10
159.109313
 20
331.643367
 30
0.0
 11
161.682755
 21
334.21681
 31
0.0
  0
LINE
  8
LC-003-005-----0
  6
CONTINUOUS
  5
BB
 10
158.679369
 20
334.041851
 30
0.0
 11
161.428828
 21
336.79131
 31
0.0
  0
LINE
  8
LC-003-005-----0
  6
CONTINUOUS
  5
BC
 10
158.432094
 20
336.623003
 30
0.0
 11
161.201281
 21
339.39219
 31
0.0
  0
LINE
  8
LC-003-005-----0
  6
CONTINUOUS
  5
BD
 10
158.204546
 20
339.223882
 30
0.0
 11
160.973733
 21
341.993069
 31
0.0
  0
LINE
  8
LC-003-005-----0
  6
CONTINUOUS
  5
BE
 10
157.976999
 20
341.824762
 30
0.0
 11
160.746186
 21
344.593949
 31
0.0
  0
LINE
  8
LC-003-005-----0
  6
CONTINUOUS
  5
BF
 10
157.749451
 20
344.425642
 30
0.0
 11
160.518638
 21
347.194829
 31
0.0
  0
LINE
  8
LC-003-005-----0
  6
CONTINUOUS
  5
C0
 10
157.521904
 20
347.026521
 30
0.0
 11
160.291091
 21
349.795708
 31
0.0
  0
LINE
  8
LC-003-005-----0
  6
CONTINUOUS
  5
C1
 10
157.294356
 20
349.627401
 30
0.0
 11
160.063544
 21
352.396588
 31
0.0
  0
LINE
  8
LC-003-005-----0
  6
CONTINUOUS
  5
C2
 10
157.066809
 20
352.228281
 30
0.0
 11
159.835996
 21
354.997468
 31
0.0
  0
LINE
  8
LC-003-005-----0
  6
CONTINUOUS
  5
C3
 10
156.839262
 20
354.82916
 30
0.0
 11
159.608449
 21
357.598347
 31
0.0
  0
LINE
  8
LC-003-005-----0
  6
CONTINUOUS
  5
C4
 10
156.611714
 20
357.43004
 30
0.0
 11
159.380901
 21
360.199227
 31
0.0
  0
LINE
  8
LC-003-005-----0
  6
CONTINUOUS
  5
C5
 10
156.384167
 20
360.03092
 30
0.0
 11
159.153354
 21
362.800107
 31
0.0
  0
LINE
  8
LC-003-005-----0
  6
CONTINUOUS
  5
C6
 10
156.156619
 20
362.631799
 30
0.0
 11
158.925806
 21
365.400986
 31
0.0
  0
LINE
  8
LC-003-005-----0
  6
CONTINUOUS
  5
C7
 10
155.929072
 20
365.232679
 30
0.0
 11
158.698259
 21
368.001866
 31
0.0
  0
LINE
  8
LC-003-005-----0
  6
CONTINUOUS
  5
C8
 10
155.701524
 20
367.833558
 30
0.0
 11
158.470711
 21
370.602745
 31
0.0
  0
LINE
  8
LC-003-005-----0
  6
CONTINUOUS
  5
C9
 10
155.473977
 20
370.434438
 30
0.0
 11
158.243164
 21
373.203625
 31
0.0
  0
LINE
  8
LC-003-005-----0
  6
CONTINUOUS
  5
CA
 10
155.246429
 20
373.035318
 30
0.0
 11
158.015616
 21
375.804505
 31
0.0
  0
LINE
  8
LC-003-005-----0
  6
CONTINUOUS
  5
CB
 10
155.018882
 20
375.636197
 30
0.0
 11
157.788069
 21
378.405384
 31
0.0
  0
LINE
  8
LC-003-005-----0
  6
CONTINUOUS
  5
CC
 10
154.791334
 20
378.237077
 30
0.0
 11
157.560521
 21
381.006264
 31
0.0
  0
LINE
  8
LC-003-005-----0
  6
CONTINUOUS
  5
CD
 10
154.563787
 20
380.837957
 30
0.0
 11
157.332974
 21
383.607144
 31
0.0
  0
LINE
  8
LC-003-005-----0
  6
CONTINUOUS
  5
CE
 10
154.336239
 20
383.438836
 30
0.0
 11
157.105426
 21
386.208023
 31
0.0
  0
LINE
  8
LC-003-005-----0
  6
CONTINUOUS
  5
CF
 10
154.108692
 20
386.039716
 30
0.0
 11
156.877879
 21
388.808903
 31
0.0
  0
LINE
  8
LC-003-005-----0
  6
CONTINUOUS
  5
D0
 10
153.881144
 20
388.640596
 30
0.0
 11
156.650331
 21
391.409783
 31
0.0
  0
LINE
  8
LC-003-005-----0
  6
CONTINUOUS
  5
D1
 10
153.653597
 20
391.241475
 30
0.0
 11
156.422784
 21
394.010662
 31
0.0
  0
LINE
  8
LC-003-005-----0
  6
CONTINUOUS
  5
D2
 10
153.426049
 20
393.842355
 30
0.0
 11
156.195236
 21
396.611542
 31
0.0
  0
LINE
  8
LC-003-005-----0
  6
CONTINUOUS
  5
D3
 10
153.198502
 20
396.443234
 30
0.0
 11
156.067411
 21
399.312144
 31
0.0
  0
LINE
  8
LC-003-005-----0
  6
CONTINUOUS
  5
D4
 10
151.868444
 20
397.941604
 30
0.0
 11
156.067411
 21
402.140571
 31
0.0
  0
LINE
  8
LC-003-005-----0
  6
CONTINUOUS
  5
D5
 10
150.317411
 20
399.218998
 30
0.0
 11
151.691198
 21
400.592785
 31
0.0
  0
LINE
  8
LC-003-005-----0
  6
CONTINUOUS
  5
D6
 10
153.567411
 20
402.468998
 30
0.0
 11
156.067411
 21
404.968998
 31
0.0
  0
LINE
  8
LC-003-005-----0
  6
CONTINUOUS
  5
D7
 10
153.567411
 20
405.297425
 30
0.0
 11
156.067411
 21
407.797425
 31
0.0
  0
LINE
  8
LC-003-005-----0
  6
CONTINUOUS
  5
D8
 10
151.729258
 20
406.287699
 30
0.0
 11
155.225287
 21
409.783728
 31
0.0
  0
LINE
  8
LC-003-005-----0
  6
CONTINUOUS
  5
D9
 10
150.317411
 20
407.70428
 30
0.0
 11
153.811074
 21
411.197942
 31
0.0
  0
LINE
  8
LC-003-005-----0
  6
CONTINUOUS
  5
DA
 10
150.317411
 20
410.532707
 30
0.0
 11
152.39686
 21
412.612156
 31
0.0
  0
LINE
  8
LC-003-005-----0
  6
CONTINUOUS
  5
DB
 10
147.906534
 20
410.950256
 30
0.0
 11
150.897882
 21
413.941604
 31
0.0
  0
LINE
  8
LC-003-005-----0
  6
CONTINUOUS
  5
DC
 10
146.567413
 20
412.439563
 30
0.0
 11
148.069455
 21
413.941604
 31
0.0
  0
ENDBLK
  8
0
  5
DD
  0
BLOCK
  8
0
  5
DF
  2
*X5
 70
    65
 10
235.567411
 20
300.817302
 30
0.0
  3
*X5
  0
LINE
  8
LC-003-005-----0
  6
CONTINUOUS
  5
E0
 10
244.528502
 20
301.097045
 30
0.0
 11
245.835259
 21
302.403802
 31
0.0
  0
LINE
  8
LC-003-005-----0
  6
CONTINUOUS
  5
E1
 10
242.124046
 20
301.521015
 30
0.0
 11
244.7137
 21
304.110669
 31
0.0
  0
LINE
  8
LC-003-005-----0
  6
CONTINUOUS
  5
E2
 10
239.719589
 20
301.944986
 30
0.0
 11
242.309243
 21
304.53464
 31
0.0
  0
LINE
  8
LC-003-005-----0
  6
CONTINUOUS
  5
E3
 10
237.315133
 20
302.368957
 30
0.0
 11
239.904787
 21
304.958611
 31
0.0
  0
LINE
  8
LC-003-005-----0
  6
CONTINUOUS
  5
E4
 10
235.567411
 20
303.449662
 30
0.0
 11
237.50033
 21
305.382581
 31
0.0
  0
ENDBLK
  8
0
  5
E5
  0
BLOCK
  8
0
  5
E7
  2
*X6
 70
    65
 10
235.567411
 20
300.520377
 30
0.0
  3
*X6
  0
LINE
  8
LC-003-005-----0
  6
CONTINUOUS
  5
E8
 10
246.80278
 20
300.542895
 30
0.0
 11
249.712102
 21
303.452217
 31
0.0
  0
LINE
  8
LC-003-005-----0
  6
CONTINUOUS
  5
E9
 10
246.266868
 20
302.835411
 30
0.0
 11
249.288131
 21
305.856674
 31
0.0
  0
LINE
  8
LC-003-005-----0
  6
CONTINUOUS
  5
EA
 10
245.842898
 20
305.239867
 30
0.0
 11
248.864161
 21
308.26113
 31
0.0
  0
LINE
  8
LC-003-005-----0
  6
CONTINUOUS
  5
EB
 10
245.418927
 20
307.644324
 30
0.0
 11
248.44019
 21
310.665587
 31
0.0
  0
LINE
  8
LC-003-005-----0
  6
CONTINUOUS
  5
EC
 10
244.994957
 20
310.04878
 30
0.0
 11
248.01622
 21
313.070043
 31
0.0
  0
LINE
  8
LC-003-005-----0
  6
CONTINUOUS
  5
ED
 10
244.570986
 20
312.453237
 30
0.0
 11
247.592249
 21
315.4745
 31
0.0
  0
LINE
  8
LC-003-005-----0
  6
CONTINUOUS
  5
EE
 10
244.147015
 20
314.857694
 30
0.0
 11
247.168278
 21
317.878957
 31
0.0
  0
LINE
  8
LC-003-005-----0
  6
CONTINUOUS
  5
EF
 10
243.723045
 20
317.26215
 30
0.0
 11
246.744308
 21
320.283413
 31
0.0
  0
LINE
  8
LC-003-005-----0
  6
CONTINUOUS
  5
F0
 10
243.299074
 20
319.666607
 30
0.0
 11
246.320337
 21
322.68787
 31
0.0
  0
LINE
  8
LC-003-005-----0
  6
CONTINUOUS
  5
F1
 10
242.875104
 20
322.071063
 30
0.0
 11
245.896367
 21
325.092326
 31
0.0
  0
LINE
  8
LC-003-005-----0
  6
CONTINUOUS
  5
F2
 10
242.451133
 20
324.47552
 30
0.0
 11
245.472396
 21
327.496783
 31
0.0
  0
LINE
  8
LC-003-005-----0
  6
CONTINUOUS
  5
F3
 10
242.027163
 20
326.879976
 30
0.0
 11
245.048426
 21
329.901239
 31
0.0
  0
LINE
  8
LC-003-005-----0
  6
CONTINUOUS
  5
F4
 10
241.603192
 20
329.284433
 30
0.0
 11
244.624455
 21
332.305696
 31
0.0
  0
LINE
  8
LC-003-005-----0
  6
CONTINUOUS
  5
F5
 10
241.179222
 20
331.688889
 30
0.0
 11
244.200484
 21
334.710152
 31
0.0
  0
LINE
  8
LC-003-005-----0
  6
CONTINUOUS
  5
F6
 10
240.755251
 20
334.093346
 30
0.0
 11
243.776514
 21
337.114609
 31
0.0
  0
LINE
  8
LC-003-005-----0
  6
CONTINUOUS
  5
F7
 10
240.33128
 20
336.497803
 30
0.0
 11
243.352543
 21
339.519066
 31
0.0
  0
LINE
  8
LC-003-005-----0
  6
CONTINUOUS
  5
F8
 10
239.90731
 20
338.902259
 30
0.0
 11
242.928573
 21
341.923522
 31
0.0
  0
LINE
  8
LC-003-005-----0
  6
CONTINUOUS
  5
F9
 10
239.483339
 20
341.306716
 30
0.0
 11
242.504602
 21
344.327979
 31
0.0
  0
LINE
  8
LC-003-005-----0
  6
CONTINUOUS
  5
FA
 10
239.059369
 20
343.711172
 30
0.0
 11
242.080632
 21
346.732435
 31
0.0
  0
LINE
  8
LC-003-005-----0
  6
CONTINUOUS
  5
FB
 10
238.635398
 20
346.115629
 30
0.0
 11
241.656661
 21
349.136892
 31
0.0
  0
LINE
  8
LC-003-005-----0
  6
CONTINUOUS
  5
FC
 10
238.211428
 20
348.520085
 30
0.0
 11
241.232691
 21
351.541348
 31
0.0
  0
LINE
  8
LC-003-005-----0
  6
CONTINUOUS
  5
FD
 10
237.787457
 20
350.924542
 30
0.0
 11
240.80872
 21
353.945805
 31
0.0
  0
LINE
  8
LC-003-005-----0
  6
CONTINUOUS
  5
FE
 10
237.363486
 20
353.328999
 30
0.0
 11
240.384749
 21
356.350261
 31
0.0
  0
LINE
  8
LC-003-005-----0
  6
CONTINUOUS
  5
FF
 10
236.939516
 20
355.733455
 30
0.0
 11
239.960779
 21
358.754718
 31
0.0
  0
LINE
  8
LC-003-005-----0
  6
CONTINUOUS
  5
100
 10
236.515545
 20
358.137912
 30
0.0
 11
239.536808
 21
361.159175
 31
0.0
  0
LINE
  8
LC-003-005-----0
  6
CONTINUOUS
  5
101
 10
236.091575
 20
360.542368
 30
0.0
 11
239.112838
 21
363.563631
 31
0.0
  0
LINE
  8
LC-003-005-----0
  6
CONTINUOUS
  5
102
 10
235.667604
 20
362.946825
 30
0.0
 11
238.688867
 21
365.968088
 31
0.0
  0
LINE
  8
LC-003-005-----0
  6
CONTINUOUS
  5
103
 10
235.567411
 20
365.675059
 30
0.0
 11
238.264897
 21
368.372544
 31
0.0
  0
LINE
  8
LC-003-005-----0
  6
CONTINUOUS
  5
104
 10
235.567411
 20
368.503486
 30
0.0
 11
237.840926
 21
370.777001
 31
0.0
  0
LINE
  8
LC-003-005-----0
  6
CONTINUOUS
  5
105
 10
235.567411
 20
371.331913
 30
0.0
 11
237.416955
 21
373.181457
 31
0.0
  0
LINE
  8
LC-003-005-----0
  6
CONTINUOUS
  5
106
 10
235.567411
 20
374.160341
 30
0.0
 11
236.992985
 21
375.585914
 31
0.0
  0
LINE
  8
LC-003-005-----0
  6
CONTINUOUS
  5
107
 10
235.567411
 20
376.988768
 30
0.0
 11
236.569014
 21
377.990371
 31
0.0
  0
LINE
  8
LC-003-005-----0
  6
CONTINUOUS
  5
108
 10
235.567411
 20
379.817195
 30
0.0
 11
236.145044
 21
380.394827
 31
0.0
  0
LINE
  8
LC-003-005-----0
  6
CONTINUOUS
  5
109
 10
235.567411
 20
382.645622
 30
0.0
 11
235.721073
 21
382.799284
 31
0.0
  0
ENDBLK
  8
0
  5
10A
  0
BLOCK
  8
0
  5
10C
  2
*X7
 70
    65
 10
220.689532
 20
363.515046
 30
0.0
  3
*X7
  0
LINE
  8
LC-003-005-----0
  6
CONTINUOUS
  5
10D
 10
235.243634
 20
365.351281
 30
0.0
 11
235.567411
 21
365.675059
 31
0.0
  0
LINE
  8
LC-003-005-----0
  6
CONTINUOUS
  5
10E
 10
234.819663
 20
367.755738
 30
0.0
 11
235.567411
 21
368.503486
 31
0.0
  0
LINE
  8
LC-003-005-----0
  6
CONTINUOUS
  5
10F
 10
234.395692
 20
370.160194
 30
0.0
 11
235.567411
 21
371.331913
 31
0.0
  0
LINE
  8
LC-003-005-----0
  6
CONTINUOUS
  5
110
 10
233.971722
 20
372.564651
 30
0.0
 11
235.567411
 21
374.160341
 31
0.0
  0
LINE
  8
LC-003-005-----0
  6
CONTINUOUS
  5
111
 10
233.547751
 20
374.969108
 30
0.0
 11
235.567411
 21
376.988768
 31
0.0
  0
LINE
  8
LC-003-005-----0
  6
CONTINUOUS
  5
112
 10
233.123781
 20
377.373564
 30
0.0
 11
235.567411
 21
379.817195
 31
0.0
  0
LINE
  8
LC-003-005-----0
  6
CONTINUOUS
  5
113
 10
232.69981
 20
379.778021
 30
0.0
 11
235.567411
 21
382.645622
 31
0.0
  0
LINE
  8
LC-003-005-----0
  6
CONTINUOUS
  5
114
 10
232.27584
 20
382.182477
 30
0.0
 11
235.297103
 21
385.20374
 31
0.0
  0
LINE
  8
LC-003-005-----0
  6
CONTINUOUS
  5
115
 10
231.851869
 20
384.586934
 30
0.0
 11
231.982287
 21
384.717352
 31
0.0
  0
ENDBLK
  8
0
  5
116
  0
BLOCK
  8
0
  5
118
  2
*X8
 70
    65
 10
224.917286
 20
376.616918
 30
0.0
  3
*X8
  0
LINE
  8
LC-003-005-----0
  6
CONTINUOUS
  5
119
 10
231.385588
 20
381.292226
 30
0.0
 11
232.27584
 21
382.182477
 31
0.0
  0
LINE
  8
LC-003-005-----0
  6
CONTINUOUS
  5
11A
 10
228.981132
 20
381.716196
 30
0.0
 11
231.560017
 21
384.295082
 31
0.0
  0
LINE
  8
LC-003-005-----0
  6
CONTINUOUS
  5
11B
 10
226.576675
 20
382.140167
 30
0.0
 11
229.155561
 21
384.719052
 31
0.0
  0
LINE
  8
LC-003-005-----0
  6
CONTINUOUS
  5
11C
 10
225.104909
 20
383.496828
 30
0.0
 11
228.803318
 21
387.195237
 31
0.0
  0
LINE
  8
LC-003-005-----0
  6
CONTINUOUS
  5
11D
 10
235.198277
 20
393.590196
 30
0.0
 11
235.567411
 21
393.95933
 31
0.0
  0
LINE
  8
LC-003-005-----0
  6
CONTINUOUS
  5
11E
 10
225.710402
 20
386.930748
 30
0.0
 11
235.388226
 21
396.608572
 31
0.0
  0
LINE
  8
LC-003-005-----0
  6
CONTINUOUS
  5
11F
 10
226.705244
 20
390.754017
 30
0.0
 11
231.672232
 21
395.721005
 31
0.0
  0
ENDBLK
  8
0
  5
120
  0
BLOCK
  8
0
  5
122
  2
*X9
 70
    65
 10
235.567411
 20
393.613845
 30
0.0
  3
*X9
  0
LINE
  8
LC-003-005-----0
  6
CONTINUOUS
  5
123
 10
318.748925
 20
397.944884
 30
0.0
 11
320.817411
 21
400.013371
 31
0.0
  0
LINE
  8
LC-003-005-----0
  6
CONTINUOUS
  5
124
 10
315.793954
 20
397.81834
 30
0.0
 11
318.714887
 21
400.739273
 31
0.0
  0
LINE
  8
LC-003-005-----0
  6
CONTINUOUS
  5
125
 10
312.809097
 20
397.661911
 30
0.0
 11
317.567411
 21
402.420225
 31
0.0
  0
LINE
  8
LC-003-005-----0
  6
CONTINUOUS
  5
126
 10
309.82424
 20
397.505481
 30
0.0
 11
312.994504
 21
400.675744
 31
0.0
  0
LINE
  8
LC-003-005-----0
  6
CONTINUOUS
  5
127
 10
315.067411
 20
402.748652
 30
0.0
 11
317.567411
 21
405.248652
 31
0.0
  0
LINE
  8
LC-003-005-----0
  6
CONTINUOUS
  5
128
 10
318.408706
 20
406.089947
 30
0.0
 11
320.817411
 21
408.498652
 31
0.0
  0
LINE
  8
LC-003-005-----0
  6
CONTINUOUS
  5
129
 10
323.274764
 20
410.956005
 30
0.0
 11
324.553011
 21
412.234251
 31
0.0
  0
LINE
  8
LC-003-005-----0
  6
CONTINUOUS
  5
12A
 10
306.839383
 20
397.349051
 30
0.0
 11
310.009647
 21
400.519315
 31
0.0
  0
LINE
  8
LC-003-005-----0
  6
CONTINUOUS
  5
12B
 10
315.067411
 20
405.577079
 30
0.0
 11
323.395595
 21
413.905263
 31
0.0
  0
LINE
  8
LC-003-005-----0
  6
CONTINUOUS
  5
12C
 10
303.854526
 20
397.192622
 30
0.0
 11
307.02479
 21
400.362885
 31
0.0
  0
LINE
  8
LC-003-005-----0
  6
CONTINUOUS
  5
12D
 10
315.067411
 20
408.405507
 30
0.0
 11
320.603509
 21
413.941604
 31
0.0
  0
LINE
  8
LC-003-005-----0
  6
CONTINUOUS
  5
12E
 10
300.86967
 20
397.036192
 30
0.0
 11
304.039933
 21
400.206455
 31
0.0
  0
LINE
  8
LC-003-005-----0
  6
CONTINUOUS
  5
12F
 10
297.884813
 20
396.879762
 30
0.0
 11
301.055076
 21
400.050026
 31
0.0
  0
LINE
  8
LC-003-005-----0
  6
CONTINUOUS
  5
130
 10
294.899956
 20
396.723332
 30
0.0
 11
298.070219
 21
399.893596
 31
0.0
  0
LINE
  8
LC-003-005-----0
  6
CONTINUOUS
  5
131
 10
291.915099
 20
396.566903
 30
0.0
 11
295.085363
 21
399.737166
 31
0.0
  0
LINE
  8
LC-003-005-----0
  6
CONTINUOUS
  5
132
 10
288.930242
 20
396.410473
 30
0.0
 11
292.100506
 21
399.580736
 31
0.0
  0
LINE
  8
LC-003-005-----0
  6
CONTINUOUS
  5
133
 10
285.945385
 20
396.254043
 30
0.0
 11
289.115649
 21
399.424307
 31
0.0
  0
LINE
  8
LC-003-005-----0
  6
CONTINUOUS
  5
134
 10
282.960529
 20
396.097614
 30
0.0
 11
286.130792
 21
399.267877
 31
0.0
  0
LINE
  8
LC-003-005-----0
  6
CONTINUOUS
  5
135
 10
279.975672
 20
395.941184
 30
0.0
 11
283.145935
 21
399.111447
 31
0.0
  0
LINE
  8
LC-003-005-----0
  6
CONTINUOUS
  5
136
 10
276.990815
 20
395.784754
 30
0.0
 11
280.161078
 21
398.955018
 31
0.0
  0
LINE
  8
LC-003-005-----0
  6
CONTINUOUS
  5
137
 10
274.005958
 20
395.628324
 30
0.0
 11
277.176222
 21
398.798588
 31
0.0
  0
LINE
  8
LC-003-005-----0
  6
CONTINUOUS
  5
138
 10
271.021101
 20
395.471895
 30
0.0
 11
274.191365
 21
398.642158
 31
0.0
  0
LINE
  8
LC-003-005-----0
  6
CONTINUOUS
  5
139
 10
268.036244
 20
395.315465
 30
0.0
 11
271.206508
 21
398.485728
 31
0.0
  0
LINE
  8
LC-003-005-----0
  6
CONTINUOUS
  5
13A
 10
265.051387
 20
395.159035
 30
0.0
 11
268.221651
 21
398.329299
 31
0.0
  0
LINE
  8
LC-003-005-----0
  6
CONTINUOUS
  5
13B
 10
262.066531
 20
395.002605
 30
0.0
 11
265.236794
 21
398.172869
 31
0.0
  0
LINE
  8
LC-003-005-----0
  6
CONTINUOUS
  5
13C
 10
259.081674
 20
394.846176
 30
0.0
 11
262.251937
 21
398.016439
 31
0.0
  0
LINE
  8
LC-003-005-----0
  6
CONTINUOUS
  5
13D
 10
256.096817
 20
394.689746
 30
0.0
 11
259.26708
 21
397.86001
 31
0.0
  0
LINE
  8
LC-003-005-----0
  6
CONTINUOUS
  5
13E
 10
253.11196
 20
394.533316
 30
0.0
 11
256.282224
 21
397.70358
 31
0.0
  0
LINE
  8
LC-003-005-----0
  6
CONTINUOUS
  5
13F
 10
250.127103
 20
394.376887
 30
0.0
 11
253.297367
 21
397.54715
 31
0.0
  0
LINE
  8
LC-003-005-----0
  6
CONTINUOUS
  5
140
 10
247.142246
 20
394.220457
 30
0.0
 11
250.31251
 21
397.39072
 31
0.0
  0
LINE
  8
LC-003-005-----0
  6
CONTINUOUS
  5
141
 10
244.15739
 20
394.064027
 30
0.0
 11
247.327653
 21
397.234291
 31
0.0
  0
LINE
  8
LC-003-005-----0
  6
CONTINUOUS
  5
142
 10
241.172533
 20
393.907597
 30
0.0
 11
244.342796
 21
397.077861
 31
0.0
  0
LINE
  8
LC-003-005-----0
  6
CONTINUOUS
  5
143
 10
238.187676
 20
393.751168
 30
0.0
 11
241.357939
 21
396.921431
 31
0.0
  0
LINE
  8
LC-003-005-----0
  6
CONTINUOUS
  5
144
 10
235.567411
 20
393.95933
 30
0.0
 11
238.373083
 21
396.765002
 31
0.0
  0
ENDBLK
  8
0
  5
145
  0
BLOCK
  8
0
  5
147
  2
*X10
 70
    65
 10
220.689532
 20
384.618911
 30
0.0
  3
*X10
  0
LINE
  8
LC-003-005-----0
  6
CONTINUOUS
  5
148
 10
231.982287
 20
384.717352
 30
0.0
 11
234.873132
 21
387.608197
 31
0.0
  0
LINE
  8
LC-003-005-----0
  6
CONTINUOUS
  5
149
 10
231.427899
 20
386.99139
 30
0.0
 11
231.993825
 21
387.557317
 31
0.0
  0
ENDBLK
  8
0
  5
14A
  0
ENDSEC
  0
SECTION
  2
ENTITIES
  0
VIEWPORT
  8
LC-000
  5
1A5
 67
     1
 68
     1
 10
420.0
 20
297.0
 30
0.0
 40
840.0
 41
594.0
 69
     1
1001
ACAD
1000
MVIEW
1002
{
1070
    16
1010
0.0
1020
0.0
1030
0.0
1010
0.0
1020
0.0
1030
1.0
1040
0.0
1040
594.0
1040
420.0
1040
297.0
1040
50.0
1040
0.0
1040
0.0
1070
     0
1070
   100
1070
     1
1070
     1
1070
     0
1070
     0
1070
     0
1070
     0
1040
0.0
1040
0.0
1040
0.0
1040
1.0
1040
1.0
1040
0.0
1040
0.0
1070
     0
1002
{
1002
}
1002
}
  0
VIEWPORT
  8
0
  5
1A6
 67
     1
 68
     1
 10
0.0
 20
0.0
 30
0.0
 40
0.0
 41
0.0
 69
     1
1001
ACAD
1000
MVIEW
1002
{
1070
    16
1010
0.0
1020
0.0
1030
0.0
1010
0.0
1020
0.0
1030
1.0
1040
0.0
1040
594.0
1040
0.0
1040
0.0
1040
50.0
1040
0.0
1040
0.0
1070
     0
1070
   100
1070
     0
1070
     1
1070
     0
1070
     0
1070
     0
1070
     0
1040
0.0
1040
0.0
1040
0.0
1040
0.5
1040
0.5
1040
0.5
1040
0.5
1070
     0
1002
{
1002
}
1002
}
  0
INSERT
  8
0
  5
14B
  2
*X0
 10
317.567411
 20
400.58895
 30
0.0
  0
DIMENSION
  8
0
  5
14C
  2
*D1
 10
235.567411
 20
434.0
 30
0.0
 11
235.567411
 21
434.0
 31
0.0
  1
%%c<>
 13
146.567411
 23
412.441604
 33
0.0
 14
324.567411
 24
412.441604
 34
0.0
  3
LC-DIM-L-0090-02-02
  0
DIMENSION
  8
0
  5
14D
  2
*D2
 10
364.0
 20
357.230991
 30
0.0
 11
364.0
 21
357.230991
 31
0.0
  1
115
 13
323.067411
 23
413.941604
 33
0.0
 14
246.675071
 24
300.520377
 34
0.0
 50
90.0
  3
LC-DIM-L-0090-02-02
  0
INSERT
  8
0
  5
14E
  2
*X3
 10
149.567411
 20
400.58895
 30
0.0
  0
INSERT
  8
0
  5
14F
  2
*X4
 10
146.567411
 20
302.677127
 30
0.0
  0
INSERT
  8
0
  5
150
  2
*X5
 10
235.567411
 20
300.817302
 30
0.0
  0
INSERT
  8
0
  5
151
  2
*X6
 10
235.567411
 20
300.520377
 30
0.0
  0
INSERT
  8
0
  5
152
  2
*X7
 10
220.689532
 20
363.515046
 30
0.0
  0
INSERT
  8
0
  5
153
  2
*X8
 10
224.917286
 20
376.616918
 30
0.0
  0
INSERT
  8
0
  5
154
  2
*X9
 10
235.567411
 20
393.613845
 30
0.0
  0
INSERT
  8
0
  5
155
  2
*X10
 10
220.689532
 20
384.618911
 30
0.0
  0
LINE
  8
LC-001-002-----0
  6
CONTINUOUS
  5
157
 10
156.067411
 20
408.941604
 30
0.0
 11
151.067411
 21
413.941604
 31
0.0
  0
ARC
  8
LC-002-002-RND-0
  6
CONTINUOUS
  5
159
 10
148.067411
 20
412.441604
 30
0.0
 40
1.5
 50
90.0
 51
180.0
  0
ARC
  8
LC-002-002-RND-0
  6
CONTINUOUS
  5
15A
 10
148.067411
 20
412.441604
 30
0.0
 40
1.5
 50
180.0
 51
270.0
  0
LINE
  8
LC-001-002-----0
  6
CONTINUOUS
  5
15B
 10
156.067411
 20
408.941604
 30
0.0
 11
156.067411
 21
398.072587
 31
0.0
  0
LINE
  8
LC-001-002-----0
  6
CONTINUOUS
  5
15C
 10
153.067411
 20
397.941604
 30
0.0
 11
158.568001
 21
335.069572
 31
0.0
  0
LINE
  8
LC-001-002-----0
  6
CONTINUOUS
  5
15D
 10
156.067411
 20
398.072587
 30
0.0
 11
161.556586
 21
335.331039
 31
0.0
  0
ARC
  8
LC-001-002-----0
  6
CONTINUOUS
  5
15E
 10
151.567411
 20
404.294258
 30
0.0
 40
2.0
 50
0.0
 51
180.0
  0
ARC
  8
LC-001-002-----0
  6
CONTINUOUS
  5
15F
 10
151.567411
 20
402.58895
 30
0.0
 40
2.0
 50
180.0
 51
0.0
  0
LINE
  8
LC-001-002-----0
  6
CONTINUOUS
  5
160
 10
150.317411
 20
400.368542
 30
0.0
 11
150.317411
 21
397.941604
 31
0.0
  0
LINE
  8
LC-001-002-----0
  6
CONTINUOUS
  5
161
 10
153.567411
 20
400.941604
 30
0.0
 11
150.317411
 21
400.368542
 31
0.0
  0
LINE
  8
LC-001-002-----0
  6
CONTINUOUS
  5
162
 10
153.567411
 20
402.58895
 30
0.0
 11
153.567411
 21
400.941604
 31
0.0
  0
LINE
  8
LC-001-002-----0
  6
CONTINUOUS
  5
163
 10
153.567411
 20
405.941604
 30
0.0
 11
153.567411
 21
404.294258
 31
0.0
  0
LINE
  8
LC-001-002-----0
  6
CONTINUOUS
  5
164
 10
153.567411
 20
405.941604
 30
0.0
 11
150.317411
 21
406.514667
 31
0.0
  0
ARC
  8
LC-002-002-RND-0
  6
CONTINUOUS
  5
165
 10
183.472869
 20
337.248466
 30
0.0
 40
25.0
 50
185.0
 51
260.0
  0
ARC
  8
LC-002-002-RND-0
  6
CONTINUOUS
  5
166
 10
183.472869
 20
337.248466
 30
0.0
 40
22.0
 50
185.0
 51
260.0
  0
LINE
  8
LC-001-002-----0
  6
CONTINUOUS
  5
167
 10
179.131664
 20
312.628272
 30
0.0
 11
246.115002
 21
300.817302
 31
0.0
  0
LINE
  8
LC-001-002-----0
  6
CONTINUOUS
  5
168
 10
179.652609
 20
315.582695
 30
0.0
 11
245.560624
 21
303.961334
 31
0.0
  0
LINE
  8
LC-001-002-----0
  6
CONTINUOUS
  5
169
 10
250.121898
 20
301.128145
 30
0.0
 11
234.493562
 21
389.760843
 31
0.0
  0
LINE
  8
LC-001-002-----0
  6
CONTINUOUS
  5
16A
 10
246.675071
 20
300.520377
 30
0.0
 11
231.046735
 21
389.153075
 31
0.0
  0
LINE
  8
LC-001-002-----0
  6
CONTINUOUS
  5
16B
 10
246.675071
 20
300.520377
 30
0.0
 11
250.121898
 21
301.128145
 31
0.0
  0
LINE
  8
LC-001-002-----0
  6
CONTINUOUS
  5
16C
 10
323.067411
 20
413.941604
 30
0.0
 11
316.067411
 21
413.941604
 31
0.0
  0
ARC
  8
LC-002-002-RND-0
  6
CONTINUOUS
  5
16D
 10
323.067411
 20
412.441604
 30
0.0
 40
1.5
 50
0.0
 51
90.0
  0
ARC
  8
LC-002-002-RND-0
  6
CONTINUOUS
  5
16E
 10
323.067411
 20
412.441604
 30
0.0
 40
1.5
 50
270.0
 51
0.0
  0
LINE
  8
LC-001-002-----0
  6
CONTINUOUS
  5
16F
 10
317.567411
 20
405.941604
 30
0.0
 11
320.817411
 21
406.514667
 31
0.0
  0
LINE
  8
LC-001-002-----0
  6
CONTINUOUS
  5
170
 10
317.567411
 20
405.941604
 30
0.0
 11
317.567411
 21
400.941604
 31
0.0
  0
ARC
  8
LC-001-002-----0
  6
CONTINUOUS
  5
171
 10
319.567411
 20
404.294258
 30
0.0
 40
2.0
 50
0.0
 51
180.0
  0
ARC
  8
LC-001-002-----0
  6
CONTINUOUS
  5
172
 10
319.567411
 20
402.58895
 30
0.0
 40
2.0
 50
180.0
 51
0.0
  0
LINE
  8
LC-001-002-----0
  6
CONTINUOUS
  5
173
 10
320.817411
 20
400.368542
 30
0.0
 11
320.817411
 21
397.941604
 31
0.0
  0
LINE
  8
LC-001-002-----0
  6
CONTINUOUS
  5
174
 10
315.067411
 20
408.941604
 30
0.0
 11
315.067411
 21
400.784381
 31
0.0
  0
LINE
  8
LC-001-002-----0
  6
CONTINUOUS
  5
175
 10
315.067411
 20
408.941604
 30
0.0
 11
320.067411
 21
413.941604
 31
0.0
  0
LINE
  8
LC-001-002-----0
  6
CONTINUOUS
  5
176
 10
224.929174
 20
382.430666
 30
0.0
 11
232.466419
 21
381.101646
 31
0.0
  0
LINE
  8
LC-001-002-----0
  6
CONTINUOUS
  5
177
 10
246.675071
 20
300.520377
 30
0.0
 11
231.046735
 21
389.153075
 31
0.0
  0
LINE
  8
LC-001-002-----0
  6
CONTINUOUS
  5
178
 10
250.121898
 20
301.128145
 30
0.0
 11
234.493562
 21
389.760843
 31
0.0
  0
ARC
  8
LC-001-002-----0
  6
CONTINUOUS
  5
179
 10
231.195
 20
395.852523
 30
0.0
 40
8.333581
 50
254.215261
 51
270.960321
  0
ARC
  8
LC-001-002-----0
  6
CONTINUOUS
  5
17A
 10
230.58964
 20
394.519019
 30
0.0
 40
9.900108
 50
257.247905
 51
277.211487
  0
ARC
  8
LC-001-002-----0
  6
DASHED
 62
     2
  5
17C
 10
230.58964
 20
394.519019
 30
0.0
 40
9.900108
 50
277.211487
 51
297.751064
  0
ARC
  8
LC-001-002-----0
  6
DASHED
 62
     2
  5
17D
 10
231.195
 20
395.852523
 30
0.0
 40
8.333581
 50
270.960321
 51
295.240372
  0
CIRCLE
  8
LC-001-002-----0
  6
CONTINUOUS
  5
17E
 10
232.770149
 20
389.456959
 30
0.0
 40
1.75
  0
LINE
  8
LC-001-002-----0
  6
DASHDOT
 62
     2
  5
180
 10
231.079779
 20
389.004026
 30
0.0
 11
234.460519
 21
389.909892
 31
0.0
  0
LINE
  8
LC-001-002-----0
  6
DASHDOT
 62
     2
  5
181
 10
232.317215
 20
391.147329
 30
0.0
 11
233.223082
 21
387.766589
 31
0.0
  0
ARC
  8
LC-001-002-----0
  6
CONTINUOUS
  5
182
 10
231.195
 20
395.852523
 30
0.0
 40
8.333581
 50
295.240372
 51
330.42979
  0
ARC
  8
LC-001-002-----0
  6
CONTINUOUS
  5
183
 10
230.58964
 20
394.519019
 30
0.0
 40
9.900108
 50
297.751064
 51
340.960298
  0
ARC
  8
LC-002-002-RND-0
  6
CONTINUOUS
  5
184
 10
239.178106
 20
391.362639
 30
0.0
 40
0.75
 50
339.820923
 51
85.0
  0
ARC
  8
LC-002-002-RND-0
  6
CONTINUOUS
  5
185
 10
239.095459
 20
391.36987
 30
0.0
 40
0.75
 50
85.0
 51
150.42979
  0
LINE
  8
LC-001-002-----0
  6
CONTINUOUS
  5
186
 10
317.567411
 20
400.941604
 30
0.0
 11
320.817411
 21
400.368542
 31
0.0
  0
LINE
  8
LC-001-002-----0
  6
CONTINUOUS
  5
187
 10
239.095459
 20
392.11987
 30
0.0
 11
239.243473
 21
392.109785
 31
0.0
  0
LINE
  8
LC-001-002-----0
  6
CONTINUOUS
  5
188
 10
228.390487
 20
384.853956
 30
0.0
 11
231.914347
 21
384.232604
 31
0.0
  0
LINE
  8
LC-001-002-----0
  6
CONTINUOUS
  5
189
 10
321.567411
 20
404.294258
 30
0.0
 11
321.567411
 21
402.58895
 31
0.0
  0
LINE
  8
LC-001-002-----0
  6
CONTINUOUS
  5
18A
 10
499.917286
 20
436.014387
 30
0.0
 11
499.917286
 21
278.447578
 31
0.0
  0
CIRCLE
  8
LC-001-002-----0
  6
CONTINUOUS
  5
18B
 10
510.567411
 20
357.230982
 30
0.0
 40
79.5
  0
CIRCLE
  8
LC-001-002-----0
  6
CONTINUOUS
  5
18C
 10
510.567411
 20
357.230982
 30
0.0
 40
84.5
  0
CIRCLE
  8
LC-001-002-----0
  6
CONTINUOUS
  5
18D
 10
510.567411
 20
357.230982
 30
0.0
 40
89.0
  0
LINE
  8
LC-001-002-----0
  6
DASHDOT
 62
     2
  5
18E
 10
235.567411
 20
413.941604
 30
0.0
 11
235.567411
 21
300.52036
 31
0.0
  0
LINE
  8
LC-001-002-----0
  6
CONTINUOUS
  5
18F
 10
149.567411
 20
404.294258
 30
0.0
 11
149.567411
 21
402.58895
 31
0.0
  0
LINE
  8
LC-001-002-----0
  6
CONTINUOUS
  5
190
 10
153.567411
 20
404.294258
 30
0.0
 11
153.567411
 21
402.58895
 31
0.0
  0
LINE
  8
LC-001-002-----0
  6
CONTINUOUS
  5
191
 10
315.067411
 20
400.784381
 30
0.0
 11
235.285972
 21
396.603213
 31
0.0
  0
ARC
  8
LC-002-002-RND-0
  6
CONTINUOUS
  5
192
 10
235.809331
 20
386.616918
 30
0.0
 40
10.0
 50
93.0
 51
170.0
  0
LINE
  8
LC-001-002-----0
  6
CONTINUOUS
  5
193
 10
224.917286
 20
382.432762
 30
0.0
 11
225.961254
 21
388.353399
 31
0.0
  0
LINE
  8
LC-001-002-----0
  6
CONTINUOUS
  5
194
 10
318.224419
 20
397.945716
 30
0.0
 11
235.442979
 21
393.607324
 31
0.0
  0
ARC
  8
LC-002-002-RND-0
  6
CONTINUOUS
  5
195
 10
235.809331
 20
386.616918
 30
0.0
 40
7.0
 50
93.0
 51
170.0
  0
LINE
  8
LC-001-002-----0
  6
CONTINUOUS
  5
196
 10
228.390487
 20
384.853956
 30
0.0
 11
228.915677
 21
387.832455
 31
0.0
  0
LINE
  8
LC-001-002-----0
  6
CONTINUOUS
  5
197
 10
246.115002
 20
300.817302
 30
0.0
 11
245.560624
 21
303.961334
 31
0.0
  0
LINE
  8
LC-001-002-----0
  6
CONTINUOUS
  5
198
 10
150.317411
 20
410.941604
 30
0.0
 11
150.317411
 21
406.514667
 31
0.0
  0
LINE
  8
LC-001-002-----0
  6
CONTINUOUS
  5
199
 10
148.067411
 20
410.941604
 30
0.0
 11
150.317411
 21
410.941604
 31
0.0
  0
LINE
  8
LC-001-002-----0
  6
CONTINUOUS
  5
19A
 10
150.317411
 20
397.941604
 30
0.0
 11
153.067411
 21
397.941604
 31
0.0
  0
LINE
  8
LC-001-002-----0
  6
CONTINUOUS
  5
19B
 10
320.817411
 20
410.941604
 30
0.0
 11
320.817411
 21
406.514667
 31
0.0
  0
LINE
  8
LC-001-002-----0
  6
CONTINUOUS
  5
19C
 10
320.817411
 20
397.941604
 30
0.0
 11
318.145969
 21
397.941604
 31
0.0
  0
LINE
  8
LC-001-002-----0
  6
CONTINUOUS
  5
19D
 10
320.817411
 20
410.941604
 30
0.0
 11
323.067411
 21
410.941604
 31
0.0
  0
LINE
  8
LC-001-002-----0
  6
CONTINUOUS
  5
19E
 10
148.067411
 20
413.941604
 30
0.0
 11
316.067411
 21
413.941604
 31
0.0
  0
LINE
  8
LC-001-002-----0
  6
CONTINUOUS
  5
19F
 10
156.067411
 20
408.941604
 30
0.0
 11
177.227029
 21
408.941604
 31
0.0
  0
LINE
  8
LC-001-002-----0
  6
CONTINUOUS
  5
1A0
 10
177.227029
 20
408.941604
 30
0.0
 11
315.067411
 21
408.941604
 31
0.0
  0
LINE
  8
LC-001-002-----0
  6
DASHDOT
 62
     2
  5
1A1
 10
317.94102
 20
360.319608
 30
0.0
 11
233.368684
 21
391.101421
 31
0.0
  0
LINE
  8
LC-001-002-----0
  6
DASHDOT
 62
     2
  5
1A2
 10
316.743949
 20
357.030684
 30
0.0
 11
232.171614
 21
387.812497
 31
0.0
  0
LINE
  8
LC-001-002-----0
  6
DASHDOT
 62
     2
  5
1A3
 10
316.743949
 20
357.030684
 30
0.0
 11
317.94102
 21
360.319608
 31
0.0
  0
ENDSEC
  0
EOF
