  0
SECTION
  2
HEADER
  9
$ACADVER
  1
AC1009
  9
$INSBASE
 10
0.0
 20
0.0
 30
0.0
  9
$EXTMIN
 10
0.0
 20
0.0
 30
0.0
  9
$EXTMAX
 10
840.0
 20
594.0
 30
0.0
  9
$LIMMIN
 10
0.0
 20
0.0
  9
$LIMMAX
 10
840.0
 20
594.0
  9
$ORTHOMODE
 70
     0
  9
$REGENMODE
 70
     1
  9
$FILLMODE
 70
     1
  9
$QTEXTMODE
 70
     0
  9
$MIRRTEXT
 70
     1
  9
$DRAGMODE
 70
     2
  9
$LTSCALE
 40
2.0
  9
$OSMODE
 70
     0
  9
$ATTMODE
 70
     1
  9
$TEXTSIZE
 40
0.2
  9
$TRACEWID
 40
0.05
  9
$TEXTSTYLE
  7
STANDARD
  9
$CLAYER
  8
0
  9
$CELTYPE
  6
BYLAYER
  9
$CECOLOR
 62
     7
  9
$DIMSCALE
 40
2.0
  9
$DIMASZ
 40
3.5
  9
$DIMEXO
 40
0.0625
  9
$DIMDLI
 40
0.38
  9
$DIMRND
 40
0.0
  9
$DIMDLE
 40
0.0
  9
$DIMEXE
 40
0.18
  9
$DIMTP
 40
0.0
  9
$DIMTM
 40
0.0
  9
$DIMTXT
 40
3.5
  9
$DIMCEN
 40
0.09
  9
$DIMTSZ
 40
0.0
  9
$DIMTOL
 70
     0
  9
$DIMLIM
 70
     0
  9
$DIMTIH
 70
     1
  9
$DIMTOH
 70
     1
  9
$DIMSE1
 70
     0
  9
$DIMSE2
 70
     0
  9
$DIMTAD
 70
     1
  9
$DIMZIN
 70
     0
  9
$DIMBLK
  1

  9
$DIMASO
 70
     1
  9
$DIMSHO
 70
     1
  9
$DIMPOST
  1

  9
$DIMAPOST
  1

  9
$DIMALT
 70
     0
  9
$DIMALTD
 70
     2
  9
$DIMALTF
 40
25.4
  9
$DIMLFAC
 40
1.0
  9
$DIMTOFL
 70
     0
  9
$DIMTVP
 40
0.0
  9
$DIMTIX
 70
     0
  9
$DIMSOXD
 70
     0
  9
$DIMSAH
 70
     0
  9
$DIMBLK1
  1

  9
$DIMBLK2
  1

  9
$DIMSTYLE
  2
STANDARD
  9
$DIMCLRD
 70
     0
  9
$DIMCLRE
 70
     0
  9
$DIMCLRT
 70
     0
  9
$DIMTFAC
 40
1.0
  9
$DIMGAP
 40
0.09
  9
$LUNITS
 70
     2
  9
$LUPREC
 70
     2
  9
$AXISMODE
 70
     0
  9
$AXISUNIT
 10
0.0
 20
0.0
  9
$SKETCHINC
 40
0.1
  9
$FILLETRAD
 40
0.0
  9
$AUNITS
 70
     0
  9
$AUPREC
 70
     0
  9
$MENU
  1
acad
  9
$ELEVATION
 40
0.0
  9
$PELEVATION
 40
0.0
  9
$THICKNESS
 40
0.0
  9
$LIMCHECK
 70
     0
  9
$BLIPMODE
 70
     1
  9
$CHAMFERA
 40
0.0
  9
$CHAMFERB
 40
0.0
  9
$SKPOLY
 70
     0
  9
$TDCREATE
 40
0.000000000
  9
$TDUPDATE
 40
0.000000000
  9
$TDINDWG
 40
0.0000000000
  9
$TDUSRTIMER
 40
0.0000000000
  9
$USRTIMER
 70
     1
  9
$ANGBASE
 50
0.0
  9
$ANGDIR
 70
     0
  9
$PDMODE
 70
     0
  9
$PDSIZE
 40
0.0
  9
$PLINEWID
 40
0.0
  9
$COORDS
 70
     0
  9
$SPLFRAME
 70
     0
  9
$SPLINETYPE
 70
     6
  9
$SPLINESEGS
 70
     8
  9
$ATTDIA
 70
     0
  9
$ATTREQ
 70
     1
  9
$HANDLING
 70
     1
  9
$HANDSEED
  5
DE
  9
$SURFTAB1
 70
     6
  9
$SURFTAB2
 70
     6
  9
$SURFTYPE
 70
     6
  9
$SURFU
 70
     6
  9
$SURFV
 70
     6
  9
$UCSNAME
  2

  9
$UCSORG
 10
0.0
 20
0.0
 30
0.0
  9
$UCSXDIR
 10
1.0
 20
0.0
 30
0.0
  9
$UCSYDIR
 10
0.0
 20
1.0
 30
0.0
  9
$PUCSNAME
  2

  9
$PUCSORG
 10
0.0
 20
0.0
 30
0.0
  9
$PUCSXDIR
 10
1.0
 20
0.0
 30
0.0
  9
$PUCSYDIR
 10
0.0
 20
1.0
 30
0.0
  9
$USERI1
 70
     0
  9
$USERI2
 70
     0
  9
$USERI3
 70
     0
  9
$USERI4
 70
     0
  9
$USERI5
 70
     0
  9
$USERR1
 40
0.0
  9
$USERR2
 40
0.0
  9
$USERR3
 40
0.0
  9
$USERR4
 40
0.0
  9
$USERR5
 40
0.0
  9
$WORLDVIEW
 70
     1
  9
$SHADEDGE
 70
     3
  9
$SHADEDIF
 70
    70
  9
$TILEMODE
 70
     1
  9
$MAXACTVP
 70
    16
  9
$PINSBASE
 10
0.0
 20
0.0
 30
0.0
  9
$PLIMCHECK
 70
     0
  9
$PEXTMIN
 10
1.000000E+20
 20
1.000000E+20
 30
1.000000E+20
  9
$PEXTMAX
 10
-1.000000E+20
 20
-1.000000E+20
 30
-1.000000E+20
  9
$PLIMMIN
 10
0.0
 20
0.0
  9
$PLIMMAX
 10
840.0
 20
594.0
  9
$UNITMODE
 70
     0
  9
$VISRETAIN
 70
     0
  9
$PLINEGEN
 70
     1
  9
$PSLTSCALE
 70
     0
  9
$TREEDEPTH
 70
  3020
  9
$DWGCODEPAGE
  3
dos850
  0
ENDSEC
  0
SECTION
  2
TABLES
  0
TABLE
  2
VPORT
 70
     1
  0
VPORT
  2
*ACTIVE
 70
     0
 10
0.0
 20
0.0
 11
1.0
 21
1.0
 12
420.0
 22
297.0
 13
0.0
 23
0.0
 14
1.0
 24
1.0
 15
0.0
 25
0.0
 16
0.0
 26
0.0
 36
1.0
 17
0.0
 27
0.0
 37
0.0
 40
594.0
 41
1.604229
 42
50.0
 43
0.0
 44
0.0
 50
0.0
 51
0.0
 71
     0
 72
   100
 73
     1
 74
     1
 75
     0
 76
     0
 77
     0
 78
     0
  0
ENDTAB
  0
TABLE
  2
LTYPE
 70
     2
  0
LTYPE
  2
CONTINUOUS
 70
    64
  3
Solid line
 72
    65
 73
     0
 40
0.0
  0
LTYPE
  2
DASHDOT
 70
    64
  3
__ . __ . __ . __ . __
 72
    65
 73
     4
 40
7.5
 49
5.0
 49
-1.25
 49
0.0
 49
-1.25
  0
ENDTAB
  0
TABLE
  2
LAYER
 70
     9
  0
LAYER
  2
0
 70
     0
 62
     7
  6
CONTINUOUS
  0
LAYER
  2
LC-INFO-1-2-MM-A3-0
 70
     1
 62
    -1
  6
CONTINUOUS
  0
LAYER
  2
LC-001-005-----0
 70
     0
 62
     2
  6
CONTINUOUS
  0
LAYER
  2
LC-005-003-MTH-0
 70
     0
 62
     2
  6
CONTINUOUS
  0
LAYER
  2
LC-004-003-----0
 70
     0
 62
     2
  6
CONTINUOUS
  0
LAYER
  2
LC-006-003-MTG-0
 70
     0
 62
     2
  6
CONTINUOUS
  0
LAYER
  2
LC-003-000-----0
 70
     0
 62
     1
  6
CONTINUOUS
  0
LAYER
  2
LC-002-002-----0
 70
     0
 62
     1
  6
CONTINUOUS
  0
LAYER
  2
LC-000
 70
     0
 62
     7
  6
CONTINUOUS
  0
ENDTAB
  0
TABLE
  2
STYLE
 70
     4
  0
STYLE
  2
STANDARD
 70
     0
 40
0.0
 41
1.0
 50
0.0
 71
     0
 42
0.0
  3
txt
  4

  0
STYLE
  2
LC-STANDARD
 70
    64
 40
0.0
 41
1.0
 50
0.0
 71
     0
 42
3.5
  3
MONOTXT
  4

  0
STYLE
  2
LC-TXTSTYLE-150-400-0-0-D2
 70
    64
 40
0.0
 41
1.0
 50
15.0
 71
     0
 42
3.5
  3
MONOTXT
  4

  0
STYLE
  2
LC-TXTSTYLE-150-400-0-0-D3
 70
    64
 40
0.0
 41
1.0
 50
15.0
 71
     0
 42
3.5
  3
LC-STANDARD
  4

  0
ENDTAB
  0
TABLE
  2
VIEW
 70
     0
  0
ENDTAB
  0
TABLE
  2
UCS
 70
     0
  0
ENDTAB
  0
TABLE
  2
APPID
 70
     1
  0
APPID
  2
ACAD
 70
     0
  0
ENDTAB
  0
TABLE
  2
DIMSTYLE
 70
     3
  0
DIMSTYLE
  2
STANDARD
 70
     0
  3

  4

  5

  6

  7

 40
1.0
 41
0.18
 42
0.0625
 43
0.38
 44
0.18
 45
0.0
 46
0.0
 47
0.0
 48
0.0
 71
     0
 72
     0
 73
     1
 74
     1
 75
     0
 76
     0
 77
     0
 78
     0
140
0.18
141
0.09
142
0.0
143
25.4
144
1.0
145
0.0
146
1.0
147
0.09
170
     0
171
     2
172
     0
173
     0
174
     0
175
     0
176
     0
177
     0
178
     0
  0
DIMSTYLE
  2
LC-STANDARD
 70
     0
  3

  4

  5

  6

  7

 40
1.0
 41
3.5
 42
0.0
 43
7.5
 44
1.8
 45
0.0
 46
0.0
 47
0.0
 48
0.0
 71
     0
 72
     0
 73
     0
 74
     0
 75
     0
 76
     0
 77
     1
 78
     8
140
3.5
141
0.0
142
0.0
143
25.4
144
1.0
145
0.0
146
0.71
147
1.5
170
     0
171
     2
172
     1
173
     0
174
     0
175
     0
176
     0
177
     0
178
     3
  0
DIMSTYLE
  2
LC-DIM-L-0090-02-02
 70
     0
  3

  4

  5

  6

  7

 40
2.0
 41
3.5
 42
0.0
 43
7.5
 44
1.8
 45
0.0
 46
0.0
 47
0.0
 48
0.0
 71
     0
 72
     0
 73
     0
 74
     0
 75
     0
 76
     0
 77
     1
 78
     8
140
9.0
141
0.0
142
0.0
143
25.4
144
1.0
145
0.0
146
0.71
147
1.5
170
     0
171
     2
172
     0
173
     0
174
     0
175
     0
176
     2
177
     2
178
     6
  0
ENDTAB
  0
ENDSEC
  0
SECTION
  2
BLOCKS
  0
BLOCK
  8
0
  5
23
  2
*X0
 70
    65
 10
383.1261
 20
336.675769
 30
0.0
  3
*X0
  0
LINE
  8
LC-001-005-----0
  6
CONTINUOUS
  5
25
 10
393.244609
 20
336.676066
 30
0.0
 11
394.468652
 21
337.900109
 31
0.0
  0
LINE
  8
LC-001-005-----0
  6
CONTINUOUS
  5
26
 10
389.708781
 20
336.675773
 30
0.0
 11
394.468647
 21
341.435639
 31
0.0
  0
LINE
  8
LC-001-005-----0
  6
CONTINUOUS
  5
27
 10
388.164958
 20
338.667483
 30
0.0
 11
394.468651
 21
344.971176
 31
0.0
  0
LINE
  8
LC-001-005-----0
  6
CONTINUOUS
  5
28
 10
387.704469
 20
341.742528
 30
0.0
 11
394.468656
 21
348.506715
 31
0.0
  0
LINE
  8
LC-001-005-----0
  6
CONTINUOUS
  5
29
 10
384.168939
 20
341.742532
 30
0.0
 11
385.593474
 21
343.167068
 31
0.0
  0
LINE
  8
LC-001-005-----0
  6
CONTINUOUS
  5
2A
 10
390.484405
 20
348.057998
 30
0.0
 11
394.46866
 21
352.042253
 31
0.0
  0
LINE
  8
LC-001-005-----0
  6
CONTINUOUS
  5
2B
 10
386.965185
 20
348.074312
 30
0.0
 11
394.468665
 21
355.577792
 31
0.0
  0
LINE
  8
LC-001-005-----0
  6
CONTINUOUS
  5
2C
 10
383.429657
 20
348.074318
 30
0.0
 11
383.769107
 21
348.413768
 31
0.0
  0
LINE
  8
LC-001-005-----0
  6
CONTINUOUS
  5
2D
 10
389.729646
 20
354.374306
 30
0.0
 11
394.46867
 21
359.113331
 31
0.0
  0
LINE
  8
LC-001-005-----0
  6
CONTINUOUS
  5
2E
 10
386.194116
 20
354.374311
 30
0.0
 11
390.309856
 21
358.490051
 31
0.0
  0
LINE
  8
LC-001-005-----0
  6
CONTINUOUS
  5
2F
 10
391.303452
 20
359.483647
 30
0.0
 11
394.468674
 21
362.648869
 31
0.0
  0
LINE
  8
LC-001-005-----0
  6
CONTINUOUS
  5
30
 10
388.958579
 20
360.674308
 30
0.0
 11
394.468679
 21
366.184408
 31
0.0
  0
LINE
  8
LC-001-005-----0
  6
CONTINUOUS
  5
31
 10
396.83442
 20
368.550149
 30
0.0
 11
397.618961
 21
369.33469
 31
0.0
  0
LINE
  8
LC-001-005-----0
  6
CONTINUOUS
  5
32
 10
385.423052
 20
360.674314
 30
0.0
 11
388.485489
 21
363.736752
 31
0.0
  0
LINE
  8
LC-001-005-----0
  6
CONTINUOUS
  5
33
 10
391.194374
 20
366.445636
 30
0.0
 11
396.635503
 21
371.886766
 31
0.0
  0
LINE
  8
LC-001-005-----0
  6
CONTINUOUS
  5
34
 10
388.187513
 20
366.974309
 30
0.0
 11
393.43354
 21
372.220336
 31
0.0
  0
LINE
  8
LC-001-005-----0
  6
CONTINUOUS
  5
35
 10
384.651985
 20
366.974316
 30
0.0
 11
386.193205
 21
368.515536
 31
0.0
  0
ENDBLK
  8
0
  5
36
  0
BLOCK
  8
0
  5
38
  2
*X1
 70
    65
 10
317.618684
 20
336.676417
 30
0.0
  3
*X1
  0
LINE
  8
LC-001-005-----0
  6
CONTINUOUS
  5
39
 10
326.069826
 20
336.676428
 30
0.0
 11
327.07189
 21
337.678491
 31
0.0
  0
LINE
  8
LC-001-005-----0
  6
CONTINUOUS
  5
3A
 10
331.136001
 20
341.742603
 30
0.0
 11
331.492965
 21
342.099566
 31
0.0
  0
LINE
  8
LC-001-005-----0
  6
CONTINUOUS
  5
3B
 10
322.534329
 20
336.676464
 30
0.0
 11
327.071918
 21
341.214054
 31
0.0
  0
LINE
  8
LC-001-005-----0
  6
CONTINUOUS
  5
3C
 10
327.600472
 20
341.742608
 30
0.0
 11
329.251528
 21
343.393663
 31
0.0
  0
LINE
  8
LC-001-005-----0
  6
CONTINUOUS
  5
3D
 10
320.768404
 20
338.446074
 30
0.0
 11
327.010091
 21
344.68776
 31
0.0
  0
LINE
  8
LC-001-005-----0
  6
CONTINUOUS
  5
3E
 10
330.396744
 20
348.074414
 30
0.0
 11
331.004131
 21
348.6818
 31
0.0
  0
LINE
  8
LC-001-005-----0
  6
CONTINUOUS
  5
3F
 10
320.768649
 20
341.981852
 30
0.0
 11
324.768654
 21
345.981857
 31
0.0
  0
LINE
  8
LC-001-005-----0
  6
CONTINUOUS
  5
40
 10
326.861215
 20
348.074418
 30
0.0
 11
328.762694
 21
349.975897
 31
0.0
  0
LINE
  8
LC-001-005-----0
  6
CONTINUOUS
  5
41
 10
320.768653
 20
345.517391
 30
0.0
 11
326.521257
 21
351.269994
 31
0.0
  0
LINE
  8
LC-001-005-----0
  6
CONTINUOUS
  5
42
 10
329.625666
 20
354.374403
 30
0.0
 11
330.515343
 21
355.264081
 31
0.0
  0
LINE
  8
LC-001-005-----0
  6
CONTINUOUS
  5
43
 10
320.768658
 20
349.052929
 30
0.0
 11
324.289775
 21
352.574046
 31
0.0
  0
LINE
  8
LC-001-005-----0
  6
CONTINUOUS
  5
44
 10
326.090145
 20
354.374417
 30
0.0
 11
328.273974
 21
356.558245
 31
0.0
  0
LINE
  8
LC-001-005-----0
  6
CONTINUOUS
  5
45
 10
320.768663
 20
352.588468
 30
0.0
 11
326.032605
 21
357.85241
 31
0.0
  0
LINE
  8
LC-001-005-----0
  6
CONTINUOUS
  5
46
 10
328.854756
 20
360.674562
 30
0.0
 11
330.026463
 21
361.846268
 31
0.0
  0
LINE
  8
LC-001-005-----0
  6
CONTINUOUS
  5
47
 10
320.768667
 20
356.124007
 30
0.0
 11
323.973864
 21
359.329203
 31
0.0
  0
LINE
  8
LC-001-005-----0
  6
CONTINUOUS
  5
48
 10
325.319388
 20
360.674728
 30
0.0
 11
327.785026
 21
363.140365
 31
0.0
  0
LINE
  8
LC-001-005-----0
  6
CONTINUOUS
  5
49
 10
331.618875
 20
366.974214
 30
0.0
 11
331.767017
 21
367.122356
 31
0.0
  0
LINE
  8
LC-001-005-----0
  6
CONTINUOUS
  5
4A
 10
320.768672
 20
359.659545
 30
0.0
 11
325.543589
 21
364.434462
 31
0.0
  0
LINE
  8
LC-001-005-----0
  6
CONTINUOUS
  5
4B
 10
328.083451
 20
366.974323
 30
0.0
 11
329.428128
 21
368.319001
 31
0.0
  0
LINE
  8
LC-001-005-----0
  6
CONTINUOUS
  5
4C
 10
320.768677
 20
363.195084
 30
0.0
 11
324.076987
 21
366.503394
 31
0.0
  0
LINE
  8
LC-001-005-----0
  6
CONTINUOUS
  5
4D
 10
324.389707
 20
366.816114
 30
0.0
 11
327.089238
 21
369.515645
 31
0.0
  0
LINE
  8
LC-001-005-----0
  6
CONTINUOUS
  5
4E
 10
320.768682
 20
366.730622
 30
0.0
 11
324.750348
 21
370.712289
 31
0.0
  0
LINE
  8
LC-001-005-----0
  6
CONTINUOUS
  5
4F
 10
319.051954
 20
368.549429
 30
0.0
 11
322.411459
 21
371.908933
 31
0.0
  0
LINE
  8
LC-001-005-----0
  6
CONTINUOUS
  5
50
 10
317.928304
 20
370.961313
 30
0.0
 11
319.406799
 21
372.439807
 31
0.0
  0
ENDBLK
  8
0
  5
51
  0
BLOCK
  8
0
  5
53
  2
*D2
 70
    65
 10
0.0
 20
0.0
 30
0.0
  3
*D2
  0
LINE
  8
LC-005-003-MTH-0
  6
CONTINUOUS
  5
55
 10
320.768275
 20
336.676483
 30
0.0
 11
269.2
 21
336.676483
 31
0.0
  0
LINE
  8
LC-005-003-MTH-0
  6
CONTINUOUS
  5
56
 10
320.768681
 20
372.750153
 30
0.0
 11
269.2
 21
372.750153
 31
0.0
  0
LINE
  8
LC-004-003-----0
  6
CONTINUOUS
  5
58
 10
282.349471
 20
318.830475
 30
0.0
 11
280.0
 21
336.676483
 31
0.0
  0
LINE
  8
LC-004-003-----0
  6
CONTINUOUS
  5
59
 10
280.0
 20
336.676483
 30
0.0
 11
277.650529
 21
318.830475
 31
0.0
  0
LINE
  8
LC-004-003-----0
  6
CONTINUOUS
  5
5A
 10
277.650529
 20
318.830475
 30
0.0
 11
282.349471
 21
318.830475
 31
0.0
  0
LINE
  8
LC-004-003-----0
  6
CONTINUOUS
  5
5B
 10
281.738609
 20
318.790437
 30
0.0
 11
280.0
 21
331.996483
 31
0.0
  0
LINE
  8
LC-004-003-----0
  6
CONTINUOUS
  5
5C
 10
280.0
 20
331.996483
 30
0.0
 11
278.261391
 21
318.790437
 31
0.0
  0
LINE
  8
LC-004-003-----0
  6
CONTINUOUS
  5
5D
 10
281.127746
 20
318.750399
 30
0.0
 11
280.0
 21
327.316483
 31
0.0
  0
LINE
  8
LC-004-003-----0
  6
CONTINUOUS
  5
5E
 10
280.0
 20
327.316483
 30
0.0
 11
278.872254
 21
318.750399
 31
0.0
  0
LINE
  8
LC-004-003-----0
  6
CONTINUOUS
  5
5F
 10
280.516884
 20
318.710361
 30
0.0
 11
280.0
 21
322.636483
 31
0.0
  0
LINE
  8
LC-004-003-----0
  6
CONTINUOUS
  5
60
 10
280.0
 20
322.636483
 30
0.0
 11
279.483116
 21
318.710361
 31
0.0
  0
LINE
  8
LC-004-003-----0
  6
CONTINUOUS
  5
61
 10
277.650529
 20
390.596161
 30
0.0
 11
280.0
 21
372.750153
 31
0.0
  0
LINE
  8
LC-004-003-----0
  6
CONTINUOUS
  5
62
 10
280.0
 20
372.750153
 30
0.0
 11
282.349471
 21
390.596161
 31
0.0
  0
LINE
  8
LC-004-003-----0
  6
CONTINUOUS
  5
63
 10
282.349471
 20
390.596161
 30
0.0
 11
277.650529
 21
390.596161
 31
0.0
  0
LINE
  8
LC-004-003-----0
  6
CONTINUOUS
  5
64
 10
278.261391
 20
390.636199
 30
0.0
 11
280.0
 21
377.430153
 31
0.0
  0
LINE
  8
LC-004-003-----0
  6
CONTINUOUS
  5
65
 10
280.0
 20
377.430153
 30
0.0
 11
281.738609
 21
390.636199
 31
0.0
  0
LINE
  8
LC-004-003-----0
  6
CONTINUOUS
  5
66
 10
278.872254
 20
390.676237
 30
0.0
 11
280.0
 21
382.110153
 31
0.0
  0
LINE
  8
LC-004-003-----0
  6
CONTINUOUS
  5
67
 10
280.0
 20
382.110153
 30
0.0
 11
281.127746
 21
390.676237
 31
0.0
  0
LINE
  8
LC-004-003-----0
  6
CONTINUOUS
  5
68
 10
279.483116
 20
390.716275
 30
0.0
 11
280.0
 21
386.790153
 31
0.0
  0
LINE
  8
LC-004-003-----0
  6
CONTINUOUS
  5
69
 10
280.0
 20
386.790153
 30
0.0
 11
280.516884
 21
390.716275
 31
0.0
  0
LINE
  8
LC-006-003-MTG-0
  6
CONTINUOUS
  5
6B
 10
280.0
 20
278.673963
 30
0.0
 11
280.0
 21
397.950153
 31
0.0
  0
TEXT
  8
LC-004-003-----0
  6
CONTINUOUS
 62
     6
  5
6D
 10
269.568001
 20
291.265744
 30
0.0
 40
18.0
  1
36
 50
90.0
 41
0.9
 51
15.0
  7
LC-TXTSTYLE-150-400-0-0-D0
 72
     2
 11
269.568001
 21
314.991728
 31
0.0
  0
ENDBLK
  8
0
  5
6E
  0
BLOCK
  8
0
  5
70
  2
*D3
 70
    65
 10
0.0
 20
0.0
 30
0.0
  3
*D3
  0
LINE
  8
LC-005-003-MTH-0
  6
CONTINUOUS
  5
71
 10
320.768172
 20
336.676483
 30
0.0
 11
320.768172
 21
277.2
 31
0.0
  0
LINE
  8
LC-005-003-MTH-0
  6
CONTINUOUS
  5
72
 10
394.468653
 20
336.676168
 30
0.0
 11
394.468653
 21
277.2
 31
0.0
  0
LINE
  8
LC-006-003-MTG-0
  6
CONTINUOUS
  5
73
 10
320.768172
 20
288.0
 30
0.0
 11
394.468653
 21
288.0
 31
0.0
  0
LINE
  8
LC-004-003-----0
  6
CONTINUOUS
  5
74
 10
338.614179
 20
290.349471
 30
0.0
 11
320.768172
 21
288.0
 31
0.0
  0
LINE
  8
LC-004-003-----0
  6
CONTINUOUS
  5
75
 10
320.768172
 20
288.0
 30
0.0
 11
338.614179
 21
285.650529
 31
0.0
  0
LINE
  8
LC-004-003-----0
  6
CONTINUOUS
  5
76
 10
338.614179
 20
285.650529
 30
0.0
 11
338.614179
 21
290.349471
 31
0.0
  0
LINE
  8
LC-004-003-----0
  6
CONTINUOUS
  5
77
 10
338.654217
 20
289.738609
 30
0.0
 11
325.448172
 21
288.0
 31
0.0
  0
LINE
  8
LC-004-003-----0
  6
CONTINUOUS
  5
78
 10
325.448172
 20
288.0
 30
0.0
 11
338.654217
 21
286.261391
 31
0.0
  0
LINE
  8
LC-004-003-----0
  6
CONTINUOUS
  5
79
 10
338.694255
 20
289.127746
 30
0.0
 11
330.128172
 21
288.0
 31
0.0
  0
LINE
  8
LC-004-003-----0
  6
CONTINUOUS
  5
7A
 10
330.128172
 20
288.0
 30
0.0
 11
338.694255
 21
286.872254
 31
0.0
  0
LINE
  8
LC-004-003-----0
  6
CONTINUOUS
  5
7B
 10
338.734293
 20
288.516884
 30
0.0
 11
334.808172
 21
288.0
 31
0.0
  0
LINE
  8
LC-004-003-----0
  6
CONTINUOUS
  5
7C
 10
334.808172
 20
288.0
 30
0.0
 11
338.734293
 21
287.483116
 31
0.0
  0
LINE
  8
LC-004-003-----0
  6
CONTINUOUS
  5
7D
 10
376.622646
 20
285.650529
 30
0.0
 11
394.468653
 21
288.0
 31
0.0
  0
LINE
  8
LC-004-003-----0
  6
CONTINUOUS
  5
7E
 10
394.468653
 20
288.0
 30
0.0
 11
376.622646
 21
290.349471
 31
0.0
  0
LINE
  8
LC-004-003-----0
  6
CONTINUOUS
  5
7F
 10
376.622646
 20
290.349471
 30
0.0
 11
376.622646
 21
285.650529
 31
0.0
  0
LINE
  8
LC-004-003-----0
  6
CONTINUOUS
  5
80
 10
376.582608
 20
286.261391
 30
0.0
 11
389.788653
 21
288.0
 31
0.0
  0
LINE
  8
LC-004-003-----0
  6
CONTINUOUS
  5
81
 10
389.788653
 20
288.0
 30
0.0
 11
376.582608
 21
289.738609
 31
0.0
  0
LINE
  8
LC-004-003-----0
  6
CONTINUOUS
  5
82
 10
376.54257
 20
286.872254
 30
0.0
 11
385.108653
 21
288.0
 31
0.0
  0
LINE
  8
LC-004-003-----0
  6
CONTINUOUS
  5
83
 10
385.108653
 20
288.0
 30
0.0
 11
376.54257
 21
289.127746
 31
0.0
  0
LINE
  8
LC-004-003-----0
  6
CONTINUOUS
  5
84
 10
376.502532
 20
287.483116
 30
0.0
 11
380.428653
 21
288.0
 31
0.0
  0
LINE
  8
LC-004-003-----0
  6
CONTINUOUS
  5
85
 10
380.428653
 20
288.0
 30
0.0
 11
376.502532
 21
288.516884
 31
0.0
  0
TEXT
  8
LC-004-003-----0
  6
CONTINUOUS
 62
     6
  5
86
 10
340.841446
 20
298.431999
 30
0.0
 40
18.0
  1
Ø74
 51
15.0
  7
LC-TXTSTYLE-150-400-0-0-D0
 72
     1
 11
358.061918
 21
298.431999
 31
0.0
  0
ENDBLK
  8
0
  5
87
  0
BLOCK
  8
0
  5
89
  2
*D4
 70
    65
 10
0.0
 20
0.0
 30
0.0
  3
*D4
  0
LINE
  8
LC-005-003-MTH-0
  6
CONTINUOUS
  5
8A
 10
332.056593
 20
366.974201
 30
0.0
 11
332.056593
 21
410.8
 31
0.0
  0
LINE
  8
LC-005-003-MTH-0
  6
CONTINUOUS
  5
8B
 10
383.18118
 20
366.974315
 30
0.0
 11
383.18118
 21
410.8
 31
0.0
  0
LINE
  8
LC-004-003-----0
  6
CONTINUOUS
  5
8C
 10
314.210586
 20
397.650529
 30
0.0
 11
332.056593
 21
400.0
 31
0.0
  0
LINE
  8
LC-004-003-----0
  6
CONTINUOUS
  5
8D
 10
332.056593
 20
400.0
 30
0.0
 11
314.210586
 21
402.349471
 31
0.0
  0
LINE
  8
LC-004-003-----0
  6
CONTINUOUS
  5
8E
 10
314.210586
 20
402.349471
 30
0.0
 11
314.210586
 21
397.650529
 31
0.0
  0
LINE
  8
LC-004-003-----0
  6
CONTINUOUS
  5
8F
 10
314.170548
 20
398.261391
 30
0.0
 11
327.376593
 21
400.0
 31
0.0
  0
LINE
  8
LC-004-003-----0
  6
CONTINUOUS
  5
90
 10
327.376593
 20
400.0
 30
0.0
 11
314.170548
 21
401.738609
 31
0.0
  0
LINE
  8
LC-004-003-----0
  6
CONTINUOUS
  5
91
 10
314.13051
 20
398.872254
 30
0.0
 11
322.696593
 21
400.0
 31
0.0
  0
LINE
  8
LC-004-003-----0
  6
CONTINUOUS
  5
92
 10
322.696593
 20
400.0
 30
0.0
 11
314.13051
 21
401.127746
 31
0.0
  0
LINE
  8
LC-004-003-----0
  6
CONTINUOUS
  5
93
 10
314.090472
 20
399.483116
 30
0.0
 11
318.016593
 21
400.0
 31
0.0
  0
LINE
  8
LC-004-003-----0
  6
CONTINUOUS
  5
94
 10
318.016593
 20
400.0
 30
0.0
 11
314.090472
 21
400.516884
 31
0.0
  0
LINE
  8
LC-004-003-----0
  6
CONTINUOUS
  5
95
 10
401.027188
 20
402.349471
 30
0.0
 11
383.18118
 21
400.0
 31
0.0
  0
LINE
  8
LC-004-003-----0
  6
CONTINUOUS
  5
96
 10
383.18118
 20
400.0
 30
0.0
 11
401.027188
 21
397.650529
 31
0.0
  0
LINE
  8
LC-004-003-----0
  6
CONTINUOUS
  5
97
 10
401.027188
 20
397.650529
 30
0.0
 11
401.027188
 21
402.349471
 31
0.0
  0
LINE
  8
LC-004-003-----0
  6
CONTINUOUS
  5
98
 10
401.067226
 20
401.738609
 30
0.0
 11
387.86118
 21
400.0
 31
0.0
  0
LINE
  8
LC-004-003-----0
  6
CONTINUOUS
  5
99
 10
387.86118
 20
400.0
 30
0.0
 11
401.067226
 21
398.261391
 31
0.0
  0
LINE
  8
LC-004-003-----0
  6
CONTINUOUS
  5
9A
 10
401.107264
 20
401.127746
 30
0.0
 11
392.54118
 21
400.0
 31
0.0
  0
LINE
  8
LC-004-003-----0
  6
CONTINUOUS
  5
9B
 10
392.54118
 20
400.0
 30
0.0
 11
401.107264
 21
398.872254
 31
0.0
  0
LINE
  8
LC-004-003-----0
  6
CONTINUOUS
  5
9C
 10
401.147302
 20
400.516884
 30
0.0
 11
397.22118
 21
400.0
 31
0.0
  0
LINE
  8
LC-004-003-----0
  6
CONTINUOUS
  5
9D
 10
397.22118
 20
400.0
 30
0.0
 11
401.147302
 21
399.483116
 31
0.0
  0
LINE
  8
LC-006-003-MTG-0
  6
CONTINUOUS
  5
9E
 10
306.856593
 20
400.0
 30
0.0
 11
457.3837
 21
400.0
 31
0.0
  0
TEXT
  8
LC-004-003-----0
  6
CONTINUOUS
 62
     6
  5
9F
 10
410.456426
 20
410.431999
 30
0.0
 40
18.0
  1
Ø53
 51
15.0
  7
LC-TXTSTYLE-150-400-0-0-D0
  0
ENDBLK
  8
0
  5
A0
  0
BLOCK
  8
0
  5
A2
  2
BLK1
 70
    64
 10
0.0
 20
0.0
 30
0.0
  3
BLK1
  0
ENDBLK
  8
0
  5
A3
  0
ENDSEC
  0
SECTION
  2
ENTITIES
  0
VIEWPORT
  8
LC-000
  5
D9
 67
     1
 68
     1
 10
420.0
 20
297.0
 30
0.0
 40
840.0
 41
594.0
 69
     1
1001
ACAD
1000
MVIEW
1002
{
1070
    16
1010
0.0
1020
0.0
1030
0.0
1010
0.0
1020
0.0
1030
1.0
1040
0.0
1040
594.0
1040
420.0
1040
297.0
1040
50.0
1040
0.0
1040
0.0
1070
     0
1070
   100
1070
     1
1070
     1
1070
     0
1070
     0
1070
     0
1070
     0
1040
0.0
1040
0.0
1040
0.0
1040
1.0
1040
1.0
1040
0.0
1040
0.0
1070
     0
1002
{
1002
}
1002
}
  0
VIEWPORT
  8
0
  5
DA
 67
     1
 68
     1
 10
0.0
 20
0.0
 30
0.0
 40
0.0
 41
0.0
 69
     1
1001
ACAD
1000
MVIEW
1002
{
1070
    16
1010
0.0
1020
0.0
1030
0.0
1010
0.0
1020
0.0
1030
1.0
1040
0.0
1040
594.0
1040
0.0
1040
0.0
1040
50.0
1040
0.0
1040
0.0
1070
     0
1070
   100
1070
     0
1070
     1
1070
     0
1070
     0
1070
     0
1070
     0
1040
0.0
1040
0.0
1040
0.0
1040
0.5
1040
0.5
1040
0.5
1040
0.5
1070
     0
1002
{
1002
}
1002
}
  0
INSERT
  8
0
  5
A4
  2
*X0
 10
383.1261
 20
336.675769
 30
0.0
  0
INSERT
  8
0
  5
A5
  2
*X1
 10
317.618684
 20
336.676417
 30
0.0
  0
DIMENSION
  8
0
  5
A6
  2
*D2
 10
280.0
 20
324.918
 30
0.0
 11
280.0
 21
324.918
 31
0.0
  1
36
 13
320.768681
 23
372.750153
 33
0.0
 14
320.768275
 24
336.676483
 34
0.0
 50
90.0
  3
LC-DIM-L-0090-02-02
  0
DIMENSION
  8
0
  5
A7
  2
*D3
 10
355.266673
 20
288.0
 30
0.0
 11
355.266673
 21
288.0
 31
0.0
  1
%%c74
 13
394.468653
 23
336.676168
 33
0.0
 14
320.768172
 24
336.676483
 34
0.0
  3
LC-DIM-L-0090-02-02
  0
DIMENSION
  8
0
  5
A8
  2
*D4
 10
368.888584
 20
400.0
 30
0.0
 11
368.888584
 21
400.0
 31
0.0
  1
%%c53
 13
383.18118
 23
366.974315
 33
0.0
 14
332.056593
 24
366.974201
 34
0.0
  3
LC-DIM-L-0090-02-02
  0
INSERT
  8
0
  5
AA
  2
BLK1
 10
0.0
 20
0.0
 30
0.0
  0
LINE
  8
LC-002-002-----0
  6
CONTINUOUS
  5
AC
 10
388.16496
 20
336.676161
 30
0.0
 11
388.164954
 21
341.742524
 31
0.0
  0
LINE
  8
LC-002-002-----0
  6
CONTINUOUS
  5
AD
 10
327.071882
 20
336.676443
 30
0.0
 11
327.071923
 21
341.742607
 31
0.0
  0
LINE
  8
LC-002-002-----0
  6
CONTINUOUS
  5
AE
 10
394.468682
 20
368.5493
 30
0.0
 11
394.468647
 21
341.774298
 31
0.0
  0
LINE
  8
LC-002-002-----0
  6
CONTINUOUS
  5
AF
 10
383.18118
 20
366.974315
 30
0.0
 11
394.468967
 21
372.750153
 31
0.0
  0
LINE
  8
LC-002-002-----0
  6
CONTINUOUS
  5
B0
 10
332.056173
 20
360.674408
 30
0.0
 11
390.303161
 21
360.674306
 31
0.0
  0
LINE
  8
LC-002-002-----0
  6
CONTINUOUS
  5
B1
 10
383.181163
 20
354.374315
 30
0.0
 11
390.303152
 21
354.374306
 31
0.0
  0
LINE
  8
LC-002-002-----0
  6
CONTINUOUS
  5
B2
 10
332.056157
 20
348.074408
 30
0.0
 11
390.303144
 21
348.074306
 31
0.0
  0
ARC
  8
LC-003-000-----0
  6
CONTINUOUS
  5
B3
 10
390.303168
 20
365.958795
 30
0.0
 40
1.015511
 50
299.999899
 51
89.999543
  0
ARC
  8
LC-003-000-----0
  6
CONTINUOUS
  5
B4
 10
390.303159
 20
359.658795
 30
0.0
 40
1.015511
 50
299.999899
 51
89.999543
  0
ARC
  8
LC-003-000-----0
  6
CONTINUOUS
  5
B5
 10
390.303151
 20
353.358795
 30
0.0
 40
1.015511
 50
299.999899
 51
89.999543
  0
ARC
  8
LC-003-000-----0
  6
CONTINUOUS
  5
B6
 10
390.303143
 20
347.058795
 30
0.0
 40
1.015511
 50
299.999899
 51
89.999543
  0
ARC
  8
LC-002-002-----0
  6
CONTINUOUS
  5
B7
 10
394.468961
 20
369.600153
 30
0.0
 40
3.15
 50
359.999887
 51
89.999887
  0
LINE
  8
LC-002-002-----0
  6
CONTINUOUS
  5
B8
 10
397.618959
 20
368.550147
 30
0.0
 11
394.468959
 21
368.550153
 31
0.0
  0
LINE
  8
LC-002-002-----0
  6
CONTINUOUS
  5
B9
 10
332.056182
 20
366.974408
 30
0.0
 11
390.303169
 21
366.974306
 31
0.0
  0
LINE
  8
LC-002-002-----0
  6
CONTINUOUS
  5
BA
 10
327.071923
 20
341.742608
 30
0.0
 11
388.164954
 21
341.742527
 31
0.0
  0
LINE
  8
LC-002-002-----0
  6
CONTINUOUS
  5
BB
 10
394.468647
 20
341.774298
 30
0.0
 11
394.468653
 21
336.676168
 31
0.0
  0
LINE
  8
LC-002-002-----0
  6
CONTINUOUS
  5
BC
 10
394.46867
 20
336.676168
 30
0.0
 11
389.66496
 21
336.676161
 31
0.0
  0
LINE
  8
LC-002-002-----0
  6
CONTINUOUS
  5
BD
 10
390.810922
 20
365.079335
 30
0.0
 11
383.181172
 21
360.674315
 31
0.0
  0
LINE
  8
LC-002-002-----0
  6
CONTINUOUS
  5
BE
 10
383.181163
 20
354.374315
 30
0.0
 11
390.810913
 21
358.779335
 31
0.0
  0
LINE
  8
LC-002-002-----0
  6
CONTINUOUS
  5
BF
 10
390.810905
 20
352.479335
 30
0.0
 11
383.181155
 21
348.074315
 31
0.0
  0
LINE
  8
LC-002-002-----0
  6
CONTINUOUS
  5
C0
 10
390.810897
 20
346.179335
 30
0.0
 11
383.1261
 21
341.742534
 31
0.0
  0
LINE
  8
LC-002-002-----0
  6
CONTINUOUS
  5
C1
 10
383.181163
 20
354.374201
 30
0.0
 11
324.934175
 21
354.374201
 31
0.0
  0
LINE
  8
LC-002-002-----0
  6
CONTINUOUS
  5
C2
 10
394.468961
 20
372.750153
 30
0.0
 11
320.768681
 21
372.750153
 31
0.0
  0
LINE
  8
LC-002-002-----0
  6
CONTINUOUS
  5
C3
 10
397.618961
 20
369.600158
 30
0.0
 11
397.618962
 21
368.550147
 31
0.0
  0
ARC
  8
LC-002-002-----0
  6
CONTINUOUS
  5
C4
 10
320.768685
 20
369.599426
 30
0.0
 40
3.15
 50
90.000076
 51
179.999718
  0
LINE
  8
LC-002-002-----0
  6
CONTINUOUS
  5
C5
 10
317.618684
 20
368.54943
 30
0.0
 11
317.618683
 21
369.59944
 31
0.0
  0
LINE
  8
LC-002-002-----0
  6
CONTINUOUS
  5
C6
 10
317.618684
 20
368.54943
 30
0.0
 11
320.768684
 21
368.549426
 31
0.0
  0
LINE
  8
LC-002-002-----0
  6
CONTINUOUS
  5
C7
 10
320.768684
 20
368.549426
 30
0.0
 11
320.768648
 21
341.774547
 31
0.0
  0
LINE
  8
LC-002-002-----0
  6
CONTINUOUS
  5
C8
 10
320.768316
 20
341.774613
 30
0.0
 11
320.768275
 21
336.676483
 31
0.0
  0
LINE
  8
LC-002-002-----0
  6
CONTINUOUS
  5
C9
 10
320.768172
 20
336.676483
 30
0.0
 11
389.66496
 21
336.675769
 31
0.0
  0
LINE
  8
LC-002-002-----0
  6
CONTINUOUS
  5
CA
 10
324.42641
 20
346.179452
 30
0.0
 11
332.108475
 21
341.744201
 31
0.0
  0
LINE
  8
LC-002-002-----0
  6
CONTINUOUS
  5
CB
 10
332.056157
 20
348.074411
 30
0.0
 11
324.93416
 21
348.074421
 31
0.0
  0
LINE
  8
LC-002-002-----0
  6
CONTINUOUS
  5
CC
 10
324.426419
 20
352.479452
 30
0.0
 11
332.056157
 21
348.074411
 31
0.0
  0
LINE
  8
LC-002-002-----0
  6
CONTINUOUS
  5
CD
 10
332.05653
 20
354.374201
 30
0.0
 11
324.426427
 21
358.779452
 31
0.0
  0
LINE
  8
LC-002-002-----0
  6
CONTINUOUS
  5
CE
 10
332.056173
 20
360.674411
 30
0.0
 11
324.934185
 21
360.674421
 31
0.0
  0
LINE
  8
LC-002-002-----0
  6
CONTINUOUS
  5
CF
 10
324.426435
 20
365.079452
 30
0.0
 11
332.056173
 21
360.674411
 31
0.0
  0
LINE
  8
LC-002-002-----0
  6
CONTINUOUS
  5
D0
 10
332.056593
 20
366.974201
 30
0.0
 11
324.934192
 21
366.974201
 31
0.0
  0
LINE
  8
LC-002-002-----0
  6
CONTINUOUS
  5
D1
 10
332.056593
 20
366.974201
 30
0.0
 11
320.768681
 21
372.749426
 31
0.0
  0
ARC
  8
LC-003-000-----0
  6
CONTINUOUS
  5
D2
 10
324.934192
 20
365.95891
 30
0.0
 40
1.015511
 50
90.000363
 51
239.999949
  0
ARC
  8
LC-003-000-----0
  6
CONTINUOUS
  5
D3
 10
324.93425
 20
359.659235
 30
0.0
 40
1.015511
 50
90.000326
 51
239.999912
  0
ARC
  8
LC-003-000-----0
  6
CONTINUOUS
  5
D4
 10
324.934175
 20
353.35891
 30
0.0
 40
1.015511
 50
90.000363
 51
239.999949
  0
ARC
  8
LC-003-000-----0
  6
CONTINUOUS
  5
D5
 10
324.934166
 20
347.05891
 30
0.0
 40
1.015511
 50
90.000363
 51
239.999949
  0
LINE
  8
LC-002-002-----0
  6
DASHDOT
 62
     2
  5
D7
 10
357.618658
 20
336.676101
 30
0.0
 11
357.618658
 21
372.750153
 31
0.0
  0
ENDSEC
  0
EOF
