  0
SECTION
  2
HEADER
  9
$ACADVER
  1
AC1009
  9
$INSBASE
 10
0.0
 20
0.0
 30
0.0
  9
$EXTMIN
 10
0.0
 20
0.0
 30
0.0
  9
$EXTMAX
 10
840.0
 20
594.0
 30
0.0
  9
$LIMMIN
 10
0.0
 20
0.0
  9
$LIMMAX
 10
840.0
 20
594.0
  9
$ORTHOMODE
 70
     0
  9
$REGENMODE
 70
     1
  9
$FILLMODE
 70
     1
  9
$QTEXTMODE
 70
     0
  9
$MIRRTEXT
 70
     1
  9
$DRAGMODE
 70
     2
  9
$LTSCALE
 40
2.0
  9
$OSMODE
 70
     0
  9
$ATTMODE
 70
     1
  9
$TEXTSIZE
 40
0.2
  9
$TRACEWID
 40
0.05
  9
$TEXTSTYLE
  7
STANDARD
  9
$CLAYER
  8
0
  9
$CELTYPE
  6
BYLAYER
  9
$CECOLOR
 62
     7
  9
$DIMSCALE
 40
2.0
  9
$DIMASZ
 40
3.5
  9
$DIMEXO
 40
0.0625
  9
$DIMDLI
 40
0.38
  9
$DIMRND
 40
0.0
  9
$DIMDLE
 40
0.0
  9
$DIMEXE
 40
0.18
  9
$DIMTP
 40
0.0
  9
$DIMTM
 40
0.0
  9
$DIMTXT
 40
3.5
  9
$DIMCEN
 40
0.09
  9
$DIMTSZ
 40
0.0
  9
$DIMTOL
 70
     0
  9
$DIMLIM
 70
     0
  9
$DIMTIH
 70
     1
  9
$DIMTOH
 70
     1
  9
$DIMSE1
 70
     0
  9
$DIMSE2
 70
     0
  9
$DIMTAD
 70
     1
  9
$DIMZIN
 70
     0
  9
$DIMBLK
  1

  9
$DIMASO
 70
     1
  9
$DIMSHO
 70
     1
  9
$DIMPOST
  1

  9
$DIMAPOST
  1

  9
$DIMALT
 70
     0
  9
$DIMALTD
 70
     2
  9
$DIMALTF
 40
25.4
  9
$DIMLFAC
 40
1.0
  9
$DIMTOFL
 70
     0
  9
$DIMTVP
 40
0.0
  9
$DIMTIX
 70
     0
  9
$DIMSOXD
 70
     0
  9
$DIMSAH
 70
     0
  9
$DIMBLK1
  1

  9
$DIMBLK2
  1

  9
$DIMSTYLE
  2
STANDARD
  9
$DIMCLRD
 70
     0
  9
$DIMCLRE
 70
     0
  9
$DIMCLRT
 70
     0
  9
$DIMTFAC
 40
1.0
  9
$DIMGAP
 40
0.09
  9
$LUNITS
 70
     2
  9
$LUPREC
 70
     2
  9
$AXISMODE
 70
     0
  9
$AXISUNIT
 10
0.0
 20
0.0
  9
$SKETCHINC
 40
0.1
  9
$FILLETRAD
 40
0.0
  9
$AUNITS
 70
     0
  9
$AUPREC
 70
     0
  9
$MENU
  1
acad
  9
$ELEVATION
 40
0.0
  9
$PELEVATION
 40
0.0
  9
$THICKNESS
 40
0.0
  9
$LIMCHECK
 70
     0
  9
$BLIPMODE
 70
     1
  9
$CHAMFERA
 40
0.0
  9
$CHAMFERB
 40
0.0
  9
$SKPOLY
 70
     0
  9
$TDCREATE
 40
0.000000000
  9
$TDUPDATE
 40
0.000000000
  9
$TDINDWG
 40
0.0000000000
  9
$TDUSRTIMER
 40
0.0000000000
  9
$USRTIMER
 70
     1
  9
$ANGBASE
 50
0.0
  9
$ANGDIR
 70
     0
  9
$PDMODE
 70
     0
  9
$PDSIZE
 40
0.0
  9
$PLINEWID
 40
0.0
  9
$COORDS
 70
     0
  9
$SPLFRAME
 70
     0
  9
$SPLINETYPE
 70
     6
  9
$SPLINESEGS
 70
     8
  9
$ATTDIA
 70
     0
  9
$ATTREQ
 70
     1
  9
$HANDLING
 70
     1
  9
$HANDSEED
  5
107
  9
$SURFTAB1
 70
     6
  9
$SURFTAB2
 70
     6
  9
$SURFTYPE
 70
     6
  9
$SURFU
 70
     6
  9
$SURFV
 70
     6
  9
$UCSNAME
  2

  9
$UCSORG
 10
0.0
 20
0.0
 30
0.0
  9
$UCSXDIR
 10
1.0
 20
0.0
 30
0.0
  9
$UCSYDIR
 10
0.0
 20
1.0
 30
0.0
  9
$PUCSNAME
  2

  9
$PUCSORG
 10
0.0
 20
0.0
 30
0.0
  9
$PUCSXDIR
 10
1.0
 20
0.0
 30
0.0
  9
$PUCSYDIR
 10
0.0
 20
1.0
 30
0.0
  9
$USERI1
 70
     0
  9
$USERI2
 70
     0
  9
$USERI3
 70
     0
  9
$USERI4
 70
     0
  9
$USERI5
 70
     0
  9
$USERR1
 40
0.0
  9
$USERR2
 40
0.0
  9
$USERR3
 40
0.0
  9
$USERR4
 40
0.0
  9
$USERR5
 40
0.0
  9
$WORLDVIEW
 70
     1
  9
$SHADEDGE
 70
     3
  9
$SHADEDIF
 70
    70
  9
$TILEMODE
 70
     1
  9
$MAXACTVP
 70
    16
  9
$PINSBASE
 10
0.0
 20
0.0
 30
0.0
  9
$PLIMCHECK
 70
     0
  9
$PEXTMIN
 10
1.000000E+20
 20
1.000000E+20
 30
1.000000E+20
  9
$PEXTMAX
 10
-1.000000E+20
 20
-1.000000E+20
 30
-1.000000E+20
  9
$PLIMMIN
 10
0.0
 20
0.0
  9
$PLIMMAX
 10
840.0
 20
594.0
  9
$UNITMODE
 70
     0
  9
$VISRETAIN
 70
     0
  9
$PLINEGEN
 70
     1
  9
$PSLTSCALE
 70
     0
  9
$TREEDEPTH
 70
  3020
  9
$DWGCODEPAGE
  3
dos850
  0
ENDSEC
  0
SECTION
  2
TABLES
  0
TABLE
  2
VPORT
 70
     1
  0
VPORT
  2
*ACTIVE
 70
     0
 10
0.0
 20
0.0
 11
1.0
 21
1.0
 12
420.0
 22
297.0
 13
0.0
 23
0.0
 14
1.0
 24
1.0
 15
0.0
 25
0.0
 16
0.0
 26
0.0
 36
1.0
 17
0.0
 27
0.0
 37
0.0
 40
594.0
 41
1.604229
 42
50.0
 43
0.0
 44
0.0
 50
0.0
 51
0.0
 71
     0
 72
   100
 73
     1
 74
     1
 75
     0
 76
     0
 77
     0
 78
     0
  0
ENDTAB
  0
TABLE
  2
LTYPE
 70
     3
  0
LTYPE
  2
CONTINUOUS
 70
    64
  3
Solid line
 72
    65
 73
     0
 40
0.0
  0
LTYPE
  2
DASHED
 70
    64
  3
__ __ __ __ __
 72
    65
 73
     2
 40
6.25
 49
5.0
 49
-1.25
  0
LTYPE
  2
DASHDOT
 70
    64
  3
__ . __ . __ . __ . __
 72
    65
 73
     4
 40
7.5
 49
5.0
 49
-1.25
 49
0.0
 49
-1.25
  0
ENDTAB
  0
TABLE
  2
LAYER
 70
    11
  0
LAYER
  2
0
 70
     0
 62
     7
  6
CONTINUOUS
  0
LAYER
  2
LC-INFO-1-2-MM-A3-0
 70
     1
 62
    -1
  6
CONTINUOUS
  0
LAYER
  2
LC-004-005-----0
 70
     0
 62
     2
  6
CONTINUOUS
  0
LAYER
  2
LC-007-003-MTH-0
 70
     0
 62
     2
  6
CONTINUOUS
  0
LAYER
  2
LC-006-003-----0
 70
     0
 62
     2
  6
CONTINUOUS
  0
LAYER
  2
LC-008-003-MTG-0
 70
     0
 62
     2
  6
CONTINUOUS
  0
LAYER
  2
LC-005-000-----0
 70
     0
 62
     7
  6
CONTINUOUS
  0
LAYER
  2
LC-001-002-----0
 70
     0
 62
     1
  6
CONTINUOUS
  0
LAYER
  2
LC-002-002-RND-0
 70
     0
 62
     1
  6
CONTINUOUS
  0
LAYER
  2
LC-003-007-KH--0
 70
     0
 62
     7
  6
DASHDOT
  0
LAYER
  2
LC-000
 70
     0
 62
     7
  6
CONTINUOUS
  0
ENDTAB
  0
TABLE
  2
STYLE
 70
     3
  0
STYLE
  2
STANDARD
 70
     0
 40
0.0
 41
1.0
 50
0.0
 71
     0
 42
0.0
  3
txt
  4

  0
STYLE
  2
LC-TXTSTYLE-150-400-0-0-A1
 70
    64
 40
0.0
 41
1.0
 50
15.0
 71
     0
 42
3.5
  3
Arial
  4

  0
STYLE
  2
LC-STANDARD
 70
    64
 40
0.0
 41
1.0
 50
0.0
 71
     0
 42
3.5
  3
MONOTXT
  4

  0
ENDTAB
  0
TABLE
  2
VIEW
 70
     0
  0
ENDTAB
  0
TABLE
  2
UCS
 70
     0
  0
ENDTAB
  0
TABLE
  2
APPID
 70
     1
  0
APPID
  2
ACAD
 70
     0
  0
ENDTAB
  0
TABLE
  2
DIMSTYLE
 70
     3
  0
DIMSTYLE
  2
STANDARD
 70
     0
  3

  4

  5

  6

  7

 40
1.0
 41
0.18
 42
0.0625
 43
0.38
 44
0.18
 45
0.0
 46
0.0
 47
0.0
 48
0.0
 71
     0
 72
     0
 73
     1
 74
     1
 75
     0
 76
     0
 77
     0
 78
     0
140
0.18
141
0.09
142
0.0
143
25.4
144
1.0
145
0.0
146
1.0
147
0.09
170
     0
171
     2
172
     0
173
     0
174
     0
175
     0
176
     0
177
     0
178
     0
  0
DIMSTYLE
  2
LC-STANDARD
 70
     0
  3

  4

  5

  6

  7

 40
1.0
 41
3.5
 42
0.0
 43
7.5
 44
1.8
 45
0.0
 46
0.0
 47
0.0
 48
0.0
 71
     0
 72
     0
 73
     0
 74
     0
 75
     0
 76
     0
 77
     1
 78
     8
140
3.5
141
0.0
142
0.0
143
25.4
144
1.0
145
0.0
146
0.71
147
1.5
170
     0
171
     2
172
     1
173
     0
174
     0
175
     0
176
     0
177
     0
178
     3
  0
DIMSTYLE
  2
LC-DIM-L-0140-02-02
 70
     0
  3

  4

  5

  6

  7

 40
2.0
 41
3.5
 42
0.0
 43
7.5
 44
1.8
 45
0.0
 46
0.0
 47
0.0
 48
0.0
 71
     0
 72
     0
 73
     0
 74
     0
 75
     0
 76
     0
 77
     1
 78
     8
140
14.0
141
0.0
142
0.0
143
25.4
144
1.0
145
0.0
146
0.71
147
1.5
170
     0
171
     2
172
     0
173
     0
174
     0
175
     0
176
     2
177
     2
178
     8
  0
ENDTAB
  0
ENDSEC
  0
SECTION
  2
BLOCKS
  0
BLOCK
  8
0
  5
23
  2
*X0
 70
    65
 10
321.843508
 20
282.389007
 30
0.0
  3
*X0
  0
LINE
  8
LC-004-005-----0
  6
CONTINUOUS
  5
25
 10
327.643856
 20
282.389022
 30
0.0
 11
329.593508
 21
284.338674
 31
0.0
  0
LINE
  8
LC-004-005-----0
  6
DASHED
  5
27
 10
325.099318
 20
285.501338
 30
0.0
 11
328.180854
 21
288.582874
 31
0.0
  0
LINE
  8
LC-004-005-----0
  6
DASHED
  5
28
 10
324.593508
 20
287.823955
 30
0.0
 11
327.593508
 21
290.823955
 31
0.0
  0
LINE
  8
LC-004-005-----0
  6
CONTINUOUS
  5
29
 10
324.593508
 20
293.48081
 30
0.0
 11
327.965623
 21
296.852925
 31
0.0
  0
LINE
  8
LC-004-005-----0
  6
CONTINUOUS
  5
2A
 10
324.593508
 20
296.309237
 30
0.0
 11
327.593508
 21
299.309237
 31
0.0
  0
LINE
  8
LC-004-005-----0
  6
CONTINUOUS
  5
2B
 10
328.673236
 20
300.388965
 30
0.0
 11
329.976311
 21
301.69204
 31
0.0
  0
LINE
  8
LC-004-005-----0
  6
DASHED
  5
2C
 10
324.593508
 20
301.966091
 30
0.0
 11
327.593508
 21
304.966091
 31
0.0
  0
LINE
  8
LC-004-005-----0
  6
DASHED
  5
2D
 10
329.016382
 20
306.388965
 30
0.0
 11
330.193857
 21
307.56644
 31
0.0
  0
LINE
  8
LC-004-005-----0
  6
DASHED
  5
2E
 10
324.593508
 20
304.794518
 30
0.0
 11
328.400707
 21
308.601718
 31
0.0
  0
LINE
  8
LC-004-005-----0
  6
CONTINUOUS
  5
2F
 10
324.593508
 20
310.451372
 30
0.0
 11
328.618253
 21
314.476117
 31
0.0
  0
LINE
  8
LC-004-005-----0
  6
CONTINUOUS
  5
30
 10
324.593508
 20
313.279799
 30
0.0
 11
327.593508
 21
316.279799
 31
0.0
  0
LINE
  8
LC-004-005-----0
  6
CONTINUOUS
  5
31
 10
329.702692
 20
318.388983
 30
0.0
 11
330.543589
 21
319.229881
 31
0.0
  0
LINE
  8
LC-004-005-----0
  6
DASHED
  5
32
 10
324.593508
 20
318.936654
 30
0.0
 11
327.593508
 21
321.936654
 31
0.0
  0
LINE
  8
LC-004-005-----0
  6
DASHED
  5
33
 10
324.593508
 20
321.765081
 30
0.0
 11
327.593508
 21
324.765081
 31
0.0
  0
LINE
  8
LC-004-005-----0
  6
CONTINUOUS
  5
34
 10
323.56029
 20
326.388717
 30
0.0
 11
327.56029
 21
330.388717
 31
0.0
  0
LINE
  8
LC-004-005-----0
  6
CONTINUOUS
  5
35
 10
321.845667
 20
327.502522
 30
0.0
 11
324.729703
 21
330.386557
 31
0.0
  0
ENDBLK
  8
0
  5
36
  0
BLOCK
  8
0
  5
38
  2
*X1
 70
    65
 10
411.592917
 20
282.389007
 30
0.0
  3
*X1
  0
LINE
  8
LC-004-005-----0
  6
CONTINUOUS
  5
39
 10
415.325103
 20
282.389028
 30
0.0
 11
416.593668
 21
283.657593
 31
0.0
  0
LINE
  8
LC-004-005-----0
  6
DASHED
  5
3A
 10
412.593508
 20
285.314287
 30
0.0
 11
417.593508
 21
290.314287
 31
0.0
  0
LINE
  8
LC-004-005-----0
  6
DASHED
  5
3B
 10
414.593508
 20
290.142714
 30
0.0
 11
417.593508
 21
293.142714
 31
0.0
  0
LINE
  8
LC-004-005-----0
  6
CONTINUOUS
  5
3C
 10
413.182893
 20
294.388953
 30
0.0
 11
417.593508
 21
298.799569
 31
0.0
  0
LINE
  8
LC-004-005-----0
  6
CONTINUOUS
  5
3D
 10
414.593508
 20
298.627996
 30
0.0
 11
417.593508
 21
301.627996
 31
0.0
  0
LINE
  8
LC-004-005-----0
  6
DASHED
  5
3E
 10
414.593508
 20
304.28485
 30
0.0
 11
417.593508
 21
307.28485
 31
0.0
  0
LINE
  8
LC-004-005-----0
  6
DASHED
  5
3F
 10
413.869196
 20
306.388965
 30
0.0
 11
417.593508
 21
310.113277
 31
0.0
  0
LINE
  8
LC-004-005-----0
  6
CONTINUOUS
  5
40
 10
414.212341
 20
312.388965
 30
0.0
 11
417.593508
 21
315.770131
 31
0.0
  0
LINE
  8
LC-004-005-----0
  6
CONTINUOUS
  5
41
 10
411.677239
 20
312.68229
 30
0.0
 11
413.33761
 21
314.342661
 31
0.0
  0
LINE
  8
LC-004-005-----0
  6
CONTINUOUS
  5
42
 10
414.593508
 20
315.598559
 30
0.0
 11
417.593508
 21
318.598559
 31
0.0
  0
LINE
  8
LC-004-005-----0
  6
DASHED
  5
43
 10
411.841081
 20
318.502986
 30
0.0
 11
414.149546
 21
320.811451
 31
0.0
  0
LINE
  8
LC-004-005-----0
  6
DASHED
  5
44
 10
414.593508
 20
321.255413
 30
0.0
 11
417.593508
 21
324.255413
 31
0.0
  0
LINE
  8
LC-004-005-----0
  6
DASHED
  5
45
 10
419.726812
 20
326.388717
 30
0.0
 11
420.343508
 21
327.005413
 31
0.0
  0
LINE
  8
LC-004-005-----0
  6
DASHED
  5
46
 10
414.593508
 20
324.08384
 30
0.0
 11
419.724046
 21
329.214378
 31
0.0
  0
LINE
  8
LC-004-005-----0
  6
CONTINUOUS
  5
47
 10
414.593508
 20
329.740694
 30
0.0
 11
415.24153
 21
330.388717
 31
0.0
  0
ENDBLK
  8
0
  5
48
  0
BLOCK
  8
0
  5
4A
  2
BLK1
 70
    64
 10
0.0
 20
0.0
 30
0.0
  3
BLK1
  0
ENDBLK
  8
0
  5
4B
  0
BLOCK
  8
0
  5
4D
  2
*D3
 70
    65
 10
0.0
 20
0.0
 30
0.0
  3
*D3
  0
LINE
  8
LC-007-003-MTH-0
  6
CONTINUOUS
  5
4F
 10
325.933257
 20
282.389035
 30
0.0
 11
296.8
 21
282.389035
 31
0.0
  0
LINE
  8
LC-007-003-MTH-0
  6
CONTINUOUS
  5
50
 10
324.843508
 20
330.388717
 30
0.0
 11
296.8
 21
330.388717
 31
0.0
  0
LINE
  8
LC-006-003-----0
  6
CONTINUOUS
  5
52
 10
317.254733
 20
254.628579
 30
0.0
 11
313.6
 21
282.389035
 31
0.0
  0
LINE
  8
LC-006-003-----0
  6
CONTINUOUS
  5
53
 10
313.6
 20
282.389035
 30
0.0
 11
309.945267
 21
254.628579
 31
0.0
  0
LINE
  8
LC-006-003-----0
  6
CONTINUOUS
  5
54
 10
309.945267
 20
254.628579
 30
0.0
 11
317.254733
 21
254.628579
 31
0.0
  0
LINE
  8
LC-006-003-----0
  6
CONTINUOUS
  5
55
 10
316.304503
 20
254.566297
 30
0.0
 11
313.6
 21
275.109035
 31
0.0
  0
LINE
  8
LC-006-003-----0
  6
CONTINUOUS
  5
56
 10
313.6
 20
275.109035
 30
0.0
 11
310.895497
 21
254.566297
 31
0.0
  0
LINE
  8
LC-006-003-----0
  6
CONTINUOUS
  5
57
 10
315.354272
 20
254.504016
 30
0.0
 11
313.6
 21
267.829035
 31
0.0
  0
LINE
  8
LC-006-003-----0
  6
CONTINUOUS
  5
58
 10
313.6
 20
267.829035
 30
0.0
 11
311.845728
 21
254.504016
 31
0.0
  0
LINE
  8
LC-006-003-----0
  6
CONTINUOUS
  5
59
 10
314.404041
 20
254.441734
 30
0.0
 11
313.6
 21
260.549035
 31
0.0
  0
LINE
  8
LC-006-003-----0
  6
CONTINUOUS
  5
5A
 10
313.6
 20
260.549035
 30
0.0
 11
312.795959
 21
254.441734
 31
0.0
  0
LINE
  8
LC-006-003-----0
  6
CONTINUOUS
  5
5B
 10
309.945267
 20
358.149173
 30
0.0
 11
313.6
 21
330.388717
 31
0.0
  0
LINE
  8
LC-006-003-----0
  6
CONTINUOUS
  5
5C
 10
313.6
 20
330.388717
 30
0.0
 11
317.254733
 21
358.149173
 31
0.0
  0
LINE
  8
LC-006-003-----0
  6
CONTINUOUS
  5
5D
 10
317.254733
 20
358.149173
 30
0.0
 11
309.945267
 21
358.149173
 31
0.0
  0
LINE
  8
LC-006-003-----0
  6
CONTINUOUS
  5
5E
 10
310.895497
 20
358.211454
 30
0.0
 11
313.6
 21
337.668717
 31
0.0
  0
LINE
  8
LC-006-003-----0
  6
CONTINUOUS
  5
5F
 10
313.6
 20
337.668717
 30
0.0
 11
316.304503
 21
358.211454
 31
0.0
  0
LINE
  8
LC-006-003-----0
  6
CONTINUOUS
  5
60
 10
311.845728
 20
358.273736
 30
0.0
 11
313.6
 21
344.948717
 31
0.0
  0
LINE
  8
LC-006-003-----0
  6
CONTINUOUS
  5
61
 10
313.6
 20
344.948717
 30
0.0
 11
315.354272
 21
358.273736
 31
0.0
  0
LINE
  8
LC-006-003-----0
  6
CONTINUOUS
  5
62
 10
312.795959
 20
358.336017
 30
0.0
 11
313.6
 21
352.228717
 31
0.0
  0
LINE
  8
LC-006-003-----0
  6
CONTINUOUS
  5
63
 10
313.6
 20
352.228717
 30
0.0
 11
314.404041
 21
358.336017
 31
0.0
  0
LINE
  8
LC-008-003-MTG-0
  6
CONTINUOUS
  5
65
 10
313.6
 20
243.189035
 30
0.0
 11
313.6
 21
369.588717
 31
0.0
  0
TEXT
  8
LC-006-003-----0
  6
CONTINUOUS
 62
     8
  5
66
 10
305.772446
 20
295.677376
 30
0.0
 40
28.0
  1
48
 50
90.0
 41
0.77
 51
15.0
  7
LC-TXTSTYLE-150-400-0-0-A0
 72
     1
 11
305.772446
 21
310.737036
 31
0.0
  0
ENDBLK
  8
0
  5
67
  0
BLOCK
  8
0
  5
69
  2
*D4
 70
    65
 10
0.0
 20
0.0
 30
0.0
  3
*D4
  0
LINE
  8
LC-007-003-MTH-0
  6
CONTINUOUS
  5
6A
 10
330.594073
 20
318.988983
 30
0.0
 11
330.594073
 21
369.6
 31
0.0
  0
LINE
  8
LC-007-003-MTH-0
  6
CONTINUOUS
  5
6B
 10
411.592943
 20
318.988983
 30
0.0
 11
411.592943
 21
369.6
 31
0.0
  0
LINE
  8
LC-008-003-MTG-0
  6
CONTINUOUS
  5
6C
 10
330.594073
 20
352.8
 30
0.0
 11
411.592943
 21
352.8
 31
0.0
  0
LINE
  8
LC-006-003-----0
  6
CONTINUOUS
  5
6D
 10
358.354529
 20
356.454733
 30
0.0
 11
330.594073
 21
352.8
 31
0.0
  0
LINE
  8
LC-006-003-----0
  6
CONTINUOUS
  5
6E
 10
330.594073
 20
352.8
 30
0.0
 11
358.354529
 21
349.145267
 31
0.0
  0
LINE
  8
LC-006-003-----0
  6
CONTINUOUS
  5
6F
 10
358.354529
 20
349.145267
 30
0.0
 11
358.354529
 21
356.454733
 31
0.0
  0
LINE
  8
LC-006-003-----0
  6
CONTINUOUS
  5
70
 10
358.41681
 20
355.504503
 30
0.0
 11
337.874073
 21
352.8
 31
0.0
  0
LINE
  8
LC-006-003-----0
  6
CONTINUOUS
  5
71
 10
337.874073
 20
352.8
 30
0.0
 11
358.41681
 21
350.095497
 31
0.0
  0
LINE
  8
LC-006-003-----0
  6
CONTINUOUS
  5
72
 10
358.479092
 20
354.554272
 30
0.0
 11
345.154073
 21
352.8
 31
0.0
  0
LINE
  8
LC-006-003-----0
  6
CONTINUOUS
  5
73
 10
345.154073
 20
352.8
 30
0.0
 11
358.479092
 21
351.045728
 31
0.0
  0
LINE
  8
LC-006-003-----0
  6
CONTINUOUS
  5
74
 10
358.541373
 20
353.604041
 30
0.0
 11
352.434073
 21
352.8
 31
0.0
  0
LINE
  8
LC-006-003-----0
  6
CONTINUOUS
  5
75
 10
352.434073
 20
352.8
 30
0.0
 11
358.541373
 21
351.995959
 31
0.0
  0
LINE
  8
LC-006-003-----0
  6
CONTINUOUS
  5
76
 10
383.832487
 20
349.145267
 30
0.0
 11
411.592943
 21
352.8
 31
0.0
  0
LINE
  8
LC-006-003-----0
  6
CONTINUOUS
  5
77
 10
411.592943
 20
352.8
 30
0.0
 11
383.832487
 21
356.454733
 31
0.0
  0
LINE
  8
LC-006-003-----0
  6
CONTINUOUS
  5
78
 10
383.832487
 20
356.454733
 30
0.0
 11
383.832487
 21
349.145267
 31
0.0
  0
LINE
  8
LC-006-003-----0
  6
CONTINUOUS
  5
79
 10
383.770206
 20
350.095497
 30
0.0
 11
404.312943
 21
352.8
 31
0.0
  0
LINE
  8
LC-006-003-----0
  6
CONTINUOUS
  5
7A
 10
404.312943
 20
352.8
 30
0.0
 11
383.770206
 21
355.504503
 31
0.0
  0
LINE
  8
LC-006-003-----0
  6
CONTINUOUS
  5
7B
 10
383.707924
 20
351.045728
 30
0.0
 11
397.032943
 21
352.8
 31
0.0
  0
LINE
  8
LC-006-003-----0
  6
CONTINUOUS
  5
7C
 10
397.032943
 20
352.8
 30
0.0
 11
383.707924
 21
354.554272
 31
0.0
  0
LINE
  8
LC-006-003-----0
  6
CONTINUOUS
  5
7D
 10
383.645643
 20
351.995959
 30
0.0
 11
389.752943
 21
352.8
 31
0.0
  0
LINE
  8
LC-006-003-----0
  6
CONTINUOUS
  5
7E
 10
389.752943
 20
352.8
 30
0.0
 11
383.645643
 21
353.604041
 31
0.0
  0
TEXT
  8
LC-006-003-----0
  6
CONTINUOUS
 62
     8
  5
7F
 10
345.971318
 20
360.627554
 30
0.0
 40
28.0
  1
Ø81
 41
0.9
 51
15.0
  7
LC-TXTSTYLE-150-400-0-0-A0
 72
     1
 11
375.441668
 21
360.627554
 31
0.0
  0
ENDBLK
  8
0
  5
80
  0
BLOCK
  8
0
  5
82
  2
*D5
 70
    65
 10
0.0
 20
0.0
 30
0.0
  3
*D5
  0
LINE
  8
LC-007-003-MTH-0
  6
CONTINUOUS
  5
83
 10
324.593508
 20
287.389046
 30
0.0
 11
324.593508
 21
218.4
 31
0.0
  0
LINE
  8
LC-007-003-MTH-0
  6
CONTINUOUS
  5
84
 10
417.593508
 20
287.389046
 30
0.0
 11
417.593508
 21
218.4
 31
0.0
  0
LINE
  8
LC-008-003-MTG-0
  6
CONTINUOUS
  5
85
 10
324.593508
 20
235.2
 30
0.0
 11
417.593508
 21
235.2
 31
0.0
  0
LINE
  8
LC-006-003-----0
  6
CONTINUOUS
  5
86
 10
352.353964
 20
238.854733
 30
0.0
 11
324.593508
 21
235.2
 31
0.0
  0
LINE
  8
LC-006-003-----0
  6
CONTINUOUS
  5
87
 10
324.593508
 20
235.2
 30
0.0
 11
352.353964
 21
231.545267
 31
0.0
  0
LINE
  8
LC-006-003-----0
  6
CONTINUOUS
  5
88
 10
352.353964
 20
231.545267
 30
0.0
 11
352.353964
 21
238.854733
 31
0.0
  0
LINE
  8
LC-006-003-----0
  6
CONTINUOUS
  5
89
 10
352.416245
 20
237.904503
 30
0.0
 11
331.873508
 21
235.2
 31
0.0
  0
LINE
  8
LC-006-003-----0
  6
CONTINUOUS
  5
8A
 10
331.873508
 20
235.2
 30
0.0
 11
352.416245
 21
232.495497
 31
0.0
  0
LINE
  8
LC-006-003-----0
  6
CONTINUOUS
  5
8B
 10
352.478527
 20
236.954272
 30
0.0
 11
339.153508
 21
235.2
 31
0.0
  0
LINE
  8
LC-006-003-----0
  6
CONTINUOUS
  5
8C
 10
339.153508
 20
235.2
 30
0.0
 11
352.478527
 21
233.445728
 31
0.0
  0
LINE
  8
LC-006-003-----0
  6
CONTINUOUS
  5
8D
 10
352.540808
 20
236.004041
 30
0.0
 11
346.433508
 21
235.2
 31
0.0
  0
LINE
  8
LC-006-003-----0
  6
CONTINUOUS
  5
8E
 10
346.433508
 20
235.2
 30
0.0
 11
352.540808
 21
234.395959
 31
0.0
  0
LINE
  8
LC-006-003-----0
  6
CONTINUOUS
  5
8F
 10
389.833052
 20
231.545267
 30
0.0
 11
417.593508
 21
235.2
 31
0.0
  0
LINE
  8
LC-006-003-----0
  6
CONTINUOUS
  5
90
 10
417.593508
 20
235.2
 30
0.0
 11
389.833052
 21
238.854733
 31
0.0
  0
LINE
  8
LC-006-003-----0
  6
CONTINUOUS
  5
91
 10
389.833052
 20
238.854733
 30
0.0
 11
389.833052
 21
231.545267
 31
0.0
  0
LINE
  8
LC-006-003-----0
  6
CONTINUOUS
  5
92
 10
389.77077
 20
232.495497
 30
0.0
 11
410.313508
 21
235.2
 31
0.0
  0
LINE
  8
LC-006-003-----0
  6
CONTINUOUS
  5
93
 10
410.313508
 20
235.2
 30
0.0
 11
389.77077
 21
237.904503
 31
0.0
  0
LINE
  8
LC-006-003-----0
  6
CONTINUOUS
  5
94
 10
389.708489
 20
233.445728
 30
0.0
 11
403.033508
 21
235.2
 31
0.0
  0
LINE
  8
LC-006-003-----0
  6
CONTINUOUS
  5
95
 10
403.033508
 20
235.2
 30
0.0
 11
389.708489
 21
236.954272
 31
0.0
  0
LINE
  8
LC-006-003-----0
  6
CONTINUOUS
  5
96
 10
389.646208
 20
234.395959
 30
0.0
 11
395.753508
 21
235.2
 31
0.0
  0
LINE
  8
LC-006-003-----0
  6
CONTINUOUS
  5
97
 10
395.753508
 20
235.2
 30
0.0
 11
389.646208
 21
236.004041
 31
0.0
  0
TEXT
  8
LC-006-003-----0
  6
CONTINUOUS
 62
     8
  5
98
 10
345.971318
 20
243.027554
 30
0.0
 40
28.0
  1
Ø93
 41
0.9
 51
15.0
  7
LC-TXTSTYLE-150-400-0-0-A0
 72
     1
 11
375.441668
 21
243.027554
 31
0.0
  0
ENDBLK
  8
0
  5
99
  0
ENDSEC
  0
SECTION
  2
ENTITIES
  0
VIEWPORT
  8
LC-000
  5
102
 67
     1
 68
     1
 10
420.0
 20
297.0
 30
0.0
 40
840.0
 41
594.0
 69
     1
1001
ACAD
1000
MVIEW
1002
{
1070
    16
1010
0.0
1020
0.0
1030
0.0
1010
0.0
1020
0.0
1030
1.0
1040
0.0
1040
594.0
1040
420.0
1040
297.0
1040
50.0
1040
0.0
1040
0.0
1070
     0
1070
   100
1070
     1
1070
     1
1070
     0
1070
     0
1070
     0
1070
     0
1040
0.0
1040
0.0
1040
0.0
1040
1.0
1040
1.0
1040
0.0
1040
0.0
1070
     0
1002
{
1002
}
1002
}
  0
VIEWPORT
  8
0
  5
103
 67
     1
 68
     1
 10
0.0
 20
0.0
 30
0.0
 40
0.0
 41
0.0
 69
     1
1001
ACAD
1000
MVIEW
1002
{
1070
    16
1010
0.0
1020
0.0
1030
0.0
1010
0.0
1020
0.0
1030
1.0
1040
0.0
1040
594.0
1040
0.0
1040
0.0
1040
50.0
1040
0.0
1040
0.0
1070
     0
1070
   100
1070
     0
1070
     1
1070
     0
1070
     0
1070
     0
1070
     0
1040
0.0
1040
0.0
1040
0.0
1040
0.5
1040
0.5
1040
0.5
1040
0.5
1070
     0
1002
{
1002
}
1002
}
  0
INSERT
  8
LC-004-005-----0
  6
CONTINUOUS
  5
9A
  2
*X0
 10
321.843508
 20
282.389007
 30
0.0
  0
INSERT
  8
LC-004-005-----0
  6
CONTINUOUS
  5
9B
  2
*X1
 10
411.592917
 20
282.389007
 30
0.0
  0
INSERT
  8
LC-005-000-----0
  5
9D
  2
BLK1
 10
0.0
 20
0.0
 30
0.0
  0
DIMENSION
  8
LC-006-003-----0
  6
CONTINUOUS
  5
9E
  2
*D3
 10
313.6
 20
306.388876
 30
0.0
 11
313.6
 21
306.388876
 31
0.0
 13
324.843508
 23
330.388717
 33
0.0
 14
325.933257
 24
282.389035
 34
0.0
 50
90.0
  3
LC-DIM-L-0140-02-02
  0
DIMENSION
  8
LC-006-003-----0
  6
CONTINUOUS
  5
9F
  2
*D4
 10
371.093508
 20
352.8
 30
0.0
 11
371.093508
 21
352.8
 31
0.0
  1
%%c<>
 13
330.594073
 23
318.988983
 33
0.0
 14
411.592943
 24
318.988983
 34
0.0
  3
LC-DIM-L-0140-02-02
  0
DIMENSION
  8
LC-006-003-----0
  6
CONTINUOUS
  5
A0
  2
*D5
 10
371.093508
 20
235.2
 30
0.0
 11
371.093508
 21
235.2
 31
0.0
  1
%%c<>
 13
324.593508
 23
287.389046
 33
0.0
 14
417.593508
 24
287.389046
 34
0.0
  3
LC-DIM-L-0140-02-02
  0
LINE
  8
LC-001-002-----0
  6
CONTINUOUS
  5
A2
 10
324.593508
 20
326.388844
 30
0.0
 11
321.843508
 21
326.388844
 31
0.0
  0
LINE
  8
LC-001-002-----0
  6
CONTINUOUS
  5
A3
 10
417.593508
 20
326.388717
 30
0.0
 11
420.343508
 21
326.388717
 31
0.0
  0
LINE
  8
LC-001-002-----0
  6
DASHDOT
 62
     2
  5
A5
 10
371.093508
 20
282.38867
 30
0.0
 11
371.093508
 21
330.388717
 31
0.0
  0
LINE
  8
LC-001-002-----0
  6
CONTINUOUS
  5
A6
 10
324.593508
 20
287.389046
 30
0.0
 11
325.933257
 21
282.389035
 31
0.0
  0
LINE
  8
LC-001-002-----0
  6
CONTINUOUS
  5
A7
 10
327.593508
 20
303.067755
 30
0.0
 11
327.593508
 21
306.388965
 31
0.0
  0
LINE
  8
LC-001-002-----0
  6
CONTINUOUS
  5
A8
 10
329.593508
 20
286.889007
 30
0.0
 11
371.093508
 21
286.88867
 31
0.0
  0
LINE
  8
LC-001-002-----0
  6
CONTINUOUS
  5
A9
 10
327.593508
 20
297.067766
 30
0.0
 11
327.593508
 21
300.388965
 31
0.0
  0
LINE
  8
LC-001-002-----0
  6
CONTINUOUS
  5
AA
 10
327.593508
 20
312.388965
 30
0.0
 11
329.994072
 21
312.388962
 31
0.0
  0
LINE
  8
LC-001-002-----0
  6
CONTINUOUS
  5
AB
 10
327.593508
 20
315.067755
 30
0.0
 11
327.593508
 21
318.388986
 31
0.0
  0
LINE
  8
LC-001-002-----0
  6
CONTINUOUS
  5
AC
 10
327.593508
 20
309.067755
 30
0.0
 11
327.593508
 21
312.388965
 31
0.0
  0
LINE
  8
LC-001-002-----0
  6
CONTINUOUS
  5
AD
 10
327.593508
 20
300.388965
 30
0.0
 11
329.994072
 21
300.388962
 31
0.0
  0
LINE
  8
LC-001-002-----0
  6
CONTINUOUS
  5
AE
 10
327.593508
 20
321.067773
 30
0.0
 11
327.593508
 21
330.388717
 31
0.0
  0
LINE
  8
LC-001-002-----0
  6
CONTINUOUS
  5
AF
 10
327.593508
 20
321.067773
 30
0.0
 11
371.093508
 21
321.067773
 31
0.0
  0
LINE
  8
LC-001-002-----0
  6
CONTINUOUS
  5
B0
 10
417.593508
 20
287.389046
 30
0.0
 11
416.253759
 21
282.389035
 31
0.0
  0
LINE
  8
LC-001-002-----0
  6
CONTINUOUS
  5
B1
 10
327.593508
 20
315.067755
 30
0.0
 11
330.294073
 21
313.50858
 31
0.0
  0
ARC
  8
LC-002-002-RND-0
  6
CONTINUOUS
  5
B3
 10
329.994073
 20
312.988965
 30
0.0
 40
0.6
 50
269.999924
 51
59.999949
  0
LINE
  8
LC-001-002-----0
  6
CONTINUOUS
  5
B4
 10
327.593508
 20
306.388965
 30
0.0
 11
329.994073
 21
306.388962
 31
0.0
  0
LINE
  8
LC-001-002-----0
  6
CONTINUOUS
  5
B5
 10
327.593508
 20
309.067755
 30
0.0
 11
330.294073
 21
307.50858
 31
0.0
  0
ARC
  8
LC-002-002-RND-0
  6
CONTINUOUS
  5
B6
 10
329.994073
 20
306.988965
 30
0.0
 40
0.6
 50
269.999924
 51
59.999949
  0
LINE
  8
LC-001-002-----0
  6
CONTINUOUS
  5
B7
 10
414.593508
 20
303.067755
 30
0.0
 11
414.593508
 21
306.388965
 31
0.0
  0
LINE
  8
LC-001-002-----0
  6
CONTINUOUS
  5
B8
 10
327.593508
 20
303.067755
 30
0.0
 11
330.294073
 21
301.50858
 31
0.0
  0
LINE
  8
LC-001-002-----0
  6
CONTINUOUS
  5
B9
 10
327.593508
 20
315.067755
 30
0.0
 11
371.093508
 21
315.067755
 31
0.0
  0
LINE
  8
LC-001-002-----0
  6
CONTINUOUS
  5
BA
 10
327.593508
 20
294.388965
 30
0.0
 11
329.994099
 21
294.388945
 31
0.0
  0
ARC
  8
LC-002-002-RND-0
  6
CONTINUOUS
  5
BB
 10
329.994073
 20
300.988965
 30
0.0
 40
0.6
 50
269.999924
 51
59.999949
  0
LINE
  8
LC-001-002-----0
  6
CONTINUOUS
  5
BC
 10
324.593508
 20
287.389046
 30
0.0
 11
324.593508
 21
326.388717
 31
0.0
  0
LINE
  8
LC-001-002-----0
  6
CONTINUOUS
  5
BD
 10
327.593508
 20
289.287141
 30
0.0
 11
327.593508
 21
294.388965
 31
0.0
  0
LINE
  8
LC-001-002-----0
  6
CONTINUOUS
  5
BE
 10
412.593508
 20
286.889007
 30
0.0
 11
371.093508
 21
286.88867
 31
0.0
  0
LINE
  8
LC-001-002-----0
  6
CONTINUOUS
  5
BF
 10
414.593508
 20
297.067766
 30
0.0
 11
414.593508
 21
300.388965
 31
0.0
  0
LINE
  8
LC-001-002-----0
  6
CONTINUOUS
  5
C0
 10
327.593508
 20
309.067755
 30
0.0
 11
371.093508
 21
309.067755
 31
0.0
  0
LINE
  8
LC-001-002-----0
  6
CONTINUOUS
  5
C1
 10
414.593508
 20
312.388965
 30
0.0
 11
412.192944
 21
312.388962
 31
0.0
  0
LINE
  8
LC-001-002-----0
  6
CONTINUOUS
  5
C2
 10
414.593508
 20
315.067755
 30
0.0
 11
414.593508
 21
318.388986
 31
0.0
  0
LINE
  8
LC-001-002-----0
  6
CONTINUOUS
  5
C3
 10
327.593508
 20
303.067755
 30
0.0
 11
371.093508
 21
303.067755
 31
0.0
  0
LINE
  8
LC-001-002-----0
  6
CONTINUOUS
  5
C4
 10
414.593508
 20
309.067755
 30
0.0
 11
414.593508
 21
312.388965
 31
0.0
  0
LINE
  8
LC-001-002-----0
  6
CONTINUOUS
  5
C5
 10
414.593508
 20
300.388965
 30
0.0
 11
412.192944
 21
300.388962
 31
0.0
  0
LINE
  8
LC-001-002-----0
  6
CONTINUOUS
  5
C6
 10
414.593508
 20
321.067773
 30
0.0
 11
414.593508
 21
330.388717
 31
0.0
  0
LINE
  8
LC-001-002-----0
  6
CONTINUOUS
  5
C7
 10
414.593508
 20
321.067773
 30
0.0
 11
371.093508
 21
321.067773
 31
0.0
  0
LINE
  8
LC-001-002-----0
  6
CONTINUOUS
  5
C8
 10
414.593508
 20
315.067755
 30
0.0
 11
411.892943
 21
313.50858
 31
0.0
  0
ARC
  8
LC-002-002-RND-0
  6
CONTINUOUS
  5
C9
 10
412.192943
 20
312.988965
 30
0.0
 40
0.6
 50
120.000051
 51
270.000076
  0
LINE
  8
LC-001-002-----0
  6
CONTINUOUS
  5
CA
 10
414.593508
 20
306.388965
 30
0.0
 11
412.192943
 21
306.388962
 31
0.0
  0
LINE
  8
LC-001-002-----0
  6
CONTINUOUS
  5
CB
 10
414.593508
 20
309.067755
 30
0.0
 11
411.892943
 21
307.50858
 31
0.0
  0
ARC
  8
LC-002-002-RND-0
  6
CONTINUOUS
  5
CC
 10
412.192943
 20
306.988965
 30
0.0
 40
0.6
 50
120.000051
 51
270.000076
  0
LINE
  8
LC-001-002-----0
  6
CONTINUOUS
  5
CD
 10
327.593508
 20
297.067766
 30
0.0
 11
371.093508
 21
297.067766
 31
0.0
  0
LINE
  8
LC-001-002-----0
  6
CONTINUOUS
  5
CE
 10
414.593508
 20
303.067755
 30
0.0
 11
411.892943
 21
301.50858
 31
0.0
  0
LINE
  8
LC-001-002-----0
  6
CONTINUOUS
  5
CF
 10
414.593508
 20
315.067755
 30
0.0
 11
371.093508
 21
315.067755
 31
0.0
  0
LINE
  8
LC-001-002-----0
  6
CONTINUOUS
  5
D0
 10
414.593508
 20
294.388965
 30
0.0
 11
412.192917
 21
294.388945
 31
0.0
  0
ARC
  8
LC-002-002-RND-0
  6
CONTINUOUS
  5
D1
 10
412.192943
 20
300.988965
 30
0.0
 40
0.6
 50
120.000051
 51
270.000076
  0
LINE
  8
LC-001-002-----0
  6
CONTINUOUS
  5
D2
 10
417.593508
 20
287.389046
 30
0.0
 11
417.593508
 21
326.388717
 31
0.0
  0
LINE
  8
LC-001-002-----0
  6
CONTINUOUS
  5
D3
 10
414.593508
 20
289.287141
 30
0.0
 11
414.593508
 21
294.388965
 31
0.0
  0
LINE
  8
LC-001-002-----0
  6
CONTINUOUS
  5
D4
 10
414.593508
 20
309.067755
 30
0.0
 11
371.093508
 21
309.067755
 31
0.0
  0
ARC
  8
LC-002-002-RND-0
  6
CONTINUOUS
  5
D5
 10
324.843508
 20
327.388717
 30
0.0
 40
3.0
 50
90.0
 51
180.0
  0
LINE
  8
LC-001-002-----0
  6
CONTINUOUS
  5
D6
 10
414.593508
 20
303.067755
 30
0.0
 11
371.093508
 21
303.067755
 31
0.0
  0
LINE
  8
LC-001-002-----0
  6
CONTINUOUS
  5
D7
 10
414.593508
 20
297.067766
 30
0.0
 11
371.093508
 21
297.067766
 31
0.0
  0
LINE
  8
LC-001-002-----0
  6
CONTINUOUS
  5
D8
 10
327.593508
 20
330.388717
 30
0.0
 11
324.843508
 21
330.388717
 31
0.0
  0
LINE
  8
LC-003-007-KH--0
  6
DASHDOT
  5
DA
 10
329.993508
 20
318.389309
 30
0.0
 11
329.993508
 21
318.380424
 31
0.0
  0
ARC
  8
LC-002-002-RND-0
  6
CONTINUOUS
  5
DB
 10
329.994073
 20
318.988983
 30
0.0
 40
0.6
 50
269.999924
 51
59.999949
  0
ARC
  8
LC-002-002-RND-0
  6
CONTINUOUS
  5
DC
 10
329.994099
 20
294.988961
 30
0.0
 40
0.6
 50
270.0
 51
59.999949
  0
LINE
  8
LC-001-002-----0
  6
CONTINUOUS
  5
DD
 10
414.093508
 20
330.388717
 30
0.0
 11
417.343508
 21
330.388717
 31
0.0
  0
LINE
  8
LC-003-007-KH--0
  6
DASHDOT
  5
DE
 10
412.193508
 20
318.389309
 30
0.0
 11
412.193508
 21
318.380424
 31
0.0
  0
ARC
  8
LC-002-002-RND-0
  6
CONTINUOUS
  5
DF
 10
412.192943
 20
318.988983
 30
0.0
 40
0.6
 50
120.000051
 51
270.000076
  0
LINE
  8
LC-003-007-KH--0
  6
DASHDOT
  5
E0
 10
412.193508
 20
318.389309
 30
0.0
 11
412.193508
 21
318.380424
 31
0.0
  0
ARC
  8
LC-002-002-RND-0
  6
CONTINUOUS
  5
E1
 10
412.192917
 20
294.988961
 30
0.0
 40
0.6
 50
120.000051
 51
270.0
  0
LINE
  8
LC-001-002-----0
  6
CONTINUOUS
  5
E2
 10
329.593508
 20
282.389007
 30
0.0
 11
371.093508
 21
282.38867
 31
0.0
  0
LINE
  8
LC-001-002-----0
  6
CONTINUOUS
  5
E3
 10
327.593508
 20
289.287141
 30
0.0
 11
371.093508
 21
289.287141
 31
0.0
  0
LINE
  8
LC-001-002-----0
  6
CONTINUOUS
  5
E4
 10
329.593508
 20
282.38867
 30
0.0
 11
329.593508
 21
286.889007
 31
0.0
  0
LINE
  8
LC-001-002-----0
  6
CONTINUOUS
  5
E5
 10
412.593508
 20
282.389007
 30
0.0
 11
371.093508
 21
282.38867
 31
0.0
  0
LINE
  8
LC-001-002-----0
  6
CONTINUOUS
  5
E6
 10
321.843508
 20
326.388717
 30
0.0
 11
321.843508
 21
327.388717
 31
0.0
  0
LINE
  8
LC-001-002-----0
  6
CONTINUOUS
  5
E7
 10
414.593508
 20
289.287141
 30
0.0
 11
371.093508
 21
289.287141
 31
0.0
  0
LINE
  8
LC-001-002-----0
  6
CONTINUOUS
  5
E8
 10
412.593508
 20
282.38867
 30
0.0
 11
412.593508
 21
286.889007
 31
0.0
  0
LINE
  8
LC-001-002-----0
  6
CONTINUOUS
  5
E9
 10
412.192944
 20
312.388962
 30
0.0
 11
371.093508
 21
312.388907
 31
0.0
  0
LINE
  8
LC-001-002-----0
  6
CONTINUOUS
  5
EA
 10
412.192944
 20
306.388962
 30
0.0
 11
371.093508
 21
306.388907
 31
0.0
  0
LINE
  8
LC-001-002-----0
  6
CONTINUOUS
  5
EB
 10
412.192944
 20
300.388962
 30
0.0
 11
371.093508
 21
300.388907
 31
0.0
  0
LINE
  8
LC-001-002-----0
  6
CONTINUOUS
  5
EC
 10
412.192922
 20
294.388945
 30
0.0
 11
371.093508
 21
294.388611
 31
0.0
  0
LINE
  8
LC-001-002-----0
  6
CONTINUOUS
  5
ED
 10
414.593508
 20
289.287141
 30
0.0
 11
412.593508
 21
286.889007
 31
0.0
  0
LINE
  8
LC-001-002-----0
  6
CONTINUOUS
  5
EE
 10
414.593508
 20
321.067773
 30
0.0
 11
411.892943
 21
319.508598
 31
0.0
  0
LINE
  8
LC-001-002-----0
  6
CONTINUOUS
  5
EF
 10
412.192944
 20
318.388979
 30
0.0
 11
371.093508
 21
318.388925
 31
0.0
  0
LINE
  8
LC-001-002-----0
  6
CONTINUOUS
  5
F0
 10
414.593508
 20
297.067766
 30
0.0
 11
411.892917
 21
295.508576
 31
0.0
  0
LINE
  8
LC-001-002-----0
  6
CONTINUOUS
  5
F1
 10
371.093508
 20
330.388717
 30
0.0
 11
414.093508
 21
330.388717
 31
0.0
  0
LINE
  8
LC-001-002-----0
  6
CONTINUOUS
  5
F2
 10
416.253759
 20
282.389035
 30
0.0
 11
412.593508
 21
282.389007
 31
0.0
  0
LINE
  8
LC-001-002-----0
  6
CONTINUOUS
  5
F3
 10
329.994072
 20
312.388962
 30
0.0
 11
371.093508
 21
312.388907
 31
0.0
  0
LINE
  8
LC-001-002-----0
  6
CONTINUOUS
  5
F4
 10
329.994072
 20
306.388962
 30
0.0
 11
371.093508
 21
306.388907
 31
0.0
  0
LINE
  8
LC-001-002-----0
  6
CONTINUOUS
  5
F5
 10
329.994072
 20
300.388962
 30
0.0
 11
371.093508
 21
300.388907
 31
0.0
  0
LINE
  8
LC-001-002-----0
  6
CONTINUOUS
  5
F6
 10
329.994094
 20
294.388945
 30
0.0
 11
371.093508
 21
294.388611
 31
0.0
  0
LINE
  8
LC-001-002-----0
  6
CONTINUOUS
  5
F7
 10
412.192944
 20
318.388983
 30
0.0
 11
414.593508
 21
318.388986
 31
0.0
  0
ARC
  8
LC-002-002-RND-0
  6
CONTINUOUS
  5
F8
 10
417.343508
 20
327.388717
 30
0.0
 40
3.0
 50
0.0
 51
90.0
  0
LINE
  8
LC-001-002-----0
  6
CONTINUOUS
  5
F9
 10
420.343508
 20
326.388717
 30
0.0
 11
420.343508
 21
327.388717
 31
0.0
  0
LINE
  8
LC-001-002-----0
  6
CONTINUOUS
  5
FA
 10
327.593508
 20
289.287141
 30
0.0
 11
329.593508
 21
286.889007
 31
0.0
  0
LINE
  8
LC-001-002-----0
  6
CONTINUOUS
  5
FB
 10
327.593508
 20
321.067773
 30
0.0
 11
330.294073
 21
319.508598
 31
0.0
  0
LINE
  8
LC-001-002-----0
  6
CONTINUOUS
  5
FC
 10
329.994072
 20
318.388979
 30
0.0
 11
371.093508
 21
318.388925
 31
0.0
  0
LINE
  8
LC-001-002-----0
  6
CONTINUOUS
  5
FD
 10
327.593508
 20
297.067766
 30
0.0
 11
330.294099
 21
295.508576
 31
0.0
  0
LINE
  8
LC-001-002-----0
  6
CONTINUOUS
  5
FE
 10
371.093508
 20
330.388717
 30
0.0
 11
327.593508
 21
330.388717
 31
0.0
  0
LINE
  8
LC-001-002-----0
  6
CONTINUOUS
  5
FF
 10
325.933257
 20
282.389035
 30
0.0
 11
329.593508
 21
282.389007
 31
0.0
  0
LINE
  8
LC-001-002-----0
  6
CONTINUOUS
  5
100
 10
329.994072
 20
318.388983
 30
0.0
 11
327.593508
 21
318.388986
 31
0.0
  0
ENDSEC
  0
EOF
