  0
SECTION
  2
HEADER
  9
$ACADVER
  1
AC1009
  9
$INSBASE
 10
0.0
 20
0.0
 30
0.0
  9
$EXTMIN
 10
0.0
 20
0.0
 30
0.0
  9
$EXTMAX
 10
840.0
 20
594.0
 30
0.0
  9
$LIMMIN
 10
0.0
 20
0.0
  9
$LIMMAX
 10
840.0
 20
594.0
  9
$ORTHOMODE
 70
     0
  9
$REGENMODE
 70
     1
  9
$FILLMODE
 70
     1
  9
$QTEXTMODE
 70
     0
  9
$MIRRTEXT
 70
     1
  9
$DRAGMODE
 70
     2
  9
$LTSCALE
 40
2.0
  9
$OSMODE
 70
     0
  9
$ATTMODE
 70
     1
  9
$TEXTSIZE
 40
0.2
  9
$TRACEWID
 40
0.05
  9
$TEXTSTYLE
  7
STANDARD
  9
$CLAYER
  8
0
  9
$CELTYPE
  6
BYLAYER
  9
$CECOLOR
 62
     7
  9
$DIMSCALE
 40
2.0
  9
$DIMASZ
 40
3.5
  9
$DIMEXO
 40
0.0625
  9
$DIMDLI
 40
0.38
  9
$DIMRND
 40
0.0
  9
$DIMDLE
 40
0.0
  9
$DIMEXE
 40
0.18
  9
$DIMTP
 40
0.0
  9
$DIMTM
 40
0.0
  9
$DIMTXT
 40
3.5
  9
$DIMCEN
 40
0.09
  9
$DIMTSZ
 40
0.0
  9
$DIMTOL
 70
     0
  9
$DIMLIM
 70
     0
  9
$DIMTIH
 70
     1
  9
$DIMTOH
 70
     1
  9
$DIMSE1
 70
     0
  9
$DIMSE2
 70
     0
  9
$DIMTAD
 70
     1
  9
$DIMZIN
 70
     0
  9
$DIMBLK
  1

  9
$DIMASO
 70
     1
  9
$DIMSHO
 70
     1
  9
$DIMPOST
  1

  9
$DIMAPOST
  1

  9
$DIMALT
 70
     0
  9
$DIMALTD
 70
     2
  9
$DIMALTF
 40
25.4
  9
$DIMLFAC
 40
1.0
  9
$DIMTOFL
 70
     0
  9
$DIMTVP
 40
0.0
  9
$DIMTIX
 70
     0
  9
$DIMSOXD
 70
     0
  9
$DIMSAH
 70
     0
  9
$DIMBLK1
  1

  9
$DIMBLK2
  1

  9
$DIMSTYLE
  2
STANDARD
  9
$DIMCLRD
 70
     0
  9
$DIMCLRE
 70
     0
  9
$DIMCLRT
 70
     0
  9
$DIMTFAC
 40
1.0
  9
$DIMGAP
 40
0.09
  9
$LUNITS
 70
     2
  9
$LUPREC
 70
     2
  9
$AXISMODE
 70
     0
  9
$AXISUNIT
 10
0.0
 20
0.0
  9
$SKETCHINC
 40
0.1
  9
$FILLETRAD
 40
0.0
  9
$AUNITS
 70
     0
  9
$AUPREC
 70
     0
  9
$MENU
  1
acad
  9
$ELEVATION
 40
0.0
  9
$PELEVATION
 40
0.0
  9
$THICKNESS
 40
0.0
  9
$LIMCHECK
 70
     0
  9
$BLIPMODE
 70
     1
  9
$CHAMFERA
 40
0.0
  9
$CHAMFERB
 40
0.0
  9
$SKPOLY
 70
     0
  9
$TDCREATE
 40
0.000000000
  9
$TDUPDATE
 40
0.000000000
  9
$TDINDWG
 40
0.0000000000
  9
$TDUSRTIMER
 40
0.0000000000
  9
$USRTIMER
 70
     1
  9
$ANGBASE
 50
0.0
  9
$ANGDIR
 70
     0
  9
$PDMODE
 70
     0
  9
$PDSIZE
 40
0.0
  9
$PLINEWID
 40
0.0
  9
$COORDS
 70
     0
  9
$SPLFRAME
 70
     0
  9
$SPLINETYPE
 70
     6
  9
$SPLINESEGS
 70
     8
  9
$ATTDIA
 70
     0
  9
$ATTREQ
 70
     1
  9
$HANDLING
 70
     1
  9
$HANDSEED
  5
8E
  9
$SURFTAB1
 70
     6
  9
$SURFTAB2
 70
     6
  9
$SURFTYPE
 70
     6
  9
$SURFU
 70
     6
  9
$SURFV
 70
     6
  9
$UCSNAME
  2

  9
$UCSORG
 10
0.0
 20
0.0
 30
0.0
  9
$UCSXDIR
 10
1.0
 20
0.0
 30
0.0
  9
$UCSYDIR
 10
0.0
 20
1.0
 30
0.0
  9
$PUCSNAME
  2

  9
$PUCSORG
 10
0.0
 20
0.0
 30
0.0
  9
$PUCSXDIR
 10
1.0
 20
0.0
 30
0.0
  9
$PUCSYDIR
 10
0.0
 20
1.0
 30
0.0
  9
$USERI1
 70
     0
  9
$USERI2
 70
     0
  9
$USERI3
 70
     0
  9
$USERI4
 70
     0
  9
$USERI5
 70
     0
  9
$USERR1
 40
0.0
  9
$USERR2
 40
0.0
  9
$USERR3
 40
0.0
  9
$USERR4
 40
0.0
  9
$USERR5
 40
0.0
  9
$WORLDVIEW
 70
     1
  9
$SHADEDGE
 70
     3
  9
$SHADEDIF
 70
    70
  9
$TILEMODE
 70
     1
  9
$MAXACTVP
 70
    16
  9
$PINSBASE
 10
0.0
 20
0.0
 30
0.0
  9
$PLIMCHECK
 70
     0
  9
$PEXTMIN
 10
1.000000E+20
 20
1.000000E+20
 30
1.000000E+20
  9
$PEXTMAX
 10
-1.000000E+20
 20
-1.000000E+20
 30
-1.000000E+20
  9
$PLIMMIN
 10
0.0
 20
0.0
  9
$PLIMMAX
 10
840.0
 20
594.0
  9
$UNITMODE
 70
     0
  9
$VISRETAIN
 70
     0
  9
$PLINEGEN
 70
     1
  9
$PSLTSCALE
 70
     0
  9
$TREEDEPTH
 70
  3020
  9
$DWGCODEPAGE
  3
dos850
  0
ENDSEC
  0
SECTION
  2
TABLES
  0
TABLE
  2
VPORT
 70
     1
  0
VPORT
  2
*ACTIVE
 70
     0
 10
0.0
 20
0.0
 11
1.0
 21
1.0
 12
420.0
 22
297.0
 13
0.0
 23
0.0
 14
1.0
 24
1.0
 15
0.0
 25
0.0
 16
0.0
 26
0.0
 36
1.0
 17
0.0
 27
0.0
 37
0.0
 40
594.0
 41
1.604229
 42
50.0
 43
0.0
 44
0.0
 50
0.0
 51
0.0
 71
     0
 72
   100
 73
     1
 74
     1
 75
     0
 76
     0
 77
     0
 78
     0
  0
ENDTAB
  0
TABLE
  2
LTYPE
 70
     2
  0
LTYPE
  2
CONTINUOUS
 70
    64
  3
Solid line
 72
    65
 73
     0
 40
0.0
  0
LTYPE
  2
DASHDOT
 70
    64
  3
__ . __ . __ . __ . __
 72
    65
 73
     4
 40
7.5
 49
5.0
 49
-1.25
 49
0.0
 49
-1.25
  0
ENDTAB
  0
TABLE
  2
LAYER
 70
     9
  0
LAYER
  2
0
 70
     0
 62
     7
  6
CONTINUOUS
  0
LAYER
  2
LC-INFO-1-2-MM-A3-0
 70
     1
 62
    -1
  6
CONTINUOUS
  0
LAYER
  2
LC-004-003-MTH-0
 70
     0
 62
     2
  6
CONTINUOUS
  0
LAYER
  2
LC-005-003-MTG-0
 70
     0
 62
     2
  6
CONTINUOUS
  0
LAYER
  2
LC-003-003-----0
 70
     0
 62
     2
  6
CONTINUOUS
  0
LAYER
  2
LC-001-002-----0
 70
     0
 62
     1
  6
CONTINUOUS
  0
LAYER
  2
LC-002-001-----0
 70
     0
 62
     2
  6
DASHDOT
  0
LAYER
  2
LC-006-002-RND-0
 70
     0
 62
     1
  6
CONTINUOUS
  0
LAYER
  2
LC-000
 70
     0
 62
     7
  6
CONTINUOUS
  0
ENDTAB
  0
TABLE
  2
STYLE
 70
     4
  0
STYLE
  2
STANDARD
 70
     0
 40
0.0
 41
1.0
 50
0.0
 71
     0
 42
0.0
  3
txt
  4

  0
STYLE
  2
LC-STANDARD
 70
    64
 40
0.0
 41
1.0
 50
0.0
 71
     0
 42
3.5
  3
MONOTXT
  4

  0
STYLE
  2
LC-TXTSTYLE-150-400-0-0-D2
 70
    64
 40
0.0
 41
1.0
 50
15.0
 71
     0
 42
3.5
  3
MONOTXT
  4

  0
STYLE
  2
LC-TXTSTYLE-150-400-0-0-D3
 70
    64
 40
0.0
 41
1.0
 50
15.0
 71
     0
 42
3.5
  3
LC-STANDARD
  4

  0
ENDTAB
  0
TABLE
  2
VIEW
 70
     0
  0
ENDTAB
  0
TABLE
  2
UCS
 70
     0
  0
ENDTAB
  0
TABLE
  2
APPID
 70
     1
  0
APPID
  2
ACAD
 70
     0
  0
ENDTAB
  0
TABLE
  2
DIMSTYLE
 70
     3
  0
DIMSTYLE
  2
STANDARD
 70
     0
  3

  4

  5

  6

  7

 40
1.0
 41
0.18
 42
0.0625
 43
0.38
 44
0.18
 45
0.0
 46
0.0
 47
0.0
 48
0.0
 71
     0
 72
     0
 73
     1
 74
     1
 75
     0
 76
     0
 77
     0
 78
     0
140
0.18
141
0.09
142
0.0
143
25.4
144
1.0
145
0.0
146
1.0
147
0.09
170
     0
171
     2
172
     0
173
     0
174
     0
175
     0
176
     0
177
     0
178
     0
  0
DIMSTYLE
  2
LC-STANDARD
 70
     0
  3

  4

  5

  6

  7

 40
1.0
 41
3.5
 42
0.0
 43
7.5
 44
1.8
 45
0.0
 46
0.0
 47
0.0
 48
0.0
 71
     0
 72
     0
 73
     0
 74
     0
 75
     0
 76
     0
 77
     1
 78
     8
140
3.5
141
0.0
142
0.0
143
25.4
144
1.0
145
0.0
146
0.71
147
1.5
170
     0
171
     2
172
     1
173
     0
174
     0
175
     0
176
     0
177
     0
178
     3
  0
DIMSTYLE
  2
LC-DIM-L-0090-02-02
 70
     0
  3

  4

  5

  6

  7

 40
2.0
 41
3.5
 42
0.0
 43
7.5
 44
1.8
 45
0.0
 46
0.0
 47
0.0
 48
0.0
 71
     0
 72
     0
 73
     0
 74
     0
 75
     0
 76
     0
 77
     1
 78
     8
140
9.0
141
0.0
142
0.0
143
25.4
144
1.0
145
0.0
146
0.71
147
1.5
170
     0
171
     2
172
     0
173
     0
174
     0
175
     0
176
     2
177
     2
178
     6
  0
ENDTAB
  0
ENDSEC
  0
SECTION
  2
BLOCKS
  0
BLOCK
  8
0
  5
23
  2
*D0
 70
    65
 10
0.0
 20
0.0
 30
0.0
  3
*D0
  0
LINE
  8
LC-004-003-MTH-0
  6
CONTINUOUS
  5
25
 10
336.371324
 20
295.917359
 30
0.0
 11
336.371324
 21
241.2
 31
0.0
  0
LINE
  8
LC-004-003-MTH-0
  6
CONTINUOUS
  5
26
 10
531.371324
 20
300.57206
 30
0.0
 11
531.371324
 21
241.2
 31
0.0
  0
LINE
  8
LC-005-003-MTG-0
  6
CONTINUOUS
  5
28
 10
336.371324
 20
252.0
 30
0.0
 11
531.371324
 21
252.0
 31
0.0
  0
LINE
  8
LC-003-003-----0
  6
CONTINUOUS
  5
2A
 10
354.217332
 20
254.349471
 30
0.0
 11
336.371324
 21
252.0
 31
0.0
  0
LINE
  8
LC-003-003-----0
  6
CONTINUOUS
  5
2B
 10
336.371324
 20
252.0
 30
0.0
 11
354.217332
 21
249.650529
 31
0.0
  0
LINE
  8
LC-003-003-----0
  6
CONTINUOUS
  5
2C
 10
354.217332
 20
249.650529
 30
0.0
 11
354.217332
 21
254.349471
 31
0.0
  0
LINE
  8
LC-003-003-----0
  6
CONTINUOUS
  5
2D
 10
354.25737
 20
253.738609
 30
0.0
 11
341.051324
 21
252.0
 31
0.0
  0
LINE
  8
LC-003-003-----0
  6
CONTINUOUS
  5
2E
 10
341.051324
 20
252.0
 30
0.0
 11
354.25737
 21
250.261391
 31
0.0
  0
LINE
  8
LC-003-003-----0
  6
CONTINUOUS
  5
2F
 10
354.297408
 20
253.127746
 30
0.0
 11
345.731324
 21
252.0
 31
0.0
  0
LINE
  8
LC-003-003-----0
  6
CONTINUOUS
  5
30
 10
345.731324
 20
252.0
 30
0.0
 11
354.297408
 21
250.872254
 31
0.0
  0
LINE
  8
LC-003-003-----0
  6
CONTINUOUS
  5
31
 10
354.337446
 20
252.516884
 30
0.0
 11
350.411324
 21
252.0
 31
0.0
  0
LINE
  8
LC-003-003-----0
  6
CONTINUOUS
  5
32
 10
350.411324
 20
252.0
 30
0.0
 11
354.337446
 21
251.483116
 31
0.0
  0
LINE
  8
LC-003-003-----0
  6
CONTINUOUS
  5
33
 10
513.525317
 20
249.650529
 30
0.0
 11
531.371324
 21
252.0
 31
0.0
  0
LINE
  8
LC-003-003-----0
  6
CONTINUOUS
  5
34
 10
531.371324
 20
252.0
 30
0.0
 11
513.525317
 21
254.349471
 31
0.0
  0
LINE
  8
LC-003-003-----0
  6
CONTINUOUS
  5
35
 10
513.525317
 20
254.349471
 30
0.0
 11
513.525317
 21
249.650529
 31
0.0
  0
LINE
  8
LC-003-003-----0
  6
CONTINUOUS
  5
36
 10
513.485279
 20
250.261391
 30
0.0
 11
526.691324
 21
252.0
 31
0.0
  0
LINE
  8
LC-003-003-----0
  6
CONTINUOUS
  5
37
 10
526.691324
 20
252.0
 30
0.0
 11
513.485279
 21
253.738609
 31
0.0
  0
LINE
  8
LC-003-003-----0
  6
CONTINUOUS
  5
38
 10
513.445241
 20
250.872254
 30
0.0
 11
522.011324
 21
252.0
 31
0.0
  0
LINE
  8
LC-003-003-----0
  6
CONTINUOUS
  5
39
 10
522.011324
 20
252.0
 30
0.0
 11
513.445241
 21
253.127746
 31
0.0
  0
LINE
  8
LC-003-003-----0
  6
CONTINUOUS
  5
3A
 10
513.405203
 20
251.483116
 30
0.0
 11
517.331324
 21
252.0
 31
0.0
  0
LINE
  8
LC-003-003-----0
  6
CONTINUOUS
  5
3B
 10
517.331324
 20
252.0
 30
0.0
 11
513.405203
 21
252.516884
 31
0.0
  0
TEXT
  8
LC-003-003-----0
  6
CONTINUOUS
 62
     6
  5
3D
 10
417.532712
 20
262.431999
 30
0.0
 40
18.0
  1
195
 41
0.9
 51
15.0
  7
LC-TXTSTYLE-150-400-0-0-D0
 72
     1
 11
436.66657
 21
262.431999
 31
0.0
  0
ENDBLK
  8
0
  5
3E
  0
BLOCK
  8
0
  5
40
  2
*D1
 70
    65
 10
0.0
 20
0.0
 30
0.0
  3
*D1
  0
LINE
  8
LC-004-003-MTH-0
  6
CONTINUOUS
  5
41
 10
529.371324
 20
299.417359
 30
0.0
 11
586.8
 21
299.417359
 31
0.0
  0
LINE
  8
LC-004-003-MTH-0
  6
CONTINUOUS
  5
42
 10
529.371324
 20
339.417359
 30
0.0
 11
586.8
 21
339.417359
 31
0.0
  0
LINE
  8
LC-003-003-----0
  6
CONTINUOUS
  5
43
 10
578.349471
 20
281.571352
 30
0.0
 11
576.0
 21
299.417359
 31
0.0
  0
LINE
  8
LC-003-003-----0
  6
CONTINUOUS
  5
44
 10
576.0
 20
299.417359
 30
0.0
 11
573.650529
 21
281.571352
 31
0.0
  0
LINE
  8
LC-003-003-----0
  6
CONTINUOUS
  5
45
 10
573.650529
 20
281.571352
 30
0.0
 11
578.349471
 21
281.571352
 31
0.0
  0
LINE
  8
LC-003-003-----0
  6
CONTINUOUS
  5
46
 10
577.738609
 20
281.531314
 30
0.0
 11
576.0
 21
294.737359
 31
0.0
  0
LINE
  8
LC-003-003-----0
  6
CONTINUOUS
  5
47
 10
576.0
 20
294.737359
 30
0.0
 11
574.261391
 21
281.531314
 31
0.0
  0
LINE
  8
LC-003-003-----0
  6
CONTINUOUS
  5
48
 10
577.127746
 20
281.491276
 30
0.0
 11
576.0
 21
290.057359
 31
0.0
  0
LINE
  8
LC-003-003-----0
  6
CONTINUOUS
  5
49
 10
576.0
 20
290.057359
 30
0.0
 11
574.872254
 21
281.491276
 31
0.0
  0
LINE
  8
LC-003-003-----0
  6
CONTINUOUS
  5
4A
 10
576.516884
 20
281.451238
 30
0.0
 11
576.0
 21
285.377359
 31
0.0
  0
LINE
  8
LC-003-003-----0
  6
CONTINUOUS
  5
4B
 10
576.0
 20
285.377359
 30
0.0
 11
575.483116
 21
281.451238
 31
0.0
  0
LINE
  8
LC-003-003-----0
  6
CONTINUOUS
  5
4C
 10
573.650529
 20
357.263367
 30
0.0
 11
576.0
 21
339.417359
 31
0.0
  0
LINE
  8
LC-003-003-----0
  6
CONTINUOUS
  5
4D
 10
576.0
 20
339.417359
 30
0.0
 11
578.349471
 21
357.263367
 31
0.0
  0
LINE
  8
LC-003-003-----0
  6
CONTINUOUS
  5
4E
 10
578.349471
 20
357.263367
 30
0.0
 11
573.650529
 21
357.263367
 31
0.0
  0
LINE
  8
LC-003-003-----0
  6
CONTINUOUS
  5
4F
 10
574.261391
 20
357.303405
 30
0.0
 11
576.0
 21
344.097359
 31
0.0
  0
LINE
  8
LC-003-003-----0
  6
CONTINUOUS
  5
50
 10
576.0
 20
344.097359
 30
0.0
 11
577.738609
 21
357.303405
 31
0.0
  0
LINE
  8
LC-003-003-----0
  6
CONTINUOUS
  5
51
 10
574.872254
 20
357.343443
 30
0.0
 11
576.0
 21
348.777359
 31
0.0
  0
LINE
  8
LC-003-003-----0
  6
CONTINUOUS
  5
52
 10
576.0
 20
348.777359
 30
0.0
 11
577.127746
 21
357.343443
 31
0.0
  0
LINE
  8
LC-003-003-----0
  6
CONTINUOUS
  5
53
 10
575.483116
 20
357.383481
 30
0.0
 11
576.0
 21
353.457359
 31
0.0
  0
LINE
  8
LC-003-003-----0
  6
CONTINUOUS
  5
54
 10
576.0
 20
353.457359
 30
0.0
 11
576.516884
 21
357.383481
 31
0.0
  0
LINE
  8
LC-005-003-MTG-0
  6
CONTINUOUS
  5
55
 10
576.0
 20
274.217359
 30
0.0
 11
576.0
 21
429.819879
 31
0.0
  0
TEXT
  8
LC-003-003-----0
  6
CONTINUOUS
 62
     6
  5
56
 10
565.568001
 20
366.692605
 30
0.0
 40
18.0
  1
DN40
 50
90.0
 51
15.0
  7
LC-TXTSTYLE-150-400-0-0-D0
  0
ENDBLK
  8
0
  5
57
  0
ENDSEC
  0
SECTION
  2
ENTITIES
  0
VIEWPORT
  8
LC-000
  5
8A
 67
     1
 68
     1
 10
420.0
 20
297.0
 30
0.0
 40
840.0
 41
594.0
 69
     1
1001
ACAD
1000
MVIEW
1002
{
1070
    16
1010
0.0
1020
0.0
1030
0.0
1010
0.0
1020
0.0
1030
1.0
1040
0.0
1040
594.0
1040
420.0
1040
297.0
1040
50.0
1040
0.0
1040
0.0
1070
     0
1070
   100
1070
     1
1070
     1
1070
     0
1070
     0
1070
     0
1070
     0
1040
0.0
1040
0.0
1040
0.0
1040
1.0
1040
1.0
1040
0.0
1040
0.0
1070
     0
1002
{
1002
}
1002
}
  0
VIEWPORT
  8
0
  5
8B
 67
     1
 68
     1
 10
0.0
 20
0.0
 30
0.0
 40
0.0
 41
0.0
 69
     1
1001
ACAD
1000
MVIEW
1002
{
1070
    16
1010
0.0
1020
0.0
1030
0.0
1010
0.0
1020
0.0
1030
1.0
1040
0.0
1040
594.0
1040
0.0
1040
0.0
1040
50.0
1040
0.0
1040
0.0
1070
     0
1070
   100
1070
     0
1070
     1
1070
     0
1070
     0
1070
     0
1070
     0
1040
0.0
1040
0.0
1040
0.0
1040
0.5
1040
0.5
1040
0.5
1040
0.5
1070
     0
1002
{
1002
}
1002
}
  0
DIMENSION
  8
0
  5
58
  2
*D0
 10
433.871324
 20
252.0
 30
0.0
 11
433.871324
 21
252.0
 31
0.0
 13
336.371324
 23
295.917359
 33
0.0
 14
531.371324
 24
300.57206
 34
0.0
  3
LC-DIM-L-0090-02-02
  0
DIMENSION
  8
0
  5
59
  2
*D1
 10
576.0
 20
337.123472
 30
0.0
 11
576.0
 21
337.123472
 31
0.0
  1
DN40
 13
529.371324
 23
339.417359
 33
0.0
 14
529.371324
 24
299.417359
 34
0.0
 50
90.0
  3
LC-DIM-L-0090-02-02
  0
LINE
  8
LC-001-002-----0
  6
CONTINUOUS
  5
5B
 10
529.371324
 20
299.417359
 30
0.0
 11
381.371324
 21
299.417359
 31
0.0
  0
LINE
  8
LC-001-002-----0
  6
CONTINUOUS
  5
5C
 10
531.371324
 20
338.262659
 30
0.0
 11
531.371324
 21
300.57206
 31
0.0
  0
LINE
  8
LC-001-002-----0
  6
CONTINUOUS
  5
5D
 10
529.371324
 20
299.417359
 30
0.0
 11
531.371324
 21
300.57206
 31
0.0
  0
LINE
  8
LC-001-002-----0
  6
CONTINUOUS
  5
5E
 10
529.371324
 20
339.417359
 30
0.0
 11
531.371324
 21
338.262659
 31
0.0
  0
LINE
  8
LC-001-002-----0
  6
CONTINUOUS
  5
5F
 10
529.371324
 20
339.417359
 30
0.0
 11
397.371324
 21
339.417359
 31
0.0
  0
LINE
  8
LC-002-001-----0
  5
62
 10
531.371324
 20
319.417359
 30
0.0
 11
336.371324
 21
319.417359
 31
0.0
  0
LINE
  8
LC-001-002-----0
  6
CONTINUOUS
  5
63
 10
397.371324
 20
339.417359
 30
0.0
 11
381.371324
 21
339.417359
 31
0.0
  0
LINE
  8
LC-001-002-----0
  6
CONTINUOUS
  5
64
 10
529.371324
 20
339.417359
 30
0.0
 11
529.371324
 21
299.417359
 31
0.0
  0
LINE
  8
LC-001-002-----0
  6
CONTINUOUS
  5
65
 10
381.371324
 20
339.417359
 30
0.0
 11
381.371324
 21
299.417359
 31
0.0
  0
LINE
  8
LC-001-002-----0
  6
CONTINUOUS
  5
66
 10
373.371324
 20
341.917359
 30
0.0
 11
373.371324
 21
296.917359
 31
0.0
  0
LINE
  8
LC-001-002-----0
  6
CONTINUOUS
  5
67
 10
373.371324
 20
296.917359
 30
0.0
 11
381.371324
 21
299.417359
 31
0.0
  0
LINE
  8
LC-001-002-----0
  6
CONTINUOUS
  5
68
 10
373.371324
 20
341.917359
 30
0.0
 11
381.371324
 21
339.417359
 31
0.0
  0
LINE
  8
LC-001-002-----0
  6
CONTINUOUS
  5
69
 10
373.371324
 20
341.917359
 30
0.0
 11
356.371324
 21
341.917359
 31
0.0
  0
LINE
  8
LC-001-002-----0
  6
CONTINUOUS
  5
6A
 10
356.371324
 20
341.917359
 30
0.0
 11
356.371324
 21
296.917359
 31
0.0
  0
LINE
  8
LC-001-002-----0
  6
CONTINUOUS
  5
6B
 10
356.371324
 20
296.917359
 30
0.0
 11
373.371324
 21
296.917359
 31
0.0
  0
LINE
  8
LC-001-002-----0
  6
CONTINUOUS
  5
6C
 10
356.371324
 20
341.917359
 30
0.0
 11
356.371324
 21
345.917359
 31
0.0
  0
LINE
  8
LC-001-002-----0
  6
CONTINUOUS
  5
6D
 10
356.371324
 20
292.917359
 30
0.0
 11
356.371324
 21
296.917359
 31
0.0
  0
LINE
  8
LC-001-002-----0
  6
CONTINUOUS
  5
6E
 10
355.371324
 20
345.917359
 30
0.0
 11
355.371324
 21
292.917359
 31
0.0
  0
LINE
  8
LC-001-002-----0
  6
CONTINUOUS
  5
6F
 10
355.371324
 20
345.917359
 30
0.0
 11
355.371324
 21
346.917359
 31
0.0
  0
LINE
  8
LC-001-002-----0
  6
CONTINUOUS
  5
70
 10
355.371324
 20
346.917359
 30
0.0
 11
356.371324
 21
346.917359
 31
0.0
  0
LINE
  8
LC-001-002-----0
  6
CONTINUOUS
  5
71
 10
356.371324
 20
346.917359
 30
0.0
 11
356.371324
 21
345.917359
 31
0.0
  0
LINE
  8
LC-001-002-----0
  6
CONTINUOUS
  5
72
 10
355.371324
 20
292.917359
 30
0.0
 11
355.371324
 21
291.917359
 31
0.0
  0
LINE
  8
LC-001-002-----0
  6
CONTINUOUS
  5
73
 10
355.371324
 20
291.917359
 30
0.0
 11
356.371324
 21
291.917359
 31
0.0
  0
LINE
  8
LC-001-002-----0
  6
CONTINUOUS
  5
74
 10
356.371324
 20
291.917359
 30
0.0
 11
356.371324
 21
292.917359
 31
0.0
  0
LINE
  8
LC-001-002-----0
  6
CONTINUOUS
  5
75
 10
355.371324
 20
345.917359
 30
0.0
 11
339.371324
 21
345.917359
 31
0.0
  0
ARC
  8
LC-006-002-RND-0
  6
CONTINUOUS
  5
77
 10
339.371324
 20
342.917359
 30
0.0
 40
3.0
 50
90.0
 51
180.0
  0
LINE
  8
LC-001-002-----0
  6
CONTINUOUS
  5
78
 10
339.371324
 20
292.917359
 30
0.0
 11
355.371324
 21
292.917359
 31
0.0
  0
ARC
  8
LC-006-002-RND-0
  6
CONTINUOUS
  5
79
 10
339.371324
 20
295.917359
 30
0.0
 40
3.0
 50
180.0
 51
270.0
  0
LINE
  8
LC-001-002-----0
  6
CONTINUOUS
  5
7A
 10
336.371324
 20
342.917359
 30
0.0
 11
336.371324
 21
295.917359
 31
0.0
  0
LINE
  8
LC-001-002-----0
  6
CONTINUOUS
 62
     2
  5
7B
 10
355.371324
 20
319.917359
 30
0.0
 11
339.371324
 21
319.917359
 31
0.0
  0
LINE
  8
LC-001-002-----0
  6
CONTINUOUS
 62
     2
  5
7C
 10
355.371324
 20
320.917359
 30
0.0
 11
339.371324
 21
320.917359
 31
0.0
  0
LINE
  8
LC-001-002-----0
  6
CONTINUOUS
 62
     2
  5
7D
 10
355.371324
 20
321.917359
 30
0.0
 11
339.371324
 21
321.917359
 31
0.0
  0
LINE
  8
LC-001-002-----0
  6
CONTINUOUS
 62
     2
  5
7E
 10
355.371324
 20
322.917359
 30
0.0
 11
339.371324
 21
322.917359
 31
0.0
  0
LINE
  8
LC-001-002-----0
  6
CONTINUOUS
 62
     2
  5
7F
 10
355.371324
 20
318.917359
 30
0.0
 11
339.371324
 21
318.917359
 31
0.0
  0
LINE
  8
LC-001-002-----0
  6
CONTINUOUS
 62
     2
  5
80
 10
355.371324
 20
317.917359
 30
0.0
 11
339.371324
 21
317.917359
 31
0.0
  0
LINE
  8
LC-001-002-----0
  6
CONTINUOUS
 62
     2
  5
81
 10
355.371324
 20
316.917359
 30
0.0
 11
339.371324
 21
316.917359
 31
0.0
  0
LINE
  8
LC-001-002-----0
  6
CONTINUOUS
 62
     2
  5
82
 10
355.371324
 20
315.917359
 30
0.0
 11
339.371324
 21
315.917359
 31
0.0
  0
LINE
  8
LC-001-002-----0
  6
CONTINUOUS
 62
     2
  5
83
 10
355.371324
 20
345.417359
 30
0.0
 11
339.371324
 21
345.417359
 31
0.0
  0
LINE
  8
LC-001-002-----0
  6
CONTINUOUS
 62
     2
  5
84
 10
355.371324
 20
293.417359
 30
0.0
 11
339.371324
 21
293.417359
 31
0.0
  0
LINE
  8
LC-001-002-----0
  6
CONTINUOUS
 62
     2
  5
85
 10
355.371324
 20
344.417359
 30
0.0
 11
339.371324
 21
344.417359
 31
0.0
  0
LINE
  8
LC-001-002-----0
  6
CONTINUOUS
 62
     2
  5
86
 10
355.371324
 20
343.417359
 30
0.0
 11
339.371324
 21
343.417359
 31
0.0
  0
LINE
  8
LC-001-002-----0
  6
CONTINUOUS
 62
     2
  5
87
 10
355.371324
 20
294.417359
 30
0.0
 11
339.371324
 21
294.417359
 31
0.0
  0
LINE
  8
LC-001-002-----0
  6
CONTINUOUS
 62
     2
  5
88
 10
355.371324
 20
295.417359
 30
0.0
 11
339.371324
 21
295.417359
 31
0.0
  0
ENDSEC
  0
EOF
