  0
SECTION
  2
HEADER
  9
$ACADVER
  1
AC1009
  9
$INSBASE
 10
0.0
 20
0.0
 30
0.0
  9
$EXTMIN
 10
0.0
 20
0.0
 30
0.0
  9
$EXTMAX
 10
840.0
 20
594.0
 30
0.0
  9
$LIMMIN
 10
0.0
 20
0.0
  9
$LIMMAX
 10
840.0
 20
594.0
  9
$ORTHOMODE
 70
     0
  9
$REGENMODE
 70
     1
  9
$FILLMODE
 70
     1
  9
$QTEXTMODE
 70
     0
  9
$MIRRTEXT
 70
     1
  9
$DRAGMODE
 70
     2
  9
$LTSCALE
 40
2.0
  9
$OSMODE
 70
     0
  9
$ATTMODE
 70
     1
  9
$TEXTSIZE
 40
0.2
  9
$TRACEWID
 40
0.05
  9
$TEXTSTYLE
  7
STANDARD
  9
$CLAYER
  8
0
  9
$CELTYPE
  6
BYLAYER
  9
$CECOLOR
 62
     7
  9
$DIMSCALE
 40
2.0
  9
$DIMASZ
 40
3.5
  9
$DIMEXO
 40
0.0625
  9
$DIMDLI
 40
0.38
  9
$DIMRND
 40
0.0
  9
$DIMDLE
 40
0.0
  9
$DIMEXE
 40
0.18
  9
$DIMTP
 40
0.0
  9
$DIMTM
 40
0.0
  9
$DIMTXT
 40
3.5
  9
$DIMCEN
 40
0.09
  9
$DIMTSZ
 40
0.0
  9
$DIMTOL
 70
     0
  9
$DIMLIM
 70
     0
  9
$DIMTIH
 70
     1
  9
$DIMTOH
 70
     1
  9
$DIMSE1
 70
     0
  9
$DIMSE2
 70
     0
  9
$DIMTAD
 70
     1
  9
$DIMZIN
 70
     0
  9
$DIMBLK
  1

  9
$DIMASO
 70
     1
  9
$DIMSHO
 70
     1
  9
$DIMPOST
  1

  9
$DIMAPOST
  1

  9
$DIMALT
 70
     0
  9
$DIMALTD
 70
     2
  9
$DIMALTF
 40
25.4
  9
$DIMLFAC
 40
1.0
  9
$DIMTOFL
 70
     0
  9
$DIMTVP
 40
0.0
  9
$DIMTIX
 70
     0
  9
$DIMSOXD
 70
     0
  9
$DIMSAH
 70
     0
  9
$DIMBLK1
  1

  9
$DIMBLK2
  1

  9
$DIMSTYLE
  2
STANDARD
  9
$DIMCLRD
 70
     0
  9
$DIMCLRE
 70
     0
  9
$DIMCLRT
 70
     0
  9
$DIMTFAC
 40
1.0
  9
$DIMGAP
 40
0.09
  9
$LUNITS
 70
     2
  9
$LUPREC
 70
     2
  9
$AXISMODE
 70
     0
  9
$AXISUNIT
 10
0.0
 20
0.0
  9
$SKETCHINC
 40
0.1
  9
$FILLETRAD
 40
0.0
  9
$AUNITS
 70
     0
  9
$AUPREC
 70
     0
  9
$MENU
  1
acad
  9
$ELEVATION
 40
0.0
  9
$PELEVATION
 40
0.0
  9
$THICKNESS
 40
0.0
  9
$LIMCHECK
 70
     0
  9
$BLIPMODE
 70
     1
  9
$CHAMFERA
 40
0.0
  9
$CHAMFERB
 40
0.0
  9
$SKPOLY
 70
     0
  9
$TDCREATE
 40
0.000000000
  9
$TDUPDATE
 40
0.000000000
  9
$TDINDWG
 40
0.0000000000
  9
$TDUSRTIMER
 40
0.0000000000
  9
$USRTIMER
 70
     1
  9
$ANGBASE
 50
0.0
  9
$ANGDIR
 70
     0
  9
$PDMODE
 70
     0
  9
$PDSIZE
 40
0.0
  9
$PLINEWID
 40
0.0
  9
$COORDS
 70
     0
  9
$SPLFRAME
 70
     0
  9
$SPLINETYPE
 70
     6
  9
$SPLINESEGS
 70
     8
  9
$ATTDIA
 70
     0
  9
$ATTREQ
 70
     1
  9
$HANDLING
 70
     1
  9
$HANDSEED
  5
2C3
  9
$SURFTAB1
 70
     6
  9
$SURFTAB2
 70
     6
  9
$SURFTYPE
 70
     6
  9
$SURFU
 70
     6
  9
$SURFV
 70
     6
  9
$UCSNAME
  2

  9
$UCSORG
 10
0.0
 20
0.0
 30
0.0
  9
$UCSXDIR
 10
1.0
 20
0.0
 30
0.0
  9
$UCSYDIR
 10
0.0
 20
1.0
 30
0.0
  9
$PUCSNAME
  2

  9
$PUCSORG
 10
0.0
 20
0.0
 30
0.0
  9
$PUCSXDIR
 10
1.0
 20
0.0
 30
0.0
  9
$PUCSYDIR
 10
0.0
 20
1.0
 30
0.0
  9
$USERI1
 70
     0
  9
$USERI2
 70
     0
  9
$USERI3
 70
     0
  9
$USERI4
 70
     0
  9
$USERI5
 70
     0
  9
$USERR1
 40
0.0
  9
$USERR2
 40
0.0
  9
$USERR3
 40
0.0
  9
$USERR4
 40
0.0
  9
$USERR5
 40
0.0
  9
$WORLDVIEW
 70
     1
  9
$SHADEDGE
 70
     3
  9
$SHADEDIF
 70
    70
  9
$TILEMODE
 70
     1
  9
$MAXACTVP
 70
    16
  9
$PINSBASE
 10
0.0
 20
0.0
 30
0.0
  9
$PLIMCHECK
 70
     0
  9
$PEXTMIN
 10
1.000000E+20
 20
1.000000E+20
 30
1.000000E+20
  9
$PEXTMAX
 10
-1.000000E+20
 20
-1.000000E+20
 30
-1.000000E+20
  9
$PLIMMIN
 10
0.0
 20
0.0
  9
$PLIMMAX
 10
840.0
 20
594.0
  9
$UNITMODE
 70
     0
  9
$VISRETAIN
 70
     0
  9
$PLINEGEN
 70
     1
  9
$PSLTSCALE
 70
     0
  9
$TREEDEPTH
 70
  3020
  9
$DWGCODEPAGE
  3
dos850
  0
ENDSEC
  0
SECTION
  2
TABLES
  0
TABLE
  2
VPORT
 70
     1
  0
VPORT
  2
*ACTIVE
 70
     0
 10
0.0
 20
0.0
 11
1.0
 21
1.0
 12
420.0
 22
297.0
 13
0.0
 23
0.0
 14
1.0
 24
1.0
 15
0.0
 25
0.0
 16
0.0
 26
0.0
 36
1.0
 17
0.0
 27
0.0
 37
0.0
 40
594.0
 41
1.604229
 42
50.0
 43
0.0
 44
0.0
 50
0.0
 51
0.0
 71
     0
 72
   100
 73
     1
 74
     1
 75
     0
 76
     0
 77
     0
 78
     0
  0
ENDTAB
  0
TABLE
  2
LTYPE
 70
     3
  0
LTYPE
  2
CONTINUOUS
 70
    64
  3
Solid line
 72
    65
 73
     0
 40
0.0
  0
LTYPE
  2
DASHED
 70
    64
  3
__ __ __ __ __
 72
    65
 73
     2
 40
6.25
 49
5.0
 49
-1.25
  0
LTYPE
  2
DASHDOT
 70
    64
  3
__ . __ . __ . __ . __
 72
    65
 73
     4
 40
7.5
 49
5.0
 49
-1.25
 49
0.0
 49
-1.25
  0
ENDTAB
  0
TABLE
  2
LAYER
 70
    11
  0
LAYER
  2
0
 70
     0
 62
     7
  6
CONTINUOUS
  0
LAYER
  2
LC-INFO-1-2-MM-A3-0
 70
     1
 62
    -1
  6
CONTINUOUS
  0
LAYER
  2
LC-003-005-----0
 70
     0
 62
     2
  6
CONTINUOUS
  0
LAYER
  2
LC-007-003-MTH-0
 70
     0
 62
     2
  6
CONTINUOUS
  0
LAYER
  2
LC-006-003-----0
 70
     0
 62
     2
  6
CONTINUOUS
  0
LAYER
  2
LC-008-003-MTG-0
 70
     0
 62
     2
  6
CONTINUOUS
  0
LAYER
  2
LC-005-000-----0
 70
     0
 62
     7
  6
CONTINUOUS
  0
LAYER
  2
LC-009-000-----0
 70
     0
 62
     7
  6
CONTINUOUS
  0
LAYER
  2
LC-002-002-----0
 70
     0
 62
     1
  6
CONTINUOUS
  0
LAYER
  2
LC-004-002-RND-0
 70
     0
 62
     1
  6
CONTINUOUS
  0
LAYER
  2
LC-000
 70
     0
 62
     7
  6
CONTINUOUS
  0
ENDTAB
  0
TABLE
  2
STYLE
 70
     5
  0
STYLE
  2
STANDARD
 70
     0
 40
0.0
 41
1.0
 50
0.0
 71
     0
 42
0.0
  3
txt
  4

  0
STYLE
  2
LC-STANDARD
 70
    64
 40
0.0
 41
1.0
 50
0.0
 71
     0
 42
3.5
  3
MONOTXT
  4

  0
STYLE
  2
LC-TXTSTYLE-0-400-0-0-DIN2
 70
    64
 40
0.0
 41
1.0
 50
0.0
 71
     0
 42
3.5
  3
MONOTXT
  4

  0
STYLE
  2
LC-TXTSTYLE-150-400-0-0-D3
 70
    64
 40
0.0
 41
1.0
 50
15.0
 71
     0
 42
3.5
  3
MONOTXT
  4

  0
STYLE
  2
LC-TXTSTYLE-150-400-0-0-D4
 70
    64
 40
0.0
 41
1.0
 50
15.0
 71
     0
 42
3.5
  3
LC-STANDARD
  4

  0
ENDTAB
  0
TABLE
  2
VIEW
 70
     0
  0
ENDTAB
  0
TABLE
  2
UCS
 70
     0
  0
ENDTAB
  0
TABLE
  2
APPID
 70
     1
  0
APPID
  2
ACAD
 70
     0
  0
ENDTAB
  0
TABLE
  2
DIMSTYLE
 70
     3
  0
DIMSTYLE
  2
STANDARD
 70
     0
  3

  4

  5

  6

  7

 40
1.0
 41
0.18
 42
0.0625
 43
0.38
 44
0.18
 45
0.0
 46
0.0
 47
0.0
 48
0.0
 71
     0
 72
     0
 73
     1
 74
     1
 75
     0
 76
     0
 77
     0
 78
     0
140
0.18
141
0.09
142
0.0
143
25.4
144
1.0
145
0.0
146
1.0
147
0.09
170
     0
171
     2
172
     0
173
     0
174
     0
175
     0
176
     0
177
     0
178
     0
  0
DIMSTYLE
  2
LC-STANDARD
 70
     0
  3

  4

  5

  6

  7

 40
1.0
 41
3.5
 42
0.0
 43
7.5
 44
1.8
 45
0.0
 46
0.0
 47
0.0
 48
0.0
 71
     0
 72
     0
 73
     0
 74
     0
 75
     0
 76
     0
 77
     1
 78
     8
140
3.5
141
0.0
142
0.0
143
25.4
144
1.0
145
0.0
146
0.71
147
1.5
170
     0
171
     2
172
     1
173
     0
174
     0
175
     0
176
     0
177
     0
178
     3
  0
DIMSTYLE
  2
LC-DIM-L-0090-02-02
 70
     0
  3

  4

  5

  6

  7

 40
2.0
 41
3.5
 42
0.0
 43
7.5
 44
1.8
 45
0.0
 46
0.0
 47
0.0
 48
0.0
 71
     0
 72
     0
 73
     0
 74
     0
 75
     0
 76
     0
 77
     1
 78
     8
140
9.0
141
0.0
142
0.0
143
25.4
144
1.0
145
0.0
146
0.71
147
1.5
170
     0
171
     2
172
     0
173
     0
174
     0
175
     0
176
     2
177
     2
178
     6
  0
ENDTAB
  0
ENDSEC
  0
SECTION
  2
BLOCKS
  0
BLOCK
  8
0
  5
24
  2
*X0
 70
    65
 10
387.380576
 20
429.765697
 30
0.0
  3
*X0
  0
LINE
  8
LC-003-005-----0
  6
CONTINUOUS
  5
26
 10
401.388266
 20
453.503833
 30
0.0
 11
401.126409
 21
453.76569
 31
0.0
  0
LINE
  8
LC-003-005-----0
  6
DASHED
  5
28
 10
401.388266
 20
452.089619
 30
0.0
 11
399.712189
 21
453.765696
 31
0.0
  0
LINE
  8
LC-003-005-----0
  6
DASHED
  5
29
 10
401.388266
 20
451.382512
 30
0.0
 11
399.01078
 21
453.759998
 31
0.0
  0
LINE
  8
LC-003-005-----0
  6
CONTINUOUS
  5
2A
 10
401.388266
 20
449.968299
 30
0.0
 11
397.708002
 21
453.648563
 31
0.0
  0
LINE
  8
LC-003-005-----0
  6
CONTINUOUS
  5
2B
 10
401.388266
 20
449.261192
 30
0.0
 11
397.102064
 21
453.547394
 31
0.0
  0
LINE
  8
LC-003-005-----0
  6
DASHED
  5
2C
 10
401.388266
 20
447.846979
 30
0.0
 11
395.965696
 21
453.269548
 31
0.0
  0
LINE
  8
LC-003-005-----0
  6
DASHED
  5
2D
 10
401.262449
 20
447.265688
 30
0.0
 11
395.431022
 21
453.097115
 31
0.0
  0
LINE
  8
LC-003-005-----0
  6
CONTINUOUS
  5
2E
 10
399.848235
 20
447.265688
 30
0.0
 11
394.421053
 21
452.692871
 31
0.0
  0
LINE
  8
LC-003-005-----0
  6
CONTINUOUS
  5
2F
 10
399.141129
 20
447.265688
 30
0.0
 11
393.943527
 21
452.46329
 31
0.0
  0
LINE
  8
LC-003-005-----0
  6
DASHED
  5
30
 10
397.726915
 20
447.265688
 30
0.0
 11
393.039273
 21
451.953331
 31
0.0
  0
LINE
  8
LC-003-005-----0
  6
DASHED
  5
31
 10
397.019808
 20
447.265688
 30
0.0
 11
392.611344
 21
451.674153
 31
0.0
  0
LINE
  8
LC-003-005-----0
  6
CONTINUOUS
  5
32
 10
396.116202
 20
446.755081
 30
0.0
 11
391.801749
 21
451.069534
 31
0.0
  0
LINE
  8
LC-003-005-----0
  6
CONTINUOUS
  5
33
 10
395.988266
 20
446.175911
 30
0.0
 11
391.419523
 21
450.744653
 31
0.0
  0
LINE
  8
LC-003-005-----0
  6
DASHED
  5
34
 10
395.951813
 20
444.79815
 30
0.0
 11
390.699453
 21
450.05051
 31
0.0
  0
LINE
  8
LC-003-005-----0
  6
DASHED
  5
35
 10
395.689802
 20
444.353054
 30
0.0
 11
390.361541
 21
449.681315
 31
0.0
  0
LINE
  8
LC-003-005-----0
  6
CONTINUOUS
  5
36
 10
394.562954
 20
444.065688
 30
0.0
 11
389.730373
 21
448.89827
 31
0.0
  0
LINE
  8
LC-003-005-----0
  6
CONTINUOUS
  5
37
 10
393.855847
 20
444.065688
 30
0.0
 11
390.588266
 21
447.33327
 31
0.0
  0
LINE
  8
LC-003-005-----0
  6
CONTINUOUS
  5
38
 10
390.155847
 20
447.765688
 30
0.0
 11
389.437525
 21
448.484011
 31
0.0
  0
LINE
  8
LC-003-005-----0
  6
DASHED
  5
39
 10
392.441634
 20
444.065688
 30
0.0
 11
390.588266
 21
445.919056
 31
0.0
  0
LINE
  8
LC-003-005-----0
  6
DASHED
  5
3A
 10
391.734527
 20
444.065688
 30
0.0
 11
390.588266
 21
445.21195
 31
0.0
  0
ENDBLK
  8
0
  5
3B
  0
BLOCK
  8
0
  5
3D
  2
*X1
 70
    65
 10
341.188266
 20
426.809541
 30
0.0
  3
*X1
  0
LINE
  8
LC-003-005-----0
  6
CONTINUOUS
  5
3E
 10
342.322497
 20
427.17531
 30
0.0
 11
342.688266
 21
427.541079
 31
0.0
  0
LINE
  8
LC-003-005-----0
  6
CONTINUOUS
  5
3F
 10
341.188266
 20
428.869507
 30
0.0
 11
342.688266
 21
430.369507
 31
0.0
  0
LINE
  8
LC-003-005-----0
  6
CONTINUOUS
  5
40
 10
341.188266
 20
431.697934
 30
0.0
 11
342.688266
 21
433.197934
 31
0.0
  0
LINE
  8
LC-003-005-----0
  6
CONTINUOUS
  5
41
 10
341.188266
 20
434.526361
 30
0.0
 11
342.688266
 21
436.026361
 31
0.0
  0
LINE
  8
LC-003-005-----0
  6
CONTINUOUS
  5
42
 10
341.188266
 20
437.354788
 30
0.0
 11
342.688266
 21
438.854788
 31
0.0
  0
LINE
  8
LC-003-005-----0
  6
CONTINUOUS
  5
43
 10
341.188266
 20
440.183215
 30
0.0
 11
342.688266
 21
441.683215
 31
0.0
  0
LINE
  8
LC-003-005-----0
  6
CONTINUOUS
  5
44
 10
341.188266
 20
443.011642
 30
0.0
 11
342.688266
 21
444.511642
 31
0.0
  0
LINE
  8
LC-003-005-----0
  6
CONTINUOUS
  5
45
 10
341.188266
 20
445.840069
 30
0.0
 11
342.688266
 21
447.340069
 31
0.0
  0
ENDBLK
  8
0
  5
46
  0
BLOCK
  8
0
  5
48
  2
*X2
 70
    65
 10
318.795956
 20
429.765697
 30
0.0
  3
*X2
  0
LINE
  8
LC-003-005-----0
  6
CONTINUOUS
  5
49
 10
340.914506
 20
448.216662
 30
0.0
 11
337.246921
 21
451.884247
 31
0.0
  0
LINE
  8
LC-003-005-----0
  6
DASHED
  5
4A
 10
339.951266
 20
447.765688
 30
0.0
 11
334.555333
 21
453.161621
 31
0.0
  0
LINE
  8
LC-003-005-----0
  6
DASHED
  5
4B
 10
339.588266
 20
447.421582
 30
0.0
 11
333.568939
 21
453.440909
 31
0.0
  0
LINE
  8
LC-003-005-----0
  6
CONTINUOUS
  5
4C
 10
339.588266
 20
446.007368
 30
0.0
 11
331.878902
 21
453.716732
 31
0.0
  0
LINE
  8
LC-003-005-----0
  6
CONTINUOUS
  5
4D
 10
339.588266
 20
445.300261
 30
0.0
 11
331.127408
 21
453.761119
 31
0.0
  0
LINE
  8
LC-003-005-----0
  6
DASHED
  5
4E
 10
339.199824
 20
444.274489
 30
0.0
 11
329.708621
 21
453.765692
 31
0.0
  0
LINE
  8
LC-003-005-----0
  6
DASHED
  5
4F
 10
338.695728
 20
444.071479
 30
0.0
 11
329.001517
 21
453.765689
 31
0.0
  0
LINE
  8
LC-003-005-----0
  6
CONTINUOUS
  5
50
 10
337.287305
 20
444.065688
 30
0.0
 11
328.788266
 21
452.564728
 31
0.0
  0
LINE
  8
LC-003-005-----0
  6
CONTINUOUS
  5
51
 10
336.580198
 20
444.065688
 30
0.0
 11
334.16479
 21
446.481097
 31
0.0
  0
LINE
  8
LC-003-005-----0
  6
CONTINUOUS
  5
52
 10
333.403674
 20
447.242212
 30
0.0
 11
328.788266
 21
451.857621
 31
0.0
  0
LINE
  8
LC-003-005-----0
  6
DASHED
  5
53
 10
335.16573
 20
444.065942
 30
0.0
 11
334.18852
 21
445.043153
 31
0.0
  0
LINE
  8
LC-003-005-----0
  6
DASHED
  5
54
 10
331.965984
 20
447.265688
 30
0.0
 11
328.788266
 21
450.443407
 31
0.0
  0
LINE
  8
LC-003-005-----0
  6
DASHED
  5
55
 10
331.258878
 20
447.265688
 30
0.0
 11
328.788266
 21
449.7363
 31
0.0
  0
LINE
  8
LC-003-005-----0
  6
CONTINUOUS
  5
56
 10
329.844664
 20
447.265688
 30
0.0
 11
328.788266
 21
448.322087
 31
0.0
  0
LINE
  8
LC-003-005-----0
  6
CONTINUOUS
  5
57
 10
329.137557
 20
447.265688
 30
0.0
 11
328.788266
 21
447.61498
 31
0.0
  0
ENDBLK
  8
0
  5
58
  0
BLOCK
  8
0
  5
5A
  2
*X3
 70
    65
 10
329.582456
 20
431.806173
 30
0.0
  3
*X3
  0
LINE
  8
LC-003-005-----0
  6
CONTINUOUS
  5
5B
 10
346.953359
 20
431.806173
 30
0.0
 11
347.832456
 21
432.685269
 31
0.0
  0
LINE
  8
LC-003-005-----0
  6
CONTINUOUS
  5
5C
 10
345.832456
 20
433.513696
 30
0.0
 11
347.832456
 21
435.513696
 31
0.0
  0
LINE
  8
LC-003-005-----0
  6
CONTINUOUS
  5
5D
 10
345.832456
 20
436.342124
 30
0.0
 11
347.832456
 21
438.342124
 31
0.0
  0
LINE
  8
LC-003-005-----0
  6
CONTINUOUS
  5
5E
 10
345.832456
 20
439.170551
 30
0.0
 11
347.832456
 21
441.170551
 31
0.0
  0
LINE
  8
LC-003-005-----0
  6
CONTINUOUS
  5
5F
 10
345.832456
 20
441.998978
 30
0.0
 11
347.832456
 21
443.998978
 31
0.0
  0
LINE
  8
LC-003-005-----0
  6
CONTINUOUS
  5
60
 10
345.832456
 20
444.827405
 30
0.0
 11
347.832456
 21
446.827405
 31
0.0
  0
LINE
  8
LC-003-005-----0
  6
CONTINUOUS
  5
61
 10
345.832456
 20
447.655832
 30
0.0
 11
347.832456
 21
449.655832
 31
0.0
  0
LINE
  8
LC-003-005-----0
  6
CONTINUOUS
  5
62
 10
364.982797
 20
466.806173
 30
0.0
 11
365.082456
 21
466.905832
 31
0.0
  0
LINE
  8
LC-003-005-----0
  6
CONTINUOUS
  5
63
 10
345.832456
 20
450.484259
 30
0.0
 11
347.832456
 21
452.484259
 31
0.0
  0
LINE
  8
LC-003-005-----0
  6
CONTINUOUS
  5
64
 10
362.154369
 20
466.806173
 30
0.0
 11
364.154369
 21
468.806173
 31
0.0
  0
LINE
  8
LC-003-005-----0
  6
CONTINUOUS
  5
65
 10
345.832456
 20
453.312686
 30
0.0
 11
347.832456
 21
455.312686
 31
0.0
  0
LINE
  8
LC-003-005-----0
  6
CONTINUOUS
  5
66
 10
359.325942
 20
466.806173
 30
0.0
 11
361.325942
 21
468.806173
 31
0.0
  0
LINE
  8
LC-003-005-----0
  6
CONTINUOUS
  5
67
 10
344.997515
 20
455.306173
 30
0.0
 11
348.427106
 21
458.735764
 31
0.0
  0
LINE
  8
LC-003-005-----0
  6
CONTINUOUS
  5
68
 10
356.497515
 20
466.806173
 30
0.0
 11
358.497515
 21
468.806173
 31
0.0
  0
LINE
  8
LC-003-005-----0
  6
CONTINUOUS
  5
69
 10
342.169088
 20
455.306173
 30
0.0
 11
343.669088
 21
456.806173
 31
0.0
  0
LINE
  8
LC-003-005-----0
  6
CONTINUOUS
  5
6A
 10
346.635992
 20
459.773077
 30
0.0
 11
349.477664
 21
462.614749
 31
0.0
  0
LINE
  8
LC-003-005-----0
  6
CONTINUOUS
  5
6B
 10
353.669088
 20
466.806173
 30
0.0
 11
355.669088
 21
468.806173
 31
0.0
  0
LINE
  8
LC-003-005-----0
  6
CONTINUOUS
  5
6C
 10
339.340661
 20
455.306173
 30
0.0
 11
340.840661
 21
456.806173
 31
0.0
  0
LINE
  8
LC-003-005-----0
  6
CONTINUOUS
  5
6D
 10
347.686551
 20
463.652063
 30
0.0
 11
350.528223
 21
466.493735
 31
0.0
  0
LINE
  8
LC-003-005-----0
  6
CONTINUOUS
  5
6E
 10
350.840661
 20
466.806173
 30
0.0
 11
352.840661
 21
468.806173
 31
0.0
  0
LINE
  8
LC-003-005-----0
  6
CONTINUOUS
  5
6F
 10
336.512234
 20
455.306173
 30
0.0
 11
338.012234
 21
456.806173
 31
0.0
  0
LINE
  8
LC-003-005-----0
  6
CONTINUOUS
  5
70
 10
348.756471
 20
467.550411
 30
0.0
 11
349.868604
 21
468.662543
 31
0.0
  0
LINE
  8
LC-003-005-----0
  6
CONTINUOUS
  5
71
 10
333.683807
 20
455.306173
 30
0.0
 11
335.183807
 21
456.806173
 31
0.0
  0
LINE
  8
LC-003-005-----0
  6
CONTINUOUS
  5
72
 10
330.85538
 20
455.306173
 30
0.0
 11
332.35538
 21
456.806173
 31
0.0
  0
ENDBLK
  8
0
  5
73
  0
BLOCK
  8
0
  5
75
  2
*X4
 70
    65
 10
365.082456
 20
431.806173
 30
0.0
  3
*X4
  0
LINE
  8
LC-003-005-----0
  6
CONTINUOUS
  5
76
 10
383.722912
 20
431.806173
 30
0.0
 11
384.332456
 21
432.415717
 31
0.0
  0
LINE
  8
LC-003-005-----0
  6
CONTINUOUS
  5
77
 10
382.332456
 20
433.244144
 30
0.0
 11
384.332456
 21
435.244144
 31
0.0
  0
LINE
  8
LC-003-005-----0
  6
CONTINUOUS
  5
78
 10
382.332456
 20
436.072571
 30
0.0
 11
384.332456
 21
438.072571
 31
0.0
  0
LINE
  8
LC-003-005-----0
  6
CONTINUOUS
  5
79
 10
382.332456
 20
438.900998
 30
0.0
 11
384.332456
 21
440.900998
 31
0.0
  0
LINE
  8
LC-003-005-----0
  6
CONTINUOUS
  5
7A
 10
398.737631
 20
455.306173
 30
0.0
 11
400.237631
 21
456.806173
 31
0.0
  0
LINE
  8
LC-003-005-----0
  6
CONTINUOUS
  5
7B
 10
382.332456
 20
441.729425
 30
0.0
 11
384.332456
 21
443.729425
 31
0.0
  0
LINE
  8
LC-003-005-----0
  6
CONTINUOUS
  5
7C
 10
395.909203
 20
455.306173
 30
0.0
 11
397.409203
 21
456.806173
 31
0.0
  0
LINE
  8
LC-003-005-----0
  6
CONTINUOUS
  5
7D
 10
382.332456
 20
444.557852
 30
0.0
 11
384.332456
 21
446.557852
 31
0.0
  0
LINE
  8
LC-003-005-----0
  6
CONTINUOUS
  5
7E
 10
393.080776
 20
455.306173
 30
0.0
 11
394.580776
 21
456.806173
 31
0.0
  0
LINE
  8
LC-003-005-----0
  6
CONTINUOUS
  5
7F
 10
382.332456
 20
447.386279
 30
0.0
 11
384.332456
 21
449.386279
 31
0.0
  0
LINE
  8
LC-003-005-----0
  6
CONTINUOUS
  5
80
 10
390.252349
 20
455.306173
 30
0.0
 11
391.752349
 21
456.806173
 31
0.0
  0
LINE
  8
LC-003-005-----0
  6
CONTINUOUS
  5
81
 10
382.332456
 20
450.214707
 30
0.0
 11
384.332456
 21
452.214707
 31
0.0
  0
LINE
  8
LC-003-005-----0
  6
CONTINUOUS
  5
82
 10
387.423922
 20
455.306173
 30
0.0
 11
388.923922
 21
456.806173
 31
0.0
  0
LINE
  8
LC-003-005-----0
  6
CONTINUOUS
  5
83
 10
382.332456
 20
453.043134
 30
0.0
 11
384.332456
 21
455.043134
 31
0.0
  0
LINE
  8
LC-003-005-----0
  6
CONTINUOUS
  5
84
 10
384.595495
 20
455.306173
 30
0.0
 11
386.095495
 21
456.806173
 31
0.0
  0
LINE
  8
LC-003-005-----0
  6
CONTINUOUS
  5
85
 10
382.332456
 20
455.871561
 30
0.0
 11
384.105406
 21
457.644511
 31
0.0
  0
LINE
  8
LC-003-005-----0
  6
CONTINUOUS
  5
86
 10
381.872158
 20
458.239691
 30
0.0
 11
383.502626
 21
459.870159
 31
0.0
  0
LINE
  8
LC-003-005-----0
  6
CONTINUOUS
  5
87
 10
381.269379
 20
460.465338
 30
0.0
 11
382.899847
 21
462.095806
 31
0.0
  0
LINE
  8
LC-003-005-----0
  6
CONTINUOUS
  5
88
 10
380.666599
 20
462.690986
 30
0.0
 11
382.297067
 21
464.321454
 31
0.0
  0
LINE
  8
LC-003-005-----0
  6
CONTINUOUS
  5
89
 10
380.06382
 20
464.916633
 30
0.0
 11
381.694288
 21
466.547101
 31
0.0
  0
LINE
  8
LC-003-005-----0
  6
CONTINUOUS
  5
8A
 10
379.124932
 20
466.806173
 30
0.0
 11
380.736495
 21
468.417736
 31
0.0
  0
LINE
  8
LC-003-005-----0
  6
CONTINUOUS
  5
8B
 10
376.296505
 20
466.806173
 30
0.0
 11
378.296505
 21
468.806173
 31
0.0
  0
LINE
  8
LC-003-005-----0
  6
CONTINUOUS
  5
8C
 10
373.468078
 20
466.806173
 30
0.0
 11
375.468078
 21
468.806173
 31
0.0
  0
LINE
  8
LC-003-005-----0
  6
CONTINUOUS
  5
8D
 10
370.639651
 20
466.806173
 30
0.0
 11
372.639651
 21
468.806173
 31
0.0
  0
LINE
  8
LC-003-005-----0
  6
CONTINUOUS
  5
8E
 10
367.811224
 20
466.806173
 30
0.0
 11
369.811224
 21
468.806173
 31
0.0
  0
LINE
  8
LC-003-005-----0
  6
CONTINUOUS
  5
8F
 10
365.082456
 20
466.905832
 30
0.0
 11
366.982797
 21
468.806173
 31
0.0
  0
ENDBLK
  8
0
  5
90
  0
BLOCK
  8
0
  5
92
  2
BLK1
 70
    64
 10
0.0
 20
0.0
 30
0.0
  3
BLK1
  0
ENDBLK
  8
0
  5
93
  0
BLOCK
  8
0
  5
95
  2
*D6
 70
    65
 10
0.0
 20
0.0
 30
0.0
  3
*D6
  0
LINE
  8
LC-007-003-MTH-0
  6
CONTINUOUS
  5
97
 10
328.776645
 20
453.765688
 30
0.0
 11
277.2
 21
453.765688
 31
0.0
  0
LINE
  8
LC-007-003-MTH-0
  6
CONTINUOUS
  5
98
 10
330.076645
 20
454.806173
 30
0.0
 11
277.2
 21
454.806173
 31
0.0
  0
LINE
  8
LC-006-003-----0
  6
CONTINUOUS
  5
9A
 10
290.349471
 20
435.919681
 30
0.0
 11
288.0
 21
453.765688
 31
0.0
  0
LINE
  8
LC-006-003-----0
  6
CONTINUOUS
  5
9B
 10
288.0
 20
453.765688
 30
0.0
 11
285.650529
 21
435.919681
 31
0.0
  0
LINE
  8
LC-006-003-----0
  6
CONTINUOUS
  5
9C
 10
285.650529
 20
435.919681
 30
0.0
 11
290.349471
 21
435.919681
 31
0.0
  0
LINE
  8
LC-006-003-----0
  6
CONTINUOUS
  5
9D
 10
289.738609
 20
435.879643
 30
0.0
 11
288.0
 21
449.085688
 31
0.0
  0
LINE
  8
LC-006-003-----0
  6
CONTINUOUS
  5
9E
 10
288.0
 20
449.085688
 30
0.0
 11
286.261391
 21
435.879643
 31
0.0
  0
LINE
  8
LC-006-003-----0
  6
CONTINUOUS
  5
9F
 10
289.127746
 20
435.839605
 30
0.0
 11
288.0
 21
444.405688
 31
0.0
  0
LINE
  8
LC-006-003-----0
  6
CONTINUOUS
  5
A0
 10
288.0
 20
444.405688
 30
0.0
 11
286.872254
 21
435.839605
 31
0.0
  0
LINE
  8
LC-006-003-----0
  6
CONTINUOUS
  5
A1
 10
288.516884
 20
435.799567
 30
0.0
 11
288.0
 21
439.725688
 31
0.0
  0
LINE
  8
LC-006-003-----0
  6
CONTINUOUS
  5
A2
 10
288.0
 20
439.725688
 30
0.0
 11
287.483116
 21
435.799567
 31
0.0
  0
LINE
  8
LC-006-003-----0
  6
CONTINUOUS
  5
A3
 10
285.650529
 20
472.652181
 30
0.0
 11
288.0
 21
454.806173
 31
0.0
  0
LINE
  8
LC-006-003-----0
  6
CONTINUOUS
  5
A4
 10
288.0
 20
454.806173
 30
0.0
 11
290.349471
 21
472.652181
 31
0.0
  0
LINE
  8
LC-006-003-----0
  6
CONTINUOUS
  5
A5
 10
290.349471
 20
472.652181
 30
0.0
 11
285.650529
 21
472.652181
 31
0.0
  0
LINE
  8
LC-006-003-----0
  6
CONTINUOUS
  5
A6
 10
286.261391
 20
472.692219
 30
0.0
 11
288.0
 21
459.486173
 31
0.0
  0
LINE
  8
LC-006-003-----0
  6
CONTINUOUS
  5
A7
 10
288.0
 20
459.486173
 30
0.0
 11
289.738609
 21
472.692219
 31
0.0
  0
LINE
  8
LC-006-003-----0
  6
CONTINUOUS
  5
A8
 10
286.872254
 20
472.732257
 30
0.0
 11
288.0
 21
464.166173
 31
0.0
  0
LINE
  8
LC-006-003-----0
  6
CONTINUOUS
  5
A9
 10
288.0
 20
464.166173
 30
0.0
 11
289.127746
 21
472.732257
 31
0.0
  0
LINE
  8
LC-006-003-----0
  6
CONTINUOUS
  5
AA
 10
287.483116
 20
472.772295
 30
0.0
 11
288.0
 21
468.846173
 31
0.0
  0
LINE
  8
LC-006-003-----0
  6
CONTINUOUS
  5
AB
 10
288.0
 20
468.846173
 30
0.0
 11
288.516884
 21
472.772295
 31
0.0
  0
LINE
  8
LC-008-003-MTG-0
  6
CONTINUOUS
  5
AD
 10
288.0
 20
282.363169
 30
0.0
 11
288.0
 21
480.006173
 31
0.0
  0
TEXT
  8
LC-006-003-----0
  6
CONTINUOUS
 62
     6
  5
AF
 10
277.568001
 20
312.43054
 30
0.0
 40
18.0
  1
0-8(8-16)
 50
90.0
 41
0.9
 51
15.0
  7
LC-TXTSTYLE-150-400-0-0-D0
 72
     2
 11
277.568001
 21
432.080934
 31
0.0
  0
ENDBLK
  8
0
  5
B0
  0
BLOCK
  8
0
  5
B2
  2
BLK2
 70
    64
 10
0.0
 20
0.0
 30
0.0
  3
BLK2
  0
ENDBLK
  8
0
  5
B3
  0
BLOCK
  8
0
  5
B5
  2
*X8
 70
    65
 10
385.988266
 20
426.809541
 30
0.0
  3
*X8
  0
LINE
  8
LC-003-005-----0
  6
CONTINUOUS
  5
B6
 10
387.211562
 20
426.809541
 30
0.0
 11
387.488266
 21
427.086245
 31
0.0
  0
LINE
  8
LC-003-005-----0
  6
CONTINUOUS
  5
B7
 10
385.990488
 20
428.416895
 30
0.0
 11
387.488266
 21
429.914673
 31
0.0
  0
LINE
  8
LC-003-005-----0
  6
CONTINUOUS
  5
B8
 10
385.994404
 20
431.249238
 30
0.0
 11
387.488266
 21
432.7431
 31
0.0
  0
LINE
  8
LC-003-005-----0
  6
CONTINUOUS
  5
B9
 10
385.99832
 20
434.081582
 30
0.0
 11
387.488266
 21
435.571527
 31
0.0
  0
LINE
  8
LC-003-005-----0
  6
CONTINUOUS
  5
BA
 10
386.002237
 20
436.913925
 30
0.0
 11
387.488266
 21
438.399954
 31
0.0
  0
LINE
  8
LC-003-005-----0
  6
CONTINUOUS
  5
BB
 10
386.006153
 20
439.746268
 30
0.0
 11
387.488266
 21
441.228381
 31
0.0
  0
LINE
  8
LC-003-005-----0
  6
CONTINUOUS
  5
BC
 10
386.010069
 20
442.578611
 30
0.0
 11
387.488266
 21
444.056808
 31
0.0
  0
LINE
  8
LC-003-005-----0
  6
CONTINUOUS
  5
BD
 10
397.178598
 20
453.747141
 30
0.0
 11
398.525805
 21
455.094348
 31
0.0
  0
LINE
  8
LC-003-005-----0
  6
CONTINUOUS
  5
BE
 10
386.013985
 20
445.410955
 30
0.0
 11
387.488266
 21
446.885235
 31
0.0
  0
LINE
  8
LC-003-005-----0
  6
CONTINUOUS
  5
BF
 10
388.703754
 20
448.100724
 30
0.0
 11
388.988266
 21
448.385235
 31
0.0
  0
LINE
  8
LC-003-005-----0
  6
CONTINUOUS
  5
C0
 10
392.731594
 20
452.128564
 30
0.0
 11
395.268553
 21
454.665522
 31
0.0
  0
LINE
  8
LC-003-005-----0
  6
CONTINUOUS
  5
C1
 10
386.017901
 20
448.243298
 30
0.0
 11
392.0113
 21
454.236697
 31
0.0
  0
LINE
  8
LC-003-005-----0
  6
CONTINUOUS
  5
C2
 10
385.988266
 20
451.04209
 30
0.0
 11
386.087804
 21
451.141628
 31
0.0
  0
ENDBLK
  8
0
  5
C3
  0
BLOCK
  8
0
  5
C5
  2
*X9
 70
    65
 10
387.488266
 20
426.809541
 30
0.0
  3
*X9
  0
LINE
  8
LC-003-005-----0
  6
CONTINUOUS
  5
C6
 10
387.488266
 20
427.086245
 30
0.0
 11
388.988266
 21
428.586245
 31
0.0
  0
LINE
  8
LC-003-005-----0
  6
CONTINUOUS
  5
C7
 10
387.488266
 20
429.914673
 30
0.0
 11
388.988266
 21
431.414673
 31
0.0
  0
LINE
  8
LC-003-005-----0
  6
CONTINUOUS
  5
C8
 10
387.488266
 20
432.7431
 30
0.0
 11
388.988266
 21
434.2431
 31
0.0
  0
LINE
  8
LC-003-005-----0
  6
CONTINUOUS
  5
C9
 10
387.488266
 20
435.571527
 30
0.0
 11
388.988266
 21
437.071527
 31
0.0
  0
LINE
  8
LC-003-005-----0
  6
CONTINUOUS
  5
CA
 10
387.488266
 20
438.399954
 30
0.0
 11
388.988266
 21
439.899954
 31
0.0
  0
LINE
  8
LC-003-005-----0
  6
CONTINUOUS
  5
CB
 10
387.488266
 20
441.228381
 30
0.0
 11
388.988266
 21
442.728381
 31
0.0
  0
LINE
  8
LC-003-005-----0
  6
CONTINUOUS
  5
CC
 10
387.488266
 20
444.056808
 30
0.0
 11
388.988266
 21
445.556808
 31
0.0
  0
LINE
  8
LC-003-005-----0
  6
CONTINUOUS
  5
CD
 10
387.488266
 20
446.885235
 30
0.0
 11
388.703754
 21
448.100724
 31
0.0
  0
ENDBLK
  8
0
  5
CE
  0
BLOCK
  8
0
  5
D0
  2
*X10
 70
    65
 10
330.088266
 20
426.809541
 30
0.0
  3
*X10
  0
LINE
  8
LC-003-005-----0
  6
CONTINUOUS
  5
D1
 10
342.688266
 20
427.541079
 30
0.0
 11
344.185184
 21
429.037998
 31
0.0
  0
LINE
  8
LC-003-005-----0
  6
CONTINUOUS
  5
D2
 10
342.688266
 20
430.369507
 30
0.0
 11
344.181279
 21
431.86252
 31
0.0
  0
LINE
  8
LC-003-005-----0
  6
CONTINUOUS
  5
D3
 10
342.688266
 20
433.197934
 30
0.0
 11
344.177374
 21
434.687042
 31
0.0
  0
LINE
  8
LC-003-005-----0
  6
CONTINUOUS
  5
D4
 10
342.688266
 20
436.026361
 30
0.0
 11
344.173468
 21
437.511563
 31
0.0
  0
LINE
  8
LC-003-005-----0
  6
CONTINUOUS
  5
D5
 10
342.688266
 20
438.854788
 30
0.0
 11
344.169563
 21
440.336085
 31
0.0
  0
LINE
  8
LC-003-005-----0
  6
CONTINUOUS
  5
D6
 10
342.688266
 20
441.683215
 30
0.0
 11
344.165658
 21
443.160607
 31
0.0
  0
LINE
  8
LC-003-005-----0
  6
CONTINUOUS
  5
D7
 10
342.688266
 20
444.511642
 30
0.0
 11
344.161752
 21
445.985129
 31
0.0
  0
LINE
  8
LC-003-005-----0
  6
CONTINUOUS
  5
D8
 10
342.688266
 20
447.340069
 30
0.0
 11
344.157847
 21
448.809651
 31
0.0
  0
LINE
  8
LC-003-005-----0
  6
CONTINUOUS
  5
D9
 10
341.188266
 20
448.668496
 30
0.0
 11
343.817811
 21
451.298042
 31
0.0
  0
LINE
  8
LC-003-005-----0
  6
CONTINUOUS
  5
DA
 10
340.535339
 20
450.843996
 30
0.0
 11
342.02466
 21
452.333318
 31
0.0
  0
LINE
  8
LC-003-005-----0
  6
CONTINUOUS
  5
DB
 10
338.57879
 20
451.715875
 30
0.0
 11
340.231509
 21
453.368594
 31
0.0
  0
LINE
  8
LC-003-005-----0
  6
CONTINUOUS
  5
DC
 10
336.505118
 20
452.47063
 30
0.0
 11
338.258858
 21
454.22437
 31
0.0
  0
LINE
  8
LC-003-005-----0
  6
CONTINUOUS
  5
DD
 10
334.431446
 20
453.225385
 30
0.0
 11
335.759481
 21
454.55342
 31
0.0
  0
LINE
  8
LC-003-005-----0
  6
CONTINUOUS
  5
DE
 10
332.357773
 20
453.98014
 30
0.0
 11
333.260103
 21
454.882469
 31
0.0
  0
LINE
  8
LC-003-005-----0
  6
CONTINUOUS
  5
DF
 10
330.284101
 20
454.734895
 30
0.0
 11
330.760725
 21
455.211518
 31
0.0
  0
ENDBLK
  8
0
  5
E0
  0
BLOCK
  8
0
  5
E2
  2
*X11
 70
    65
 10
371.276673
 20
346.265688
 30
0.0
  3
*X11
  0
LINE
  8
LC-003-005-----0
  6
CONTINUOUS
  5
E3
 10
406.277168
 20
433.765688
 30
0.0
 11
404.777168
 21
435.265688
 31
0.0
  0
LINE
  8
LC-003-005-----0
  6
CONTINUOUS
  5
E4
 10
405.288266
 20
431.926163
 30
0.0
 11
403.71483
 21
433.499599
 31
0.0
  0
LINE
  8
LC-003-005-----0
  6
CONTINUOUS
  5
E5
 10
405.288266
 20
429.097736
 30
0.0
 11
403.288266
 21
431.097736
 31
0.0
  0
LINE
  8
LC-003-005-----0
  6
CONTINUOUS
  5
E6
 10
405.288266
 20
426.269309
 30
0.0
 11
403.288266
 21
428.269309
 31
0.0
  0
LINE
  8
LC-003-005-----0
  6
CONTINUOUS
  5
E7
 10
405.288266
 20
423.440882
 30
0.0
 11
403.288266
 21
425.440882
 31
0.0
  0
LINE
  8
LC-003-005-----0
  6
CONTINUOUS
  5
E8
 10
405.288266
 20
420.612455
 30
0.0
 11
403.288266
 21
422.612455
 31
0.0
  0
LINE
  8
LC-003-005-----0
  6
CONTINUOUS
  5
E9
 10
405.227298
 20
417.844996
 30
0.0
 11
403.288266
 21
419.784028
 31
0.0
  0
LINE
  8
LC-003-005-----0
  6
CONTINUOUS
  5
EA
 10
405.131859
 20
415.112007
 30
0.0
 11
403.198166
 21
417.0457
 31
0.0
  0
LINE
  8
LC-003-005-----0
  6
CONTINUOUS
  5
EB
 10
405.036421
 20
412.379018
 30
0.0
 11
403.102728
 21
414.312711
 31
0.0
  0
LINE
  8
LC-003-005-----0
  6
CONTINUOUS
  5
EC
 10
404.940983
 20
409.646029
 30
0.0
 11
403.00729
 21
411.579722
 31
0.0
  0
LINE
  8
LC-003-005-----0
  6
CONTINUOUS
  5
ED
 10
404.845545
 20
406.91304
 30
0.0
 11
402.911852
 21
408.846733
 31
0.0
  0
LINE
  8
LC-003-005-----0
  6
CONTINUOUS
  5
EE
 10
404.750107
 20
404.180051
 30
0.0
 11
402.816414
 21
406.113744
 31
0.0
  0
LINE
  8
LC-003-005-----0
  6
CONTINUOUS
  5
EF
 10
404.654669
 20
401.447062
 30
0.0
 11
402.720976
 21
403.380755
 31
0.0
  0
LINE
  8
LC-003-005-----0
  6
CONTINUOUS
  5
F0
 10
404.559231
 20
398.714072
 30
0.0
 11
402.625538
 21
400.647766
 31
0.0
  0
LINE
  8
LC-003-005-----0
  6
CONTINUOUS
  5
F1
 10
404.463793
 20
395.981083
 30
0.0
 11
402.5301
 21
397.914776
 31
0.0
  0
LINE
  8
LC-003-005-----0
  6
CONTINUOUS
  5
F2
 10
404.368355
 20
393.248094
 30
0.0
 11
402.434662
 21
395.181787
 31
0.0
  0
LINE
  8
LC-003-005-----0
  6
CONTINUOUS
  5
F3
 10
404.272917
 20
390.515105
 30
0.0
 11
402.339224
 21
392.448798
 31
0.0
  0
LINE
  8
LC-003-005-----0
  6
CONTINUOUS
  5
F4
 10
404.177479
 20
387.782116
 30
0.0
 11
402.243786
 21
389.715809
 31
0.0
  0
LINE
  8
LC-003-005-----0
  6
CONTINUOUS
  5
F5
 10
404.082041
 20
385.049127
 30
0.0
 11
402.148348
 21
386.98282
 31
0.0
  0
LINE
  8
LC-003-005-----0
  6
CONTINUOUS
  5
F6
 10
403.986602
 20
382.316138
 30
0.0
 11
402.052909
 21
384.249831
 31
0.0
  0
LINE
  8
LC-003-005-----0
  6
CONTINUOUS
  5
F7
 10
403.891164
 20
379.583149
 30
0.0
 11
401.957471
 21
381.516842
 31
0.0
  0
LINE
  8
LC-003-005-----0
  6
CONTINUOUS
  5
F8
 10
403.795726
 20
376.85016
 30
0.0
 11
401.862033
 21
378.783853
 31
0.0
  0
LINE
  8
LC-003-005-----0
  6
CONTINUOUS
  5
F9
 10
403.700288
 20
374.117171
 30
0.0
 11
401.766595
 21
376.050864
 31
0.0
  0
LINE
  8
LC-003-005-----0
  6
CONTINUOUS
  5
FA
 10
403.60485
 20
371.384182
 30
0.0
 11
401.671157
 21
373.317875
 31
0.0
  0
LINE
  8
LC-003-005-----0
  6
CONTINUOUS
  5
FB
 10
403.509412
 20
368.651193
 30
0.0
 11
401.575719
 21
370.584886
 31
0.0
  0
LINE
  8
LC-003-005-----0
  6
CONTINUOUS
  5
FC
 10
403.413974
 20
365.918204
 30
0.0
 11
401.480281
 21
367.851897
 31
0.0
  0
LINE
  8
LC-003-005-----0
  6
CONTINUOUS
  5
FD
 10
403.318536
 20
363.185215
 30
0.0
 11
401.384843
 21
365.118908
 31
0.0
  0
LINE
  8
LC-003-005-----0
  6
CONTINUOUS
  5
FE
 10
403.178585
 20
360.496739
 30
0.0
 11
401.289405
 21
362.385919
 31
0.0
  0
LINE
  8
LC-003-005-----0
  6
CONTINUOUS
  5
FF
 10
402.729546
 20
358.117351
 30
0.0
 11
401.05617
 21
359.790726
 31
0.0
  0
LINE
  8
LC-003-005-----0
  6
CONTINUOUS
  5
100
 10
402.004669
 20
356.0138
 30
0.0
 11
400.461173
 21
357.557297
 31
0.0
  0
LINE
  8
LC-003-005-----0
  6
CONTINUOUS
  5
101
 10
401.056148
 20
354.133895
 30
0.0
 11
399.588712
 21
355.60133
 31
0.0
  0
LINE
  8
LC-003-005-----0
  6
CONTINUOUS
  5
102
 10
399.911849
 20
352.449766
 30
0.0
 11
398.48492
 21
353.876696
 31
0.0
  0
LINE
  8
LC-003-005-----0
  6
CONTINUOUS
  5
103
 10
398.585794
 20
350.947394
 30
0.0
 11
397.17158
 21
352.361608
 31
0.0
  0
LINE
  8
LC-003-005-----0
  6
CONTINUOUS
  5
104
 10
397.082266
 20
349.622495
 30
0.0
 11
395.655168
 21
351.049592
 31
0.0
  0
LINE
  8
LC-003-005-----0
  6
CONTINUOUS
  5
105
 10
395.396925
 20
348.479409
 30
0.0
 11
393.929123
 21
349.94721
 31
0.0
  0
LINE
  8
LC-003-005-----0
  6
CONTINUOUS
  5
106
 10
393.515677
 20
347.532229
 30
0.0
 11
391.97154
 21
349.076366
 31
0.0
  0
LINE
  8
LC-003-005-----0
  6
CONTINUOUS
  5
107
 10
391.410541
 20
346.808938
 30
0.0
 11
389.736075
 21
348.483405
 31
0.0
  0
LINE
  8
LC-003-005-----0
  6
CONTINUOUS
  5
108
 10
389.029105
 20
346.361947
 30
0.0
 11
387.125364
 21
348.265688
 31
0.0
  0
LINE
  8
LC-003-005-----0
  6
CONTINUOUS
  5
109
 10
386.296937
 20
346.265688
 30
0.0
 11
384.296937
 21
348.265688
 31
0.0
  0
ENDBLK
  8
0
  5
10A
  0
BLOCK
  8
0
  5
10C
  2
*X12
 70
    65
 10
350.276036
 20
346.265688
 30
0.0
  3
*X12
  0
LINE
  8
LC-003-005-----0
  6
CONTINUOUS
  5
10D
 10
383.46851
 20
346.265688
 30
0.0
 11
381.46851
 21
348.265688
 31
0.0
  0
LINE
  8
LC-003-005-----0
  6
CONTINUOUS
  5
10E
 10
380.640083
 20
346.265688
 30
0.0
 11
378.640083
 21
348.265688
 31
0.0
  0
LINE
  8
LC-003-005-----0
  6
CONTINUOUS
  5
10F
 10
377.811656
 20
346.265688
 30
0.0
 11
375.811656
 21
348.265688
 31
0.0
  0
LINE
  8
LC-003-005-----0
  6
CONTINUOUS
  5
110
 10
374.983228
 20
346.265688
 30
0.0
 11
372.983228
 21
348.265688
 31
0.0
  0
LINE
  8
LC-003-005-----0
  6
CONTINUOUS
  5
111
 10
372.154801
 20
346.265688
 30
0.0
 11
370.154801
 21
348.265688
 31
0.0
  0
LINE
  8
LC-003-005-----0
  6
CONTINUOUS
  5
112
 10
369.326374
 20
346.265688
 30
0.0
 11
367.326374
 21
348.265688
 31
0.0
  0
LINE
  8
LC-003-005-----0
  6
CONTINUOUS
  5
113
 10
366.497947
 20
346.265688
 30
0.0
 11
364.497947
 21
348.265688
 31
0.0
  0
LINE
  8
LC-003-005-----0
  6
CONTINUOUS
  5
114
 10
363.66952
 20
346.265688
 30
0.0
 11
361.66952
 21
348.265688
 31
0.0
  0
LINE
  8
LC-003-005-----0
  6
CONTINUOUS
  5
115
 10
360.841093
 20
346.265688
 30
0.0
 11
358.841093
 21
348.265688
 31
0.0
  0
LINE
  8
LC-003-005-----0
  6
CONTINUOUS
  5
116
 10
358.012666
 20
346.265688
 30
0.0
 11
356.012666
 21
348.265688
 31
0.0
  0
LINE
  8
LC-003-005-----0
  6
CONTINUOUS
  5
117
 10
355.184239
 20
346.265688
 30
0.0
 11
353.184239
 21
348.265688
 31
0.0
  0
LINE
  8
LC-003-005-----0
  6
CONTINUOUS
  5
118
 10
352.355811
 20
346.265688
 30
0.0
 11
350.355811
 21
348.265688
 31
0.0
  0
ENDBLK
  8
0
  5
119
  0
BLOCK
  8
0
  5
11B
  2
*X13
 70
    65
 10
343.078841
 20
346.265688
 30
0.0
  3
*X13
  0
LINE
  8
LC-003-005-----0
  6
CONTINUOUS
  5
11C
 10
344.720579
 20
418.954745
 30
0.0
 11
343.466012
 21
420.209311
 31
0.0
  0
LINE
  8
LC-003-005-----0
  6
CONTINUOUS
  5
11D
 10
344.735467
 20
416.11143
 30
0.0
 11
343.45128
 21
417.395617
 31
0.0
  0
LINE
  8
LC-003-005-----0
  6
CONTINUOUS
  5
11E
 10
344.750354
 20
413.268115
 30
0.0
 11
343.436547
 21
414.581922
 31
0.0
  0
LINE
  8
LC-003-005-----0
  6
CONTINUOUS
  5
11F
 10
344.765242
 20
410.4248
 30
0.0
 11
343.421814
 21
411.768228
 31
0.0
  0
LINE
  8
LC-003-005-----0
  6
CONTINUOUS
  5
120
 10
344.78013
 20
407.581485
 30
0.0
 11
343.407082
 21
408.954533
 31
0.0
  0
LINE
  8
LC-003-005-----0
  6
CONTINUOUS
  5
121
 10
344.795018
 20
404.738171
 30
0.0
 11
343.392349
 21
406.140839
 31
0.0
  0
LINE
  8
LC-003-005-----0
  6
CONTINUOUS
  5
122
 10
344.809905
 20
401.894856
 30
0.0
 11
343.377617
 21
403.327144
 31
0.0
  0
LINE
  8
LC-003-005-----0
  6
CONTINUOUS
  5
123
 10
344.824793
 20
399.051541
 30
0.0
 11
343.362884
 21
400.51345
 31
0.0
  0
LINE
  8
LC-003-005-----0
  6
CONTINUOUS
  5
124
 10
344.839681
 20
396.208226
 30
0.0
 11
343.348151
 21
397.699755
 31
0.0
  0
LINE
  8
LC-003-005-----0
  6
CONTINUOUS
  5
125
 10
344.854568
 20
393.364911
 30
0.0
 11
343.333419
 21
394.886061
 31
0.0
  0
LINE
  8
LC-003-005-----0
  6
CONTINUOUS
  5
126
 10
344.869456
 20
390.521596
 30
0.0
 11
343.318686
 21
392.072366
 31
0.0
  0
LINE
  8
LC-003-005-----0
  6
CONTINUOUS
  5
127
 10
344.884344
 20
387.678282
 30
0.0
 11
343.303954
 21
389.258672
 31
0.0
  0
LINE
  8
LC-003-005-----0
  6
CONTINUOUS
  5
128
 10
344.899231
 20
384.834967
 30
0.0
 11
343.289221
 21
386.444977
 31
0.0
  0
LINE
  8
LC-003-005-----0
  6
CONTINUOUS
  5
129
 10
344.914119
 20
381.991652
 30
0.0
 11
343.274488
 21
383.631283
 31
0.0
  0
LINE
  8
LC-003-005-----0
  6
CONTINUOUS
  5
12A
 10
344.929007
 20
379.148337
 30
0.0
 11
343.259756
 21
380.817588
 31
0.0
  0
LINE
  8
LC-003-005-----0
  6
CONTINUOUS
  5
12B
 10
344.943895
 20
376.305022
 30
0.0
 11
343.245023
 21
378.003894
 31
0.0
  0
LINE
  8
LC-003-005-----0
  6
CONTINUOUS
  5
12C
 10
344.958782
 20
373.461707
 30
0.0
 11
343.230291
 21
375.190199
 31
0.0
  0
LINE
  8
LC-003-005-----0
  6
CONTINUOUS
  5
12D
 10
344.97367
 20
370.618393
 30
0.0
 11
343.215558
 21
372.376505
 31
0.0
  0
LINE
  8
LC-003-005-----0
  6
CONTINUOUS
  5
12E
 10
344.988558
 20
367.775078
 30
0.0
 11
343.200825
 21
369.56281
 31
0.0
  0
LINE
  8
LC-003-005-----0
  6
CONTINUOUS
  5
12F
 10
345.003445
 20
364.931763
 30
0.0
 11
343.186093
 21
366.749116
 31
0.0
  0
LINE
  8
LC-003-005-----0
  6
CONTINUOUS
  5
130
 10
345.018333
 20
362.088448
 30
0.0
 11
343.17136
 21
363.935421
 31
0.0
  0
LINE
  8
LC-003-005-----0
  6
CONTINUOUS
  5
131
 10
345.033221
 20
359.245133
 30
0.0
 11
343.156628
 21
361.121727
 31
0.0
  0
LINE
  8
LC-003-005-----0
  6
CONTINUOUS
  5
132
 10
345.048108
 20
356.401819
 30
0.0
 11
343.141895
 21
358.308032
 31
0.0
  0
LINE
  8
LC-003-005-----0
  6
CONTINUOUS
  5
133
 10
345.062996
 20
353.558504
 30
0.0
 11
343.127162
 21
355.494337
 31
0.0
  0
LINE
  8
LC-003-005-----0
  6
CONTINUOUS
  5
134
 10
349.527384
 20
346.265688
 30
0.0
 11
347.527384
 21
348.265688
 31
0.0
  0
LINE
  8
LC-003-005-----0
  6
CONTINUOUS
  5
135
 10
345.077884
 20
350.715189
 30
0.0
 11
343.11243
 21
352.680643
 31
0.0
  0
LINE
  8
LC-003-005-----0
  6
CONTINUOUS
  5
136
 10
346.698957
 20
346.265688
 30
0.0
 11
343.097697
 21
349.866948
 31
0.0
  0
LINE
  8
LC-003-005-----0
  6
CONTINUOUS
  5
137
 10
343.87053
 20
346.265688
 30
0.0
 11
343.082965
 21
347.053254
 31
0.0
  0
ENDBLK
  8
0
  5
138
  0
BLOCK
  8
0
  5
13A
  2
*X14
 70
    65
 10
388.988266
 20
432.765688
 30
0.0
  3
*X14
  0
LINE
  8
LC-003-005-----0
  6
CONTINUOUS
  5
13B
 10
404.057027
 20
444.47111
 30
0.0
 11
401.262449
 21
447.265688
 31
0.0
  0
LINE
  8
LC-003-005-----0
  6
CONTINUOUS
  5
13C
 10
404.298645
 20
441.401065
 30
0.0
 11
402.288266
 21
443.411445
 31
0.0
  0
LINE
  8
LC-003-005-----0
  6
CONTINUOUS
  5
13D
 10
400.434022
 20
445.265688
 30
0.0
 11
398.434022
 21
447.265688
 31
0.0
  0
LINE
  8
LC-003-005-----0
  6
CONTINUOUS
  5
13E
 10
406.105595
 20
436.765688
 30
0.0
 11
404.605595
 21
438.265688
 31
0.0
  0
LINE
  8
LC-003-005-----0
  6
CONTINUOUS
  5
13F
 10
404.540263
 20
438.33102
 30
0.0
 11
402.288266
 21
440.583018
 31
0.0
  0
LINE
  8
LC-003-005-----0
  6
CONTINUOUS
  5
140
 10
398.116202
 20
444.755081
 30
0.0
 11
396.116202
 21
446.755081
 31
0.0
  0
LINE
  8
LC-003-005-----0
  6
CONTINUOUS
  5
141
 10
404.288266
 20
435.75459
 30
0.0
 11
402.288266
 21
437.75459
 31
0.0
  0
LINE
  8
LC-003-005-----0
  6
CONTINUOUS
  5
142
 10
397.689802
 20
442.353054
 30
0.0
 11
395.689802
 21
444.353054
 31
0.0
  0
LINE
  8
LC-003-005-----0
  6
CONTINUOUS
  5
143
 10
403.288266
 20
433.926163
 30
0.0
 11
402.288266
 21
434.926163
 31
0.0
  0
LINE
  8
LC-003-005-----0
  6
CONTINUOUS
  5
144
 10
395.148741
 20
442.065688
 30
0.0
 11
393.148741
 21
444.065688
 31
0.0
  0
LINE
  8
LC-003-005-----0
  6
CONTINUOUS
  5
145
 10
390.588266
 20
446.626163
 30
0.0
 11
389.448741
 21
447.765688
 31
0.0
  0
LINE
  8
LC-003-005-----0
  6
CONTINUOUS
  5
146
 10
392.430989
 20
441.955013
 30
0.0
 11
388.988266
 21
445.397736
 31
0.0
  0
LINE
  8
LC-003-005-----0
  6
CONTINUOUS
  5
147
 10
391.888266
 20
439.669309
 30
0.0
 11
388.988266
 21
442.569309
 31
0.0
  0
LINE
  8
LC-003-005-----0
  6
CONTINUOUS
  5
148
 10
390.961297
 20
437.767851
 30
0.0
 11
388.988266
 21
439.740882
 31
0.0
  0
ENDBLK
  8
0
  5
149
  0
BLOCK
  8
0
  5
14B
  2
*X15
 70
    65
 10
313.888266
 20
292.765688
 30
0.0
  3
*X15
  0
LINE
  8
LC-003-005-----0
  6
CONTINUOUS
  5
14C
 10
318.959286
 20
293.503441
 30
0.0
 11
320.088925
 21
294.633081
 31
0.0
  0
LINE
  8
LC-003-005-----0
  6
CONTINUOUS
  5
14D
 10
318.36324
 20
295.735823
 30
0.0
 11
320.089925
 21
297.462508
 31
0.0
  0
LINE
  8
LC-003-005-----0
  6
CONTINUOUS
  5
14E
 10
318.108266
 20
298.309276
 30
0.0
 11
320.090924
 21
300.291935
 31
0.0
  0
LINE
  8
LC-003-005-----0
  6
CONTINUOUS
  5
14F
 10
318.108266
 20
301.137703
 30
0.0
 11
320.091924
 21
303.121361
 31
0.0
  0
LINE
  8
LC-003-005-----0
  6
CONTINUOUS
  5
150
 10
318.108266
 20
303.96613
 30
0.0
 11
320.092924
 21
305.950788
 31
0.0
  0
LINE
  8
LC-003-005-----0
  6
CONTINUOUS
  5
151
 10
318.108266
 20
306.794557
 30
0.0
 11
320.093923
 21
308.780215
 31
0.0
  0
LINE
  8
LC-003-005-----0
  6
CONTINUOUS
  5
152
 10
318.108266
 20
309.622984
 30
0.0
 11
320.094923
 21
311.609641
 31
0.0
  0
LINE
  8
LC-003-005-----0
  6
CONTINUOUS
  5
153
 10
318.108266
 20
312.451411
 30
0.0
 11
320.095922
 21
314.439068
 31
0.0
  0
LINE
  8
LC-003-005-----0
  6
CONTINUOUS
  5
154
 10
318.108266
 20
315.279839
 30
0.0
 11
320.096922
 21
317.268495
 31
0.0
  0
LINE
  8
LC-003-005-----0
  6
CONTINUOUS
  5
155
 10
318.108266
 20
318.108266
 30
0.0
 11
320.097921
 21
320.097921
 31
0.0
  0
LINE
  8
LC-003-005-----0
  6
CONTINUOUS
  5
156
 10
318.108266
 20
320.936693
 30
0.0
 11
320.098921
 21
322.927348
 31
0.0
  0
LINE
  8
LC-003-005-----0
  6
CONTINUOUS
  5
157
 10
318.108266
 20
323.76512
 30
0.0
 11
320.09992
 21
325.756775
 31
0.0
  0
LINE
  8
LC-003-005-----0
  6
CONTINUOUS
  5
158
 10
318.108266
 20
326.593547
 30
0.0
 11
320.10092
 21
328.586201
 31
0.0
  0
LINE
  8
LC-003-005-----0
  6
CONTINUOUS
  5
159
 10
318.108266
 20
329.421974
 30
0.0
 11
320.101919
 21
331.415628
 31
0.0
  0
LINE
  8
LC-003-005-----0
  6
CONTINUOUS
  5
15A
 10
318.108266
 20
332.250401
 30
0.0
 11
320.102919
 21
334.245055
 31
0.0
  0
LINE
  8
LC-003-005-----0
  6
CONTINUOUS
  5
15B
 10
318.108266
 20
335.078828
 30
0.0
 11
320.103918
 21
337.074481
 31
0.0
  0
LINE
  8
LC-003-005-----0
  6
CONTINUOUS
  5
15C
 10
318.108266
 20
337.907256
 30
0.0
 11
320.104918
 21
339.903908
 31
0.0
  0
LINE
  8
LC-003-005-----0
  6
CONTINUOUS
  5
15D
 10
318.108266
 20
340.735683
 30
0.0
 11
320.105918
 21
342.733335
 31
0.0
  0
LINE
  8
LC-003-005-----0
  6
CONTINUOUS
  5
15E
 10
318.108266
 20
343.56411
 30
0.0
 11
320.106917
 21
345.562761
 31
0.0
  0
LINE
  8
LC-003-005-----0
  6
CONTINUOUS
  5
15F
 10
318.108266
 20
346.392537
 30
0.0
 11
320.107917
 21
348.392188
 31
0.0
  0
LINE
  8
LC-003-005-----0
  6
CONTINUOUS
  5
160
 10
318.108266
 20
349.220964
 30
0.0
 11
320.108916
 21
351.221615
 31
0.0
  0
LINE
  8
LC-003-005-----0
  6
CONTINUOUS
  5
161
 10
318.108266
 20
352.049391
 30
0.0
 11
320.109916
 21
354.051041
 31
0.0
  0
LINE
  8
LC-003-005-----0
  6
CONTINUOUS
  5
162
 10
318.108266
 20
354.877818
 30
0.0
 11
320.080429
 21
356.849982
 31
0.0
  0
LINE
  8
LC-003-005-----0
  6
CONTINUOUS
  5
163
 10
318.050265
 20
357.648245
 30
0.0
 11
319.98494
 21
359.58292
 31
0.0
  0
LINE
  8
LC-003-005-----0
  6
CONTINUOUS
  5
164
 10
317.954873
 20
360.38128
 30
0.0
 11
319.889452
 21
362.315859
 31
0.0
  0
LINE
  8
LC-003-005-----0
  6
CONTINUOUS
  5
165
 10
317.859482
 20
363.114316
 30
0.0
 11
319.793963
 21
365.048797
 31
0.0
  0
LINE
  8
LC-003-005-----0
  6
CONTINUOUS
  5
166
 10
317.76409
 20
365.847351
 30
0.0
 11
319.698474
 21
367.781736
 31
0.0
  0
LINE
  8
LC-003-005-----0
  6
CONTINUOUS
  5
167
 10
317.668698
 20
368.580386
 30
0.0
 11
319.602986
 21
370.514674
 31
0.0
  0
LINE
  8
LC-003-005-----0
  6
CONTINUOUS
  5
168
 10
317.573306
 20
371.313421
 30
0.0
 11
319.507497
 21
373.247612
 31
0.0
  0
LINE
  8
LC-003-005-----0
  6
CONTINUOUS
  5
169
 10
317.477914
 20
374.046457
 30
0.0
 11
319.412008
 21
375.980551
 31
0.0
  0
LINE
  8
LC-003-005-----0
  6
CONTINUOUS
  5
16A
 10
317.382523
 20
376.779492
 30
0.0
 11
319.31652
 21
378.713489
 31
0.0
  0
LINE
  8
LC-003-005-----0
  6
CONTINUOUS
  5
16B
 10
317.287131
 20
379.512527
 30
0.0
 11
319.221031
 21
381.446428
 31
0.0
  0
LINE
  8
LC-003-005-----0
  6
CONTINUOUS
  5
16C
 10
317.191739
 20
382.245563
 30
0.0
 11
319.125542
 21
384.179366
 31
0.0
  0
LINE
  8
LC-003-005-----0
  6
CONTINUOUS
  5
16D
 10
317.096347
 20
384.978598
 30
0.0
 11
319.030054
 21
386.912305
 31
0.0
  0
LINE
  8
LC-003-005-----0
  6
CONTINUOUS
  5
16E
 10
317.000955
 20
387.711633
 30
0.0
 11
318.934565
 21
389.645243
 31
0.0
  0
LINE
  8
LC-003-005-----0
  6
CONTINUOUS
  5
16F
 10
316.905564
 20
390.444669
 30
0.0
 11
318.839076
 21
392.378181
 31
0.0
  0
LINE
  8
LC-003-005-----0
  6
CONTINUOUS
  5
170
 10
316.810172
 20
393.177704
 30
0.0
 11
318.743587
 21
395.11112
 31
0.0
  0
LINE
  8
LC-003-005-----0
  6
CONTINUOUS
  5
171
 10
316.71478
 20
395.910739
 30
0.0
 11
318.648099
 21
397.844058
 31
0.0
  0
LINE
  8
LC-003-005-----0
  6
CONTINUOUS
  5
172
 10
316.619388
 20
398.643775
 30
0.0
 11
318.55261
 21
400.576997
 31
0.0
  0
LINE
  8
LC-003-005-----0
  6
CONTINUOUS
  5
173
 10
316.523996
 20
401.37681
 30
0.0
 11
318.457121
 21
403.309935
 31
0.0
  0
LINE
  8
LC-003-005-----0
  6
CONTINUOUS
  5
174
 10
316.428605
 20
404.109845
 30
0.0
 11
318.361633
 21
406.042874
 31
0.0
  0
LINE
  8
LC-003-005-----0
  6
CONTINUOUS
  5
175
 10
316.333213
 20
406.842881
 30
0.0
 11
318.266144
 21
408.775812
 31
0.0
  0
LINE
  8
LC-003-005-----0
  6
CONTINUOUS
  5
176
 10
316.237821
 20
409.575916
 30
0.0
 11
318.170655
 21
411.50875
 31
0.0
  0
LINE
  8
LC-003-005-----0
  6
CONTINUOUS
  5
177
 10
316.142429
 20
412.308951
 30
0.0
 11
318.075167
 21
414.241689
 31
0.0
  0
LINE
  8
LC-003-005-----0
  6
CONTINUOUS
  5
178
 10
316.047037
 20
415.041987
 30
0.0
 11
317.979678
 21
416.974627
 31
0.0
  0
LINE
  8
LC-003-005-----0
  6
CONTINUOUS
  5
179
 10
315.951646
 20
417.775022
 30
0.0
 11
317.888266
 21
419.711642
 31
0.0
  0
LINE
  8
LC-003-005-----0
  6
CONTINUOUS
  5
17A
 10
315.888266
 20
420.540069
 30
0.0
 11
317.888266
 21
422.540069
 31
0.0
  0
LINE
  8
LC-003-005-----0
  6
CONTINUOUS
  5
17B
 10
315.888266
 20
423.368496
 30
0.0
 11
317.888266
 21
425.368496
 31
0.0
  0
LINE
  8
LC-003-005-----0
  6
CONTINUOUS
  5
17C
 10
315.888266
 20
426.196924
 30
0.0
 11
317.888266
 21
428.196924
 31
0.0
  0
LINE
  8
LC-003-005-----0
  6
CONTINUOUS
  5
17D
 10
315.888266
 20
429.025351
 30
0.0
 11
317.888266
 21
431.025351
 31
0.0
  0
LINE
  8
LC-003-005-----0
  6
CONTINUOUS
  5
17E
 10
315.888266
 20
431.853778
 30
0.0
 11
317.712087
 21
433.677599
 31
0.0
  0
LINE
  8
LC-003-005-----0
  6
CONTINUOUS
  5
17F
 10
314.971749
 20
433.765688
 30
0.0
 11
316.471749
 21
435.265688
 31
0.0
  0
ENDBLK
  8
0
  5
180
  0
BLOCK
  8
0
  5
182
  2
*X16
 70
    65
 10
313.888266
 20
432.765688
 30
0.0
  3
*X16
  0
LINE
  8
LC-003-005-----0
  6
CONTINUOUS
  5
183
 10
341.188266
 20
445.114475
 30
0.0
 11
339.588266
 21
446.714475
 31
0.0
  0
LINE
  8
LC-003-005-----0
  6
CONTINUOUS
  5
184
 10
341.188266
 20
442.286048
 30
0.0
 11
339.199824
 21
444.274489
 31
0.0
  0
LINE
  8
LC-003-005-----0
  6
CONTINUOUS
  5
185
 10
341.188266
 20
439.457621
 30
0.0
 11
336.580198
 21
444.065688
 31
0.0
  0
LINE
  8
LC-003-005-----0
  6
CONTINUOUS
  5
186
 10
334.16479
 20
446.481097
 30
0.0
 11
333.403674
 21
447.242212
 31
0.0
  0
LINE
  8
LC-003-005-----0
  6
CONTINUOUS
  5
187
 10
340.052279
 20
437.76518
 30
0.0
 11
338.288266
 21
439.529194
 31
0.0
  0
LINE
  8
LC-003-005-----0
  6
CONTINUOUS
  5
188
 10
335.751771
 20
442.065688
 30
0.0
 11
330.551771
 21
447.265688
 31
0.0
  0
LINE
  8
LC-003-005-----0
  6
CONTINUOUS
  5
189
 10
332.872022
 20
442.117011
 30
0.0
 11
332.239588
 21
442.749444
 31
0.0
  0
LINE
  8
LC-003-005-----0
  6
CONTINUOUS
  5
18A
 10
329.723344
 20
445.265688
 30
0.0
 11
327.723344
 21
447.265688
 31
0.0
  0
LINE
  8
LC-003-005-----0
  6
CONTINUOUS
  5
18B
 10
326.894917
 20
445.265688
 30
0.0
 11
324.894917
 21
447.265688
 31
0.0
  0
LINE
  8
LC-003-005-----0
  6
CONTINUOUS
  5
18C
 10
324.06649
 20
445.265688
 30
0.0
 11
322.06649
 21
447.265688
 31
0.0
  0
LINE
  8
LC-003-005-----0
  6
CONTINUOUS
  5
18D
 10
321.238062
 20
445.265688
 30
0.0
 11
319.238062
 21
447.265688
 31
0.0
  0
LINE
  8
LC-003-005-----0
  6
CONTINUOUS
  5
18E
 10
318.983572
 20
444.691751
 30
0.0
 11
317.439352
 21
446.235972
 31
0.0
  0
LINE
  8
LC-003-005-----0
  6
CONTINUOUS
  5
18F
 10
318.888266
 20
441.958631
 30
0.0
 11
317.065243
 21
443.781654
 31
0.0
  0
LINE
  8
LC-003-005-----0
  6
CONTINUOUS
  5
190
 10
318.888266
 20
439.130204
 30
0.0
 11
316.858882
 21
441.159588
 31
0.0
  0
LINE
  8
LC-003-005-----0
  6
CONTINUOUS
  5
191
 10
318.888266
 20
436.301777
 30
0.0
 11
316.65252
 21
438.537522
 31
0.0
  0
LINE
  8
LC-003-005-----0
  6
CONTINUOUS
  5
192
 10
318.888266
 20
433.47335
 30
0.0
 11
316.888266
 21
435.47335
 31
0.0
  0
LINE
  8
LC-003-005-----0
  6
CONTINUOUS
  5
193
 10
315.595927
 20
436.765688
 30
0.0
 11
314.360197
 21
438.001418
 31
0.0
  0
ENDBLK
  8
0
  5
194
  0
BLOCK
  8
0
  5
196
  2
*X17
 70
    65
 10
366.069366
 20
292.765688
 30
0.0
  3
*X17
  0
LINE
  8
LC-003-005-----0
  6
CONTINUOUS
  5
197
 10
368.088266
 20
344.67537
 30
0.0
 11
366.497947
 21
346.265688
 31
0.0
  0
LINE
  8
LC-003-005-----0
  6
CONTINUOUS
  5
198
 10
368.088266
 20
341.846943
 30
0.0
 11
366.070214
 21
343.864994
 31
0.0
  0
LINE
  8
LC-003-005-----0
  6
CONTINUOUS
  5
199
 10
368.088266
 20
339.018516
 30
0.0
 11
366.071214
 21
341.035568
 31
0.0
  0
LINE
  8
LC-003-005-----0
  6
CONTINUOUS
  5
19A
 10
368.088266
 20
336.190088
 30
0.0
 11
366.072213
 21
338.206141
 31
0.0
  0
LINE
  8
LC-003-005-----0
  6
CONTINUOUS
  5
19B
 10
368.088266
 20
333.361661
 30
0.0
 11
366.073213
 21
335.376714
 31
0.0
  0
LINE
  8
LC-003-005-----0
  6
CONTINUOUS
  5
19C
 10
368.088266
 20
330.533234
 30
0.0
 11
366.074212
 21
332.547288
 31
0.0
  0
LINE
  8
LC-003-005-----0
  6
CONTINUOUS
  5
19D
 10
368.088266
 20
327.704807
 30
0.0
 11
366.075212
 21
329.717861
 31
0.0
  0
LINE
  8
LC-003-005-----0
  6
CONTINUOUS
  5
19E
 10
368.088266
 20
324.87638
 30
0.0
 11
366.076211
 21
326.888434
 31
0.0
  0
LINE
  8
LC-003-005-----0
  6
CONTINUOUS
  5
19F
 10
368.088266
 20
322.047953
 30
0.0
 11
366.077211
 21
324.059008
 31
0.0
  0
LINE
  8
LC-003-005-----0
  6
CONTINUOUS
  5
1A0
 10
368.088266
 20
319.219526
 30
0.0
 11
366.07821
 21
321.229581
 31
0.0
  0
LINE
  8
LC-003-005-----0
  6
CONTINUOUS
  5
1A1
 10
368.088266
 20
316.391099
 30
0.0
 11
366.07921
 21
318.400154
 31
0.0
  0
LINE
  8
LC-003-005-----0
  6
CONTINUOUS
  5
1A2
 10
368.088266
 20
313.562671
 30
0.0
 11
366.080209
 21
315.570728
 31
0.0
  0
LINE
  8
LC-003-005-----0
  6
CONTINUOUS
  5
1A3
 10
368.088266
 20
310.734244
 30
0.0
 11
366.081209
 21
312.741301
 31
0.0
  0
LINE
  8
LC-003-005-----0
  6
CONTINUOUS
  5
1A4
 10
368.088266
 20
307.905817
 30
0.0
 11
366.082208
 21
309.911874
 31
0.0
  0
LINE
  8
LC-003-005-----0
  6
CONTINUOUS
  5
1A5
 10
368.088266
 20
305.07739
 30
0.0
 11
366.083208
 21
307.082448
 31
0.0
  0
LINE
  8
LC-003-005-----0
  6
CONTINUOUS
  5
1A6
 10
368.088266
 20
302.248963
 30
0.0
 11
366.084208
 21
304.253021
 31
0.0
  0
LINE
  8
LC-003-005-----0
  6
CONTINUOUS
  5
1A7
 10
368.088266
 20
299.420536
 30
0.0
 11
366.085207
 21
301.423594
 31
0.0
  0
LINE
  8
LC-003-005-----0
  6
CONTINUOUS
  5
1A8
 10
368.088266
 20
296.592109
 30
0.0
 11
366.086207
 21
298.594168
 31
0.0
  0
LINE
  8
LC-003-005-----0
  6
CONTINUOUS
  5
1A9
 10
367.561008
 20
294.290939
 30
0.0
 11
366.087206
 21
295.764741
 31
0.0
  0
LINE
  8
LC-003-005-----0
  6
CONTINUOUS
  5
1AA
 10
366.257832
 20
292.765688
 30
0.0
 11
366.088206
 21
292.935314
 31
0.0
  0
ENDBLK
  8
0
  5
1AB
  0
BLOCK
  8
0
  5
1AD
  2
*D18
 70
    65
 10
0.0
 20
0.0
 30
0.0
  3
*D18
  0
LINE
  8
LC-007-003-MTH-0
  6
CONTINUOUS
  5
1AE
 10
318.108266
 20
296.690782
 30
0.0
 11
318.108266
 21
241.2
 31
0.0
  0
LINE
  8
LC-007-003-MTH-0
  6
CONTINUOUS
  5
1AF
 10
368.088266
 20
296.265688
 30
0.0
 11
368.088266
 21
241.2
 31
0.0
  0
LINE
  8
LC-006-003-----0
  6
CONTINUOUS
  5
1B0
 10
300.262258
 20
249.650529
 30
0.0
 11
318.108266
 21
252.0
 31
0.0
  0
LINE
  8
LC-006-003-----0
  6
CONTINUOUS
  5
1B1
 10
318.108266
 20
252.0
 30
0.0
 11
300.262258
 21
254.349471
 31
0.0
  0
LINE
  8
LC-006-003-----0
  6
CONTINUOUS
  5
1B2
 10
300.262258
 20
254.349471
 30
0.0
 11
300.262258
 21
249.650529
 31
0.0
  0
LINE
  8
LC-006-003-----0
  6
CONTINUOUS
  5
1B3
 10
300.22222
 20
250.261391
 30
0.0
 11
313.428266
 21
252.0
 31
0.0
  0
LINE
  8
LC-006-003-----0
  6
CONTINUOUS
  5
1B4
 10
313.428266
 20
252.0
 30
0.0
 11
300.22222
 21
253.738609
 31
0.0
  0
LINE
  8
LC-006-003-----0
  6
CONTINUOUS
  5
1B5
 10
300.182182
 20
250.872254
 30
0.0
 11
308.748266
 21
252.0
 31
0.0
  0
LINE
  8
LC-006-003-----0
  6
CONTINUOUS
  5
1B6
 10
308.748266
 20
252.0
 30
0.0
 11
300.182182
 21
253.127746
 31
0.0
  0
LINE
  8
LC-006-003-----0
  6
CONTINUOUS
  5
1B7
 10
300.142144
 20
251.483116
 30
0.0
 11
304.068266
 21
252.0
 31
0.0
  0
LINE
  8
LC-006-003-----0
  6
CONTINUOUS
  5
1B8
 10
304.068266
 20
252.0
 30
0.0
 11
300.142144
 21
252.516884
 31
0.0
  0
LINE
  8
LC-006-003-----0
  6
CONTINUOUS
  5
1B9
 10
385.934273
 20
254.349471
 30
0.0
 11
368.088266
 21
252.0
 31
0.0
  0
LINE
  8
LC-006-003-----0
  6
CONTINUOUS
  5
1BA
 10
368.088266
 20
252.0
 30
0.0
 11
385.934273
 21
249.650529
 31
0.0
  0
LINE
  8
LC-006-003-----0
  6
CONTINUOUS
  5
1BB
 10
385.934273
 20
249.650529
 30
0.0
 11
385.934273
 21
254.349471
 31
0.0
  0
LINE
  8
LC-006-003-----0
  6
CONTINUOUS
  5
1BC
 10
385.974311
 20
253.738609
 30
0.0
 11
372.768266
 21
252.0
 31
0.0
  0
LINE
  8
LC-006-003-----0
  6
CONTINUOUS
  5
1BD
 10
372.768266
 20
252.0
 30
0.0
 11
385.974311
 21
250.261391
 31
0.0
  0
LINE
  8
LC-006-003-----0
  6
CONTINUOUS
  5
1BE
 10
386.014349
 20
253.127746
 30
0.0
 11
377.448266
 21
252.0
 31
0.0
  0
LINE
  8
LC-006-003-----0
  6
CONTINUOUS
  5
1BF
 10
377.448266
 20
252.0
 30
0.0
 11
386.014349
 21
250.872254
 31
0.0
  0
LINE
  8
LC-006-003-----0
  6
CONTINUOUS
  5
1C0
 10
386.054387
 20
252.516884
 30
0.0
 11
382.128266
 21
252.0
 31
0.0
  0
LINE
  8
LC-006-003-----0
  6
CONTINUOUS
  5
1C1
 10
382.128266
 20
252.0
 30
0.0
 11
386.054387
 21
251.483116
 31
0.0
  0
LINE
  8
LC-008-003-MTG-0
  6
CONTINUOUS
  5
1C2
 10
292.908266
 20
252.0
 30
0.0
 11
476.364099
 21
252.0
 31
0.0
  0
TEXT
  8
LC-006-003-----0
  6
CONTINUOUS
 62
     6
  5
1C3
 10
413.236825
 20
262.431999
 30
0.0
 40
18.0
  1
DN50
 51
15.0
  7
LC-TXTSTYLE-150-400-0-0-D0
  0
ENDBLK
  8
0
  5
1C4
  0
BLOCK
  8
0
  5
1C6
  2
*D19
 70
    65
 10
0.0
 20
0.0
 30
0.0
  3
*D19
  0
LINE
  8
LC-007-003-MTH-0
  6
CONTINUOUS
  5
1C7
 10
387.276673
 20
346.265688
 30
0.0
 11
478.8
 21
346.265688
 31
0.0
  0
LINE
  8
LC-007-003-MTH-0
  6
CONTINUOUS
  5
1C8
 10
401.388266
 20
453.765688
 30
0.0
 11
478.8
 21
453.765688
 31
0.0
  0
LINE
  8
LC-008-003-MTG-0
  6
CONTINUOUS
  5
1C9
 10
468.0
 20
346.265688
 30
0.0
 11
468.0
 21
453.765688
 31
0.0
  0
LINE
  8
LC-006-003-----0
  6
CONTINUOUS
  5
1CA
 10
465.650529
 20
364.111696
 30
0.0
 11
468.0
 21
346.265688
 31
0.0
  0
LINE
  8
LC-006-003-----0
  6
CONTINUOUS
  5
1CB
 10
468.0
 20
346.265688
 30
0.0
 11
470.349471
 21
364.111696
 31
0.0
  0
LINE
  8
LC-006-003-----0
  6
CONTINUOUS
  5
1CC
 10
470.349471
 20
364.111696
 30
0.0
 11
465.650529
 21
364.111696
 31
0.0
  0
LINE
  8
LC-006-003-----0
  6
CONTINUOUS
  5
1CD
 10
466.261391
 20
364.151734
 30
0.0
 11
468.0
 21
350.945688
 31
0.0
  0
LINE
  8
LC-006-003-----0
  6
CONTINUOUS
  5
1CE
 10
468.0
 20
350.945688
 30
0.0
 11
469.738609
 21
364.151734
 31
0.0
  0
LINE
  8
LC-006-003-----0
  6
CONTINUOUS
  5
1CF
 10
466.872254
 20
364.191772
 30
0.0
 11
468.0
 21
355.625688
 31
0.0
  0
LINE
  8
LC-006-003-----0
  6
CONTINUOUS
  5
1D0
 10
468.0
 20
355.625688
 30
0.0
 11
469.127746
 21
364.191772
 31
0.0
  0
LINE
  8
LC-006-003-----0
  6
CONTINUOUS
  5
1D1
 10
467.483116
 20
364.23181
 30
0.0
 11
468.0
 21
360.305688
 31
0.0
  0
LINE
  8
LC-006-003-----0
  6
CONTINUOUS
  5
1D2
 10
468.0
 20
360.305688
 30
0.0
 11
468.516884
 21
364.23181
 31
0.0
  0
LINE
  8
LC-006-003-----0
  6
CONTINUOUS
  5
1D3
 10
470.349471
 20
435.919681
 30
0.0
 11
468.0
 21
453.765688
 31
0.0
  0
LINE
  8
LC-006-003-----0
  6
CONTINUOUS
  5
1D4
 10
468.0
 20
453.765688
 30
0.0
 11
465.650529
 21
435.919681
 31
0.0
  0
LINE
  8
LC-006-003-----0
  6
CONTINUOUS
  5
1D5
 10
465.650529
 20
435.919681
 30
0.0
 11
470.349471
 21
435.919681
 31
0.0
  0
LINE
  8
LC-006-003-----0
  6
CONTINUOUS
  5
1D6
 10
469.738609
 20
435.879643
 30
0.0
 11
468.0
 21
449.085688
 31
0.0
  0
LINE
  8
LC-006-003-----0
  6
CONTINUOUS
  5
1D7
 10
468.0
 20
449.085688
 30
0.0
 11
466.261391
 21
435.879643
 31
0.0
  0
LINE
  8
LC-006-003-----0
  6
CONTINUOUS
  5
1D8
 10
469.127746
 20
435.839605
 30
0.0
 11
468.0
 21
444.405688
 31
0.0
  0
LINE
  8
LC-006-003-----0
  6
CONTINUOUS
  5
1D9
 10
468.0
 20
444.405688
 30
0.0
 11
466.872254
 21
435.839605
 31
0.0
  0
LINE
  8
LC-006-003-----0
  6
CONTINUOUS
  5
1DA
 10
468.516884
 20
435.799567
 30
0.0
 11
468.0
 21
439.725688
 31
0.0
  0
LINE
  8
LC-006-003-----0
  6
CONTINUOUS
  5
1DB
 10
468.0
 20
439.725688
 30
0.0
 11
467.483116
 21
435.799567
 31
0.0
  0
TEXT
  8
LC-006-003-----0
  6
CONTINUOUS
 62
     6
  5
1DC
 10
457.568001
 20
376.961246
 30
0.0
 40
18.0
  1
105
 50
90.0
 51
15.0
  7
LC-TXTSTYLE-150-400-0-0-D0
  0
ENDBLK
  8
0
  5
1DD
  0
BLOCK
  8
0
  5
1DF
  2
*D20
 70
    65
 10
0.0
 20
0.0
 30
0.0
  3
*D20
  0
LINE
  8
LC-007-003-MTH-0
  6
CONTINUOUS
  5
1E0
 10
318.108266
 20
355.986492
 30
0.0
 11
318.108266
 21
205.2
 31
0.0
  0
LINE
  8
LC-007-003-MTH-0
  6
CONTINUOUS
  5
1E1
 10
403.266926
 20
361.707296
 30
0.0
 11
403.266926
 21
205.2
 31
0.0
  0
LINE
  8
LC-008-003-MTG-0
  6
CONTINUOUS
  5
1E2
 10
318.108266
 20
216.0
 30
0.0
 11
403.266926
 21
216.0
 31
0.0
  0
LINE
  8
LC-006-003-----0
  6
CONTINUOUS
  5
1E3
 10
335.954273
 20
218.349471
 30
0.0
 11
318.108266
 21
216.0
 31
0.0
  0
LINE
  8
LC-006-003-----0
  6
CONTINUOUS
  5
1E4
 10
318.108266
 20
216.0
 30
0.0
 11
335.954273
 21
213.650529
 31
0.0
  0
LINE
  8
LC-006-003-----0
  6
CONTINUOUS
  5
1E5
 10
335.954273
 20
213.650529
 30
0.0
 11
335.954273
 21
218.349471
 31
0.0
  0
LINE
  8
LC-006-003-----0
  6
CONTINUOUS
  5
1E6
 10
335.994311
 20
217.738609
 30
0.0
 11
322.788266
 21
216.0
 31
0.0
  0
LINE
  8
LC-006-003-----0
  6
CONTINUOUS
  5
1E7
 10
322.788266
 20
216.0
 30
0.0
 11
335.994311
 21
214.261391
 31
0.0
  0
LINE
  8
LC-006-003-----0
  6
CONTINUOUS
  5
1E8
 10
336.034349
 20
217.127746
 30
0.0
 11
327.468266
 21
216.0
 31
0.0
  0
LINE
  8
LC-006-003-----0
  6
CONTINUOUS
  5
1E9
 10
327.468266
 20
216.0
 30
0.0
 11
336.034349
 21
214.872254
 31
0.0
  0
LINE
  8
LC-006-003-----0
  6
CONTINUOUS
  5
1EA
 10
336.074387
 20
216.516884
 30
0.0
 11
332.148266
 21
216.0
 31
0.0
  0
LINE
  8
LC-006-003-----0
  6
CONTINUOUS
  5
1EB
 10
332.148266
 20
216.0
 30
0.0
 11
336.074387
 21
215.483116
 31
0.0
  0
LINE
  8
LC-006-003-----0
  6
CONTINUOUS
  5
1EC
 10
385.420918
 20
213.650529
 30
0.0
 11
403.266926
 21
216.0
 31
0.0
  0
LINE
  8
LC-006-003-----0
  6
CONTINUOUS
  5
1ED
 10
403.266926
 20
216.0
 30
0.0
 11
385.420918
 21
218.349471
 31
0.0
  0
LINE
  8
LC-006-003-----0
  6
CONTINUOUS
  5
1EE
 10
385.420918
 20
218.349471
 30
0.0
 11
385.420918
 21
213.650529
 31
0.0
  0
LINE
  8
LC-006-003-----0
  6
CONTINUOUS
  5
1EF
 10
385.38088
 20
214.261391
 30
0.0
 11
398.586926
 21
216.0
 31
0.0
  0
LINE
  8
LC-006-003-----0
  6
CONTINUOUS
  5
1F0
 10
398.586926
 20
216.0
 30
0.0
 11
385.38088
 21
217.738609
 31
0.0
  0
LINE
  8
LC-006-003-----0
  6
CONTINUOUS
  5
1F1
 10
385.340842
 20
214.872254
 30
0.0
 11
393.906926
 21
216.0
 31
0.0
  0
LINE
  8
LC-006-003-----0
  6
CONTINUOUS
  5
1F2
 10
393.906926
 20
216.0
 30
0.0
 11
385.340842
 21
217.127746
 31
0.0
  0
LINE
  8
LC-006-003-----0
  6
CONTINUOUS
  5
1F3
 10
385.300804
 20
215.483116
 30
0.0
 11
389.226926
 21
216.0
 31
0.0
  0
LINE
  8
LC-006-003-----0
  6
CONTINUOUS
  5
1F4
 10
389.226926
 20
216.0
 30
0.0
 11
385.300804
 21
216.516884
 31
0.0
  0
TEXT
  8
LC-006-003-----0
  6
CONTINUOUS
 62
     6
  5
1F5
 10
338.719042
 20
226.431999
 30
0.0
 40
18.0
  1
Ø85
 51
15.0
  7
LC-TXTSTYLE-150-400-0-0-D0
 72
     1
 11
355.939514
 21
226.431999
 31
0.0
  0
ENDBLK
  8
0
  5
1F6
  0
ENDSEC
  0
SECTION
  2
ENTITIES
  0
VIEWPORT
  8
LC-000
  5
2BD
 67
     1
 68
     1
 10
420.0
 20
297.0
 30
0.0
 40
840.0
 41
594.0
 69
     1
1001
ACAD
1000
MVIEW
1002
{
1070
    16
1010
0.0
1020
0.0
1030
0.0
1010
0.0
1020
0.0
1030
1.0
1040
0.0
1040
594.0
1040
420.0
1040
297.0
1040
50.0
1040
0.0
1040
0.0
1070
     0
1070
   100
1070
     1
1070
     1
1070
     0
1070
     0
1070
     0
1070
     0
1040
0.0
1040
0.0
1040
0.0
1040
1.0
1040
1.0
1040
0.0
1040
0.0
1070
     0
1002
{
1002
}
1002
}
  0
VIEWPORT
  8
0
  5
2BE
 67
     1
 68
     1
 10
0.0
 20
0.0
 30
0.0
 40
0.0
 41
0.0
 69
     1
1001
ACAD
1000
MVIEW
1002
{
1070
    16
1010
0.0
1020
0.0
1030
0.0
1010
0.0
1020
0.0
1030
1.0
1040
0.0
1040
594.0
1040
0.0
1040
0.0
1040
50.0
1040
0.0
1040
0.0
1070
     0
1070
   100
1070
     0
1070
     1
1070
     0
1070
     0
1070
     0
1070
     0
1040
0.0
1040
0.0
1040
0.0
1040
0.5
1040
0.5
1040
0.5
1040
0.5
1070
     0
1002
{
1002
}
1002
}
  0
INSERT
  8
0
  5
1F7
  2
*X0
 10
387.380576
 20
429.765697
 30
0.0
  0
INSERT
  8
0
  5
1F8
  2
*X1
 10
341.188266
 20
426.809541
 30
0.0
  0
INSERT
  8
0
  5
1F9
  2
*X2
 10
318.795956
 20
429.765697
 30
0.0
  0
INSERT
  8
0
  5
1FA
  2
*X3
 10
329.582456
 20
431.806173
 30
0.0
  0
INSERT
  8
0
  5
1FB
  2
*X4
 10
365.082456
 20
431.806173
 30
0.0
  0
INSERT
  8
0
  5
1FD
  2
BLK1
 10
0.0
 20
0.0
 30
0.0
  0
DIMENSION
  8
0
  5
1FE
  2
*D6
 10
288.0
 20
426.492
 30
0.0
 11
288.0
 21
426.492
 31
0.0
  1
0-8(8-16)
 13
328.776645
 23
453.765688
 33
0.0
 14
330.076645
 24
454.806173
 34
0.0
 50
90.0
  3
LC-DIM-L-0090-02-02
  0
INSERT
  8
0
  5
200
  2
BLK2
 10
0.0
 20
0.0
 30
0.0
  0
INSERT
  8
0
  5
201
  2
*X8
 10
385.988266
 20
426.809541
 30
0.0
  0
INSERT
  8
0
  5
202
  2
*X9
 10
387.488266
 20
426.809541
 30
0.0
  0
INSERT
  8
0
  5
203
  2
*X10
 10
330.088266
 20
426.809541
 30
0.0
  0
INSERT
  8
0
  5
204
  2
*X11
 10
371.276673
 20
346.265688
 30
0.0
  0
INSERT
  8
0
  5
205
  2
*X12
 10
350.276036
 20
346.265688
 30
0.0
  0
INSERT
  8
0
  5
206
  2
*X13
 10
343.078841
 20
346.265688
 30
0.0
  0
INSERT
  8
0
  5
207
  2
*X14
 10
388.988266
 20
432.765688
 30
0.0
  0
INSERT
  8
0
  5
208
  2
*X15
 10
313.888266
 20
292.765688
 30
0.0
  0
INSERT
  8
0
  5
209
  2
*X16
 10
313.888266
 20
432.765688
 30
0.0
  0
INSERT
  8
0
  5
20A
  2
*X17
 10
366.069366
 20
292.765688
 30
0.0
  0
DIMENSION
  8
0
  5
20B
  2
*D18
 10
440.16284
 20
252.0
 30
0.0
 11
440.16284
 21
252.0
 31
0.0
  1
DN50
 13
318.108266
 23
296.690782
 33
0.0
 14
368.088266
 24
296.265688
 34
0.0
  3
LC-DIM-L-0090-02-02
  0
DIMENSION
  8
0
  5
20C
  2
*D19
 10
468.0
 20
367.686
 30
0.0
 11
468.0
 21
367.686
 31
0.0
  1
105
 13
401.388266
 23
453.765688
 33
0.0
 14
387.276673
 24
346.265688
 34
0.0
 50
90.0
  3
LC-DIM-L-0090-02-02
  0
DIMENSION
  8
0
  5
20D
  2
*D20
 10
353.144269
 20
216.0
 30
0.0
 11
353.144269
 21
216.0
 31
0.0
  1
%%c85
 13
318.108266
 23
355.986492
 33
0.0
 14
403.266926
 24
361.707296
 34
0.0
  3
LC-DIM-L-0090-02-02
  0
LINE
  8
LC-002-002-----0
  6
CONTINUOUS
  5
20F
 10
328.838266
 20
453.765688
 30
0.0
 11
328.838266
 21
447.265688
 31
0.0
  0
LINE
  8
LC-002-002-----0
  6
CONTINUOUS
  5
210
 10
401.338266
 20
453.765688
 30
0.0
 11
401.338266
 21
447.265688
 31
0.0
  0
LINE
  8
LC-002-002-----0
  6
CONTINUOUS
  5
211
 10
343.468953
 20
420.770951
 30
0.0
 11
344.711069
 21
420.770951
 31
0.0
  0
LINE
  8
LC-002-002-----0
  6
CONTINUOUS
  5
212
 10
401.388266
 20
453.765688
 30
0.0
 11
399.380576
 21
453.765688
 31
0.0
  0
ARC
  8
LC-002-002-----0
  6
CONTINUOUS
  5
213
 10
330.795956
 20
441.765697
 30
0.0
 40
12.0
 50
29.999952
 51
90.0
  0
LINE
  8
LC-002-002-----0
  6
CONTINUOUS
  5
214
 10
388.988266
 20
447.765688
 30
0.0
 11
388.988266
 21
448.065688
 31
0.0
  0
ARC
  8
LC-002-002-----0
  6
CONTINUOUS
  5
215
 10
399.380576
 20
441.765697
 30
0.0
 40
12.0
 50
90.0
 51
150.000048
  0
LINE
  8
LC-002-002-----0
  6
CONTINUOUS
  5
216
 10
328.788266
 20
453.765688
 30
0.0
 11
330.795956
 21
453.765688
 31
0.0
  0
LINE
  8
LC-002-002-----0
  6
CONTINUOUS
  5
217
 10
387.276673
 20
348.265688
 30
0.0
 11
345.090709
 21
348.265688
 31
0.0
  0
LINE
  8
LC-002-002-----0
  6
CONTINUOUS
  5
218
 10
405.288266
 20
419.590895
 30
0.0
 11
403.266926
 21
361.707296
 31
0.0
  0
ARC
  8
LC-004-002-RND-0
  6
CONTINUOUS
  5
21A
 10
387.276673
 20
362.265688
 30
0.0
 40
16.0
 50
270.0
 51
358.0
  0
LINE
  8
LC-002-002-----0
  6
CONTINUOUS
  5
21B
 10
390.888266
 20
437.76518
 30
0.0
 11
388.988266
 21
437.76518
 31
0.0
  0
LINE
  8
LC-002-002-----0
  6
CONTINUOUS
  5
21C
 10
317.194388
 20
445.422607
 30
0.0
 11
316.631127
 21
438.265688
 31
0.0
  0
ARC
  8
LC-004-002-RND-0
  6
CONTINUOUS
  5
21D
 10
319.188223
 20
445.265688
 30
0.0
 40
2.0
 50
90.0
 51
175.5
  0
LINE
  8
LC-002-002-----0
  6
CONTINUOUS
  5
21E
 10
319.188223
 20
447.265688
 30
0.0
 11
333.088266
 21
447.265688
 31
0.0
  0
LINE
  8
LC-002-002-----0
  6
CONTINUOUS
  5
21F
 10
313.888266
 20
436.765688
 30
0.0
 11
317.194388
 21
445.422607
 31
0.0
  0
LINE
  8
LC-002-002-----0
  6
CONTINUOUS
  5
220
 10
319.888266
 20
445.265688
 30
0.0
 11
331.188266
 21
445.265688
 31
0.0
  0
ARC
  8
LC-004-002-RND-0
  6
CONTINUOUS
  5
221
 10
319.888266
 20
444.265688
 30
0.0
 40
1.0
 50
90.0
 51
180.0
  0
LINE
  8
LC-002-002-----0
  6
CONTINUOUS
  5
222
 10
396.988266
 20
447.265688
 30
0.0
 11
401.988308
 21
447.265688
 31
0.0
  0
ARC
  8
LC-004-002-RND-0
  6
CONTINUOUS
  5
223
 10
401.988308
 20
445.265688
 30
0.0
 40
2.0
 50
4.5
 51
90.0
  0
LINE
  8
LC-002-002-----0
  6
CONTINUOUS
  5
224
 10
403.982143
 20
445.422607
 30
0.0
 11
404.545405
 21
438.265688
 31
0.0
  0
LINE
  8
LC-002-002-----0
  6
CONTINUOUS
  5
225
 10
407.288266
 20
436.765688
 30
0.0
 11
403.982143
 21
445.422607
 31
0.0
  0
LINE
  8
LC-002-002-----0
  6
CONTINUOUS
  5
226
 10
398.988266
 20
445.265688
 30
0.0
 11
401.288266
 21
445.265688
 31
0.0
  0
ARC
  8
LC-004-002-RND-0
  6
CONTINUOUS
  5
227
 10
401.288266
 20
444.265688
 30
0.0
 40
1.0
 50
0.0
 51
90.0
  0
LINE
  8
LC-002-002-----0
  6
CONTINUOUS
  5
228
 10
402.288266
 20
432.765688
 30
0.0
 11
402.288266
 21
444.265688
 31
0.0
  0
LINE
  8
LC-002-002-----0
  6
CONTINUOUS
  5
229
 10
392.888266
 20
442.065688
 30
0.0
 11
396.988266
 21
442.065688
 31
0.0
  0
LINE
  8
LC-002-002-----0
  6
CONTINUOUS
  5
22A
 10
391.888266
 20
438.76518
 30
0.0
 11
391.888266
 21
441.065688
 31
0.0
  0
LINE
  8
LC-002-002-----0
  6
CONTINUOUS
  5
22B
 10
338.288266
 20
438.76518
 30
0.0
 11
338.288266
 21
441.065688
 31
0.0
  0
ARC
  8
LC-004-002-RND-0
  6
CONTINUOUS
  5
22C
 10
398.988266
 20
444.265688
 30
0.0
 40
1.0
 50
90.0
 51
180.0
  0
ARC
  8
LC-004-002-RND-0
  6
CONTINUOUS
  5
22D
 10
396.988266
 20
443.065688
 30
0.0
 40
1.0
 50
270.0
 51
0.0
  0
LINE
  8
LC-002-002-----0
  6
CONTINUOUS
  5
22E
 10
397.988266
 20
444.265688
 30
0.0
 11
397.988266
 21
443.065688
 31
0.0
  0
ARC
  8
LC-004-002-RND-0
  6
CONTINUOUS
  5
22F
 10
392.888266
 20
441.065688
 30
0.0
 40
1.0
 50
90.0
 51
180.0
  0
LINE
  8
LC-002-002-----0
  6
CONTINUOUS
  5
230
 10
395.988266
 20
446.265688
 30
0.0
 11
395.988266
 21
445.065688
 31
0.0
  0
LINE
  8
LC-002-002-----0
  6
CONTINUOUS
  5
231
 10
402.288266
 20
432.765688
 30
0.0
 11
403.288266
 21
432.765688
 31
0.0
  0
ARC
  8
LC-004-002-RND-0
  6
CONTINUOUS
  5
232
 10
337.288266
 20
441.065688
 30
0.0
 40
1.0
 50
0.0
 51
90.0
  0
ARC
  8
LC-004-002-RND-0
  6
CONTINUOUS
  5
233
 10
333.188266
 20
443.065688
 30
0.0
 40
1.0
 50
180.0
 51
270.0
  0
LINE
  8
LC-002-002-----0
  6
CONTINUOUS
  5
234
 10
337.288266
 20
442.065688
 30
0.0
 11
333.188266
 21
442.065688
 31
0.0
  0
ARC
  8
LC-004-002-RND-0
  6
CONTINUOUS
  5
235
 10
331.188266
 20
444.265688
 30
0.0
 40
1.0
 50
0.0
 51
90.0
  0
ARC
  8
LC-004-002-RND-0
  6
CONTINUOUS
  5
236
 10
396.988266
 20
446.265688
 30
0.0
 40
1.0
 50
90.0
 51
180.0
  0
LINE
  8
LC-002-002-----0
  6
CONTINUOUS
  5
237
 10
332.188266
 20
444.265688
 30
0.0
 11
332.188266
 21
443.065688
 31
0.0
  0
LINE
  8
LC-002-002-----0
  6
CONTINUOUS
  5
238
 10
316.888266
 20
436.765688
 30
0.0
 11
313.888266
 21
436.765688
 31
0.0
  0
LINE
  8
LC-002-002-----0
  6
CONTINUOUS
  5
239
 10
404.545405
 20
438.265688
 30
0.0
 11
406.72838
 21
438.265688
 31
0.0
  0
ARC
  8
LC-004-002-RND-0
  6
CONTINUOUS
  5
23A
 10
394.988266
 20
445.065688
 30
0.0
 40
1.0
 50
270.0
 51
0.0
  0
LINE
  8
LC-002-002-----0
  6
CONTINUOUS
  5
23B
 10
391.588266
 20
444.065688
 30
0.0
 11
394.988266
 21
444.065688
 31
0.0
  0
LINE
  8
LC-002-002-----0
  6
CONTINUOUS
  5
23C
 10
339.588266
 20
447.765688
 30
0.0
 11
339.588266
 21
445.065688
 31
0.0
  0
LINE
  8
LC-002-002-----0
  6
CONTINUOUS
  5
23D
 10
334.188266
 20
446.265688
 30
0.0
 11
334.188266
 21
445.065688
 31
0.0
  0
LINE
  8
LC-002-002-----0
  6
CONTINUOUS
  5
23E
 10
404.288266
 20
436.765688
 30
0.0
 11
407.288266
 21
436.765688
 31
0.0
  0
LINE
  8
LC-002-002-----0
  6
CONTINUOUS
  5
23F
 10
403.288266
 20
434.265688
 30
0.0
 11
403.288266
 21
432.765688
 31
0.0
  0
LINE
  8
LC-002-002-----0
  6
CONTINUOUS
  5
240
 10
316.631127
 20
438.265688
 30
0.0
 11
314.448151
 21
438.265688
 31
0.0
  0
LINE
  8
LC-002-002-----0
  6
CONTINUOUS
  5
241
 10
403.288266
 20
434.265688
 30
0.0
 11
403.288266
 21
432.765688
 31
0.0
  0
ARC
  8
LC-004-002-RND-0
  6
CONTINUOUS
  5
242
 10
390.888266
 20
438.76518
 30
0.0
 40
1.0
 50
270.0
 51
0.0
  0
LINE
  8
LC-002-002-----0
  6
CONTINUOUS
  5
243
 10
339.288266
 20
437.76518
 30
0.0
 11
341.188266
 21
437.76518
 31
0.0
  0
LINE
  8
LC-002-002-----0
  6
CONTINUOUS
  5
244
 10
384.332456
 20
456.806173
 30
0.0
 11
400.582456
 21
456.806173
 31
0.0
  0
LINE
  8
LC-002-002-----0
  6
CONTINUOUS
  5
245
 10
350.612842
 20
466.806173
 30
0.0
 11
379.552069
 21
466.806173
 31
0.0
  0
ARC
  8
LC-004-002-RND-0
  6
CONTINUOUS
  5
246
 10
339.288266
 20
438.76518
 30
0.0
 40
1.0
 50
180.0
 51
270.0
  0
LINE
  8
LC-002-002-----0
  6
CONTINUOUS
  5
247
 10
339.588266
 20
447.765688
 30
0.0
 11
341.188266
 21
447.765688
 31
0.0
  0
LINE
  8
LC-002-002-----0
  6
CONTINUOUS
  5
248
 10
390.588266
 20
447.765688
 30
0.0
 11
388.988266
 21
447.765688
 31
0.0
  0
ARC
  8
LC-004-002-RND-0
  6
CONTINUOUS
  5
249
 10
333.188266
 20
446.265688
 30
0.0
 40
1.0
 50
0.0
 51
89.109248
  0
LINE
  8
LC-002-002-----0
  6
CONTINUOUS
  5
24A
 10
403.288266
 20
434.265688
 30
0.0
 11
404.288266
 21
434.265688
 31
0.0
  0
LINE
  8
LC-002-002-----0
  6
CONTINUOUS
  5
24B
 10
407.288266
 20
435.265688
 30
0.0
 11
405.288266
 21
427.801587
 31
0.0
  0
LINE
  8
LC-002-002-----0
  6
CONTINUOUS
  5
24C
 10
404.288266
 20
435.265688
 30
0.0
 11
407.288266
 21
435.265688
 31
0.0
  0
LINE
  8
LC-002-002-----0
  6
CONTINUOUS
  5
24D
 10
404.288266
 20
435.265688
 30
0.0
 11
404.288266
 21
433.265688
 31
0.0
  0
LINE
  8
LC-002-002-----0
  6
CONTINUOUS
  5
24E
 10
403.288266
 20
433.765688
 30
0.0
 11
404.288266
 21
433.765688
 31
0.0
  0
LINE
  8
LC-002-002-----0
  6
CONTINUOUS
  5
24F
 10
405.288266
 20
433.765688
 30
0.0
 11
406.886342
 21
433.765688
 31
0.0
  0
LINE
  8
LC-002-002-----0
  6
CONTINUOUS
  5
250
 10
403.288266
 20
433.765688
 30
0.0
 11
404.288266
 21
433.265688
 31
0.0
  0
LINE
  8
LC-002-002-----0
  6
CONTINUOUS
  5
251
 10
390.588266
 20
447.765688
 30
0.0
 11
390.588266
 21
445.065688
 31
0.0
  0
ARC
  8
LC-004-002-RND-0
  6
CONTINUOUS
  5
252
 10
391.588266
 20
445.065688
 30
0.0
 40
1.0
 50
180.0
 51
270.0
  0
LINE
  8
LC-002-002-----0
  6
CONTINUOUS
  5
253
 10
403.288266
 20
433.765688
 30
0.0
 11
403.288266
 21
425.015688
 31
0.0
  0
ARC
  8
LC-004-002-RND-0
  6
CONTINUOUS
  5
254
 10
335.188266
 20
445.065688
 30
0.0
 40
1.0
 50
180.0
 51
270.0
  0
ARC
  8
LC-004-002-RND-0
  6
CONTINUOUS
  5
255
 10
338.588266
 20
445.065688
 30
0.0
 40
1.0
 50
270.0
 51
0.0
  0
LINE
  8
LC-002-002-----0
  6
CONTINUOUS
  5
256
 10
338.588266
 20
444.065688
 30
0.0
 11
335.188266
 21
444.065688
 31
0.0
  0
LINE
  8
LC-002-002-----0
  6
CONTINUOUS
  5
257
 10
329.588266
 20
447.265688
 30
0.0
 11
333.188266
 21
447.265688
 31
0.0
  0
LINE
  8
LC-002-002-----0
  6
CONTINUOUS
  5
258
 10
404.288266
 20
436.765688
 30
0.0
 11
404.288266
 21
434.265688
 31
0.0
  0
LINE
  8
LC-002-002-----0
  6
CONTINUOUS
  5
259
 10
403.288266
 20
426.015688
 30
0.0
 11
403.288266
 21
419.590895
 31
0.0
  0
LINE
  8
LC-002-002-----0
  6
CONTINUOUS
  5
25A
 10
403.288266
 20
426.015688
 30
0.0
 11
403.288266
 21
419.590895
 31
0.0
  0
LINE
  8
LC-002-002-----0
  6
CONTINUOUS
  5
25B
 10
400.582456
 20
456.806173
 30
0.0
 11
400.582456
 21
455.306173
 31
0.0
  0
LINE
  8
LC-002-002-----0
  6
CONTINUOUS
  5
25C
 10
384.332456
 20
455.306173
 30
0.0
 11
384.332456
 21
431.806173
 31
0.0
  0
LINE
  8
LC-002-002-----0
  6
CONTINUOUS
  5
25D
 10
345.832456
 20
431.806173
 30
0.0
 11
384.332456
 21
431.806173
 31
0.0
  0
LINE
  8
LC-002-002-----0
  6
CONTINUOUS
  5
25E
 10
382.332456
 20
456.540132
 30
0.0
 11
382.332456
 21
431.806173
 31
0.0
  0
LINE
  8
LC-002-002-----0
  6
CONTINUOUS
  5
25F
 10
384.332456
 20
455.306173
 30
0.0
 11
400.582456
 21
455.306173
 31
0.0
  0
LINE
  8
LC-002-002-----0
  6
CONTINUOUS
  5
260
 10
350.612842
 20
468.806173
 30
0.0
 11
379.552069
 21
468.806173
 31
0.0
  0
LINE
  8
LC-002-002-----0
  6
CONTINUOUS
  5
261
 10
379.552069
 20
466.806173
 30
0.0
 11
382.332456
 21
456.540132
 31
0.0
  0
LINE
  8
LC-002-002-----0
  6
CONTINUOUS
  5
262
 10
381.482522
 20
467.329004
 30
0.0
 11
384.332456
 21
456.806173
 31
0.0
  0
ARC
  8
LC-004-002-RND-0
  6
CONTINUOUS
  5
263
 10
379.552069
 20
466.806173
 30
0.0
 40
2.0
 50
15.154068
 51
90.0
  0
LINE
  8
LC-002-002-----0
  6
CONTINUOUS
  5
264
 10
361.845921
 20
462.572214
 30
0.0
 11
368.31899
 21
462.572214
 31
0.0
  0
LINE
  8
LC-002-002-----0
  6
CONTINUOUS
  5
265
 10
345.832456
 20
455.306173
 30
0.0
 11
329.582456
 21
455.306173
 31
0.0
  0
ARC
  8
LC-004-002-RND-0
  6
CONTINUOUS
  5
266
 10
368.31899
 20
459.572214
 30
0.0
 40
3.0
 50
15.154068
 51
90.0
  0
ARC
  8
LC-004-002-RND-0
  6
CONTINUOUS
  5
267
 10
356.052069
 20
457.306173
 30
0.0
 40
2.0
 50
270.0
 51
344.845932
  0
LINE
  8
LC-002-002-----0
  6
CONTINUOUS
  5
268
 10
329.582456
 20
456.806173
 30
0.0
 11
329.582456
 21
455.306173
 31
0.0
  0
LINE
  8
LC-002-002-----0
  6
CONTINUOUS
  5
269
 10
345.832456
 20
455.306173
 30
0.0
 11
345.832456
 21
431.806173
 31
0.0
  0
LINE
  8
LC-002-002-----0
  6
CONTINUOUS
  5
26A
 10
347.832456
 20
456.540132
 30
0.0
 11
347.832456
 21
431.806173
 31
0.0
  0
LINE
  8
LC-002-002-----0
  6
CONTINUOUS
  5
26B
 10
345.832456
 20
456.806173
 30
0.0
 11
329.582456
 21
456.806173
 31
0.0
  0
LINE
  8
LC-002-002-----0
  6
CONTINUOUS
  5
26C
 10
350.612842
 20
466.806173
 30
0.0
 11
347.832456
 21
456.540132
 31
0.0
  0
LINE
  8
LC-002-002-----0
  6
CONTINUOUS
  5
26D
 10
348.682389
 20
467.329004
 30
0.0
 11
345.832456
 21
456.806173
 31
0.0
  0
ARC
  8
LC-004-002-RND-0
  6
CONTINUOUS
  5
26E
 10
350.612842
 20
466.806173
 30
0.0
 40
2.0
 50
90.0
 51
164.845932
  0
LINE
  8
LC-002-002-----0
  6
CONTINUOUS
  5
26F
 10
358.950242
 20
460.356461
 30
0.0
 11
357.982522
 21
456.783342
 31
0.0
  0
ARC
  8
LC-004-002-RND-0
  6
CONTINUOUS
  5
270
 10
361.845921
 20
459.572214
 30
0.0
 40
3.0
 50
90.0
 51
164.845932
  0
LINE
  8
LC-002-002-----0
  6
CONTINUOUS
  5
271
 10
372.176206
 20
456.806173
 30
0.0
 11
357.988706
 21
456.806173
 31
0.0
  0
LINE
  8
LC-002-002-----0
  6
CONTINUOUS
  5
272
 10
382.332456
 20
455.306173
 30
0.0
 11
347.832456
 21
455.306173
 31
0.0
  0
LINE
  8
LC-002-002-----0
  6
CONTINUOUS
  5
273
 10
371.214669
 20
460.356461
 30
0.0
 11
372.176206
 21
456.806173
 31
0.0
  0
ARC
  8
LC-004-002-RND-0
  6
CONTINUOUS
  5
274
 10
374.112842
 20
457.306173
 30
0.0
 40
2.0
 50
195.154068
 51
270.0
  0
LINE
  8
LC-002-002-----0
  6
CONTINUOUS
  5
275
 10
344.188266
 20
451.084159
 30
0.0
 11
345.832456
 21
451.084159
 31
0.0
  0
LINE
  8
LC-002-002-----0
  6
CONTINUOUS
  5
276
 10
385.988266
 20
451.084159
 30
0.0
 11
384.332456
 21
451.084159
 31
0.0
  0
LINE
  8
LC-002-002-----0
  6
CONTINUOUS
  5
277
 10
316.888266
 20
436.765688
 30
0.0
 11
316.888266
 21
433.265688
 31
0.0
  0
LINE
  8
LC-003-005-----0
  6
CONTINUOUS
  5
278
 10
343.349923
 20
398.038124
 30
0.0
 11
343.122358
 21
398.265688
 31
0.0
  0
LINE
  8
LC-003-005-----0
  6
CONTINUOUS
 62
     4
  5
279
 10
406.809347
 20
433.765688
 30
0.0
 11
406.914524
 21
433.870865
 31
0.0
  0
LINE
  8
LC-003-005-----0
  6
CONTINUOUS
  5
27A
 10
403.288266
 20
433.073034
 30
0.0
 11
403.750035
 21
433.534804
 31
0.0
  0
LINE
  8
LC-002-002-----0
  6
CONTINUOUS
  5
27B
 10
405.288266
 20
433.765688
 30
0.0
 11
405.288266
 21
419.590895
 31
0.0
  0
LINE
  8
LC-002-002-----0
  6
CONTINUOUS
  5
27C
 10
403.289484
 20
419.660694
 30
0.0
 11
401.268144
 21
361.777095
 31
0.0
  0
ARC
  8
LC-004-002-RND-0
  6
CONTINUOUS
  5
27D
 10
387.276673
 20
362.265688
 30
0.0
 40
14.0
 50
270.0
 51
358.0
  0
LINE
  8
LC-002-002-----0
  6
CONTINUOUS
  5
27E
 10
342.688266
 20
426.809541
 30
0.0
 11
384.588266
 21
426.809541
 31
0.0
  0
LINE
  8
LC-002-002-----0
  6
CONTINUOUS
  5
27F
 10
344.188266
 20
444.809541
 30
0.0
 11
345.188266
 21
444.809541
 31
0.0
  0
LINE
  8
LC-002-002-----0
  6
CONTINUOUS
  5
280
 10
387.488266
 20
426.809541
 30
0.0
 11
384.588266
 21
426.809541
 31
0.0
  0
LINE
  8
LC-002-002-----0
  6
CONTINUOUS
  5
281
 10
341.188266
 20
449.365688
 30
0.0
 11
341.188266
 21
428.309541
 31
0.0
  0
LINE
  8
LC-002-002-----0
  6
CONTINUOUS
  5
282
 10
384.988266
 20
444.809541
 30
0.0
 11
384.988266
 21
429.759541
 31
0.0
  0
LINE
  8
LC-002-002-----0
  6
CONTINUOUS
  5
283
 10
385.988266
 20
447.161978
 30
0.0
 11
385.988266
 21
426.809541
 31
0.0
  0
LINE
  8
LC-002-002-----0
  6
CONTINUOUS
  5
284
 10
345.188266
 20
444.809541
 30
0.0
 11
345.188266
 21
429.759541
 31
0.0
  0
LINE
  8
LC-002-002-----0
  6
CONTINUOUS
  5
285
 10
344.188266
 20
447.161978
 30
0.0
 11
344.188266
 21
426.809541
 31
0.0
  0
LINE
  8
LC-002-002-----0
  6
CONTINUOUS
  5
286
 10
385.988266
 20
444.809541
 30
0.0
 11
384.988266
 21
444.809541
 31
0.0
  0
LINE
  8
LC-002-002-----0
  6
CONTINUOUS
  5
287
 10
385.988266
 20
451.084159
 30
0.0
 11
385.988266
 21
447.161978
 31
0.0
  0
LINE
  8
LC-002-002-----0
  6
CONTINUOUS
  5
288
 10
344.188266
 20
451.084159
 30
0.0
 11
344.188266
 21
447.161978
 31
0.0
  0
LINE
  8
LC-002-002-----0
  6
CONTINUOUS
 62
     2
  5
289
 10
342.688266
 20
447.398961
 30
0.0
 11
342.688266
 21
426.809541
 31
0.0
  0
LINE
  8
LC-002-002-----0
  6
CONTINUOUS
  5
28A
 10
391.282414
 20
454.140737
 30
0.0
 11
400.088266
 21
455.300049
 31
0.0
  0
LINE
  8
LC-002-002-----0
  6
CONTINUOUS
  5
28B
 10
400.088266
 20
455.306173
 30
0.0
 11
400.088266
 21
454.806173
 31
0.0
  0
LINE
  8
LC-002-002-----0
  6
CONTINUOUS
  5
28C
 10
400.088266
 20
454.806173
 30
0.0
 11
390.304225
 21
451.245074
 31
0.0
  0
LINE
  8
LC-002-002-----0
  6
CONTINUOUS
  5
28D
 10
338.894118
 20
454.140737
 30
0.0
 11
330.088266
 21
455.300049
 31
0.0
  0
ARC
  8
LC-004-002-RND-0
  6
CONTINUOUS
  5
28E
 10
339.188266
 20
449.365688
 30
0.0
 40
2.0
 50
0.0
 51
70.0
  0
LINE
  8
LC-002-002-----0
  6
CONTINUOUS
 62
     2
  5
28F
 10
341.188266
 20
448.264987
 30
0.0
 11
342.688266
 21
447.398961
 31
0.0
  0
LINE
  8
LC-002-002-----0
  6
CONTINUOUS
  5
290
 10
344.188266
 20
429.759541
 30
0.0
 11
345.188266
 21
429.759541
 31
0.0
  0
LINE
  8
LC-002-002-----0
  6
CONTINUOUS
  5
291
 10
385.988266
 20
429.759541
 30
0.0
 11
384.988266
 21
429.759541
 31
0.0
  0
ARC
  8
LC-004-002-RND-0
  6
CONTINUOUS
  5
292
 10
390.988266
 20
449.365688
 30
0.0
 40
2.0
 50
110.0
 51
180.0
  0
LINE
  8
LC-002-002-----0
  6
CONTINUOUS
 62
     2
  5
293
 10
388.988266
 20
448.264987
 30
0.0
 11
387.488266
 21
447.398961
 31
0.0
  0
LINE
  8
LC-002-002-----0
  6
CONTINUOUS
  5
294
 10
388.988266
 20
449.365688
 30
0.0
 11
388.988266
 21
428.309541
 31
0.0
  0
LINE
  8
LC-002-002-----0
  6
CONTINUOUS
 62
     2
  5
295
 10
387.488266
 20
447.398961
 30
0.0
 11
387.488266
 21
426.809541
 31
0.0
  0
LINE
  8
LC-002-002-----0
  6
CONTINUOUS
  5
296
 10
384.588266
 20
455.306173
 30
0.0
 11
400.088266
 21
455.306173
 31
0.0
  0
LINE
  8
LC-002-002-----0
  6
CONTINUOUS
  5
297
 10
330.088266
 20
454.806173
 30
0.0
 11
339.872306
 21
451.245074
 31
0.0
  0
LINE
  8
LC-002-002-----0
  6
CONTINUOUS
  5
298
 10
338.894118
 20
454.140737
 30
0.0
 11
344.188266
 21
451.084159
 31
0.0
  0
LINE
  8
LC-002-002-----0
  6
CONTINUOUS
  5
299
 10
391.282414
 20
454.140737
 30
0.0
 11
384.332456
 21
454.140737
 31
0.0
  0
LINE
  8
LC-002-002-----0
  6
CONTINUOUS
  5
29A
 10
338.894118
 20
454.140737
 30
0.0
 11
345.588266
 21
454.140737
 31
0.0
  0
LINE
  8
LC-002-002-----0
  6
CONTINUOUS
  5
29B
 10
330.088266
 20
455.306173
 30
0.0
 11
345.588266
 21
455.306173
 31
0.0
  0
LINE
  8
LC-002-002-----0
  6
CONTINUOUS
  5
29C
 10
342.688266
 20
426.809541
 30
0.0
 11
341.188266
 21
428.309541
 31
0.0
  0
LINE
  8
LC-002-002-----0
  6
CONTINUOUS
  5
29D
 10
387.488266
 20
426.809541
 30
0.0
 11
388.988266
 21
428.309541
 31
0.0
  0
LINE
  8
LC-002-002-----0
  6
CONTINUOUS
  5
29E
 10
391.282414
 20
454.140737
 30
0.0
 11
385.988266
 21
451.084159
 31
0.0
  0
LINE
  8
LC-002-002-----0
  6
CONTINUOUS
  5
29F
 10
330.088266
 20
455.306173
 30
0.0
 11
330.088266
 21
454.806173
 31
0.0
  0
LINE
  8
LC-002-002-----0
  6
CONTINUOUS
  5
2A0
 10
344.711069
 20
420.770951
 30
0.0
 11
345.090709
 21
348.265688
 31
0.0
  0
LINE
  8
LC-002-002-----0
  6
CONTINUOUS
  5
2A1
 10
343.078841
 20
346.265688
 30
0.0
 11
343.468953
 21
420.770951
 31
0.0
  0
LINE
  8
LC-002-002-----0
  6
CONTINUOUS
  5
2A2
 10
313.888266
 20
435.265688
 30
0.0
 11
316.888266
 21
435.265688
 31
0.0
  0
LINE
  8
LC-002-002-----0
  6
CONTINUOUS
  5
2A3
 10
317.887047
 20
419.660694
 30
0.0
 11
320.110599
 21
355.986492
 31
0.0
  0
LINE
  8
LC-002-002-----0
  6
CONTINUOUS
  5
2A4
 10
366.088266
 20
292.765688
 30
0.0
 11
366.069366
 21
346.265688
 31
0.0
  0
LINE
  8
LC-002-002-----0
  6
CONTINUOUS
  5
2A5
 10
320.088266
 20
292.765688
 30
0.0
 11
320.110599
 21
355.986492
 31
0.0
  0
LINE
  8
LC-002-002-----0
  6
CONTINUOUS
  5
2A6
 10
317.888266
 20
434.265688
 30
0.0
 11
317.888266
 21
432.765688
 31
0.0
  0
LINE
  8
LC-002-002-----0
  6
CONTINUOUS
  5
2A7
 10
317.888266
 20
434.265688
 30
0.0
 11
316.888266
 21
434.265688
 31
0.0
  0
LINE
  8
LC-002-002-----0
  6
CONTINUOUS
  5
2A8
 10
318.888266
 20
432.765688
 30
0.0
 11
317.888266
 21
432.765688
 31
0.0
  0
LINE
  8
LC-002-002-----0
  6
CONTINUOUS
  5
2A9
 10
313.888266
 20
435.265688
 30
0.0
 11
315.888266
 21
427.801587
 31
0.0
  0
LINE
  8
LC-002-002-----0
  6
CONTINUOUS
  5
2AA
 10
317.888266
 20
433.765688
 30
0.0
 11
316.888266
 21
433.765688
 31
0.0
  0
LINE
  8
LC-002-002-----0
  6
CONTINUOUS
  5
2AB
 10
315.888266
 20
433.765688
 30
0.0
 11
314.290189
 21
433.765688
 31
0.0
  0
LINE
  8
LC-002-002-----0
  6
CONTINUOUS
  5
2AC
 10
317.888266
 20
433.765688
 30
0.0
 11
316.888266
 21
433.265688
 31
0.0
  0
LINE
  8
LC-002-002-----0
  6
CONTINUOUS
  5
2AD
 10
317.888266
 20
433.765688
 30
0.0
 11
317.888266
 21
419.590895
 31
0.0
  0
LINE
  8
LC-002-002-----0
  6
CONTINUOUS
  5
2AE
 10
315.888266
 20
419.590895
 30
0.0
 11
318.10938
 21
355.986492
 31
0.0
  0
LINE
  8
LC-002-002-----0
  6
CONTINUOUS
  5
2AF
 10
318.108266
 20
355.986492
 30
0.0
 11
318.108266
 21
296.690782
 31
0.0
  0
LINE
  8
LC-002-002-----0
  6
CONTINUOUS
  5
2B0
 10
368.088266
 20
346.265688
 30
0.0
 11
368.088266
 21
296.265688
 31
0.0
  0
LINE
  8
LC-002-002-----0
  6
CONTINUOUS
  5
2B1
 10
368.088266
 20
296.265688
 30
0.0
 11
367.153766
 21
292.765688
 31
0.0
  0
LINE
  8
LC-002-002-----0
  6
CONTINUOUS
  5
2B2
 10
318.108266
 20
296.690782
 30
0.0
 11
319.156266
 21
292.765688
 31
0.0
  0
LINE
  8
LC-002-002-----0
  6
CONTINUOUS
  5
2B3
 10
319.156266
 20
292.765688
 30
0.0
 11
343.088266
 21
292.765688
 31
0.0
  0
LINE
  8
LC-002-002-----0
  6
CONTINUOUS
  5
2B4
 10
367.153766
 20
292.765688
 30
0.0
 11
343.088266
 21
292.765688
 31
0.0
  0
LINE
  8
LC-002-002-----0
  6
DASHDOT
 62
     2
  5
2B6
 10
343.088266
 20
325.10954
 30
0.0
 11
343.088266
 21
292.765688
 31
0.0
  0
LINE
  8
LC-002-002-----0
  6
CONTINUOUS
  5
2B7
 10
366.069366
 20
346.265688
 30
0.0
 11
343.078841
 21
346.265688
 31
0.0
  0
LINE
  8
LC-002-002-----0
  6
CONTINUOUS
  5
2B8
 10
318.888266
 20
432.765688
 30
0.0
 11
318.888266
 21
444.265688
 31
0.0
  0
LINE
  8
LC-002-002-----0
  6
CONTINUOUS
  5
2B9
 10
387.276673
 20
346.265688
 30
0.0
 11
368.088266
 21
346.265688
 31
0.0
  0
LINE
  8
LC-002-002-----0
  6
CONTINUOUS
  5
2BA
 10
315.888266
 20
433.765688
 30
0.0
 11
315.888266
 21
419.590895
 31
0.0
  0
LINE
  8
LC-002-002-----0
  6
DASHDOT
 62
     2
  5
2BB
 10
365.082456
 20
468.806173
 30
0.0
 11
365.082456
 21
426.809541
 31
0.0
  0
ENDSEC
  0
EOF
