  0
SECTION
  2
HEADER
  9
$ACADVER
  1
AC1015
  9
$ACADMAINTVER
 70
     6
  9
$DWGCODEPAGE
  3
ANSI_1252
  9
$INSBASE
 10
0.0
 20
0.0
 30
0.0
  9
$EXTMIN
 10
-118.782642
 20
-86.201609
 30
0.0
  9
$EXTMAX
 10
721.217358
 20
507.798391
 30
0.0
  9
$LIMMIN
 10
-118.782642
 20
-86.201609
  9
$LIMMAX
 10
721.217358
 20
507.798391
  9
$ORTHOMODE
 70
     0
  9
$REGENMODE
 70
     1
  9
$FILLMODE
 70
     1
  9
$QTEXTMODE
 70
     0
  9
$MIRRTEXT
 70
     1
  9
$LTSCALE
 40
2.0
  9
$ATTMODE
 70
     1
  9
$TEXTSIZE
 40
2.5
  9
$TRACEWID
 40
1.0
  9
$TEXTSTYLE
  7
Standard
  9
$CLAYER
  8
0
  9
$CELTYPE
  6
ByLayer
  9
$CECOLOR
 62
     7
  9
$CELTSCALE
 40
1.0
  9
$DISPSILH
 70
     0
  9
$DIMSCALE
 40
2.0
  9
$DIMASZ
 40
3.5
  9
$DIMEXO
 40
0.625
  9
$DIMDLI
 40
3.75
  9
$DIMRND
 40
0.0
  9
$DIMDLE
 40
0.0
  9
$DIMEXE
 40
1.25
  9
$DIMTP
 40
0.0
  9
$DIMTM
 40
0.0
  9
$DIMTXT
 40
3.5
  9
$DIMCEN
 40
2.5
  9
$DIMTSZ
 40
0.0
  9
$DIMTOL
 70
     0
  9
$DIMLIM
 70
     0
  9
$DIMTIH
 70
     0
  9
$DIMTOH
 70
     0
  9
$DIMSE1
 70
     0
  9
$DIMSE2
 70
     0
  9
$DIMTAD
 70
     1
  9
$DIMZIN
 70
     8
  9
$DIMBLK
  1

  9
$DIMASO
 70
     1
  9
$DIMSHO
 70
     1
  9
$DIMPOST
  1

  9
$DIMAPOST
  1

  9
$DIMALT
 70
     0
  9
$DIMALTD
 70
     3
  9
$DIMALTF
 40
0.03937
  9
$DIMLFAC
 40
1.0
  9
$DIMTOFL
 70
     1
  9
$DIMTVP
 40
0.0
  9
$DIMTIX
 70
     0
  9
$DIMSOXD
 70
     0
  9
$DIMSAH
 70
     0
  9
$DIMBLK1
  1

  9
$DIMBLK2
  1

  9
$DIMSTYLE
  2
ISO-25
  9
$DIMCLRD
 70
     0
  9
$DIMCLRE
 70
     0
  9
$DIMCLRT
 70
     0
  9
$DIMTFAC
 40
1.0
  9
$DIMGAP
 40
0.625
  9
$DIMJUST
 70
     0
  9
$DIMSD1
 70
     0
  9
$DIMSD2
 70
     0
  9
$DIMTOLJ
 70
     0
  9
$DIMTZIN
 70
     8
  9
$DIMALTZ
 70
     0
  9
$DIMALTTZ
 70
     0
  9
$DIMUPT
 70
     0
  9
$DIMDEC
 70
     2
  9
$DIMTDEC
 70
     2
  9
$DIMALTU
 70
     2
  9
$DIMALTTD
 70
     3
  9
$DIMTXSTY
  7
Standard
  9
$DIMAUNIT
 70
     0
  9
$DIMADEC
 70
     0
  9
$DIMALTRND
 40
0.0
  9
$DIMAZIN
 70
     0
  9
$DIMDSEP
 70
    44
  9
$DIMATFIT
 70
     3
  9
$DIMFRAC
 70
     0
  9
$DIMLDRBLK
  1

  9
$DIMLUNIT
 70
     2
  9
$DIMLWD
 70
    -2
  9
$DIMLWE
 70
    -2
  9
$DIMTMOVE
 70
     0
  9
$LUNITS
 70
     2
  9
$LUPREC
 70
     4
  9
$SKETCHINC
 40
1.0
  9
$FILLETRAD
 40
10.0
  9
$AUNITS
 70
     0
  9
$AUPREC
 70
     0
  9
$MENU
  1
.
  9
$ELEVATION
 40
0.0
  9
$PELEVATION
 40
0.0
  9
$THICKNESS
 40
0.0
  9
$LIMCHECK
 70
     0
  9
$CHAMFERA
 40
10.0
  9
$CHAMFERB
 40
10.0
  9
$CHAMFERC
 40
20.0
  9
$CHAMFERD
 40
0.0
  9
$SKPOLY
 70
     0
  9
$TDCREATE
 40
2455285.283608113
  9
$TDUCREATE
 40
2455285.20027478
  9
$TDUPDATE
 40
2455285.283608125
  9
$TDUUPDATE
 40
2455285.200274792
  9
$TDINDWG
 40
0.0000000116
  9
$TDUSRTIMER
 40
0.0000000116
  9
$USRTIMER
 70
     1
  9
$ANGBASE
 50
0.0
  9
$ANGDIR
 70
     0
  9
$PDMODE
 70
     0
  9
$PDSIZE
 40
0.0
  9
$PLINEWID
 40
0.0
  9
$SPLFRAME
 70
     0
  9
$SPLINETYPE
 70
     6
  9
$SPLINESEGS
 70
     8
  9
$HANDSEED
  5
3A1
  9
$SURFTAB1
 70
     6
  9
$SURFTAB2
 70
     6
  9
$SURFTYPE
 70
     6
  9
$SURFU
 70
     6
  9
$SURFV
 70
     6
  9
$UCSBASE
  2

  9
$UCSNAME
  2

  9
$UCSORG
 10
0.0
 20
0.0
 30
0.0
  9
$UCSXDIR
 10
1.0
 20
0.0
 30
0.0
  9
$UCSYDIR
 10
0.0
 20
1.0
 30
0.0
  9
$UCSORTHOREF
  2

  9
$UCSORTHOVIEW
 70
     0
  9
$UCSORGTOP
 10
0.0
 20
0.0
 30
0.0
  9
$UCSORGBOTTOM
 10
0.0
 20
0.0
 30
0.0
  9
$UCSORGLEFT
 10
0.0
 20
0.0
 30
0.0
  9
$UCSORGRIGHT
 10
0.0
 20
0.0
 30
0.0
  9
$UCSORGFRONT
 10
0.0
 20
0.0
 30
0.0
  9
$UCSORGBACK
 10
0.0
 20
0.0
 30
0.0
  9
$PUCSBASE
  2

  9
$PUCSNAME
  2

  9
$PUCSORG
 10
0.0
 20
0.0
 30
0.0
  9
$PUCSXDIR
 10
1.0
 20
0.0
 30
0.0
  9
$PUCSYDIR
 10
0.0
 20
1.0
 30
0.0
  9
$PUCSORTHOREF
  2

  9
$PUCSORTHOVIEW
 70
     0
  9
$PUCSORGTOP
 10
0.0
 20
0.0
 30
0.0
  9
$PUCSORGBOTTOM
 10
0.0
 20
0.0
 30
0.0
  9
$PUCSORGLEFT
 10
0.0
 20
0.0
 30
0.0
  9
$PUCSORGRIGHT
 10
0.0
 20
0.0
 30
0.0
  9
$PUCSORGFRONT
 10
0.0
 20
0.0
 30
0.0
  9
$PUCSORGBACK
 10
0.0
 20
0.0
 30
0.0
  9
$USERI1
 70
     0
  9
$USERI2
 70
     0
  9
$USERI3
 70
     0
  9
$USERI4
 70
     0
  9
$USERI5
 70
     0
  9
$USERR1
 40
0.0
  9
$USERR2
 40
0.0
  9
$USERR3
 40
0.0
  9
$USERR4
 40
0.0
  9
$USERR5
 40
0.0
  9
$WORLDVIEW
 70
     1
  9
$SHADEDGE
 70
     3
  9
$SHADEDIF
 70
    70
  9
$TILEMODE
 70
     1
  9
$MAXACTVP
 70
    64
  9
$PINSBASE
 10
0.0
 20
0.0
 30
0.0
  9
$PLIMCHECK
 70
     0
  9
$PEXTMIN
 10
-118.782642
 20
-86.201609
 30
0.0
  9
$PEXTMAX
 10
721.217358
 20
507.798391
 30
0.0
  9
$PLIMMIN
 10
-118.782642
 20
-86.201609
  9
$PLIMMAX
 10
721.217358
 20
507.798391
  9
$UNITMODE
 70
     0
  9
$VISRETAIN
 70
     1
  9
$PLINEGEN
 70
     0
  9
$PSLTSCALE
 70
     1
  9
$TREEDEPTH
 70
  3020
  9
$CMLSTYLE
  2
Standard
  9
$CMLJUST
 70
     0
  9
$CMLSCALE
 40
20.0
  9
$PROXYGRAPHICS
 70
     1
  9
$MEASUREMENT
 70
     1
  9
$CELWEIGHT
370
    -1
  9
$ENDCAPS
280
     0
  9
$JOINSTYLE
280
     0
  9
$LWDISPLAY
290
     0
  9
$INSUNITS
 70
     4
  9
$HYPERLINKBASE
  1

  9
$STYLESHEET
  1

  9
$XEDIT
290
     1
  9
$CEPSNTYPE
380
     0
  9
$PSTYLEMODE
290
     1
  9
$FINGERPRINTGUID
  2
{FAEB1C30-E019-11D5-929B-00C0DF256EC4}
  9
$VERSIONGUID
  2
{FAEB1C32-E019-11D5-929B-00C0DF256EC4}
  9
$EXTNAMES
290
     1
  9
$PSVPSCALE
 40
0.0
  9
$OLESTARTUP
290
     0
  0
ENDSEC
  0
SECTION
  2
CLASSES
  0
CLASS
  1
ACDBDICTIONARYWDFLT
  2
AcDbDictionaryWithDefault
  3
ObjectDBX Classes
 90
        0
280
     0
281
     0
  0
CLASS
  1
ACDBPLACEHOLDER
  2
AcDbPlaceHolder
  3
ObjectDBX Classes
 90
        0
280
     0
281
     0
  0
CLASS
  1
LAYOUT
  2
AcDbLayout
  3
ObjectDBX Classes
 90
        0
280
     0
281
     0
  0
ENDSEC
  0
SECTION
  2
TABLES
  0
TABLE
  2
VPORT
  5
8
330
0
100
AcDbSymbolTable
 70
     2
  0
VPORT
  5
29
330
8
100
AcDbSymbolTableRecord
100
AcDbViewportTableRecord
  2
*ACTIVE
 70
     0
 10
0.0
 20
0.0
 11
1.0
 21
1.0
 12
301.217358
 22
210.798391
 13
0.0
 23
0.0
 14
1.0
 24
1.0
 15
0.0
 25
0.0
 16
0.0
 26
0.0
 36
1.0
 17
0.0
 27
0.0
 37
0.0
 40
594.0
 41
1.414141
 42
50.0
 43
0.0
 44
0.0
 50
0.0
 51
0.0
 71
    16
 72
   100
 73
     1
 74
     0
 75
     0
 76
     0
 77
     0
 78
     0
281
     0
 65
     0
110
0.0
120
0.0
130
0.0
111
1.0
121
0.0
131
0.0
112
0.0
122
1.0
132
0.0
 79
     0
146
0.0
  0
ENDTAB
  0
TABLE
  2
LTYPE
  5
5
330
0
100
AcDbSymbolTable
 70
     3
  0
LTYPE
  5
14
330
5
100
AcDbSymbolTableRecord
100
AcDbLinetypeTableRecord
  2
ByBlock
 70
     0
  3

 72
    65
 73
     0
 40
0.0
  0
LTYPE
  5
15
330
5
100
AcDbSymbolTableRecord
100
AcDbLinetypeTableRecord
  2
ByLayer
 70
     0
  3

 72
    65
 73
     0
 40
0.0
  0
LTYPE
  5
16
330
5
100
AcDbSymbolTableRecord
100
AcDbLinetypeTableRecord
  2
Continuous
 70
     0
  3
Solid line
 72
    65
 73
     0
 40
0.0
  0
LTYPE
  5
2A
330
5
100
AcDbSymbolTableRecord
100
AcDbLinetypeTableRecord
  2
DASHED
 70
     0
  3
__ __ __ __ __
 72
    65
 73
     2
 40
6.25
 49
5.0
 74
     4
 75
     0
340
0
 46
1.0
 50
0.0
 44
0.0
 45
0.0
 49
-1.25
 74
     4
 75
     0
340
0
 46
1.0
 50
0.0
 44
0.0
 45
0.0
  0
LTYPE
  5
303
330
5
100
AcDbSymbolTableRecord
100
AcDbLinetypeTableRecord
  2
DASHDOT
 70
     0
  3
__ . __ . __ . __ . __
 72
    65
 73
     4
 40
7.5
 49
5.0
 74
     4
 75
     0
340
0
 46
1.0
 50
0.0
 44
0.0
 45
0.0
 49
-1.25
 74
     4
 75
     0
340
0
 46
1.0
 50
0.0
 44
0.0
 45
0.0
 49
0.0
 74
     4
 75
     0
340
0
 46
1.0
 50
0.0
 44
0.0
 45
0.0
 49
-1.25
 74
     4
 75
     0
340
0
 46
1.0
 50
0.0
 44
0.0
 45
0.0
  0
ENDTAB
  0
TABLE
  2
LAYER
  5
2
330
0
100
AcDbSymbolTable
 70
    11
  0
LAYER
  5
10
330
2
100
AcDbSymbolTableRecord
100
AcDbLayerTableRecord
  2
0
 70
     0
 62
     7
  6
Continuous
370
    -3
390
F
  0
LAYER
  5
2B
330
2
100
AcDbSymbolTableRecord
100
AcDbLayerTableRecord
  2
LC-INFO-1-2-mm-A3-0
 70
     1
 62
     7
  6
ByBlock
370
    -3
390
F
  0
LAYER
  5
2C
330
2
100
AcDbSymbolTableRecord
100
AcDbLayerTableRecord
  2
LC-CUT-HIDDEN
 70
     0
 62
     7
  6
DASHED
370
    -3
390
F
  0
LAYER
  5
2D
330
2
100
AcDbSymbolTableRecord
100
AcDbLayerTableRecord
  2
LC-VIEWPORT
 70
     0
 62
     7
  6
ByBlock
370
    -3
390
F
  0
LAYER
  5
2E
330
2
100
AcDbSymbolTableRecord
100
AcDbLayerTableRecord
  2
LC-3D-HIDDEN
 70
     0
 62
     9
  6
DASHED
370
    -3
390
F
  0
LAYER
  5
31
330
2
100
AcDbSymbolTableRecord
100
AcDbLayerTableRecord
  2
LC-001-002-----0
 70
     0
 62
     2
  6
ByBlock
370
    -3
390
F
  0
LAYER
  5
33
330
2
100
AcDbSymbolTableRecord
100
AcDbLayerTableRecord
  2
LC-002-100-D00-0
 70
     0
 62
     1
  6
ByBlock
370
    -3
390
F
  0
LAYER
  5
308
330
2
100
AcDbSymbolTableRecord
100
AcDbLayerTableRecord
  2
LC-003-003-----0
 70
     0
 62
     2
  6
ByBlock
370
    -3
390
F
  0
LAYER
  5
30A
330
2
100
AcDbSymbolTableRecord
100
AcDbLayerTableRecord
  2
Defpoints
 70
     0
 62
     7
  6
Continuous
290
     0
370
    -3
390
F
  0
LAYER
  5
399
330
2
100
AcDbSymbolTableRecord
100
AcDbLayerTableRecord
  2
LC-004-003-MTG-0
 70
     0
 62
     2
  6
ByBlock
370
    -3
390
F
  0
LAYER
  5
39D
330
2
100
AcDbSymbolTableRecord
100
AcDbLayerTableRecord
  2
LC-005-003-MTH-0
 70
     0
 62
     2
  6
ByBlock
370
    -3
390
F
  0
ENDTAB
  0
TABLE
  2
STYLE
  5
3
330
0
100
AcDbSymbolTable
 70
     4
  0
STYLE
  5
11
330
3
100
AcDbSymbolTableRecord
100
AcDbTextStyleTableRecord
  2
Standard
 70
     0
 40
0.0
 41
1.0
 50
0.0
 71
     0
 42
2.5
  3
txt
  4

  0
STYLE
  5
2F
330
3
100
AcDbSymbolTableRecord
100
AcDbTextStyleTableRecord
  2
LCTX0-400-0-0pDIN-Schrift
 70
     0
 40
0.0
 41
0.75
 50
0.0
 71
     0
 42
3.5
  3
TXT
  4

  0
STYLE
  5
30
330
3
100
AcDbSymbolTableRecord
100
AcDbTextStyleTableRecord
  2
LCTX15-400-0-0-Arial
 70
     0
 40
0.0
 41
0.8
 50
0.0
 71
     0
 42
3.5
  3
ARIAL.TTF
  4

1001
ACAD
1000
Arial
1071
 16777218
  0
STYLE
  5
306
330
3
100
AcDbSymbolTableRecord
100
AcDbTextStyleTableRecord
  2
LCTX15-400-0-0pDIN-Schrift
 70
     0
 40
2.5
 41
0.8
 50
15.0
 71
     0
 42
3.5
  3
STANDARD
  4

  0
ENDTAB
  0
TABLE
  2
VIEW
  5
6
330
0
100
AcDbSymbolTable
 70
     0
  0
ENDTAB
  0
TABLE
  2
UCS
  5
7
330
0
100
AcDbSymbolTable
 70
     0
  0
ENDTAB
  0
TABLE
  2
APPID
  5
9
330
0
100
AcDbSymbolTable
 70
     1
  0
APPID
  5
12
330
9
100
AcDbSymbolTableRecord
100
AcDbRegAppTableRecord
  2
ACAD
 70
     0
  0
ENDTAB
  0
TABLE
  2
DIMSTYLE
  5
A
330
0
100
AcDbSymbolTable
 70
     3
100
AcDbDimStyleTable
  0
DIMSTYLE
105
27
330
A
100
AcDbSymbolTableRecord
100
AcDbDimStyleTableRecord
  2
ISO-25
 70
     0
 41
2.5
 42
0.625
 43
3.75
 44
1.25
 73
     0
 74
     0
 77
     1
 78
     8
140
2.5
141
2.5
143
0.03937
147
0.625
171
     3
172
     1
271
     2
272
     2
274
     3
278
    44
283
     0
284
     8
340
11
  0
DIMSTYLE
105
307
102
{ACAD_REACTORS
330
309
330
317
330
324
330
331
330
33E
330
34C
330
359
330
368
330
375
102
}
330
A
100
AcDbSymbolTableRecord
100
AcDbDimStyleTableRecord
  2
LC-DIM-L-0140-02-02
 70
     0
 40
2.0
 41
14.0
 42
0.0
 43
7.5
 44
1.8
 73
     0
 74
     0
 77
     1
 78
     8
 79
     2
140
14.0
141
0.0
146
0.71
147
1.5
176
     2
177
     2
178
     2
179
     2
271
     2
278
    44
289
     1
340
306
  0
DIMSTYLE
105
384
330
A
100
AcDbSymbolTableRecord
100
AcDbDimStyleTableRecord
  2
LC-DIM-W-0140-02-02
 70
     0
 40
2.0
 41
14.0
 42
0.0
 43
7.5
 44
1.8
 73
     0
 74
     0
 77
     1
 78
     8
 79
     2
140
14.0
141
0.0
146
0.71
147
1.5
176
     2
177
     2
178
     2
179
     2
271
     2
278
    44
289
     1
340
306
  0
ENDTAB
  0
TABLE
  2
BLOCK_RECORD
  5
1
330
0
100
AcDbSymbolTable
 70
    30
  0
BLOCK_RECORD
  5
1F
330
1
100
AcDbSymbolTableRecord
100
AcDbBlockTableRecord
  2
*Model_Space
340
22
  0
BLOCK_RECORD
  5
1B
330
1
100
AcDbSymbolTableRecord
100
AcDbBlockTableRecord
  2
*Paper_Space
340
1E
  0
BLOCK_RECORD
  5
23
330
1
100
AcDbSymbolTableRecord
100
AcDbBlockTableRecord
  2
*Paper_Space0
340
26
  0
BLOCK_RECORD
  5
C2
330
1
100
AcDbSymbolTableRecord
100
AcDbBlockTableRecord
  2
POLY1
340
0
102
{BLKREFS
331
E7
102
}
  0
BLOCK_RECORD
  5
E8
330
1
100
AcDbSymbolTableRecord
100
AcDbBlockTableRecord
  2
POLY2
340
0
102
{BLKREFS
331
F9
102
}
  0
BLOCK_RECORD
  5
130
330
1
100
AcDbSymbolTableRecord
100
AcDbBlockTableRecord
  2
KLON1
340
0
102
{BLKREFS
331
135
102
}
  0
BLOCK_RECORD
  5
136
330
1
100
AcDbSymbolTableRecord
100
AcDbBlockTableRecord
  2
KLON2
340
0
102
{BLKREFS
331
13B
102
}
  0
BLOCK_RECORD
  5
18B
330
1
100
AcDbSymbolTableRecord
100
AcDbBlockTableRecord
  2
POLY3
340
0
102
{BLKREFS
331
196
102
}
  0
BLOCK_RECORD
  5
199
330
1
100
AcDbSymbolTableRecord
100
AcDbBlockTableRecord
  2
POLY4
340
0
102
{BLKREFS
331
1A4
102
}
  0
BLOCK_RECORD
  5
1D7
330
1
100
AcDbSymbolTableRecord
100
AcDbBlockTableRecord
  2
KLON3
340
0
102
{BLKREFS
331
1DF
102
}
  0
BLOCK_RECORD
  5
1E0
330
1
100
AcDbSymbolTableRecord
100
AcDbBlockTableRecord
  2
KLON4
340
0
102
{BLKREFS
331
1E8
102
}
  0
BLOCK_RECORD
  5
1E9
330
1
100
AcDbSymbolTableRecord
100
AcDbBlockTableRecord
  2
KLON5
340
0
102
{BLKREFS
331
21C
102
}
  0
BLOCK_RECORD
  5
21D
330
1
100
AcDbSymbolTableRecord
100
AcDbBlockTableRecord
  2
KLON6
340
0
102
{BLKREFS
331
22A
102
}
  0
BLOCK_RECORD
  5
22B
330
1
100
AcDbSymbolTableRecord
100
AcDbBlockTableRecord
  2
KLON7
340
0
102
{BLKREFS
331
23E
102
}
  0
BLOCK_RECORD
  5
240
330
1
100
AcDbSymbolTableRecord
100
AcDbBlockTableRecord
  2
KLON8
340
0
102
{BLKREFS
331
251
102
}
  0
BLOCK_RECORD
  5
252
330
1
100
AcDbSymbolTableRecord
100
AcDbBlockTableRecord
  2
KLON9
340
0
102
{BLKREFS
331
28C
102
}
  0
BLOCK_RECORD
  5
28D
330
1
100
AcDbSymbolTableRecord
100
AcDbBlockTableRecord
  2
KLON10
340
0
102
{BLKREFS
331
2A0
102
}
  0
BLOCK_RECORD
  5
2A1
330
1
100
AcDbSymbolTableRecord
100
AcDbBlockTableRecord
  2
KLON11
340
0
102
{BLKREFS
331
2B5
102
}
  0
BLOCK_RECORD
  5
2B9
330
1
100
AcDbSymbolTableRecord
100
AcDbBlockTableRecord
  2
KLON12
340
0
102
{BLKREFS
331
2BE
102
}
  0
BLOCK_RECORD
  5
2BF
330
1
100
AcDbSymbolTableRecord
100
AcDbBlockTableRecord
  2
KLON13
340
0
102
{BLKREFS
331
2CF
102
}
  0
BLOCK_RECORD
  5
2D0
330
1
100
AcDbSymbolTableRecord
100
AcDbBlockTableRecord
  2
KLON14
340
0
102
{BLKREFS
331
2E0
102
}
  0
BLOCK_RECORD
  5
2E1
330
1
100
AcDbSymbolTableRecord
100
AcDbBlockTableRecord
  2
KLON15
340
0
102
{BLKREFS
331
302
102
}
  0
BLOCK_RECORD
  5
30B
330
1
100
AcDbSymbolTableRecord
100
AcDbBlockTableRecord
  2
*D20
340
0
  0
BLOCK_RECORD
  5
318
330
1
100
AcDbSymbolTableRecord
100
AcDbBlockTableRecord
  2
*D21
340
0
  0
BLOCK_RECORD
  5
325
330
1
100
AcDbSymbolTableRecord
100
AcDbBlockTableRecord
  2
*D22
340
0
  0
BLOCK_RECORD
  5
332
330
1
100
AcDbSymbolTableRecord
100
AcDbBlockTableRecord
  2
*D23
340
0
  0
BLOCK_RECORD
  5
33F
330
1
100
AcDbSymbolTableRecord
100
AcDbBlockTableRecord
  2
*D24
340
0
  0
BLOCK_RECORD
  5
34D
330
1
100
AcDbSymbolTableRecord
100
AcDbBlockTableRecord
  2
*D25
340
0
  0
BLOCK_RECORD
  5
35A
330
1
100
AcDbSymbolTableRecord
100
AcDbBlockTableRecord
  2
*D26
340
0
  0
BLOCK_RECORD
  5
369
330
1
100
AcDbSymbolTableRecord
100
AcDbBlockTableRecord
  2
*D27
340
0
  0
BLOCK_RECORD
  5
376
330
1
100
AcDbSymbolTableRecord
100
AcDbBlockTableRecord
  2
*D28
340
0
  0
BLOCK_RECORD
  5
385
330
1
100
AcDbSymbolTableRecord
100
AcDbBlockTableRecord
  2
LCDIM1
340
0
102
{BLKREFS
331
3A0
102
}
  0
ENDTAB
  0
ENDSEC
  0
SECTION
  2
BLOCKS
  0
BLOCK
  5
20
330
1F
100
AcDbEntity
  8
0
100
AcDbBlockBegin
  2
*Model_Space
 70
     0
 71
     0
 10
0.0
 20
0.0
 30
0.0
  3
*Model_Space
  1

  0
ENDBLK
  5
21
330
1F
100
AcDbEntity
  8
0
100
AcDbBlockEnd
  0
BLOCK
  5
1C
330
1B
100
AcDbEntity
 67
     1
  8
0
100
AcDbBlockBegin
  2
*Paper_Space
 70
     0
 71
     0
 10
0.0
 20
0.0
 30
0.0
  3
*Paper_Space
  1

  0
ENDBLK
  5
1D
330
1B
100
AcDbEntity
 67
     1
  8
0
100
AcDbBlockEnd
  0
BLOCK
  5
24
330
23
100
AcDbEntity
  8
0
100
AcDbBlockBegin
  2
*Paper_Space0
 70
     0
 71
     0
 10
0.0
 20
0.0
 30
0.0
  3
*Paper_Space0
  1

  0
ENDBLK
  5
25
330
23
100
AcDbEntity
  8
0
100
AcDbBlockEnd
  0
BLOCK
  5
C3
330
C2
100
AcDbEntity
  8
0
100
AcDbBlockBegin
  2
POLY1
 70
     0
 71
     0
 10
0.0
 20
0.0
 30
0.0
  3
POLY1
  1

  4
POLY1
  0
LINE
  5
C5
330
C2
100
AcDbEntity
  8
LC-002-100-D00-0
 62
     7
370
    50
100
AcDbLine
 10
147.255306
 20
311.217866
 30
0.0
 11
147.255306
 21
311.217866
 31
0.0
  0
LINE
  5
C6
330
C2
100
AcDbEntity
  8
LC-002-100-D00-0
 62
     7
370
    50
100
AcDbLine
 10
147.255306
 20
311.217866
 30
0.0
 11
147.223552
 21
311.147922
 31
0.0
  0
LINE
  5
C7
330
C2
100
AcDbEntity
  8
LC-002-100-D00-0
 62
     7
370
    50
100
AcDbLine
 10
147.223552
 20
311.147922
 30
0.0
 11
147.223552
 21
311.147922
 31
0.0
  0
LINE
  5
C8
330
C2
100
AcDbEntity
  8
LC-002-100-D00-0
 62
     7
370
    50
100
AcDbLine
 10
147.223552
 20
311.147922
 30
0.0
 11
147.16467
 21
311.018224
 31
0.0
  0
LINE
  5
C9
330
C2
100
AcDbEntity
  8
LC-002-100-D00-0
 62
     7
370
    50
100
AcDbLine
 10
147.16467
 20
311.018224
 30
0.0
 11
147.16467
 21
311.018224
 31
0.0
  0
LINE
  5
CA
330
C2
100
AcDbEntity
  8
LC-002-100-D00-0
 62
     7
370
    50
100
AcDbLine
 10
147.16467
 20
311.018224
 30
0.0
 11
146.734989
 21
310.047997
 31
0.0
  0
LINE
  5
CB
330
C2
100
AcDbEntity
  8
LC-002-100-D00-0
 62
     7
370
    50
100
AcDbLine
 10
146.734989
 20
310.047997
 30
0.0
 11
146.734989
 21
310.047997
 31
0.0
  0
LINE
  5
CC
330
C2
100
AcDbEntity
  8
LC-002-100-D00-0
 62
     7
370
    50
100
AcDbLine
 10
146.734989
 20
310.047997
 30
0.0
 11
146.143311
 21
308.652119
 31
0.0
  0
LINE
  5
CD
330
C2
100
AcDbEntity
  8
LC-002-100-D00-0
 62
     7
370
    50
100
AcDbLine
 10
146.143311
 20
308.652119
 30
0.0
 11
146.143311
 21
308.652119
 31
0.0
  0
LINE
  5
CE
330
C2
100
AcDbEntity
  8
LC-002-100-D00-0
 62
     7
370
    50
100
AcDbLine
 10
146.143311
 20
308.652119
 30
0.0
 11
145.381042
 21
306.729265
 31
0.0
  0
LINE
  5
CF
330
C2
100
AcDbEntity
  8
LC-002-100-D00-0
 62
     7
370
    50
100
AcDbLine
 10
145.381042
 20
306.729265
 30
0.0
 11
145.381042
 21
306.729265
 31
0.0
  0
LINE
  5
D0
330
C2
100
AcDbEntity
  8
LC-002-100-D00-0
 62
     7
370
    50
100
AcDbLine
 10
145.381042
 20
306.729265
 30
0.0
 11
144.506728
 21
304.290545
 31
0.0
  0
LINE
  5
D1
330
C2
100
AcDbEntity
  8
LC-002-100-D00-0
 62
     7
370
    50
100
AcDbLine
 10
144.506728
 20
304.290545
 30
0.0
 11
144.506728
 21
304.290545
 31
0.0
  0
LINE
  5
D2
330
C2
100
AcDbEntity
  8
LC-002-100-D00-0
 62
     7
370
    50
100
AcDbLine
 10
144.506728
 20
304.290545
 30
0.0
 11
143.591666
 21
301.330111
 31
0.0
  0
LINE
  5
D3
330
C2
100
AcDbEntity
  8
LC-002-100-D00-0
 62
     7
370
    50
100
AcDbLine
 10
143.591666
 20
301.330111
 30
0.0
 11
143.591666
 21
301.330111
 31
0.0
  0
LINE
  5
D4
330
C2
100
AcDbEntity
  8
LC-002-100-D00-0
 62
     7
370
    50
100
AcDbLine
 10
143.591666
 20
301.330111
 30
0.0
 11
142.75282
 21
297.920857
 31
0.0
  0
LINE
  5
D5
330
C2
100
AcDbEntity
  8
LC-002-100-D00-0
 62
     7
370
    50
100
AcDbLine
 10
142.75282
 20
297.920857
 30
0.0
 11
142.75282
 21
297.920857
 31
0.0
  0
LINE
  5
D6
330
C2
100
AcDbEntity
  8
LC-002-100-D00-0
 62
     7
370
    50
100
AcDbLine
 10
142.75282
 20
297.920857
 30
0.0
 11
142.105091
 21
294.148588
 31
0.0
  0
LINE
  5
D7
330
C2
100
AcDbEntity
  8
LC-002-100-D00-0
 62
     7
370
    50
100
AcDbLine
 10
142.105091
 20
294.148588
 30
0.0
 11
142.105091
 21
294.148588
 31
0.0
  0
LINE
  5
D8
330
C2
100
AcDbEntity
  8
LC-002-100-D00-0
 62
     7
370
    50
100
AcDbLine
 10
142.105091
 20
294.148588
 30
0.0
 11
141.816719
 21
290.861319
 31
0.0
  0
LINE
  5
D9
330
C2
100
AcDbEntity
  8
LC-002-100-D00-0
 62
     7
370
    50
100
AcDbLine
 10
141.816719
 20
290.861319
 30
0.0
 11
141.816719
 21
290.861319
 31
0.0
  0
LINE
  5
DA
330
C2
100
AcDbEntity
  8
LC-002-100-D00-0
 62
     7
370
    50
100
AcDbLine
 10
141.816719
 20
290.861319
 30
0.0
 11
141.749197
 21
287.658387
 31
0.0
  0
LINE
  5
DB
330
C2
100
AcDbEntity
  8
LC-002-100-D00-0
 62
     7
370
    50
100
AcDbLine
 10
141.749197
 20
287.658387
 30
0.0
 11
141.749197
 21
287.658387
 31
0.0
  0
LINE
  5
DC
330
C2
100
AcDbEntity
  8
LC-002-100-D00-0
 62
     7
370
    50
100
AcDbLine
 10
141.749197
 20
287.658387
 30
0.0
 11
141.871872
 21
284.581728
 31
0.0
  0
LINE
  5
DD
330
C2
100
AcDbEntity
  8
LC-002-100-D00-0
 62
     7
370
    50
100
AcDbLine
 10
141.871872
 20
284.581728
 30
0.0
 11
141.871872
 21
284.581728
 31
0.0
  0
LINE
  5
DE
330
C2
100
AcDbEntity
  8
LC-002-100-D00-0
 62
     7
370
    50
100
AcDbLine
 10
141.871872
 20
284.581728
 30
0.0
 11
142.292416
 21
281.056525
 31
0.0
  0
LINE
  5
DF
330
C2
100
AcDbEntity
  8
LC-002-100-D00-0
 62
     7
370
    50
100
AcDbLine
 10
142.292416
 20
281.056525
 30
0.0
 11
142.292416
 21
281.056525
 31
0.0
  0
LINE
  5
E0
330
C2
100
AcDbEntity
  8
LC-002-100-D00-0
 62
     7
370
    50
100
AcDbLine
 10
142.292416
 20
281.056525
 30
0.0
 11
142.935291
 21
277.721169
 31
0.0
  0
LINE
  5
E1
330
C2
100
AcDbEntity
  8
LC-002-100-D00-0
 62
     7
370
    50
100
AcDbLine
 10
142.935291
 20
277.721169
 30
0.0
 11
142.935291
 21
277.721169
 31
0.0
  0
LINE
  5
E2
330
C2
100
AcDbEntity
  8
LC-002-100-D00-0
 62
     7
370
    50
100
AcDbLine
 10
142.935291
 20
277.721169
 30
0.0
 11
143.808629
 21
274.314337
 31
0.0
  0
LINE
  5
E3
330
C2
100
AcDbEntity
  8
LC-002-100-D00-0
 62
     7
370
    50
100
AcDbLine
 10
143.808629
 20
274.314337
 30
0.0
 11
143.808629
 21
274.314337
 31
0.0
  0
LINE
  5
E4
330
C2
100
AcDbEntity
  8
LC-002-100-D00-0
 62
     7
370
    50
100
AcDbLine
 10
143.808629
 20
274.314337
 30
0.0
 11
144.472756
 21
272.331252
 31
0.0
  0
LINE
  5
E5
330
C2
100
AcDbEntity
  8
LC-002-100-D00-0
 62
     7
370
    50
100
AcDbLine
 10
144.472756
 20
272.331252
 30
0.0
 11
144.472756
 21
272.331252
 31
0.0
  0
LINE
  5
E6
330
C2
100
AcDbEntity
  8
LC-002-100-D00-0
 62
     7
370
    50
100
AcDbLine
 10
144.472756
 20
272.331252
 30
0.0
 11
144.849968
 21
271.204896
 31
0.0
  0
ENDBLK
  5
C4
330
C2
100
AcDbEntity
  8
0
100
AcDbBlockEnd
  0
BLOCK
  5
E9
330
E8
100
AcDbEntity
  8
0
100
AcDbBlockBegin
  2
POLY2
 70
     0
 71
     0
 10
0.0
 20
0.0
 30
0.0
  3
POLY2
  1

  4
POLY2
  0
LINE
  5
EB
330
E8
100
AcDbEntity
  8
LC-002-100-D00-0
 62
     7
370
    50
100
AcDbLine
 10
144.849968
 20
271.204896
 30
0.0
 11
144.849968
 21
271.204896
 31
0.0
  0
LINE
  5
EC
330
E8
100
AcDbEntity
  8
LC-002-100-D00-0
 62
     7
370
    50
100
AcDbLine
 10
144.849968
 20
271.204896
 30
0.0
 11
145.070586
 21
270.593203
 31
0.0
  0
LINE
  5
ED
330
E8
100
AcDbEntity
  8
LC-002-100-D00-0
 62
     7
370
    50
100
AcDbLine
 10
145.070586
 20
270.593203
 30
0.0
 11
145.070586
 21
270.593203
 31
0.0
  0
LINE
  5
EE
330
E8
100
AcDbEntity
  8
LC-002-100-D00-0
 62
     7
370
    50
100
AcDbLine
 10
145.070586
 20
270.593203
 30
0.0
 11
145.595232
 21
269.138558
 31
0.0
  0
LINE
  5
EF
330
E8
100
AcDbEntity
  8
LC-002-100-D00-0
 62
     7
370
    50
100
AcDbLine
 10
145.595232
 20
269.138558
 30
0.0
 11
145.595232
 21
269.138558
 31
0.0
  0
LINE
  5
F0
330
E8
100
AcDbEntity
  8
LC-002-100-D00-0
 62
     7
370
    50
100
AcDbLine
 10
145.595232
 20
269.138558
 30
0.0
 11
146.33622
 21
267.319693
 31
0.0
  0
LINE
  5
F1
330
E8
100
AcDbEntity
  8
LC-002-100-D00-0
 62
     7
370
    50
100
AcDbLine
 10
146.33622
 20
267.319693
 30
0.0
 11
146.33622
 21
267.319693
 31
0.0
  0
LINE
  5
F2
330
E8
100
AcDbEntity
  8
LC-002-100-D00-0
 62
     7
370
    50
100
AcDbLine
 10
146.33622
 20
267.319693
 30
0.0
 11
146.889416
 21
266.035259
 31
0.0
  0
LINE
  5
F3
330
E8
100
AcDbEntity
  8
LC-002-100-D00-0
 62
     7
370
    50
100
AcDbLine
 10
146.889416
 20
266.035259
 30
0.0
 11
146.889416
 21
266.035259
 31
0.0
  0
LINE
  5
F4
330
E8
100
AcDbEntity
  8
LC-002-100-D00-0
 62
     7
370
    50
100
AcDbLine
 10
146.889416
 20
266.035259
 30
0.0
 11
147.201625
 21
265.336619
 31
0.0
  0
LINE
  5
F5
330
E8
100
AcDbEntity
  8
LC-002-100-D00-0
 62
     7
370
    50
100
AcDbLine
 10
147.201625
 20
265.336619
 30
0.0
 11
147.201625
 21
265.336619
 31
0.0
  0
LINE
  5
F6
330
E8
100
AcDbEntity
  8
LC-002-100-D00-0
 62
     7
370
    50
100
AcDbLine
 10
147.201625
 20
265.336619
 30
0.0
 11
147.23729
 21
265.25772
 31
0.0
  0
LINE
  5
F7
330
E8
100
AcDbEntity
  8
LC-002-100-D00-0
 62
     7
370
    50
100
AcDbLine
 10
147.23729
 20
265.25772
 30
0.0
 11
147.23729
 21
265.25772
 31
0.0
  0
LINE
  5
F8
330
E8
100
AcDbEntity
  8
LC-002-100-D00-0
 62
     7
370
    50
100
AcDbLine
 10
147.23729
 20
265.25772
 30
0.0
 11
147.255306
 21
265.217864
 31
0.0
  0
ENDBLK
  5
EA
330
E8
100
AcDbEntity
  8
0
100
AcDbBlockEnd
  0
BLOCK
  5
131
330
130
100
AcDbEntity
  8
0
100
AcDbBlockBegin
  2
KLON1
 70
     0
 71
     0
 10
0.0
 20
0.0
 30
0.0
  3
KLON1
  1

  4
KLON1
  0
LINE
  5
133
330
130
100
AcDbEntity
  8
LC-002-100-D00-0
 62
     7
370
    15
100
AcDbLine
 10
127.005306
 20
267.883827
 30
0.0
 11
126.866068
 21
267.902159
 31
0.0
  0
LINE
  5
134
330
130
100
AcDbEntity
  8
LC-002-100-D00-0
 62
     7
370
    15
100
AcDbLine
 10
126.866068
 20
267.902159
 30
0.0
 11
126.755306
 21
267.916742
 31
0.0
  0
ENDBLK
  5
132
330
130
100
AcDbEntity
  8
0
100
AcDbBlockEnd
  0
BLOCK
  5
137
330
136
100
AcDbEntity
  8
0
100
AcDbBlockBegin
  2
KLON2
 70
     0
 71
     0
 10
0.0
 20
0.0
 30
0.0
  3
KLON2
  1

  4
KLON2
  0
LINE
  5
139
330
136
100
AcDbEntity
  8
LC-002-100-D00-0
 62
     7
370
    15
100
AcDbLine
 10
65.755305
 20
275.947544
 30
0.0
 11
65.644544
 21
275.962125
 31
0.0
  0
LINE
  5
13A
330
136
100
AcDbEntity
  8
LC-002-100-D00-0
 62
     7
370
    15
100
AcDbLine
 10
65.644544
 20
275.962125
 30
0.0
 11
65.505308
 21
275.980457
 31
0.0
  0
ENDBLK
  5
138
330
136
100
AcDbEntity
  8
0
100
AcDbBlockEnd
  0
BLOCK
  5
18C
330
18B
100
AcDbEntity
  8
0
100
AcDbBlockBegin
  2
POLY3
 70
     0
 71
     0
 10
0.0
 20
0.0
 30
0.0
  3
POLY3
  1

  4
POLY3
  0
LINE
  5
18E
330
18B
100
AcDbEntity
  8
LC-002-100-D00-0
 62
     7
370
    50
100
AcDbLine
 10
132.130088
 20
326.517864
 30
0.0
 11
132.130088
 21
326.517864
 31
0.0
  0
LINE
  5
18F
330
18B
100
AcDbEntity
  8
LC-002-100-D00-0
 62
     7
370
    50
100
AcDbLine
 10
132.130088
 20
326.517864
 30
0.0
 11
130.464903
 21
323.164434
 31
0.0
  0
LINE
  5
190
330
18B
100
AcDbEntity
  8
LC-002-100-D00-0
 62
     7
370
    50
100
AcDbLine
 10
130.464903
 20
323.164434
 30
0.0
 11
130.464903
 21
323.164434
 31
0.0
  0
LINE
  5
191
330
18B
100
AcDbEntity
  8
LC-002-100-D00-0
 62
     7
370
    50
100
AcDbLine
 10
130.464903
 20
323.164434
 30
0.0
 11
128.295292
 21
318.795166
 31
0.0
  0
LINE
  5
192
330
18B
100
AcDbEntity
  8
LC-002-100-D00-0
 62
     7
370
    50
100
AcDbLine
 10
128.295292
 20
318.795166
 30
0.0
 11
128.295292
 21
318.795166
 31
0.0
  0
LINE
  5
193
330
18B
100
AcDbEntity
  8
LC-002-100-D00-0
 62
     7
370
    50
100
AcDbLine
 10
128.295292
 20
318.795166
 30
0.0
 11
126.123351
 21
314.427056
 31
0.0
  0
LINE
  5
194
330
18B
100
AcDbEntity
  8
LC-002-100-D00-0
 62
     7
370
    50
100
AcDbLine
 10
126.123351
 20
314.427056
 30
0.0
 11
126.123351
 21
314.427056
 31
0.0
  0
LINE
  5
195
330
18B
100
AcDbEntity
  8
LC-002-100-D00-0
 62
     7
370
    50
100
AcDbLine
 10
126.123351
 20
314.427056
 30
0.0
 11
125.618384
 21
313.411488
 31
0.0
  0
ENDBLK
  5
18D
330
18B
100
AcDbEntity
  8
0
100
AcDbBlockEnd
  0
BLOCK
  5
19A
330
199
100
AcDbEntity
  8
0
100
AcDbBlockBegin
  2
POLY4
 70
     0
 71
     0
 10
0.0
 20
0.0
 30
0.0
  3
POLY4
  1

  4
POLY4
  0
LINE
  5
19C
330
199
100
AcDbEntity
  8
LC-002-100-D00-0
 62
     7
370
    50
100
AcDbLine
 10
66.89223
 20
313.411488
 30
0.0
 11
66.89223
 21
313.411488
 31
0.0
  0
LINE
  5
19D
330
199
100
AcDbEntity
  8
LC-002-100-D00-0
 62
     7
370
    50
100
AcDbLine
 10
66.89223
 20
313.411488
 30
0.0
 11
66.387262
 21
314.427056
 31
0.0
  0
LINE
  5
19E
330
199
100
AcDbEntity
  8
LC-002-100-D00-0
 62
     7
370
    50
100
AcDbLine
 10
66.387262
 20
314.427056
 30
0.0
 11
66.387262
 21
314.427056
 31
0.0
  0
LINE
  5
19F
330
199
100
AcDbEntity
  8
LC-002-100-D00-0
 62
     7
370
    50
100
AcDbLine
 10
66.387262
 20
314.427056
 30
0.0
 11
64.215319
 21
318.795166
 31
0.0
  0
LINE
  5
1A0
330
199
100
AcDbEntity
  8
LC-002-100-D00-0
 62
     7
370
    50
100
AcDbLine
 10
64.215319
 20
318.795166
 30
0.0
 11
64.215319
 21
318.795166
 31
0.0
  0
LINE
  5
1A1
330
199
100
AcDbEntity
  8
LC-002-100-D00-0
 62
     7
370
    50
100
AcDbLine
 10
64.215319
 20
318.795166
 30
0.0
 11
62.045708
 21
323.164434
 31
0.0
  0
LINE
  5
1A2
330
199
100
AcDbEntity
  8
LC-002-100-D00-0
 62
     7
370
    50
100
AcDbLine
 10
62.045708
 20
323.164434
 30
0.0
 11
62.045708
 21
323.164434
 31
0.0
  0
LINE
  5
1A3
330
199
100
AcDbEntity
  8
LC-002-100-D00-0
 62
     7
370
    50
100
AcDbLine
 10
62.045708
 20
323.164434
 30
0.0
 11
60.380523
 21
326.517864
 31
0.0
  0
ENDBLK
  5
19B
330
199
100
AcDbEntity
  8
0
100
AcDbBlockEnd
  0
BLOCK
  5
1D8
330
1D7
100
AcDbEntity
  8
0
100
AcDbBlockBegin
  2
KLON3
 70
     0
 71
     0
 10
0.0
 20
0.0
 30
0.0
  3
KLON3
  1

  4
KLON3
  0
LINE
  5
1DA
330
1D7
100
AcDbEntity
  8
LC-002-100-D00-0
 62
     7
370
    25
100
AcDbLine
 10
138.155306
 20
322.250555
 30
0.0
 11
142.122616
 21
326.217865
 31
0.0
  0
LINE
  5
1DB
330
1D7
100
AcDbEntity
  8
LC-002-100-D00-0
 62
     7
370
    25
100
AcDbLine
 10
138.155306
 20
317.760425
 30
0.0
 11
141.755306
 21
321.360425
 31
0.0
  0
LINE
  5
1DC
330
1D7
100
AcDbEntity
  8
LC-002-100-D00-0
 62
     7
370
    25
100
AcDbLine
 10
143.612746
 20
323.217865
 30
0.0
 11
148.612746
 21
328.217865
 31
0.0
  0
LINE
  5
1DD
330
1D7
100
AcDbEntity
  8
LC-002-100-D00-0
 62
     7
370
    25
100
AcDbLine
 10
138.155306
 20
313.270285
 30
0.0
 11
141.755306
 21
316.870285
 31
0.0
  0
LINE
  5
1DE
330
1D7
100
AcDbEntity
  8
LC-002-100-D00-0
 62
     7
370
    25
100
AcDbLine
 10
145.598322
 20
320.713301
 30
0.0
 11
150.255306
 21
325.370285
 31
0.0
  0
ENDBLK
  5
1D9
330
1D7
100
AcDbEntity
  8
0
100
AcDbBlockEnd
  0
BLOCK
  5
1E1
330
1E0
100
AcDbEntity
  8
0
100
AcDbBlockBegin
  2
KLON4
 70
     0
 71
     0
 10
0.0
 20
0.0
 30
0.0
  3
KLON4
  1

  4
KLON4
  0
LINE
  5
1E3
330
1E0
100
AcDbEntity
  8
LC-002-100-D00-0
 62
     7
370
    25
100
AcDbLine
 10
50.755306
 20
320.16299
 30
0.0
 11
54.355306
 21
323.76299
 31
0.0
  0
LINE
  5
1E4
330
1E0
100
AcDbEntity
  8
LC-002-100-D00-0
 62
     7
370
    25
100
AcDbLine
 10
50.755306
 20
315.67286
 30
0.0
 11
54.355306
 21
319.27286
 31
0.0
  0
LINE
  5
1E5
330
1E0
100
AcDbEntity
  8
LC-002-100-D00-0
 62
     7
370
    25
100
AcDbLine
 10
50.790441
 20
311.217865
 30
0.0
 11
54.355306
 21
314.78273
 31
0.0
  0
LINE
  5
1E6
330
1E0
100
AcDbEntity
  8
LC-002-100-D00-0
 62
     7
370
    25
100
AcDbLine
 10
37.755306
 20
320.633358
 30
0.0
 11
41.339813
 21
324.217865
 31
0.0
  0
LINE
  5
1E7
330
1E0
100
AcDbEntity
  8
LC-002-100-D00-0
 62
     7
370
    25
100
AcDbLine
 10
42.255306
 20
325.133358
 30
0.0
 11
45.339813
 21
328.217865
 31
0.0
  0
ENDBLK
  5
1E2
330
1E0
100
AcDbEntity
  8
0
100
AcDbBlockEnd
  0
BLOCK
  5
1EA
330
1E9
100
AcDbEntity
  8
0
100
AcDbBlockBegin
  2
KLON5
 70
     0
 71
     0
 10
0.0
 20
0.0
 30
0.0
  3
KLON5
  1

  4
KLON5
  0
LINE
  5
1EC
330
1E9
100
AcDbEntity
  8
LC-002-100-D00-0
 62
     7
370
    25
100
AcDbLine
 10
122.968872
 20
253.182586
 30
0.0
 11
124.590585
 21
254.804299
 31
0.0
  0
LINE
  5
1ED
330
1E9
100
AcDbEntity
  8
LC-002-100-D00-0
 62
     7
370
    25
100
AcDbLine
 10
116.314023
 20
251.017865
 30
0.0
 11
117.890116
 21
252.593958
 31
0.0
  0
LINE
  5
1EE
330
1E9
100
AcDbEntity
  8
LC-002-100-D00-0
 62
     7
370
    25
100
AcDbLine
 10
125.179213
 20
259.883055
 30
0.0
 11
126.755306
 21
261.459148
 31
0.0
  0
LINE
  5
1EF
330
1E9
100
AcDbEntity
  8
LC-002-100-D00-0
 62
     7
370
    25
100
AcDbLine
 10
111.823895
 20
251.017865
 30
0.0
 11
113.323895
 21
252.517865
 31
0.0
  0
LINE
  5
1F0
330
1E9
100
AcDbEntity
  8
LC-002-100-D00-0
 62
     7
370
    25
100
AcDbLine
 10
125.255306
 20
264.449276
 30
0.0
 11
126.755306
 21
265.949276
 31
0.0
  0
LINE
  5
1F1
330
1E9
100
AcDbEntity
  8
LC-002-100-D00-0
 62
     7
370
    25
100
AcDbLine
 10
107.333767
 20
251.017865
 30
0.0
 11
108.833767
 21
252.517865
 31
0.0
  0
LINE
  5
1F2
330
1E9
100
AcDbEntity
  8
LC-002-100-D00-0
 62
     7
370
    25
100
AcDbLine
 10
125.255306
 20
268.939404
 30
0.0
 11
126.755306
 21
270.439404
 31
0.0
  0
LINE
  5
1F3
330
1E9
100
AcDbEntity
  8
LC-002-100-D00-0
 62
     7
370
    25
100
AcDbLine
 10
102.843639
 20
251.017865
 30
0.0
 11
104.343639
 21
252.517865
 31
0.0
  0
LINE
  5
1F4
330
1E9
100
AcDbEntity
  8
LC-002-100-D00-0
 62
     7
370
    25
100
AcDbLine
 10
125.255306
 20
273.429532
 30
0.0
 11
126.755306
 21
274.929532
 31
0.0
  0
LINE
  5
1F5
330
1E9
100
AcDbEntity
  8
LC-002-100-D00-0
 62
     7
370
    25
100
AcDbLine
 10
98.353511
 20
251.017865
 30
0.0
 11
99.853511
 21
252.517865
 31
0.0
  0
LINE
  5
1F6
330
1E9
100
AcDbEntity
  8
LC-002-100-D00-0
 62
     7
370
    25
100
AcDbLine
 10
125.255306
 20
277.91966
 30
0.0
 11
126.755306
 21
279.41966
 31
0.0
  0
LINE
  5
1F7
330
1E9
100
AcDbEntity
  8
LC-002-100-D00-0
 62
     7
370
    25
100
AcDbLine
 10
93.863383
 20
251.017865
 30
0.0
 11
95.363383
 21
252.517865
 31
0.0
  0
LINE
  5
1F8
330
1E9
100
AcDbEntity
  8
LC-002-100-D00-0
 62
     7
370
    25
100
AcDbLine
 10
125.255306
 20
282.409788
 30
0.0
 11
126.755306
 21
283.909788
 31
0.0
  0
LINE
  5
1F9
330
1E9
100
AcDbEntity
  8
LC-002-100-D00-0
 62
     7
370
    25
100
AcDbLine
 10
89.373255
 20
251.017865
 30
0.0
 11
90.873255
 21
252.517865
 31
0.0
  0
LINE
  5
1FA
330
1E9
100
AcDbEntity
  8
LC-002-100-D00-0
 62
     7
370
    25
100
AcDbLine
 10
125.255306
 20
286.899916
 30
0.0
 11
126.755306
 21
288.399916
 31
0.0
  0
LINE
  5
1FB
330
1E9
100
AcDbEntity
  8
LC-002-100-D00-0
 62
     7
370
    25
100
AcDbLine
 10
84.883127
 20
251.017865
 30
0.0
 11
86.383127
 21
252.517865
 31
0.0
  0
LINE
  5
1FC
330
1E9
100
AcDbEntity
  8
LC-002-100-D00-0
 62
     7
370
    25
100
AcDbLine
 10
125.255306
 20
291.390044
 30
0.0
 11
126.755306
 21
292.890044
 31
0.0
  0
LINE
  5
1FD
330
1E9
100
AcDbEntity
  8
LC-002-100-D00-0
 62
     7
370
    25
100
AcDbLine
 10
80.392999
 20
251.017865
 30
0.0
 11
81.892999
 21
252.517865
 31
0.0
  0
LINE
  5
1FE
330
1E9
100
AcDbEntity
  8
LC-002-100-D00-0
 62
     7
370
    25
100
AcDbLine
 10
125.255306
 20
295.880172
 30
0.0
 11
126.755306
 21
297.380172
 31
0.0
  0
LINE
  5
1FF
330
1E9
100
AcDbEntity
  8
LC-002-100-D00-0
 62
     7
370
    25
100
AcDbLine
 10
75.902871
 20
251.017865
 30
0.0
 11
77.402871
 21
252.517865
 31
0.0
  0
LINE
  5
200
330
1E9
100
AcDbEntity
  8
LC-002-100-D00-0
 62
     7
370
    25
100
AcDbLine
 10
125.255306
 20
300.3703
 30
0.0
 11
126.755306
 21
301.8703
 31
0.0
  0
LINE
  5
201
330
1E9
100
AcDbEntity
  8
LC-002-100-D00-0
 62
     7
370
    25
100
AcDbLine
 10
72.103411
 20
251.708533
 30
0.0
 11
73.280879
 21
252.886001
 31
0.0
  0
LINE
  5
202
330
1E9
100
AcDbEntity
  8
LC-002-100-D00-0
 62
     7
370
    25
100
AcDbLine
 10
125.255306
 20
304.860428
 30
0.0
 11
126.755306
 21
306.360428
 31
0.0
  0
LINE
  5
203
330
1E9
100
AcDbEntity
  8
LC-002-100-D00-0
 62
     7
370
    25
100
AcDbLine
 10
69.292021
 20
253.387272
 30
0.0
 11
70.356958
 21
254.452209
 31
0.0
  0
LINE
  5
204
330
1E9
100
AcDbEntity
  8
LC-002-100-D00-0
 62
     7
370
    25
100
AcDbLine
 10
125.255306
 20
309.350557
 30
0.0
 11
126.755306
 21
310.850557
 31
0.0
  0
LINE
  5
205
330
1E9
100
AcDbEntity
  8
LC-002-100-D00-0
 62
     7
370
    25
100
AcDbLine
 10
67.220781
 20
255.806159
 30
0.0
 11
68.317676
 21
256.903055
 31
0.0
  0
LINE
  5
206
330
1E9
100
AcDbEntity
  8
LC-002-100-D00-0
 62
     7
370
    25
100
AcDbLine
 10
126.69664
 20
315.282018
 30
0.0
 11
130.00876
 21
318.594139
 31
0.0
  0
LINE
  5
207
330
1E9
100
AcDbEntity
  8
LC-002-100-D00-0
 62
     7
370
    25
100
AcDbLine
 10
65.954813
 20
259.03032
 30
0.0
 11
67.281069
 21
260.356575
 31
0.0
  0
LINE
  5
208
330
1E9
100
AcDbEntity
  8
LC-002-100-D00-0
 62
     7
370
    25
100
AcDbLine
 10
131.093034
 20
324.168541
 30
0.0
 11
133.755306
 21
326.830813
 31
0.0
  0
LINE
  5
209
330
1E9
100
AcDbEntity
  8
LC-002-100-D00-0
 62
     7
370
    25
100
AcDbLine
 10
135.442358
 20
328.517865
 30
0.0
 11
136.005306
 21
329.080813
 31
0.0
  0
LINE
  5
20A
330
1E9
100
AcDbEntity
  8
LC-002-100-D00-0
 62
     7
370
    25
100
AcDbLine
 10
65.755306
 20
263.320941
 30
0.0
 11
67.255306
 21
264.820941
 31
0.0
  0
LINE
  5
20B
330
1E9
100
AcDbEntity
  8
LC-002-100-D00-0
 62
     7
370
    25
100
AcDbLine
 10
132.255306
 20
329.820941
 30
0.0
 11
132.45223
 21
330.017865
 31
0.0
  0
LINE
  5
20C
330
1E9
100
AcDbEntity
  8
LC-002-100-D00-0
 62
     7
370
    25
100
AcDbLine
 10
65.755306
 20
267.811069
 30
0.0
 11
67.255306
 21
269.311069
 31
0.0
  0
LINE
  5
20D
330
1E9
100
AcDbEntity
  8
LC-002-100-D00-0
 62
     7
370
    25
100
AcDbLine
 10
65.755306
 20
272.301197
 30
0.0
 11
67.255306
 21
273.801197
 31
0.0
  0
LINE
  5
20E
330
1E9
100
AcDbEntity
  8
LC-002-100-D00-0
 62
     7
370
    25
100
AcDbLine
 10
65.755306
 20
276.791325
 30
0.0
 11
67.255306
 21
278.291325
 31
0.0
  0
LINE
  5
20F
330
1E9
100
AcDbEntity
  8
LC-002-100-D00-0
 62
     7
370
    25
100
AcDbLine
 10
65.755306
 20
281.281453
 30
0.0
 11
67.255306
 21
282.781453
 31
0.0
  0
LINE
  5
210
330
1E9
100
AcDbEntity
  8
LC-002-100-D00-0
 62
     7
370
    25
100
AcDbLine
 10
65.755306
 20
285.771581
 30
0.0
 11
67.255306
 21
287.271581
 31
0.0
  0
LINE
  5
211
330
1E9
100
AcDbEntity
  8
LC-002-100-D00-0
 62
     7
370
    25
100
AcDbLine
 10
65.755306
 20
290.261709
 30
0.0
 11
67.255306
 21
291.761709
 31
0.0
  0
LINE
  5
212
330
1E9
100
AcDbEntity
  8
LC-002-100-D00-0
 62
     7
370
    25
100
AcDbLine
 10
65.755306
 20
294.751837
 30
0.0
 11
67.255306
 21
296.251837
 31
0.0
  0
LINE
  5
213
330
1E9
100
AcDbEntity
  8
LC-002-100-D00-0
 62
     7
370
    25
100
AcDbLine
 10
65.755306
 20
299.241965
 30
0.0
 11
67.255306
 21
300.741965
 31
0.0
  0
LINE
  5
214
330
1E9
100
AcDbEntity
  8
LC-002-100-D00-0
 62
     7
370
    25
100
AcDbLine
 10
65.755306
 20
303.732093
 30
0.0
 11
67.255306
 21
305.232093
 31
0.0
  0
LINE
  5
215
330
1E9
100
AcDbEntity
  8
LC-002-100-D00-0
 62
     7
370
    25
100
AcDbLine
 10
65.755306
 20
308.222221
 30
0.0
 11
67.255306
 21
309.722221
 31
0.0
  0
LINE
  5
216
330
1E9
100
AcDbEntity
  8
LC-002-100-D00-0
 62
     7
370
    25
100
AcDbLine
 10
65.525445
 20
312.482488
 30
0.0
 11
66.645067
 21
313.60211
 31
0.0
  0
LINE
  5
217
330
1E9
100
AcDbEntity
  8
LC-002-100-D00-0
 62
     7
370
    25
100
AcDbLine
 10
64.039297
 20
315.486469
 30
0.0
 11
65.158919
 21
316.606091
 31
0.0
  0
LINE
  5
218
330
1E9
100
AcDbEntity
  8
LC-002-100-D00-0
 62
     7
370
    25
100
AcDbLine
 10
62.55315
 20
318.490449
 30
0.0
 11
63.672772
 21
319.610071
 31
0.0
  0
LINE
  5
219
330
1E9
100
AcDbEntity
  8
LC-002-100-D00-0
 62
     7
370
    25
100
AcDbLine
 10
61.067002
 20
321.49443
 30
0.0
 11
62.186624
 21
322.614052
 31
0.0
  0
LINE
  5
21A
330
1E9
100
AcDbEntity
  8
LC-002-100-D00-0
 62
     7
370
    25
100
AcDbLine
 10
59.580855
 20
324.49841
 30
0.0
 11
60.700477
 21
325.618032
 31
0.0
  0
LINE
  5
21B
330
1E9
100
AcDbEntity
  8
LC-002-100-D00-0
 62
     7
370
    25
100
AcDbLine
 10
58.755306
 20
328.16299
 30
0.0
 11
60.255306
 21
329.66299
 31
0.0
  0
ENDBLK
  5
1EB
330
1E9
100
AcDbEntity
  8
0
100
AcDbBlockEnd
  0
BLOCK
  5
21E
330
21D
100
AcDbEntity
  8
0
100
AcDbBlockBegin
  2
KLON6
 70
     0
 71
     0
 10
0.0
 20
0.0
 30
0.0
  3
KLON6
  1

  4
KLON6
  0
LINE
  5
220
330
21D
100
AcDbEntity
  8
LC-002-100-D00-0
 62
     7
370
    25
100
AcDbLine
 10
78.255306
 20
298.915451
 30
0.0
 11
77.255306
 21
299.915451
 31
0.0
  0
LINE
  5
221
330
21D
100
AcDbEntity
  8
LC-002-100-D00-0
 62
     7
370
    25
100
AcDbLine
 10
78.255306
 20
271.974683
 30
0.0
 11
77.255306
 21
272.974683
 31
0.0
  0
LINE
  5
222
330
21D
100
AcDbEntity
  8
LC-002-100-D00-0
 62
     7
370
    25
100
AcDbLine
 10
78.255306
 20
303.405581
 30
0.0
 11
77.255306
 21
304.405581
 31
0.0
  0
LINE
  5
223
330
21D
100
AcDbEntity
  8
LC-002-100-D00-0
 62
     7
370
    25
100
AcDbLine
 10
78.255306
 20
276.464813
 30
0.0
 11
77.255306
 21
277.464813
 31
0.0
  0
LINE
  5
224
330
21D
100
AcDbEntity
  8
LC-002-100-D00-0
 62
     7
370
    25
100
AcDbLine
 10
78.255306
 20
307.895711
 30
0.0
 11
77.255306
 21
308.895711
 31
0.0
  0
LINE
  5
225
330
21D
100
AcDbEntity
  8
LC-002-100-D00-0
 62
     7
370
    25
100
AcDbLine
 10
78.255306
 20
280.954943
 30
0.0
 11
77.255306
 21
281.954943
 31
0.0
  0
LINE
  5
226
330
21D
100
AcDbEntity
  8
LC-002-100-D00-0
 62
     7
370
    25
100
AcDbLine
 10
78.255306
 20
312.385851
 30
0.0
 11
77.255306
 21
313.385851
 31
0.0
  0
LINE
  5
227
330
21D
100
AcDbEntity
  8
LC-002-100-D00-0
 62
     7
370
    25
100
AcDbLine
 10
64.123292
 20
326.517865
 30
0.0
 11
60.755306
 21
329.885851
 31
0.0
  0
LINE
  5
228
330
21D
100
AcDbEntity
  8
LC-002-100-D00-0
 62
     7
370
    25
100
AcDbLine
 10
60.623292
 20
330.017865
 30
0.0
 11
58.255306
 21
332.385851
 31
0.0
  0
LINE
  5
229
330
21D
100
AcDbEntity
  8
LC-002-100-D00-0
 62
     7
370
    25
100
AcDbLine
 10
78.255306
 20
285.445083
 30
0.0
 11
77.255306
 21
286.445083
 31
0.0
  0
ENDBLK
  5
21F
330
21D
100
AcDbEntity
  8
0
100
AcDbBlockEnd
  0
BLOCK
  5
22C
330
22B
100
AcDbEntity
  8
0
100
AcDbBlockBegin
  2
KLON7
 70
     0
 71
     0
 10
0.0
 20
0.0
 30
0.0
  3
KLON7
  1

  4
KLON7
  0
LINE
  5
22E
330
22B
100
AcDbEntity
  8
LC-002-100-D00-0
 62
     7
370
    25
100
AcDbLine
 10
131.475197
 20
326.517865
 30
0.0
 11
129.723889
 21
328.269173
 31
0.0
  0
LINE
  5
22F
330
22B
100
AcDbEntity
  8
LC-002-100-D00-0
 62
     7
370
    25
100
AcDbLine
 10
115.258761
 20
315.793533
 30
0.0
 11
114.317201
 21
316.735093
 31
0.0
  0
LINE
  5
230
330
22B
100
AcDbEntity
  8
LC-002-100-D00-0
 62
     7
370
    25
100
AcDbLine
 10
115.255306
 20
288.856219
 30
0.0
 11
114.255306
 21
289.856219
 31
0.0
  0
LINE
  5
231
330
22B
100
AcDbEntity
  8
LC-002-100-D00-0
 62
     7
370
    25
100
AcDbLine
 10
132.465327
 20
330.017865
 30
0.0
 11
129.755306
 21
332.727886
 31
0.0
  0
LINE
  5
232
330
22B
100
AcDbEntity
  8
LC-002-100-D00-0
 62
     7
370
    25
100
AcDbLine
 10
116.01291
 20
319.529514
 30
0.0
 11
115.247249
 21
320.295174
 31
0.0
  0
LINE
  5
233
330
22B
100
AcDbEntity
  8
LC-002-100-D00-0
 62
     7
370
    25
100
AcDbLine
 10
115.255306
 20
293.346349
 30
0.0
 11
114.255306
 21
294.346349
 31
0.0
  0
LINE
  5
234
330
22B
100
AcDbEntity
  8
LC-002-100-D00-0
 62
     7
370
    25
100
AcDbLine
 10
115.255306
 20
266.405581
 30
0.0
 11
114.255306
 21
267.405581
 31
0.0
  0
LINE
  5
235
330
22B
100
AcDbEntity
  8
LC-002-100-D00-0
 62
     7
370
    25
100
AcDbLine
 10
135.755306
 20
331.218016
 30
0.0
 11
135.255457
 21
331.717865
 31
0.0
  0
LINE
  5
236
330
22B
100
AcDbEntity
  8
LC-002-100-D00-0
 62
     7
370
    25
100
AcDbLine
 10
134.255306
 20
332.718016
 30
0.0
 11
130.735182
 21
336.23814
 31
0.0
  0
LINE
  5
237
330
22B
100
AcDbEntity
  8
LC-002-100-D00-0
 62
     7
370
    25
100
AcDbLine
 10
117.655666
 20
322.376888
 30
0.0
 11
116.944467
 21
323.088087
 31
0.0
  0
LINE
  5
238
330
22B
100
AcDbEntity
  8
LC-002-100-D00-0
 62
     7
370
    25
100
AcDbLine
 10
115.255306
 20
297.836479
 30
0.0
 11
114.255306
 21
298.836479
 31
0.0
  0
LINE
  5
239
330
22B
100
AcDbEntity
  8
LC-002-100-D00-0
 62
     7
370
    25
100
AcDbLine
 10
115.255306
 20
270.895711
 30
0.0
 11
114.255306
 21
271.895711
 31
0.0
  0
LINE
  5
23A
330
22B
100
AcDbEntity
  8
LC-002-100-D00-0
 62
     7
370
    25
100
AcDbLine
 10
136.005306
 20
335.458156
 30
0.0
 11
134.945597
 21
336.517865
 31
0.0
  0
LINE
  5
23B
330
22B
100
AcDbEntity
  8
LC-002-100-D00-0
 62
     7
370
    25
100
AcDbLine
 10
119.974349
 20
324.548345
 30
0.0
 11
119.256894
 21
325.2658
 31
0.0
  0
LINE
  5
23C
330
22B
100
AcDbEntity
  8
LC-002-100-D00-0
 62
     7
370
    25
100
AcDbLine
 10
115.255306
 20
302.326619
 30
0.0
 11
114.255306
 21
303.326619
 31
0.0
  0
LINE
  5
23D
330
22B
100
AcDbEntity
  8
LC-002-100-D00-0
 62
     7
370
    25
100
AcDbLine
 10
115.255306
 20
275.385851
 30
0.0
 11
114.255306
 21
276.385851
 31
0.0
  0
ENDBLK
  5
22D
330
22B
100
AcDbEntity
  8
0
100
AcDbBlockEnd
  0
BLOCK
  5
241
330
240
100
AcDbEntity
  8
0
100
AcDbBlockBegin
  2
KLON8
 70
     0
 71
     0
 10
0.0
 20
0.0
 30
0.0
  3
KLON8
  1

  4
KLON8
  0
LINE
  5
243
330
240
100
AcDbEntity
  8
LC-002-100-D00-0
 62
     7
370
    25
100
AcDbLine
 10
194.474535
 20
311.217865
 30
0.0
 11
197.967887
 21
314.711217
 31
0.0
  0
LINE
  5
244
330
240
100
AcDbEntity
  8
LC-002-100-D00-0
 62
     7
370
    25
100
AcDbLine
 10
189.984407
 20
311.217865
 30
0.0
 11
192.134407
 21
313.367865
 31
0.0
  0
LINE
  5
245
330
240
100
AcDbEntity
  8
LC-002-100-D00-0
 62
     7
370
    25
100
AcDbLine
 10
185.494279
 20
311.217865
 30
0.0
 11
190.755306
 21
316.478892
 31
0.0
  0
LINE
  5
246
330
240
100
AcDbEntity
  8
LC-002-100-D00-0
 62
     7
370
    25
100
AcDbLine
 10
181.004151
 20
311.217865
 30
0.0
 11
187.515841
 21
317.729555
 31
0.0
  0
LINE
  5
247
330
240
100
AcDbEntity
  8
LC-002-100-D00-0
 62
     7
370
    25
100
AcDbLine
 10
176.514023
 20
311.217865
 30
0.0
 11
183.124478
 21
317.82832
 31
0.0
  0
LINE
  5
248
330
240
100
AcDbEntity
  8
LC-002-100-D00-0
 62
     7
370
    25
100
AcDbLine
 10
172.023895
 20
311.217865
 30
0.0
 11
177.892287
 21
317.086257
 31
0.0
  0
LINE
  5
249
330
240
100
AcDbEntity
  8
LC-002-100-D00-0
 62
     7
370
    25
100
AcDbLine
 10
167.533767
 20
311.217865
 30
0.0
 11
176.255306
 21
319.939404
 31
0.0
  0
LINE
  5
24A
330
240
100
AcDbEntity
  8
LC-002-100-D00-0
 62
     7
370
    25
100
AcDbLine
 10
163.043639
 20
311.217865
 30
0.0
 11
166.043639
 21
314.217865
 31
0.0
  0
LINE
  5
24B
330
240
100
AcDbEntity
  8
LC-002-100-D00-0
 62
     7
370
    25
100
AcDbLine
 10
166.755306
 20
314.929532
 30
0.0
 11
169.74236
 21
317.916586
 31
0.0
  0
LINE
  5
24C
330
240
100
AcDbEntity
  8
LC-002-100-D00-0
 62
     7
370
    25
100
AcDbLine
 10
158.553511
 20
311.217865
 30
0.0
 11
161.553511
 21
314.217865
 31
0.0
  0
LINE
  5
24D
330
240
100
AcDbEntity
  8
LC-002-100-D00-0
 62
     7
370
    25
100
AcDbLine
 10
154.063383
 20
311.217865
 30
0.0
 11
157.063383
 21
314.217865
 31
0.0
  0
LINE
  5
24E
330
240
100
AcDbEntity
  8
LC-002-100-D00-0
 62
     7
370
    25
100
AcDbLine
 10
149.573255
 20
311.217865
 30
0.0
 11
152.573255
 21
314.217865
 31
0.0
  0
LINE
  5
24F
330
240
100
AcDbEntity
  8
LC-002-100-D00-0
 62
     7
370
    25
100
AcDbLine
 10
147.255306
 20
313.390044
 30
0.0
 11
150.255306
 21
316.390044
 31
0.0
  0
LINE
  5
250
330
240
100
AcDbEntity
  8
LC-002-100-D00-0
 62
     7
370
    25
100
AcDbLine
 10
147.82715
 20
318.452017
 30
0.0
 11
150.237344
 21
320.86221
 31
0.0
  0
ENDBLK
  5
242
330
240
100
AcDbEntity
  8
0
100
AcDbBlockEnd
  0
BLOCK
  5
253
330
252
100
AcDbEntity
  8
0
100
AcDbBlockBegin
  2
KLON9
 70
     0
 71
     0
 10
0.0
 20
0.0
 30
0.0
  3
KLON9
  1

  4
KLON9
  0
LINE
  5
255
330
252
100
AcDbEntity
  8
LC-002-100-D00-0
 62
     7
370
    25
100
AcDbLine
 10
199.96355
 20
262.825343
 30
0.0
 11
200.206549
 21
263.068342
 31
0.0
  0
LINE
  5
256
330
252
100
AcDbEntity
  8
LC-002-100-D00-0
 62
     7
370
    25
100
AcDbLine
 10
195.253866
 20
262.605787
 30
0.0
 11
197.187456
 21
264.539377
 31
0.0
  0
LINE
  5
257
330
252
100
AcDbEntity
  8
LC-002-100-D00-0
 62
     7
370
    25
100
AcDbLine
 10
188.798739
 20
260.640788
 30
0.0
 11
190.756232
 21
262.598281
 31
0.0
  0
LINE
  5
258
330
252
100
AcDbEntity
  8
LC-002-100-D00-0
 62
     7
370
    25
100
AcDbLine
 10
191.22489
 20
263.066939
 30
0.0
 11
193.375816
 21
265.217865
 31
0.0
  0
LINE
  5
259
330
252
100
AcDbEntity
  8
LC-002-100-D00-0
 62
     7
370
    25
100
AcDbLine
 10
184.30441
 20
260.636587
 30
0.0
 11
188.885688
 21
265.217865
 31
0.0
  0
LINE
  5
25A
330
252
100
AcDbEntity
  8
LC-002-100-D00-0
 62
     7
370
    25
100
AcDbLine
 10
179.810082
 20
260.632387
 30
0.0
 11
184.39556
 21
265.217865
 31
0.0
  0
LINE
  5
25B
330
252
100
AcDbEntity
  8
LC-002-100-D00-0
 62
     7
370
    25
100
AcDbLine
 10
175.315754
 20
260.628187
 30
0.0
 11
179.905432
 21
265.217865
 31
0.0
  0
LINE
  5
25C
330
252
100
AcDbEntity
  8
LC-002-100-D00-0
 62
     7
370
    25
100
AcDbLine
 10
171.730587
 20
261.533148
 30
0.0
 11
175.415304
 21
265.217865
 31
0.0
  0
LINE
  5
25D
330
252
100
AcDbEntity
  8
LC-002-100-D00-0
 62
     7
370
    25
100
AcDbLine
 10
166.755306
 20
261.047995
 30
0.0
 11
170.925176
 21
265.217865
 31
0.0
  0
LINE
  5
25E
330
252
100
AcDbEntity
  8
LC-002-100-D00-0
 62
     7
370
    25
100
AcDbLine
 10
163.435048
 20
262.217865
 30
0.0
 11
166.435048
 21
265.217865
 31
0.0
  0
LINE
  5
25F
330
252
100
AcDbEntity
  8
LC-002-100-D00-0
 62
     7
370
    25
100
AcDbLine
 10
158.94492
 20
262.217865
 30
0.0
 11
161.94492
 21
265.217865
 31
0.0
  0
LINE
  5
260
330
252
100
AcDbEntity
  8
LC-002-100-D00-0
 62
     7
370
    25
100
AcDbLine
 10
154.454791
 20
262.217865
 30
0.0
 11
157.454791
 21
265.217865
 31
0.0
  0
LINE
  5
261
330
252
100
AcDbEntity
  8
LC-002-100-D00-0
 62
     7
370
    25
100
AcDbLine
 10
149.964663
 20
262.217865
 30
0.0
 11
152.964663
 21
265.217865
 31
0.0
  0
LINE
  5
262
330
252
100
AcDbEntity
  8
LC-002-100-D00-0
 62
     7
370
    25
100
AcDbLine
 10
145.658829
 20
262.402158
 30
0.0
 11
148.474535
 21
265.217865
 31
0.0
  0
LINE
  5
263
330
252
100
AcDbEntity
  8
LC-002-100-D00-0
 62
     7
370
    25
100
AcDbLine
 10
141.691066
 20
262.924524
 30
0.0
 11
144.364932
 21
265.59839
 31
0.0
  0
LINE
  5
264
330
252
100
AcDbEntity
  8
LC-002-100-D00-0
 62
     7
370
    25
100
AcDbLine
 10
125.009982
 20
250.733568
 30
0.0
 11
126.989603
 21
252.713189
 31
0.0
  0
LINE
  5
265
330
252
100
AcDbEntity
  8
LC-002-100-D00-0
 62
     7
370
    25
100
AcDbLine
 10
137.723304
 20
263.44689
 30
0.0
 11
140.39717
 21
266.120756
 31
0.0
  0
LINE
  5
266
330
252
100
AcDbEntity
  8
LC-002-100-D00-0
 62
     7
370
    25
100
AcDbLine
 10
117.544183
 20
247.757897
 30
0.0
 11
122.151334
 21
252.365048
 31
0.0
  0
LINE
  5
267
330
252
100
AcDbEntity
  8
LC-002-100-D00-0
 62
     7
370
    25
100
AcDbLine
 10
125.358123
 20
255.571837
 30
0.0
 11
129.965274
 21
260.178988
 31
0.0
  0
LINE
  5
268
330
252
100
AcDbEntity
  8
LC-002-100-D00-0
 62
     7
370
    25
100
AcDbLine
 10
133.755542
 20
263.969256
 30
0.0
 11
136.429408
 21
266.643121
 31
0.0
  0
LINE
  5
269
330
252
100
AcDbEntity
  8
LC-002-100-D00-0
 62
     7
370
    25
100
AcDbLine
 10
113.014023
 20
247.717865
 30
0.0
 11
116.014023
 21
250.717865
 31
0.0
  0
LINE
  5
26A
330
252
100
AcDbEntity
  8
LC-002-100-D00-0
 62
     7
370
    25
100
AcDbLine
 10
127.005306
 20
261.709148
 30
0.0
 11
132.461645
 21
267.165487
 31
0.0
  0
LINE
  5
26B
330
252
100
AcDbEntity
  8
LC-002-100-D00-0
 62
     7
370
    25
100
AcDbLine
 10
108.523895
 20
247.717865
 30
0.0
 11
111.523895
 21
250.717865
 31
0.0
  0
LINE
  5
26C
330
252
100
AcDbEntity
  8
LC-002-100-D00-0
 62
     7
370
    25
100
AcDbLine
 10
127.005306
 20
266.199276
 30
0.0
 11
128.493883
 21
267.687853
 31
0.0
  0
LINE
  5
26D
330
252
100
AcDbEntity
  8
LC-002-100-D00-0
 62
     7
370
    25
100
AcDbLine
 10
104.033767
 20
247.717865
 30
0.0
 11
107.033767
 21
250.717865
 31
0.0
  0
LINE
  5
26E
330
252
100
AcDbEntity
  8
LC-002-100-D00-0
 62
     7
370
    25
100
AcDbLine
 10
99.543639
 20
247.717865
 30
0.0
 11
102.543639
 21
250.717865
 31
0.0
  0
LINE
  5
26F
330
252
100
AcDbEntity
  8
LC-002-100-D00-0
 62
     7
370
    25
100
AcDbLine
 10
95.053511
 20
247.717865
 30
0.0
 11
98.053511
 21
250.717865
 31
0.0
  0
LINE
  5
270
330
252
100
AcDbEntity
  8
LC-002-100-D00-0
 62
     7
370
    25
100
AcDbLine
 10
90.563383
 20
247.717865
 30
0.0
 11
93.563383
 21
250.717865
 31
0.0
  0
LINE
  5
271
330
252
100
AcDbEntity
  8
LC-002-100-D00-0
 62
     7
370
    25
100
AcDbLine
 10
86.073255
 20
247.717865
 30
0.0
 11
89.073255
 21
250.717865
 31
0.0
  0
LINE
  5
272
330
252
100
AcDbEntity
  8
LC-002-100-D00-0
 62
     7
370
    25
100
AcDbLine
 10
81.583127
 20
247.717865
 30
0.0
 11
84.583127
 21
250.717865
 31
0.0
  0
LINE
  5
273
330
252
100
AcDbEntity
  8
LC-002-100-D00-0
 62
     7
370
    25
100
AcDbLine
 10
77.092999
 20
247.717865
 30
0.0
 11
80.092999
 21
250.717865
 31
0.0
  0
LINE
  5
274
330
252
100
AcDbEntity
  8
LC-002-100-D00-0
 62
     7
370
    25
100
AcDbLine
 10
72.952558
 20
248.067552
 30
0.0
 11
75.610303
 21
250.725297
 31
0.0
  0
LINE
  5
275
330
252
100
AcDbEntity
  8
LC-002-100-D00-0
 62
     7
370
    25
100
AcDbLine
 10
69.684104
 20
249.289227
 30
0.0
 11
71.934131
 21
251.539253
 31
0.0
  0
LINE
  5
276
330
252
100
AcDbEntity
  8
LC-002-100-D00-0
 62
     7
370
    25
100
AcDbLine
 10
67.03438
 20
251.12963
 30
0.0
 11
69.160386
 21
253.255637
 31
0.0
  0
LINE
  5
277
330
252
100
AcDbEntity
  8
LC-002-100-D00-0
 62
     7
370
    25
100
AcDbLine
 10
64.923098
 20
253.508477
 30
0.0
 11
67.088335
 21
255.673713
 31
0.0
  0
LINE
  5
278
330
252
100
AcDbEntity
  8
LC-002-100-D00-0
 62
     7
370
    25
100
AcDbLine
 10
63.375067
 20
256.450574
 30
0.0
 11
65.775538
 21
258.851044
 31
0.0
  0
LINE
  5
279
330
252
100
AcDbEntity
  8
LC-002-100-D00-0
 62
     7
370
    25
100
AcDbLine
 10
62.550349
 20
260.115984
 30
0.0
 11
65.505306
 21
263.070941
 31
0.0
  0
LINE
  5
27A
330
252
100
AcDbEntity
  8
LC-002-100-D00-0
 62
     7
370
    25
100
AcDbLine
 10
62.505306
 20
264.561069
 30
0.0
 11
65.505306
 21
267.561069
 31
0.0
  0
LINE
  5
27B
330
252
100
AcDbEntity
  8
LC-002-100-D00-0
 62
     7
370
    25
100
AcDbLine
 10
62.505306
 20
269.051197
 30
0.0
 11
65.505306
 21
272.051197
 31
0.0
  0
LINE
  5
27C
330
252
100
AcDbEntity
  8
LC-002-100-D00-0
 62
     7
370
    25
100
AcDbLine
 10
62.335821
 20
273.37184
 30
0.0
 11
65.009687
 21
276.045706
 31
0.0
  0
LINE
  5
27D
330
252
100
AcDbEntity
  8
LC-002-100-D00-0
 62
     7
370
    25
100
AcDbLine
 10
58.368059
 20
273.894206
 30
0.0
 11
61.041925
 21
276.568072
 31
0.0
  0
LINE
  5
27E
330
252
100
AcDbEntity
  8
LC-002-100-D00-0
 62
     7
370
    25
100
AcDbLine
 10
54.400297
 20
274.416572
 30
0.0
 11
57.074163
 21
277.090438
 31
0.0
  0
LINE
  5
27F
330
252
100
AcDbEntity
  8
LC-002-100-D00-0
 62
     7
370
    25
100
AcDbLine
 10
50.432535
 20
274.938938
 30
0.0
 11
53.1064
 21
277.612803
 31
0.0
  0
LINE
  5
280
330
252
100
AcDbEntity
  8
LC-002-100-D00-0
 62
     7
370
    25
100
AcDbLine
 10
46.813162
 20
275.809693
 30
0.0
 11
49.15691
 21
278.153441
 31
0.0
  0
LINE
  5
281
330
252
100
AcDbEntity
  8
LC-002-100-D00-0
 62
     7
370
    25
100
AcDbLine
 10
44.254291
 20
277.74095
 30
0.0
 11
46.382342
 21
279.869001
 31
0.0
  0
LINE
  5
282
330
252
100
AcDbEntity
  8
LC-002-100-D00-0
 62
     7
370
    25
100
AcDbLine
 10
42.631173
 20
280.60796
 30
0.0
 11
45.255306
 21
283.232093
 31
0.0
  0
LINE
  5
283
330
252
100
AcDbEntity
  8
LC-002-100-D00-0
 62
     7
370
    25
100
AcDbLine
 10
42.255306
 20
284.722221
 30
0.0
 11
45.255306
 21
287.722221
 31
0.0
  0
LINE
  5
284
330
252
100
AcDbEntity
  8
LC-002-100-D00-0
 62
     7
370
    25
100
AcDbLine
 10
42.255306
 20
289.212349
 30
0.0
 11
45.255306
 21
292.212349
 31
0.0
  0
LINE
  5
285
330
252
100
AcDbEntity
  8
LC-002-100-D00-0
 62
     7
370
    25
100
AcDbLine
 10
42.255306
 20
293.702477
 30
0.0
 11
45.255306
 21
296.702477
 31
0.0
  0
LINE
  5
286
330
252
100
AcDbEntity
  8
LC-002-100-D00-0
 62
     7
370
    25
100
AcDbLine
 10
42.255306
 20
298.192606
 30
0.0
 11
45.255306
 21
301.192606
 31
0.0
  0
LINE
  5
287
330
252
100
AcDbEntity
  8
LC-002-100-D00-0
 62
     7
370
    25
100
AcDbLine
 10
42.255306
 20
302.682734
 30
0.0
 11
45.255306
 21
305.682734
 31
0.0
  0
LINE
  5
288
330
252
100
AcDbEntity
  8
LC-002-100-D00-0
 62
     7
370
    25
100
AcDbLine
 10
42.255306
 20
307.172862
 30
0.0
 11
45.255306
 21
310.172862
 31
0.0
  0
LINE
  5
289
330
252
100
AcDbEntity
  8
LC-002-100-D00-0
 62
     7
370
    25
100
AcDbLine
 10
42.255306
 20
311.66299
 30
0.0
 11
45.255306
 21
314.66299
 31
0.0
  0
LINE
  5
28A
330
252
100
AcDbEntity
  8
LC-002-100-D00-0
 62
     7
370
    25
100
AcDbLine
 10
42.255306
 20
316.153118
 30
0.0
 11
44.656147
 21
318.553958
 31
0.0
  0
LINE
  5
28B
330
252
100
AcDbEntity
  8
LC-002-100-D00-0
 62
     7
370
    25
100
AcDbLine
 10
42.255306
 20
320.643246
 30
0.0
 11
42.748844
 21
321.136784
 31
0.0
  0
ENDBLK
  5
254
330
252
100
AcDbEntity
  8
0
100
AcDbBlockEnd
  0
BLOCK
  5
28E
330
28D
100
AcDbEntity
  8
0
100
AcDbBlockBegin
  2
KLON10
 70
     0
 71
     0
 10
0.0
 20
0.0
 30
0.0
  3
KLON10
  1

  4
KLON10
  0
LINE
  5
290
330
28D
100
AcDbEntity
  8
LC-002-100-D00-0
 62
     7
370
    25
100
AcDbLine
 10
275.597502
 20
263.217865
 30
0.0
 11
273.347502
 21
265.467865
 31
0.0
  0
LINE
  5
291
330
28D
100
AcDbEntity
  8
LC-002-100-D00-0
 62
     7
370
    25
100
AcDbLine
 10
248.656734
 20
263.217865
 30
0.0
 11
246.406734
 21
265.467865
 31
0.0
  0
LINE
  5
292
330
28D
100
AcDbEntity
  8
LC-002-100-D00-0
 62
     7
370
    25
100
AcDbLine
 10
221.715966
 20
263.217865
 30
0.0
 11
219.465966
 21
265.467865
 31
0.0
  0
LINE
  5
293
330
28D
100
AcDbEntity
  8
LC-002-100-D00-0
 62
     7
370
    25
100
AcDbLine
 10
197.344288
 20
260.648774
 30
0.0
 11
196.733793
 21
261.25927
 31
0.0
  0
LINE
  5
294
330
28D
100
AcDbEntity
  8
LC-002-100-D00-0
 62
     7
370
    25
100
AcDbLine
 10
280.087632
 20
263.217865
 30
0.0
 11
277.837632
 21
265.467865
 31
0.0
  0
LINE
  5
295
330
28D
100
AcDbEntity
  8
LC-002-100-D00-0
 62
     7
370
    25
100
AcDbLine
 10
253.146864
 20
263.217865
 30
0.0
 11
250.896864
 21
265.467865
 31
0.0
  0
LINE
  5
296
330
28D
100
AcDbEntity
  8
LC-002-100-D00-0
 62
     7
370
    25
100
AcDbLine
 10
226.206096
 20
263.217865
 30
0.0
 11
223.956096
 21
265.467865
 31
0.0
  0
LINE
  5
297
330
28D
100
AcDbEntity
  8
LC-002-100-D00-0
 62
     7
370
    25
100
AcDbLine
 10
201.521452
 20
260.96174
 30
0.0
 11
199.699796
 21
262.783396
 31
0.0
  0
LINE
  5
298
330
28D
100
AcDbEntity
  8
LC-002-100-D00-0
 62
     7
370
    25
100
AcDbLine
 10
284.577762
 20
263.217865
 30
0.0
 11
282.327762
 21
265.467865
 31
0.0
  0
LINE
  5
299
330
28D
100
AcDbEntity
  8
LC-002-100-D00-0
 62
     7
370
    25
100
AcDbLine
 10
257.636994
 20
263.217865
 30
0.0
 11
255.386994
 21
265.467865
 31
0.0
  0
LINE
  5
29A
330
28D
100
AcDbEntity
  8
LC-002-100-D00-0
 62
     7
370
    25
100
AcDbLine
 10
230.696226
 20
263.217865
 30
0.0
 11
228.446226
 21
265.467865
 31
0.0
  0
LINE
  5
29B
330
28D
100
AcDbEntity
  8
LC-002-100-D00-0
 62
     7
370
    25
100
AcDbLine
 10
204.183053
 20
262.790269
 30
0.0
 11
202.398188
 21
264.575134
 31
0.0
  0
LINE
  5
29C
330
28D
100
AcDbEntity
  8
LC-002-100-D00-0
 62
     7
370
    25
100
AcDbLine
 10
288.790518
 20
263.495249
 30
0.0
 11
286.817902
 21
265.467865
 31
0.0
  0
LINE
  5
29D
330
28D
100
AcDbEntity
  8
LC-002-100-D00-0
 62
     7
370
    25
100
AcDbLine
 10
262.127134
 20
263.217865
 30
0.0
 11
259.877134
 21
265.467865
 31
0.0
  0
LINE
  5
29E
330
28D
100
AcDbEntity
  8
LC-002-100-D00-0
 62
     7
370
    25
100
AcDbLine
 10
235.186366
 20
263.217865
 30
0.0
 11
232.936366
 21
265.467865
 31
0.0
  0
LINE
  5
29F
330
28D
100
AcDbEntity
  8
LC-002-100-D00-0
 62
     7
370
    25
100
AcDbLine
 10
208.245597
 20
263.217865
 30
0.0
 11
205.995597
 21
265.467865
 31
0.0
  0
ENDBLK
  5
28F
330
28D
100
AcDbEntity
  8
0
100
AcDbBlockEnd
  0
BLOCK
  5
2A2
330
2A1
100
AcDbEntity
  8
0
100
AcDbBlockBegin
  2
KLON11
 70
     0
 71
     0
 10
0.0
 20
0.0
 30
0.0
  3
KLON11
  1

  4
KLON11
  0
LINE
  5
2A4
330
2A1
100
AcDbEntity
  8
LC-002-100-D00-0
 62
     7
370
    25
100
AcDbLine
 10
281.729039
 20
310.967865
 30
0.0
 11
279.479039
 21
313.217865
 31
0.0
  0
LINE
  5
2A5
330
2A1
100
AcDbEntity
  8
LC-002-100-D00-0
 62
     7
370
    25
100
AcDbLine
 10
254.788271
 20
310.967865
 30
0.0
 11
252.538271
 21
313.217865
 31
0.0
  0
LINE
  5
2A6
330
2A1
100
AcDbEntity
  8
LC-002-100-D00-0
 62
     7
370
    25
100
AcDbLine
 10
227.847502
 20
310.967865
 30
0.0
 11
225.597502
 21
313.217865
 31
0.0
  0
LINE
  5
2A7
330
2A1
100
AcDbEntity
  8
LC-002-100-D00-0
 62
     7
370
    25
100
AcDbLine
 10
196.669792
 20
315.204806
 30
0.0
 11
192.644458
 21
319.230141
 31
0.0
  0
LINE
  5
2A8
330
2A1
100
AcDbEntity
  8
LC-002-100-D00-0
 62
     7
370
    25
100
AcDbLine
 10
286.219169
 20
310.967865
 30
0.0
 11
283.969169
 21
313.217865
 31
0.0
  0
LINE
  5
2A9
330
2A1
100
AcDbEntity
  8
LC-002-100-D00-0
 62
     7
370
    25
100
AcDbLine
 10
259.278401
 20
310.967865
 30
0.0
 11
257.028401
 21
313.217865
 31
0.0
  0
LINE
  5
2AA
330
2A1
100
AcDbEntity
  8
LC-002-100-D00-0
 62
     7
370
    25
100
AcDbLine
 10
232.337632
 20
310.967865
 30
0.0
 11
230.087632
 21
313.217865
 31
0.0
  0
LINE
  5
2AB
330
2A1
100
AcDbEntity
  8
LC-002-100-D00-0
 62
     7
370
    25
100
AcDbLine
 10
205.396864
 20
310.967865
 30
0.0
 11
200.025108
 21
316.339621
 31
0.0
  0
LINE
  5
2AC
330
2A1
100
AcDbEntity
  8
LC-002-100-D00-0
 62
     7
370
    25
100
AcDbLine
 10
290.709299
 20
310.967865
 30
0.0
 11
288.716978
 21
312.960186
 31
0.0
  0
LINE
  5
2AD
330
2A1
100
AcDbEntity
  8
LC-002-100-D00-0
 62
     7
370
    25
100
AcDbLine
 10
263.768531
 20
310.967865
 30
0.0
 11
261.518531
 21
313.217865
 31
0.0
  0
LINE
  5
2AE
330
2A1
100
AcDbEntity
  8
LC-002-100-D00-0
 62
     7
370
    25
100
AcDbLine
 10
236.827762
 20
310.967865
 30
0.0
 11
234.577762
 21
313.217865
 31
0.0
  0
LINE
  5
2AF
330
2A1
100
AcDbEntity
  8
LC-002-100-D00-0
 62
     7
370
    25
100
AcDbLine
 10
209.886994
 20
310.967865
 30
0.0
 11
207.636994
 21
313.217865
 31
0.0
  0
LINE
  5
2B0
330
2A1
100
AcDbEntity
  8
LC-002-100-D00-0
 62
     7
370
    25
100
AcDbLine
 10
177.124088
 20
316.790002
 30
0.0
 11
176.263953
 21
317.650138
 31
0.0
  0
LINE
  5
2B1
330
2A1
100
AcDbEntity
  8
LC-002-100-D00-0
 62
     7
370
    25
100
AcDbLine
 10
268.258671
 20
310.967865
 30
0.0
 11
266.008671
 21
313.217865
 31
0.0
  0
LINE
  5
2B2
330
2A1
100
AcDbEntity
  8
LC-002-100-D00-0
 62
     7
370
    25
100
AcDbLine
 10
241.317902
 20
310.967865
 30
0.0
 11
239.067902
 21
313.217865
 31
0.0
  0
LINE
  5
2B3
330
2A1
100
AcDbEntity
  8
LC-002-100-D00-0
 62
     7
370
    25
100
AcDbLine
 10
214.377134
 20
310.967865
 30
0.0
 11
212.127134
 21
313.217865
 31
0.0
  0
LINE
  5
2B4
330
2A1
100
AcDbEntity
  8
LC-002-100-D00-0
 62
     7
370
    25
100
AcDbLine
 10
180.934805
 20
317.469425
 30
0.0
 11
178.186366
 21
320.217865
 31
0.0
  0
ENDBLK
  5
2A3
330
2A1
100
AcDbEntity
  8
0
100
AcDbBlockEnd
  0
BLOCK
  5
2BA
330
2B9
100
AcDbEntity
  8
0
100
AcDbBlockBegin
  2
KLON12
 70
     0
 71
     0
 10
0.0
 20
0.0
 30
0.0
  3
KLON12
  1

  4
KLON12
  0
LINE
  5
2BC
330
2B9
100
AcDbEntity
  8
LC-002-100-D00-0
 62
     7
370
    25
100
AcDbLine
 10
152.255306
 20
332.678524
 30
0.0
 11
150.985636
 21
333.948195
 31
0.0
  0
LINE
  5
2BD
330
2B9
100
AcDbEntity
  8
LC-002-100-D00-0
 62
     7
370
    25
100
AcDbLine
 10
144.745597
 20
326.717865
 30
0.0
 11
143.255306
 21
328.208156
 31
0.0
  0
ENDBLK
  5
2BB
330
2B9
100
AcDbEntity
  8
0
100
AcDbBlockEnd
  0
BLOCK
  5
2C0
330
2BF
100
AcDbEntity
  8
0
100
AcDbBlockBegin
  2
KLON13
 70
     0
 71
     0
 10
0.0
 20
0.0
 30
0.0
  3
KLON13
  1

  4
KLON13
  0
LINE
  5
2C2
330
2BF
100
AcDbEntity
  8
LC-002-100-D00-0
 62
     7
370
    25
100
AcDbLine
 10
54.248192
 20
292.224979
 30
0.0
 11
56.255306
 21
294.232093
 31
0.0
  0
LINE
  5
2C3
330
2BF
100
AcDbEntity
  8
LC-002-100-D00-0
 62
     7
370
    25
100
AcDbLine
 10
53.255306
 20
295.722221
 30
0.0
 11
56.255306
 21
298.722221
 31
0.0
  0
LINE
  5
2C4
330
2BF
100
AcDbEntity
  8
LC-002-100-D00-0
 62
     7
370
    25
100
AcDbLine
 10
53.255306
 20
300.212349
 30
0.0
 11
56.255306
 21
303.212349
 31
0.0
  0
LINE
  5
2C5
330
2BF
100
AcDbEntity
  8
LC-002-100-D00-0
 62
     7
370
    25
100
AcDbLine
 10
53.255306
 20
304.702477
 30
0.0
 11
56.255306
 21
307.702477
 31
0.0
  0
LINE
  5
2C6
330
2BF
100
AcDbEntity
  8
LC-002-100-D00-0
 62
     7
370
    25
100
AcDbLine
 10
53.255306
 20
309.192606
 30
0.0
 11
56.255306
 21
312.192606
 31
0.0
  0
LINE
  5
2C7
330
2BF
100
AcDbEntity
  8
LC-002-100-D00-0
 62
     7
370
    25
100
AcDbLine
 10
53.255306
 20
313.682734
 30
0.0
 11
56.255306
 21
316.682734
 31
0.0
  0
LINE
  5
2C8
330
2BF
100
AcDbEntity
  8
LC-002-100-D00-0
 62
     7
370
    25
100
AcDbLine
 10
53.255306
 20
318.172862
 30
0.0
 11
56.255306
 21
321.172862
 31
0.0
  0
LINE
  5
2C9
330
2BF
100
AcDbEntity
  8
LC-002-100-D00-0
 62
     7
370
    25
100
AcDbLine
 10
53.255306
 20
322.66299
 30
0.0
 11
56.255306
 21
325.66299
 31
0.0
  0
LINE
  5
2CA
330
2BF
100
AcDbEntity
  8
LC-002-100-D00-0
 62
     7
370
    25
100
AcDbLine
 10
53.255306
 20
327.153118
 30
0.0
 11
56.255306
 21
330.153118
 31
0.0
  0
LINE
  5
2CB
330
2BF
100
AcDbEntity
  8
LC-002-100-D00-0
 62
     7
370
    25
100
AcDbLine
 10
53.255306
 20
331.643246
 30
0.0
 11
56.255306
 21
334.643246
 31
0.0
  0
LINE
  5
2CC
330
2BF
100
AcDbEntity
  8
LC-002-100-D00-0
 62
     7
370
    25
100
AcDbLine
 10
51.339791
 20
334.217859
 30
0.0
 11
53.839797
 21
336.717865
 31
0.0
  0
LINE
  5
2CD
330
2BF
100
AcDbEntity
  8
LC-002-100-D00-0
 62
     7
370
    25
100
AcDbLine
 10
46.849663
 20
334.217859
 30
0.0
 11
49.148226
 21
336.516422
 31
0.0
  0
LINE
  5
2CE
330
2BF
100
AcDbEntity
  8
LC-002-100-D00-0
 62
     7
370
    25
100
AcDbLine
 10
42.359535
 20
334.217859
 30
0.0
 11
43.904103
 21
335.762427
 31
0.0
  0
ENDBLK
  5
2C1
330
2BF
100
AcDbEntity
  8
0
100
AcDbBlockEnd
  0
BLOCK
  5
2D1
330
2D0
100
AcDbEntity
  8
0
100
AcDbBlockBegin
  2
KLON14
 70
     0
 71
     0
 10
0.0
 20
0.0
 30
0.0
  3
KLON14
  1

  4
KLON14
  0
LINE
  5
2D3
330
2D0
100
AcDbEntity
  8
LC-002-100-D00-0
 62
     7
370
    25
100
AcDbLine
 10
136.255306
 20
293.409788
 30
0.0
 11
139.255306
 21
296.409788
 31
0.0
  0
LINE
  5
2D4
330
2D0
100
AcDbEntity
  8
LC-002-100-D00-0
 62
     7
370
    25
100
AcDbLine
 10
136.255306
 20
297.899916
 30
0.0
 11
139.255306
 21
300.899916
 31
0.0
  0
LINE
  5
2D5
330
2D0
100
AcDbEntity
  8
LC-002-100-D00-0
 62
     7
370
    25
100
AcDbLine
 10
136.255306
 20
302.390044
 30
0.0
 11
139.255306
 21
305.390044
 31
0.0
  0
LINE
  5
2D6
330
2D0
100
AcDbEntity
  8
LC-002-100-D00-0
 62
     7
370
    25
100
AcDbLine
 10
136.255306
 20
306.880172
 30
0.0
 11
139.255306
 21
309.880172
 31
0.0
  0
LINE
  5
2D7
330
2D0
100
AcDbEntity
  8
LC-002-100-D00-0
 62
     7
370
    25
100
AcDbLine
 10
136.255306
 20
311.3703
 30
0.0
 11
139.255306
 21
314.3703
 31
0.0
  0
LINE
  5
2D8
330
2D0
100
AcDbEntity
  8
LC-002-100-D00-0
 62
     7
370
    25
100
AcDbLine
 10
136.255306
 20
315.860428
 30
0.0
 11
139.255306
 21
318.860428
 31
0.0
  0
LINE
  5
2D9
330
2D0
100
AcDbEntity
  8
LC-002-100-D00-0
 62
     7
370
    25
100
AcDbLine
 10
136.255306
 20
320.350557
 30
0.0
 11
139.255306
 21
323.350557
 31
0.0
  0
LINE
  5
2DA
330
2D0
100
AcDbEntity
  8
LC-002-100-D00-0
 62
     7
370
    25
100
AcDbLine
 10
150.122608
 20
334.217859
 30
0.0
 11
151.104794
 21
335.200045
 31
0.0
  0
LINE
  5
2DB
330
2D0
100
AcDbEntity
  8
LC-002-100-D00-0
 62
     7
370
    25
100
AcDbLine
 10
136.255306
 20
324.840685
 30
0.0
 11
139.255306
 21
327.840685
 31
0.0
  0
LINE
  5
2DC
330
2D0
100
AcDbEntity
  8
LC-002-100-D00-0
 62
     7
370
    25
100
AcDbLine
 10
145.63248
 20
334.217859
 30
0.0
 11
147.400856
 21
335.986235
 31
0.0
  0
LINE
  5
2DD
330
2D0
100
AcDbEntity
  8
LC-002-100-D00-0
 62
     7
370
    25
100
AcDbLine
 10
136.255306
 20
329.330813
 30
0.0
 11
139.255306
 21
332.330813
 31
0.0
  0
LINE
  5
2DE
330
2D0
100
AcDbEntity
  8
LC-002-100-D00-0
 62
     7
370
    25
100
AcDbLine
 10
141.142352
 20
334.217859
 30
0.0
 11
143.43438
 21
336.509887
 31
0.0
  0
LINE
  5
2DF
330
2D0
100
AcDbEntity
  8
LC-002-100-D00-0
 62
     7
370
    25
100
AcDbLine
 10
136.255306
 20
333.820941
 30
0.0
 11
139.151486
 21
336.717121
 31
0.0
  0
ENDBLK
  5
2D2
330
2D0
100
AcDbEntity
  8
0
100
AcDbBlockEnd
  0
BLOCK
  5
2E2
330
2E1
100
AcDbEntity
  8
0
100
AcDbBlockBegin
  2
KLON15
 70
     0
 71
     0
 10
0.0
 20
0.0
 30
0.0
  3
KLON15
  1

  4
KLON15
  0
LINE
  5
2E4
330
2E1
100
AcDbEntity
  8
LC-002-100-D00-0
 62
     7
370
    25
100
AcDbLine
 10
143.432418
 20
336.507925
 30
0.0
 11
152.93619
 21
346.011697
 31
0.0
  0
LINE
  5
2E5
330
2E1
100
AcDbEntity
  8
LC-002-100-D00-0
 62
     7
370
    25
100
AcDbLine
 10
139.151354
 20
336.716988
 30
0.0
 11
149.198448
 21
346.764082
 31
0.0
  0
LINE
  5
2E6
330
2E1
100
AcDbEntity
  8
LC-002-100-D00-0
 62
     7
370
    25
100
AcDbLine
 10
125.662102
 20
327.717865
 30
0.0
 11
129.855306
 21
331.911069
 31
0.0
  0
LINE
  5
2E7
330
2E1
100
AcDbEntity
  8
LC-002-100-D00-0
 62
     7
370
    25
100
AcDbLine
 10
134.662102
 20
336.717865
 30
0.0
 11
144.977091
 21
347.032854
 31
0.0
  0
LINE
  5
2E8
330
2E1
100
AcDbEntity
  8
LC-002-100-D00-0
 62
     7
370
    25
100
AcDbLine
 10
122.99558
 20
329.541471
 30
0.0
 11
140.734517
 21
347.280408
 31
0.0
  0
LINE
  5
2E9
330
2E1
100
AcDbEntity
  8
LC-002-100-D00-0
 62
     7
370
    25
100
AcDbLine
 10
122.634348
 20
333.670367
 30
0.0
 11
136.470422
 21
347.506441
 31
0.0
  0
LINE
  5
2EA
330
2E1
100
AcDbEntity
  8
LC-002-100-D00-0
 62
     7
370
    25
100
AcDbLine
 10
122.273117
 20
337.799264
 30
0.0
 11
132.184494
 21
347.710641
 31
0.0
  0
LINE
  5
2EB
330
2E1
100
AcDbEntity
  8
LC-002-100-D00-0
 62
     7
370
    25
100
AcDbLine
 10
121.911885
 20
341.92816
 30
0.0
 11
127.876412
 21
347.892687
 31
0.0
  0
LINE
  5
2EC
330
2E1
100
AcDbEntity
  8
LC-002-100-D00-0
 62
     7
370
    25
100
AcDbLine
 10
119.211462
 20
343.717865
 30
0.0
 11
123.545843
 21
348.052246
 31
0.0
  0
LINE
  5
2ED
330
2E1
100
AcDbEntity
  8
LC-002-100-D00-0
 62
     7
370
    25
100
AcDbLine
 10
114.721334
 20
343.717865
 30
0.0
 11
119.192446
 21
348.188977
 31
0.0
  0
LINE
  5
2EE
330
2E1
100
AcDbEntity
  8
LC-002-100-D00-0
 62
     7
370
    25
100
AcDbLine
 10
110.231206
 20
343.717865
 30
0.0
 11
114.815868
 21
348.302527
 31
0.0
  0
LINE
  5
2EF
330
2E1
100
AcDbEntity
  8
LC-002-100-D00-0
 62
     7
370
    25
100
AcDbLine
 10
105.741078
 20
343.717865
 30
0.0
 11
110.415744
 21
348.392531
 31
0.0
  0
LINE
  5
2F0
330
2E1
100
AcDbEntity
  8
LC-002-100-D00-0
 62
     7
370
    25
100
AcDbLine
 10
101.25095
 20
343.717865
 30
0.0
 11
105.991699
 21
348.458614
 31
0.0
  0
LINE
  5
2F1
330
2E1
100
AcDbEntity
  8
LC-002-100-D00-0
 62
     7
370
    25
100
AcDbLine
 10
96.760822
 20
343.717865
 30
0.0
 11
101.543344
 21
348.500388
 31
0.0
  0
LINE
  5
2F2
330
2E1
100
AcDbEntity
  8
LC-002-100-D00-0
 62
     7
370
    25
100
AcDbLine
 10
92.270694
 20
343.717865
 30
0.0
 11
97.070278
 21
348.51745
 31
0.0
  0
LINE
  5
2F3
330
2E1
100
AcDbEntity
  8
LC-002-100-D00-0
 62
     7
370
    25
100
AcDbLine
 10
87.780565
 20
343.717865
 30
0.0
 11
92.572087
 21
348.509386
 31
0.0
  0
LINE
  5
2F4
330
2E1
100
AcDbEntity
  8
LC-002-100-D00-0
 62
     7
370
    25
100
AcDbLine
 10
67.290437
 20
327.717865
 30
0.0
 11
69.553478
 21
329.980905
 31
0.0
  0
LINE
  5
2F5
330
2E1
100
AcDbEntity
  8
LC-002-100-D00-0
 62
     7
370
    25
100
AcDbLine
 10
83.290437
 20
343.717865
 30
0.0
 11
88.04834
 21
348.475767
 31
0.0
  0
LINE
  5
2F6
330
2E1
100
AcDbEntity
  8
LC-002-100-D00-0
 62
     7
370
    25
100
AcDbLine
 10
63.024428
 20
327.941983
 30
0.0
 11
69.983977
 21
334.901533
 31
0.0
  0
LINE
  5
2F7
330
2E1
100
AcDbEntity
  8
LC-002-100-D00-0
 62
     7
370
    25
100
AcDbLine
 10
78.800309
 20
343.717865
 30
0.0
 11
83.498594
 21
348.41615
 31
0.0
  0
LINE
  5
2F8
330
2E1
100
AcDbEntity
  8
LC-002-100-D00-0
 62
     7
370
    25
100
AcDbLine
 10
62.655306
 20
332.06299
 30
0.0
 11
70.414476
 21
339.82216
 31
0.0
  0
LINE
  5
2F9
330
2E1
100
AcDbEntity
  8
LC-002-100-D00-0
 62
     7
370
    25
100
AcDbLine
 10
74.310181
 20
343.717865
 30
0.0
 11
78.922391
 21
348.330074
 31
0.0
  0
LINE
  5
2FA
330
2E1
100
AcDbEntity
  8
LC-002-100-D00-0
 62
     7
370
    25
100
AcDbLine
 10
62.439972
 20
336.337784
 30
0.0
 11
74.319253
 21
348.217064
 31
0.0
  0
LINE
  5
2FB
330
2E1
100
AcDbEntity
  8
LC-002-100-D00-0
 62
     7
370
    25
100
AcDbLine
 10
58.329925
 20
336.717865
 30
0.0
 11
69.688688
 21
348.076627
 31
0.0
  0
LINE
  5
2FC
330
2E1
100
AcDbEntity
  8
LC-002-100-D00-0
 62
     7
370
    25
100
AcDbLine
 10
53.839797
 20
336.717865
 30
0.0
 11
65.030185
 21
347.908253
 31
0.0
  0
LINE
  5
2FD
330
2E1
100
AcDbEntity
  8
LC-002-100-D00-0
 62
     7
370
    25
100
AcDbLine
 10
49.145907
 20
336.514103
 30
0.0
 11
60.343214
 21
347.711409
 31
0.0
  0
LINE
  5
2FE
330
2E1
100
AcDbEntity
  8
LC-002-100-D00-0
 62
     7
370
    25
100
AcDbLine
 10
44.816709
 20
336.675033
 30
0.0
 11
55.627224
 21
347.485548
 31
0.0
  0
LINE
  5
2FF
330
2E1
100
AcDbEntity
  8
LC-002-100-D00-0
 62
     7
370
    25
100
AcDbLine
 10
43.343118
 20
339.69157
 30
0.0
 11
50.881646
 21
347.230098
 31
0.0
  0
LINE
  5
300
330
2E1
100
AcDbEntity
  8
LC-002-100-D00-0
 62
     7
370
    25
100
AcDbLine
 10
41.869527
 20
342.708107
 30
0.0
 11
46.105885
 21
346.944465
 31
0.0
  0
LINE
  5
301
330
2E1
100
AcDbEntity
  8
LC-002-100-D00-0
 62
     7
370
    25
100
AcDbLine
 10
39.349864
 20
344.678572
 30
0.0
 11
41.299325
 21
346.628033
 31
0.0
  0
ENDBLK
  5
2E3
330
2E1
100
AcDbEntity
  8
0
100
AcDbBlockEnd
  0
BLOCK
  5
315
330
30B
100
AcDbEntity
  8
0
100
AcDbBlockBegin
  2
*D20
 70
     1
 71
     0
 10
0.0
 20
0.0
 30
0.0
  3
*D20
  1

  0
LINE
  5
30C
330
30B
100
AcDbEntity
  8
LC-003-003-----0
 62
     2
370
    -2
100
AcDbLine
 10
39.255306
 20
345.086757
 30
0.0
 11
39.255306
 21
386.409861
 31
0.0
  0
LINE
  5
30D
330
30B
100
AcDbEntity
  8
LC-003-003-----0
 62
     2
370
    -2
100
AcDbLine
 10
153.255306
 20
345.086757
 30
0.0
 11
153.255306
 21
386.409861
 31
0.0
  0
LINE
  5
30E
330
30B
100
AcDbEntity
  8
LC-003-003-----0
 62
     2
370
    -2
100
AcDbLine
 10
67.255306
 20
382.809861
 30
0.0
 11
125.255306
 21
382.809861
 31
0.0
  0
SOLID
  5
30F
330
30B
100
AcDbEntity
  8
LC-003-003-----0
 62
     2
100
AcDbTrace
 10
67.255306
 20
387.476527
 30
0.0
 11
67.255306
 21
378.143194
 31
0.0
 12
39.255306
 22
382.809861
 32
0.0
 13
39.255306
 23
382.809861
 33
0.0
  0
SOLID
  5
310
330
30B
100
AcDbEntity
  8
LC-003-003-----0
 62
     2
100
AcDbTrace
 10
125.255306
 20
378.143194
 30
0.0
 11
125.255306
 21
387.476527
 31
0.0
 12
153.255306
 22
382.809861
 32
0.0
 13
153.255306
 23
382.809861
 33
0.0
  0
MTEXT
  5
311
330
30B
100
AcDbEntity
  8
LC-003-003-----0
 62
     2
100
AcDbMText
 10
97.782864
 20
413.609861
 30
0.0
 40
28.0
 41
0.0
 71
     5
 72
     1
  1
%%c\A1;114
  7
LCTX15-400-0-0pDIN-Schrift
 73
     1
 44
1.0
  0
POINT
  5
312
330
30B
100
AcDbEntity
  8
Defpoints
 62
     0
100
AcDbPoint
 10
39.255306
 20
345.086757
 30
0.0
  0
POINT
  5
313
330
30B
100
AcDbEntity
  8
Defpoints
 62
     0
100
AcDbPoint
 10
153.255306
 20
345.086757
 30
0.0
  0
POINT
  5
314
330
30B
100
AcDbEntity
  8
Defpoints
 62
     0
100
AcDbPoint
 10
153.255306
 20
382.809861
 30
0.0
  0
ENDBLK
  5
316
330
30B
100
AcDbEntity
  8
0
100
AcDbBlockEnd
  0
BLOCK
  5
322
330
318
100
AcDbEntity
  8
0
100
AcDbBlockBegin
  2
*D21
 70
     1
 71
     0
 10
0.0
 20
0.0
 30
0.0
  3
*D21
  1

  0
LINE
  5
319
330
318
100
AcDbEntity
  8
LC-003-003-----0
 62
     2
370
    -2
100
AcDbLine
 10
62.550349
 20
260.115984
 30
0.0
 11
62.595202
 21
212.122821
 31
0.0
  0
LINE
  5
31A
330
318
100
AcDbEntity
  8
LC-003-003-----0
 62
     2
370
    -2
100
AcDbLine
 10
129.965274
 20
260.178988
 30
0.0
 11
130.010127
 21
212.185825
 31
0.0
  0
LINE
  5
31B
330
318
100
AcDbEntity
  8
LC-003-003-----0
 62
     2
370
    -2
100
AcDbLine
 10
90.591825
 20
215.748987
 30
0.0
 11
102.006774
 21
215.759655
 31
0.0
  0
SOLID
  5
31C
330
318
100
AcDbEntity
  8
LC-003-003-----0
 62
     2
100
AcDbTrace
 10
90.587464
 20
220.415652
 30
0.0
 11
90.596187
 21
211.082323
 31
0.0
 12
62.591838
 22
215.72282
 32
0.0
 13
62.591838
 23
215.72282
 33
0.0
  0
SOLID
  5
31D
330
318
100
AcDbEntity
  8
LC-003-003-----0
 62
     2
100
AcDbTrace
 10
102.011136
 20
211.092991
 30
0.0
 11
102.002413
 21
220.42632
 31
0.0
 12
130.006762
 22
215.785823
 32
0.0
 13
130.006762
 23
215.785823
 33
0.0
  0
MTEXT
  5
31E
330
318
100
AcDbEntity
  8
LC-003-003-----0
 62
     2
100
AcDbMText
 10
96.646605
 20
246.554659
 30
0.0
 40
28.0
 41
0.0
 71
     5
 72
     1
  1
\A1;%%c67,5
  7
LCTX15-400-0-0pDIN-Schrift
 11
0.9999995632950791
 21
0.000934563882839415
 31
0.0
 73
     1
 44
1.0
  0
POINT
  5
31F
330
318
100
AcDbEntity
  8
Defpoints
 62
     0
100
AcDbPoint
 10
62.550349
 20
260.115984
 30
0.0
  0
POINT
  5
320
330
318
100
AcDbEntity
  8
Defpoints
 62
     0
100
AcDbPoint
 10
129.965274
 20
260.178988
 30
0.0
  0
POINT
  5
321
330
318
100
AcDbEntity
  8
Defpoints
 62
     0
100
AcDbPoint
 10
130.006762
 20
215.785823
 30
0.0
  0
ENDBLK
  5
323
330
318
100
AcDbEntity
  8
0
100
AcDbBlockEnd
  0
BLOCK
  5
32F
330
325
100
AcDbEntity
  8
0
100
AcDbBlockBegin
  2
*D22
 70
     1
 71
     0
 10
0.0
 20
0.0
 30
0.0
  3
*D22
  1

  0
LINE
  5
326
330
325
100
AcDbEntity
  8
LC-003-003-----0
 62
     2
370
    -2
100
AcDbLine
 10
42.255306
 20
283.031302
 30
0.0
 11
42.255306
 21
147.798391
 31
0.0
  0
LINE
  5
327
330
325
100
AcDbEntity
  8
LC-003-003-----0
 62
     2
370
    -2
100
AcDbLine
 10
150.255306
 20
314.217865
 30
0.0
 11
150.255306
 21
147.798391
 31
0.0
  0
LINE
  5
328
330
325
100
AcDbEntity
  8
LC-003-003-----0
 62
     2
370
    -2
100
AcDbLine
 10
70.255306
 20
151.398391
 30
0.0
 11
122.255306
 21
151.398391
 31
0.0
  0
SOLID
  5
329
330
325
100
AcDbEntity
  8
LC-003-003-----0
 62
     2
100
AcDbTrace
 10
70.255306
 20
156.065057
 30
0.0
 11
70.255306
 21
146.731724
 31
0.0
 12
42.255306
 22
151.398391
 32
0.0
 13
42.255306
 23
151.398391
 33
0.0
  0
SOLID
  5
32A
330
325
100
AcDbEntity
  8
LC-003-003-----0
 62
     2
100
AcDbTrace
 10
122.255306
 20
146.731724
 30
0.0
 11
122.255306
 21
156.065057
 31
0.0
 12
150.255306
 22
151.398391
 32
0.0
 13
150.255306
 23
151.398391
 33
0.0
  0
MTEXT
  5
32B
330
325
100
AcDbEntity
  8
LC-003-003-----0
 62
     2
100
AcDbMText
 10
93.565943
 20
182.198391
 30
0.0
 40
28.0
 41
0.0
 71
     5
 72
     1
  1
%%c\A1;108
  7
LCTX15-400-0-0pDIN-Schrift
 73
     1
 44
1.0
  0
POINT
  5
32C
330
325
100
AcDbEntity
  8
Defpoints
 62
     0
100
AcDbPoint
 10
42.255306
 20
283.031302
 30
0.0
  0
POINT
  5
32D
330
325
100
AcDbEntity
  8
Defpoints
 62
     0
100
AcDbPoint
 10
150.255306
 20
314.217865
 30
0.0
  0
POINT
  5
32E
330
325
100
AcDbEntity
  8
Defpoints
 62
     0
100
AcDbPoint
 10
150.255306
 20
151.398391
 30
0.0
  0
ENDBLK
  5
330
330
325
100
AcDbEntity
  8
0
100
AcDbBlockEnd
  0
BLOCK
  5
33C
330
332
100
AcDbEntity
  8
0
100
AcDbBlockBegin
  2
*D23
 70
     1
 71
     0
 10
0.0
 20
0.0
 30
0.0
  3
*D23
  1

  0
LINE
  5
333
330
332
100
AcDbEntity
  8
LC-003-003-----0
 62
     2
370
    -2
100
AcDbLine
 10
37.755307
 20
319.717868
 30
0.0
 11
37.755307
 21
96.714391
 31
0.0
  0
LINE
  5
334
330
332
100
AcDbEntity
  8
LC-003-003-----0
 62
     2
370
    -2
100
AcDbLine
 10
154.755306
 20
319.717868
 30
0.0
 11
154.755306
 21
96.714391
 31
0.0
  0
LINE
  5
335
330
332
100
AcDbEntity
  8
LC-003-003-----0
 62
     2
370
    -2
100
AcDbLine
 10
65.755307
 20
100.314391
 30
0.0
 11
126.755306
 21
100.314391
 31
0.0
  0
SOLID
  5
336
330
332
100
AcDbEntity
  8
LC-003-003-----0
 62
     2
100
AcDbTrace
 10
65.755307
 20
104.981057
 30
0.0
 11
65.755307
 21
95.647724
 31
0.0
 12
37.755307
 22
100.314391
 32
0.0
 13
37.755307
 23
100.314391
 33
0.0
  0
SOLID
  5
337
330
332
100
AcDbEntity
  8
LC-003-003-----0
 62
     2
100
AcDbTrace
 10
126.755306
 20
95.647724
 30
0.0
 11
126.755306
 21
104.981057
 31
0.0
 12
154.755306
 22
100.314391
 32
0.0
 13
154.755306
 23
100.314391
 33
0.0
  0
MTEXT
  5
338
330
332
100
AcDbEntity
  8
LC-003-003-----0
 62
     2
100
AcDbMText
 10
97.825459
 20
131.114391
 30
0.0
 40
28.0
 41
0.0
 71
     5
 72
     1
  1
%%c\A1;117
  7
LCTX15-400-0-0pDIN-Schrift
 73
     1
 44
1.0
  0
POINT
  5
339
330
332
100
AcDbEntity
  8
Defpoints
 62
     0
100
AcDbPoint
 10
37.755307
 20
319.717868
 30
0.0
  0
POINT
  5
33A
330
332
100
AcDbEntity
  8
Defpoints
 62
     0
100
AcDbPoint
 10
154.755306
 20
319.717868
 30
0.0
  0
POINT
  5
33B
330
332
100
AcDbEntity
  8
Defpoints
 62
     0
100
AcDbPoint
 10
154.755306
 20
100.314391
 30
0.0
  0
ENDBLK
  5
33D
330
332
100
AcDbEntity
  8
0
100
AcDbBlockEnd
  0
BLOCK
  5
34A
330
33F
100
AcDbEntity
  8
0
100
AcDbBlockBegin
  2
*D24
 70
     1
 71
     0
 10
0.0
 20
0.0
 30
0.0
  3
*D24
  1

  0
LINE
  5
340
330
33F
100
AcDbEntity
  8
LC-003-003-----0
 62
     2
370
    -2
100
AcDbLine
 10
44.755307
 20
330.717868
 30
0.0
 11
-38.884422
 21
330.717868
 31
0.0
  0
LINE
  5
341
330
33F
100
AcDbEntity
  8
LC-003-003-----0
 62
     2
370
    -2
100
AcDbLine
 10
41.255309
 20
334.217861
 30
0.0
 11
-38.884422
 21
334.217861
 31
0.0
  0
LINE
  5
342
330
33F
100
AcDbEntity
  8
LC-003-003-----0
 62
     2
370
    -2
100
AcDbLine
 10
-35.284422
 20
302.717868
 30
0.0
 11
-35.284422
 21
274.717868
 31
0.0
  0
LINE
  5
343
330
33F
100
AcDbEntity
  8
LC-003-003-----0
 62
     2
370
    -2
100
AcDbLine
 10
-35.284422
 20
362.217861
 30
0.0
 11
-35.284422
 21
400.701114
 31
0.0
  0
SOLID
  5
344
330
33F
100
AcDbEntity
  8
LC-003-003-----0
 62
     2
100
AcDbTrace
 10
-30.617756
 20
302.717868
 30
0.0
 11
-39.951089
 21
302.717868
 31
0.0
 12
-35.284422
 22
330.717868
 32
0.0
 13
-35.284422
 23
330.717868
 33
0.0
  0
SOLID
  5
345
330
33F
100
AcDbEntity
  8
LC-003-003-----0
 62
     2
100
AcDbTrace
 10
-39.951089
 20
362.217861
 30
0.0
 11
-30.617756
 21
362.217861
 31
0.0
 12
-35.284422
 22
334.217861
 32
0.0
 13
-35.284422
 23
334.217861
 33
0.0
  0
MTEXT
  5
346
330
33F
100
AcDbEntity
  8
LC-003-003-----0
 62
     2
100
AcDbMText
 10
-66.084422
 20
353.952391
 30
0.0
 40
28.0
 41
0.0
 71
     5
 72
     1
  1
\A1;6-25
  7
LCTX15-400-0-0pDIN-Schrift
 11
6.123031769111886E-17
 21
1.0
 31
0.0
 73
     1
 44
1.0
  0
POINT
  5
347
330
33F
100
AcDbEntity
  8
Defpoints
 62
     0
100
AcDbPoint
 10
44.755307
 20
330.717868
 30
0.0
  0
POINT
  5
348
330
33F
100
AcDbEntity
  8
Defpoints
 62
     0
100
AcDbPoint
 10
41.255309
 20
334.217861
 30
0.0
  0
POINT
  5
349
330
33F
100
AcDbEntity
  8
Defpoints
 62
     0
100
AcDbPoint
 10
-35.284422
 20
334.217861
 30
0.0
  0
ENDBLK
  5
34B
330
33F
100
AcDbEntity
  8
0
100
AcDbBlockEnd
  0
BLOCK
  5
357
330
34D
100
AcDbEntity
  8
0
100
AcDbBlockBegin
  2
*D25
 70
     1
 71
     0
 10
0.0
 20
0.0
 30
0.0
  3
*D25
  1

  0
LINE
  5
34E
330
34D
100
AcDbEntity
  8
LC-003-003-----0
 62
     2
370
    -2
100
AcDbLine
 10
44.755307
 20
330.717868
 30
0.0
 11
-74.025431
 21
330.717868
 31
0.0
  0
LINE
  5
34F
330
34D
100
AcDbEntity
  8
LC-003-003-----0
 62
     2
370
    -2
100
AcDbLine
 10
76.005306
 20
247.717865
 30
0.0
 11
-74.025431
 21
247.717865
 31
0.0
  0
LINE
  5
350
330
34D
100
AcDbEntity
  8
LC-003-003-----0
 62
     2
370
    -2
100
AcDbLine
 10
-70.425431
 20
302.717868
 30
0.0
 11
-70.425431
 21
275.717865
 31
0.0
  0
SOLID
  5
351
330
34D
100
AcDbEntity
  8
LC-003-003-----0
 62
     2
100
AcDbTrace
 10
-65.758765
 20
302.717868
 30
0.0
 11
-75.092098
 21
302.717868
 31
0.0
 12
-70.425431
 22
330.717868
 32
0.0
 13
-70.425431
 23
330.717868
 33
0.0
  0
SOLID
  5
352
330
34D
100
AcDbEntity
  8
LC-003-003-----0
 62
     2
100
AcDbTrace
 10
-75.092098
 20
275.717865
 30
0.0
 11
-65.758765
 21
275.717865
 31
0.0
 12
-70.425431
 22
247.717865
 32
0.0
 13
-70.425431
 23
247.717865
 33
0.0
  0
MTEXT
  5
353
330
34D
100
AcDbEntity
  8
LC-003-003-----0
 62
     2
100
AcDbMText
 10
-101.225431
 20
279.702391
 30
0.0
 40
28.0
 41
0.0
 71
     5
 72
     1
  1
\A1;83
  7
LCTX15-400-0-0pDIN-Schrift
 11
6.123031769111886E-17
 21
1.0
 31
0.0
 73
     1
 44
1.0
  0
POINT
  5
354
330
34D
100
AcDbEntity
  8
Defpoints
 62
     0
100
AcDbPoint
 10
44.755307
 20
330.717868
 30
0.0
  0
POINT
  5
355
330
34D
100
AcDbEntity
  8
Defpoints
 62
     0
100
AcDbPoint
 10
76.005306
 20
247.717865
 30
0.0
  0
POINT
  5
356
330
34D
100
AcDbEntity
  8
Defpoints
 62
     0
100
AcDbPoint
 10
-70.425431
 20
247.717865
 30
0.0
  0
ENDBLK
  5
358
330
34D
100
AcDbEntity
  8
0
100
AcDbBlockEnd
  0
BLOCK
  5
366
330
35A
100
AcDbEntity
  8
0
100
AcDbBlockBegin
  2
*D26
 70
     1
 71
     0
 10
0.0
 20
0.0
 30
0.0
  3
*D26
  1

  0
LINE
  5
35B
330
35A
100
AcDbEntity
  8
LC-003-003-----0
 62
     2
370
    -2
100
AcDbLine
 10
77.255306
 20
264.517865
 30
0.0
 11
11.724498
 21
264.517865
 31
0.0
  0
LINE
  5
35C
330
35A
100
AcDbEntity
  8
LC-003-003-----0
 62
     2
370
    -2
100
AcDbLine
 10
66.387262
 20
314.427056
 30
0.0
 11
11.724498
 21
314.427056
 31
0.0
  0
LINE
  5
35D
330
35A
100
AcDbEntity
  8
LC-003-003-----0
 62
     2
370
    -2
100
AcDbLine
 10
15.324498
 20
236.517865
 30
0.0
 11
15.324498
 21
208.517865
 31
0.0
  0
LINE
  5
35E
330
35A
100
AcDbEntity
  8
LC-003-003-----0
 62
     2
370
    -2
100
AcDbLine
 10
15.324498
 20
342.427056
 30
0.0
 11
15.324498
 21
370.427056
 31
0.0
  0
LINE
  5
35F
330
35A
100
AcDbEntity
  8
LC-003-003-----0
 62
     2
370
    -2
100
AcDbLine
 10
15.324498
 20
264.517865
 30
0.0
 11
15.324498
 21
314.427056
 31
0.0
  0
SOLID
  5
360
330
35A
100
AcDbEntity
  8
LC-003-003-----0
 62
     2
100
AcDbTrace
 10
19.991165
 20
236.517865
 30
0.0
 11
10.657832
 21
236.517865
 31
0.0
 12
15.324498
 22
264.517865
 32
0.0
 13
15.324498
 23
264.517865
 33
0.0
  0
SOLID
  5
361
330
35A
100
AcDbEntity
  8
LC-003-003-----0
 62
     2
100
AcDbTrace
 10
10.657832
 20
342.427056
 30
0.0
 11
19.991165
 21
342.427056
 31
0.0
 12
15.324498
 22
314.427056
 32
0.0
 13
15.324498
 23
314.427056
 33
0.0
  0
MTEXT
  5
362
330
35A
100
AcDbEntity
  8
LC-003-003-----0
 62
     2
100
AcDbMText
 10
-15.475502
 20
289.436961
 30
0.0
 40
28.0
 41
0.0
 71
     5
 72
     1
  1
\A1;50
  7
LCTX15-400-0-0pDIN-Schrift
 11
6.123031769111886E-17
 21
1.0
 31
0.0
 73
     1
 44
1.0
  0
POINT
  5
363
330
35A
100
AcDbEntity
  8
Defpoints
 62
     0
100
AcDbPoint
 10
77.255306
 20
264.517865
 30
0.0
  0
POINT
  5
364
330
35A
100
AcDbEntity
  8
Defpoints
 62
     0
100
AcDbPoint
 10
66.387262
 20
314.427056
 30
0.0
  0
POINT
  5
365
330
35A
100
AcDbEntity
  8
Defpoints
 62
     0
100
AcDbPoint
 10
15.324498
 20
314.427056
 30
0.0
  0
ENDBLK
  5
367
330
35A
100
AcDbEntity
  8
0
100
AcDbBlockEnd
  0
BLOCK
  5
373
330
369
100
AcDbEntity
  8
0
100
AcDbBlockBegin
  2
*D27
 70
     1
 71
     0
 10
0.0
 20
0.0
 30
0.0
  3
*D27
  1

  0
LINE
  5
36A
330
369
100
AcDbEntity
  8
LC-003-003-----0
 62
     2
370
    -2
100
AcDbLine
 10
96.255306
 20
245.720981
 30
0.0
 11
96.255306
 21
53.946391
 31
0.0
  0
LINE
  5
36B
330
369
100
AcDbEntity
  8
LC-003-003-----0
 62
     2
370
    -2
100
AcDbLine
 10
291.2553
 20
288.217865
 30
0.0
 11
291.2553
 21
53.946391
 31
0.0
  0
LINE
  5
36C
330
369
100
AcDbEntity
  8
LC-003-003-----0
 62
     2
370
    -2
100
AcDbLine
 10
124.255306
 20
57.546391
 30
0.0
 11
263.2553
 21
57.546391
 31
0.0
  0
SOLID
  5
36D
330
369
100
AcDbEntity
  8
LC-003-003-----0
 62
     2
100
AcDbTrace
 10
124.255306
 20
62.213057
 30
0.0
 11
124.255306
 21
52.879724
 31
0.0
 12
96.255306
 22
57.546391
 32
0.0
 13
96.255306
 23
57.546391
 33
0.0
  0
SOLID
  5
36E
330
369
100
AcDbEntity
  8
LC-003-003-----0
 62
     2
100
AcDbTrace
 10
263.2553
 20
52.879724
 30
0.0
 11
263.2553
 21
62.213057
 31
0.0
 12
291.2553
 22
57.546391
 32
0.0
 13
291.2553
 23
57.546391
 33
0.0
  0
MTEXT
  5
36F
330
369
100
AcDbEntity
  8
LC-003-003-----0
 62
     2
100
AcDbMText
 10
193.664574
 20
88.346391
 30
0.0
 40
28.0
 41
0.0
 71
     5
 72
     1
  1
\A1;195
  7
LCTX15-400-0-0pDIN-Schrift
 73
     1
 44
1.0
  0
POINT
  5
370
330
369
100
AcDbEntity
  8
Defpoints
 62
     0
100
AcDbPoint
 10
96.255306
 20
245.720981
 30
0.0
  0
POINT
  5
371
330
369
100
AcDbEntity
  8
Defpoints
 62
     0
100
AcDbPoint
 10
291.2553
 20
288.217865
 30
0.0
  0
POINT
  5
372
330
369
100
AcDbEntity
  8
Defpoints
 62
     0
100
AcDbPoint
 10
291.2553
 20
57.546391
 30
0.0
  0
ENDBLK
  5
374
330
369
100
AcDbEntity
  8
0
100
AcDbBlockEnd
  0
BLOCK
  5
382
330
376
100
AcDbEntity
  8
0
100
AcDbBlockBegin
  2
*D28
 70
     1
 71
     0
 10
0.0
 20
0.0
 30
0.0
  3
*D28
  1

  0
LINE
  5
377
330
376
100
AcDbEntity
  8
LC-003-003-----0
 62
     2
370
    -2
100
AcDbLine
 10
283.969169
 20
313.217865
 30
0.0
 11
412.370143
 21
313.217865
 31
0.0
  0
LINE
  5
378
330
376
100
AcDbEntity
  8
LC-003-003-----0
 62
     2
370
    -2
100
AcDbLine
 10
287.7553
 20
263.217866
 30
0.0
 11
412.370143
 21
263.217866
 31
0.0
  0
LINE
  5
379
330
376
100
AcDbEntity
  8
LC-003-003-----0
 62
     2
370
    -2
100
AcDbLine
 10
408.770143
 20
341.217865
 30
0.0
 11
408.770143
 21
369.217865
 31
0.0
  0
LINE
  5
37A
330
376
100
AcDbEntity
  8
LC-003-003-----0
 62
     2
370
    -2
100
AcDbLine
 10
408.770143
 20
235.217866
 30
0.0
 11
408.770143
 21
207.217866
 31
0.0
  0
LINE
  5
37B
330
376
100
AcDbEntity
  8
LC-003-003-----0
 62
     2
370
    -2
100
AcDbLine
 10
408.770143
 20
313.217865
 30
0.0
 11
408.770143
 21
263.217866
 31
0.0
  0
SOLID
  5
37C
330
376
100
AcDbEntity
  8
LC-003-003-----0
 62
     2
100
AcDbTrace
 10
404.103476
 20
341.217865
 30
0.0
 11
413.43681
 21
341.217865
 31
0.0
 12
408.770143
 22
313.217865
 32
0.0
 13
408.770143
 23
313.217865
 33
0.0
  0
SOLID
  5
37D
330
376
100
AcDbEntity
  8
LC-003-003-----0
 62
     2
100
AcDbTrace
 10
413.43681
 20
235.217866
 30
0.0
 11
404.103476
 21
235.217866
 31
0.0
 12
408.770143
 22
263.217866
 32
0.0
 13
408.770143
 23
263.217866
 33
0.0
  0
MTEXT
  5
37E
330
376
100
AcDbEntity
  8
LC-003-003-----0
 62
     2
100
AcDbMText
 10
377.970143
 20
292.176391
 30
0.0
 40
28.0
 41
0.0
 71
     5
 72
     1
  1
\A1;DN50
  7
LCTX15-400-0-0pDIN-Schrift
 11
6.123031769111886E-17
 21
1.0
 31
0.0
 73
     1
 44
1.0
  0
POINT
  5
37F
330
376
100
AcDbEntity
  8
Defpoints
 62
     0
100
AcDbPoint
 10
283.969169
 20
313.217865
 30
0.0
  0
POINT
  5
380
330
376
100
AcDbEntity
  8
Defpoints
 62
     0
100
AcDbPoint
 10
287.7553
 20
263.217866
 30
0.0
  0
POINT
  5
381
330
376
100
AcDbEntity
  8
Defpoints
 62
     0
100
AcDbPoint
 10
408.770143
 20
263.217866
 30
0.0
  0
ENDBLK
  5
383
330
376
100
AcDbEntity
  8
0
100
AcDbBlockEnd
  0
BLOCK
  5
386
330
385
100
AcDbEntity
  8
0
100
AcDbBlockBegin
  2
LCDIM1
 70
     0
 71
     0
 10
0.0
 20
0.0
 30
0.0
  3
LCDIM1
  1

  4
LCDIM1
  0
TEXT
  5
388
330
385
100
AcDbEntity
  8
LC-003-003-----0
 62
     7
370
   140
100
AcDbText
 10
315.058414
 20
190.57162
 30
0.0
 40
28.0
  1
 15%%d
 50
61.537827
 41
0.8
 51
15.0
  7
LCTX15-400-0-0-Arial
 72
     1
 11
328.423962
 21
215.2267
 31
0.0
100
AcDbText
  0
LINE
  5
389
330
385
100
AcDbEntity
  8
LC-003-003-----0
 62
     7
370
    25
100
AcDbLine
 10
350.188216
 20
214.915127
 30
0.0
 11
354.490988
 21
235.13696
 31
0.0
  0
LINE
  5
38A
330
385
100
AcDbEntity
  8
LC-003-003-----0
 62
     7
370
    25
100
AcDbLine
 10
344.601839
 20
216.894703
 30
0.0
 11
350.188216
 21
214.915127
 31
0.0
  0
LINE
  5
38B
330
385
100
AcDbEntity
  8
LC-003-003-----0
 62
     7
370
    25
100
AcDbLine
 10
349.271754
 20
215.173807
 30
0.0
 11
352.891787
 21
232.186955
 31
0.0
  0
LINE
  5
38C
330
385
100
AcDbEntity
  8
LC-003-003-----0
 62
     7
370
    25
100
AcDbLine
 10
348.355292
 20
215.432486
 30
0.0
 11
351.152417
 21
228.578196
 31
0.0
  0
LINE
  5
38D
330
385
100
AcDbEntity
  8
LC-003-003-----0
 62
     7
370
    25
100
AcDbLine
 10
351.152417
 20
228.578196
 30
0.0
 11
345.048242
 21
216.604364
 31
0.0
  0
LINE
  5
38E
330
385
100
AcDbEntity
  8
LC-003-003-----0
 62
     7
370
    25
100
AcDbLine
 10
347.43883
 20
215.691165
 30
0.0
 11
348.720846
 21
221.716282
 31
0.0
  0
LINE
  5
38F
330
385
100
AcDbEntity
  8
LC-003-003-----0
 62
     7
370
    25
100
AcDbLine
 10
348.720846
 20
221.716282
 30
0.0
 11
345.923099
 21
216.228276
 31
0.0
  0
LINE
  5
390
330
385
100
AcDbEntity
  8
LC-003-003-----0
 62
     7
370
    25
100
AcDbLine
 10
356.233151
 20
315.604761
 30
0.0
 11
362.060495
 21
288.217865
 31
0.0
  0
LINE
  5
391
330
385
100
AcDbEntity
  8
LC-003-003-----0
 62
     7
370
    25
100
AcDbLine
 10
362.060495
 20
288.217865
 30
0.0
 11
363.519963
 21
316.179802
 31
0.0
  0
LINE
  5
392
330
385
100
AcDbEntity
  8
LC-003-003-----0
 62
     7
370
    25
100
AcDbLine
 10
363.519963
 20
316.179802
 30
0.0
 11
356.233151
 21
315.604761
 31
0.0
  0
LINE
  5
393
330
385
100
AcDbEntity
  8
LC-003-003-----0
 62
     7
370
    25
100
AcDbLine
 10
357.175537
 20
315.741605
 30
0.0
 11
361.487771
 21
295.475302
 31
0.0
  0
LINE
  5
394
330
385
100
AcDbEntity
  8
LC-003-003-----0
 62
     7
370
    25
100
AcDbLine
 10
361.487771
 20
295.475302
 30
0.0
 11
362.567778
 21
316.167135
 31
0.0
  0
LINE
  5
395
330
385
100
AcDbEntity
  8
LC-003-003-----0
 62
     7
370
    25
100
AcDbLine
 10
358.117923
 20
315.878448
 30
0.0
 11
360.915048
 21
302.732738
 31
0.0
  0
LINE
  5
396
330
385
100
AcDbEntity
  8
LC-003-003-----0
 62
     7
370
    25
100
AcDbLine
 10
360.915048
 20
302.732738
 30
0.0
 11
361.615593
 21
316.154468
 31
0.0
  0
LINE
  5
397
330
385
100
AcDbEntity
  8
LC-003-003-----0
 62
     7
370
    25
100
AcDbLine
 10
359.060309
 20
316.015292
 30
0.0
 11
360.342324
 21
309.990175
 31
0.0
  0
LINE
  5
398
330
385
100
AcDbEntity
  8
LC-003-003-----0
 62
     7
370
    25
100
AcDbLine
 10
360.342324
 20
309.990175
 30
0.0
 11
360.663407
 21
316.141801
 31
0.0
  0
ARC
  5
39A
330
385
100
AcDbEntity
  8
LC-004-003-MTG-0
 62
     7
370
    25
100
AcDbCircle
 10
184.655306
 20
288.217865
 30
0.0
 40
177.4051886317764
100
AcDbArc
 50
319.864447
 51
320.807846
  0
ARC
  5
39B
330
385
100
AcDbEntity
  8
LC-004-003-MTG-0
 62
     7
370
    25
100
AcDbCircle
 10
184.655306
 20
288.217865
 30
0.0
 40
177.4051886317764
100
AcDbArc
 50
321.344725
 51
341.730928
  0
ARC
  5
39C
330
385
100
AcDbEntity
  8
LC-004-003-MTG-0
 62
     7
370
    25
100
AcDbCircle
 10
184.655306
 20
288.217865
 30
0.0
 40
177.4051886317764
100
AcDbArc
 50
347.075992
 51
12.460042
  0
LINE
  5
39E
330
385
100
AcDbEntity
  8
LC-005-003-MTH-0
 62
     7
370
    25
100
AcDbLine
 10
358.075901
 20
241.749957
 30
0.0
 11
359.879263
 21
241.266747
 31
0.0
  0
LINE
  5
39F
330
385
100
AcDbEntity
  8
LC-005-003-MTH-0
 62
     7
370
    25
100
AcDbLine
 10
293.255306
 20
288.217865
 30
0.0
 11
366.060495
 21
288.217865
 31
0.0
  0
ENDBLK
  5
387
330
385
100
AcDbEntity
  8
0
100
AcDbBlockEnd
  0
ENDSEC
  0
SECTION
  2
ENTITIES
  0
LINE
  5
32
330
1F
100
AcDbEntity
  8
LC-001-002-----0
 62
     7
370
    25
100
AcDbLine
 10
184.655306
 20
288.217865
 30
0.0
 11
308.017836
 21
255.162975
 31
0.0
  0
LINE
  5
34
330
1F
100
AcDbEntity
  8
LC-002-100-D00-0
 62
     7
370
    50
100
AcDbLine
 10
195.255306
 20
261.217864
 30
0.0
 11
195.255306
 21
261.263969
 31
0.0
  0
LINE
  5
35
330
1F
100
AcDbEntity
  8
LC-002-100-D00-0
 62
     7
370
    50
100
AcDbLine
 10
195.255306
 20
315.171763
 30
0.0
 11
195.255306
 21
315.217867
 31
0.0
  0
LINE
  5
36
330
1F
100
AcDbEntity
  8
LC-002-100-D00-0
 62
     7
370
    50
100
AcDbLine
 10
191.255306
 20
315.217867
 30
0.0
 11
191.255306
 21
313.367865
 31
0.0
  0
LINE
  5
37
330
1F
100
AcDbEntity
  8
LC-002-100-D00-0
 62
     7
370
    50
100
AcDbLine
 10
191.255306
 20
263.067865
 30
0.0
 11
191.255306
 21
261.217864
 31
0.0
  0
LINE
  5
38
330
1F
100
AcDbEntity
  8
LC-002-100-D00-0
 62
     7
370
    50
100
AcDbLine
 10
57.005305
 20
332.017868
 30
0.0
 11
58.255304
 21
332.017868
 31
0.0
  0
LINE
  5
39
330
1F
100
AcDbEntity
  8
LC-002-100-D00-0
 62
     7
370
    50
100
AcDbLine
 10
134.255306
 20
332.017868
 30
0.0
 11
135.505306
 21
332.017868
 31
0.0
  0
LINE
  5
3A
330
1F
100
AcDbEntity
  8
LC-002-100-D00-0
 62
     7
370
    50
100
AcDbLine
 10
62.655304
 20
335.717864
 30
0.0
 11
62.655304
 21
328.717864
 31
0.0
  0
ARC
  5
3B
330
1F
100
AcDbEntity
  8
LC-002-100-D00-0
 62
     7
370
    50
100
AcDbCircle
 10
61.655306
 20
335.717865
 30
0.0
 40
1.0
100
AcDbArc
 50
0.0
 51
90.0
  0
LINE
  5
3C
330
1F
100
AcDbEntity
  8
LC-002-100-D00-0
 62
     7
370
    50
100
AcDbLine
 10
53.655308
 20
336.717866
 30
0.0
 11
61.655306
 21
336.717866
 31
0.0
  0
ARC
  5
3D
330
1F
100
AcDbEntity
  8
LC-002-100-D00-0
 62
     7
370
    50
100
AcDbCircle
 10
53.655306
 20
286.717865
 30
0.0
 40
50.0
100
AcDbArc
 50
90.0
 51
99.792097
  0
LINE
  5
3E
330
1F
100
AcDbEntity
  8
LC-002-100-D00-0
 62
     7
370
    50
100
AcDbLine
 10
45.151625
 20
335.98943
 30
0.0
 11
41.376252
 21
343.717865
 31
0.0
  0
LINE
  5
3F
330
1F
100
AcDbEntity
  8
LC-002-100-D00-0
 62
     7
370
    50
100
AcDbLine
 10
40.749562
 20
343.717865
 30
0.0
 11
41.376252
 21
343.717865
 31
0.0
  0
ARC
  5
40
330
1F
100
AcDbEntity
  8
LC-002-100-D00-0
 62
     7
370
    50
100
AcDbCircle
 10
40.749565
 20
345.217865
 30
0.0
 40
1.500000000000019
100
AcDbArc
 50
185.014348
 51
270.0
  0
ARC
  5
41
330
1F
100
AcDbEntity
  8
LC-002-100-D00-0
 62
     7
370
    50
100
AcDbCircle
 10
40.755306
 20
345.086757
 30
0.0
 40
1.500000000000029
100
AcDbArc
 50
93.985575
 51
180.0
  0
ARC
  5
42
330
1F
100
AcDbEntity
  8
LC-002-100-D00-0
 62
     7
370
    50
100
AcDbCircle
 10
96.255306
 20
-451.482135
 30
0.0
 40
800.0000000000001
100
AcDbArc
 50
86.014425
 51
93.985575
  0
ARC
  5
43
330
1F
100
AcDbEntity
  8
LC-002-100-D00-0
 62
     7
370
    50
100
AcDbCircle
 10
151.755306
 20
345.086757
 30
0.0
 40
1.500000000000028
100
AcDbArc
 50
0.0
 51
86.014425
  0
ARC
  5
44
330
1F
100
AcDbEntity
  8
LC-002-100-D00-0
 62
     7
370
    50
100
AcDbCircle
 10
151.761047
 20
345.217865
 30
0.0
 40
1.5
100
AcDbArc
 50
270.0
 51
354.985652
  0
LINE
  5
45
330
1F
100
AcDbEntity
  8
LC-002-100-D00-0
 62
     7
370
    50
100
AcDbLine
 10
151.134356
 20
343.717865
 30
0.0
 11
151.761046
 21
343.717865
 31
0.0
  0
LINE
  5
46
330
1F
100
AcDbEntity
  8
LC-002-100-D00-0
 62
     7
370
    50
100
AcDbLine
 10
151.134356
 20
343.717865
 30
0.0
 11
147.358984
 21
335.98943
 31
0.0
  0
ARC
  5
47
330
1F
100
AcDbEntity
  8
LC-002-100-D00-0
 62
     7
370
    50
100
AcDbCircle
 10
138.855306
 20
286.717865
 30
0.0
 40
49.99999999999999
100
AcDbArc
 50
80.207903
 51
90.0
  0
LINE
  5
48
330
1F
100
AcDbEntity
  8
LC-002-100-D00-0
 62
     7
370
    50
100
AcDbLine
 10
130.855306
 20
336.717866
 30
0.0
 11
138.855305
 21
336.717866
 31
0.0
  0
ARC
  5
49
330
1F
100
AcDbEntity
  8
LC-002-100-D00-0
 62
     7
370
    50
100
AcDbCircle
 10
130.855306
 20
335.717865
 30
0.0
 40
1.0
100
AcDbArc
 50
90.0
 51
180.0
  0
LINE
  5
4A
330
1F
100
AcDbEntity
  8
LC-002-100-D00-0
 62
     7
370
    50
100
AcDbLine
 10
129.855306
 20
328.717864
 30
0.0
 11
129.855306
 21
335.717864
 31
0.0
  0
ARC
  5
4B
330
1F
100
AcDbEntity
  8
LC-002-100-D00-0
 62
     7
370
    50
100
AcDbCircle
 10
128.855306
 20
328.717865
 30
0.0
 40
1.0
100
AcDbArc
 50
270.0
 51
0.0
  0
LINE
  5
4C
330
1F
100
AcDbEntity
  8
LC-002-100-D00-0
 62
     7
370
    50
100
AcDbLine
 10
123.155125
 20
327.717862
 30
0.0
 11
128.855306
 21
327.717862
 31
0.0
  0
LINE
  5
4D
330
1F
100
AcDbEntity
  8
LC-002-100-D00-0
 62
     7
370
    50
100
AcDbLine
 10
121.755306
 20
343.717865
 30
0.0
 11
123.155125
 21
327.717862
 31
0.0
  0
LINE
  5
4E
330
1F
100
AcDbEntity
  8
LC-002-100-D00-0
 62
     7
370
    50
100
AcDbLine
 10
70.755307
 20
343.717865
 30
0.0
 11
121.755306
 21
343.717865
 31
0.0
  0
LINE
  5
4F
330
1F
100
AcDbEntity
  8
LC-002-100-D00-0
 62
     7
370
    50
100
AcDbLine
 10
69.355488
 20
327.717862
 30
0.0
 11
70.755307
 21
343.717865
 31
0.0
  0
LINE
  5
50
330
1F
100
AcDbEntity
  8
LC-002-100-D00-0
 62
     7
370
    50
100
AcDbLine
 10
63.655306
 20
327.717862
 30
0.0
 11
69.355488
 21
327.717862
 31
0.0
  0
ARC
  5
51
330
1F
100
AcDbEntity
  8
LC-002-100-D00-0
 62
     7
370
    50
100
AcDbCircle
 10
63.655306
 20
328.717865
 30
0.0
 40
1.0
100
AcDbArc
 50
180.0
 51
270.0
  0
LINE
  5
52
330
1F
100
AcDbEntity
  8
LC-002-100-D00-0
 62
     7
370
    50
100
AcDbLine
 10
76.597866
 20
327.717862
 30
0.0
 11
77.870656
 21
327.717862
 31
0.0
  0
LINE
  5
53
330
1F
100
AcDbEntity
  8
LC-002-100-D00-0
 62
     7
370
    50
100
AcDbLine
 10
76.597866
 20
327.717862
 30
0.0
 11
77.192605
 21
343.717865
 31
0.0
  0
LINE
  5
54
330
1F
100
AcDbEntity
  8
LC-002-100-D00-0
 62
     7
370
    50
100
AcDbLine
 10
77.870656
 20
327.717862
 30
0.0
 11
79.255563
 21
343.717865
 31
0.0
  0
LINE
  5
55
330
1F
100
AcDbEntity
  8
LC-002-100-D00-0
 62
     7
370
    50
100
AcDbLine
 10
72.567229
 20
327.717862
 30
0.0
 11
76.597866
 21
327.717862
 31
0.0
  0
ELLIPSE
  5
56
330
1F
100
AcDbEntity
  8
LC-002-100-D00-0
 62
     7
370
    50
100
AcDbEllipse
 10
72.542536
 20
328.717865
 30
0.0
 11
0.04929551961578224
 21
-0.9993937813598565
 31
0.0
210
0.0
220
0.0
230
1.0
 40
0.706247
 41
2.059573273026911
 42
3.106770824223468
  0
ELLIPSE
  5
57
330
1F
100
AcDbEntity
  8
LC-002-100-D00-0
 62
     7
370
    50
100
AcDbEllipse
 10
119.968076
 20
328.717865
 30
0.0
 11
-0.04929551961578236
 21
-0.9993937813598565
 31
0.0
210
0.0
220
0.0
230
1.0
 40
0.706247
 41
3.176414482956118
 42
4.223612034152675
  0
LINE
  5
58
330
1F
100
AcDbEntity
  8
LC-002-100-D00-0
 62
     7
370
    50
100
AcDbLine
 10
119.943383
 20
327.717862
 30
0.0
 11
115.912746
 21
327.717862
 31
0.0
  0
LINE
  5
59
330
1F
100
AcDbEntity
  8
LC-002-100-D00-0
 62
     7
370
    50
100
AcDbLine
 10
115.912746
 20
327.717862
 30
0.0
 11
115.318008
 21
343.717865
 31
0.0
  0
LINE
  5
5A
330
1F
100
AcDbEntity
  8
LC-002-100-D00-0
 62
     7
370
    50
100
AcDbLine
 10
114.639954
 20
327.717862
 30
0.0
 11
115.912746
 21
327.717862
 31
0.0
  0
LINE
  5
5B
330
1F
100
AcDbEntity
  8
LC-002-100-D00-0
 62
     7
370
    50
100
AcDbLine
 10
114.639954
 20
327.717862
 30
0.0
 11
113.25505
 21
343.717865
 31
0.0
  0
LINE
  5
5C
330
1F
100
AcDbEntity
  8
LC-002-100-D00-0
 62
     7
370
    50
100
AcDbLine
 10
95.355306
 20
327.717862
 30
0.0
 11
97.155305
 21
327.717862
 31
0.0
  0
LINE
  5
5D
330
1F
100
AcDbEntity
  8
LC-002-100-D00-0
 62
     7
370
    50
100
AcDbLine
 10
97.155305
 20
327.717862
 30
0.0
 11
97.714039
 21
343.717865
 31
0.0
  0
LINE
  5
5E
330
1F
100
AcDbEntity
  8
LC-002-100-D00-0
 62
     7
370
    50
100
AcDbLine
 10
95.355306
 20
327.717862
 30
0.0
 11
94.796574
 21
343.717865
 31
0.0
  0
LINE
  5
5F
330
1F
100
AcDbEntity
  8
LC-002-100-D00-0
 62
     7
370
    50
100
AcDbLine
 10
151.257231
 20
334.217861
 30
0.0
 11
151.257231
 21
335.16135
 31
0.0
  0
LINE
  5
60
330
1F
100
AcDbEntity
  8
LC-002-100-D00-0
 62
     7
370
    50
100
AcDbLine
 10
41.253385
 20
335.16135
 30
0.0
 11
41.253385
 21
334.217861
 31
0.0
  0
ARC
  5
61
330
1F
100
AcDbEntity
  8
LC-002-100-D00-0
 62
     7
370
    50
100
AcDbCircle
 10
138.878666
 20
286.717865
 30
0.0
 40
49.99999999999992
100
AcDbArc
 50
75.66616
 51
90.0
  0
ARC
  5
62
330
1F
100
AcDbEntity
  8
LC-002-100-D00-0
 62
     7
370
    50
100
AcDbCircle
 10
53.631947
 20
286.717865
 30
0.0
 40
49.99999999999994
100
AcDbArc
 50
90.0
 51
104.33384
  0
LINE
  5
63
330
1F
100
AcDbEntity
  8
LC-002-100-D00-0
 62
     7
370
    50
100
AcDbLine
 10
139.255306
 20
293.217863
 30
0.0
 11
139.255306
 21
334.217861
 31
0.0
  0
LINE
  5
64
330
1F
100
AcDbEntity
  8
LC-002-100-D00-0
 62
     7
370
    50
100
AcDbLine
 10
53.255309
 20
334.217861
 30
0.0
 11
53.255309
 21
293.217863
 31
0.0
  0
LINE
  5
65
330
1F
100
AcDbEntity
  8
LC-002-100-D00-0
 62
     7
370
    50
100
AcDbLine
 10
54.755305
 20
291.717864
 30
0.0
 11
53.255309
 21
293.217863
 31
0.0
  0
LINE
  5
66
330
1F
100
AcDbEntity
  8
LC-002-100-D00-0
 62
     7
370
    50
100
AcDbLine
 10
139.255306
 20
293.217863
 30
0.0
 11
137.755306
 21
291.717864
 31
0.0
  0
ARC
  5
67
330
1F
100
AcDbEntity
  8
LC-002-100-D00-0
 62
     7
370
    50
100
AcDbCircle
 10
137.255306
 20
335.717865
 30
0.0
 40
1.0
100
AcDbArc
 50
90.0
 51
180.0
  0
ARC
  5
68
330
1F
100
AcDbEntity
  8
LC-002-100-D00-0
 62
     7
370
    50
100
AcDbCircle
 10
55.255306
 20
335.717865
 30
0.0
 40
1.0
100
AcDbArc
 50
0.0
 51
90.0
  0
LINE
  5
69
330
1F
100
AcDbEntity
  8
LC-002-100-D00-0
 62
     7
370
    50
100
AcDbLine
 10
136.255306
 20
335.717864
 30
0.0
 11
136.255306
 21
291.717864
 31
0.0
  0
LINE
  5
6A
330
1F
100
AcDbEntity
  8
LC-002-100-D00-0
 62
     7
370
    50
100
AcDbLine
 10
116.82718
 20
321.184471
 30
0.0
 11
116.82718
 21
314.517862
 31
0.0
  0
LINE
  5
6B
330
1F
100
AcDbEntity
  8
LC-002-100-D00-0
 62
     7
370
    50
100
AcDbLine
 10
60.505491
 20
326.517864
 30
0.0
 11
60.505491
 21
326.266281
 31
0.0
  0
LINE
  5
6C
330
1F
100
AcDbEntity
  8
LC-002-100-D00-0
 62
     7
370
    50
100
AcDbLine
 10
60.505491
 20
322.629421
 30
0.0
 11
60.505491
 21
291.717864
 31
0.0
  0
LINE
  5
6D
330
1F
100
AcDbEntity
  8
LC-002-100-D00-0
 62
     7
370
    50
100
AcDbLine
 10
56.255308
 20
291.717864
 30
0.0
 11
56.255308
 21
335.717864
 31
0.0
  0
LINE
  5
6E
330
1F
100
AcDbEntity
  8
LC-002-100-D00-0
 62
     7
370
    50
100
AcDbLine
 10
56.255308
 20
291.717864
 30
0.0
 11
60.505491
 21
291.717864
 31
0.0
  0
LINE
  5
6F
330
1F
100
AcDbEntity
  8
LC-002-100-D00-0
 62
     7
370
    50
100
AcDbLine
 10
64.1169
 20
291.717864
 30
0.0
 11
65.755305
 21
291.717864
 31
0.0
  0
LINE
  5
70
330
1F
100
AcDbEntity
  8
LC-002-100-D00-0
 62
     7
370
    50
100
AcDbLine
 10
126.755306
 20
291.717864
 30
0.0
 11
136.255306
 21
291.717864
 31
0.0
  0
LINE
  5
71
330
1F
100
AcDbEntity
  8
LC-002-100-D00-0
 62
     7
370
    50
100
AcDbLine
 10
54.755305
 20
291.717864
 30
0.0
 11
56.255308
 21
291.717864
 31
0.0
  0
LINE
  5
72
330
1F
100
AcDbEntity
  8
LC-002-100-D00-0
 62
     7
370
    50
100
AcDbLine
 10
55.255306
 20
336.717866
 30
0.0
 11
53.631943
 21
336.717866
 31
0.0
  0
LINE
  5
73
330
1F
100
AcDbEntity
  8
LC-002-100-D00-0
 62
     7
370
    50
100
AcDbLine
 10
41.253385
 20
334.217861
 30
0.0
 11
53.255309
 21
334.217861
 31
0.0
  0
LINE
  5
74
330
1F
100
AcDbEntity
  8
LC-002-100-D00-0
 62
     7
370
    50
100
AcDbLine
 10
136.255306
 20
291.717864
 30
0.0
 11
137.755306
 21
291.717864
 31
0.0
  0
LINE
  5
75
330
1F
100
AcDbEntity
  8
LC-002-100-D00-0
 62
     7
370
    50
100
AcDbLine
 10
138.878666
 20
336.717866
 30
0.0
 11
137.255306
 21
336.717866
 31
0.0
  0
LINE
  5
76
330
1F
100
AcDbEntity
  8
LC-002-100-D00-0
 62
     7
370
    50
100
AcDbLine
 10
139.255306
 20
334.217861
 30
0.0
 11
151.257231
 21
334.217861
 31
0.0
  0
LINE
  5
77
330
1F
100
AcDbEntity
  8
LC-002-100-D00-0
 62
     7
370
    50
100
AcDbLine
 10
62.671576
 20
326.517864
 30
0.0
 11
62.671576
 21
321.905612
 31
0.0
  0
LINE
  5
78
330
1F
100
AcDbEntity
  8
LC-002-100-D00-0
 62
     7
370
    50
100
AcDbLine
 10
62.671576
 20
318.251073
 30
0.0
 11
62.671576
 21
291.717864
 31
0.0
  0
LINE
  5
79
330
1F
100
AcDbEntity
  8
LC-002-100-D00-0
 62
     7
370
    50
100
AcDbLine
 10
64.1169
 20
326.517864
 30
0.0
 11
64.1169
 21
318.995944
 31
0.0
  0
LINE
  5
7A
330
1F
100
AcDbEntity
  8
LC-002-100-D00-0
 62
     7
370
    50
100
AcDbLine
 10
64.1169
 20
315.329611
 30
0.0
 11
64.1169
 21
291.717864
 31
0.0
  0
LINE
  5
7B
330
1F
100
AcDbEntity
  8
LC-002-100-D00-0
 62
     7
370
    50
100
AcDbLine
 10
64.1169
 20
291.717864
 30
0.0
 11
62.671576
 21
291.717864
 31
0.0
  0
LINE
  5
7C
330
1F
100
AcDbEntity
  8
LC-002-100-D00-0
 62
     7
370
    50
100
AcDbLine
 10
62.671576
 20
291.717864
 30
0.0
 11
60.505491
 21
291.717864
 31
0.0
  0
LINE
  5
7D
330
1F
100
AcDbEntity
  8
LC-002-100-D00-0
 62
     7
370
    50
100
AcDbLine
 10
115.636299
 20
318.387828
 30
0.0
 11
115.636299
 21
314.517862
 31
0.0
  0
LINE
  5
7E
330
1F
100
AcDbEntity
  8
LC-002-100-D00-0
 62
     7
370
    50
100
AcDbLine
 10
40.255305
 20
335.217863
 30
0.0
 11
44.755307
 21
330.717868
 31
0.0
  0
LINE
  5
7F
330
1F
100
AcDbEntity
  8
LC-002-100-D00-0
 62
     7
370
    50
100
AcDbLine
 10
152.255307
 20
335.217863
 30
0.0
 11
151.033911
 21
335.217863
 31
0.0
  0
LINE
  5
80
330
1F
100
AcDbEntity
  8
LC-002-100-D00-0
 62
     7
370
    50
100
AcDbLine
 10
41.476701
 20
335.217863
 30
0.0
 11
40.255305
 21
335.217863
 31
0.0
  0
LINE
  5
81
330
1F
100
AcDbEntity
  8
LC-002-100-D00-0
 62
     7
370
    50
100
AcDbLine
 10
147.755307
 20
330.717868
 30
0.0
 11
152.255307
 21
335.217863
 31
0.0
  0
LINE
  5
82
330
1F
100
AcDbEntity
  8
LC-002-100-D00-0
 62
     7
370
    50
100
AcDbLine
 10
40.255305
 20
324.217863
 30
0.0
 11
40.255305
 21
335.217863
 31
0.0
  0
LINE
  5
83
330
1F
100
AcDbEntity
  8
LC-002-100-D00-0
 62
     7
370
    50
100
AcDbLine
 10
152.255307
 20
335.217863
 30
0.0
 11
152.255307
 21
324.217863
 31
0.0
  0
LINE
  5
84
330
1F
100
AcDbEntity
  8
LC-002-100-D00-0
 62
     7
370
    50
100
AcDbLine
 10
42.255309
 20
328.217863
 30
0.0
 11
42.255309
 21
324.217863
 31
0.0
  0
LINE
  5
85
330
1F
100
AcDbEntity
  8
LC-002-100-D00-0
 62
     7
370
    50
100
AcDbLine
 10
150.255306
 20
324.217863
 30
0.0
 11
150.255306
 21
328.217863
 31
0.0
  0
LINE
  5
86
330
1F
100
AcDbEntity
  8
LC-002-100-D00-0
 62
     7
370
    50
100
AcDbLine
 10
146.142059
 20
331.717863
 30
0.0
 11
146.719408
 21
330.717868
 31
0.0
  0
LINE
  5
87
330
1F
100
AcDbEntity
  8
LC-002-100-D00-0
 62
     7
370
    50
100
AcDbLine
 10
146.142059
 20
331.717863
 30
0.0
 11
144.987357
 21
331.717863
 31
0.0
  0
LINE
  5
88
330
1F
100
AcDbEntity
  8
LC-002-100-D00-0
 62
     7
370
    50
100
AcDbLine
 10
47.523257
 20
331.717863
 30
0.0
 11
46.368551
 21
331.717863
 31
0.0
  0
LINE
  5
89
330
1F
100
AcDbEntity
  8
LC-002-100-D00-0
 62
     7
370
    50
100
AcDbLine
 10
45.791206
 20
330.717868
 30
0.0
 11
46.368551
 21
331.717863
 31
0.0
  0
LINE
  5
8A
330
1F
100
AcDbEntity
  8
LC-002-100-D00-0
 62
     7
370
    50
100
AcDbLine
 10
46.368551
 20
331.717863
 30
0.0
 11
46.945904
 21
330.717868
 31
0.0
  0
LINE
  5
8B
330
1F
100
AcDbEntity
  8
LC-002-100-D00-0
 62
     7
370
    50
100
AcDbLine
 10
145.564708
 20
330.717868
 30
0.0
 11
146.142059
 21
331.717863
 31
0.0
  0
LINE
  5
8C
330
1F
100
AcDbEntity
  8
LC-002-100-D00-0
 62
     7
370
    50
100
AcDbLine
 10
46.755303
 20
326.717868
 30
0.0
 11
46.755303
 21
328.217863
 31
0.0
  0
LINE
  5
8D
330
1F
100
AcDbEntity
  8
LC-002-100-D00-0
 62
     7
370
    50
100
AcDbLine
 10
145.755307
 20
328.217863
 30
0.0
 11
145.755307
 21
326.717868
 31
0.0
  0
LINE
  5
8E
330
1F
100
AcDbEntity
  8
LC-002-100-D00-0
 62
     7
370
    50
100
AcDbLine
 10
144.987357
 20
331.717863
 30
0.0
 11
145.564708
 21
330.717868
 31
0.0
  0
LINE
  5
8F
330
1F
100
AcDbEntity
  8
LC-002-100-D00-0
 62
     7
370
    50
100
AcDbLine
 10
144.987357
 20
331.717863
 30
0.0
 11
143.832656
 21
331.717863
 31
0.0
  0
LINE
  5
90
330
1F
100
AcDbEntity
  8
LC-002-100-D00-0
 62
     7
370
    50
100
AcDbLine
 10
48.677955
 20
331.717863
 30
0.0
 11
47.523257
 21
331.717863
 31
0.0
  0
LINE
  5
91
330
1F
100
AcDbEntity
  8
LC-002-100-D00-0
 62
     7
370
    50
100
AcDbLine
 10
46.945904
 20
330.717868
 30
0.0
 11
47.523257
 21
331.717863
 31
0.0
  0
LINE
  5
92
330
1F
100
AcDbEntity
  8
LC-002-100-D00-0
 62
     7
370
    50
100
AcDbLine
 10
47.523257
 20
331.717863
 30
0.0
 11
48.100603
 21
330.717868
 31
0.0
  0
LINE
  5
93
330
1F
100
AcDbEntity
  8
LC-002-100-D00-0
 62
     7
370
    50
100
AcDbLine
 10
144.410007
 20
330.717868
 30
0.0
 11
144.987357
 21
331.717863
 31
0.0
  0
LINE
  5
94
330
1F
100
AcDbEntity
  8
LC-002-100-D00-0
 62
     7
370
    50
100
AcDbLine
 10
143.832656
 20
331.717863
 30
0.0
 11
144.410007
 21
330.717868
 31
0.0
  0
LINE
  5
95
330
1F
100
AcDbEntity
  8
LC-002-100-D00-0
 62
     7
370
    50
100
AcDbLine
 10
143.832656
 20
331.717863
 30
0.0
 11
139.255306
 21
331.717863
 31
0.0
  0
LINE
  5
96
330
1F
100
AcDbEntity
  8
LC-002-100-D00-0
 62
     7
370
    50
100
AcDbLine
 10
53.255309
 20
331.717863
 30
0.0
 11
48.677955
 21
331.717863
 31
0.0
  0
LINE
  5
97
330
1F
100
AcDbEntity
  8
LC-002-100-D00-0
 62
     7
370
    50
100
AcDbLine
 10
48.100603
 20
330.717868
 30
0.0
 11
48.677955
 21
331.717863
 31
0.0
  0
LINE
  5
98
330
1F
100
AcDbEntity
  8
LC-002-100-D00-0
 62
     7
370
    50
100
AcDbLine
 10
48.677955
 20
331.717863
 30
0.0
 11
49.255308
 21
330.717868
 31
0.0
  0
LINE
  5
99
330
1F
100
AcDbEntity
  8
LC-002-100-D00-0
 62
     7
370
    50
100
AcDbLine
 10
143.255305
 20
330.717868
 30
0.0
 11
143.832656
 21
331.717863
 31
0.0
  0
LINE
  5
9A
330
1F
100
AcDbEntity
  8
LC-002-100-D00-0
 62
     7
370
    50
100
AcDbLine
 10
49.255308
 20
330.717868
 30
0.0
 11
49.255308
 21
326.717868
 31
0.0
  0
LINE
  5
9B
330
1F
100
AcDbEntity
  8
LC-002-100-D00-0
 62
     7
370
    50
100
AcDbLine
 10
143.255305
 20
326.717868
 30
0.0
 11
143.255305
 21
330.717868
 31
0.0
  0
LINE
  5
9C
330
1F
100
AcDbEntity
  8
LC-002-100-D00-0
 62
     7
370
    50
100
AcDbLine
 10
143.255305
 20
326.717868
 30
0.0
 11
139.255306
 21
326.717868
 31
0.0
  0
LINE
  5
9D
330
1F
100
AcDbEntity
  8
LC-002-100-D00-0
 62
     7
370
    50
100
AcDbLine
 10
53.255309
 20
326.717868
 30
0.0
 11
49.255308
 21
326.717868
 31
0.0
  0
LINE
  5
9E
330
1F
100
AcDbEntity
  8
LC-002-100-D00-0
 62
     7
370
    50
100
AcDbLine
 10
49.255308
 20
326.717868
 30
0.0
 11
46.755303
 21
326.717868
 31
0.0
  0
LINE
  5
9F
330
1F
100
AcDbEntity
  8
LC-002-100-D00-0
 62
     7
370
    50
100
AcDbLine
 10
44.755307
 20
330.717868
 30
0.0
 11
45.791206
 21
330.717868
 31
0.0
  0
LINE
  5
A0
330
1F
100
AcDbEntity
  8
LC-002-100-D00-0
 62
     7
370
    50
100
AcDbLine
 10
46.755303
 20
328.217863
 30
0.0
 11
42.255309
 21
328.217863
 31
0.0
  0
LINE
  5
A1
330
1F
100
AcDbEntity
  8
LC-002-100-D00-0
 62
     7
370
    50
100
AcDbLine
 10
42.255309
 20
324.217863
 30
0.0
 11
40.255305
 21
324.217863
 31
0.0
  0
LINE
  5
A2
330
1F
100
AcDbEntity
  8
LC-002-100-D00-0
 62
     7
370
    50
100
AcDbLine
 10
145.755307
 20
326.717868
 30
0.0
 11
143.255305
 21
326.717868
 31
0.0
  0
LINE
  5
A3
330
1F
100
AcDbEntity
  8
LC-002-100-D00-0
 62
     7
370
    50
100
AcDbLine
 10
146.719408
 20
330.717868
 30
0.0
 11
147.755307
 21
330.717868
 31
0.0
  0
LINE
  5
A4
330
1F
100
AcDbEntity
  8
LC-002-100-D00-0
 62
     7
370
    50
100
AcDbLine
 10
150.255306
 20
328.217863
 30
0.0
 11
145.755307
 21
328.217863
 31
0.0
  0
LINE
  5
A5
330
1F
100
AcDbEntity
  8
LC-002-100-D00-0
 62
     7
370
    50
100
AcDbLine
 10
152.255307
 20
324.217863
 30
0.0
 11
150.255306
 21
324.217863
 31
0.0
  0
CIRCLE
  5
A6
330
1F
100
AcDbEntity
  8
LC-002-100-D00-0
 62
     7
370
    50
100
AcDbCircle
 10
193.255306
 20
315.217865
 30
0.0
 40
2.0
  0
ARC
  5
A7
330
1F
100
AcDbEntity
  8
LC-002-100-D00-0
 62
     7
370
    50
100
AcDbCircle
 10
193.255306
 20
261.217865
 30
0.0
 40
2.0
100
AcDbArc
 50
0.0
 51
196.699448
  0
ARC
  5
A8
330
1F
100
AcDbEntity
  8
LC-002-100-D00-0
 62
     7
370
    50
100
AcDbCircle
 10
193.255306
 20
261.217865
 30
0.0
 40
1.999999999999997
100
AcDbArc
 50
343.407645
 51
0.0
  0
ARC
  5
A9
330
1F
100
AcDbEntity
  8
LC-002-100-D00-0
 62
     7
370
    50
100
AcDbCircle
 10
184.755306
 20
288.217865
 30
0.0
 40
31.99999999999999
100
AcDbArc
 50
300.522802
 51
308.624833
  0
ARC
  5
AA
330
1F
100
AcDbEntity
  8
LC-002-100-D00-0
 62
     7
370
    50
100
AcDbCircle
 10
184.755306
 20
288.217865
 30
0.0
 40
32.00000000000002
100
AcDbArc
 50
51.375167
 51
90.0
  0
LINE
  5
AB
330
1F
100
AcDbEntity
  8
LC-002-100-D00-0
 62
     7
370
    50
100
AcDbLine
 10
184.755307
 20
320.217862
 30
0.0
 11
176.255305
 21
320.217862
 31
0.0
  0
ARC
  5
AC
330
1F
100
AcDbEntity
  8
LC-002-100-D00-0
 62
     7
370
    50
100
AcDbCircle
 10
177.255306
 20
317.781356
 30
0.0
 40
1.000000000000028
100
AcDbArc
 50
180.0
 51
284.235124
  0
ARC
  5
AD
330
1F
100
AcDbEntity
  8
LC-002-100-D00-0
 62
     7
370
    50
100
AcDbCircle
 10
184.755306
 20
288.217865
 30
0.0
 40
29.50000000000005
100
AcDbArc
 50
50.46055
 51
104.235124
  0
LINE
  5
AE
330
1F
100
AcDbEntity
  8
LC-002-100-D00-0
 62
     7
370
    50
100
AcDbLine
 10
203.535285
 20
310.967862
 30
0.0
 11
203.535285
 21
265.467865
 31
0.0
  0
ARC
  5
AF
330
1F
100
AcDbEntity
  8
LC-002-100-D00-0
 62
     7
370
    50
100
AcDbCircle
 10
184.755306
 20
288.217865
 30
0.0
 40
29.5
100
AcDbArc
 50
290.834469
 51
309.53945
  0
LINE
  5
B0
330
1F
100
AcDbEntity
  8
LC-002-100-D00-0
 62
     7
370
    50
100
AcDbLine
 10
204.730292
 20
263.217866
 30
0.0
 11
287.7553
 21
263.217866
 31
0.0
  0
LINE
  5
B1
330
1F
100
AcDbEntity
  8
LC-002-100-D00-0
 62
     7
370
    50
100
AcDbLine
 10
287.7553
 20
313.217863
 30
0.0
 11
204.730292
 21
313.217863
 31
0.0
  0
LINE
  5
B2
330
1F
100
AcDbEntity
  8
LC-002-100-D00-0
 62
     7
370
    50
100
AcDbLine
 10
287.7553
 20
263.217866
 30
0.0
 11
291.2553
 21
264.155687
 31
0.0
  0
LINE
  5
B3
330
1F
100
AcDbEntity
  8
LC-002-100-D00-0
 62
     7
370
    50
100
AcDbLine
 10
291.2553
 20
312.280043
 30
0.0
 11
287.7553
 21
313.217863
 31
0.0
  0
LINE
  5
B4
330
1F
100
AcDbEntity
  8
LC-002-100-D00-0
 62
     7
370
    50
100
AcDbLine
 10
291.2553
 20
265.467865
 30
0.0
 11
203.535285
 21
265.467865
 31
0.0
  0
LINE
  5
B5
330
1F
100
AcDbEntity
  8
LC-002-100-D00-0
 62
     7
370
    50
100
AcDbLine
 10
203.535285
 20
310.967862
 30
0.0
 11
291.2553
 21
310.967862
 31
0.0
  0
LINE
  5
B6
330
1F
100
AcDbEntity
  8
LC-002-100-D00-0
 62
     7
370
    50
100
AcDbLine
 10
291.2553
 20
310.967862
 30
0.0
 11
291.2553
 21
265.467865
 31
0.0
  0
LINE
  5
B7
330
1F
100
AcDbEntity
  8
LC-002-100-D00-0
 62
     7
370
    50
100
AcDbLine
 10
291.2553
 20
310.967862
 30
0.0
 11
291.2553
 21
312.280043
 31
0.0
  0
LINE
  5
B8
330
1F
100
AcDbEntity
  8
LC-002-100-D00-0
 62
     7
370
    50
100
AcDbLine
 10
176.255305
 20
320.217862
 30
0.0
 11
176.255305
 21
317.781358
 31
0.0
  0
LINE
  5
B9
330
1F
100
AcDbEntity
  8
LC-002-100-D00-0
 62
     7
370
    50
100
AcDbLine
 10
291.2553
 20
264.155687
 30
0.0
 11
291.2553
 21
265.467865
 31
0.0
  0
LINE
  5
BA
330
1F
100
AcDbEntity
  8
LC-002-100-D00-0
 62
     7
370
    50
100
AcDbLine
 10
150.255306
 20
314.217865
 30
0.0
 11
166.755304
 21
314.217865
 31
0.0
  0
LINE
  5
BB
330
1F
100
AcDbEntity
  8
LC-002-100-D00-0
 62
     7
370
    50
100
AcDbLine
 10
166.755304
 20
262.217865
 30
0.0
 11
147.058676
 21
262.217865
 31
0.0
  0
LINE
  5
BC
330
1F
100
AcDbEntity
  8
LC-002-100-D00-0
 62
     7
370
    50
100
AcDbLine
 10
42.255309
 20
283.031303
 30
0.0
 11
42.255309
 21
320.851839
 31
0.0
  0
LINE
  5
BD
330
1F
100
AcDbEntity
  8
LC-002-100-D00-0
 62
     7
370
    50
100
AcDbLine
 10
150.255306
 20
320.851839
 30
0.0
 11
150.255306
 21
314.217865
 31
0.0
  0
LINE
  5
BE
330
1F
100
AcDbEntity
  8
LC-002-100-D00-0
 62
     7
370
    50
100
AcDbLine
 10
45.255308
 20
316.317863
 30
0.0
 11
45.255308
 21
283.031303
 31
0.0
  0
LINE
  5
BF
330
1F
100
AcDbEntity
  8
LC-002-100-D00-0
 62
     7
370
    50
100
AcDbLine
 10
147.255306
 20
316.317863
 30
0.0
 11
147.232101
 21
316.317863
 31
0.0
  0
LINE
  5
C0
330
1F
100
AcDbEntity
  8
LC-002-100-D00-0
 62
     7
370
    50
100
AcDbLine
 10
45.278509
 20
316.317863
 30
0.0
 11
45.255308
 21
316.317863
 31
0.0
  0
LINE
  5
C1
330
1F
100
AcDbEntity
  8
LC-002-100-D00-0
 62
     7
370
    50
100
AcDbLine
 10
147.255306
 20
311.217866
 30
0.0
 11
147.255306
 21
316.317863
 31
0.0
  0
INSERT
  5
E7
330
1F
100
AcDbEntity
  8
LC-002-100-D00-0
 62
     7
370
    50
100
AcDbBlockReference
  2
POLY1
 10
0.0
 20
0.0
 30
0.0
  0
INSERT
  5
F9
330
1F
100
AcDbEntity
  8
LC-002-100-D00-0
 62
     7
370
    50
100
AcDbBlockReference
  2
POLY2
 10
0.0
 20
0.0
 30
0.0
  0
LINE
  5
FA
330
1F
100
AcDbEntity
  8
LC-002-100-D00-0
 62
     7
370
    50
100
AcDbLine
 10
147.255306
 20
311.217866
 30
0.0
 11
194.655304
 21
311.217866
 31
0.0
  0
LINE
  5
FB
330
1F
100
AcDbEntity
  8
LC-002-100-D00-0
 62
     7
370
    50
100
AcDbLine
 10
194.655304
 20
311.217866
 30
0.0
 11
194.655304
 21
265.217864
 31
0.0
  0
LINE
  5
FC
330
1F
100
AcDbEntity
  8
LC-002-100-D00-0
 62
     7
370
    50
100
AcDbLine
 10
194.655304
 20
265.217864
 30
0.0
 11
147.255306
 21
265.217864
 31
0.0
  0
LINE
  5
FD
330
1F
100
AcDbEntity
  8
LC-002-100-D00-0
 62
     7
370
    50
100
AcDbLine
 10
148.755305
 20
321.717865
 30
0.0
 11
150.255306
 21
320.851839
 31
0.0
  0
LINE
  5
FE
330
1F
100
AcDbEntity
  8
LC-002-100-D00-0
 62
     7
370
    50
100
AcDbLine
 10
42.255309
 20
320.851839
 30
0.0
 11
43.755305
 21
321.717865
 31
0.0
  0
ARC
  5
FF
330
1F
100
AcDbEntity
  8
LC-002-100-D00-0
 62
     7
370
    50
100
AcDbCircle
 10
199.755306
 20
263.283702
 30
0.0
 40
0.4999999999999935
100
AcDbArc
 50
301.19888
 51
0.0
  0
ARC
  5
100
330
1F
100
AcDbEntity
  8
LC-002-100-D00-0
 62
     7
370
    50
100
AcDbCircle
 10
199.755306
 20
313.152028
 30
0.0
 40
0.5
100
AcDbArc
 50
0.0
 51
58.80112
  0
LINE
  5
101
330
1F
100
AcDbEntity
  8
LC-002-100-D00-0
 62
     7
370
    50
100
AcDbLine
 10
191.255306
 20
263.067865
 30
0.0
 11
194.755305
 21
263.067865
 31
0.0
  0
LINE
  5
102
330
1F
100
AcDbEntity
  8
LC-002-100-D00-0
 62
     7
370
    50
100
AcDbLine
 10
194.755305
 20
313.367865
 30
0.0
 11
191.255306
 21
313.367865
 31
0.0
  0
ARC
  5
103
330
1F
100
AcDbEntity
  8
LC-002-100-D00-0
 62
     7
370
    50
100
AcDbCircle
 10
76.005306
 20
261.217865
 30
0.0
 40
10.50000000000003
100
AcDbArc
 50
180.0
 51
270.0
  0
ARC
  5
104
330
1F
100
AcDbEntity
  8
LC-002-100-D00-0
 62
     7
370
    50
100
AcDbCircle
 10
116.505306
 20
261.217865
 30
0.0
 40
10.50000000000003
100
AcDbArc
 50
270.0
 51
0.0
  0
ARC
  5
105
330
1F
100
AcDbEntity
  8
LC-002-100-D00-0
 62
     7
370
    50
100
AcDbCircle
 10
184.655306
 20
288.217865
 30
0.0
 40
29.64999999999996
100
AcDbArc
 50
292.382565
 51
301.19888
  0
ARC
  5
106
330
1F
100
AcDbEntity
  8
LC-002-100-D00-0
 62
     7
370
    50
100
AcDbCircle
 10
184.655306
 20
288.217865
 30
0.0
 40
29.64999999999997
100
AcDbArc
 50
58.80112
 51
67.617435
  0
LINE
  5
107
330
1F
100
AcDbEntity
  8
LC-002-100-D00-0
 62
     7
370
    50
100
AcDbLine
 10
62.505305
 20
261.217864
 30
0.0
 11
62.505305
 21
273.349527
 31
0.0
  0
LINE
  5
108
330
1F
100
AcDbEntity
  8
LC-002-100-D00-0
 62
     7
370
    50
100
AcDbLine
 10
130.005306
 20
264.462984
 30
0.0
 11
130.005306
 21
261.217864
 31
0.0
  0
LINE
  5
109
330
1F
100
AcDbEntity
  8
LC-002-100-D00-0
 62
     7
370
    50
100
AcDbLine
 10
166.755304
 20
262.217865
 30
0.0
 11
166.755304
 21
260.620187
 31
0.0
  0
LINE
  5
10A
330
1F
100
AcDbEntity
  8
LC-002-100-D00-0
 62
     7
370
    50
100
AcDbLine
 10
130.005306
 20
264.462984
 30
0.0
 11
147.058676
 21
262.217865
 31
0.0
  0
ARC
  5
10B
330
1F
100
AcDbEntity
  8
LC-002-100-D00-0
 62
     7
370
    50
100
AcDbCircle
 10
116.505306
 20
261.217865
 30
0.0
 40
13.50000000000003
100
AcDbArc
 50
270.0
 51
0.0
  0
LINE
  5
10C
330
1F
100
AcDbEntity
  8
LC-002-100-D00-0
 62
     7
370
    50
100
AcDbLine
 10
116.505306
 20
247.717865
 30
0.0
 11
76.005307
 21
247.717865
 31
0.0
  0
ARC
  5
10D
330
1F
100
AcDbEntity
  8
LC-002-100-D00-0
 62
     7
370
    50
100
AcDbCircle
 10
76.005306
 20
261.217865
 30
0.0
 40
13.50000000000001
100
AcDbArc
 50
180.0
 51
270.0
  0
LINE
  5
10E
330
1F
100
AcDbEntity
  8
LC-002-100-D00-0
 62
     7
370
    50
100
AcDbLine
 10
49.211097
 20
275.099742
 30
0.0
 11
62.505305
 21
273.349527
 31
0.0
  0
ARC
  5
10F
330
1F
100
AcDbEntity
  8
LC-002-100-D00-0
 62
     7
370
    50
100
AcDbCircle
 10
50.255306
 20
283.031302
 30
0.0
 40
8.000000000000028
100
AcDbArc
 50
180.0
 51
262.5
  0
LINE
  5
110
330
1F
100
AcDbEntity
  8
LC-002-100-D00-0
 62
     7
370
    50
100
AcDbLine
 10
43.808383
 20
321.717865
 30
0.0
 11
45.255308
 21
316.317863
 31
0.0
  0
ARC
  5
111
330
1F
100
AcDbEntity
  8
LC-002-100-D00-0
 62
     7
370
    50
100
AcDbCircle
 10
50.255306
 20
283.031302
 30
0.0
 40
5.000000000000021
100
AcDbArc
 50
180.0
 51
262.5
  0
LINE
  5
112
330
1F
100
AcDbEntity
  8
LC-002-100-D00-0
 62
     7
370
    50
100
AcDbLine
 10
65.505308
 20
275.980457
 30
0.0
 11
49.602677
 21
278.074078
 31
0.0
  0
LINE
  5
113
330
1F
100
AcDbEntity
  8
LC-002-100-D00-0
 62
     7
370
    50
100
AcDbLine
 10
65.505308
 20
261.217864
 30
0.0
 11
65.505308
 21
275.980457
 31
0.0
  0
LINE
  5
114
330
1F
100
AcDbEntity
  8
LC-002-100-D00-0
 62
     7
370
    50
100
AcDbLine
 10
127.005306
 20
267.883827
 30
0.0
 11
127.005306
 21
261.217864
 31
0.0
  0
LINE
  5
115
330
1F
100
AcDbEntity
  8
LC-002-100-D00-0
 62
     7
370
    50
100
AcDbLine
 10
147.255306
 20
265.217864
 30
0.0
 11
127.005306
 21
267.883827
 31
0.0
  0
LINE
  5
116
330
1F
100
AcDbEntity
  8
LC-002-100-D00-0
 62
     7
370
    50
100
AcDbLine
 10
200.255309
 20
263.717349
 30
0.0
 11
194.655304
 21
265.217864
 31
0.0
  0
LINE
  5
117
330
1F
100
AcDbEntity
  8
LC-002-100-D00-0
 62
     7
370
    50
100
AcDbLine
 10
200.255309
 20
263.283701
 30
0.0
 11
200.255309
 21
263.717349
 31
0.0
  0
ARC
  5
118
330
1F
100
AcDbEntity
  8
LC-002-100-D00-0
 62
     7
370
    50
100
AcDbCircle
 10
195.755306
 20
261.263969
 30
0.0
 40
0.5
100
AcDbArc
 50
180.0
 51
292.382565
  0
LINE
  5
119
330
1F
100
AcDbEntity
  8
LC-002-100-D00-0
 62
     7
370
    50
100
AcDbLine
 10
195.255306
 20
262.567865
 30
0.0
 11
195.255306
 21
261.263969
 31
0.0
  0
ARC
  5
11A
330
1F
100
AcDbEntity
  8
LC-002-100-D00-0
 62
     7
370
    50
100
AcDbCircle
 10
194.755306
 20
262.567865
 30
0.0
 40
0.5
100
AcDbArc
 50
0.0
 51
90.0
  0
ARC
  5
11B
330
1F
100
AcDbEntity
  8
LC-002-100-D00-0
 62
     7
370
    50
100
AcDbCircle
 10
191.255306
 20
262.567865
 30
0.0
 40
0.5
100
AcDbArc
 50
90.0
 51
180.0
  0
LINE
  5
11C
330
1F
100
AcDbEntity
  8
LC-002-100-D00-0
 62
     7
370
    50
100
AcDbLine
 10
190.755305
 20
260.642616
 30
0.0
 11
190.755305
 21
262.567865
 31
0.0
  0
ARC
  5
11D
330
1F
100
AcDbEntity
  8
LC-002-100-D00-0
 62
     7
370
    50
100
AcDbCircle
 10
184.655306
 20
288.217865
 30
0.0
 40
29.65000000000005
100
AcDbArc
 50
241.270302
 51
248.522231
  0
LINE
  5
11E
330
1F
100
AcDbEntity
  8
LC-002-100-D00-0
 62
     7
370
    50
100
AcDbLine
 10
169.255306
 20
262.217865
 30
0.0
 11
170.403202
 21
262.217865
 31
0.0
  0
LINE
  5
11F
330
1F
100
AcDbEntity
  8
LC-002-100-D00-0
 62
     7
370
    50
100
AcDbLine
 10
169.255306
 20
260.622523
 30
0.0
 11
169.255306
 21
262.217865
 31
0.0
  0
LINE
  5
120
330
1F
100
AcDbEntity
  8
LC-002-100-D00-0
 62
     7
370
    50
100
AcDbLine
 10
76.005307
 20
250.717865
 30
0.0
 11
116.505306
 21
250.717865
 31
0.0
  0
LINE
  5
121
330
1F
100
AcDbEntity
  8
LC-002-100-D00-0
 62
     7
370
    50
100
AcDbLine
 10
43.755305
 20
321.717865
 30
0.0
 11
43.808383
 21
321.717865
 31
0.0
  0
ARC
  5
122
330
1F
100
AcDbEntity
  8
LC-002-100-D00-0
 62
     7
370
    50
100
AcDbCircle
 10
194.755306
 20
313.867865
 30
0.0
 40
0.5
100
AcDbArc
 50
270.0
 51
0.0
  0
ARC
  5
123
330
1F
100
AcDbEntity
  8
LC-002-100-D00-0
 62
     7
370
    50
100
AcDbCircle
 10
191.255306
 20
313.867865
 30
0.0
 40
0.5
100
AcDbArc
 50
180.0
 51
270.0
  0
LINE
  5
124
330
1F
100
AcDbEntity
  8
LC-002-100-D00-0
 62
     7
370
    50
100
AcDbLine
 10
195.255306
 20
315.171763
 30
0.0
 11
195.255306
 21
313.867866
 31
0.0
  0
ARC
  5
125
330
1F
100
AcDbEntity
  8
LC-002-100-D00-0
 62
     7
370
    50
100
AcDbCircle
 10
195.755306
 20
315.171761
 30
0.0
 40
0.4999999999999731
100
AcDbArc
 50
67.617435
 51
180.0
  0
LINE
  5
126
330
1F
100
AcDbEntity
  8
LC-002-100-D00-0
 62
     7
370
    50
100
AcDbLine
 10
200.255309
 20
312.718383
 30
0.0
 11
200.255309
 21
313.152029
 31
0.0
  0
LINE
  5
127
330
1F
100
AcDbEntity
  8
LC-002-100-D00-0
 62
     7
370
    50
100
AcDbLine
 10
194.655304
 20
311.217866
 30
0.0
 11
200.255309
 21
312.718383
 31
0.0
  0
LINE
  5
128
330
1F
100
AcDbEntity
  8
LC-002-100-D00-0
 62
     7
370
    50
100
AcDbLine
 10
147.255306
 20
316.317863
 30
0.0
 11
148.702231
 21
321.717865
 31
0.0
  0
LINE
  5
129
330
1F
100
AcDbEntity
  8
LC-002-100-D00-0
 62
     7
370
    50
100
AcDbLine
 10
166.755304
 20
316.217861
 30
0.0
 11
166.755304
 21
314.217865
 31
0.0
  0
ARC
  5
12A
330
1F
100
AcDbEntity
  8
LC-002-100-D00-0
 62
     7
370
    50
100
AcDbCircle
 10
184.655306
 20
288.217865
 30
0.0
 40
33.2326646539214
100
AcDbArc
 50
104.641094
 51
122.5902
  0
LINE
  5
12B
330
1F
100
AcDbEntity
  8
LC-002-100-D00-0
 62
     7
370
    50
100
AcDbLine
 10
176.255305
 20
316.653102
 30
0.0
 11
176.255305
 21
320.371404
 31
0.0
  0
ARC
  5
12C
330
1F
100
AcDbEntity
  8
LC-002-100-D00-0
 62
     7
370
    50
100
AcDbCircle
 10
184.655306
 20
288.217865
 30
0.0
 40
29.65000000000001
100
AcDbArc
 50
78.924066
 51
106.45757
  0
ARC
  5
12D
330
1F
100
AcDbEntity
  8
LC-002-100-D00-0
 62
     7
370
    50
100
AcDbCircle
 10
190.255306
 20
316.824901
 30
0.0
 40
0.5
100
AcDbArc
 50
0.0
 51
78.924066
  0
LINE
  5
12E
330
1F
100
AcDbEntity
  8
LC-002-100-D00-0
 62
     7
370
    50
100
AcDbLine
 10
190.755305
 20
313.867866
 30
0.0
 11
190.755305
 21
316.824897
 31
0.0
  0
LINE
  5
12F
330
1F
100
AcDbEntity
  8
LC-002-100-D00-0
 62
     7
370
    50
100
AcDbLine
 10
148.702231
 20
321.717865
 30
0.0
 11
148.755305
 21
321.717865
 31
0.0
  0
INSERT
  5
135
330
1F
100
AcDbEntity
  8
LC-002-100-D00-0
 62
     7
370
    50
100
AcDbBlockReference
  2
KLON1
 10
0.0
 20
0.0
 30
0.0
  0
INSERT
  5
13B
330
1F
100
AcDbEntity
  8
LC-002-100-D00-0
 62
     7
370
    50
100
AcDbBlockReference
  2
KLON2
 10
0.0
 20
0.0
 30
0.0
  0
ARC
  5
13C
330
1F
100
AcDbEntity
  8
LC-002-100-D00-0
 62
     7
370
    50
100
AcDbCircle
 10
139.932584
 20
271.140056
 30
0.0
 40
4.917811009355504
100
AcDbArc
 50
264.171251
 51
0.755449
  0
LINE
  5
13D
330
1F
100
AcDbEntity
  8
LC-002-100-D00-0
 62
     7
370
    50
100
AcDbLine
 10
200.255309
 20
312.718383
 30
0.0
 11
200.255309
 21
263.717349
 31
0.0
  0
LINE
  5
13E
330
1F
100
AcDbEntity
  8
LC-002-100-D00-0
 62
     7
370
    50
100
AcDbLine
 10
43.808383
 20
321.717865
 30
0.0
 11
43.831584
 21
321.717865
 31
0.0
  0
CIRCLE
  5
13F
330
1F
100
AcDbEntity
  8
LC-002-100-D00-0
 62
     7
370
    50
100
AcDbCircle
 10
135.505306
 20
333.267865
 30
0.0
 40
1.249999999999972
  0
CIRCLE
  5
140
330
1F
100
AcDbEntity
  8
LC-002-100-D00-0
 62
     7
370
    50
100
AcDbCircle
 10
57.005306
 20
333.267865
 30
0.0
 40
1.249999999999993
  0
LINE
  5
141
330
1F
100
AcDbEntity
  8
LC-002-100-D00-0
 62
     7
370
    50
100
AcDbLine
 10
56.505304
 20
334.517866
 30
0.0
 11
56.505304
 21
336.517862
 31
0.0
  0
LINE
  5
142
330
1F
100
AcDbEntity
  8
LC-002-100-D00-0
 62
     7
370
    50
100
AcDbLine
 10
136.005306
 20
336.517862
 30
0.0
 11
136.005306
 21
334.517866
 31
0.0
  0
LINE
  5
143
330
1F
100
AcDbEntity
  8
LC-002-100-D00-0
 62
     7
370
    50
100
AcDbLine
 10
56.755309
 20
330.017864
 30
0.0
 11
56.755309
 21
331.717863
 31
0.0
  0
LINE
  5
144
330
1F
100
AcDbEntity
  8
LC-002-100-D00-0
 62
     7
370
    50
100
AcDbLine
 10
135.755306
 20
331.717863
 30
0.0
 11
135.755306
 21
330.017864
 31
0.0
  0
LINE
  5
145
330
1F
100
AcDbEntity
  8
LC-002-100-D00-0
 62
     7
370
    50
100
AcDbLine
 10
58.255304
 20
331.717863
 30
0.0
 11
58.255304
 21
334.517866
 31
0.0
  0
LINE
  5
146
330
1F
100
AcDbEntity
  8
LC-002-100-D00-0
 62
     7
370
    50
100
AcDbLine
 10
134.255306
 20
334.517866
 30
0.0
 11
134.255306
 21
331.717863
 31
0.0
  0
LINE
  5
147
330
1F
100
AcDbEntity
  8
LC-002-100-D00-0
 62
     7
370
    50
100
AcDbLine
 10
60.755306
 20
326.517864
 30
0.0
 11
60.755306
 21
330.017864
 31
0.0
  0
LINE
  5
148
330
1F
100
AcDbEntity
  8
LC-002-100-D00-0
 62
     7
370
    50
100
AcDbLine
 10
131.755306
 20
330.017864
 30
0.0
 11
131.755306
 21
326.517864
 31
0.0
  0
ARC
  5
149
330
1F
100
AcDbEntity
  8
LC-002-100-D00-0
 62
     7
370
    50
100
AcDbCircle
 10
60.755306
 20
334.517865
 30
0.0
 40
2.0
100
AcDbArc
 50
0.0
 51
90.0
  0
ARC
  5
14A
330
1F
100
AcDbEntity
  8
LC-002-100-D00-0
 62
     7
370
    50
100
AcDbCircle
 10
131.755306
 20
334.517865
 30
0.0
 40
2.0
100
AcDbArc
 50
90.0
 51
180.0
  0
LINE
  5
14B
330
1F
100
AcDbEntity
  8
LC-002-100-D00-0
 62
     7
370
    50
100
AcDbLine
 10
131.755306
 20
336.517862
 30
0.0
 11
130.255306
 21
336.517862
 31
0.0
  0
LINE
  5
14C
330
1F
100
AcDbEntity
  8
LC-002-100-D00-0
 62
     7
370
    50
100
AcDbLine
 10
62.255305
 20
336.517862
 30
0.0
 11
60.755306
 21
336.517862
 31
0.0
  0
ARC
  5
14D
330
1F
100
AcDbEntity
  8
LC-002-100-D00-0
 62
     7
370
    50
100
AcDbCircle
 10
63.755306
 20
328.517865
 30
0.0
 40
1.0
100
AcDbArc
 50
180.0
 51
270.0
  0
ARC
  5
14E
330
1F
100
AcDbEntity
  8
LC-002-100-D00-0
 62
     7
370
    50
100
AcDbCircle
 10
128.755306
 20
328.517865
 30
0.0
 40
1.0
100
AcDbArc
 50
270.0
 51
0.0
  0
LINE
  5
14F
330
1F
100
AcDbEntity
  8
LC-002-100-D00-0
 62
     7
370
    50
100
AcDbLine
 10
62.755306
 20
334.517866
 30
0.0
 11
62.755306
 21
328.517868
 31
0.0
  0
LINE
  5
150
330
1F
100
AcDbEntity
  8
LC-002-100-D00-0
 62
     7
370
    50
100
AcDbLine
 10
129.755306
 20
328.517868
 30
0.0
 11
129.755306
 21
334.517866
 31
0.0
  0
ARC
  5
151
330
1F
100
AcDbEntity
  8
LC-002-100-D00-0
 62
     7
370
    50
100
AcDbCircle
 10
66.255306
 20
315.517865
 30
0.0
 40
11.0
100
AcDbArc
 50
0.0
 51
90.0
  0
ARC
  5
152
330
1F
100
AcDbEntity
  8
LC-002-100-D00-0
 62
     7
370
    50
100
AcDbCircle
 10
126.255306
 20
315.517865
 30
0.0
 40
11.0
100
AcDbArc
 50
90.0
 51
180.0
  0
ARC
  5
153
330
1F
100
AcDbEntity
  8
LC-002-100-D00-0
 62
     7
370
    50
100
AcDbCircle
 10
66.255306
 20
315.517865
 30
0.0
 40
12.00000000000001
100
AcDbArc
 50
0.0
 51
90.0
  0
ARC
  5
154
330
1F
100
AcDbEntity
  8
LC-002-100-D00-0
 62
     7
370
    50
100
AcDbCircle
 10
126.255306
 20
315.517865
 30
0.0
 40
12.0
100
AcDbArc
 50
90.0
 51
180.0
  0
LINE
  5
155
330
1F
100
AcDbEntity
  8
LC-002-100-D00-0
 62
     7
370
    50
100
AcDbLine
 10
126.255306
 20
327.517866
 30
0.0
 11
66.255306
 21
327.517866
 31
0.0
  0
LINE
  5
156
330
1F
100
AcDbEntity
  8
LC-002-100-D00-0
 62
     7
370
    50
100
AcDbLine
 10
77.255306
 20
264.517865
 30
0.0
 11
77.255306
 21
315.517864
 31
0.0
  0
LINE
  5
157
330
1F
100
AcDbEntity
  8
LC-002-100-D00-0
 62
     7
370
    50
100
AcDbLine
 10
115.255306
 20
315.517864
 30
0.0
 11
115.255306
 21
264.517865
 31
0.0
  0
LINE
  5
158
330
1F
100
AcDbEntity
  8
LC-002-100-D00-0
 62
     7
370
    50
100
AcDbLine
 10
78.255308
 20
315.517864
 30
0.0
 11
78.255308
 21
264.517865
 31
0.0
  0
LINE
  5
159
330
1F
100
AcDbEntity
  8
LC-002-100-D00-0
 62
     7
370
    50
100
AcDbLine
 10
114.255306
 20
264.517865
 30
0.0
 11
114.255306
 21
315.517864
 31
0.0
  0
LINE
  5
15A
330
1F
100
AcDbEntity
  8
LC-002-100-D00-0
 62
     7
370
    50
100
AcDbLine
 10
114.255306
 20
264.517865
 30
0.0
 11
78.255308
 21
264.517865
 31
0.0
  0
LINE
  5
15B
330
1F
100
AcDbEntity
  8
LC-002-100-D00-0
 62
     7
370
    50
100
AcDbLine
 10
78.255308
 20
264.517865
 30
0.0
 11
77.255306
 21
264.517865
 31
0.0
  0
LINE
  5
15C
330
1F
100
AcDbEntity
  8
LC-002-100-D00-0
 62
     7
370
    50
100
AcDbLine
 10
63.755304
 20
327.517866
 30
0.0
 11
66.255306
 21
327.517866
 31
0.0
  0
LINE
  5
15D
330
1F
100
AcDbEntity
  8
LC-002-100-D00-0
 62
     7
370
    50
100
AcDbLine
 10
66.255306
 20
326.517864
 30
0.0
 11
60.755306
 21
326.517864
 31
0.0
  0
LINE
  5
15E
330
1F
100
AcDbEntity
  8
LC-002-100-D00-0
 62
     7
370
    50
100
AcDbLine
 10
60.755306
 20
330.017864
 30
0.0
 11
56.755309
 21
330.017864
 31
0.0
  0
LINE
  5
15F
330
1F
100
AcDbEntity
  8
LC-002-100-D00-0
 62
     7
370
    50
100
AcDbLine
 10
56.755309
 20
331.717863
 30
0.0
 11
58.255304
 21
331.717863
 31
0.0
  0
LINE
  5
160
330
1F
100
AcDbEntity
  8
LC-002-100-D00-0
 62
     7
370
    50
100
AcDbLine
 10
56.505304
 20
336.517862
 30
0.0
 11
60.755306
 21
336.517862
 31
0.0
  0
LINE
  5
161
330
1F
100
AcDbEntity
  8
LC-002-100-D00-0
 62
     7
370
    50
100
AcDbLine
 10
58.255304
 20
334.517866
 30
0.0
 11
56.505304
 21
334.517866
 31
0.0
  0
LINE
  5
162
330
1F
100
AcDbEntity
  8
LC-002-100-D00-0
 62
     7
370
    50
100
AcDbLine
 10
115.255306
 20
264.517865
 30
0.0
 11
114.255306
 21
264.517865
 31
0.0
  0
LINE
  5
163
330
1F
100
AcDbEntity
  8
LC-002-100-D00-0
 62
     7
370
    50
100
AcDbLine
 10
126.255306
 20
327.517866
 30
0.0
 11
128.755306
 21
327.517866
 31
0.0
  0
LINE
  5
164
330
1F
100
AcDbEntity
  8
LC-002-100-D00-0
 62
     7
370
    50
100
AcDbLine
 10
131.755306
 20
326.517864
 30
0.0
 11
126.255306
 21
326.517864
 31
0.0
  0
LINE
  5
165
330
1F
100
AcDbEntity
  8
LC-002-100-D00-0
 62
     7
370
    50
100
AcDbLine
 10
135.755306
 20
330.017864
 30
0.0
 11
131.755306
 21
330.017864
 31
0.0
  0
LINE
  5
166
330
1F
100
AcDbEntity
  8
LC-002-100-D00-0
 62
     7
370
    50
100
AcDbLine
 10
134.255306
 20
331.717863
 30
0.0
 11
135.755306
 21
331.717863
 31
0.0
  0
LINE
  5
167
330
1F
100
AcDbEntity
  8
LC-002-100-D00-0
 62
     7
370
    50
100
AcDbLine
 10
131.755306
 20
336.517862
 30
0.0
 11
136.005306
 21
336.517862
 31
0.0
  0
LINE
  5
168
330
1F
100
AcDbEntity
  8
LC-002-100-D00-0
 62
     7
370
    50
100
AcDbLine
 10
136.005306
 20
334.517866
 30
0.0
 11
134.255306
 21
334.517866
 31
0.0
  0
LINE
  5
169
330
1F
100
AcDbEntity
  8
LC-002-100-D00-0
 62
     7
370
    50
100
AcDbLine
 10
126.755306
 20
261.017865
 30
0.0
 11
126.755306
 21
312.017865
 31
0.0
  0
LINE
  5
16A
330
1F
100
AcDbEntity
  8
LC-002-100-D00-0
 62
     7
370
    50
100
AcDbLine
 10
65.755305
 20
312.017865
 30
0.0
 11
65.755305
 21
261.017865
 31
0.0
  0
ARC
  5
16B
330
1F
100
AcDbEntity
  8
LC-002-100-D00-0
 62
     7
370
    50
100
AcDbCircle
 10
60.255306
 20
326.517865
 30
0.0
 40
1.500000000000014
100
AcDbArc
 50
180.0
 51
206.322803
  0
ARC
  5
16C
330
1F
100
AcDbEntity
  8
LC-002-100-D00-0
 62
     7
370
    50
100
AcDbCircle
 10
132.255306
 20
326.517865
 30
0.0
 40
1.499999999999991
100
AcDbArc
 50
333.677197
 51
0.0
  0
ARC
  5
16D
330
1F
100
AcDbEntity
  8
LC-002-100-D00-0
 62
     7
370
    50
100
AcDbCircle
 10
75.755306
 20
261.017865
 30
0.0
 40
10.00000000000003
100
AcDbArc
 50
180.0
 51
270.0
  0
LINE
  5
16E
330
1F
100
AcDbEntity
  8
LC-002-100-D00-0
 62
     7
370
    50
100
AcDbLine
 10
58.910844
 20
325.852721
 30
0.0
 11
65.755305
 21
312.017865
 31
0.0
  0
LINE
  5
16F
330
1F
100
AcDbEntity
  8
LC-002-100-D00-0
 62
     7
370
    50
100
AcDbLine
 10
58.755305
 20
328.517868
 30
0.0
 11
58.755305
 21
326.517864
 31
0.0
  0
LINE
  5
170
330
1F
100
AcDbEntity
  8
LC-002-100-D00-0
 62
     7
370
    50
100
AcDbLine
 10
56.505304
 20
328.517868
 30
0.0
 11
58.755305
 21
328.517868
 31
0.0
  0
LINE
  5
171
330
1F
100
AcDbEntity
  8
LC-002-100-D00-0
 62
     7
370
    50
100
AcDbLine
 10
56.505304
 20
330.017864
 30
0.0
 11
56.505304
 21
328.517868
 31
0.0
  0
LINE
  5
172
330
1F
100
AcDbEntity
  8
LC-002-100-D00-0
 62
     7
370
    50
100
AcDbLine
 10
60.255305
 20
330.017864
 30
0.0
 11
56.505304
 21
330.017864
 31
0.0
  0
LINE
  5
173
330
1F
100
AcDbEntity
  8
LC-002-100-D00-0
 62
     7
370
    50
100
AcDbLine
 10
60.255305
 20
326.517864
 30
0.0
 11
60.255305
 21
330.017864
 31
0.0
  0
LINE
  5
174
330
1F
100
AcDbEntity
  8
LC-002-100-D00-0
 62
     7
370
    50
100
AcDbLine
 10
66.739374
 20
313.411488
 30
0.0
 11
60.255305
 21
326.517864
 31
0.0
  0
LINE
  5
175
330
1F
100
AcDbEntity
  8
LC-002-100-D00-0
 62
     7
370
    50
100
AcDbLine
 10
66.739374
 20
313.411488
 30
0.0
 11
67.255308
 21
312.517866
 31
0.0
  0
LINE
  5
176
330
1F
100
AcDbEntity
  8
LC-002-100-D00-0
 62
     7
370
    25
100
AcDbLine
 10
67.255308
 20
261.017865
 30
0.0
 11
67.255308
 21
312.517866
 31
0.0
  0
ARC
  5
177
330
1F
100
AcDbEntity
  8
LC-002-100-D00-0
 62
     7
370
    50
100
AcDbCircle
 10
75.755306
 20
261.017865
 30
0.0
 40
8.500000000000028
100
AcDbArc
 50
180.0
 51
270.0
  0
LINE
  5
178
330
1F
100
AcDbEntity
  8
LC-002-100-D00-0
 62
     7
370
    50
100
AcDbLine
 10
116.755306
 20
252.517865
 30
0.0
 11
75.755306
 21
252.517865
 31
0.0
  0
ARC
  5
179
330
1F
100
AcDbEntity
  8
LC-002-100-D00-0
 62
     7
370
    50
100
AcDbCircle
 10
116.755306
 20
261.017865
 30
0.0
 40
8.500000000000028
100
AcDbArc
 50
270.0
 51
0.0
  0
LINE
  5
17A
330
1F
100
AcDbEntity
  8
LC-002-100-D00-0
 62
     7
370
    50
100
AcDbLine
 10
125.255306
 20
312.517866
 30
0.0
 11
125.255306
 21
261.017865
 31
0.0
  0
LINE
  5
17B
330
1F
100
AcDbEntity
  8
LC-002-100-D00-0
 62
     7
370
    50
100
AcDbLine
 10
125.255306
 20
312.517866
 30
0.0
 11
125.77124
 21
313.411488
 31
0.0
  0
LINE
  5
17C
330
1F
100
AcDbEntity
  8
LC-002-100-D00-0
 62
     7
370
    50
100
AcDbLine
 10
132.255306
 20
326.517864
 30
0.0
 11
125.77124
 21
313.411488
 31
0.0
  0
LINE
  5
17D
330
1F
100
AcDbEntity
  8
LC-002-100-D00-0
 62
     7
370
    50
100
AcDbLine
 10
132.255306
 20
330.017864
 30
0.0
 11
132.255306
 21
326.517864
 31
0.0
  0
LINE
  5
17E
330
1F
100
AcDbEntity
  8
LC-002-100-D00-0
 62
     7
370
    50
100
AcDbLine
 10
136.005306
 20
330.017864
 30
0.0
 11
132.255306
 21
330.017864
 31
0.0
  0
LINE
  5
17F
330
1F
100
AcDbEntity
  8
LC-002-100-D00-0
 62
     7
370
    50
100
AcDbLine
 10
136.005306
 20
328.517868
 30
0.0
 11
136.005306
 21
330.017864
 31
0.0
  0
LINE
  5
180
330
1F
100
AcDbEntity
  8
LC-002-100-D00-0
 62
     7
370
    50
100
AcDbLine
 10
133.755306
 20
328.517868
 30
0.0
 11
136.005306
 21
328.517868
 31
0.0
  0
LINE
  5
181
330
1F
100
AcDbEntity
  8
LC-002-100-D00-0
 62
     7
370
    50
100
AcDbLine
 10
133.755306
 20
326.517864
 30
0.0
 11
133.755306
 21
328.517868
 31
0.0
  0
LINE
  5
182
330
1F
100
AcDbEntity
  8
LC-002-100-D00-0
 62
     7
370
    50
100
AcDbLine
 10
126.755306
 20
312.017865
 30
0.0
 11
133.599771
 21
325.852721
 31
0.0
  0
ARC
  5
183
330
1F
100
AcDbEntity
  8
LC-002-100-D00-0
 62
     7
370
    50
100
AcDbCircle
 10
116.755306
 20
261.017865
 30
0.0
 40
10.00000000000003
100
AcDbArc
 50
270.0
 51
0.0
  0
LINE
  5
184
330
1F
100
AcDbEntity
  8
LC-002-100-D00-0
 62
     7
370
    50
100
AcDbLine
 10
75.755306
 20
251.017865
 30
0.0
 11
116.755306
 21
251.017865
 31
0.0
  0
LINE
  5
185
330
1F
100
AcDbEntity
  8
LC-002-100-D00-0
 62
     7
370
    50
100
AcDbLine
 10
125.255306
 20
312.517866
 30
0.0
 11
115.255306
 21
312.517866
 31
0.0
  0
LINE
  5
186
330
1F
100
AcDbEntity
  8
LC-002-100-D00-0
 62
     7
370
    50
100
AcDbLine
 10
77.255306
 20
312.517866
 30
0.0
 11
67.255308
 21
312.517866
 31
0.0
  0
LINE
  5
187
330
1F
100
AcDbEntity
  8
LC-002-100-D00-0
 62
     7
370
    50
100
AcDbLine
 10
66.739374
 20
313.411488
 30
0.0
 11
66.89223
 21
313.411488
 31
0.0
  0
LINE
  5
188
330
1F
100
AcDbEntity
  8
LC-002-100-D00-0
 62
     7
370
    50
100
AcDbLine
 10
66.250206
 20
314.517862
 30
0.0
 11
77.255306
 21
314.517862
 31
0.0
  0
LINE
  5
189
330
1F
100
AcDbEntity
  8
LC-002-100-D00-0
 62
     7
370
    50
100
AcDbLine
 10
115.255306
 20
314.517862
 30
0.0
 11
126.260405
 21
314.517862
 31
0.0
  0
LINE
  5
18A
330
1F
100
AcDbEntity
  8
LC-002-100-D00-0
 62
     7
370
    50
100
AcDbLine
 10
125.618384
 20
313.411488
 30
0.0
 11
125.77124
 21
313.411488
 31
0.0
  0
INSERT
  5
196
330
1F
100
AcDbEntity
  8
LC-002-100-D00-0
 62
     7
370
    50
100
AcDbBlockReference
  2
POLY3
 10
0.0
 20
0.0
 30
0.0
  0
LINE
  5
197
330
1F
100
AcDbEntity
  8
LC-002-100-D00-0
 62
     7
370
    50
100
AcDbLine
 10
132.130088
 20
326.517864
 30
0.0
 11
132.255306
 21
326.517864
 31
0.0
  0
LINE
  5
198
330
1F
100
AcDbEntity
  8
LC-002-100-D00-0
 62
     7
370
    50
100
AcDbLine
 10
60.255305
 20
326.517864
 30
0.0
 11
60.380523
 21
326.517864
 31
0.0
  0
INSERT
  5
1A4
330
1F
100
AcDbEntity
  8
LC-002-100-D00-0
 62
     7
370
    50
100
AcDbBlockReference
  2
POLY4
 10
0.0
 20
0.0
 30
0.0
  0
LINE
  5
1A5
330
1F
100
AcDbEntity
  8
LC-002-100-D00-0
 62
     7
370
    50
100
AcDbLine
 10
132.130088
 20
326.517864
 30
0.0
 11
131.755306
 21
326.517864
 31
0.0
  0
LINE
  5
1A6
330
1F
100
AcDbEntity
  8
LC-002-100-D00-0
 62
     7
370
    50
100
AcDbLine
 10
60.755306
 20
326.517864
 30
0.0
 11
60.380523
 21
326.517864
 31
0.0
  0
LINE
  5
1A7
330
1F
100
AcDbEntity
  8
LC-002-100-D00-0
 62
     7
370
    50
100
AcDbLine
 10
139.155307
 20
326.217867
 30
0.0
 11
145.755307
 21
326.217867
 31
0.0
  0
LINE
  5
1A8
330
1F
100
AcDbEntity
  8
LC-002-100-D00-0
 62
     7
370
    50
100
AcDbLine
 10
145.755307
 20
326.217867
 30
0.0
 11
145.755307
 21
328.217863
 31
0.0
  0
LINE
  5
1A9
330
1F
100
AcDbEntity
  8
LC-002-100-D00-0
 62
     7
370
    50
100
AcDbLine
 10
150.255306
 20
324.217863
 30
0.0
 11
154.755306
 21
324.217863
 31
0.0
  0
LINE
  5
1AA
330
1F
100
AcDbEntity
  8
LC-002-100-D00-0
 62
     7
370
    50
100
AcDbLine
 10
154.755306
 20
324.217863
 30
0.0
 11
154.755306
 21
319.717868
 31
0.0
  0
LINE
  5
1AB
330
1F
100
AcDbEntity
  8
LC-002-100-D00-0
 62
     7
370
    50
100
AcDbLine
 10
154.755306
 20
319.717868
 30
0.0
 11
151.005306
 21
319.717868
 31
0.0
  0
LINE
  5
1AC
330
1F
100
AcDbEntity
  8
LC-002-100-D00-0
 62
     7
370
    50
100
AcDbLine
 10
151.005306
 20
319.717868
 30
0.0
 11
151.005306
 21
320.42919
 31
0.0
  0
LINE
  5
1AD
330
1F
100
AcDbEntity
  8
LC-002-100-D00-0
 62
     7
370
    50
100
AcDbLine
 10
151.005306
 20
320.42919
 30
0.0
 11
148.691651
 21
321.764983
 31
0.0
  0
LINE
  5
1AE
330
1F
100
AcDbEntity
  8
LC-002-100-D00-0
 62
     7
370
    50
100
AcDbLine
 10
148.691651
 20
321.764983
 30
0.0
 11
147.205307
 21
316.217861
 31
0.0
  0
LINE
  5
1AF
330
1F
100
AcDbEntity
  8
LC-002-100-D00-0
 62
     7
370
    50
100
AcDbLine
 10
147.205307
 20
316.217861
 30
0.0
 11
145.755307
 21
316.217861
 31
0.0
  0
LINE
  5
1B0
330
1F
100
AcDbEntity
  8
LC-002-100-D00-0
 62
     7
370
    50
100
AcDbLine
 10
145.755307
 20
316.217861
 30
0.0
 11
145.534453
 21
322.542294
 31
0.0
  0
ARC
  5
1B1
330
1F
100
AcDbEntity
  8
LC-002-100-D00-0
 62
     7
370
    50
100
AcDbCircle
 10
144.834879
 20
322.517865
 30
0.0
 40
0.7000000000000066
100
AcDbArc
 50
2.0
 51
90.0
  0
LINE
  5
1B2
330
1F
100
AcDbEntity
  8
LC-002-100-D00-0
 62
     7
370
    50
100
AcDbLine
 10
144.834879
 20
323.217868
 30
0.0
 11
142.455307
 21
323.217868
 31
0.0
  0
ARC
  5
1B3
330
1F
100
AcDbEntity
  8
LC-002-100-D00-0
 62
     7
370
    50
100
AcDbCircle
 10
142.455306
 20
322.517865
 30
0.0
 40
0.7000000000000455
100
AcDbArc
 50
90.0
 51
180.0
  0
LINE
  5
1B4
330
1F
100
AcDbEntity
  8
LC-002-100-D00-0
 62
     7
370
    50
100
AcDbLine
 10
141.755306
 20
322.517864
 30
0.0
 11
141.755306
 21
311.217866
 31
0.0
  0
LINE
  5
1B5
330
1F
100
AcDbEntity
  8
LC-002-100-D00-0
 62
     7
370
    50
100
AcDbLine
 10
141.755306
 20
311.217866
 30
0.0
 11
139.155307
 21
311.217866
 31
0.0
  0
LINE
  5
1B6
330
1F
100
AcDbEntity
  8
LC-002-100-D00-0
 62
     7
370
    50
100
AcDbLine
 10
139.155307
 20
311.217866
 30
0.0
 11
138.155306
 21
312.217868
 31
0.0
  0
LINE
  5
1B7
330
1F
100
AcDbEntity
  8
LC-002-100-D00-0
 62
     7
370
    50
100
AcDbLine
 10
138.155306
 20
312.217868
 30
0.0
 11
138.155306
 21
325.217865
 31
0.0
  0
LINE
  5
1B8
330
1F
100
AcDbEntity
  8
LC-002-100-D00-0
 62
     7
370
    50
100
AcDbLine
 10
138.155306
 20
325.217865
 30
0.0
 11
139.155307
 21
326.217867
 31
0.0
  0
LINE
  5
1B9
330
1F
100
AcDbEntity
  8
LC-002-100-D00-0
 62
     7
370
    50
100
AcDbLine
 10
50.755304
 20
311.217866
 30
0.0
 11
50.755304
 21
322.517864
 31
0.0
  0
LINE
  5
1BA
330
1F
100
AcDbEntity
  8
LC-002-100-D00-0
 62
     7
370
    50
100
AcDbLine
 10
54.355305
 20
325.217865
 30
0.0
 11
54.355305
 21
312.217868
 31
0.0
  0
LINE
  5
1BB
330
1F
100
AcDbEntity
  8
LC-002-100-D00-0
 62
     7
370
    50
100
AcDbLine
 10
54.355305
 20
312.217868
 30
0.0
 11
53.355303
 21
311.217866
 31
0.0
  0
LINE
  5
1BC
330
1F
100
AcDbEntity
  8
LC-002-100-D00-0
 62
     7
370
    50
100
AcDbLine
 10
53.355303
 20
311.217866
 30
0.0
 11
50.755304
 21
311.217866
 31
0.0
  0
ARC
  5
1BD
330
1F
100
AcDbEntity
  8
LC-002-100-D00-0
 62
     7
370
    50
100
AcDbCircle
 10
50.055306
 20
322.517865
 30
0.0
 40
0.7000000000000028
100
AcDbArc
 50
0.0
 51
90.0
  0
ARC
  5
1BE
330
1F
100
AcDbEntity
  8
LC-002-100-D00-0
 62
     7
370
    50
100
AcDbCircle
 10
47.675734
 20
322.517865
 30
0.0
 40
0.6999999999999886
100
AcDbArc
 50
90.0
 51
178.0
  0
LINE
  5
1BF
330
1F
100
AcDbEntity
  8
LC-002-100-D00-0
 62
     7
370
    50
100
AcDbLine
 10
46.976161
 20
322.542294
 30
0.0
 11
46.755303
 21
316.217861
 31
0.0
  0
LINE
  5
1C0
330
1F
100
AcDbEntity
  8
LC-002-100-D00-0
 62
     7
370
    50
100
AcDbLine
 10
46.755303
 20
316.217861
 30
0.0
 11
45.305309
 21
316.217861
 31
0.0
  0
LINE
  5
1C1
330
1F
100
AcDbEntity
  8
LC-002-100-D00-0
 62
     7
370
    50
100
AcDbLine
 10
45.305309
 20
316.217861
 30
0.0
 11
43.818962
 21
321.764983
 31
0.0
  0
LINE
  5
1C2
330
1F
100
AcDbEntity
  8
LC-002-100-D00-0
 62
     7
370
    50
100
AcDbLine
 10
43.818962
 20
321.764983
 30
0.0
 11
41.505304
 21
320.42919
 31
0.0
  0
LINE
  5
1C3
330
1F
100
AcDbEntity
  8
LC-002-100-D00-0
 62
     7
370
    50
100
AcDbLine
 10
41.505304
 20
320.42919
 30
0.0
 11
41.505304
 21
319.717868
 31
0.0
  0
LINE
  5
1C4
330
1F
100
AcDbEntity
  8
LC-002-100-D00-0
 62
     7
370
    50
100
AcDbLine
 10
41.505304
 20
319.717868
 30
0.0
 11
37.755307
 21
319.717868
 31
0.0
  0
LINE
  5
1C5
330
1F
100
AcDbEntity
  8
LC-002-100-D00-0
 62
     7
370
    50
100
AcDbLine
 10
37.755307
 20
319.717868
 30
0.0
 11
37.755307
 21
324.217863
 31
0.0
  0
LINE
  5
1C6
330
1F
100
AcDbEntity
  8
LC-002-100-D00-0
 62
     7
370
    50
100
AcDbLine
 10
37.755307
 20
324.217863
 30
0.0
 11
42.255309
 21
324.217863
 31
0.0
  0
LINE
  5
1C7
330
1F
100
AcDbEntity
  8
LC-002-100-D00-0
 62
     7
370
    50
100
AcDbLine
 10
46.755303
 20
328.217863
 30
0.0
 11
46.755303
 21
326.217867
 31
0.0
  0
LINE
  5
1C8
330
1F
100
AcDbEntity
  8
LC-002-100-D00-0
 62
     7
370
    50
100
AcDbLine
 10
46.755303
 20
326.217867
 30
0.0
 11
53.355303
 21
326.217867
 31
0.0
  0
LINE
  5
1C9
330
1F
100
AcDbEntity
  8
LC-002-100-D00-0
 62
     7
370
    50
100
AcDbLine
 10
53.355303
 20
326.217867
 30
0.0
 11
54.355305
 21
325.217865
 31
0.0
  0
LINE
  5
1CA
330
1F
100
AcDbEntity
  8
LC-002-100-D00-0
 62
     7
370
    50
100
AcDbLine
 10
50.055307
 20
323.217868
 30
0.0
 11
47.675733
 21
323.217868
 31
0.0
  0
LINE
  5
1CB
330
1F
100
AcDbEntity
  8
LC-002-100-D00-0
 62
     7
370
    50
100
AcDbLine
 10
145.755307
 20
316.217861
 30
0.0
 11
141.755306
 21
316.217861
 31
0.0
  0
LINE
  5
1CC
330
1F
100
AcDbEntity
  8
LC-002-100-D00-0
 62
     7
370
    50
100
AcDbLine
 10
50.755304
 20
316.217861
 30
0.0
 11
46.755303
 21
316.217861
 31
0.0
  0
LINE
  5
1CD
330
1F
100
AcDbEntity
  8
LC-002-100-D00-0
 62
     7
370
    50
100
AcDbLine
 10
151.005306
 20
320.42919
 30
0.0
 11
150.255306
 21
320.42919
 31
0.0
  0
LINE
  5
1CE
330
1F
100
AcDbEntity
  8
LC-002-100-D00-0
 62
     7
370
    50
100
AcDbLine
 10
42.255309
 20
320.42919
 30
0.0
 11
41.505304
 21
320.42919
 31
0.0
  0
LINE
  5
1CF
330
1F
100
AcDbEntity
  8
LC-002-100-D00-0
 62
     7
370
    50
100
AcDbLine
 10
151.005306
 20
319.717868
 30
0.0
 11
150.255306
 21
319.717868
 31
0.0
  0
LINE
  5
1D0
330
1F
100
AcDbEntity
  8
LC-002-100-D00-0
 62
     7
370
    50
100
AcDbLine
 10
42.255309
 20
319.717868
 30
0.0
 11
41.505304
 21
319.717868
 31
0.0
  0
LINE
  5
1D1
330
1F
100
AcDbEntity
  8
LC-002-100-D00-0
 62
     7
370
    50
100
AcDbLine
 10
136.255306
 20
335.717864
 30
0.0
 11
136.005306
 21
335.717864
 31
0.0
  0
LINE
  5
1D2
330
1F
100
AcDbEntity
  8
LC-002-100-D00-0
 62
     7
370
    50
100
AcDbLine
 10
56.505304
 20
335.717864
 30
0.0
 11
56.255308
 21
335.717864
 31
0.0
  0
LINE
  5
1D3
330
1F
100
AcDbEntity
  8
LC-002-100-D00-0
 62
     7
370
    50
100
AcDbLine
 10
65.505308
 20
261.217864
 30
0.0
 11
65.755305
 21
261.217864
 31
0.0
  0
LINE
  5
1D4
330
1F
100
AcDbEntity
  8
LC-002-100-D00-0
 62
     7
370
    50
100
AcDbLine
 10
126.755306
 20
261.217864
 30
0.0
 11
127.005306
 21
261.217864
 31
0.0
  0
LINE
  5
1D5
330
1F
100
AcDbEntity
  8
LC-002-100-D00-0
 62
     7
370
    50
100
AcDbLine
 10
123.085134
 20
328.517868
 30
0.0
 11
120.590444
 21
328.517868
 31
0.0
  0
LINE
  5
1D6
330
1F
100
AcDbEntity
  8
LC-002-100-D00-0
 62
     7
370
    50
100
AcDbLine
 10
71.920168
 20
328.517868
 30
0.0
 11
69.425479
 21
328.517868
 31
0.0
  0
INSERT
  5
1DF
330
1F
100
AcDbEntity
  8
LC-002-100-D00-0
 62
     7
370
    25
100
AcDbBlockReference
  2
KLON3
 10
0.0
 20
0.0
 30
0.0
  0
INSERT
  5
1E8
330
1F
100
AcDbEntity
  8
LC-002-100-D00-0
 62
     7
370
    25
100
AcDbBlockReference
  2
KLON4
 10
0.0
 20
0.0
 30
0.0
  0
INSERT
  5
21C
330
1F
100
AcDbEntity
  8
LC-002-100-D00-0
 62
     7
370
    25
100
AcDbBlockReference
  2
KLON5
 10
0.0
 20
0.0
 30
0.0
  0
INSERT
  5
22A
330
1F
100
AcDbEntity
  8
LC-002-100-D00-0
 62
     7
370
    25
100
AcDbBlockReference
  2
KLON6
 10
0.0
 20
0.0
 30
0.0
  0
INSERT
  5
23E
330
1F
100
AcDbEntity
  8
LC-002-100-D00-0
 62
     7
370
    25
100
AcDbBlockReference
  2
KLON7
 10
0.0
 20
0.0
 30
0.0
  0
LINE
  5
23F
330
1F
100
AcDbEntity
  8
LC-002-100-D00-0
 62
     7
370
    50
100
AcDbLine
 10
134.725386
 20
332.291021
 30
0.0
 11
136.48215
 21
334.047785
 31
0.0
  0
INSERT
  5
251
330
1F
100
AcDbEntity
  8
LC-002-100-D00-0
 62
     7
370
    25
100
AcDbBlockReference
  2
KLON8
 10
0.0
 20
0.0
 30
0.0
  0
INSERT
  5
28C
330
1F
100
AcDbEntity
  8
LC-002-100-D00-0
 62
     7
370
    25
100
AcDbBlockReference
  2
KLON9
 10
0.0
 20
0.0
 30
0.0
  0
INSERT
  5
2A0
330
1F
100
AcDbEntity
  8
LC-002-100-D00-0
 62
     7
370
    25
100
AcDbBlockReference
  2
KLON10
 10
0.0
 20
0.0
 30
0.0
  0
INSERT
  5
2B5
330
1F
100
AcDbEntity
  8
LC-002-100-D00-0
 62
     7
370
    25
100
AcDbBlockReference
  2
KLON11
 10
0.0
 20
0.0
 30
0.0
  0
LINE
  5
2B6
330
1F
100
AcDbEntity
  8
LC-002-100-D00-0
 62
     7
370
    25
100
AcDbLine
 10
193.293083
 20
260.644988
 30
0.0
 11
194.941493
 21
262.293398
 31
0.0
  0
LINE
  5
2B7
330
1F
100
AcDbEntity
  8
LC-002-100-D00-0
 62
     7
370
    25
100
AcDbLine
 10
192.253447
 20
313.486889
 30
0.0
 11
194.986282
 21
316.219724
 31
0.0
  0
LINE
  5
2B8
330
1F
100
AcDbEntity
  8
LC-002-100-D00-0
 62
     7
370
    25
100
AcDbLine
 10
49.255306
 20
327.915451
 30
0.0
 11
46.033399
 21
331.137358
 31
0.0
  0
INSERT
  5
2BE
330
1F
100
AcDbEntity
  8
LC-002-100-D00-0
 62
     7
370
    25
100
AcDbBlockReference
  2
KLON12
 10
0.0
 20
0.0
 30
0.0
  0
INSERT
  5
2CF
330
1F
100
AcDbEntity
  8
LC-002-100-D00-0
 62
     7
370
    25
100
AcDbBlockReference
  2
KLON13
 10
0.0
 20
0.0
 30
0.0
  0
INSERT
  5
2E0
330
1F
100
AcDbEntity
  8
LC-002-100-D00-0
 62
     7
370
    25
100
AcDbBlockReference
  2
KLON14
 10
0.0
 20
0.0
 30
0.0
  0
INSERT
  5
302
330
1F
100
AcDbEntity
  8
LC-002-100-D00-0
 62
     7
370
    25
100
AcDbBlockReference
  2
KLON15
 10
0.0
 20
0.0
 30
0.0
  0
LINE
  5
304
330
1F
100
AcDbEntity
  8
LC-002-100-D00-0
  6
DASHDOT
 62
     7
370
    25
100
AcDbLine
 10
293.255306
 20
288.217865
 30
0.0
 11
139.97238
 21
288.217865
 31
0.0
  0
LINE
  5
305
330
1F
100
AcDbEntity
  8
LC-002-100-D00-0
  6
DASHDOT
 62
     7
370
    25
100
AcDbLine
 10
96.255306
 20
351.005558
 30
0.0
 11
96.255306
 21
245.720981
 31
0.0
  0
DIMENSION
  5
309
330
1F
100
AcDbEntity
  8
LC-003-003-----0
 62
     7
370
    25
100
AcDbDimension
  2
*D20
 10
153.255306
 20
382.809861
 30
0.0
 11
97.782864
 21
413.609861
 31
0.0
 70
   160
  1
%%c<>
 71
     5
 42
114.0
  3
LC-DIM-L-0140-02-02
100
AcDbAlignedDimension
 13
39.255306
 23
345.086757
 33
0.0
 14
153.255306
 24
345.086757
 34
0.0
100
AcDbRotatedDimension
  0
DIMENSION
  5
317
330
1F
100
AcDbEntity
  8
LC-003-003-----0
 62
     7
370
    25
100
AcDbDimension
  2
*D21
 10
130.006762
 20
215.785823
 30
0.0
 11
96.646605
 21
246.554659
 31
0.0
 70
   160
  1
%%c67,5
 71
     5
 42
67.414954
 53
0.053547
  3
LC-DIM-L-0140-02-02
100
AcDbAlignedDimension
 13
62.550349
 23
260.115984
 33
0.0
 14
129.965274
 24
260.178988
 34
0.0
 50
0.053547
100
AcDbRotatedDimension
  0
DIMENSION
  5
324
330
1F
100
AcDbEntity
  8
LC-003-003-----0
 62
     7
370
    25
100
AcDbDimension
  2
*D22
 10
150.255306
 20
151.398391
 30
0.0
 11
93.565943
 21
182.198391
 31
0.0
 70
   160
  1
%%c<>
 71
     5
 42
108.0
  3
LC-DIM-L-0140-02-02
100
AcDbAlignedDimension
 13
42.255306
 23
283.031302
 33
0.0
 14
150.255306
 24
314.217865
 34
0.0
100
AcDbRotatedDimension
  0
DIMENSION
  5
331
330
1F
100
AcDbEntity
  8
LC-003-003-----0
 62
     7
370
    25
100
AcDbDimension
  2
*D23
 10
154.755306
 20
100.314391
 30
0.0
 11
97.825459
 21
131.114391
 31
0.0
 70
   160
  1
%%c<>
 71
     5
 42
116.999999
  3
LC-DIM-L-0140-02-02
100
AcDbAlignedDimension
 13
37.755307
 23
319.717868
 33
0.0
 14
154.755306
 24
319.717868
 34
0.0
100
AcDbRotatedDimension
  0
DIMENSION
  5
33E
330
1F
100
AcDbEntity
  8
LC-003-003-----0
 62
     7
370
    25
100
AcDbDimension
  2
*D24
 10
-35.284422
 20
334.217861
 30
0.0
 11
-66.084422
 21
353.952391
 31
0.0
 70
   160
  1
6-25
 71
     5
 42
3.499992
 53
90.0
  3
LC-DIM-L-0140-02-02
100
AcDbAlignedDimension
 13
44.755307
 23
330.717868
 33
0.0
 14
41.255309
 24
334.217861
 34
0.0
 50
90.0
100
AcDbRotatedDimension
  0
DIMENSION
  5
34C
330
1F
100
AcDbEntity
  8
LC-003-003-----0
 62
     7
370
    25
100
AcDbDimension
  2
*D25
 10
-70.425431
 20
247.717865
 30
0.0
 11
-101.225431
 21
279.702391
 31
0.0
 70
   160
 71
     5
 42
83.000003
 53
90.0
  3
LC-DIM-L-0140-02-02
100
AcDbAlignedDimension
 13
44.755307
 23
330.717868
 33
0.0
 14
76.005306
 24
247.717865
 34
0.0
 50
90.0
100
AcDbRotatedDimension
  0
DIMENSION
  5
359
330
1F
100
AcDbEntity
  8
LC-003-003-----0
 62
     7
370
    25
100
AcDbDimension
  2
*D26
 10
15.324498
 20
314.427056
 30
0.0
 11
-15.475502
 21
289.436961
 31
0.0
 70
   160
  1
50
 71
     5
 42
49.909191
 53
90.0
  3
LC-DIM-L-0140-02-02
100
AcDbAlignedDimension
 13
77.255306
 23
264.517865
 33
0.0
 14
66.387262
 24
314.427056
 34
0.0
 50
90.0
100
AcDbRotatedDimension
  0
DIMENSION
  5
368
330
1F
100
AcDbEntity
  8
LC-003-003-----0
 62
     7
370
    25
100
AcDbDimension
  2
*D27
 10
291.2553
 20
57.546391
 30
0.0
 11
193.664574
 21
88.346391
 31
0.0
 70
   160
 71
     5
 42
194.999994
  3
LC-DIM-L-0140-02-02
100
AcDbAlignedDimension
 13
96.255306
 23
245.720981
 33
0.0
 14
291.2553
 24
288.217865
 34
0.0
100
AcDbRotatedDimension
  0
DIMENSION
  5
375
330
1F
100
AcDbEntity
  8
LC-003-003-----0
 62
     7
370
    25
100
AcDbDimension
  2
*D28
 10
408.770143
 20
263.217866
 30
0.0
 11
377.970143
 21
292.176391
 31
0.0
 70
   160
  1
DN50
 71
     5
 42
49.999999
 53
90.0
  3
LC-DIM-L-0140-02-02
100
AcDbAlignedDimension
 13
283.969169
 23
313.217865
 33
0.0
 14
287.7553
 24
263.217866
 34
0.0
 50
90.0
100
AcDbRotatedDimension
  0
INSERT
  5
3A0
330
1F
100
AcDbEntity
  8
LC-003-003-----0
 62
     7
370
    25
100
AcDbBlockReference
  2
LCDIM1
 10
0.0
 20
0.0
 30
0.0
  0
ENDSEC
  0
SECTION
  2
OBJECTS
  0
DICTIONARY
  5
C
330
0
100
AcDbDictionary
281
     1
  3
ACAD_GROUP
350
D
  3
ACAD_LAYOUT
350
1A
  3
ACAD_MLINESTYLE
350
17
  3
ACAD_PLOTSETTINGS
350
19
  3
ACAD_PLOTSTYLENAME
350
E
  0
DICTIONARY
  5
D
102
{ACAD_REACTORS
330
C
102
}
330
C
100
AcDbDictionary
281
     1
  0
DICTIONARY
  5
1A
102
{ACAD_REACTORS
330
C
102
}
330
C
100
AcDbDictionary
281
     1
  3
Layout1
350
1E
  3
Layout2
350
26
  3
Model
350
22
  0
DICTIONARY
  5
17
102
{ACAD_REACTORS
330
C
102
}
330
C
100
AcDbDictionary
281
     1
  3
Standard
350
18
  0
DICTIONARY
  5
19
102
{ACAD_REACTORS
330
C
102
}
330
C
100
AcDbDictionary
281
     1
  0
ACDBDICTIONARYWDFLT
  5
E
102
{ACAD_REACTORS
330
C
102
}
330
C
100
AcDbDictionary
281
     1
  3
Normal
350
F
100
AcDbDictionaryWithDefault
340
F
  0
LAYOUT
  5
1E
102
{ACAD_REACTORS
330
1A
102
}
330
1A
100
AcDbPlotSettings
  1

  2

  4

  6

 40
0.0
 41
0.0
 42
0.0
 43
0.0
 44
0.0
 45
0.0
 46
0.0
 47
0.0
 48
0.0
 49
0.0
140
0.0
141
0.0
142
1.0
143
1.0
 70
   688
 72
     0
 73
     0
 74
     5
  7

 75
    16
147
1.0
148
0.0
149
0.0
100
AcDbLayout
  1
Layout1
 70
     1
 71
     1
 10
-118.782642
 20
-86.201609
 11
721.217358
 21
507.798391
 12
0.0
 22
0.0
 32
0.0
 14
-118.782642
 24
-86.201609
 34
0.0
 15
721.217358
 25
507.798391
 35
0.0
146
0.0
 13
0.0
 23
0.0
 33
0.0
 16
1.0
 26
0.0
 36
0.0
 17
0.0
 27
1.0
 37
0.0
 76
     0
330
1B
  0
LAYOUT
  5
26
102
{ACAD_REACTORS
330
1A
102
}
330
1A
100
AcDbPlotSettings
  1

  2

  4

  6

 40
0.0
 41
0.0
 42
0.0
 43
0.0
 44
0.0
 45
0.0
 46
0.0
 47
0.0
 48
0.0
 49
0.0
140
0.0
141
0.0
142
1.0
143
1.0
 70
   688
 72
     0
 73
     0
 74
     5
  7

 75
    16
147
1.0
148
0.0
149
0.0
100
AcDbLayout
  1
Layout2
 70
     1
 71
     2
 10
0.0
 20
0.0
 11
0.0
 21
0.0
 12
0.0
 22
0.0
 32
0.0
 14
0.0
 24
0.0
 34
0.0
 15
0.0
 25
0.0
 35
0.0
146
0.0
 13
0.0
 23
0.0
 33
0.0
 16
1.0
 26
0.0
 36
0.0
 17
0.0
 27
1.0
 37
0.0
 76
     0
330
23
  0
LAYOUT
  5
22
102
{ACAD_REACTORS
330
1A
102
}
330
1A
100
AcDbPlotSettings
  1

  2

  4

  6

 40
0.0
 41
0.0
 42
0.0
 43
0.0
 44
0.0
 45
0.0
 46
0.0
 47
0.0
 48
0.0
 49
0.0
140
0.0
141
0.0
142
1.0
143
1.0
 70
  1776
 72
     0
 73
     0
 74
     0
  7

 75
     0
147
1.0
148
0.0
149
0.0
100
AcDbLayout
  1
Model
 70
     1
 71
     0
 10
-118.782642
 20
-86.201609
 11
721.217358
 21
507.798391
 12
0.0
 22
0.0
 32
0.0
 14
-118.782642
 24
-86.201609
 34
0.0
 15
721.217358
 25
507.798391
 35
0.0
146
0.0
 13
0.0
 23
0.0
 33
0.0
 16
1.0
 26
0.0
 36
0.0
 17
0.0
 27
1.0
 37
0.0
 76
     0
330
1F
  0
MLINESTYLE
  5
18
102
{ACAD_REACTORS
330
17
102
}
330
17
100
AcDbMlineStyle
  2
Standard
 70
     0
  3

 62
   256
 51
90.0
 52
90.0
 71
     2
 49
0.5
 62
   256
  6
BYLAYER
 49
-0.5
 62
   256
  6
BYLAYER
  0
ACDBPLACEHOLDER
  5
F
102
{ACAD_REACTORS
330
E
102
}
330
E
  0
ENDSEC
  0
EOF
