  0
SECTION
  2
HEADER
  9
$ACADVER
  1
AC1009
  9
$INSBASE
 10
0.0
 20
0.0
 30
0.0
  9
$EXTMIN
 10
0.0
 20
0.0
 30
0.0
  9
$EXTMAX
 10
840.0
 20
594.0
 30
0.0
  9
$LIMMIN
 10
0.0
 20
0.0
  9
$LIMMAX
 10
840.0
 20
594.0
  9
$ORTHOMODE
 70
     0
  9
$REGENMODE
 70
     1
  9
$FILLMODE
 70
     1
  9
$QTEXTMODE
 70
     0
  9
$MIRRTEXT
 70
     1
  9
$DRAGMODE
 70
     2
  9
$LTSCALE
 40
2.0
  9
$OSMODE
 70
     0
  9
$ATTMODE
 70
     1
  9
$TEXTSIZE
 40
0.2
  9
$TRACEWID
 40
0.05
  9
$TEXTSTYLE
  7
STANDARD
  9
$CLAYER
  8
0
  9
$CELTYPE
  6
BYLAYER
  9
$CECOLOR
 62
     7
  9
$DIMSCALE
 40
2.0
  9
$DIMASZ
 40
3.5
  9
$DIMEXO
 40
0.0625
  9
$DIMDLI
 40
0.38
  9
$DIMRND
 40
0.0
  9
$DIMDLE
 40
0.0
  9
$DIMEXE
 40
0.18
  9
$DIMTP
 40
0.0
  9
$DIMTM
 40
0.0
  9
$DIMTXT
 40
3.5
  9
$DIMCEN
 40
0.09
  9
$DIMTSZ
 40
0.0
  9
$DIMTOL
 70
     0
  9
$DIMLIM
 70
     0
  9
$DIMTIH
 70
     1
  9
$DIMTOH
 70
     1
  9
$DIMSE1
 70
     0
  9
$DIMSE2
 70
     0
  9
$DIMTAD
 70
     1
  9
$DIMZIN
 70
     0
  9
$DIMBLK
  1

  9
$DIMASO
 70
     1
  9
$DIMSHO
 70
     1
  9
$DIMPOST
  1

  9
$DIMAPOST
  1

  9
$DIMALT
 70
     0
  9
$DIMALTD
 70
     2
  9
$DIMALTF
 40
25.4
  9
$DIMLFAC
 40
1.0
  9
$DIMTOFL
 70
     0
  9
$DIMTVP
 40
0.0
  9
$DIMTIX
 70
     0
  9
$DIMSOXD
 70
     0
  9
$DIMSAH
 70
     0
  9
$DIMBLK1
  1

  9
$DIMBLK2
  1

  9
$DIMSTYLE
  2
STANDARD
  9
$DIMCLRD
 70
     0
  9
$DIMCLRE
 70
     0
  9
$DIMCLRT
 70
     0
  9
$DIMTFAC
 40
1.0
  9
$DIMGAP
 40
0.09
  9
$LUNITS
 70
     2
  9
$LUPREC
 70
     2
  9
$AXISMODE
 70
     0
  9
$AXISUNIT
 10
0.0
 20
0.0
  9
$SKETCHINC
 40
0.1
  9
$FILLETRAD
 40
0.0
  9
$AUNITS
 70
     0
  9
$AUPREC
 70
     0
  9
$MENU
  1
acad
  9
$ELEVATION
 40
0.0
  9
$PELEVATION
 40
0.0
  9
$THICKNESS
 40
0.0
  9
$LIMCHECK
 70
     0
  9
$BLIPMODE
 70
     1
  9
$CHAMFERA
 40
0.0
  9
$CHAMFERB
 40
0.0
  9
$SKPOLY
 70
     0
  9
$TDCREATE
 40
0.000000000
  9
$TDUPDATE
 40
0.000000000
  9
$TDINDWG
 40
0.0000000000
  9
$TDUSRTIMER
 40
0.0000000000
  9
$USRTIMER
 70
     1
  9
$ANGBASE
 50
0.0
  9
$ANGDIR
 70
     0
  9
$PDMODE
 70
     0
  9
$PDSIZE
 40
0.0
  9
$PLINEWID
 40
0.0
  9
$COORDS
 70
     0
  9
$SPLFRAME
 70
     0
  9
$SPLINETYPE
 70
     6
  9
$SPLINESEGS
 70
     8
  9
$ATTDIA
 70
     0
  9
$ATTREQ
 70
     1
  9
$HANDLING
 70
     1
  9
$HANDSEED
  5
C2
  9
$SURFTAB1
 70
     6
  9
$SURFTAB2
 70
     6
  9
$SURFTYPE
 70
     6
  9
$SURFU
 70
     6
  9
$SURFV
 70
     6
  9
$UCSNAME
  2

  9
$UCSORG
 10
0.0
 20
0.0
 30
0.0
  9
$UCSXDIR
 10
1.0
 20
0.0
 30
0.0
  9
$UCSYDIR
 10
0.0
 20
1.0
 30
0.0
  9
$PUCSNAME
  2

  9
$PUCSORG
 10
0.0
 20
0.0
 30
0.0
  9
$PUCSXDIR
 10
1.0
 20
0.0
 30
0.0
  9
$PUCSYDIR
 10
0.0
 20
1.0
 30
0.0
  9
$USERI1
 70
     0
  9
$USERI2
 70
     0
  9
$USERI3
 70
     0
  9
$USERI4
 70
     0
  9
$USERI5
 70
     0
  9
$USERR1
 40
0.0
  9
$USERR2
 40
0.0
  9
$USERR3
 40
0.0
  9
$USERR4
 40
0.0
  9
$USERR5
 40
0.0
  9
$WORLDVIEW
 70
     1
  9
$SHADEDGE
 70
     3
  9
$SHADEDIF
 70
    70
  9
$TILEMODE
 70
     1
  9
$MAXACTVP
 70
    16
  9
$PINSBASE
 10
0.0
 20
0.0
 30
0.0
  9
$PLIMCHECK
 70
     0
  9
$PEXTMIN
 10
1.000000E+20
 20
1.000000E+20
 30
1.000000E+20
  9
$PEXTMAX
 10
-1.000000E+20
 20
-1.000000E+20
 30
-1.000000E+20
  9
$PLIMMIN
 10
0.0
 20
0.0
  9
$PLIMMAX
 10
840.0
 20
594.0
  9
$UNITMODE
 70
     0
  9
$VISRETAIN
 70
     0
  9
$PLINEGEN
 70
     1
  9
$PSLTSCALE
 70
     0
  9
$TREEDEPTH
 70
  3020
  9
$DWGCODEPAGE
  3
dos850
  0
ENDSEC
  0
SECTION
  2
TABLES
  0
TABLE
  2
VPORT
 70
     1
  0
VPORT
  2
*ACTIVE
 70
     0
 10
0.0
 20
0.0
 11
1.0
 21
1.0
 12
420.0
 22
297.0
 13
0.0
 23
0.0
 14
1.0
 24
1.0
 15
0.0
 25
0.0
 16
0.0
 26
0.0
 36
1.0
 17
0.0
 27
0.0
 37
0.0
 40
594.0
 41
1.604229
 42
50.0
 43
0.0
 44
0.0
 50
0.0
 51
0.0
 71
     0
 72
   100
 73
     1
 74
     1
 75
     0
 76
     0
 77
     0
 78
     0
  0
ENDTAB
  0
TABLE
  2
LTYPE
 70
     2
  0
LTYPE
  2
CONTINUOUS
 70
    64
  3
Solid line
 72
    65
 73
     0
 40
0.0
  0
LTYPE
  2
DASHDOT
 70
    64
  3
__ . __ . __ . __ . __
 72
    65
 73
     4
 40
7.5
 49
5.0
 49
-1.25
 49
0.0
 49
-1.25
  0
ENDTAB
  0
TABLE
  2
LAYER
 70
     8
  0
LAYER
  2
0
 70
     0
 62
     7
  6
CONTINUOUS
  0
LAYER
  2
LC-INFO-1-2-MM-A3-0
 70
     1
 62
    -1
  6
CONTINUOUS
  0
LAYER
  2
LC-004-003-MTH-0
 70
     0
 62
     2
  6
CONTINUOUS
  0
LAYER
  2
LC-005-003-MTG-0
 70
     0
 62
     2
  6
CONTINUOUS
  0
LAYER
  2
LC-003-003-----0
 70
     0
 62
     2
  6
CONTINUOUS
  0
LAYER
  2
LC-001-002-----0
 70
     0
 62
     2
  6
DASHDOT
  0
LAYER
  2
LC-002-002-RND-0
 70
     0
 62
     1
  6
CONTINUOUS
  0
LAYER
  2
LC-000
 70
     0
 62
     7
  6
CONTINUOUS
  0
ENDTAB
  0
TABLE
  2
STYLE
 70
     4
  0
STYLE
  2
STANDARD
 70
     0
 40
0.0
 41
1.0
 50
0.0
 71
     0
 42
0.0
  3
txt
  4

  0
STYLE
  2
LC-STANDARD
 70
    64
 40
0.0
 41
1.0
 50
0.0
 71
     0
 42
3.5
  3
MONOTXT
  4

  0
STYLE
  2
LC-TXTSTYLE-150-400-0-0-D2
 70
    64
 40
0.0
 41
1.0
 50
15.0
 71
     0
 42
3.5
  3
MONOTXT
  4

  0
STYLE
  2
LC-TXTSTYLE-150-400-0-0-D3
 70
    64
 40
0.0
 41
1.0
 50
15.0
 71
     0
 42
3.5
  3
LC-STANDARD
  4

  0
ENDTAB
  0
TABLE
  2
VIEW
 70
     0
  0
ENDTAB
  0
TABLE
  2
UCS
 70
     0
  0
ENDTAB
  0
TABLE
  2
APPID
 70
     1
  0
APPID
  2
ACAD
 70
     0
  0
ENDTAB
  0
TABLE
  2
DIMSTYLE
 70
     3
  0
DIMSTYLE
  2
STANDARD
 70
     0
  3

  4

  5

  6

  7

 40
1.0
 41
0.18
 42
0.0625
 43
0.38
 44
0.18
 45
0.0
 46
0.0
 47
0.0
 48
0.0
 71
     0
 72
     0
 73
     1
 74
     1
 75
     0
 76
     0
 77
     0
 78
     0
140
0.18
141
0.09
142
0.0
143
25.4
144
1.0
145
0.0
146
1.0
147
0.09
170
     0
171
     2
172
     0
173
     0
174
     0
175
     0
176
     0
177
     0
178
     0
  0
DIMSTYLE
  2
LC-STANDARD
 70
     0
  3

  4

  5

  6

  7

 40
1.0
 41
3.5
 42
0.0
 43
7.5
 44
1.8
 45
0.0
 46
0.0
 47
0.0
 48
0.0
 71
     0
 72
     0
 73
     0
 74
     0
 75
     0
 76
     0
 77
     1
 78
     8
140
3.5
141
0.0
142
0.0
143
25.4
144
1.0
145
0.0
146
0.71
147
1.5
170
     0
171
     2
172
     1
173
     0
174
     0
175
     0
176
     0
177
     0
178
     3
  0
DIMSTYLE
  2
LC-DIM-L-0090-02-02
 70
     0
  3

  4

  5

  6

  7

 40
2.0
 41
3.5
 42
0.0
 43
7.5
 44
1.8
 45
0.0
 46
0.0
 47
0.0
 48
0.0
 71
     0
 72
     0
 73
     0
 74
     0
 75
     0
 76
     0
 77
     1
 78
     8
140
9.0
141
0.0
142
0.0
143
25.4
144
1.0
145
0.0
146
0.71
147
1.5
170
     0
171
     2
172
     0
173
     0
174
     0
175
     0
176
     2
177
     2
178
     6
  0
ENDTAB
  0
ENDSEC
  0
SECTION
  2
BLOCKS
  0
BLOCK
  8
0
  5
23
  2
*D0
 70
    65
 10
0.0
 20
0.0
 30
0.0
  3
*D0
  0
LINE
  8
LC-004-003-MTH-0
  6
CONTINUOUS
  5
25
 10
337.561484
 20
400.146489
 30
0.0
 11
313.2
 21
400.146489
 31
0.0
  0
LINE
  8
LC-004-003-MTH-0
  6
CONTINUOUS
  5
26
 10
339.561484
 20
445.146489
 30
0.0
 11
313.2
 21
445.146489
 31
0.0
  0
LINE
  8
LC-005-003-MTG-0
  6
CONTINUOUS
  5
28
 10
324.0
 20
400.146489
 30
0.0
 11
324.0
 21
445.146489
 31
0.0
  0
LINE
  8
LC-003-003-----0
  6
CONTINUOUS
  5
2A
 10
321.650529
 20
417.992497
 30
0.0
 11
324.0
 21
400.146489
 31
0.0
  0
LINE
  8
LC-003-003-----0
  6
CONTINUOUS
  5
2B
 10
324.0
 20
400.146489
 30
0.0
 11
326.349471
 21
417.992497
 31
0.0
  0
LINE
  8
LC-003-003-----0
  6
CONTINUOUS
  5
2C
 10
326.349471
 20
417.992497
 30
0.0
 11
321.650529
 21
417.992497
 31
0.0
  0
LINE
  8
LC-003-003-----0
  6
CONTINUOUS
  5
2D
 10
322.261391
 20
418.032535
 30
0.0
 11
324.0
 21
404.826489
 31
0.0
  0
LINE
  8
LC-003-003-----0
  6
CONTINUOUS
  5
2E
 10
324.0
 20
404.826489
 30
0.0
 11
325.738609
 21
418.032535
 31
0.0
  0
LINE
  8
LC-003-003-----0
  6
CONTINUOUS
  5
2F
 10
322.872254
 20
418.072573
 30
0.0
 11
324.0
 21
409.506489
 31
0.0
  0
LINE
  8
LC-003-003-----0
  6
CONTINUOUS
  5
30
 10
324.0
 20
409.506489
 30
0.0
 11
325.127746
 21
418.072573
 31
0.0
  0
LINE
  8
LC-003-003-----0
  6
CONTINUOUS
  5
31
 10
323.483116
 20
418.112611
 30
0.0
 11
324.0
 21
414.186489
 31
0.0
  0
LINE
  8
LC-003-003-----0
  6
CONTINUOUS
  5
32
 10
324.0
 20
414.186489
 30
0.0
 11
324.516884
 21
418.112611
 31
0.0
  0
LINE
  8
LC-003-003-----0
  6
CONTINUOUS
  5
33
 10
326.349471
 20
427.300482
 30
0.0
 11
324.0
 21
445.146489
 31
0.0
  0
LINE
  8
LC-003-003-----0
  6
CONTINUOUS
  5
34
 10
324.0
 20
445.146489
 30
0.0
 11
321.650529
 21
427.300482
 31
0.0
  0
LINE
  8
LC-003-003-----0
  6
CONTINUOUS
  5
35
 10
321.650529
 20
427.300482
 30
0.0
 11
326.349471
 21
427.300482
 31
0.0
  0
LINE
  8
LC-003-003-----0
  6
CONTINUOUS
  5
36
 10
325.738609
 20
427.260444
 30
0.0
 11
324.0
 21
440.466489
 31
0.0
  0
LINE
  8
LC-003-003-----0
  6
CONTINUOUS
  5
37
 10
324.0
 20
440.466489
 30
0.0
 11
322.261391
 21
427.260444
 31
0.0
  0
LINE
  8
LC-003-003-----0
  6
CONTINUOUS
  5
38
 10
325.127746
 20
427.220406
 30
0.0
 11
324.0
 21
435.786489
 31
0.0
  0
LINE
  8
LC-003-003-----0
  6
CONTINUOUS
  5
39
 10
324.0
 20
435.786489
 30
0.0
 11
322.872254
 21
427.220406
 31
0.0
  0
LINE
  8
LC-003-003-----0
  6
CONTINUOUS
  5
3A
 10
324.516884
 20
427.180368
 30
0.0
 11
324.0
 21
431.106489
 31
0.0
  0
LINE
  8
LC-003-003-----0
  6
CONTINUOUS
  5
3B
 10
324.0
 20
431.106489
 30
0.0
 11
323.483116
 21
427.180368
 31
0.0
  0
TEXT
  8
LC-003-003-----0
  6
CONTINUOUS
 62
     6
  5
3D
 10
313.568001
 20
412.802364
 30
0.0
 40
18.0
  1
45
 50
90.0
 41
0.8
 51
15.0
  7
LC-TXTSTYLE-150-400-0-0-D0
 72
     1
 11
313.568001
 21
423.347246
 31
0.0
  0
ENDBLK
  8
0
  5
3E
  0
BLOCK
  8
0
  5
40
  2
*D1
 70
    65
 10
0.0
 20
0.0
 30
0.0
  3
*D1
  0
LINE
  8
LC-004-003-MTH-0
  6
CONTINUOUS
  5
41
 10
352.061484
 20
347.146489
 30
0.0
 11
313.2
 21
347.146489
 31
0.0
  0
LINE
  8
LC-004-003-MTH-0
  6
CONTINUOUS
  5
42
 10
337.561484
 20
400.146489
 30
0.0
 11
313.2
 21
400.146489
 31
0.0
  0
LINE
  8
LC-005-003-MTG-0
  6
CONTINUOUS
  5
43
 10
324.0
 20
347.146489
 30
0.0
 11
324.0
 21
400.146489
 31
0.0
  0
LINE
  8
LC-003-003-----0
  6
CONTINUOUS
  5
44
 10
321.650529
 20
364.992497
 30
0.0
 11
324.0
 21
347.146489
 31
0.0
  0
LINE
  8
LC-003-003-----0
  6
CONTINUOUS
  5
45
 10
324.0
 20
347.146489
 30
0.0
 11
326.349471
 21
364.992497
 31
0.0
  0
LINE
  8
LC-003-003-----0
  6
CONTINUOUS
  5
46
 10
326.349471
 20
364.992497
 30
0.0
 11
321.650529
 21
364.992497
 31
0.0
  0
LINE
  8
LC-003-003-----0
  6
CONTINUOUS
  5
47
 10
322.261391
 20
365.032535
 30
0.0
 11
324.0
 21
351.826489
 31
0.0
  0
LINE
  8
LC-003-003-----0
  6
CONTINUOUS
  5
48
 10
324.0
 20
351.826489
 30
0.0
 11
325.738609
 21
365.032535
 31
0.0
  0
LINE
  8
LC-003-003-----0
  6
CONTINUOUS
  5
49
 10
322.872254
 20
365.072573
 30
0.0
 11
324.0
 21
356.506489
 31
0.0
  0
LINE
  8
LC-003-003-----0
  6
CONTINUOUS
  5
4A
 10
324.0
 20
356.506489
 30
0.0
 11
325.127746
 21
365.072573
 31
0.0
  0
LINE
  8
LC-003-003-----0
  6
CONTINUOUS
  5
4B
 10
323.483116
 20
365.112611
 30
0.0
 11
324.0
 21
361.186489
 31
0.0
  0
LINE
  8
LC-003-003-----0
  6
CONTINUOUS
  5
4C
 10
324.0
 20
361.186489
 30
0.0
 11
324.516884
 21
365.112611
 31
0.0
  0
LINE
  8
LC-003-003-----0
  6
CONTINUOUS
  5
4D
 10
326.349471
 20
382.300482
 30
0.0
 11
324.0
 21
400.146489
 31
0.0
  0
LINE
  8
LC-003-003-----0
  6
CONTINUOUS
  5
4E
 10
324.0
 20
400.146489
 30
0.0
 11
321.650529
 21
382.300482
 31
0.0
  0
LINE
  8
LC-003-003-----0
  6
CONTINUOUS
  5
4F
 10
321.650529
 20
382.300482
 30
0.0
 11
326.349471
 21
382.300482
 31
0.0
  0
LINE
  8
LC-003-003-----0
  6
CONTINUOUS
  5
50
 10
325.738609
 20
382.260444
 30
0.0
 11
324.0
 21
395.466489
 31
0.0
  0
LINE
  8
LC-003-003-----0
  6
CONTINUOUS
  5
51
 10
324.0
 20
395.466489
 30
0.0
 11
322.261391
 21
382.260444
 31
0.0
  0
LINE
  8
LC-003-003-----0
  6
CONTINUOUS
  5
52
 10
325.127746
 20
382.220406
 30
0.0
 11
324.0
 21
390.786489
 31
0.0
  0
LINE
  8
LC-003-003-----0
  6
CONTINUOUS
  5
53
 10
324.0
 20
390.786489
 30
0.0
 11
322.872254
 21
382.220406
 31
0.0
  0
LINE
  8
LC-003-003-----0
  6
CONTINUOUS
  5
54
 10
324.516884
 20
382.180368
 30
0.0
 11
324.0
 21
386.106489
 31
0.0
  0
LINE
  8
LC-003-003-----0
  6
CONTINUOUS
  5
55
 10
324.0
 20
386.106489
 30
0.0
 11
323.483116
 21
382.180368
 31
0.0
  0
TEXT
  8
LC-003-003-----0
  6
CONTINUOUS
 62
     6
  5
56
 10
313.568001
 20
362.906364
 30
0.0
 40
18.0
  1
53
 50
90.0
 51
15.0
  7
LC-TXTSTYLE-150-400-0-0-D0
 72
     1
 11
313.568001
 21
373.451246
 31
0.0
  0
ENDBLK
  8
0
  5
57
  0
BLOCK
  8
0
  5
59
  2
*D2
 70
    65
 10
0.0
 20
0.0
 30
0.0
  3
*D2
  0
LINE
  8
LC-004-003-MTH-0
  6
CONTINUOUS
  5
5A
 10
344.561484
 20
349.146489
 30
0.0
 11
344.561484
 21
277.2
 31
0.0
  0
LINE
  8
LC-004-003-MTH-0
  6
CONTINUOUS
  5
5B
 10
454.561484
 20
349.146489
 30
0.0
 11
454.561484
 21
277.2
 31
0.0
  0
LINE
  8
LC-005-003-MTG-0
  6
CONTINUOUS
  5
5C
 10
344.561484
 20
288.0
 30
0.0
 11
454.561484
 21
288.0
 31
0.0
  0
LINE
  8
LC-003-003-----0
  6
CONTINUOUS
  5
5D
 10
362.407491
 20
290.349471
 30
0.0
 11
344.561484
 21
288.0
 31
0.0
  0
LINE
  8
LC-003-003-----0
  6
CONTINUOUS
  5
5E
 10
344.561484
 20
288.0
 30
0.0
 11
362.407491
 21
285.650529
 31
0.0
  0
LINE
  8
LC-003-003-----0
  6
CONTINUOUS
  5
5F
 10
362.407491
 20
285.650529
 30
0.0
 11
362.407491
 21
290.349471
 31
0.0
  0
LINE
  8
LC-003-003-----0
  6
CONTINUOUS
  5
60
 10
362.447529
 20
289.738609
 30
0.0
 11
349.241484
 21
288.0
 31
0.0
  0
LINE
  8
LC-003-003-----0
  6
CONTINUOUS
  5
61
 10
349.241484
 20
288.0
 30
0.0
 11
362.447529
 21
286.261391
 31
0.0
  0
LINE
  8
LC-003-003-----0
  6
CONTINUOUS
  5
62
 10
362.487567
 20
289.127746
 30
0.0
 11
353.921484
 21
288.0
 31
0.0
  0
LINE
  8
LC-003-003-----0
  6
CONTINUOUS
  5
63
 10
353.921484
 20
288.0
 30
0.0
 11
362.487567
 21
286.872254
 31
0.0
  0
LINE
  8
LC-003-003-----0
  6
CONTINUOUS
  5
64
 10
362.527605
 20
288.516884
 30
0.0
 11
358.601484
 21
288.0
 31
0.0
  0
LINE
  8
LC-003-003-----0
  6
CONTINUOUS
  5
65
 10
358.601484
 20
288.0
 30
0.0
 11
362.527605
 21
287.483116
 31
0.0
  0
LINE
  8
LC-003-003-----0
  6
CONTINUOUS
  5
66
 10
436.715476
 20
285.650529
 30
0.0
 11
454.561484
 21
288.0
 31
0.0
  0
LINE
  8
LC-003-003-----0
  6
CONTINUOUS
  5
67
 10
454.561484
 20
288.0
 30
0.0
 11
436.715476
 21
290.349471
 31
0.0
  0
LINE
  8
LC-003-003-----0
  6
CONTINUOUS
  5
68
 10
436.715476
 20
290.349471
 30
0.0
 11
436.715476
 21
285.650529
 31
0.0
  0
LINE
  8
LC-003-003-----0
  6
CONTINUOUS
  5
69
 10
436.675438
 20
286.261391
 30
0.0
 11
449.881484
 21
288.0
 31
0.0
  0
LINE
  8
LC-003-003-----0
  6
CONTINUOUS
  5
6A
 10
449.881484
 20
288.0
 30
0.0
 11
436.675438
 21
289.738609
 31
0.0
  0
LINE
  8
LC-003-003-----0
  6
CONTINUOUS
  5
6B
 10
436.6354
 20
286.872254
 30
0.0
 11
445.201484
 21
288.0
 31
0.0
  0
LINE
  8
LC-003-003-----0
  6
CONTINUOUS
  5
6C
 10
445.201484
 20
288.0
 30
0.0
 11
436.6354
 21
289.127746
 31
0.0
  0
LINE
  8
LC-003-003-----0
  6
CONTINUOUS
  5
6D
 10
436.595362
 20
287.483116
 30
0.0
 11
440.521484
 21
288.0
 31
0.0
  0
LINE
  8
LC-003-003-----0
  6
CONTINUOUS
  5
6E
 10
440.521484
 20
288.0
 30
0.0
 11
436.595362
 21
288.516884
 31
0.0
  0
TEXT
  8
LC-003-003-----0
  6
CONTINUOUS
 62
     6
  5
6F
 10
400.622789
 20
298.431999
 30
0.0
 40
18.0
  1
Ø110
 51
15.0
  7
LC-TXTSTYLE-150-400-0-0-D0
  0
ENDBLK
  8
0
  5
70
  0
BLOCK
  8
0
  5
72
  2
*D3
 70
    65
 10
0.0
 20
0.0
 30
0.0
  3
*D3
  0
LINE
  8
LC-004-003-MTH-0
  6
CONTINUOUS
  5
73
 10
342.061484
 20
357.646489
 30
0.0
 11
342.061484
 21
241.2
 31
0.0
  0
LINE
  8
LC-004-003-MTH-0
  6
CONTINUOUS
  5
74
 10
457.061484
 20
357.646489
 30
0.0
 11
457.061484
 21
241.2
 31
0.0
  0
LINE
  8
LC-005-003-MTG-0
  6
CONTINUOUS
  5
75
 10
342.061484
 20
252.0
 30
0.0
 11
457.061484
 21
252.0
 31
0.0
  0
LINE
  8
LC-003-003-----0
  6
CONTINUOUS
  5
76
 10
359.907491
 20
254.349471
 30
0.0
 11
342.061484
 21
252.0
 31
0.0
  0
LINE
  8
LC-003-003-----0
  6
CONTINUOUS
  5
77
 10
342.061484
 20
252.0
 30
0.0
 11
359.907491
 21
249.650529
 31
0.0
  0
LINE
  8
LC-003-003-----0
  6
CONTINUOUS
  5
78
 10
359.907491
 20
249.650529
 30
0.0
 11
359.907491
 21
254.349471
 31
0.0
  0
LINE
  8
LC-003-003-----0
  6
CONTINUOUS
  5
79
 10
359.947529
 20
253.738609
 30
0.0
 11
346.741484
 21
252.0
 31
0.0
  0
LINE
  8
LC-003-003-----0
  6
CONTINUOUS
  5
7A
 10
346.741484
 20
252.0
 30
0.0
 11
359.947529
 21
250.261391
 31
0.0
  0
LINE
  8
LC-003-003-----0
  6
CONTINUOUS
  5
7B
 10
359.987567
 20
253.127746
 30
0.0
 11
351.421484
 21
252.0
 31
0.0
  0
LINE
  8
LC-003-003-----0
  6
CONTINUOUS
  5
7C
 10
351.421484
 20
252.0
 30
0.0
 11
359.987567
 21
250.872254
 31
0.0
  0
LINE
  8
LC-003-003-----0
  6
CONTINUOUS
  5
7D
 10
360.027605
 20
252.516884
 30
0.0
 11
356.101484
 21
252.0
 31
0.0
  0
LINE
  8
LC-003-003-----0
  6
CONTINUOUS
  5
7E
 10
356.101484
 20
252.0
 30
0.0
 11
360.027605
 21
251.483116
 31
0.0
  0
LINE
  8
LC-003-003-----0
  6
CONTINUOUS
  5
7F
 10
439.215476
 20
249.650529
 30
0.0
 11
457.061484
 21
252.0
 31
0.0
  0
LINE
  8
LC-003-003-----0
  6
CONTINUOUS
  5
80
 10
457.061484
 20
252.0
 30
0.0
 11
439.215476
 21
254.349471
 31
0.0
  0
LINE
  8
LC-003-003-----0
  6
CONTINUOUS
  5
81
 10
439.215476
 20
254.349471
 30
0.0
 11
439.215476
 21
249.650529
 31
0.0
  0
LINE
  8
LC-003-003-----0
  6
CONTINUOUS
  5
82
 10
439.175438
 20
250.261391
 30
0.0
 11
452.381484
 21
252.0
 31
0.0
  0
LINE
  8
LC-003-003-----0
  6
CONTINUOUS
  5
83
 10
452.381484
 20
252.0
 30
0.0
 11
439.175438
 21
253.738609
 31
0.0
  0
LINE
  8
LC-003-003-----0
  6
CONTINUOUS
  5
84
 10
439.1354
 20
250.872254
 30
0.0
 11
447.701484
 21
252.0
 31
0.0
  0
LINE
  8
LC-003-003-----0
  6
CONTINUOUS
  5
85
 10
447.701484
 20
252.0
 30
0.0
 11
439.1354
 21
253.127746
 31
0.0
  0
LINE
  8
LC-003-003-----0
  6
CONTINUOUS
  5
86
 10
439.095362
 20
251.483116
 30
0.0
 11
443.021484
 21
252.0
 31
0.0
  0
LINE
  8
LC-003-003-----0
  6
CONTINUOUS
  5
87
 10
443.021484
 20
252.0
 30
0.0
 11
439.095362
 21
252.516884
 31
0.0
  0
TEXT
  8
LC-003-003-----0
  6
CONTINUOUS
 62
     6
  5
88
 10
376.883387
 20
262.431999
 30
0.0
 40
18.0
  1
Ø115
 51
15.0
  7
LC-TXTSTYLE-150-400-0-0-D0
 72
     2
 11
425.866064
 21
262.431999
 31
0.0
  0
ENDBLK
  8
0
  5
89
  0
ENDSEC
  0
SECTION
  2
ENTITIES
  0
VIEWPORT
  8
LC-000
  5
BE
 67
     1
 68
     1
 10
420.0
 20
297.0
 30
0.0
 40
840.0
 41
594.0
 69
     1
1001
ACAD
1000
MVIEW
1002
{
1070
    16
1010
0.0
1020
0.0
1030
0.0
1010
0.0
1020
0.0
1030
1.0
1040
0.0
1040
594.0
1040
420.0
1040
297.0
1040
50.0
1040
0.0
1040
0.0
1070
     0
1070
   100
1070
     1
1070
     1
1070
     0
1070
     0
1070
     0
1070
     0
1040
0.0
1040
0.0
1040
0.0
1040
1.0
1040
1.0
1040
0.0
1040
0.0
1070
     0
1002
{
1002
}
1002
}
  0
VIEWPORT
  8
0
  5
BF
 67
     1
 68
     1
 10
0.0
 20
0.0
 30
0.0
 40
0.0
 41
0.0
 69
     1
1001
ACAD
1000
MVIEW
1002
{
1070
    16
1010
0.0
1020
0.0
1030
0.0
1010
0.0
1020
0.0
1030
1.0
1040
0.0
1040
594.0
1040
0.0
1040
0.0
1040
50.0
1040
0.0
1040
0.0
1070
     0
1070
   100
1070
     0
1070
     1
1070
     0
1070
     0
1070
     0
1070
     0
1040
0.0
1040
0.0
1040
0.0
1040
0.5
1040
0.5
1040
0.5
1040
0.5
1070
     0
1002
{
1002
}
1002
}
  0
DIMENSION
  8
0
  5
8A
  2
*D0
 10
324.0
 20
420.552
 30
0.0
 11
324.0
 21
420.552
 31
0.0
 13
339.561484
 23
445.146489
 33
0.0
 14
337.561484
 24
400.146489
 34
0.0
 50
90.0
  3
LC-DIM-L-0090-02-02
  0
DIMENSION
  8
0
  5
8B
  2
*D1
 10
324.0
 20
370.656
 30
0.0
 11
324.0
 21
370.656
 31
0.0
 13
337.561484
 23
400.146489
 33
0.0
 14
352.061484
 24
347.146489
 34
0.0
 50
90.0
  3
LC-DIM-L-0090-02-02
  0
DIMENSION
  8
0
  5
8C
  2
*D2
 10
391.347544
 20
288.0
 30
0.0
 11
391.347544
 21
288.0
 31
0.0
  1
%%c<>
 13
344.561484
 23
349.146489
 33
0.0
 14
454.561484
 24
349.146489
 34
0.0
  3
LC-DIM-L-0090-02-02
  0
DIMENSION
  8
0
  5
8D
  2
*D3
 10
429.550819
 20
252.0
 30
0.0
 11
429.550819
 21
252.0
 31
0.0
  1
%%c<>
 13
342.061484
 23
357.646489
 33
0.0
 14
457.061484
 24
357.646489
 34
0.0
  3
LC-DIM-L-0090-02-02
  0
LINE
  8
LC-001-002-----0
  5
90
 10
399.561484
 20
445.146489
 30
0.0
 11
399.561484
 21
347.146489
 31
0.0
  0
LINE
  8
LC-001-002-----0
  6
CONTINUOUS
 62
     1
  5
91
 10
464.561484
 20
440.146489
 30
0.0
 11
464.561484
 21
403.146489
 31
0.0
  0
LINE
  8
LC-001-002-----0
  6
CONTINUOUS
 62
     1
  5
92
 10
334.561484
 20
440.146489
 30
0.0
 11
334.561484
 21
403.146489
 31
0.0
  0
LINE
  8
LC-001-002-----0
  6
CONTINUOUS
 62
     1
  5
93
 10
339.561484
 20
445.146489
 30
0.0
 11
459.561484
 21
445.146489
 31
0.0
  0
LINE
  8
LC-001-002-----0
  6
CONTINUOUS
 62
     1
  5
94
 10
337.561484
 20
400.146489
 30
0.0
 11
461.561484
 21
400.146489
 31
0.0
  0
LINE
  8
LC-001-002-----0
  6
CONTINUOUS
 62
     1
  5
95
 10
352.061484
 20
347.146489
 30
0.0
 11
447.061484
 21
347.146489
 31
0.0
  0
LINE
  8
LC-001-002-----0
  6
CONTINUOUS
 62
     1
  5
96
 10
447.061484
 20
397.146489
 30
0.0
 11
447.061484
 21
387.146489
 31
0.0
  0
LINE
  8
LC-001-002-----0
  6
CONTINUOUS
 62
     1
  5
97
 10
352.061484
 20
397.146489
 30
0.0
 11
352.061484
 21
387.146489
 31
0.0
  0
LINE
  8
LC-001-002-----0
  6
CONTINUOUS
 62
     1
  5
98
 10
344.561484
 20
349.146489
 30
0.0
 11
454.561484
 21
349.146489
 31
0.0
  0
LINE
  8
LC-001-002-----0
  6
CONTINUOUS
 62
     1
  5
99
 10
342.061484
 20
358.646489
 30
0.0
 11
342.061484
 21
357.646489
 31
0.0
  0
LINE
  8
LC-001-002-----0
  6
CONTINUOUS
 62
     1
  5
9A
 10
457.061484
 20
358.646489
 30
0.0
 11
457.061484
 21
357.646489
 31
0.0
  0
LINE
  8
LC-001-002-----0
  6
CONTINUOUS
 62
     1
  5
9B
 10
344.561484
 20
350.146489
 30
0.0
 11
454.561484
 21
350.146489
 31
0.0
  0
LINE
  8
LC-001-002-----0
  6
CONTINUOUS
 62
     1
  5
9C
 10
352.061484
 20
349.146489
 30
0.0
 11
352.061484
 21
347.146489
 31
0.0
  0
LINE
  8
LC-001-002-----0
  6
CONTINUOUS
 62
     1
  5
9D
 10
447.061484
 20
349.146489
 30
0.0
 11
447.061484
 21
347.146489
 31
0.0
  0
ARC
  8
LC-002-002-RND-0
  6
CONTINUOUS
  5
9F
 10
339.561484
 20
440.146489
 30
0.0
 40
5.0
 50
90.0
 51
180.0
  0
ARC
  8
LC-002-002-RND-0
  6
CONTINUOUS
  5
A0
 10
459.561484
 20
440.146489
 30
0.0
 40
5.0
 50
0.0
 51
90.0
  0
ARC
  8
LC-002-002-RND-0
  6
CONTINUOUS
  5
A1
 10
450.061484
 20
397.146489
 30
0.0
 40
3.0
 50
90.0
 51
180.0
  0
ARC
  8
LC-002-002-RND-0
  6
CONTINUOUS
  5
A2
 10
349.061484
 20
397.146489
 30
0.0
 40
3.0
 50
0.0
 51
90.0
  0
LINE
  8
LC-001-002-----0
  6
CONTINUOUS
 62
     1
  5
A3
 10
342.061484
 20
357.646489
 30
0.0
 11
457.061484
 21
357.646489
 31
0.0
  0
LINE
  8
LC-001-002-----0
  6
CONTINUOUS
 62
     1
  5
A4
 10
342.061484
 20
358.646489
 30
0.0
 11
457.061484
 21
358.646489
 31
0.0
  0
LINE
  8
LC-001-002-----0
  6
CONTINUOUS
 62
     1
  5
A5
 10
342.061484
 20
368.146489
 30
0.0
 11
457.061484
 21
368.146489
 31
0.0
  0
LINE
  8
LC-001-002-----0
  6
CONTINUOUS
 62
     1
  5
A6
 10
342.061484
 20
369.146489
 30
0.0
 11
457.061484
 21
369.146489
 31
0.0
  0
LINE
  8
LC-001-002-----0
  6
CONTINUOUS
 62
     1
  5
A7
 10
352.061484
 20
357.646489
 30
0.0
 11
352.061484
 21
350.146489
 31
0.0
  0
LINE
  8
LC-001-002-----0
  6
CONTINUOUS
 62
     1
  5
A8
 10
352.061484
 20
368.146489
 30
0.0
 11
352.061484
 21
358.646489
 31
0.0
  0
LINE
  8
LC-001-002-----0
  6
CONTINUOUS
 62
     1
  5
A9
 10
344.561484
 20
350.146489
 30
0.0
 11
344.561484
 21
349.146489
 31
0.0
  0
ARC
  8
LC-002-002-RND-0
  6
CONTINUOUS
  5
AA
 10
337.561484
 20
403.146489
 30
0.0
 40
3.0
 50
180.0
 51
270.0
  0
LINE
  8
LC-001-002-----0
  6
CONTINUOUS
 62
     1
  5
AB
 10
447.061484
 20
368.146489
 30
0.0
 11
447.061484
 21
358.646489
 31
0.0
  0
LINE
  8
LC-001-002-----0
  6
CONTINUOUS
 62
     1
  5
AC
 10
447.061484
 20
357.646489
 30
0.0
 11
447.061484
 21
350.146489
 31
0.0
  0
LINE
  8
LC-001-002-----0
  6
CONTINUOUS
 62
     1
  5
AD
 10
454.561484
 20
350.146489
 30
0.0
 11
454.561484
 21
349.146489
 31
0.0
  0
ARC
  8
LC-002-002-RND-0
  6
CONTINUOUS
  5
AE
 10
461.561484
 20
403.146489
 30
0.0
 40
3.0
 50
270.0
 51
360.0
  0
LINE
  8
LC-001-002-----0
  6
CONTINUOUS
 62
     1
  5
AF
 10
453.561484
 20
387.146489
 30
0.0
 11
453.561484
 21
386.146489
 31
0.0
  0
LINE
  8
LC-001-002-----0
  6
CONTINUOUS
 62
     1
  5
B0
 10
345.561484
 20
387.146489
 30
0.0
 11
345.561484
 21
386.146489
 31
0.0
  0
LINE
  8
LC-001-002-----0
  6
CONTINUOUS
 62
     1
  5
B1
 10
345.561484
 20
378.646489
 30
0.0
 11
453.561484
 21
378.646489
 31
0.0
  0
LINE
  8
LC-001-002-----0
  6
CONTINUOUS
 62
     1
  5
B2
 10
345.561484
 20
379.646489
 30
0.0
 11
453.561484
 21
379.646489
 31
0.0
  0
LINE
  8
LC-001-002-----0
  6
CONTINUOUS
 62
     1
  5
B3
 10
345.561484
 20
386.146489
 30
0.0
 11
453.561484
 21
386.146489
 31
0.0
  0
LINE
  8
LC-001-002-----0
  6
CONTINUOUS
 62
     1
  5
B4
 10
345.561484
 20
387.146489
 30
0.0
 11
453.561484
 21
387.146489
 31
0.0
  0
LINE
  8
LC-001-002-----0
  6
CONTINUOUS
 62
     1
  5
B5
 10
345.561484
 20
379.646489
 30
0.0
 11
345.561484
 21
378.646489
 31
0.0
  0
LINE
  8
LC-001-002-----0
  6
CONTINUOUS
 62
     1
  5
B6
 10
352.061484
 20
378.646489
 30
0.0
 11
352.061484
 21
369.146489
 31
0.0
  0
LINE
  8
LC-001-002-----0
  6
CONTINUOUS
 62
     1
  5
B7
 10
352.061484
 20
386.146489
 30
0.0
 11
352.061484
 21
379.646489
 31
0.0
  0
LINE
  8
LC-001-002-----0
  6
CONTINUOUS
 62
     1
  5
B8
 10
447.061484
 20
386.146489
 30
0.0
 11
447.061484
 21
379.646489
 31
0.0
  0
LINE
  8
LC-001-002-----0
  6
CONTINUOUS
 62
     1
  5
B9
 10
453.561484
 20
379.646489
 30
0.0
 11
453.561484
 21
378.646489
 31
0.0
  0
LINE
  8
LC-001-002-----0
  6
CONTINUOUS
 62
     1
  5
BA
 10
447.061484
 20
378.646489
 30
0.0
 11
447.061484
 21
369.146489
 31
0.0
  0
LINE
  8
LC-001-002-----0
  6
CONTINUOUS
 62
     1
  5
BB
 10
457.061484
 20
369.146489
 30
0.0
 11
457.061484
 21
368.146489
 31
0.0
  0
LINE
  8
LC-001-002-----0
  6
CONTINUOUS
 62
     1
  5
BC
 10
342.061484
 20
369.146489
 30
0.0
 11
342.061484
 21
368.146489
 31
0.0
  0
ENDSEC
  0
EOF
