  0
SECTION
  2
HEADER
  9
$ACADVER
  1
AC1009
  9
$INSBASE
 10
0.0
 20
0.0
 30
0.0
  9
$EXTMIN
 10
0.0
 20
0.0
 30
0.0
  9
$EXTMAX
 10
840.0
 20
594.0
 30
0.0
  9
$LIMMIN
 10
0.0
 20
0.0
  9
$LIMMAX
 10
840.0
 20
594.0
  9
$ORTHOMODE
 70
     0
  9
$REGENMODE
 70
     1
  9
$FILLMODE
 70
     1
  9
$QTEXTMODE
 70
     0
  9
$MIRRTEXT
 70
     1
  9
$DRAGMODE
 70
     2
  9
$LTSCALE
 40
2.0
  9
$OSMODE
 70
     0
  9
$ATTMODE
 70
     1
  9
$TEXTSIZE
 40
0.2
  9
$TRACEWID
 40
0.05
  9
$TEXTSTYLE
  7
STANDARD
  9
$CLAYER
  8
0
  9
$CELTYPE
  6
BYLAYER
  9
$CECOLOR
 62
     7
  9
$DIMSCALE
 40
2.0
  9
$DIMASZ
 40
3.5
  9
$DIMEXO
 40
0.0625
  9
$DIMDLI
 40
0.38
  9
$DIMRND
 40
0.0
  9
$DIMDLE
 40
0.0
  9
$DIMEXE
 40
0.18
  9
$DIMTP
 40
0.0
  9
$DIMTM
 40
0.0
  9
$DIMTXT
 40
3.5
  9
$DIMCEN
 40
0.09
  9
$DIMTSZ
 40
0.0
  9
$DIMTOL
 70
     0
  9
$DIMLIM
 70
     0
  9
$DIMTIH
 70
     1
  9
$DIMTOH
 70
     1
  9
$DIMSE1
 70
     0
  9
$DIMSE2
 70
     0
  9
$DIMTAD
 70
     1
  9
$DIMZIN
 70
     0
  9
$DIMBLK
  1

  9
$DIMASO
 70
     1
  9
$DIMSHO
 70
     1
  9
$DIMPOST
  1

  9
$DIMAPOST
  1

  9
$DIMALT
 70
     0
  9
$DIMALTD
 70
     2
  9
$DIMALTF
 40
25.4
  9
$DIMLFAC
 40
1.0
  9
$DIMTOFL
 70
     0
  9
$DIMTVP
 40
0.0
  9
$DIMTIX
 70
     0
  9
$DIMSOXD
 70
     0
  9
$DIMSAH
 70
     0
  9
$DIMBLK1
  1

  9
$DIMBLK2
  1

  9
$DIMSTYLE
  2
STANDARD
  9
$DIMCLRD
 70
     0
  9
$DIMCLRE
 70
     0
  9
$DIMCLRT
 70
     0
  9
$DIMTFAC
 40
1.0
  9
$DIMGAP
 40
0.09
  9
$LUNITS
 70
     2
  9
$LUPREC
 70
     2
  9
$AXISMODE
 70
     0
  9
$AXISUNIT
 10
0.0
 20
0.0
  9
$SKETCHINC
 40
0.1
  9
$FILLETRAD
 40
0.0
  9
$AUNITS
 70
     0
  9
$AUPREC
 70
     0
  9
$MENU
  1
acad
  9
$ELEVATION
 40
0.0
  9
$PELEVATION
 40
0.0
  9
$THICKNESS
 40
0.0
  9
$LIMCHECK
 70
     0
  9
$BLIPMODE
 70
     1
  9
$CHAMFERA
 40
0.0
  9
$CHAMFERB
 40
0.0
  9
$SKPOLY
 70
     0
  9
$TDCREATE
 40
0.000000000
  9
$TDUPDATE
 40
0.000000000
  9
$TDINDWG
 40
0.0000000000
  9
$TDUSRTIMER
 40
0.0000000000
  9
$USRTIMER
 70
     1
  9
$ANGBASE
 50
0.0
  9
$ANGDIR
 70
     0
  9
$PDMODE
 70
     0
  9
$PDSIZE
 40
0.0
  9
$PLINEWID
 40
0.0
  9
$COORDS
 70
     0
  9
$SPLFRAME
 70
     0
  9
$SPLINETYPE
 70
     6
  9
$SPLINESEGS
 70
     8
  9
$ATTDIA
 70
     0
  9
$ATTREQ
 70
     1
  9
$HANDLING
 70
     1
  9
$HANDSEED
  5
29F
  9
$SURFTAB1
 70
     6
  9
$SURFTAB2
 70
     6
  9
$SURFTYPE
 70
     6
  9
$SURFU
 70
     6
  9
$SURFV
 70
     6
  9
$UCSNAME
  2

  9
$UCSORG
 10
0.0
 20
0.0
 30
0.0
  9
$UCSXDIR
 10
1.0
 20
0.0
 30
0.0
  9
$UCSYDIR
 10
0.0
 20
1.0
 30
0.0
  9
$PUCSNAME
  2

  9
$PUCSORG
 10
0.0
 20
0.0
 30
0.0
  9
$PUCSXDIR
 10
1.0
 20
0.0
 30
0.0
  9
$PUCSYDIR
 10
0.0
 20
1.0
 30
0.0
  9
$USERI1
 70
     0
  9
$USERI2
 70
     0
  9
$USERI3
 70
     0
  9
$USERI4
 70
     0
  9
$USERI5
 70
     0
  9
$USERR1
 40
0.0
  9
$USERR2
 40
0.0
  9
$USERR3
 40
0.0
  9
$USERR4
 40
0.0
  9
$USERR5
 40
0.0
  9
$WORLDVIEW
 70
     1
  9
$SHADEDGE
 70
     3
  9
$SHADEDIF
 70
    70
  9
$TILEMODE
 70
     1
  9
$MAXACTVP
 70
    16
  9
$PINSBASE
 10
0.0
 20
0.0
 30
0.0
  9
$PLIMCHECK
 70
     0
  9
$PEXTMIN
 10
1.000000E+20
 20
1.000000E+20
 30
1.000000E+20
  9
$PEXTMAX
 10
-1.000000E+20
 20
-1.000000E+20
 30
-1.000000E+20
  9
$PLIMMIN
 10
0.0
 20
0.0
  9
$PLIMMAX
 10
840.0
 20
594.0
  9
$UNITMODE
 70
     0
  9
$VISRETAIN
 70
     0
  9
$PLINEGEN
 70
     1
  9
$PSLTSCALE
 70
     0
  9
$TREEDEPTH
 70
  3020
  9
$DWGCODEPAGE
  3
dos850
  0
ENDSEC
  0
SECTION
  2
TABLES
  0
TABLE
  2
VPORT
 70
     1
  0
VPORT
  2
*ACTIVE
 70
     0
 10
0.0
 20
0.0
 11
1.0
 21
1.0
 12
420.0
 22
297.0
 13
0.0
 23
0.0
 14
1.0
 24
1.0
 15
0.0
 25
0.0
 16
0.0
 26
0.0
 36
1.0
 17
0.0
 27
0.0
 37
0.0
 40
594.0
 41
1.604229
 42
50.0
 43
0.0
 44
0.0
 50
0.0
 51
0.0
 71
     0
 72
   100
 73
     1
 74
     1
 75
     0
 76
     0
 77
     0
 78
     0
  0
ENDTAB
  0
TABLE
  2
LTYPE
 70
     3
  0
LTYPE
  2
CONTINUOUS
 70
    64
  3
Solid line
 72
    65
 73
     0
 40
0.0
  0
LTYPE
  2
DASHED
 70
    64
  3
__ __ __ __ __
 72
    65
 73
     2
 40
6.25
 49
5.0
 49
-1.25
  0
LTYPE
  2
DASHDOT
 70
    64
  3
__ . __ . __ . __ . __
 72
    65
 73
     4
 40
7.5
 49
5.0
 49
-1.25
 49
0.0
 49
-1.25
  0
ENDTAB
  0
TABLE
  2
LAYER
 70
    10
  0
LAYER
  2
0
 70
     0
 62
     7
  6
CONTINUOUS
  0
LAYER
  2
LC-INFO-1-2-MM-A3-0
 70
     1
 62
    -1
  6
CONTINUOUS
  0
LAYER
  2
LC-006-003-MTH-0
 70
     0
 62
     2
  6
CONTINUOUS
  0
LAYER
  2
LC-007-003-MTG-0
 70
     0
 62
     2
  6
CONTINUOUS
  0
LAYER
  2
LC-005-003-----0
 70
     0
 62
     2
  6
CONTINUOUS
  0
LAYER
  2
LC-004-005-----0
 70
     0
 62
     2
  6
CONTINUOUS
  0
LAYER
  2
LC-003-000-----0
 70
     0
 62
     7
  6
CONTINUOUS
  0
LAYER
  2
LC-001-002-----0
 70
     0
 62
     2
  6
DASHED
  0
LAYER
  2
LC-002-002-RND-0
 70
     0
 62
     1
  6
CONTINUOUS
  0
LAYER
  2
LC-000
 70
     0
 62
     7
  6
CONTINUOUS
  0
ENDTAB
  0
TABLE
  2
STYLE
 70
     4
  0
STYLE
  2
STANDARD
 70
     0
 40
0.0
 41
1.0
 50
0.0
 71
     0
 42
0.0
  3
txt
  4

  0
STYLE
  2
LC-STANDARD
 70
    64
 40
0.0
 41
1.0
 50
0.0
 71
     0
 42
3.5
  3
MONOTXT
  4

  0
STYLE
  2
LC-TXTSTYLE-150-400-0-0-D2
 70
    64
 40
0.0
 41
1.0
 50
15.0
 71
     0
 42
3.5
  3
MONOTXT
  4

  0
STYLE
  2
LC-TXTSTYLE-150-400-0-0-D3
 70
    64
 40
0.0
 41
1.0
 50
15.0
 71
     0
 42
3.5
  3
LC-STANDARD
  4

  0
ENDTAB
  0
TABLE
  2
VIEW
 70
     0
  0
ENDTAB
  0
TABLE
  2
UCS
 70
     0
  0
ENDTAB
  0
TABLE
  2
APPID
 70
     1
  0
APPID
  2
ACAD
 70
     0
  0
ENDTAB
  0
TABLE
  2
DIMSTYLE
 70
     3
  0
DIMSTYLE
  2
STANDARD
 70
     0
  3

  4

  5

  6

  7

 40
1.0
 41
0.18
 42
0.0625
 43
0.38
 44
0.18
 45
0.0
 46
0.0
 47
0.0
 48
0.0
 71
     0
 72
     0
 73
     1
 74
     1
 75
     0
 76
     0
 77
     0
 78
     0
140
0.18
141
0.09
142
0.0
143
25.4
144
1.0
145
0.0
146
1.0
147
0.09
170
     0
171
     2
172
     0
173
     0
174
     0
175
     0
176
     0
177
     0
178
     0
  0
DIMSTYLE
  2
LC-STANDARD
 70
     0
  3

  4

  5

  6

  7

 40
1.0
 41
3.5
 42
0.0
 43
7.5
 44
1.8
 45
0.0
 46
0.0
 47
0.0
 48
0.0
 71
     0
 72
     0
 73
     0
 74
     0
 75
     0
 76
     0
 77
     1
 78
     8
140
3.5
141
0.0
142
0.0
143
25.4
144
1.0
145
0.0
146
0.71
147
1.5
170
     0
171
     2
172
     1
173
     0
174
     0
175
     0
176
     0
177
     0
178
     3
  0
DIMSTYLE
  2
LC-DIM-L-0090-02-02
 70
     0
  3

  4

  5

  6

  7

 40
2.0
 41
3.5
 42
0.0
 43
7.5
 44
1.8
 45
0.0
 46
0.0
 47
0.0
 48
0.0
 71
     0
 72
     0
 73
     0
 74
     0
 75
     0
 76
     0
 77
     1
 78
     8
140
9.0
141
0.0
142
0.0
143
25.4
144
1.0
145
0.0
146
0.71
147
1.5
170
     0
171
     2
172
     0
173
     0
174
     0
175
     0
176
     2
177
     2
178
     6
  0
ENDTAB
  0
ENDSEC
  0
SECTION
  2
BLOCKS
  0
BLOCK
  8
0
  5
23
  2
BLK1
 70
    64
 10
0.0
 20
0.0
 30
0.0
  3
BLK1
  0
ENDBLK
  8
0
  5
24
  0
BLOCK
  8
0
  5
26
  2
BLK2
 70
    64
 10
0.0
 20
0.0
 30
0.0
  3
BLK2
  0
ENDBLK
  8
0
  5
27
  0
BLOCK
  8
0
  5
29
  2
BLK3
 70
    64
 10
0.0
 20
0.0
 30
0.0
  3
BLK3
  0
ENDBLK
  8
0
  5
2A
  0
BLOCK
  8
0
  5
2C
  2
BLK4
 70
    64
 10
0.0
 20
0.0
 30
0.0
  3
BLK4
  0
ENDBLK
  8
0
  5
2D
  0
BLOCK
  8
0
  5
2F
  2
BLK5
 70
    64
 10
0.0
 20
0.0
 30
0.0
  3
BLK5
  0
ENDBLK
  8
0
  5
30
  0
BLOCK
  8
0
  5
32
  2
*D5
 70
    65
 10
0.0
 20
0.0
 30
0.0
  3
*D5
  0
LINE
  8
LC-006-003-MTH-0
  6
CONTINUOUS
  5
34
 10
707.28803
 20
207.154514
 30
0.0
 11
766.8
 21
207.154514
 31
0.0
  0
LINE
  8
LC-006-003-MTH-0
  6
CONTINUOUS
  5
35
 10
706.751937
 20
317.154514
 30
0.0
 11
766.8
 21
317.154514
 31
0.0
  0
LINE
  8
LC-007-003-MTG-0
  6
CONTINUOUS
  5
37
 10
756.0
 20
207.154514
 30
0.0
 11
756.0
 21
317.154514
 31
0.0
  0
LINE
  8
LC-005-003-----0
  6
CONTINUOUS
  5
39
 10
753.650529
 20
225.000522
 30
0.0
 11
756.0
 21
207.154514
 31
0.0
  0
LINE
  8
LC-005-003-----0
  6
CONTINUOUS
  5
3A
 10
756.0
 20
207.154514
 30
0.0
 11
758.349471
 21
225.000522
 31
0.0
  0
LINE
  8
LC-005-003-----0
  6
CONTINUOUS
  5
3B
 10
758.349471
 20
225.000522
 30
0.0
 11
753.650529
 21
225.000522
 31
0.0
  0
LINE
  8
LC-005-003-----0
  6
CONTINUOUS
  5
3C
 10
754.261391
 20
225.04056
 30
0.0
 11
756.0
 21
211.834514
 31
0.0
  0
LINE
  8
LC-005-003-----0
  6
CONTINUOUS
  5
3D
 10
756.0
 20
211.834514
 30
0.0
 11
757.738609
 21
225.04056
 31
0.0
  0
LINE
  8
LC-005-003-----0
  6
CONTINUOUS
  5
3E
 10
754.872254
 20
225.080598
 30
0.0
 11
756.0
 21
216.514514
 31
0.0
  0
LINE
  8
LC-005-003-----0
  6
CONTINUOUS
  5
3F
 10
756.0
 20
216.514514
 30
0.0
 11
757.127746
 21
225.080598
 31
0.0
  0
LINE
  8
LC-005-003-----0
  6
CONTINUOUS
  5
40
 10
755.483116
 20
225.120636
 30
0.0
 11
756.0
 21
221.194514
 31
0.0
  0
LINE
  8
LC-005-003-----0
  6
CONTINUOUS
  5
41
 10
756.0
 20
221.194514
 30
0.0
 11
756.516884
 21
225.120636
 31
0.0
  0
LINE
  8
LC-005-003-----0
  6
CONTINUOUS
  5
42
 10
758.349471
 20
299.308507
 30
0.0
 11
756.0
 21
317.154514
 31
0.0
  0
LINE
  8
LC-005-003-----0
  6
CONTINUOUS
  5
43
 10
756.0
 20
317.154514
 30
0.0
 11
753.650529
 21
299.308507
 31
0.0
  0
LINE
  8
LC-005-003-----0
  6
CONTINUOUS
  5
44
 10
753.650529
 20
299.308507
 30
0.0
 11
758.349471
 21
299.308507
 31
0.0
  0
LINE
  8
LC-005-003-----0
  6
CONTINUOUS
  5
45
 10
757.738609
 20
299.268469
 30
0.0
 11
756.0
 21
312.474514
 31
0.0
  0
LINE
  8
LC-005-003-----0
  6
CONTINUOUS
  5
46
 10
756.0
 20
312.474514
 30
0.0
 11
754.261391
 21
299.268469
 31
0.0
  0
LINE
  8
LC-005-003-----0
  6
CONTINUOUS
  5
47
 10
757.127746
 20
299.228431
 30
0.0
 11
756.0
 21
307.794514
 31
0.0
  0
LINE
  8
LC-005-003-----0
  6
CONTINUOUS
  5
48
 10
756.0
 20
307.794514
 30
0.0
 11
754.872254
 21
299.228431
 31
0.0
  0
LINE
  8
LC-005-003-----0
  6
CONTINUOUS
  5
49
 10
756.516884
 20
299.188393
 30
0.0
 11
756.0
 21
303.114514
 31
0.0
  0
LINE
  8
LC-005-003-----0
  6
CONTINUOUS
  5
4A
 10
756.0
 20
303.114514
 30
0.0
 11
755.483116
 21
299.188393
 31
0.0
  0
TEXT
  8
LC-005-003-----0
  6
CONTINUOUS
 62
     6
  5
4C
 10
745.568001
 20
231.274169
 30
0.0
 40
18.0
  1
DN100
 50
90.0
 41
0.9
 51
15.0
  7
LC-TXTSTYLE-150-400-0-0-D0
 72
     1
 11
745.568001
 21
264.94976
 31
0.0
  0
ENDBLK
  8
0
  5
4D
  0
BLOCK
  8
0
  5
4F
  2
*D6
 70
    65
 10
0.0
 20
0.0
 30
0.0
  3
*D6
  0
LINE
  8
LC-006-003-MTH-0
  6
CONTINUOUS
  5
50
 10
426.284528
 20
205.077514
 30
0.0
 11
385.2
 21
205.077514
 31
0.0
  0
LINE
  8
LC-006-003-MTH-0
  6
CONTINUOUS
  5
51
 10
426.284528
 20
319.231514
 30
0.0
 11
385.2
 21
319.231514
 31
0.0
  0
LINE
  8
LC-007-003-MTG-0
  6
CONTINUOUS
  5
52
 10
396.0
 20
205.077514
 30
0.0
 11
396.0
 21
319.231514
 31
0.0
  0
LINE
  8
LC-005-003-----0
  6
CONTINUOUS
  5
53
 10
393.650529
 20
222.923522
 30
0.0
 11
396.0
 21
205.077514
 31
0.0
  0
LINE
  8
LC-005-003-----0
  6
CONTINUOUS
  5
54
 10
396.0
 20
205.077514
 30
0.0
 11
398.349471
 21
222.923522
 31
0.0
  0
LINE
  8
LC-005-003-----0
  6
CONTINUOUS
  5
55
 10
398.349471
 20
222.923522
 30
0.0
 11
393.650529
 21
222.923522
 31
0.0
  0
LINE
  8
LC-005-003-----0
  6
CONTINUOUS
  5
56
 10
394.261391
 20
222.96356
 30
0.0
 11
396.0
 21
209.757514
 31
0.0
  0
LINE
  8
LC-005-003-----0
  6
CONTINUOUS
  5
57
 10
396.0
 20
209.757514
 30
0.0
 11
397.738609
 21
222.96356
 31
0.0
  0
LINE
  8
LC-005-003-----0
  6
CONTINUOUS
  5
58
 10
394.872254
 20
223.003598
 30
0.0
 11
396.0
 21
214.437514
 31
0.0
  0
LINE
  8
LC-005-003-----0
  6
CONTINUOUS
  5
59
 10
396.0
 20
214.437514
 30
0.0
 11
397.127746
 21
223.003598
 31
0.0
  0
LINE
  8
LC-005-003-----0
  6
CONTINUOUS
  5
5A
 10
395.483116
 20
223.043636
 30
0.0
 11
396.0
 21
219.117514
 31
0.0
  0
LINE
  8
LC-005-003-----0
  6
CONTINUOUS
  5
5B
 10
396.0
 20
219.117514
 30
0.0
 11
396.516884
 21
223.043636
 31
0.0
  0
LINE
  8
LC-005-003-----0
  6
CONTINUOUS
  5
5C
 10
398.349471
 20
301.385507
 30
0.0
 11
396.0
 21
319.231514
 31
0.0
  0
LINE
  8
LC-005-003-----0
  6
CONTINUOUS
  5
5D
 10
396.0
 20
319.231514
 30
0.0
 11
393.650529
 21
301.385507
 31
0.0
  0
LINE
  8
LC-005-003-----0
  6
CONTINUOUS
  5
5E
 10
393.650529
 20
301.385507
 30
0.0
 11
398.349471
 21
301.385507
 31
0.0
  0
LINE
  8
LC-005-003-----0
  6
CONTINUOUS
  5
5F
 10
397.738609
 20
301.345469
 30
0.0
 11
396.0
 21
314.551514
 31
0.0
  0
LINE
  8
LC-005-003-----0
  6
CONTINUOUS
  5
60
 10
396.0
 20
314.551514
 30
0.0
 11
394.261391
 21
301.345469
 31
0.0
  0
LINE
  8
LC-005-003-----0
  6
CONTINUOUS
  5
61
 10
397.127746
 20
301.305431
 30
0.0
 11
396.0
 21
309.871514
 31
0.0
  0
LINE
  8
LC-005-003-----0
  6
CONTINUOUS
  5
62
 10
396.0
 20
309.871514
 30
0.0
 11
394.872254
 21
301.305431
 31
0.0
  0
LINE
  8
LC-005-003-----0
  6
CONTINUOUS
  5
63
 10
396.516884
 20
301.265393
 30
0.0
 11
396.0
 21
305.191514
 31
0.0
  0
LINE
  8
LC-005-003-----0
  6
CONTINUOUS
  5
64
 10
396.0
 20
305.191514
 30
0.0
 11
395.483116
 21
301.265393
 31
0.0
  0
TEXT
  8
LC-005-003-----0
  6
CONTINUOUS
 62
     6
  5
65
 10
385.568001
 20
231.274169
 30
0.0
 40
18.0
  1
DN100
 50
90.0
 51
15.0
  7
LC-TXTSTYLE-150-400-0-0-D0
 72
     1
 11
385.568001
 21
264.94976
 31
0.0
  0
ENDBLK
  8
0
  5
66
  0
BLOCK
  8
0
  5
68
  2
*X7
 70
    65
 10
440.264846
 20
313.354514
 30
0.0
  3
*X7
  0
LINE
  8
LC-004-005-----0
  6
CONTINUOUS
  5
6A
 10
706.505885
 20
313.354514
 30
0.0
 11
707.28803
 21
314.13666
 31
0.0
  0
LINE
  8
LC-004-005-----0
  6
CONTINUOUS
  5
6B
 10
703.677457
 20
313.354514
 30
0.0
 11
707.114697
 21
316.791754
 31
0.0
  0
LINE
  8
LC-004-005-----0
  6
CONTINUOUS
  5
6C
 10
700.84903
 20
313.354514
 30
0.0
 11
704.64903
 21
317.154514
 31
0.0
  0
LINE
  8
LC-004-005-----0
  6
CONTINUOUS
  5
6D
 10
698.020603
 20
313.354514
 30
0.0
 11
701.820603
 21
317.154514
 31
0.0
  0
LINE
  8
LC-004-005-----0
  6
CONTINUOUS
  5
6E
 10
695.192176
 20
313.354514
 30
0.0
 11
698.992176
 21
317.154514
 31
0.0
  0
LINE
  8
LC-004-005-----0
  6
CONTINUOUS
  5
6F
 10
692.363749
 20
313.354514
 30
0.0
 11
696.163749
 21
317.154514
 31
0.0
  0
LINE
  8
LC-004-005-----0
  6
CONTINUOUS
  5
70
 10
689.535322
 20
313.354514
 30
0.0
 11
693.335322
 21
317.154514
 31
0.0
  0
LINE
  8
LC-004-005-----0
  6
CONTINUOUS
  5
71
 10
686.706895
 20
313.354514
 30
0.0
 11
690.506895
 21
317.154514
 31
0.0
  0
LINE
  8
LC-004-005-----0
  6
CONTINUOUS
  5
72
 10
683.878468
 20
313.354514
 30
0.0
 11
687.678468
 21
317.154514
 31
0.0
  0
LINE
  8
LC-004-005-----0
  6
CONTINUOUS
  5
73
 10
681.05004
 20
313.354514
 30
0.0
 11
684.85004
 21
317.154514
 31
0.0
  0
LINE
  8
LC-004-005-----0
  6
CONTINUOUS
  5
74
 10
678.221613
 20
313.354514
 30
0.0
 11
682.021613
 21
317.154514
 31
0.0
  0
LINE
  8
LC-004-005-----0
  6
CONTINUOUS
  5
75
 10
675.393186
 20
313.354514
 30
0.0
 11
679.193186
 21
317.154514
 31
0.0
  0
LINE
  8
LC-004-005-----0
  6
CONTINUOUS
  5
76
 10
672.564759
 20
313.354514
 30
0.0
 11
676.364759
 21
317.154514
 31
0.0
  0
LINE
  8
LC-004-005-----0
  6
CONTINUOUS
  5
77
 10
669.736332
 20
313.354514
 30
0.0
 11
673.536332
 21
317.154514
 31
0.0
  0
LINE
  8
LC-004-005-----0
  6
CONTINUOUS
  5
78
 10
666.907905
 20
313.354514
 30
0.0
 11
670.707905
 21
317.154514
 31
0.0
  0
LINE
  8
LC-004-005-----0
  6
CONTINUOUS
  5
79
 10
664.079478
 20
313.354514
 30
0.0
 11
667.879478
 21
317.154514
 31
0.0
  0
LINE
  8
LC-004-005-----0
  6
CONTINUOUS
  5
7A
 10
661.251051
 20
313.354514
 30
0.0
 11
665.051051
 21
317.154514
 31
0.0
  0
LINE
  8
LC-004-005-----0
  6
CONTINUOUS
  5
7B
 10
658.422623
 20
313.354514
 30
0.0
 11
662.222623
 21
317.154514
 31
0.0
  0
LINE
  8
LC-004-005-----0
  6
CONTINUOUS
  5
7C
 10
655.594196
 20
313.354514
 30
0.0
 11
659.394196
 21
317.154514
 31
0.0
  0
LINE
  8
LC-004-005-----0
  6
CONTINUOUS
  5
7D
 10
652.765769
 20
313.354514
 30
0.0
 11
656.565769
 21
317.154514
 31
0.0
  0
LINE
  8
LC-004-005-----0
  6
CONTINUOUS
  5
7E
 10
649.937342
 20
313.354514
 30
0.0
 11
653.737342
 21
317.154514
 31
0.0
  0
LINE
  8
LC-004-005-----0
  6
CONTINUOUS
  5
7F
 10
647.108915
 20
313.354514
 30
0.0
 11
650.908915
 21
317.154514
 31
0.0
  0
LINE
  8
LC-004-005-----0
  6
CONTINUOUS
  5
80
 10
644.280488
 20
313.354514
 30
0.0
 11
648.080488
 21
317.154514
 31
0.0
  0
LINE
  8
LC-004-005-----0
  6
CONTINUOUS
  5
81
 10
641.452061
 20
313.354514
 30
0.0
 11
645.252061
 21
317.154514
 31
0.0
  0
LINE
  8
LC-004-005-----0
  6
CONTINUOUS
  5
82
 10
638.623634
 20
313.354514
 30
0.0
 11
642.423634
 21
317.154514
 31
0.0
  0
LINE
  8
LC-004-005-----0
  6
CONTINUOUS
  5
83
 10
635.795206
 20
313.354514
 30
0.0
 11
639.595206
 21
317.154514
 31
0.0
  0
LINE
  8
LC-004-005-----0
  6
CONTINUOUS
  5
84
 10
633.836871
 20
314.224606
 30
0.0
 11
636.844627
 21
317.232362
 31
0.0
  0
LINE
  8
LC-004-005-----0
  6
CONTINUOUS
  5
85
 10
632.422657
 20
315.638819
 30
0.0
 11
635.109663
 21
318.325825
 31
0.0
  0
LINE
  8
LC-004-005-----0
  6
CONTINUOUS
  5
86
 10
631.008444
 20
317.053033
 30
0.0
 11
633.69545
 21
319.740039
 31
0.0
  0
LINE
  8
LC-004-005-----0
  6
CONTINUOUS
  5
87
 10
629.59423
 20
318.467247
 30
0.0
 11
632.281236
 21
321.154252
 31
0.0
  0
LINE
  8
LC-004-005-----0
  6
CONTINUOUS
  5
88
 10
628.180017
 20
319.88146
 30
0.0
 11
630.867023
 21
322.568466
 31
0.0
  0
LINE
  8
LC-004-005-----0
  6
CONTINUOUS
  5
89
 10
626.765803
 20
321.295674
 30
0.0
 11
629.452809
 21
323.982679
 31
0.0
  0
LINE
  8
LC-004-005-----0
  6
CONTINUOUS
  5
8A
 10
625.35159
 20
322.709887
 30
0.0
 11
628.038595
 21
325.396893
 31
0.0
  0
LINE
  8
LC-004-005-----0
  6
CONTINUOUS
  5
8B
 10
623.937376
 20
324.124101
 30
0.0
 11
626.624382
 21
326.811107
 31
0.0
  0
LINE
  8
LC-004-005-----0
  6
CONTINUOUS
  5
8C
 10
622.523163
 20
325.538314
 30
0.0
 11
625.210168
 21
328.22532
 31
0.0
  0
LINE
  8
LC-004-005-----0
  6
CONTINUOUS
  5
8D
 10
621.108949
 20
326.952528
 30
0.0
 11
623.795955
 21
329.639534
 31
0.0
  0
LINE
  8
LC-004-005-----0
  6
CONTINUOUS
  5
8E
 10
619.694735
 20
328.366742
 30
0.0
 11
622.381741
 21
331.053747
 31
0.0
  0
LINE
  8
LC-004-005-----0
  6
CONTINUOUS
  5
8F
 10
618.280522
 20
329.780955
 30
0.0
 11
620.967528
 21
332.467961
 31
0.0
  0
LINE
  8
LC-004-005-----0
  6
CONTINUOUS
  5
90
 10
616.866308
 20
331.195169
 30
0.0
 11
619.553314
 21
333.882174
 31
0.0
  0
LINE
  8
LC-004-005-----0
  6
CONTINUOUS
  5
91
 10
615.452095
 20
332.609382
 30
0.0
 11
618.1391
 21
335.296388
 31
0.0
  0
LINE
  8
LC-004-005-----0
  6
CONTINUOUS
  5
92
 10
614.037881
 20
334.023596
 30
0.0
 11
616.724887
 21
336.710602
 31
0.0
  0
LINE
  8
LC-004-005-----0
  6
CONTINUOUS
  5
93
 10
612.623668
 20
335.437809
 30
0.0
 11
615.310673
 21
338.124815
 31
0.0
  0
LINE
  8
LC-004-005-----0
  6
CONTINUOUS
  5
94
 10
611.209454
 20
336.852023
 30
0.0
 11
613.89646
 21
339.539029
 31
0.0
  0
LINE
  8
LC-004-005-----0
  6
CONTINUOUS
  5
95
 10
609.79524
 20
338.266236
 30
0.0
 11
612.482246
 21
340.953242
 31
0.0
  0
LINE
  8
LC-004-005-----0
  6
CONTINUOUS
  5
96
 10
608.381027
 20
339.68045
 30
0.0
 11
611.068033
 21
342.367456
 31
0.0
  0
LINE
  8
LC-004-005-----0
  6
CONTINUOUS
  5
97
 10
606.966813
 20
341.094664
 30
0.0
 11
609.653819
 21
343.781669
 31
0.0
  0
LINE
  8
LC-004-005-----0
  6
CONTINUOUS
  5
98
 10
605.5526
 20
342.508877
 30
0.0
 11
608.239606
 21
345.195883
 31
0.0
  0
LINE
  8
LC-004-005-----0
  6
CONTINUOUS
  5
99
 10
604.138386
 20
343.923091
 30
0.0
 11
606.825392
 21
346.610096
 31
0.0
  0
LINE
  8
LC-004-005-----0
  6
CONTINUOUS
  5
9A
 10
602.724173
 20
345.337304
 30
0.0
 11
605.411178
 21
348.02431
 31
0.0
  0
LINE
  8
LC-004-005-----0
  6
CONTINUOUS
  5
9B
 10
601.309959
 20
346.751518
 30
0.0
 11
603.996965
 21
349.438524
 31
0.0
  0
LINE
  8
LC-004-005-----0
  6
CONTINUOUS
  5
9C
 10
599.895746
 20
348.165731
 30
0.0
 11
602.582751
 21
350.852737
 31
0.0
  0
LINE
  8
LC-004-005-----0
  6
CONTINUOUS
  5
9D
 10
598.481532
 20
349.579945
 30
0.0
 11
601.168538
 21
352.266951
 31
0.0
  0
LINE
  8
LC-004-005-----0
  6
CONTINUOUS
  5
9E
 10
597.067318
 20
350.994159
 30
0.0
 11
599.754324
 21
353.681164
 31
0.0
  0
LINE
  8
LC-004-005-----0
  6
CONTINUOUS
  5
9F
 10
595.653105
 20
352.408372
 30
0.0
 11
598.340111
 21
355.095378
 31
0.0
  0
LINE
  8
LC-004-005-----0
  6
CONTINUOUS
  5
A0
 10
594.238891
 20
353.822586
 30
0.0
 11
596.925897
 21
356.509591
 31
0.0
  0
LINE
  8
LC-004-005-----0
  6
CONTINUOUS
  5
A1
 10
592.824678
 20
355.236799
 30
0.0
 11
595.511683
 21
357.923805
 31
0.0
  0
LINE
  8
LC-004-005-----0
  6
CONTINUOUS
  5
A2
 10
591.410464
 20
356.651013
 30
0.0
 11
594.09747
 21
359.338019
 31
0.0
  0
LINE
  8
LC-004-005-----0
  6
CONTINUOUS
  5
A3
 10
589.996251
 20
358.065226
 30
0.0
 11
592.683256
 21
360.752232
 31
0.0
  0
LINE
  8
LC-004-005-----0
  6
CONTINUOUS
  5
A4
 10
588.582037
 20
359.47944
 30
0.0
 11
591.269043
 21
362.166446
 31
0.0
  0
LINE
  8
LC-004-005-----0
  6
CONTINUOUS
  5
A5
 10
587.167823
 20
360.893653
 30
0.0
 11
589.854829
 21
363.580659
 31
0.0
  0
LINE
  8
LC-004-005-----0
  6
CONTINUOUS
  5
A6
 10
585.75361
 20
362.307867
 30
0.0
 11
588.440616
 21
364.994873
 31
0.0
  0
LINE
  8
LC-004-005-----0
  6
CONTINUOUS
  5
A7
 10
584.339396
 20
363.722081
 30
0.0
 11
587.026402
 21
366.409086
 31
0.0
  0
LINE
  8
LC-004-005-----0
  6
CONTINUOUS
  5
A8
 10
582.925183
 20
365.136294
 30
0.0
 11
585.612189
 21
367.8233
 31
0.0
  0
LINE
  8
LC-004-005-----0
  6
CONTINUOUS
  5
A9
 10
581.510969
 20
366.550508
 30
0.0
 11
584.197975
 21
369.237513
 31
0.0
  0
LINE
  8
LC-004-005-----0
  6
CONTINUOUS
  5
AA
 10
580.096756
 20
367.964721
 30
0.0
 11
582.783761
 21
370.651727
 31
0.0
  0
LINE
  8
LC-004-005-----0
  6
CONTINUOUS
  5
AB
 10
578.682542
 20
369.378935
 30
0.0
 11
581.369548
 21
372.065941
 31
0.0
  0
LINE
  8
LC-004-005-----0
  6
CONTINUOUS
  5
AC
 10
577.268329
 20
370.793148
 30
0.0
 11
579.955334
 21
373.480154
 31
0.0
  0
LINE
  8
LC-004-005-----0
  6
CONTINUOUS
  5
AD
 10
575.854115
 20
372.207362
 30
0.0
 11
578.541121
 21
374.894368
 31
0.0
  0
LINE
  8
LC-004-005-----0
  6
CONTINUOUS
  5
AE
 10
574.439901
 20
373.621576
 30
0.0
 11
577.126907
 21
376.308581
 31
0.0
  0
LINE
  8
LC-004-005-----0
  6
CONTINUOUS
  5
AF
 10
573.025688
 20
375.035789
 30
0.0
 11
575.712694
 21
377.722795
 31
0.0
  0
LINE
  8
LC-004-005-----0
  6
CONTINUOUS
  5
B0
 10
571.611474
 20
376.450003
 30
0.0
 11
574.29848
 21
379.137008
 31
0.0
  0
LINE
  8
LC-004-005-----0
  6
CONTINUOUS
  5
B1
 10
570.197261
 20
377.864216
 30
0.0
 11
572.884266
 21
380.551222
 31
0.0
  0
LINE
  8
LC-004-005-----0
  6
CONTINUOUS
  5
B2
 10
568.783047
 20
379.27843
 30
0.0
 11
571.470053
 21
381.965436
 31
0.0
  0
LINE
  8
LC-004-005-----0
  6
CONTINUOUS
  5
B3
 10
567.368834
 20
380.692643
 30
0.0
 11
570.055839
 21
383.379649
 31
0.0
  0
LINE
  8
LC-004-005-----0
  6
CONTINUOUS
  5
B4
 10
565.95462
 20
382.106857
 30
0.0
 11
568.641626
 21
384.793863
 31
0.0
  0
LINE
  8
LC-004-005-----0
  6
CONTINUOUS
  5
B5
 10
564.540406
 20
383.52107
 30
0.0
 11
567.227412
 21
386.208076
 31
0.0
  0
LINE
  8
LC-004-005-----0
  6
CONTINUOUS
  5
B6
 10
563.126193
 20
384.935284
 30
0.0
 11
565.813199
 21
387.62229
 31
0.0
  0
LINE
  8
LC-004-005-----0
  6
CONTINUOUS
  5
B7
 10
561.711979
 20
386.349498
 30
0.0
 11
564.398985
 21
389.036503
 31
0.0
  0
LINE
  8
LC-004-005-----0
  6
CONTINUOUS
  5
B8
 10
560.297766
 20
387.763711
 30
0.0
 11
562.984772
 21
390.450717
 31
0.0
  0
LINE
  8
LC-004-005-----0
  6
CONTINUOUS
  5
B9
 10
558.883552
 20
389.177925
 30
0.0
 11
561.570558
 21
391.86493
 31
0.0
  0
LINE
  8
LC-004-005-----0
  6
CONTINUOUS
  5
BA
 10
557.469339
 20
390.592138
 30
0.0
 11
560.156344
 21
393.279144
 31
0.0
  0
LINE
  8
LC-004-005-----0
  6
CONTINUOUS
  5
BB
 10
556.055125
 20
392.006352
 30
0.0
 11
558.742131
 21
394.693358
 31
0.0
  0
LINE
  8
LC-004-005-----0
  6
CONTINUOUS
  5
BC
 10
554.640912
 20
393.420565
 30
0.0
 11
557.327917
 21
396.107571
 31
0.0
  0
LINE
  8
LC-004-005-----0
  6
CONTINUOUS
  5
BD
 10
553.226698
 20
394.834779
 30
0.0
 11
555.913704
 21
397.521785
 31
0.0
  0
LINE
  8
LC-004-005-----0
  6
CONTINUOUS
  5
BE
 10
552.072925
 20
396.509433
 30
0.0
 11
554.49949
 21
398.935998
 31
0.0
  0
LINE
  8
LC-004-005-----0
  6
CONTINUOUS
  5
BF
 10
551.619946
 20
398.884881
 30
0.0
 11
553.085277
 21
400.350212
 31
0.0
  0
LINE
  8
LC-004-005-----0
  6
CONTINUOUS
  5
C0
 10
551.081753
 20
401.175116
 30
0.0
 11
551.671063
 21
401.764425
 31
0.0
  0
ENDBLK
  8
0
  5
C1
  0
BLOCK
  8
0
  5
C3
  2
*X8
 70
    65
 10
426.284528
 20
196.628114
 30
0.0
  3
*X8
  0
LINE
  8
LC-004-005-----0
  6
CONTINUOUS
  5
C4
 10
704.957688
 20
207.154514
 30
0.0
 11
707.28803
 21
209.484857
 31
0.0
  0
LINE
  8
LC-004-005-----0
  6
CONTINUOUS
  5
C5
 10
702.129261
 20
207.154514
 30
0.0
 11
705.929261
 21
210.954514
 31
0.0
  0
LINE
  8
LC-004-005-----0
  6
CONTINUOUS
  5
C6
 10
699.300834
 20
207.154514
 30
0.0
 11
703.100834
 21
210.954514
 31
0.0
  0
LINE
  8
LC-004-005-----0
  6
CONTINUOUS
  5
C7
 10
696.472407
 20
207.154514
 30
0.0
 11
700.272407
 21
210.954514
 31
0.0
  0
LINE
  8
LC-004-005-----0
  6
CONTINUOUS
  5
C8
 10
693.64398
 20
207.154514
 30
0.0
 11
697.44398
 21
210.954514
 31
0.0
  0
LINE
  8
LC-004-005-----0
  6
CONTINUOUS
  5
C9
 10
690.815553
 20
207.154514
 30
0.0
 11
694.615553
 21
210.954514
 31
0.0
  0
LINE
  8
LC-004-005-----0
  6
CONTINUOUS
  5
CA
 10
687.987125
 20
207.154514
 30
0.0
 11
691.787125
 21
210.954514
 31
0.0
  0
LINE
  8
LC-004-005-----0
  6
CONTINUOUS
  5
CB
 10
685.158698
 20
207.154514
 30
0.0
 11
688.958698
 21
210.954514
 31
0.0
  0
LINE
  8
LC-004-005-----0
  6
CONTINUOUS
  5
CC
 10
682.330271
 20
207.154514
 30
0.0
 11
686.130271
 21
210.954514
 31
0.0
  0
LINE
  8
LC-004-005-----0
  6
CONTINUOUS
  5
CD
 10
679.501844
 20
207.154514
 30
0.0
 11
683.301844
 21
210.954514
 31
0.0
  0
LINE
  8
LC-004-005-----0
  6
CONTINUOUS
  5
CE
 10
676.673417
 20
207.154514
 30
0.0
 11
680.473417
 21
210.954514
 31
0.0
  0
LINE
  8
LC-004-005-----0
  6
CONTINUOUS
  5
CF
 10
673.84499
 20
207.154514
 30
0.0
 11
677.64499
 21
210.954514
 31
0.0
  0
LINE
  8
LC-004-005-----0
  6
CONTINUOUS
  5
D0
 10
671.016563
 20
207.154514
 30
0.0
 11
674.816563
 21
210.954514
 31
0.0
  0
LINE
  8
LC-004-005-----0
  6
CONTINUOUS
  5
D1
 10
668.188136
 20
207.154514
 30
0.0
 11
671.988136
 21
210.954514
 31
0.0
  0
LINE
  8
LC-004-005-----0
  6
CONTINUOUS
  5
D2
 10
665.359708
 20
207.154514
 30
0.0
 11
669.159708
 21
210.954514
 31
0.0
  0
LINE
  8
LC-004-005-----0
  6
CONTINUOUS
  5
D3
 10
662.531281
 20
207.154514
 30
0.0
 11
666.331281
 21
210.954514
 31
0.0
  0
LINE
  8
LC-004-005-----0
  6
CONTINUOUS
  5
D4
 10
659.702854
 20
207.154514
 30
0.0
 11
663.502854
 21
210.954514
 31
0.0
  0
LINE
  8
LC-004-005-----0
  6
CONTINUOUS
  5
D5
 10
656.874427
 20
207.154514
 30
0.0
 11
660.674427
 21
210.954514
 31
0.0
  0
LINE
  8
LC-004-005-----0
  6
CONTINUOUS
  5
D6
 10
654.046
 20
207.154514
 30
0.0
 11
657.846
 21
210.954514
 31
0.0
  0
LINE
  8
LC-004-005-----0
  6
CONTINUOUS
  5
D7
 10
651.217573
 20
207.154514
 30
0.0
 11
655.017573
 21
210.954514
 31
0.0
  0
LINE
  8
LC-004-005-----0
  6
CONTINUOUS
  5
D8
 10
648.389146
 20
207.154514
 30
0.0
 11
652.189146
 21
210.954514
 31
0.0
  0
LINE
  8
LC-004-005-----0
  6
CONTINUOUS
  5
D9
 10
645.560719
 20
207.154514
 30
0.0
 11
649.360719
 21
210.954514
 31
0.0
  0
LINE
  8
LC-004-005-----0
  6
CONTINUOUS
  5
DA
 10
642.732291
 20
207.154514
 30
0.0
 11
646.532291
 21
210.954514
 31
0.0
  0
LINE
  8
LC-004-005-----0
  6
CONTINUOUS
  5
DB
 10
639.903864
 20
207.154514
 30
0.0
 11
643.703864
 21
210.954514
 31
0.0
  0
LINE
  8
LC-004-005-----0
  6
CONTINUOUS
  5
DC
 10
637.075437
 20
207.154514
 30
0.0
 11
640.875437
 21
210.954514
 31
0.0
  0
LINE
  8
LC-004-005-----0
  6
CONTINUOUS
  5
DD
 10
634.24701
 20
207.154514
 30
0.0
 11
638.04701
 21
210.954514
 31
0.0
  0
LINE
  8
LC-004-005-----0
  6
CONTINUOUS
  5
DE
 10
631.418583
 20
207.154514
 30
0.0
 11
635.218583
 21
210.954514
 31
0.0
  0
LINE
  8
LC-004-005-----0
  6
CONTINUOUS
  5
DF
 10
628.590156
 20
207.154514
 30
0.0
 11
632.390156
 21
210.954514
 31
0.0
  0
LINE
  8
LC-004-005-----0
  6
CONTINUOUS
  5
E0
 10
625.761729
 20
207.154514
 30
0.0
 11
629.561729
 21
210.954514
 31
0.0
  0
LINE
  8
LC-004-005-----0
  6
CONTINUOUS
  5
E1
 10
622.933302
 20
207.154514
 30
0.0
 11
626.733302
 21
210.954514
 31
0.0
  0
LINE
  8
LC-004-005-----0
  6
CONTINUOUS
  5
E2
 10
620.104874
 20
207.154514
 30
0.0
 11
623.904874
 21
210.954514
 31
0.0
  0
LINE
  8
LC-004-005-----0
  6
CONTINUOUS
  5
E3
 10
617.276447
 20
207.154514
 30
0.0
 11
621.076447
 21
210.954514
 31
0.0
  0
LINE
  8
LC-004-005-----0
  6
CONTINUOUS
  5
E4
 10
614.44802
 20
207.154514
 30
0.0
 11
618.24802
 21
210.954514
 31
0.0
  0
LINE
  8
LC-004-005-----0
  6
CONTINUOUS
  5
E5
 10
611.619593
 20
207.154514
 30
0.0
 11
615.419593
 21
210.954514
 31
0.0
  0
LINE
  8
LC-004-005-----0
  6
CONTINUOUS
  5
E6
 10
608.791166
 20
207.154514
 30
0.0
 11
612.591166
 21
210.954514
 31
0.0
  0
LINE
  8
LC-004-005-----0
  6
CONTINUOUS
  5
E7
 10
605.962739
 20
207.154514
 30
0.0
 11
609.762739
 21
210.954514
 31
0.0
  0
LINE
  8
LC-004-005-----0
  6
CONTINUOUS
  5
E8
 10
603.134312
 20
207.154514
 30
0.0
 11
606.934312
 21
210.954514
 31
0.0
  0
LINE
  8
LC-004-005-----0
  6
CONTINUOUS
  5
E9
 10
600.305885
 20
207.154514
 30
0.0
 11
604.105885
 21
210.954514
 31
0.0
  0
LINE
  8
LC-004-005-----0
  6
CONTINUOUS
  5
EA
 10
597.477457
 20
207.154514
 30
0.0
 11
601.277457
 21
210.954514
 31
0.0
  0
LINE
  8
LC-004-005-----0
  6
CONTINUOUS
  5
EB
 10
594.64903
 20
207.154514
 30
0.0
 11
598.44903
 21
210.954514
 31
0.0
  0
LINE
  8
LC-004-005-----0
  6
CONTINUOUS
  5
EC
 10
591.820603
 20
207.154514
 30
0.0
 11
595.620603
 21
210.954514
 31
0.0
  0
LINE
  8
LC-004-005-----0
  6
CONTINUOUS
  5
ED
 10
588.992176
 20
207.154514
 30
0.0
 11
592.792176
 21
210.954514
 31
0.0
  0
LINE
  8
LC-004-005-----0
  6
CONTINUOUS
  5
EE
 10
586.163749
 20
207.154514
 30
0.0
 11
589.963749
 21
210.954514
 31
0.0
  0
LINE
  8
LC-004-005-----0
  6
CONTINUOUS
  5
EF
 10
583.335322
 20
207.154514
 30
0.0
 11
587.135322
 21
210.954514
 31
0.0
  0
LINE
  8
LC-004-005-----0
  6
CONTINUOUS
  5
F0
 10
580.506895
 20
207.154514
 30
0.0
 11
584.306895
 21
210.954514
 31
0.0
  0
LINE
  8
LC-004-005-----0
  6
CONTINUOUS
  5
F1
 10
577.678468
 20
207.154514
 30
0.0
 11
581.478468
 21
210.954514
 31
0.0
  0
LINE
  8
LC-004-005-----0
  6
CONTINUOUS
  5
F2
 10
574.85004
 20
207.154514
 30
0.0
 11
578.65004
 21
210.954514
 31
0.0
  0
LINE
  8
LC-004-005-----0
  6
CONTINUOUS
  5
F3
 10
572.021613
 20
207.154514
 30
0.0
 11
575.821613
 21
210.954514
 31
0.0
  0
LINE
  8
LC-004-005-----0
  6
CONTINUOUS
  5
F4
 10
569.193186
 20
207.154514
 30
0.0
 11
572.993186
 21
210.954514
 31
0.0
  0
LINE
  8
LC-004-005-----0
  6
CONTINUOUS
  5
F5
 10
566.364759
 20
207.154514
 30
0.0
 11
570.164759
 21
210.954514
 31
0.0
  0
LINE
  8
LC-004-005-----0
  6
CONTINUOUS
  5
F6
 10
563.536332
 20
207.154514
 30
0.0
 11
567.336332
 21
210.954514
 31
0.0
  0
LINE
  8
LC-004-005-----0
  6
CONTINUOUS
  5
F7
 10
560.707905
 20
207.154514
 30
0.0
 11
564.507905
 21
210.954514
 31
0.0
  0
LINE
  8
LC-004-005-----0
  6
CONTINUOUS
  5
F8
 10
557.879478
 20
207.154514
 30
0.0
 11
561.679478
 21
210.954514
 31
0.0
  0
LINE
  8
LC-004-005-----0
  6
CONTINUOUS
  5
F9
 10
555.051051
 20
207.154514
 30
0.0
 11
558.851051
 21
210.954514
 31
0.0
  0
LINE
  8
LC-004-005-----0
  6
CONTINUOUS
  5
FA
 10
552.222623
 20
207.154514
 30
0.0
 11
556.022623
 21
210.954514
 31
0.0
  0
LINE
  8
LC-004-005-----0
  6
CONTINUOUS
  5
FB
 10
549.394196
 20
207.154514
 30
0.0
 11
553.194196
 21
210.954514
 31
0.0
  0
LINE
  8
LC-004-005-----0
  6
CONTINUOUS
  5
FC
 10
546.565769
 20
207.154514
 30
0.0
 11
550.365769
 21
210.954514
 31
0.0
  0
LINE
  8
LC-004-005-----0
  6
CONTINUOUS
  5
FD
 10
543.737342
 20
207.154514
 30
0.0
 11
547.537342
 21
210.954514
 31
0.0
  0
LINE
  8
LC-004-005-----0
  6
CONTINUOUS
  5
FE
 10
540.908915
 20
207.154514
 30
0.0
 11
544.708915
 21
210.954514
 31
0.0
  0
LINE
  8
LC-004-005-----0
  6
CONTINUOUS
  5
FF
 10
538.080488
 20
207.154514
 30
0.0
 11
541.880488
 21
210.954514
 31
0.0
  0
LINE
  8
LC-004-005-----0
  6
CONTINUOUS
  5
100
 10
535.252061
 20
207.154514
 30
0.0
 11
539.052061
 21
210.954514
 31
0.0
  0
LINE
  8
LC-004-005-----0
  6
CONTINUOUS
  5
101
 10
532.423634
 20
207.154514
 30
0.0
 11
536.223634
 21
210.954514
 31
0.0
  0
LINE
  8
LC-004-005-----0
  6
CONTINUOUS
  5
102
 10
529.595206
 20
207.154514
 30
0.0
 11
533.395206
 21
210.954514
 31
0.0
  0
LINE
  8
LC-004-005-----0
  6
CONTINUOUS
  5
103
 10
526.766779
 20
207.154514
 30
0.0
 11
530.566779
 21
210.954514
 31
0.0
  0
LINE
  8
LC-004-005-----0
  6
CONTINUOUS
  5
104
 10
523.938352
 20
207.154514
 30
0.0
 11
527.738352
 21
210.954514
 31
0.0
  0
LINE
  8
LC-004-005-----0
  6
CONTINUOUS
  5
105
 10
521.109925
 20
207.154514
 30
0.0
 11
524.909925
 21
210.954514
 31
0.0
  0
LINE
  8
LC-004-005-----0
  6
CONTINUOUS
  5
106
 10
518.281498
 20
207.154514
 30
0.0
 11
522.081498
 21
210.954514
 31
0.0
  0
LINE
  8
LC-004-005-----0
  6
CONTINUOUS
  5
107
 10
515.453071
 20
207.154514
 30
0.0
 11
519.253071
 21
210.954514
 31
0.0
  0
LINE
  8
LC-004-005-----0
  6
CONTINUOUS
  5
108
 10
512.624644
 20
207.154514
 30
0.0
 11
516.424644
 21
210.954514
 31
0.0
  0
LINE
  8
LC-004-005-----0
  6
CONTINUOUS
  5
109
 10
509.796217
 20
207.154514
 30
0.0
 11
513.596217
 21
210.954514
 31
0.0
  0
LINE
  8
LC-004-005-----0
  6
CONTINUOUS
  5
10A
 10
506.967789
 20
207.154514
 30
0.0
 11
510.767789
 21
210.954514
 31
0.0
  0
LINE
  8
LC-004-005-----0
  6
CONTINUOUS
  5
10B
 10
504.139362
 20
207.154514
 30
0.0
 11
507.939362
 21
210.954514
 31
0.0
  0
LINE
  8
LC-004-005-----0
  6
CONTINUOUS
  5
10C
 10
496.960935
 20
202.804514
 30
0.0
 11
505.110935
 21
210.954514
 31
0.0
  0
LINE
  8
LC-004-005-----0
  6
CONTINUOUS
  5
10D
 10
494.132508
 20
202.804514
 30
0.0
 11
502.282508
 21
210.954514
 31
0.0
  0
LINE
  8
LC-004-005-----0
  6
CONTINUOUS
  5
10E
 10
491.304081
 20
202.804514
 30
0.0
 11
495.104081
 21
206.604514
 31
0.0
  0
LINE
  8
LC-004-005-----0
  6
CONTINUOUS
  5
10F
 10
488.475654
 20
202.804514
 30
0.0
 11
492.275654
 21
206.604514
 31
0.0
  0
LINE
  8
LC-004-005-----0
  6
CONTINUOUS
  5
110
 10
485.647227
 20
202.804514
 30
0.0
 11
489.447227
 21
206.604514
 31
0.0
  0
LINE
  8
LC-004-005-----0
  6
CONTINUOUS
  5
111
 10
482.8188
 20
202.804514
 30
0.0
 11
486.6188
 21
206.604514
 31
0.0
  0
LINE
  8
LC-004-005-----0
  6
CONTINUOUS
  5
112
 10
479.990372
 20
202.804514
 30
0.0
 11
483.790372
 21
206.604514
 31
0.0
  0
LINE
  8
LC-004-005-----0
  6
CONTINUOUS
  5
113
 10
477.161945
 20
202.804514
 30
0.0
 11
480.961945
 21
206.604514
 31
0.0
  0
LINE
  8
LC-004-005-----0
  6
CONTINUOUS
  5
114
 10
474.333518
 20
202.804514
 30
0.0
 11
478.133518
 21
206.604514
 31
0.0
  0
LINE
  8
LC-004-005-----0
  6
CONTINUOUS
  5
115
 10
471.505091
 20
202.804514
 30
0.0
 11
475.305091
 21
206.604514
 31
0.0
  0
LINE
  8
LC-004-005-----0
  6
CONTINUOUS
  5
116
 10
468.676664
 20
202.804514
 30
0.0
 11
472.476664
 21
206.604514
 31
0.0
  0
LINE
  8
LC-004-005-----0
  6
CONTINUOUS
  5
117
 10
465.848237
 20
202.804514
 30
0.0
 11
469.648237
 21
206.604514
 31
0.0
  0
LINE
  8
LC-004-005-----0
  6
CONTINUOUS
  5
118
 10
463.01981
 20
202.804514
 30
0.0
 11
466.81981
 21
206.604514
 31
0.0
  0
LINE
  8
LC-004-005-----0
  6
CONTINUOUS
  5
119
 10
460.191383
 20
202.804514
 30
0.0
 11
463.991383
 21
206.604514
 31
0.0
  0
LINE
  8
LC-004-005-----0
  6
CONTINUOUS
  5
11A
 10
457.362955
 20
202.804514
 30
0.0
 11
461.162955
 21
206.604514
 31
0.0
  0
LINE
  8
LC-004-005-----0
  6
CONTINUOUS
  5
11B
 10
454.534528
 20
202.804514
 30
0.0
 11
458.334528
 21
206.604514
 31
0.0
  0
LINE
  8
LC-004-005-----0
  6
CONTINUOUS
  5
11C
 10
451.706101
 20
202.804514
 30
0.0
 11
455.506101
 21
206.604514
 31
0.0
  0
LINE
  8
LC-004-005-----0
  6
CONTINUOUS
  5
11D
 10
442.701274
 20
196.628114
 30
0.0
 11
447.153528
 21
201.080369
 31
0.0
  0
LINE
  8
LC-004-005-----0
  6
CONTINUOUS
  5
11E
 10
448.877674
 20
202.804514
 30
0.0
 11
452.677674
 21
206.604514
 31
0.0
  0
LINE
  8
LC-004-005-----0
  6
CONTINUOUS
  5
11F
 10
439.872847
 20
196.628114
 30
0.0
 11
449.849247
 21
206.604514
 31
0.0
  0
LINE
  8
LC-004-005-----0
  6
CONTINUOUS
  5
120
 10
437.04442
 20
196.628114
 30
0.0
 11
440.60742
 21
200.191114
 31
0.0
  0
LINE
  8
LC-004-005-----0
  6
CONTINUOUS
  5
121
 10
443.692328
 20
203.276023
 30
0.0
 11
447.02082
 21
206.604514
 31
0.0
  0
LINE
  8
LC-004-005-----0
  6
CONTINUOUS
  5
122
 10
434.215993
 20
196.628114
 30
0.0
 11
437.778993
 21
200.191114
 31
0.0
  0
LINE
  8
LC-004-005-----0
  6
CONTINUOUS
  5
123
 10
443.692328
 20
206.10445
 30
0.0
 11
444.192393
 21
206.604514
 31
0.0
  0
LINE
  8
LC-004-005-----0
  6
CONTINUOUS
  5
124
 10
432.021347
 20
197.261895
 30
0.0
 11
435.410747
 21
200.651296
 31
0.0
  0
LINE
  8
LC-004-005-----0
  6
CONTINUOUS
  5
125
 10
430.931844
 20
199.00082
 30
0.0
 11
433.996533
 21
202.065509
 31
0.0
  0
LINE
  8
LC-004-005-----0
  6
CONTINUOUS
  5
126
 10
429.395511
 20
200.292914
 30
0.0
 11
432.58232
 21
203.479723
 31
0.0
  0
LINE
  8
LC-004-005-----0
  6
CONTINUOUS
  5
127
 10
426.567084
 20
200.292914
 30
0.0
 11
431.168106
 21
204.893936
 31
0.0
  0
LINE
  8
LC-004-005-----0
  6
CONTINUOUS
  5
128
 10
426.284528
 20
202.838786
 30
0.0
 11
428.523257
 21
205.077514
 31
0.0
  0
ENDBLK
  8
0
  5
129
  0
BLOCK
  8
0
  5
12B
  2
*X9
 70
    65
 10
426.284528
 20
313.354514
 30
0.0
  3
*X9
  0
LINE
  8
LC-004-005-----0
  6
CONTINUOUS
  5
12C
 10
505.687559
 20
313.354514
 30
0.0
 11
505.850544
 21
313.517499
 31
0.0
  0
LINE
  8
LC-004-005-----0
  6
CONTINUOUS
  5
12D
 10
502.859132
 20
313.354514
 30
0.0
 11
504.43633
 21
314.931713
 31
0.0
  0
LINE
  8
LC-004-005-----0
  6
CONTINUOUS
  5
12E
 10
500.335111
 20
313.65892
 30
0.0
 11
503.022116
 21
316.345926
 31
0.0
  0
LINE
  8
LC-004-005-----0
  6
CONTINUOUS
  5
12F
 10
498.920897
 20
315.073134
 30
0.0
 11
501.607903
 21
317.76014
 31
0.0
  0
LINE
  8
LC-004-005-----0
  6
CONTINUOUS
  5
130
 10
497.506684
 20
316.487348
 30
0.0
 11
500.193689
 21
319.174353
 31
0.0
  0
LINE
  8
LC-004-005-----0
  6
CONTINUOUS
  5
131
 10
495.895423
 20
317.704514
 30
0.0
 11
498.779476
 21
320.588567
 31
0.0
  0
LINE
  8
LC-004-005-----0
  6
CONTINUOUS
  5
132
 10
493.066996
 20
317.704514
 30
0.0
 11
497.365262
 21
322.002781
 31
0.0
  0
LINE
  8
LC-004-005-----0
  6
CONTINUOUS
  5
133
 10
490.238569
 20
317.704514
 30
0.0
 11
495.951049
 21
323.416994
 31
0.0
  0
LINE
  8
LC-004-005-----0
  6
CONTINUOUS
  5
134
 10
487.410142
 20
317.704514
 30
0.0
 11
491.210142
 21
321.504514
 31
0.0
  0
LINE
  8
LC-004-005-----0
  6
CONTINUOUS
  5
135
 10
491.849829
 20
322.144202
 30
0.0
 11
494.536835
 21
324.831208
 31
0.0
  0
LINE
  8
LC-004-005-----0
  6
CONTINUOUS
  5
136
 10
484.581715
 20
317.704514
 30
0.0
 11
488.381715
 21
321.504514
 31
0.0
  0
LINE
  8
LC-004-005-----0
  6
CONTINUOUS
  5
137
 10
490.435616
 20
323.558415
 30
0.0
 11
493.122622
 21
326.245421
 31
0.0
  0
LINE
  8
LC-004-005-----0
  6
CONTINUOUS
  5
138
 10
481.753288
 20
317.704514
 30
0.0
 11
485.553288
 21
321.504514
 31
0.0
  0
LINE
  8
LC-004-005-----0
  6
CONTINUOUS
  5
139
 10
489.021402
 20
324.972629
 30
0.0
 11
491.708408
 21
327.659635
 31
0.0
  0
LINE
  8
LC-004-005-----0
  6
CONTINUOUS
  5
13A
 10
478.92486
 20
317.704514
 30
0.0
 11
482.72486
 21
321.504514
 31
0.0
  0
LINE
  8
LC-004-005-----0
  6
CONTINUOUS
  5
13B
 10
487.607189
 20
326.386843
 30
0.0
 11
490.294194
 21
329.073848
 31
0.0
  0
LINE
  8
LC-004-005-----0
  6
CONTINUOUS
  5
13C
 10
476.096433
 20
317.704514
 30
0.0
 11
479.896433
 21
321.504514
 31
0.0
  0
LINE
  8
LC-004-005-----0
  6
CONTINUOUS
  5
13D
 10
486.192975
 20
327.801056
 30
0.0
 11
488.879981
 21
330.488062
 31
0.0
  0
LINE
  8
LC-004-005-----0
  6
CONTINUOUS
  5
13E
 10
473.268006
 20
317.704514
 30
0.0
 11
477.068006
 21
321.504514
 31
0.0
  0
LINE
  8
LC-004-005-----0
  6
CONTINUOUS
  5
13F
 10
484.778762
 20
329.21527
 30
0.0
 11
487.205327
 21
331.641835
 31
0.0
  0
LINE
  8
LC-004-005-----0
  6
CONTINUOUS
  5
140
 10
470.439579
 20
317.704514
 30
0.0
 11
474.239579
 21
321.504514
 31
0.0
  0
LINE
  8
LC-004-005-----0
  6
CONTINUOUS
  5
141
 10
483.364548
 20
330.629483
 30
0.0
 11
484.829879
 21
332.094814
 31
0.0
  0
LINE
  8
LC-004-005-----0
  6
CONTINUOUS
  5
142
 10
467.611152
 20
317.704514
 30
0.0
 11
471.411152
 21
321.504514
 31
0.0
  0
LINE
  8
LC-004-005-----0
  6
CONTINUOUS
  5
143
 10
481.950334
 20
332.043697
 30
0.0
 11
482.539644
 21
332.633007
 31
0.0
  0
LINE
  8
LC-004-005-----0
  6
CONTINUOUS
  5
144
 10
464.782725
 20
317.704514
 30
0.0
 11
468.582725
 21
321.504514
 31
0.0
  0
LINE
  8
LC-004-005-----0
  6
CONTINUOUS
  5
145
 10
461.954298
 20
317.704514
 30
0.0
 11
465.754298
 21
321.504514
 31
0.0
  0
LINE
  8
LC-004-005-----0
  6
CONTINUOUS
  5
146
 10
459.125871
 20
317.704514
 30
0.0
 11
462.925871
 21
321.504514
 31
0.0
  0
LINE
  8
LC-004-005-----0
  6
CONTINUOUS
  5
147
 10
456.297443
 20
317.704514
 30
0.0
 11
460.097443
 21
321.504514
 31
0.0
  0
LINE
  8
LC-004-005-----0
  6
CONTINUOUS
  5
148
 10
453.469016
 20
317.704514
 30
0.0
 11
457.269016
 21
321.504514
 31
0.0
  0
LINE
  8
LC-004-005-----0
  6
CONTINUOUS
  5
149
 10
450.640589
 20
317.704514
 30
0.0
 11
454.440589
 21
321.504514
 31
0.0
  0
LINE
  8
LC-004-005-----0
  6
CONTINUOUS
  5
14A
 10
447.812162
 20
317.704514
 30
0.0
 11
451.612162
 21
321.504514
 31
0.0
  0
LINE
  8
LC-004-005-----0
  6
CONTINUOUS
  5
14B
 10
444.983735
 20
317.704514
 30
0.0
 11
448.783735
 21
321.504514
 31
0.0
  0
LINE
  8
LC-004-005-----0
  6
CONTINUOUS
  5
14C
 10
443.692328
 20
319.241535
 30
0.0
 11
447.153528
 21
322.702735
 31
0.0
  0
LINE
  8
LC-004-005-----0
  6
CONTINUOUS
  5
14D
 10
443.692328
 20
322.069962
 30
0.0
 11
446.844631
 21
325.222265
 31
0.0
  0
LINE
  8
LC-004-005-----0
  6
CONTINUOUS
  5
14E
 10
442.781858
 20
323.987918
 30
0.0
 11
445.622189
 21
326.828249
 31
0.0
  0
LINE
  8
LC-004-005-----0
  6
CONTINUOUS
  5
14F
 10
440.083426
 20
324.117914
 30
0.0
 11
443.619225
 21
327.653713
 31
0.0
  0
LINE
  8
LC-004-005-----0
  6
CONTINUOUS
  5
150
 10
437.254999
 20
324.117914
 30
0.0
 11
440.817999
 21
327.680914
 31
0.0
  0
LINE
  8
LC-004-005-----0
  6
CONTINUOUS
  5
151
 10
429.540172
 20
319.231514
 30
0.0
 11
437.989572
 21
327.680914
 31
0.0
  0
LINE
  8
LC-004-005-----0
  6
CONTINUOUS
  5
152
 10
426.711745
 20
319.231514
 30
0.0
 11
435.161145
 21
327.680914
 31
0.0
  0
LINE
  8
LC-004-005-----0
  6
CONTINUOUS
  5
153
 10
426.284528
 20
321.632725
 30
0.0
 11
428.667918
 21
324.016114
 31
0.0
  0
ENDBLK
  8
0
  5
154
  0
BLOCK
  8
0
  5
156
  2
*D10
 70
    65
 10
0.0
 20
0.0
 30
0.0
  3
*D10
  0
LINE
  8
LC-006-003-MTH-0
  6
CONTINUOUS
  5
157
 10
502.213528
 20
207.154514
 30
0.0
 11
349.2
 21
207.154514
 31
0.0
  0
LINE
  8
LC-006-003-MTH-0
  6
CONTINUOUS
  5
158
 10
496.560246
 20
387.154514
 30
0.0
 11
349.2
 21
387.154514
 31
0.0
  0
LINE
  8
LC-007-003-MTG-0
  6
CONTINUOUS
  5
159
 10
360.0
 20
207.154514
 30
0.0
 11
360.0
 21
387.154514
 31
0.0
  0
LINE
  8
LC-005-003-----0
  6
CONTINUOUS
  5
15A
 10
357.650529
 20
225.000522
 30
0.0
 11
360.0
 21
207.154514
 31
0.0
  0
LINE
  8
LC-005-003-----0
  6
CONTINUOUS
  5
15B
 10
360.0
 20
207.154514
 30
0.0
 11
362.349471
 21
225.000522
 31
0.0
  0
LINE
  8
LC-005-003-----0
  6
CONTINUOUS
  5
15C
 10
362.349471
 20
225.000522
 30
0.0
 11
357.650529
 21
225.000522
 31
0.0
  0
LINE
  8
LC-005-003-----0
  6
CONTINUOUS
  5
15D
 10
358.261391
 20
225.04056
 30
0.0
 11
360.0
 21
211.834514
 31
0.0
  0
LINE
  8
LC-005-003-----0
  6
CONTINUOUS
  5
15E
 10
360.0
 20
211.834514
 30
0.0
 11
361.738609
 21
225.04056
 31
0.0
  0
LINE
  8
LC-005-003-----0
  6
CONTINUOUS
  5
15F
 10
358.872254
 20
225.080598
 30
0.0
 11
360.0
 21
216.514514
 31
0.0
  0
LINE
  8
LC-005-003-----0
  6
CONTINUOUS
  5
160
 10
360.0
 20
216.514514
 30
0.0
 11
361.127746
 21
225.080598
 31
0.0
  0
LINE
  8
LC-005-003-----0
  6
CONTINUOUS
  5
161
 10
359.483116
 20
225.120636
 30
0.0
 11
360.0
 21
221.194514
 31
0.0
  0
LINE
  8
LC-005-003-----0
  6
CONTINUOUS
  5
162
 10
360.0
 20
221.194514
 30
0.0
 11
360.516884
 21
225.120636
 31
0.0
  0
LINE
  8
LC-005-003-----0
  6
CONTINUOUS
  5
163
 10
362.349471
 20
369.308507
 30
0.0
 11
360.0
 21
387.154514
 31
0.0
  0
LINE
  8
LC-005-003-----0
  6
CONTINUOUS
  5
164
 10
360.0
 20
387.154514
 30
0.0
 11
357.650529
 21
369.308507
 31
0.0
  0
LINE
  8
LC-005-003-----0
  6
CONTINUOUS
  5
165
 10
357.650529
 20
369.308507
 30
0.0
 11
362.349471
 21
369.308507
 31
0.0
  0
LINE
  8
LC-005-003-----0
  6
CONTINUOUS
  5
166
 10
361.738609
 20
369.268469
 30
0.0
 11
360.0
 21
382.474514
 31
0.0
  0
LINE
  8
LC-005-003-----0
  6
CONTINUOUS
  5
167
 10
360.0
 20
382.474514
 30
0.0
 11
358.261391
 21
369.268469
 31
0.0
  0
LINE
  8
LC-005-003-----0
  6
CONTINUOUS
  5
168
 10
361.127746
 20
369.228431
 30
0.0
 11
360.0
 21
377.794514
 31
0.0
  0
LINE
  8
LC-005-003-----0
  6
CONTINUOUS
  5
169
 10
360.0
 20
377.794514
 30
0.0
 11
358.872254
 21
369.228431
 31
0.0
  0
LINE
  8
LC-005-003-----0
  6
CONTINUOUS
  5
16A
 10
360.516884
 20
369.188393
 30
0.0
 11
360.0
 21
373.114514
 31
0.0
  0
LINE
  8
LC-005-003-----0
  6
CONTINUOUS
  5
16B
 10
360.0
 20
373.114514
 30
0.0
 11
359.483116
 21
369.188393
 31
0.0
  0
TEXT
  8
LC-005-003-----0
  6
CONTINUOUS
 62
     6
  5
16C
 10
349.568001
 20
250.903303
 30
0.0
 40
18.0
  1
180-200
 50
90.0
 51
15.0
  7
LC-TXTSTYLE-150-400-0-0-D0
 72
     1
 11
349.568001
 21
299.94976
 31
0.0
  0
ENDBLK
  8
0
  5
16D
  0
BLOCK
  8
0
  5
16F
  2
*D11
 70
    65
 10
0.0
 20
0.0
 30
0.0
  3
*D11
  0
LINE
  8
LC-006-003-MTH-0
  6
CONTINUOUS
  5
170
 10
487.827472
 20
331.540571
 30
0.0
 11
404.45736
 21
416.174278
 31
0.0
  0
LINE
  8
LC-006-003-MTH-0
  6
CONTINUOUS
  5
171
 10
552.299253
 20
395.049776
 30
0.0
 11
468.929141
 21
479.683484
 31
0.0
  0
LINE
  8
LC-007-003-MTG-0
  6
CONTINUOUS
  5
172
 10
412.036462
 20
408.480305
 30
0.0
 11
476.508242
 21
471.98951
 31
0.0
  0
LINE
  8
LC-005-003-----0
  6
CONTINUOUS
  5
173
 10
423.10126
 20
422.677848
 30
0.0
 11
412.036462
 21
408.480305
 31
0.0
  0
LINE
  8
LC-005-003-----0
  6
CONTINUOUS
  5
174
 10
412.036462
 20
408.480305
 30
0.0
 11
426.398831
 21
419.330298
 31
0.0
  0
LINE
  8
LC-005-003-----0
  6
CONTINUOUS
  5
175
 10
426.398831
 20
419.330298
 30
0.0
 11
423.10126
 21
422.677848
 31
0.0
  0
LINE
  8
LC-005-003-----0
  6
CONTINUOUS
  5
176
 10
423.558468
 20
422.270764
 30
0.0
 11
415.370517
 21
411.764582
 31
0.0
  0
LINE
  8
LC-005-003-----0
  6
CONTINUOUS
  5
177
 10
415.370517
 20
411.764582
 30
0.0
 11
425.99867
 21
419.793577
 31
0.0
  0
LINE
  8
LC-005-003-----0
  6
CONTINUOUS
  5
178
 10
424.015675
 20
421.86368
 30
0.0
 11
418.704572
 21
415.048859
 31
0.0
  0
LINE
  8
LC-005-003-----0
  6
CONTINUOUS
  5
179
 10
418.704572
 20
415.048859
 30
0.0
 11
425.598509
 21
420.256856
 31
0.0
  0
LINE
  8
LC-005-003-----0
  6
CONTINUOUS
  5
17A
 10
424.472883
 20
421.456596
 30
0.0
 11
422.038627
 21
418.333136
 31
0.0
  0
LINE
  8
LC-005-003-----0
  6
CONTINUOUS
  5
17B
 10
422.038627
 20
418.333136
 30
0.0
 11
425.198348
 21
420.720135
 31
0.0
  0
LINE
  8
LC-005-003-----0
  6
CONTINUOUS
  5
17C
 10
465.443443
 20
457.791967
 30
0.0
 11
476.508242
 21
471.98951
 31
0.0
  0
LINE
  8
LC-005-003-----0
  6
CONTINUOUS
  5
17D
 10
476.508242
 20
471.98951
 30
0.0
 11
462.145873
 21
461.139517
 31
0.0
  0
LINE
  8
LC-005-003-----0
  6
CONTINUOUS
  5
17E
 10
462.145873
 20
461.139517
 30
0.0
 11
465.443443
 21
457.791967
 31
0.0
  0
LINE
  8
LC-005-003-----0
  6
CONTINUOUS
  5
17F
 10
464.986236
 20
458.199051
 30
0.0
 11
473.174187
 21
468.705233
 31
0.0
  0
LINE
  8
LC-005-003-----0
  6
CONTINUOUS
  5
180
 10
473.174187
 20
468.705233
 30
0.0
 11
462.546033
 21
460.676238
 31
0.0
  0
LINE
  8
LC-005-003-----0
  6
CONTINUOUS
  5
181
 10
464.529028
 20
458.606135
 30
0.0
 11
469.840132
 21
465.420956
 31
0.0
  0
LINE
  8
LC-005-003-----0
  6
CONTINUOUS
  5
182
 10
469.840132
 20
465.420956
 30
0.0
 11
462.946194
 21
460.21296
 31
0.0
  0
LINE
  8
LC-005-003-----0
  6
CONTINUOUS
  5
183
 10
464.071821
 20
459.01322
 30
0.0
 11
466.506077
 21
462.136679
 31
0.0
  0
LINE
  8
LC-005-003-----0
  6
CONTINUOUS
  5
184
 10
466.506077
 20
462.136679
 30
0.0
 11
463.346355
 21
459.749681
 31
0.0
  0
TEXT
  8
LC-005-003-----0
  6
CONTINUOUS
 62
     6
  5
185
 10
423.97855
 20
434.869561
 30
0.0
 40
18.0
  1
DN90
 50
44.6
 51
15.0
  7
LC-TXTSTYLE-150-400-0-0-D0
 72
     1
 11
442.779402
 21
453.409719
 31
0.0
  0
ENDBLK
  8
0
  5
186
  0
BLOCK
  8
0
  5
188
  2
BLK6
 70
    64
 10
0.0
 20
0.0
 30
0.0
  3
BLK6
  0
ENDBLK
  8
0
  5
189
  0
BLOCK
  8
0
  5
18B
  2
*X13
 70
    65
 10
433.590964
 20
318.387057
 30
0.0
  3
*X13
  0
LINE
  8
LC-004-005-----0
  6
CONTINUOUS
  5
18C
 10
442.419324
 20
320.796957
 30
0.0
 11
442.472852
 21
320.850486
 31
0.0
  0
LINE
  8
LC-004-005-----0
  6
CONTINUOUS
  5
18D
 10
442.136481
 20
320.796957
 30
0.0
 11
442.472852
 21
321.133329
 31
0.0
  0
LINE
  8
LC-004-005-----0
  6
CONTINUOUS
  5
18E
 10
439.458639
 20
318.401958
 30
0.0
 11
439.745399
 21
318.688718
 31
0.0
  0
LINE
  8
LC-004-005-----0
  6
CONTINUOUS
  5
18F
 10
441.853638
 20
320.796957
 30
0.0
 11
442.472852
 21
321.416171
 31
0.0
  0
LINE
  8
LC-004-005-----0
  6
CONTINUOUS
  5
190
 10
439.213508
 20
318.439669
 30
0.0
 11
439.663892
 21
318.890053
 31
0.0
  0
LINE
  8
LC-004-005-----0
  6
CONTINUOUS
  5
191
 10
441.570796
 20
320.796957
 30
0.0
 11
442.472852
 21
321.699014
 31
0.0
  0
LINE
  8
LC-004-005-----0
  6
CONTINUOUS
  5
192
 10
438.968377
 20
318.477381
 30
0.0
 11
439.582384
 21
319.091389
 31
0.0
  0
LINE
  8
LC-004-005-----0
  6
CONTINUOUS
  5
193
 10
441.287953
 20
320.796957
 30
0.0
 11
442.472852
 21
321.981857
 31
0.0
  0
LINE
  8
LC-004-005-----0
  6
CONTINUOUS
  5
194
 10
438.723246
 20
318.515093
 30
0.0
 11
439.500877
 21
319.292724
 31
0.0
  0
LINE
  8
LC-004-005-----0
  6
CONTINUOUS
  5
195
 10
441.00511
 20
320.796957
 30
0.0
 11
442.472852
 21
322.264699
 31
0.0
  0
LINE
  8
LC-004-005-----0
  6
CONTINUOUS
  5
196
 10
438.478115
 20
318.552805
 30
0.0
 11
439.41937
 21
319.49406
 31
0.0
  0
LINE
  8
LC-004-005-----0
  6
CONTINUOUS
  5
197
 10
440.722268
 20
320.796957
 30
0.0
 11
442.472852
 21
322.547542
 31
0.0
  0
LINE
  8
LC-004-005-----0
  6
CONTINUOUS
  5
198
 10
438.232984
 20
318.590517
 30
0.0
 11
439.337862
 21
319.695395
 31
0.0
  0
LINE
  8
LC-004-005-----0
  6
CONTINUOUS
  5
199
 10
440.439425
 20
320.796957
 30
0.0
 11
442.459568
 21
322.817101
 31
0.0
  0
LINE
  8
LC-004-005-----0
  6
CONTINUOUS
  5
19A
 10
437.987853
 20
318.628229
 30
0.0
 11
439.256355
 21
319.89673
 31
0.0
  0
LINE
  8
LC-004-005-----0
  6
CONTINUOUS
  5
19B
 10
440.156582
 20
320.796957
 30
0.0
 11
442.409354
 21
323.049729
 31
0.0
  0
LINE
  8
LC-004-005-----0
  6
CONTINUOUS
  5
19C
 10
437.742722
 20
318.66594
 30
0.0
 11
439.174848
 21
320.098066
 31
0.0
  0
LINE
  8
LC-004-005-----0
  6
CONTINUOUS
  5
19D
 10
439.873739
 20
320.796957
 30
0.0
 11
442.331138
 21
323.254356
 31
0.0
  0
LINE
  8
LC-004-005-----0
  6
CONTINUOUS
  5
19E
 10
437.497592
 20
318.703652
 30
0.0
 11
439.09334
 21
320.299401
 31
0.0
  0
LINE
  8
LC-004-005-----0
  6
CONTINUOUS
  5
19F
 10
439.590897
 20
320.796957
 30
0.0
 11
442.230052
 21
323.436113
 31
0.0
  0
LINE
  8
LC-004-005-----0
  6
CONTINUOUS
  5
1A0
 10
437.252461
 20
318.741364
 30
0.0
 11
439.011833
 21
320.500737
 31
0.0
  0
LINE
  8
LC-004-005-----0
  6
CONTINUOUS
  5
1A1
 10
439.308054
 20
320.796957
 30
0.0
 11
442.108714
 21
323.597617
 31
0.0
  0
LINE
  8
LC-004-005-----0
  6
CONTINUOUS
  5
1A2
 10
437.00733
 20
318.779076
 30
0.0
 11
438.930326
 21
320.702072
 31
0.0
  0
LINE
  8
LC-004-005-----0
  6
CONTINUOUS
  5
1A3
 10
439.025211
 20
320.796957
 30
0.0
 11
441.968277
 21
323.740023
 31
0.0
  0
LINE
  8
LC-004-005-----0
  6
CONTINUOUS
  5
1A4
 10
436.762199
 20
318.816788
 30
0.0
 11
441.808796
 21
323.863385
 31
0.0
  0
LINE
  8
LC-004-005-----0
  6
CONTINUOUS
  5
1A5
 10
436.517068
 20
318.8545
 30
0.0
 11
441.629242
 21
323.966674
 31
0.0
  0
LINE
  8
LC-004-005-----0
  6
CONTINUOUS
  5
1A6
 10
436.271937
 20
318.892212
 30
0.0
 11
441.42718
 21
324.047455
 31
0.0
  0
LINE
  8
LC-004-005-----0
  6
CONTINUOUS
  5
1A7
 10
436.026806
 20
318.929923
 30
0.0
 11
441.19783
 21
324.100947
 31
0.0
  0
LINE
  8
LC-004-005-----0
  6
CONTINUOUS
  5
1A8
 10
435.781675
 20
318.967635
 30
0.0
 11
440.931955
 21
324.117914
 31
0.0
  0
LINE
  8
LC-004-005-----0
  6
CONTINUOUS
  5
1A9
 10
435.536545
 20
319.005347
 30
0.0
 11
440.649112
 21
324.117914
 31
0.0
  0
LINE
  8
LC-004-005-----0
  6
CONTINUOUS
  5
1AA
 10
435.291414
 20
319.043059
 30
0.0
 11
440.366269
 21
324.117914
 31
0.0
  0
LINE
  8
LC-004-005-----0
  6
CONTINUOUS
  5
1AB
 10
435.046283
 20
319.080771
 30
0.0
 11
440.083426
 21
324.117914
 31
0.0
  0
LINE
  8
LC-004-005-----0
  6
CONTINUOUS
  5
1AC
 10
434.801152
 20
319.118483
 30
0.0
 11
439.800584
 21
324.117914
 31
0.0
  0
LINE
  8
LC-004-005-----0
  6
CONTINUOUS
  5
1AD
 10
434.556021
 20
319.156194
 30
0.0
 11
439.517741
 21
324.117914
 31
0.0
  0
LINE
  8
LC-004-005-----0
  6
CONTINUOUS
  5
1AE
 10
434.317644
 20
319.20066
 30
0.0
 11
439.234898
 21
324.117914
 31
0.0
  0
LINE
  8
LC-004-005-----0
  6
CONTINUOUS
  5
1AF
 10
434.116467
 20
319.282326
 30
0.0
 11
438.952056
 21
324.117914
 31
0.0
  0
LINE
  8
LC-004-005-----0
  6
CONTINUOUS
  5
1B0
 10
433.947992
 20
319.396694
 30
0.0
 11
438.669213
 21
324.117914
 31
0.0
  0
LINE
  8
LC-004-005-----0
  6
CONTINUOUS
  5
1B1
 10
433.808431
 20
319.539975
 30
0.0
 11
438.38637
 21
324.117914
 31
0.0
  0
LINE
  8
LC-004-005-----0
  6
CONTINUOUS
  5
1B2
 10
433.698023
 20
319.71241
 30
0.0
 11
438.103527
 21
324.117914
 31
0.0
  0
LINE
  8
LC-004-005-----0
  6
CONTINUOUS
  5
1B3
 10
433.621222
 20
319.918451
 30
0.0
 11
437.820685
 21
324.117914
 31
0.0
  0
LINE
  8
LC-004-005-----0
  6
CONTINUOUS
  5
1B4
 10
433.590975
 20
320.171048
 30
0.0
 11
437.537842
 21
324.117914
 31
0.0
  0
LINE
  8
LC-004-005-----0
  6
CONTINUOUS
  5
1B5
 10
433.591398
 20
320.454313
 30
0.0
 11
437.254999
 21
324.117914
 31
0.0
  0
LINE
  8
LC-004-005-----0
  6
CONTINUOUS
  5
1B6
 10
433.59182
 20
320.737578
 30
0.0
 11
436.972157
 21
324.117914
 31
0.0
  0
LINE
  8
LC-004-005-----0
  6
CONTINUOUS
  5
1B7
 10
433.592242
 20
321.020842
 30
0.0
 11
436.689314
 21
324.117914
 31
0.0
  0
LINE
  8
LC-004-005-----0
  6
CONTINUOUS
  5
1B8
 10
433.592664
 20
321.304107
 30
0.0
 11
436.406471
 21
324.117914
 31
0.0
  0
LINE
  8
LC-004-005-----0
  6
CONTINUOUS
  5
1B9
 10
433.6087
 20
321.602986
 30
0.0
 11
436.123628
 21
324.117914
 31
0.0
  0
ENDBLK
  8
0
  5
1BA
  0
BLOCK
  8
0
  5
1BC
  2
*X14
 70
    65
 10
433.590964
 20
200.191114
 30
0.0
  3
*X14
  0
LINE
  8
LC-004-005-----0
  6
CONTINUOUS
  5
1BD
 10
441.587793
 20
200.322959
 30
0.0
 11
442.341007
 21
201.076173
 31
0.0
  0
LINE
  8
LC-004-005-----0
  6
CONTINUOUS
  5
1BE
 10
441.188719
 20
200.206728
 30
0.0
 11
442.457238
 21
201.475247
 31
0.0
  0
LINE
  8
LC-004-005-----0
  6
CONTINUOUS
  5
1BF
 10
440.890263
 20
200.191114
 30
0.0
 11
442.472852
 21
201.773704
 31
0.0
  0
LINE
  8
LC-004-005-----0
  6
CONTINUOUS
  5
1C0
 10
440.60742
 20
200.191114
 30
0.0
 11
442.472852
 21
202.056547
 31
0.0
  0
LINE
  8
LC-004-005-----0
  6
CONTINUOUS
  5
1C1
 10
440.324577
 20
200.191114
 30
0.0
 11
442.472852
 21
202.339389
 31
0.0
  0
LINE
  8
LC-004-005-----0
  6
CONTINUOUS
  5
1C2
 10
440.041734
 20
200.191114
 30
0.0
 11
442.472852
 21
202.622232
 31
0.0
  0
LINE
  8
LC-004-005-----0
  6
CONTINUOUS
  5
1C3
 10
439.758892
 20
200.191114
 30
0.0
 11
442.472852
 21
202.905075
 31
0.0
  0
LINE
  8
LC-004-005-----0
  6
CONTINUOUS
  5
1C4
 10
439.476049
 20
200.191114
 30
0.0
 11
442.472852
 21
203.187918
 31
0.0
  0
LINE
  8
LC-004-005-----0
  6
CONTINUOUS
  5
1C5
 10
439.193206
 20
200.191114
 30
0.0
 11
442.472852
 21
203.47076
 31
0.0
  0
LINE
  8
LC-004-005-----0
  6
CONTINUOUS
  5
1C6
 10
438.910364
 20
200.191114
 30
0.0
 11
442.23132
 21
203.512071
 31
0.0
  0
LINE
  8
LC-004-005-----0
  6
CONTINUOUS
  5
1C7
 10
438.627521
 20
200.191114
 30
0.0
 11
441.948478
 21
203.512071
 31
0.0
  0
LINE
  8
LC-004-005-----0
  6
CONTINUOUS
  5
1C8
 10
438.344678
 20
200.191114
 30
0.0
 11
441.665635
 21
203.512071
 31
0.0
  0
LINE
  8
LC-004-005-----0
  6
CONTINUOUS
  5
1C9
 10
438.061835
 20
200.191114
 30
0.0
 11
441.382792
 21
203.512071
 31
0.0
  0
LINE
  8
LC-004-005-----0
  6
CONTINUOUS
  5
1CA
 10
437.778993
 20
200.191114
 30
0.0
 11
441.09995
 21
203.512071
 31
0.0
  0
LINE
  8
LC-004-005-----0
  6
CONTINUOUS
  5
1CB
 10
437.49615
 20
200.191114
 30
0.0
 11
440.817107
 21
203.512071
 31
0.0
  0
LINE
  8
LC-004-005-----0
  6
CONTINUOUS
  5
1CC
 10
437.213307
 20
200.191114
 30
0.0
 11
440.534264
 21
203.512071
 31
0.0
  0
LINE
  8
LC-004-005-----0
  6
CONTINUOUS
  5
1CD
 10
436.930465
 20
200.191114
 30
0.0
 11
440.251421
 21
203.512071
 31
0.0
  0
LINE
  8
LC-004-005-----0
  6
CONTINUOUS
  5
1CE
 10
436.647622
 20
200.191114
 30
0.0
 11
439.968579
 21
203.512071
 31
0.0
  0
LINE
  8
LC-004-005-----0
  6
CONTINUOUS
  5
1CF
 10
436.364779
 20
200.191114
 30
0.0
 11
439.685736
 21
203.512071
 31
0.0
  0
LINE
  8
LC-004-005-----0
  6
CONTINUOUS
  5
1D0
 10
436.081936
 20
200.191114
 30
0.0
 11
439.402893
 21
203.512071
 31
0.0
  0
LINE
  8
LC-004-005-----0
  6
CONTINUOUS
  5
1D1
 10
435.835011
 20
200.227032
 30
0.0
 11
439.120051
 21
203.512071
 31
0.0
  0
LINE
  8
LC-004-005-----0
  6
CONTINUOUS
  5
1D2
 10
435.693589
 20
200.368453
 30
0.0
 11
438.929123
 21
203.603987
 31
0.0
  0
LINE
  8
LC-004-005-----0
  6
CONTINUOUS
  5
1D3
 10
435.552168
 20
200.509874
 30
0.0
 11
439.121514
 21
204.07922
 31
0.0
  0
LINE
  8
LC-004-005-----0
  6
CONTINUOUS
  5
1D4
 10
435.410746
 20
200.651295
 30
0.0
 11
439.313904
 21
204.554452
 31
0.0
  0
LINE
  8
LC-004-005-----0
  6
CONTINUOUS
  5
1D5
 10
435.269324
 20
200.792716
 30
0.0
 11
439.506294
 21
205.029685
 31
0.0
  0
LINE
  8
LC-004-005-----0
  6
CONTINUOUS
  5
1D6
 10
435.127902
 20
200.934136
 30
0.0
 11
439.698684
 21
205.504918
 31
0.0
  0
LINE
  8
LC-004-005-----0
  6
CONTINUOUS
  5
1D7
 10
434.986481
 20
201.075557
 30
0.0
 11
439.739811
 21
205.828887
 31
0.0
  0
LINE
  8
LC-004-005-----0
  6
CONTINUOUS
  5
1D8
 10
434.845059
 20
201.216978
 30
0.0
 11
439.548845
 21
205.920764
 31
0.0
  0
LINE
  8
LC-004-005-----0
  6
CONTINUOUS
  5
1D9
 10
434.703637
 20
201.358399
 30
0.0
 11
439.214795
 21
205.869557
 31
0.0
  0
LINE
  8
LC-004-005-----0
  6
CONTINUOUS
  5
1DA
 10
434.562216
 20
201.49982
 30
0.0
 11
438.880527
 21
205.818132
 31
0.0
  0
LINE
  8
LC-004-005-----0
  6
CONTINUOUS
  5
1DB
 10
434.420794
 20
201.641241
 30
0.0
 11
438.54626
 21
205.766707
 31
0.0
  0
LINE
  8
LC-004-005-----0
  6
CONTINUOUS
  5
1DC
 10
434.279372
 20
201.782662
 30
0.0
 11
438.211992
 21
205.715282
 31
0.0
  0
LINE
  8
LC-004-005-----0
  6
CONTINUOUS
  5
1DD
 10
434.13795
 20
201.924083
 30
0.0
 11
437.877724
 21
205.663857
 31
0.0
  0
LINE
  8
LC-004-005-----0
  6
CONTINUOUS
  5
1DE
 10
433.996529
 20
202.065504
 30
0.0
 11
437.543456
 21
205.612432
 31
0.0
  0
LINE
  8
LC-004-005-----0
  6
CONTINUOUS
  5
1DF
 10
433.855771
 20
202.207589
 30
0.0
 11
437.209189
 21
205.561007
 31
0.0
  0
LINE
  8
LC-004-005-----0
  6
CONTINUOUS
  5
1E0
 10
433.734937
 20
202.369598
 30
0.0
 11
436.874921
 21
205.509582
 31
0.0
  0
LINE
  8
LC-004-005-----0
  6
CONTINUOUS
  5
1E1
 10
433.645547
 20
202.563051
 30
0.0
 11
436.540653
 21
205.458157
 31
0.0
  0
LINE
  8
LC-004-005-----0
  6
CONTINUOUS
  5
1E2
 10
433.596591
 20
202.796938
 30
0.0
 11
436.206386
 21
205.406732
 31
0.0
  0
LINE
  8
LC-004-005-----0
  6
CONTINUOUS
  5
1E3
 10
433.592559
 20
203.075748
 30
0.0
 11
435.872118
 21
205.355307
 31
0.0
  0
LINE
  8
LC-004-005-----0
  6
CONTINUOUS
  5
1E4
 10
433.592138
 20
203.35817
 30
0.0
 11
435.53785
 21
205.303882
 31
0.0
  0
LINE
  8
LC-004-005-----0
  6
CONTINUOUS
  5
1E5
 10
433.591717
 20
203.640592
 30
0.0
 11
435.203583
 21
205.252457
 31
0.0
  0
LINE
  8
LC-004-005-----0
  6
CONTINUOUS
  5
1E6
 10
433.591296
 20
203.923013
 30
0.0
 11
434.869315
 21
205.201032
 31
0.0
  0
LINE
  8
LC-004-005-----0
  6
CONTINUOUS
  5
1E7
 10
433.592822
 20
204.207382
 30
0.0
 11
434.535047
 21
205.149607
 31
0.0
  0
LINE
  8
LC-004-005-----0
  6
CONTINUOUS
  5
1E8
 10
433.696818
 20
204.594221
 30
0.0
 11
434.143188
 21
205.040591
 31
0.0
  0
ENDBLK
  8
0
  5
1E9
  0
BLOCK
  8
0
  5
1EB
  2
*D15
 70
    65
 10
0.0
 20
0.0
 30
0.0
  3
*D15
  0
LINE
  8
LC-006-003-MTH-0
  6
CONTINUOUS
  5
1EC
 10
496.560246
 20
387.154514
 30
0.0
 11
496.560246
 21
169.2
 31
0.0
  0
LINE
  8
LC-006-003-MTH-0
  6
CONTINUOUS
  5
1ED
 10
707.28803
 20
207.154514
 30
0.0
 11
707.28803
 21
169.2
 31
0.0
  0
LINE
  8
LC-007-003-MTG-0
  6
CONTINUOUS
  5
1EE
 10
496.560246
 20
180.0
 30
0.0
 11
707.28803
 21
180.0
 31
0.0
  0
LINE
  8
LC-005-003-----0
  6
CONTINUOUS
  5
1EF
 10
514.406253
 20
182.349471
 30
0.0
 11
496.560246
 21
180.0
 31
0.0
  0
LINE
  8
LC-005-003-----0
  6
CONTINUOUS
  5
1F0
 10
496.560246
 20
180.0
 30
0.0
 11
514.406253
 21
177.650529
 31
0.0
  0
LINE
  8
LC-005-003-----0
  6
CONTINUOUS
  5
1F1
 10
514.406253
 20
177.650529
 30
0.0
 11
514.406253
 21
182.349471
 31
0.0
  0
LINE
  8
LC-005-003-----0
  6
CONTINUOUS
  5
1F2
 10
514.446291
 20
181.738609
 30
0.0
 11
501.240246
 21
180.0
 31
0.0
  0
LINE
  8
LC-005-003-----0
  6
CONTINUOUS
  5
1F3
 10
501.240246
 20
180.0
 30
0.0
 11
514.446291
 21
178.261391
 31
0.0
  0
LINE
  8
LC-005-003-----0
  6
CONTINUOUS
  5
1F4
 10
514.486329
 20
181.127746
 30
0.0
 11
505.920246
 21
180.0
 31
0.0
  0
LINE
  8
LC-005-003-----0
  6
CONTINUOUS
  5
1F5
 10
505.920246
 20
180.0
 30
0.0
 11
514.486329
 21
178.872254
 31
0.0
  0
LINE
  8
LC-005-003-----0
  6
CONTINUOUS
  5
1F6
 10
514.526367
 20
180.516884
 30
0.0
 11
510.600246
 21
180.0
 31
0.0
  0
LINE
  8
LC-005-003-----0
  6
CONTINUOUS
  5
1F7
 10
510.600246
 20
180.0
 30
0.0
 11
514.526367
 21
179.483116
 31
0.0
  0
LINE
  8
LC-005-003-----0
  6
CONTINUOUS
  5
1F8
 10
689.442023
 20
177.650529
 30
0.0
 11
707.28803
 21
180.0
 31
0.0
  0
LINE
  8
LC-005-003-----0
  6
CONTINUOUS
  5
1F9
 10
707.28803
 20
180.0
 30
0.0
 11
689.442023
 21
182.349471
 31
0.0
  0
LINE
  8
LC-005-003-----0
  6
CONTINUOUS
  5
1FA
 10
689.442023
 20
182.349471
 30
0.0
 11
689.442023
 21
177.650529
 31
0.0
  0
LINE
  8
LC-005-003-----0
  6
CONTINUOUS
  5
1FB
 10
689.401985
 20
178.261391
 30
0.0
 11
702.60803
 21
180.0
 31
0.0
  0
LINE
  8
LC-005-003-----0
  6
CONTINUOUS
  5
1FC
 10
702.60803
 20
180.0
 30
0.0
 11
689.401985
 21
181.738609
 31
0.0
  0
LINE
  8
LC-005-003-----0
  6
CONTINUOUS
  5
1FD
 10
689.361947
 20
178.872254
 30
0.0
 11
697.92803
 21
180.0
 31
0.0
  0
LINE
  8
LC-005-003-----0
  6
CONTINUOUS
  5
1FE
 10
697.92803
 20
180.0
 30
0.0
 11
689.361947
 21
181.127746
 31
0.0
  0
LINE
  8
LC-005-003-----0
  6
CONTINUOUS
  5
1FF
 10
689.321909
 20
179.483116
 30
0.0
 11
693.24803
 21
180.0
 31
0.0
  0
LINE
  8
LC-005-003-----0
  6
CONTINUOUS
  5
200
 10
693.24803
 20
180.0
 30
0.0
 11
689.321909
 21
180.516884
 31
0.0
  0
TEXT
  8
LC-005-003-----0
  6
CONTINUOUS
 62
     6
  5
201
 10
584.042059
 20
185.031999
 30
0.0
 40
18.0
  1
210
 51
15.0
  7
LC-TXTSTYLE-150-400-0-0-D0
 72
     1
 11
603.175917
 21
185.031999
 31
0.0
  0
ENDBLK
  8
0
  5
202
  0
BLOCK
  8
0
  5
204
  2
*D16
 70
    65
 10
0.0
 20
0.0
 30
0.0
  3
*D16
  0
LINE
  8
LC-006-003-MTH-0
  6
CONTINUOUS
  5
205
 10
426.284528
 20
200.292914
 30
0.0
 11
426.284528
 21
133.2
 31
0.0
  0
LINE
  8
LC-006-003-MTH-0
  6
CONTINUOUS
  5
206
 10
707.28803
 20
207.154514
 30
0.0
 11
707.28803
 21
133.2
 31
0.0
  0
LINE
  8
LC-007-003-MTG-0
  6
CONTINUOUS
  5
207
 10
426.284528
 20
144.0
 30
0.0
 11
707.28803
 21
144.0
 31
0.0
  0
LINE
  8
LC-005-003-----0
  6
CONTINUOUS
  5
208
 10
444.130536
 20
146.349471
 30
0.0
 11
426.284528
 21
144.0
 31
0.0
  0
LINE
  8
LC-005-003-----0
  6
CONTINUOUS
  5
209
 10
426.284528
 20
144.0
 30
0.0
 11
444.130536
 21
141.650529
 31
0.0
  0
LINE
  8
LC-005-003-----0
  6
CONTINUOUS
  5
20A
 10
444.130536
 20
141.650529
 30
0.0
 11
444.130536
 21
146.349471
 31
0.0
  0
LINE
  8
LC-005-003-----0
  6
CONTINUOUS
  5
20B
 10
444.170574
 20
145.738609
 30
0.0
 11
430.964528
 21
144.0
 31
0.0
  0
LINE
  8
LC-005-003-----0
  6
CONTINUOUS
  5
20C
 10
430.964528
 20
144.0
 30
0.0
 11
444.170574
 21
142.261391
 31
0.0
  0
LINE
  8
LC-005-003-----0
  6
CONTINUOUS
  5
20D
 10
444.210612
 20
145.127746
 30
0.0
 11
435.644528
 21
144.0
 31
0.0
  0
LINE
  8
LC-005-003-----0
  6
CONTINUOUS
  5
20E
 10
435.644528
 20
144.0
 30
0.0
 11
444.210612
 21
142.872254
 31
0.0
  0
LINE
  8
LC-005-003-----0
  6
CONTINUOUS
  5
20F
 10
444.25065
 20
144.516884
 30
0.0
 11
440.324528
 21
144.0
 31
0.0
  0
LINE
  8
LC-005-003-----0
  6
CONTINUOUS
  5
210
 10
440.324528
 20
144.0
 30
0.0
 11
444.25065
 21
143.483116
 31
0.0
  0
LINE
  8
LC-005-003-----0
  6
CONTINUOUS
  5
211
 10
689.442023
 20
141.650529
 30
0.0
 11
707.28803
 21
144.0
 31
0.0
  0
LINE
  8
LC-005-003-----0
  6
CONTINUOUS
  5
212
 10
707.28803
 20
144.0
 30
0.0
 11
689.442023
 21
146.349471
 31
0.0
  0
LINE
  8
LC-005-003-----0
  6
CONTINUOUS
  5
213
 10
689.442023
 20
146.349471
 30
0.0
 11
689.442023
 21
141.650529
 31
0.0
  0
LINE
  8
LC-005-003-----0
  6
CONTINUOUS
  5
214
 10
689.401985
 20
142.261391
 30
0.0
 11
702.60803
 21
144.0
 31
0.0
  0
LINE
  8
LC-005-003-----0
  6
CONTINUOUS
  5
215
 10
702.60803
 20
144.0
 30
0.0
 11
689.401985
 21
145.738609
 31
0.0
  0
LINE
  8
LC-005-003-----0
  6
CONTINUOUS
  5
216
 10
689.361947
 20
142.872254
 30
0.0
 11
697.92803
 21
144.0
 31
0.0
  0
LINE
  8
LC-005-003-----0
  6
CONTINUOUS
  5
217
 10
697.92803
 20
144.0
 30
0.0
 11
689.361947
 21
145.127746
 31
0.0
  0
LINE
  8
LC-005-003-----0
  6
CONTINUOUS
  5
218
 10
689.321909
 20
143.483116
 30
0.0
 11
693.24803
 21
144.0
 31
0.0
  0
LINE
  8
LC-005-003-----0
  6
CONTINUOUS
  5
219
 10
693.24803
 20
144.0
 30
0.0
 11
689.321909
 21
144.516884
 31
0.0
  0
TEXT
  8
LC-005-003-----0
  6
CONTINUOUS
 62
     6
  5
21A
 10
563.879219
 20
154.431999
 30
0.0
 40
18.0
  1
280
 51
15.0
  7
LC-TXTSTYLE-150-400-0-0-D0
 72
     1
 11
583.013077
 21
154.431999
 31
0.0
  0
ENDBLK
  8
0
  5
21B
  0
ENDSEC
  0
SECTION
  2
ENTITIES
  0
VIEWPORT
  8
LC-000
  5
295
 67
     1
 68
     1
 10
420.0
 20
297.0
 30
0.0
 40
840.0
 41
594.0
 69
     1
1001
ACAD
1000
MVIEW
1002
{
1070
    16
1010
0.0
1020
0.0
1030
0.0
1010
0.0
1020
0.0
1030
1.0
1040
0.0
1040
594.0
1040
420.0
1040
297.0
1040
50.0
1040
0.0
1040
0.0
1070
     0
1070
   100
1070
     1
1070
     1
1070
     0
1070
     0
1070
     0
1070
     0
1040
0.0
1040
0.0
1040
0.0
1040
1.0
1040
1.0
1040
0.0
1040
0.0
1070
     0
1002
{
1002
}
1002
}
  0
VIEWPORT
  8
0
  5
296
 67
     1
 68
     1
 10
0.0
 20
0.0
 30
0.0
 40
0.0
 41
0.0
 69
     1
1001
ACAD
1000
MVIEW
1002
{
1070
    16
1010
0.0
1020
0.0
1030
0.0
1010
0.0
1020
0.0
1030
1.0
1040
0.0
1040
594.0
1040
0.0
1040
0.0
1040
50.0
1040
0.0
1040
0.0
1070
     0
1070
   100
1070
     0
1070
     1
1070
     0
1070
     0
1070
     0
1070
     0
1040
0.0
1040
0.0
1040
0.0
1040
0.5
1040
0.5
1040
0.5
1040
0.5
1070
     0
1002
{
1002
}
1002
}
  0
INSERT
  8
0
  5
21D
  2
BLK1
 10
0.0
 20
0.0
 30
0.0
  0
INSERT
  8
0
  5
21E
  2
BLK2
 10
0.0
 20
0.0
 30
0.0
  0
INSERT
  8
0
  5
21F
  2
BLK3
 10
0.0
 20
0.0
 30
0.0
  0
INSERT
  8
0
  5
220
  2
BLK4
 10
0.0
 20
0.0
 30
0.0
  0
INSERT
  8
0
  5
221
  2
BLK5
 10
0.0
 20
0.0
 30
0.0
  0
DIMENSION
  8
0
  5
222
  2
*D5
 10
756.0
 20
262.154514
 30
0.0
 11
756.0
 21
262.154514
 31
0.0
  1
DN100
 13
706.751937
 23
317.154514
 33
0.0
 14
707.28803
 24
207.154514
 34
0.0
 50
90.0
  3
LC-DIM-L-0090-02-02
  0
DIMENSION
  8
0
  5
223
  2
*D6
 10
396.0
 20
262.154514
 30
0.0
 11
396.0
 21
262.154514
 31
0.0
  1
DN100
 13
426.284528
 23
205.077514
 33
0.0
 14
426.284528
 24
319.231514
 34
0.0
 50
90.0
  3
LC-DIM-L-0090-02-02
  0
INSERT
  8
0
  5
224
  2
*X7
 10
440.264846
 20
313.354514
 30
0.0
  0
INSERT
  8
0
  5
225
  2
*X8
 10
426.284528
 20
196.628114
 30
0.0
  0
INSERT
  8
0
  5
226
  2
*X9
 10
426.284528
 20
313.354514
 30
0.0
  0
DIMENSION
  8
0
  5
227
  2
*D10
 10
360.0
 20
297.154514
 30
0.0
 11
360.0
 21
297.154514
 31
0.0
  1
180-200
 13
502.213528
 23
207.154514
 33
0.0
 14
496.560246
 24
387.154514
 34
0.0
 50
90.0
  3
LC-DIM-L-0090-02-02
  0
DIMENSION
  8
0
  5
228
  2
*D11
 10
448.113974
 20
444.019174
 30
0.0
 11
448.113974
 21
444.019174
 31
0.0
 70
     1
  1
DN90
 13
552.299253
 23
395.049776
 33
0.0
 14
487.827472
 24
331.540571
 34
0.0
  3
LC-DIM-L-0090-02-02
  0
INSERT
  8
0
  5
229
  2
BLK6
 10
0.0
 20
0.0
 30
0.0
  0
INSERT
  8
0
  5
22A
  2
*X13
 10
433.590964
 20
318.387057
 30
0.0
  0
INSERT
  8
0
  5
22B
  2
*X14
 10
433.590964
 20
200.191114
 30
0.0
  0
DIMENSION
  8
0
  5
22C
  2
*D15
 10
600.380671
 20
180.0
 30
0.0
 11
600.380671
 21
180.0
 31
0.0
  1
210
 13
707.28803
 23
207.154514
 33
0.0
 14
496.560246
 24
387.154514
 34
0.0
  3
LC-DIM-L-0090-02-02
  0
DIMENSION
  8
0
  5
22D
  2
*D16
 10
580.217832
 20
144.0
 30
0.0
 11
580.217832
 21
144.0
 31
0.0
  1
280
 13
707.28803
 23
207.154514
 33
0.0
 14
426.284528
 24
200.292914
 34
0.0
  3
LC-DIM-L-0090-02-02
  0
LINE
  8
LC-001-002-----0
  5
230
 10
542.924318
 20
410.51117
 30
0.0
 11
541.580815
 21
409.167667
 31
0.0
  0
ARC
  8
LC-002-002-RND-0
  6
CONTINUOUS
  5
232
 10
637.523615
 20
320.154514
 30
0.0
 40
3.0
 50
225.0
 51
270.0
  0
LINE
  8
LC-001-002-----0
  6
CONTINUOUS
 62
     1
  5
233
 10
637.523615
 20
317.154514
 30
0.0
 11
707.28803
 21
317.154514
 31
0.0
  0
LINE
  8
LC-001-002-----0
  6
CONTINUOUS
 62
     1
  5
234
 10
707.28803
 20
207.154514
 30
0.0
 11
707.28803
 21
317.154514
 31
0.0
  0
LINE
  8
LC-001-002-----0
  6
CONTINUOUS
 62
     1
  5
235
 10
496.289517
 20
317.704514
 30
0.0
 11
500.639517
 21
313.354514
 31
0.0
  0
LINE
  8
LC-001-002-----0
  6
CONTINUOUS
 62
     1
  5
236
 10
430.984528
 20
319.231514
 30
0.0
 11
430.984528
 21
205.077514
 31
0.0
  0
LINE
  8
LC-001-002-----0
  5
237
 10
473.20359
 20
340.790441
 30
0.0
 11
474.547093
 21
342.133944
 31
0.0
  0
LINE
  8
LC-001-002-----0
  6
CONTINUOUS
 62
     1
  5
238
 10
465.732286
 20
317.704514
 30
0.0
 11
496.289517
 21
317.704514
 31
0.0
  0
LINE
  8
LC-001-002-----0
  6
CONTINUOUS
 62
     1
  5
239
 10
500.639517
 20
313.354514
 30
0.0
 11
500.639517
 21
210.954514
 31
0.0
  0
LINE
  8
LC-001-002-----0
  6
CONTINUOUS
 62
     1
  5
23A
 10
506.013528
 20
313.354514
 30
0.0
 11
500.639517
 21
313.354514
 31
0.0
  0
LINE
  8
LC-001-002-----0
  6
CONTINUOUS
 62
     1
  5
23B
 10
433.865528
 20
327.680914
 30
0.0
 11
443.153528
 21
327.680914
 31
0.0
  0
LINE
  8
LC-001-002-----0
  6
CONTINUOUS
 62
     1
  5
23C
 10
465.732286
 20
206.604514
 30
0.0
 11
496.289517
 21
206.604514
 31
0.0
  0
LINE
  8
LC-001-002-----0
  6
CONTINUOUS
 62
     1
  5
23D
 10
496.289517
 20
206.604514
 30
0.0
 11
496.289517
 21
317.704514
 31
0.0
  0
LINE
  8
LC-001-002-----0
  6
CONTINUOUS
 62
     1
  5
23E
 10
496.289517
 20
206.604514
 30
0.0
 11
500.639517
 21
210.954514
 31
0.0
  0
LINE
  8
LC-001-002-----0
  6
CONTINUOUS
 62
     1
  5
23F
 10
430.984528
 20
319.231514
 30
0.0
 11
435.870928
 21
324.117914
 31
0.0
  0
LINE
  8
LC-001-002-----0
  6
CONTINUOUS
 62
     1
  5
240
 10
426.284528
 20
319.231514
 30
0.0
 11
430.984528
 21
319.231514
 31
0.0
  0
LINE
  8
LC-001-002-----0
  6
CONTINUOUS
 62
     1
  5
241
 10
426.284528
 20
205.077514
 30
0.0
 11
430.984528
 21
205.077514
 31
0.0
  0
LINE
  8
LC-001-002-----0
  6
CONTINUOUS
 62
     1
  5
242
 10
430.984528
 20
205.077514
 30
0.0
 11
435.870928
 21
200.191114
 31
0.0
  0
LINE
  8
LC-001-002-----0
  6
CONTINUOUS
 62
     1
  5
243
 10
426.284528
 20
205.077514
 30
0.0
 11
428.508077
 21
205.077514
 31
0.0
  0
LINE
  8
LC-001-002-----0
  6
CONTINUOUS
 62
     1
  5
244
 10
447.153528
 20
202.804514
 30
0.0
 11
497.863528
 21
202.804514
 31
0.0
  0
LINE
  8
LC-001-002-----0
  5
245
 10
474.547093
 20
342.133944
 30
0.0
 11
478.217611
 21
341.150432
 31
0.0
  0
LINE
  8
LC-001-002-----0
  5
246
 10
541.580815
 20
409.167667
 30
0.0
 11
542.564328
 21
405.497149
 31
0.0
  0
LINE
  8
LC-001-002-----0
  6
CONTINUOUS
 62
     1
  5
247
 10
426.284528
 20
319.231514
 30
0.0
 11
428.508077
 21
319.231514
 31
0.0
  0
LINE
  8
LC-001-002-----0
  6
CONTINUOUS
 62
     1
  5
248
 10
435.870928
 20
324.117914
 30
0.0
 11
442.165328
 21
324.117914
 31
0.0
  0
LINE
  8
LC-001-002-----0
  6
CONTINUOUS
 62
     1
  5
249
 10
426.284528
 20
262.154514
 30
0.0
 11
426.284528
 21
324.016114
 31
0.0
  0
ARC
  8
LC-002-002-RND-0
  6
CONTINUOUS
  5
24A
 10
433.865528
 20
324.680914
 30
0.0
 40
3.0
 50
90.0
 51
180.0
  0
LINE
  8
LC-001-002-----0
  6
CONTINUOUS
 62
     1
  5
24B
 10
430.865528
 20
324.516114
 30
0.0
 11
430.865528
 21
324.680914
 31
0.0
  0
ARC
  8
LC-002-002-RND-0
  6
CONTINUOUS
  5
24C
 10
443.153528
 20
323.680914
 30
0.0
 40
4.0
 50
0.0
 51
90.0
  0
LINE
  8
LC-001-002-----0
  6
CONTINUOUS
 62
     1
  5
24D
 10
447.153528
 20
321.504514
 30
0.0
 11
447.153528
 21
323.680914
 31
0.0
  0
ARC
  8
LC-002-002-RND-0
  6
CONTINUOUS
  5
24E
 10
442.165328
 20
322.590914
 30
0.0
 40
1.527
 50
0.0
 51
90.0
  0
LINE
  8
LC-001-002-----0
  6
CONTINUOUS
 62
     1
  5
24F
 10
443.692328
 20
322.590914
 30
0.0
 11
443.692328
 21
262.154514
 31
0.0
  0
ARC
  8
LC-002-002-RND-0
  6
CONTINUOUS
  5
250
 10
430.365528
 20
324.516114
 30
0.0
 40
0.5
 50
270.0
 51
0.0
  0
LINE
  8
LC-001-002-----0
  6
CONTINUOUS
 62
     1
  5
251
 10
426.284528
 20
324.016114
 30
0.0
 11
430.365528
 21
324.016114
 31
0.0
  0
LINE
  8
LC-001-002-----0
  6
CONTINUOUS
 62
     1
  5
252
 10
447.153528
 20
202.804514
 30
0.0
 11
447.153528
 21
200.628114
 31
0.0
  0
LINE
  8
LC-001-002-----0
  6
CONTINUOUS
 62
     1
  5
253
 10
435.870928
 20
200.191114
 30
0.0
 11
442.165328
 21
200.191114
 31
0.0
  0
LINE
  8
LC-001-002-----0
  6
CONTINUOUS
 62
     1
  5
254
 10
426.284528
 20
262.154514
 30
0.0
 11
426.284528
 21
200.292914
 31
0.0
  0
LINE
  8
LC-001-002-----0
  6
CONTINUOUS
 62
     1
  5
255
 10
443.692328
 20
322.081914
 30
0.0
 11
443.692328
 21
320.351314
 31
0.0
  0
LINE
  8
LC-001-002-----0
  6
CONTINUOUS
 62
     1
  5
256
 10
433.865528
 20
196.628114
 30
0.0
 11
443.153528
 21
196.628114
 31
0.0
  0
ARC
  8
LC-002-002-RND-0
  6
CONTINUOUS
  5
257
 10
443.153528
 20
200.628114
 30
0.0
 40
4.0
 50
270.0
 51
360.0
  0
ARC
  8
LC-002-002-RND-0
  6
CONTINUOUS
  5
258
 10
433.865528
 20
199.628114
 30
0.0
 40
3.0
 50
180.0
 51
270.0
  0
LINE
  8
LC-001-002-----0
  6
CONTINUOUS
 62
     1
  5
259
 10
426.284528
 20
200.292914
 30
0.0
 11
430.365528
 21
200.292914
 31
0.0
  0
ARC
  8
LC-002-002-RND-0
  6
CONTINUOUS
  5
25A
 10
442.165328
 20
201.718114
 30
0.0
 40
1.527
 50
270.0
 51
360.0
  0
LINE
  8
LC-001-002-----0
  6
CONTINUOUS
 62
     1
  5
25B
 10
443.692328
 20
201.718114
 30
0.0
 11
443.692328
 21
262.154514
 31
0.0
  0
ARC
  8
LC-002-002-RND-0
  6
CONTINUOUS
  5
25C
 10
430.365528
 20
199.792914
 30
0.0
 40
0.5
 50
0.0
 51
90.0
  0
LINE
  8
LC-001-002-----0
  6
CONTINUOUS
 62
     1
  5
25D
 10
430.865528
 20
199.792914
 30
0.0
 11
430.865528
 21
199.628114
 31
0.0
  0
LINE
  8
LC-001-002-----0
  6
CONTINUOUS
 62
     1
  5
25E
 10
443.692328
 20
206.604514
 30
0.0
 11
465.732286
 21
206.604514
 31
0.0
  0
LINE
  8
LC-001-002-----0
  6
CONTINUOUS
 62
     1
  5
25F
 10
502.213528
 20
207.154514
 30
0.0
 11
707.28803
 21
207.154514
 31
0.0
  0
LINE
  8
LC-001-002-----0
  6
CONTINUOUS
 62
     1
  5
260
 10
443.692328
 20
202.227114
 30
0.0
 11
443.692328
 21
203.957714
 31
0.0
  0
LINE
  8
LC-001-002-----0
  6
CONTINUOUS
 62
     1
  5
261
 10
497.863528
 20
202.804514
 30
0.0
 11
502.213528
 21
207.154514
 31
0.0
  0
LINE
  8
LC-001-002-----0
  6
CONTINUOUS
 62
     1
  5
262
 10
500.639517
 20
210.954514
 30
0.0
 11
707.28803
 21
210.954514
 31
0.0
  0
LINE
  8
LC-001-002-----0
  6
CONTINUOUS
 62
     1
  5
263
 10
634.706963
 20
313.354514
 30
0.0
 11
707.28803
 21
313.354514
 31
0.0
  0
CIRCLE
  8
LC-001-002-----0
  6
CONTINUOUS
 62
     1
  5
264
 10
496.560246
 20
387.154514
 30
0.0
 40
42.461872
  0
CIRCLE
  8
LC-001-002-----0
  6
CONTINUOUS
 62
     1
  5
265
 10
496.560246
 20
387.154514
 30
0.0
 40
46.319
  0
CIRCLE
  8
LC-001-002-----0
  6
CONTINUOUS
 62
     1
  5
266
 10
496.560246
 20
387.154514
 30
0.0
 40
56.2954
  0
LINE
  8
LC-004-005-----0
  6
CONTINUOUS
  5
267
 10
707.28803
 20
316.61842
 30
0.0
 11
706.751937
 21
317.154514
 31
0.0
  0
LINE
  8
LC-001-002-----0
  6
CONTINUOUS
 62
     1
  5
268
 10
550.638857
 20
402.796631
 30
0.0
 11
635.402295
 21
318.033194
 31
0.0
  0
LINE
  8
LC-001-002-----0
  6
CONTINUOUS
 62
     1
  5
269
 10
552.174189
 20
395.887288
 30
0.0
 11
634.706963
 21
313.354514
 31
0.0
  0
LINE
  8
LC-001-002-----0
  5
26A
 10
550.638857
 20
402.796631
 30
0.0
 11
542.924318
 21
410.51117
 31
0.0
  0
LINE
  8
LC-001-002-----0
  5
26B
 10
552.174189
 20
395.887288
 30
0.0
 11
542.564328
 21
405.497149
 31
0.0
  0
LINE
  8
LC-001-002-----0
  6
CONTINUOUS
 62
     1
  5
26C
 10
480.918129
 20
333.075903
 30
0.0
 11
492.489517
 21
321.504514
 31
0.0
  0
LINE
  8
LC-001-002-----0
  5
26D
 10
487.827472
 20
331.540571
 30
0.0
 11
478.217611
 21
341.150432
 31
0.0
  0
LINE
  8
LC-001-002-----0
  5
26E
 10
480.918129
 20
333.075903
 30
0.0
 11
473.20359
 21
340.790441
 31
0.0
  0
CIRCLE
  8
LC-001-002-----0
  6
CONTINUOUS
 62
     1
  5
26F
 10
496.560246
 20
387.154514
 30
0.0
 40
52.6306
  0
LINE
  8
LC-001-002-----0
  6
CONTINUOUS
 62
     1
  5
270
 10
487.827472
 20
331.540571
 30
0.0
 11
506.013528
 21
313.354514
 31
0.0
  0
LINE
  8
LC-001-002-----0
  6
CONTINUOUS
 62
     1
  5
271
 10
447.153528
 20
321.504514
 30
0.0
 11
492.489517
 21
321.504514
 31
0.0
  0
LINE
  8
LC-001-002-----0
  6
CONTINUOUS
 62
     1
  5
272
 10
443.692328
 20
317.704514
 30
0.0
 11
465.732286
 21
317.704514
 31
0.0
  0
LINE
  8
LC-001-002-----0
  6
CONTINUOUS
 62
     1
  5
273
 10
506.617064
 20
313.452995
 30
0.0
 11
509.755078
 21
311.641261
 31
0.0
  0
ARC
  8
LC-001-002-----0
  6
CONTINUOUS
 62
     1
  5
274
 10
570.360246
 20
472.13419
 30
0.0
 40
171.322752
 50
249.347543
 51
292.06064
  0
LINE
  8
LC-001-002-----0
  6
CONTINUOUS
 62
     1
  5
275
 10
570.261765
 20
377.097696
 30
0.0
 11
572.073499
 21
373.959682
 31
0.0
  0
LINE
  8
LC-001-002-----0
  6
CONTINUOUS
 62
     1
  5
276
 10
506.617064
 20
313.452995
 30
0.0
 11
570.256549
 21
377.09248
 31
0.0
  0
LINE
  8
LC-001-002-----0
  6
CONTINUOUS
 62
     1
  5
277
 10
509.755078
 20
311.641261
 30
0.0
 11
572.073499
 21
373.959682
 31
0.0
  0
ARC
  8
LC-001-002-----0
  6
CONTINUOUS
 62
     1
  5
278
 10
565.485369
 20
375.431422
 30
0.0
 40
5.052056
 50
19.195261
 51
70.804739
  0
LINE
  8
LC-001-002-----0
  6
CONTINUOUS
 62
     1
  5
279
 10
567.146427
 20
380.202601
 30
0.0
 11
552.299253
 21
395.049776
 31
0.0
  0
ARC
  8
LC-001-002-----0
  6
CONTINUOUS
 62
     1
  5
27A
 10
508.283338
 20
318.229391
 30
0.0
 40
5.052056
 50
199.195261
 51
250.804739
  0
LINE
  8
LC-001-002-----0
  6
CONTINUOUS
 62
     1
  5
27B
 10
544.35963
 20
357.415804
 30
0.0
 11
567.146427
 21
380.202601
 31
0.0
  0
LINE
  8
LC-001-002-----0
  6
CONTINUOUS
 62
     1
  5
27C
 10
503.506942
 20
316.563116
 30
0.0
 11
526.298955
 21
339.355129
 31
0.0
  0
LINE
  8
LC-001-002-----0
  6
CONTINUOUS
 62
     1
  5
27D
 10
488.652828
 20
331.41723
 30
0.0
 11
503.506942
 21
316.563116
 31
0.0
  0
LINE
  8
LC-001-002-----0
  6
CONTINUOUS
 62
     1
  5
27E
 10
438.891913
 20
320.796957
 30
0.0
 11
442.472854
 21
320.796957
 31
0.0
  0
LINE
  8
LC-001-002-----0
  6
CONTINUOUS
 62
     1
  5
27F
 10
439.756172
 20
318.662107
 30
0.0
 11
438.891913
 21
320.796957
 31
0.0
  0
ARC
  8
LC-002-002-RND-0
  6
CONTINUOUS
  5
280
 10
439.570787
 20
318.587057
 30
0.0
 40
0.2
 50
261.253974
 51
22.039751
  0
LINE
  8
LC-001-002-----0
  6
CONTINUOUS
 62
     1
  5
281
 10
434.438909
 20
319.174211
 30
0.0
 11
439.540376
 21
318.389383
 31
0.0
  0
ARC
  8
LC-002-002-RND-0
  6
CONTINUOUS
  5
282
 10
434.590964
 20
320.162583
 30
0.0
 40
1.0
 50
179.9146
 51
261.253974
  0
LINE
  8
LC-001-002-----0
  6
CONTINUOUS
 62
     1
  5
283
 10
433.592848
 20
321.42712
 30
0.0
 11
433.590965
 21
320.164074
 31
0.0
  0
ARC
  8
LC-002-002-RND-0
  6
CONTINUOUS
  5
284
 10
434.592846
 20
321.425629
 30
0.0
 40
1.0
 50
135.0
 51
179.9146
  0
ARC
  8
LC-002-002-RND-0
  6
CONTINUOUS
  5
285
 10
440.972852
 20
322.617914
 30
0.0
 40
1.5
 50
0.0
 51
90.0
  0
LINE
  8
LC-001-002-----0
  6
CONTINUOUS
 62
     1
  5
286
 10
442.472852
 20
322.617914
 30
0.0
 11
442.472852
 21
320.796957
 31
0.0
  0
ARC
  8
LC-002-002-RND-0
  6
CONTINUOUS
  5
287
 10
440.972852
 20
201.691114
 30
0.0
 40
1.5
 50
270.0
 51
0.0
  0
LINE
  8
LC-001-002-----0
  6
CONTINUOUS
 62
     1
  5
288
 10
442.472852
 20
201.691114
 30
0.0
 11
442.472852
 21
203.512071
 31
0.0
  0
LINE
  8
LC-001-002-----0
  6
CONTINUOUS
 62
     1
  5
289
 10
438.891913
 20
203.512071
 30
0.0
 11
442.472854
 21
203.512071
 31
0.0
  0
LINE
  8
LC-001-002-----0
  6
CONTINUOUS
 62
     1
  5
28A
 10
439.756172
 20
205.646921
 30
0.0
 11
438.891913
 21
203.512071
 31
0.0
  0
ARC
  8
LC-002-002-RND-0
  6
CONTINUOUS
  5
28B
 10
439.570787
 20
205.721971
 30
0.0
 40
0.2
 50
337.960249
 51
98.746026
  0
LINE
  8
LC-001-002-----0
  6
CONTINUOUS
 62
     1
  5
28C
 10
434.438909
 20
205.134817
 30
0.0
 11
439.540376
 21
205.919646
 31
0.0
  0
ARC
  8
LC-002-002-RND-0
  6
CONTINUOUS
  5
28D
 10
434.590964
 20
204.146445
 30
0.0
 40
1.0
 50
98.746026
 51
180.0854
  0
LINE
  8
LC-001-002-----0
  6
CONTINUOUS
 62
     1
  5
28E
 10
433.592848
 20
202.881909
 30
0.0
 11
433.590965
 21
204.144955
 31
0.0
  0
ARC
  8
LC-002-002-RND-0
  6
CONTINUOUS
  5
28F
 10
434.592846
 20
202.8834
 30
0.0
 40
1.0
 50
180.0854
 51
225.0
  0
LINE
  8
LC-001-002-----0
  6
DASHDOT
  5
291
 10
707.28803
 20
262.155821
 30
0.0
 11
426.284528
 21
260.786327
 31
0.0
  0
LINE
  8
LC-001-002-----0
  6
DASHDOT
  5
292
 10
575.455014
 20
307.06398
 30
0.0
 11
457.053901
 21
427.259636
 31
0.0
  0
LINE
  8
LC-001-002-----0
  6
DASHDOT
  5
293
 10
536.367105
 20
426.961373
 30
0.0
 11
456.753386
 21
347.347655
 31
0.0
  0
ENDSEC
  0
EOF
