  0
SECTION
  2
HEADER
  9
$ACADVER
  1
AC1009
  9
$INSBASE
 10
0.0
 20
0.0
 30
0.0
  9
$EXTMIN
 10
0.0
 20
0.0
 30
0.0
  9
$EXTMAX
 10
840.0
 20
594.0
 30
0.0
  9
$LIMMIN
 10
0.0
 20
0.0
  9
$LIMMAX
 10
840.0
 20
594.0
  9
$ORTHOMODE
 70
     0
  9
$REGENMODE
 70
     1
  9
$FILLMODE
 70
     1
  9
$QTEXTMODE
 70
     0
  9
$MIRRTEXT
 70
     1
  9
$DRAGMODE
 70
     2
  9
$LTSCALE
 40
2.0
  9
$OSMODE
 70
     0
  9
$ATTMODE
 70
     1
  9
$TEXTSIZE
 40
0.2
  9
$TRACEWID
 40
0.05
  9
$TEXTSTYLE
  7
STANDARD
  9
$CLAYER
  8
0
  9
$CELTYPE
  6
BYLAYER
  9
$CECOLOR
 62
     7
  9
$DIMSCALE
 40
2.0
  9
$DIMASZ
 40
3.5
  9
$DIMEXO
 40
0.0625
  9
$DIMDLI
 40
0.38
  9
$DIMRND
 40
0.0
  9
$DIMDLE
 40
0.0
  9
$DIMEXE
 40
0.18
  9
$DIMTP
 40
0.0
  9
$DIMTM
 40
0.0
  9
$DIMTXT
 40
3.5
  9
$DIMCEN
 40
0.09
  9
$DIMTSZ
 40
0.0
  9
$DIMTOL
 70
     0
  9
$DIMLIM
 70
     0
  9
$DIMTIH
 70
     1
  9
$DIMTOH
 70
     1
  9
$DIMSE1
 70
     0
  9
$DIMSE2
 70
     0
  9
$DIMTAD
 70
     1
  9
$DIMZIN
 70
     0
  9
$DIMBLK
  1

  9
$DIMASO
 70
     1
  9
$DIMSHO
 70
     1
  9
$DIMPOST
  1

  9
$DIMAPOST
  1

  9
$DIMALT
 70
     0
  9
$DIMALTD
 70
     2
  9
$DIMALTF
 40
25.4
  9
$DIMLFAC
 40
1.0
  9
$DIMTOFL
 70
     0
  9
$DIMTVP
 40
0.0
  9
$DIMTIX
 70
     0
  9
$DIMSOXD
 70
     0
  9
$DIMSAH
 70
     0
  9
$DIMBLK1
  1

  9
$DIMBLK2
  1

  9
$DIMSTYLE
  2
STANDARD
  9
$DIMCLRD
 70
     0
  9
$DIMCLRE
 70
     0
  9
$DIMCLRT
 70
     0
  9
$DIMTFAC
 40
1.0
  9
$DIMGAP
 40
0.09
  9
$LUNITS
 70
     2
  9
$LUPREC
 70
     2
  9
$AXISMODE
 70
     0
  9
$AXISUNIT
 10
0.0
 20
0.0
  9
$SKETCHINC
 40
0.1
  9
$FILLETRAD
 40
0.0
  9
$AUNITS
 70
     0
  9
$AUPREC
 70
     0
  9
$MENU
  1
acad
  9
$ELEVATION
 40
0.0
  9
$PELEVATION
 40
0.0
  9
$THICKNESS
 40
0.0
  9
$LIMCHECK
 70
     0
  9
$BLIPMODE
 70
     1
  9
$CHAMFERA
 40
0.0
  9
$CHAMFERB
 40
0.0
  9
$SKPOLY
 70
     0
  9
$TDCREATE
 40
0.000000000
  9
$TDUPDATE
 40
0.000000000
  9
$TDINDWG
 40
0.0000000000
  9
$TDUSRTIMER
 40
0.0000000000
  9
$USRTIMER
 70
     1
  9
$ANGBASE
 50
0.0
  9
$ANGDIR
 70
     0
  9
$PDMODE
 70
     0
  9
$PDSIZE
 40
0.0
  9
$PLINEWID
 40
0.0
  9
$COORDS
 70
     0
  9
$SPLFRAME
 70
     0
  9
$SPLINETYPE
 70
     6
  9
$SPLINESEGS
 70
     8
  9
$ATTDIA
 70
     0
  9
$ATTREQ
 70
     1
  9
$HANDLING
 70
     1
  9
$HANDSEED
  5
2EE
  9
$SURFTAB1
 70
     6
  9
$SURFTAB2
 70
     6
  9
$SURFTYPE
 70
     6
  9
$SURFU
 70
     6
  9
$SURFV
 70
     6
  9
$UCSNAME
  2

  9
$UCSORG
 10
0.0
 20
0.0
 30
0.0
  9
$UCSXDIR
 10
1.0
 20
0.0
 30
0.0
  9
$UCSYDIR
 10
0.0
 20
1.0
 30
0.0
  9
$PUCSNAME
  2

  9
$PUCSORG
 10
0.0
 20
0.0
 30
0.0
  9
$PUCSXDIR
 10
1.0
 20
0.0
 30
0.0
  9
$PUCSYDIR
 10
0.0
 20
1.0
 30
0.0
  9
$USERI1
 70
     0
  9
$USERI2
 70
     0
  9
$USERI3
 70
     0
  9
$USERI4
 70
     0
  9
$USERI5
 70
     0
  9
$USERR1
 40
0.0
  9
$USERR2
 40
0.0
  9
$USERR3
 40
0.0
  9
$USERR4
 40
0.0
  9
$USERR5
 40
0.0
  9
$WORLDVIEW
 70
     1
  9
$SHADEDGE
 70
     3
  9
$SHADEDIF
 70
    70
  9
$TILEMODE
 70
     1
  9
$MAXACTVP
 70
    16
  9
$PINSBASE
 10
0.0
 20
0.0
 30
0.0
  9
$PLIMCHECK
 70
     0
  9
$PEXTMIN
 10
1.000000E+20
 20
1.000000E+20
 30
1.000000E+20
  9
$PEXTMAX
 10
-1.000000E+20
 20
-1.000000E+20
 30
-1.000000E+20
  9
$PLIMMIN
 10
0.0
 20
0.0
  9
$PLIMMAX
 10
840.0
 20
594.0
  9
$UNITMODE
 70
     0
  9
$VISRETAIN
 70
     0
  9
$PLINEGEN
 70
     1
  9
$PSLTSCALE
 70
     0
  9
$TREEDEPTH
 70
  3020
  9
$DWGCODEPAGE
  3
dos850
  0
ENDSEC
  0
SECTION
  2
TABLES
  0
TABLE
  2
VPORT
 70
     1
  0
VPORT
  2
*ACTIVE
 70
     0
 10
0.0
 20
0.0
 11
1.0
 21
1.0
 12
420.0
 22
297.0
 13
0.0
 23
0.0
 14
1.0
 24
1.0
 15
0.0
 25
0.0
 16
0.0
 26
0.0
 36
1.0
 17
0.0
 27
0.0
 37
0.0
 40
594.0
 41
1.604229
 42
50.0
 43
0.0
 44
0.0
 50
0.0
 51
0.0
 71
     0
 72
   100
 73
     1
 74
     1
 75
     0
 76
     0
 77
     0
 78
     0
  0
ENDTAB
  0
TABLE
  2
LTYPE
 70
     3
  0
LTYPE
  2
CONTINUOUS
 70
    64
  3
Solid line
 72
    65
 73
     0
 40
0.0
  0
LTYPE
  2
DASHED
 70
    64
  3
__ __ __ __ __
 72
    65
 73
     2
 40
6.25
 49
5.0
 49
-1.25
  0
LTYPE
  2
DASHDOT
 70
    64
  3
__ . __ . __ . __ . __
 72
    65
 73
     4
 40
7.5
 49
5.0
 49
-1.25
 49
0.0
 49
-1.25
  0
ENDTAB
  0
TABLE
  2
LAYER
 70
     9
  0
LAYER
  2
0
 70
     0
 62
     7
  6
CONTINUOUS
  0
LAYER
  2
LC-INFO-1-2-MM-A3-0
 70
     1
 62
    -1
  6
CONTINUOUS
  0
LAYER
  2
LC-003-005-----0
 70
     0
 62
     2
  6
CONTINUOUS
  0
LAYER
  2
LC-005-003-MTH-0
 70
     0
 62
     2
  6
CONTINUOUS
  0
LAYER
  2
LC-004-003-----0
 70
     0
 62
     2
  6
CONTINUOUS
  0
LAYER
  2
LC-006-003-MTG-0
 70
     0
 62
     2
  6
CONTINUOUS
  0
LAYER
  2
LC-001-002-----0
 70
     0
 62
     2
  6
DASHDOT
  0
LAYER
  2
LC-002-002-RND-0
 70
     0
 62
     1
  6
CONTINUOUS
  0
LAYER
  2
LC-000
 70
     0
 62
     7
  6
CONTINUOUS
  0
ENDTAB
  0
TABLE
  2
STYLE
 70
     4
  0
STYLE
  2
STANDARD
 70
     0
 40
0.0
 41
1.0
 50
0.0
 71
     0
 42
0.0
  3
txt
  4

  0
STYLE
  2
LC-STANDARD
 70
    64
 40
0.0
 41
1.0
 50
0.0
 71
     0
 42
3.5
  3
MONOTXT
  4

  0
STYLE
  2
LC-TXTSTYLE-150-400-0-0-D2
 70
    64
 40
0.0
 41
1.0
 50
15.0
 71
     0
 42
3.5
  3
MONOTXT
  4

  0
STYLE
  2
LC-TXTSTYLE-150-400-0-0-D3
 70
    64
 40
0.0
 41
1.0
 50
15.0
 71
     0
 42
3.5
  3
LC-STANDARD
  4

  0
ENDTAB
  0
TABLE
  2
VIEW
 70
     0
  0
ENDTAB
  0
TABLE
  2
UCS
 70
     0
  0
ENDTAB
  0
TABLE
  2
APPID
 70
     1
  0
APPID
  2
ACAD
 70
     0
  0
ENDTAB
  0
TABLE
  2
DIMSTYLE
 70
     3
  0
DIMSTYLE
  2
STANDARD
 70
     0
  3

  4

  5

  6

  7

 40
1.0
 41
0.18
 42
0.0625
 43
0.38
 44
0.18
 45
0.0
 46
0.0
 47
0.0
 48
0.0
 71
     0
 72
     0
 73
     1
 74
     1
 75
     0
 76
     0
 77
     0
 78
     0
140
0.18
141
0.09
142
0.0
143
25.4
144
1.0
145
0.0
146
1.0
147
0.09
170
     0
171
     2
172
     0
173
     0
174
     0
175
     0
176
     0
177
     0
178
     0
  0
DIMSTYLE
  2
LC-STANDARD
 70
     0
  3

  4

  5

  6

  7

 40
1.0
 41
3.5
 42
0.0
 43
7.5
 44
1.8
 45
0.0
 46
0.0
 47
0.0
 48
0.0
 71
     0
 72
     0
 73
     0
 74
     0
 75
     0
 76
     0
 77
     1
 78
     8
140
3.5
141
0.0
142
0.0
143
25.4
144
1.0
145
0.0
146
0.71
147
1.5
170
     0
171
     2
172
     1
173
     0
174
     0
175
     0
176
     0
177
     0
178
     3
  0
DIMSTYLE
  2
LC-DIM-L-0090-02-02
 70
     0
  3

  4

  5

  6

  7

 40
2.0
 41
3.5
 42
0.0
 43
7.5
 44
1.8
 45
0.0
 46
0.0
 47
0.0
 48
0.0
 71
     0
 72
     0
 73
     0
 74
     0
 75
     0
 76
     0
 77
     1
 78
     8
140
9.0
141
0.0
142
0.0
143
25.4
144
1.0
145
0.0
146
0.71
147
1.5
170
     0
171
     2
172
     0
173
     0
174
     0
175
     0
176
     2
177
     2
178
     6
  0
ENDTAB
  0
ENDSEC
  0
SECTION
  2
BLOCKS
  0
BLOCK
  8
0
  5
23
  2
*X0
 70
    65
 10
396.056707
 20
412.012
 30
0.0
  3
*X0
  0
LINE
  8
LC-003-005-----0
  6
DASHED
  5
26
 10
415.556707
 20
424.486149
 30
0.0
 11
411.030856
 21
429.012
 31
0.0
  0
LINE
  8
LC-003-005-----0
  6
DASHED
  5
27
 10
415.556707
 20
423.071935
 30
0.0
 11
412.556707
 21
426.071935
 31
0.0
  0
LINE
  8
LC-003-005-----0
  6
DASHED
  5
28
 10
411.866642
 20
426.762
 30
0.0
 11
409.616642
 21
429.012
 31
0.0
  0
LINE
  8
LC-003-005-----0
  6
CONTINUOUS
  5
29
 10
415.556707
 20
420.243508
 30
0.0
 11
412.538215
 21
423.262
 31
0.0
  0
LINE
  8
LC-003-005-----0
  6
CONTINUOUS
  5
2A
 10
409.038215
 20
426.762
 30
0.0
 11
407.556707
 21
428.243508
 31
0.0
  0
LINE
  8
LC-003-005-----0
  6
CONTINUOUS
  5
2B
 10
414.624002
 20
419.762
 30
0.0
 11
411.124002
 21
423.262
 31
0.0
  0
LINE
  8
LC-003-005-----0
  6
CONTINUOUS
  5
2C
 10
407.624002
 20
426.762
 30
0.0
 11
407.556707
 21
426.829295
 31
0.0
  0
LINE
  8
LC-003-005-----0
  6
DASHED
  5
2D
 10
412.277107
 20
419.280467
 30
0.0
 11
411.644454
 21
419.91312
 31
0.0
  0
LINE
  8
LC-003-005-----0
  6
DASHED
  5
2E
 10
410.495575
 20
421.062
 30
0.0
 11
408.295575
 21
423.262
 31
0.0
  0
LINE
  8
LC-003-005-----0
  6
DASHED
  5
2F
 10
411.7576
 20
418.385761
 30
0.0
 11
411.124947
 21
419.018414
 31
0.0
  0
LINE
  8
LC-003-005-----0
  6
DASHED
  5
30
 10
409.081361
 20
421.062
 30
0.0
 11
406.881361
 21
423.262
 31
0.0
  0
LINE
  8
LC-003-005-----0
  6
CONTINUOUS
  5
31
 10
410.718586
 20
416.596348
 30
0.0
 11
410.085933
 21
417.229001
 31
0.0
  0
LINE
  8
LC-003-005-----0
  6
CONTINUOUS
  5
32
 10
406.252934
 20
421.062
 30
0.0
 11
404.052934
 21
423.262
 31
0.0
  0
LINE
  8
LC-003-005-----0
  6
CONTINUOUS
  5
33
 10
410.199079
 20
415.701641
 30
0.0
 11
409.566426
 21
416.334294
 31
0.0
  0
LINE
  8
LC-003-005-----0
  6
CONTINUOUS
  5
34
 10
404.83872
 20
421.062
 30
0.0
 11
402.63872
 21
423.262
 31
0.0
  0
LINE
  8
LC-003-005-----0
  6
DASHED
  5
35
 10
409.160065
 20
413.912228
 30
0.0
 11
408.527412
 21
414.544881
 31
0.0
  0
LINE
  8
LC-003-005-----0
  6
DASHED
  5
36
 10
402.200882
 20
420.871412
 30
0.0
 11
399.810293
 21
423.262
 31
0.0
  0
LINE
  8
LC-003-005-----0
  6
DASHED
  5
37
 10
408.640558
 20
413.017521
 30
0.0
 11
408.007905
 21
413.650175
 31
0.0
  0
LINE
  8
LC-003-005-----0
  6
DASHED
  5
38
 10
401.681375
 20
419.976705
 30
0.0
 11
401.048722
 21
420.609358
 31
0.0
  0
LINE
  8
LC-003-005-----0
  6
DASHED
  5
39
 10
400.59608
 20
421.062
 30
0.0
 11
398.39608
 21
423.262
 31
0.0
  0
LINE
  8
LC-003-005-----0
  6
CONTINUOUS
  5
3A
 10
400.642361
 20
418.187292
 30
0.0
 11
400.009707
 21
418.819945
 31
0.0
  0
LINE
  8
LC-003-005-----0
  6
CONTINUOUS
  5
3B
 10
397.767653
 20
421.062
 30
0.0
 11
396.135917
 21
422.693736
 31
0.0
  0
LINE
  8
LC-003-005-----0
  6
CONTINUOUS
  5
3C
 10
400.122854
 20
417.292586
 30
0.0
 11
399.4902
 21
417.925239
 31
0.0
  0
LINE
  8
LC-003-005-----0
  6
CONTINUOUS
  5
3D
 10
396.353439
 20
421.062
 30
0.0
 11
396.056707
 21
421.358732
 31
0.0
  0
LINE
  8
LC-003-005-----0
  6
DASHED
  5
3E
 10
399.083839
 20
415.503172
 30
0.0
 11
398.451186
 21
416.135826
 31
0.0
  0
LINE
  8
LC-003-005-----0
  6
DASHED
  5
3F
 10
398.564332
 20
414.608466
 30
0.0
 11
397.931679
 21
415.241119
 31
0.0
  0
LINE
  8
LC-003-005-----0
  6
CONTINUOUS
  5
40
 10
397.525318
 20
412.819053
 30
0.0
 11
396.892665
 21
413.451706
 31
0.0
  0
LINE
  8
LC-003-005-----0
  6
CONTINUOUS
  5
41
 10
396.918158
 20
412.012
 30
0.0
 11
396.373158
 21
412.556999
 31
0.0
  0
ENDBLK
  8
0
  5
42
  0
BLOCK
  8
0
  5
44
  2
*X1
 70
    65
 10
396.056707
 20
370.512
 30
0.0
  3
*X1
  0
LINE
  8
LC-003-005-----0
  6
CONTINUOUS
  5
45
 10
415.556707
 20
379.231315
 30
0.0
 11
415.026022
 21
379.762
 31
0.0
  0
LINE
  8
LC-003-005-----0
  6
CONTINUOUS
  5
46
 10
409.137656
 20
385.650366
 30
0.0
 11
407.276022
 21
387.512
 31
0.0
  0
LINE
  8
LC-003-005-----0
  6
DASHED
  5
47
 10
415.556707
 20
376.402888
 30
0.0
 11
410.669324
 21
381.290271
 31
0.0
  0
LINE
  8
LC-003-005-----0
  6
DASHED
  5
48
 10
415.556707
 20
374.988674
 30
0.0
 11
412.083381
 21
378.462
 31
0.0
  0
LINE
  8
LC-003-005-----0
  6
CONTINUOUS
  5
49
 10
415.335523
 20
372.381432
 30
0.0
 11
412.556707
 21
375.160247
 31
0.0
  0
LINE
  8
LC-003-005-----0
  6
CONTINUOUS
  5
4A
 10
411.454954
 20
376.262
 30
0.0
 11
409.254954
 21
378.462
 31
0.0
  0
LINE
  8
LC-003-005-----0
  6
CONTINUOUS
  5
4B
 10
414.791814
 20
371.510926
 30
0.0
 11
412.556707
 21
373.746034
 31
0.0
  0
LINE
  8
LC-003-005-----0
  6
CONTINUOUS
  5
4C
 10
410.040741
 20
376.262
 30
0.0
 11
407.840741
 21
378.462
 31
0.0
  0
LINE
  8
LC-003-005-----0
  6
DASHED
  5
4D
 10
412.937986
 20
370.536328
 30
0.0
 11
410.712314
 21
372.762
 31
0.0
  0
LINE
  8
LC-003-005-----0
  6
DASHED
  5
4E
 10
407.212314
 20
376.262
 30
0.0
 11
405.012314
 21
378.462
 31
0.0
  0
LINE
  8
LC-003-005-----0
  6
DASHED
  5
4F
 10
398.572021
 20
384.902292
 30
0.0
 11
396.187406
 21
387.286908
 31
0.0
  0
LINE
  8
LC-003-005-----0
  6
DASHED
  5
50
 10
411.5481
 20
370.512
 30
0.0
 11
409.2981
 21
372.762
 31
0.0
  0
LINE
  8
LC-003-005-----0
  6
DASHED
  5
51
 10
405.7981
 20
376.262
 30
0.0
 11
403.5981
 21
378.462
 31
0.0
  0
LINE
  8
LC-003-005-----0
  6
DASHED
  5
52
 10
400.530163
 20
381.529937
 30
0.0
 11
398.145548
 21
383.914552
 31
0.0
  0
LINE
  8
LC-003-005-----0
  6
CONTINUOUS
  5
53
 10
408.719673
 20
370.512
 30
0.0
 11
407.556707
 21
371.674966
 31
0.0
  0
LINE
  8
LC-003-005-----0
  6
CONTINUOUS
  5
54
 10
402.969673
 20
376.262
 30
0.0
 11
400.769673
 21
378.462
 31
0.0
  0
LINE
  8
LC-003-005-----0
  6
CONTINUOUS
  5
55
 10
401.555459
 20
376.262
 30
0.0
 11
399.355459
 21
378.462
 31
0.0
  0
LINE
  8
LC-003-005-----0
  6
DASHED
  5
56
 10
398.727032
 20
376.262
 30
0.0
 11
396.527032
 21
378.462
 31
0.0
  0
LINE
  8
LC-003-005-----0
  6
DASHED
  5
57
 10
396.967331
 20
376.607487
 30
0.0
 11
396.056707
 21
377.518112
 31
0.0
  0
ENDBLK
  8
0
  5
58
  0
BLOCK
  8
0
  5
5A
  2
*X2
 70
    65
 10
428.824536
 20
399.762
 30
0.0
  3
*X2
  0
LINE
  8
LC-003-005-----0
  6
CONTINUOUS
  5
5B
 10
448.824536
 20
400.741275
 30
0.0
 11
450.324536
 21
402.241275
 31
0.0
  0
LINE
  8
LC-003-005-----0
  6
CONTINUOUS
  5
5C
 10
448.824536
 20
403.569702
 30
0.0
 11
450.324536
 21
405.069702
 31
0.0
  0
LINE
  8
LC-003-005-----0
  6
CONTINUOUS
  5
5D
 10
448.824536
 20
406.398129
 30
0.0
 11
450.324536
 21
407.898129
 31
0.0
  0
LINE
  8
LC-003-005-----0
  6
CONTINUOUS
  5
5E
 10
448.824536
 20
409.226556
 30
0.0
 11
450.324536
 21
410.726556
 31
0.0
  0
LINE
  8
LC-003-005-----0
  6
CONTINUOUS
  5
5F
 10
448.824536
 20
412.054983
 30
0.0
 11
450.324536
 21
413.554983
 31
0.0
  0
LINE
  8
LC-003-005-----0
  6
CONTINUOUS
  5
60
 10
448.103125
 20
414.162
 30
0.0
 11
450.324536
 21
416.38341
 31
0.0
  0
LINE
  8
LC-003-005-----0
  6
CONTINUOUS
  5
61
 10
445.274698
 20
414.162
 30
0.0
 11
446.874698
 21
415.762
 31
0.0
  0
LINE
  8
LC-003-005-----0
  6
CONTINUOUS
  5
62
 10
448.824536
 20
417.711837
 30
0.0
 11
450.324536
 21
419.211837
 31
0.0
  0
LINE
  8
LC-003-005-----0
  6
CONTINUOUS
  5
63
 10
442.446271
 20
414.162
 30
0.0
 11
444.046271
 21
415.762
 31
0.0
  0
LINE
  8
LC-003-005-----0
  6
CONTINUOUS
  5
64
 10
448.824536
 20
420.540264
 30
0.0
 11
450.324536
 21
422.040264
 31
0.0
  0
LINE
  8
LC-003-005-----0
  6
CONTINUOUS
  5
65
 10
439.617844
 20
414.162
 30
0.0
 11
441.217844
 21
415.762
 31
0.0
  0
LINE
  8
LC-003-005-----0
  6
CONTINUOUS
  5
66
 10
448.824536
 20
423.368692
 30
0.0
 11
450.217844
 21
424.762
 31
0.0
  0
LINE
  8
LC-003-005-----0
  6
CONTINUOUS
  5
67
 10
436.789417
 20
414.162
 30
0.0
 11
438.389417
 21
415.762
 31
0.0
  0
LINE
  8
LC-003-005-----0
  6
CONTINUOUS
  5
68
 10
433.96099
 20
414.162
 30
0.0
 11
435.56099
 21
415.762
 31
0.0
  0
LINE
  8
LC-003-005-----0
  6
CONTINUOUS
  5
69
 10
431.132563
 20
414.162
 30
0.0
 11
432.332873
 21
415.36231
 31
0.0
  0
ENDBLK
  8
0
  5
6A
  0
BLOCK
  8
0
  5
6C
  2
*X3
 70
    65
 10
428.824536
 20
374.762
 30
0.0
  3
*X3
  0
LINE
  8
LC-003-005-----0
  6
CONTINUOUS
  5
6D
 10
448.824536
 20
375.28543
 30
0.0
 11
450.324536
 21
376.78543
 31
0.0
  0
LINE
  8
LC-003-005-----0
  6
CONTINUOUS
  5
6E
 10
448.824536
 20
378.113858
 30
0.0
 11
450.324536
 21
379.613858
 31
0.0
  0
LINE
  8
LC-003-005-----0
  6
CONTINUOUS
  5
6F
 10
448.824536
 20
380.942285
 30
0.0
 11
450.324536
 21
382.442285
 31
0.0
  0
LINE
  8
LC-003-005-----0
  6
CONTINUOUS
  5
70
 10
448.815824
 20
383.762
 30
0.0
 11
450.324536
 21
385.270712
 31
0.0
  0
LINE
  8
LC-003-005-----0
  6
CONTINUOUS
  5
71
 10
445.987397
 20
383.762
 30
0.0
 11
447.587397
 21
385.362
 31
0.0
  0
LINE
  8
LC-003-005-----0
  6
CONTINUOUS
  5
72
 10
448.824536
 20
386.599139
 30
0.0
 11
450.324536
 21
388.099139
 31
0.0
  0
LINE
  8
LC-003-005-----0
  6
CONTINUOUS
  5
73
 10
443.15897
 20
383.762
 30
0.0
 11
444.75897
 21
385.362
 31
0.0
  0
LINE
  8
LC-003-005-----0
  6
CONTINUOUS
  5
74
 10
448.824536
 20
389.427566
 30
0.0
 11
450.324536
 21
390.927566
 31
0.0
  0
LINE
  8
LC-003-005-----0
  6
CONTINUOUS
  5
75
 10
440.330542
 20
383.762
 30
0.0
 11
441.930542
 21
385.362
 31
0.0
  0
LINE
  8
LC-003-005-----0
  6
CONTINUOUS
  5
76
 10
448.824536
 20
392.255993
 30
0.0
 11
450.324536
 21
393.755993
 31
0.0
  0
LINE
  8
LC-003-005-----0
  6
CONTINUOUS
  5
77
 10
437.502115
 20
383.762
 30
0.0
 11
439.102115
 21
385.362
 31
0.0
  0
LINE
  8
LC-003-005-----0
  6
CONTINUOUS
  5
78
 10
448.824536
 20
395.08442
 30
0.0
 11
450.324536
 21
396.58442
 31
0.0
  0
LINE
  8
LC-003-005-----0
  6
CONTINUOUS
  5
79
 10
434.673688
 20
383.762
 30
0.0
 11
436.273688
 21
385.362
 31
0.0
  0
LINE
  8
LC-003-005-----0
  6
CONTINUOUS
  5
7A
 10
448.824536
 20
397.912847
 30
0.0
 11
450.324536
 21
399.412847
 31
0.0
  0
LINE
  8
LC-003-005-----0
  6
CONTINUOUS
  5
7B
 10
432.263531
 20
384.18027
 30
0.0
 11
433.445261
 21
385.362
 31
0.0
  0
LINE
  8
LC-003-005-----0
  6
CONTINUOUS
  5
7C
 10
430.032821
 20
384.777987
 30
0.0
 11
430.616834
 21
385.362
 31
0.0
  0
ENDBLK
  8
0
  5
7D
  0
BLOCK
  8
0
  5
7F
  2
*D4
 70
    65
 10
0.0
 20
0.0
 30
0.0
  3
*D4
  0
LINE
  8
LC-005-003-MTH-0
  6
CONTINUOUS
  5
81
 10
232.556707
 20
312.762
 30
0.0
 11
232.556707
 21
205.2
 31
0.0
  0
LINE
  8
LC-005-003-MTH-0
  6
CONTINUOUS
  5
82
 10
272.556707
 20
253.262
 30
0.0
 11
272.556707
 21
205.2
 31
0.0
  0
LINE
  8
LC-004-003-----0
  6
CONTINUOUS
  5
84
 10
214.7107
 20
213.650529
 30
0.0
 11
232.556707
 21
216.0
 31
0.0
  0
LINE
  8
LC-004-003-----0
  6
CONTINUOUS
  5
85
 10
232.556707
 20
216.0
 30
0.0
 11
214.7107
 21
218.349471
 31
0.0
  0
LINE
  8
LC-004-003-----0
  6
CONTINUOUS
  5
86
 10
214.7107
 20
218.349471
 30
0.0
 11
214.7107
 21
213.650529
 31
0.0
  0
LINE
  8
LC-004-003-----0
  6
CONTINUOUS
  5
87
 10
214.670662
 20
214.261391
 30
0.0
 11
227.876707
 21
216.0
 31
0.0
  0
LINE
  8
LC-004-003-----0
  6
CONTINUOUS
  5
88
 10
227.876707
 20
216.0
 30
0.0
 11
214.670662
 21
217.738609
 31
0.0
  0
LINE
  8
LC-004-003-----0
  6
CONTINUOUS
  5
89
 10
214.630623
 20
214.872254
 30
0.0
 11
223.196707
 21
216.0
 31
0.0
  0
LINE
  8
LC-004-003-----0
  6
CONTINUOUS
  5
8A
 10
223.196707
 20
216.0
 30
0.0
 11
214.630623
 21
217.127746
 31
0.0
  0
LINE
  8
LC-004-003-----0
  6
CONTINUOUS
  5
8B
 10
214.590585
 20
215.483116
 30
0.0
 11
218.516707
 21
216.0
 31
0.0
  0
LINE
  8
LC-004-003-----0
  6
CONTINUOUS
  5
8C
 10
218.516707
 20
216.0
 30
0.0
 11
214.590585
 21
216.516884
 31
0.0
  0
LINE
  8
LC-004-003-----0
  6
CONTINUOUS
  5
8D
 10
290.402715
 20
218.349471
 30
0.0
 11
272.556707
 21
216.0
 31
0.0
  0
LINE
  8
LC-004-003-----0
  6
CONTINUOUS
  5
8E
 10
272.556707
 20
216.0
 30
0.0
 11
290.402715
 21
213.650529
 31
0.0
  0
LINE
  8
LC-004-003-----0
  6
CONTINUOUS
  5
8F
 10
290.402715
 20
213.650529
 30
0.0
 11
290.402715
 21
218.349471
 31
0.0
  0
LINE
  8
LC-004-003-----0
  6
CONTINUOUS
  5
90
 10
290.442753
 20
217.738609
 30
0.0
 11
277.236707
 21
216.0
 31
0.0
  0
LINE
  8
LC-004-003-----0
  6
CONTINUOUS
  5
91
 10
277.236707
 20
216.0
 30
0.0
 11
290.442753
 21
214.261391
 31
0.0
  0
LINE
  8
LC-004-003-----0
  6
CONTINUOUS
  5
92
 10
290.482791
 20
217.127746
 30
0.0
 11
281.916707
 21
216.0
 31
0.0
  0
LINE
  8
LC-004-003-----0
  6
CONTINUOUS
  5
93
 10
281.916707
 20
216.0
 30
0.0
 11
290.482791
 21
214.872254
 31
0.0
  0
LINE
  8
LC-004-003-----0
  6
CONTINUOUS
  5
94
 10
290.522829
 20
216.516884
 30
0.0
 11
286.596707
 21
216.0
 31
0.0
  0
LINE
  8
LC-004-003-----0
  6
CONTINUOUS
  5
95
 10
286.596707
 20
216.0
 30
0.0
 11
290.522829
 21
215.483116
 31
0.0
  0
LINE
  8
LC-006-003-MTG-0
  6
CONTINUOUS
  5
97
 10
207.356707
 20
216.0
 30
0.0
 11
362.959227
 21
216.0
 31
0.0
  0
TEXT
  8
LC-004-003-----0
  6
CONTINUOUS
 62
     6
  5
99
 10
299.831953
 20
226.431999
 30
0.0
 40
18.0
  1
DN40
 41
0.9
 51
15.0
  7
LC-TXTSTYLE-150-400-0-0-D0
  0
ENDBLK
  8
0
  5
9A
  0
BLOCK
  8
0
  5
9C
  2
*D5
 70
    65
 10
0.0
 20
0.0
 30
0.0
  3
*D5
  0
LINE
  8
LC-005-003-MTH-0
  6
CONTINUOUS
  5
9D
 10
222.556707
 20
253.262
 30
0.0
 11
222.556707
 21
169.2
 31
0.0
  0
LINE
  8
LC-005-003-MTH-0
  6
CONTINUOUS
  5
9E
 10
272.556707
 20
253.262
 30
0.0
 11
272.556707
 21
169.2
 31
0.0
  0
LINE
  8
LC-004-003-----0
  6
CONTINUOUS
  5
9F
 10
204.7107
 20
177.650529
 30
0.0
 11
222.556707
 21
180.0
 31
0.0
  0
LINE
  8
LC-004-003-----0
  6
CONTINUOUS
  5
A0
 10
222.556707
 20
180.0
 30
0.0
 11
204.7107
 21
182.349471
 31
0.0
  0
LINE
  8
LC-004-003-----0
  6
CONTINUOUS
  5
A1
 10
204.7107
 20
182.349471
 30
0.0
 11
204.7107
 21
177.650529
 31
0.0
  0
LINE
  8
LC-004-003-----0
  6
CONTINUOUS
  5
A2
 10
204.670662
 20
178.261391
 30
0.0
 11
217.876707
 21
180.0
 31
0.0
  0
LINE
  8
LC-004-003-----0
  6
CONTINUOUS
  5
A3
 10
217.876707
 20
180.0
 30
0.0
 11
204.670662
 21
181.738609
 31
0.0
  0
LINE
  8
LC-004-003-----0
  6
CONTINUOUS
  5
A4
 10
204.630623
 20
178.872254
 30
0.0
 11
213.196707
 21
180.0
 31
0.0
  0
LINE
  8
LC-004-003-----0
  6
CONTINUOUS
  5
A5
 10
213.196707
 20
180.0
 30
0.0
 11
204.630623
 21
181.127746
 31
0.0
  0
LINE
  8
LC-004-003-----0
  6
CONTINUOUS
  5
A6
 10
204.590585
 20
179.483116
 30
0.0
 11
208.516707
 21
180.0
 31
0.0
  0
LINE
  8
LC-004-003-----0
  6
CONTINUOUS
  5
A7
 10
208.516707
 20
180.0
 30
0.0
 11
204.590585
 21
180.516884
 31
0.0
  0
LINE
  8
LC-004-003-----0
  6
CONTINUOUS
  5
A8
 10
290.402715
 20
182.349471
 30
0.0
 11
272.556707
 21
180.0
 31
0.0
  0
LINE
  8
LC-004-003-----0
  6
CONTINUOUS
  5
A9
 10
272.556707
 20
180.0
 30
0.0
 11
290.402715
 21
177.650529
 31
0.0
  0
LINE
  8
LC-004-003-----0
  6
CONTINUOUS
  5
AA
 10
290.402715
 20
177.650529
 30
0.0
 11
290.402715
 21
182.349471
 31
0.0
  0
LINE
  8
LC-004-003-----0
  6
CONTINUOUS
  5
AB
 10
290.442753
 20
181.738609
 30
0.0
 11
277.236707
 21
180.0
 31
0.0
  0
LINE
  8
LC-004-003-----0
  6
CONTINUOUS
  5
AC
 10
277.236707
 20
180.0
 30
0.0
 11
290.442753
 21
178.261391
 31
0.0
  0
LINE
  8
LC-004-003-----0
  6
CONTINUOUS
  5
AD
 10
290.482791
 20
181.127746
 30
0.0
 11
281.916707
 21
180.0
 31
0.0
  0
LINE
  8
LC-004-003-----0
  6
CONTINUOUS
  5
AE
 10
281.916707
 20
180.0
 30
0.0
 11
290.482791
 21
178.872254
 31
0.0
  0
LINE
  8
LC-004-003-----0
  6
CONTINUOUS
  5
AF
 10
290.522829
 20
180.516884
 30
0.0
 11
286.596707
 21
180.0
 31
0.0
  0
LINE
  8
LC-004-003-----0
  6
CONTINUOUS
  5
B0
 10
286.596707
 20
180.0
 30
0.0
 11
290.522829
 21
179.483116
 31
0.0
  0
LINE
  8
LC-006-003-MTG-0
  6
CONTINUOUS
  5
B1
 10
197.356707
 20
180.0
 30
0.0
 11
362.959227
 21
180.0
 31
0.0
  0
TEXT
  8
LC-004-003-----0
  6
CONTINUOUS
 62
     6
  5
B2
 10
299.831953
 20
190.431999
 30
0.0
 40
18.0
  1
DN50
 51
15.0
  7
LC-TXTSTYLE-150-400-0-0-D0
  0
ENDBLK
  8
0
  5
B3
  0
BLOCK
  8
0
  5
B5
  2
*D6
 70
    65
 10
0.0
 20
0.0
 30
0.0
  3
*D6
  0
LINE
  8
LC-005-003-MTH-0
  6
CONTINUOUS
  5
B6
 10
252.556707
 20
379.762
 30
0.0
 11
252.556707
 21
450.8
 31
0.0
  0
LINE
  8
LC-005-003-MTH-0
  6
CONTINUOUS
  5
B7
 10
412.556707
 20
426.762
 30
0.0
 11
412.556707
 21
450.8
 31
0.0
  0
LINE
  8
LC-006-003-MTG-0
  6
CONTINUOUS
  5
B8
 10
252.556707
 20
440.0
 30
0.0
 11
412.556707
 21
440.0
 31
0.0
  0
LINE
  8
LC-004-003-----0
  6
CONTINUOUS
  5
B9
 10
270.402715
 20
442.349471
 30
0.0
 11
252.556707
 21
440.0
 31
0.0
  0
LINE
  8
LC-004-003-----0
  6
CONTINUOUS
  5
BA
 10
252.556707
 20
440.0
 30
0.0
 11
270.402715
 21
437.650529
 31
0.0
  0
LINE
  8
LC-004-003-----0
  6
CONTINUOUS
  5
BB
 10
270.402715
 20
437.650529
 30
0.0
 11
270.402715
 21
442.349471
 31
0.0
  0
LINE
  8
LC-004-003-----0
  6
CONTINUOUS
  5
BC
 10
270.442753
 20
441.738609
 30
0.0
 11
257.236707
 21
440.0
 31
0.0
  0
LINE
  8
LC-004-003-----0
  6
CONTINUOUS
  5
BD
 10
257.236707
 20
440.0
 30
0.0
 11
270.442753
 21
438.261391
 31
0.0
  0
LINE
  8
LC-004-003-----0
  6
CONTINUOUS
  5
BE
 10
270.482791
 20
441.127746
 30
0.0
 11
261.916707
 21
440.0
 31
0.0
  0
LINE
  8
LC-004-003-----0
  6
CONTINUOUS
  5
BF
 10
261.916707
 20
440.0
 30
0.0
 11
270.482791
 21
438.872254
 31
0.0
  0
LINE
  8
LC-004-003-----0
  6
CONTINUOUS
  5
C0
 10
270.522829
 20
440.516884
 30
0.0
 11
266.596707
 21
440.0
 31
0.0
  0
LINE
  8
LC-004-003-----0
  6
CONTINUOUS
  5
C1
 10
266.596707
 20
440.0
 30
0.0
 11
270.522829
 21
439.483116
 31
0.0
  0
LINE
  8
LC-004-003-----0
  6
CONTINUOUS
  5
C2
 10
394.7107
 20
437.650529
 30
0.0
 11
412.556707
 21
440.0
 31
0.0
  0
LINE
  8
LC-004-003-----0
  6
CONTINUOUS
  5
C3
 10
412.556707
 20
440.0
 30
0.0
 11
394.7107
 21
442.349471
 31
0.0
  0
LINE
  8
LC-004-003-----0
  6
CONTINUOUS
  5
C4
 10
394.7107
 20
442.349471
 30
0.0
 11
394.7107
 21
437.650529
 31
0.0
  0
LINE
  8
LC-004-003-----0
  6
CONTINUOUS
  5
C5
 10
394.670662
 20
438.261391
 30
0.0
 11
407.876707
 21
440.0
 31
0.0
  0
LINE
  8
LC-004-003-----0
  6
CONTINUOUS
  5
C6
 10
407.876707
 20
440.0
 30
0.0
 11
394.670662
 21
441.738609
 31
0.0
  0
LINE
  8
LC-004-003-----0
  6
CONTINUOUS
  5
C7
 10
394.630623
 20
438.872254
 30
0.0
 11
403.196707
 21
440.0
 31
0.0
  0
LINE
  8
LC-004-003-----0
  6
CONTINUOUS
  5
C8
 10
403.196707
 20
440.0
 30
0.0
 11
394.630623
 21
441.127746
 31
0.0
  0
LINE
  8
LC-004-003-----0
  6
CONTINUOUS
  5
C9
 10
394.590585
 20
439.483116
 30
0.0
 11
398.516707
 21
440.0
 31
0.0
  0
LINE
  8
LC-004-003-----0
  6
CONTINUOUS
  5
CA
 10
398.516707
 20
440.0
 30
0.0
 11
394.590585
 21
440.516884
 31
0.0
  0
TEXT
  8
LC-004-003-----0
  6
CONTINUOUS
 62
     6
  5
CB
 10
293.576362
 20
450.431999
 30
0.0
 40
18.0
  1
56-160
 51
15.0
  7
LC-TXTSTYLE-150-400-0-0-D0
 72
     1
 11
335.351953
 21
450.431999
 31
0.0
  0
ENDBLK
  8
0
  5
CC
  0
BLOCK
  8
0
  5
CE
  2
*D7
 70
    65
 10
0.0
 20
0.0
 30
0.0
  3
*D7
  0
LINE
  8
LC-005-003-MTH-0
  6
CONTINUOUS
  5
CF
 10
223.494529
 20
249.762
 30
0.0
 11
189.2
 21
249.762
 31
0.0
  0
LINE
  8
LC-005-003-MTH-0
  6
CONTINUOUS
  5
D0
 10
272.556707
 20
399.762
 30
0.0
 11
189.2
 21
399.762
 31
0.0
  0
LINE
  8
LC-006-003-MTG-0
  6
CONTINUOUS
  5
D1
 10
200.0
 20
249.762
 30
0.0
 11
200.0
 21
399.762
 31
0.0
  0
LINE
  8
LC-004-003-----0
  6
CONTINUOUS
  5
D2
 10
197.650529
 20
267.608008
 30
0.0
 11
200.0
 21
249.762
 31
0.0
  0
LINE
  8
LC-004-003-----0
  6
CONTINUOUS
  5
D3
 10
200.0
 20
249.762
 30
0.0
 11
202.349471
 21
267.608008
 31
0.0
  0
LINE
  8
LC-004-003-----0
  6
CONTINUOUS
  5
D4
 10
202.349471
 20
267.608008
 30
0.0
 11
197.650529
 21
267.608008
 31
0.0
  0
LINE
  8
LC-004-003-----0
  6
CONTINUOUS
  5
D5
 10
198.261391
 20
267.648046
 30
0.0
 11
200.0
 21
254.442
 31
0.0
  0
LINE
  8
LC-004-003-----0
  6
CONTINUOUS
  5
D6
 10
200.0
 20
254.442
 30
0.0
 11
201.738609
 21
267.648046
 31
0.0
  0
LINE
  8
LC-004-003-----0
  6
CONTINUOUS
  5
D7
 10
198.872254
 20
267.688084
 30
0.0
 11
200.0
 21
259.122
 31
0.0
  0
LINE
  8
LC-004-003-----0
  6
CONTINUOUS
  5
D8
 10
200.0
 20
259.122
 30
0.0
 11
201.127746
 21
267.688084
 31
0.0
  0
LINE
  8
LC-004-003-----0
  6
CONTINUOUS
  5
D9
 10
199.483116
 20
267.728122
 30
0.0
 11
200.0
 21
263.802
 31
0.0
  0
LINE
  8
LC-004-003-----0
  6
CONTINUOUS
  5
DA
 10
200.0
 20
263.802
 30
0.0
 11
200.516884
 21
267.728122
 31
0.0
  0
LINE
  8
LC-004-003-----0
  6
CONTINUOUS
  5
DB
 10
202.349471
 20
381.915992
 30
0.0
 11
200.0
 21
399.762
 31
0.0
  0
LINE
  8
LC-004-003-----0
  6
CONTINUOUS
  5
DC
 10
200.0
 20
399.762
 30
0.0
 11
197.650529
 21
381.915992
 31
0.0
  0
LINE
  8
LC-004-003-----0
  6
CONTINUOUS
  5
DD
 10
197.650529
 20
381.915992
 30
0.0
 11
202.349471
 21
381.915992
 31
0.0
  0
LINE
  8
LC-004-003-----0
  6
CONTINUOUS
  5
DE
 10
201.738609
 20
381.875954
 30
0.0
 11
200.0
 21
395.082
 31
0.0
  0
LINE
  8
LC-004-003-----0
  6
CONTINUOUS
  5
DF
 10
200.0
 20
395.082
 30
0.0
 11
198.261391
 21
381.875954
 31
0.0
  0
LINE
  8
LC-004-003-----0
  6
CONTINUOUS
  5
E0
 10
201.127746
 20
381.835916
 30
0.0
 11
200.0
 21
390.402
 31
0.0
  0
LINE
  8
LC-004-003-----0
  6
CONTINUOUS
  5
E1
 10
200.0
 20
390.402
 30
0.0
 11
198.872254
 21
381.835916
 31
0.0
  0
LINE
  8
LC-004-003-----0
  6
CONTINUOUS
  5
E2
 10
200.516884
 20
381.795878
 30
0.0
 11
200.0
 21
385.722
 31
0.0
  0
LINE
  8
LC-004-003-----0
  6
CONTINUOUS
  5
E3
 10
200.0
 20
385.722
 30
0.0
 11
199.483116
 21
381.795878
 31
0.0
  0
TEXT
  8
LC-004-003-----0
  6
CONTINUOUS
 62
     6
  5
E4
 10
189.568001
 20
308.423387
 30
0.0
 40
18.0
  1
150
 50
90.0
 51
15.0
  7
LC-TXTSTYLE-150-400-0-0-D0
 72
     1
 11
189.568001
 21
327.557246
 31
0.0
  0
ENDBLK
  8
0
  5
E5
  0
BLOCK
  8
0
  5
E7
  2
*X8
 70
    65
 10
269.056707
 20
249.762
 30
0.0
  3
*X8
  0
LINE
  8
LC-003-005-----0
  6
CONTINUOUS
  5
E8
 10
412.35998
 20
372.762
 30
0.0
 11
412.556707
 21
372.958727
 31
0.0
  0
LINE
  8
LC-003-005-----0
  6
CONTINUOUS
  5
E9
 10
409.531553
 20
372.762
 30
0.0
 11
412.556707
 21
375.787154
 31
0.0
  0
LINE
  8
LC-003-005-----0
  6
CONTINUOUS
  5
EA
 10
407.203125
 20
373.262
 30
0.0
 11
410.203125
 21
376.262
 31
0.0
  0
LINE
  8
LC-003-005-----0
  6
CONTINUOUS
  5
EB
 10
403.874698
 20
372.762
 30
0.0
 11
407.374698
 21
376.262
 31
0.0
  0
LINE
  8
LC-003-005-----0
  6
CONTINUOUS
  5
EC
 10
401.546271
 20
373.262
 30
0.0
 11
404.546271
 21
376.262
 31
0.0
  0
LINE
  8
LC-003-005-----0
  6
CONTINUOUS
  5
ED
 10
398.217844
 20
372.762
 30
0.0
 11
401.717844
 21
376.262
 31
0.0
  0
LINE
  8
LC-003-005-----0
  6
CONTINUOUS
  5
EE
 10
395.889417
 20
373.262
 30
0.0
 11
398.889417
 21
376.262
 31
0.0
  0
LINE
  8
LC-003-005-----0
  6
CONTINUOUS
  5
EF
 10
269.56099
 20
249.762
 30
0.0
 11
272.372127
 21
252.573137
 31
0.0
  0
LINE
  8
LC-003-005-----0
  6
CONTINUOUS
  5
F0
 10
392.56099
 20
372.762
 30
0.0
 11
396.06099
 21
376.262
 31
0.0
  0
LINE
  8
LC-003-005-----0
  6
CONTINUOUS
  5
F1
 10
269.056707
 20
252.086144
 30
0.0
 11
272.556707
 21
255.586144
 31
0.0
  0
LINE
  8
LC-003-005-----0
  6
CONTINUOUS
  5
F2
 10
390.232563
 20
373.262
 30
0.0
 11
393.232563
 21
376.262
 31
0.0
  0
LINE
  8
LC-003-005-----0
  6
CONTINUOUS
  5
F3
 10
269.056707
 20
254.914571
 30
0.0
 11
272.556707
 21
258.414571
 31
0.0
  0
LINE
  8
LC-003-005-----0
  6
CONTINUOUS
  5
F4
 10
386.904136
 20
372.762
 30
0.0
 11
390.404136
 21
376.262
 31
0.0
  0
LINE
  8
LC-003-005-----0
  6
CONTINUOUS
  5
F5
 10
269.056707
 20
257.742999
 30
0.0
 11
272.556707
 21
261.242999
 31
0.0
  0
LINE
  8
LC-003-005-----0
  6
CONTINUOUS
  5
F6
 10
384.575708
 20
373.262
 30
0.0
 11
387.575708
 21
376.262
 31
0.0
  0
LINE
  8
LC-003-005-----0
  6
CONTINUOUS
  5
F7
 10
269.056707
 20
260.571426
 30
0.0
 11
272.556707
 21
264.071426
 31
0.0
  0
LINE
  8
LC-003-005-----0
  6
CONTINUOUS
  5
F8
 10
381.247281
 20
372.762
 30
0.0
 11
384.747281
 21
376.262
 31
0.0
  0
LINE
  8
LC-003-005-----0
  6
CONTINUOUS
  5
F9
 10
269.056707
 20
263.399853
 30
0.0
 11
272.556707
 21
266.899853
 31
0.0
  0
LINE
  8
LC-003-005-----0
  6
CONTINUOUS
  5
FA
 10
378.918854
 20
373.262
 30
0.0
 11
381.918854
 21
376.262
 31
0.0
  0
LINE
  8
LC-003-005-----0
  6
CONTINUOUS
  5
FB
 10
269.056707
 20
266.22828
 30
0.0
 11
272.556707
 21
269.72828
 31
0.0
  0
LINE
  8
LC-003-005-----0
  6
CONTINUOUS
  5
FC
 10
375.590427
 20
372.762
 30
0.0
 11
379.090427
 21
376.262
 31
0.0
  0
LINE
  8
LC-003-005-----0
  6
CONTINUOUS
  5
FD
 10
269.056707
 20
269.056707
 30
0.0
 11
272.556707
 21
272.556707
 31
0.0
  0
LINE
  8
LC-003-005-----0
  6
CONTINUOUS
  5
FE
 10
373.262
 20
373.262
 30
0.0
 11
376.262
 21
376.262
 31
0.0
  0
LINE
  8
LC-003-005-----0
  6
CONTINUOUS
  5
FF
 10
269.056707
 20
271.885134
 30
0.0
 11
272.556707
 21
275.385134
 31
0.0
  0
LINE
  8
LC-003-005-----0
  6
CONTINUOUS
  5
100
 10
369.933573
 20
372.762
 30
0.0
 11
373.433573
 21
376.262
 31
0.0
  0
LINE
  8
LC-003-005-----0
  6
CONTINUOUS
  5
101
 10
269.056707
 20
274.713561
 30
0.0
 11
272.556707
 21
278.213561
 31
0.0
  0
LINE
  8
LC-003-005-----0
  6
CONTINUOUS
  5
102
 10
367.605146
 20
373.262
 30
0.0
 11
370.605146
 21
376.262
 31
0.0
  0
LINE
  8
LC-003-005-----0
  6
CONTINUOUS
  5
103
 10
269.056707
 20
277.541988
 30
0.0
 11
272.556707
 21
281.041988
 31
0.0
  0
LINE
  8
LC-003-005-----0
  6
CONTINUOUS
  5
104
 10
364.276719
 20
372.762
 30
0.0
 11
367.776719
 21
376.262
 31
0.0
  0
LINE
  8
LC-003-005-----0
  6
CONTINUOUS
  5
105
 10
269.056707
 20
280.370416
 30
0.0
 11
272.556707
 21
283.870416
 31
0.0
  0
LINE
  8
LC-003-005-----0
  6
CONTINUOUS
  5
106
 10
361.948292
 20
373.262
 30
0.0
 11
364.948292
 21
376.262
 31
0.0
  0
LINE
  8
LC-003-005-----0
  6
CONTINUOUS
  5
107
 10
269.056707
 20
283.198843
 30
0.0
 11
272.556707
 21
286.698843
 31
0.0
  0
LINE
  8
LC-003-005-----0
  6
CONTINUOUS
  5
108
 10
358.619864
 20
372.762
 30
0.0
 11
362.119864
 21
376.262
 31
0.0
  0
LINE
  8
LC-003-005-----0
  6
CONTINUOUS
  5
109
 10
269.056707
 20
286.02727
 30
0.0
 11
272.556707
 21
289.52727
 31
0.0
  0
LINE
  8
LC-003-005-----0
  6
CONTINUOUS
  5
10A
 10
356.256707
 20
373.22727
 30
0.0
 11
359.291437
 21
376.262
 31
0.0
  0
LINE
  8
LC-003-005-----0
  6
CONTINUOUS
  5
10B
 10
269.056707
 20
288.855697
 30
0.0
 11
272.556707
 21
292.355697
 31
0.0
  0
LINE
  8
LC-003-005-----0
  6
CONTINUOUS
  5
10C
 10
352.96301
 20
372.762
 30
0.0
 11
356.46301
 21
376.262
 31
0.0
  0
LINE
  8
LC-003-005-----0
  6
CONTINUOUS
  5
10D
 10
269.056707
 20
291.684124
 30
0.0
 11
272.556707
 21
295.184124
 31
0.0
  0
LINE
  8
LC-003-005-----0
  6
CONTINUOUS
  5
10E
 10
350.356707
 20
372.984124
 30
0.0
 11
353.634583
 21
376.262
 31
0.0
  0
LINE
  8
LC-003-005-----0
  6
CONTINUOUS
  5
10F
 10
269.056707
 20
294.512551
 30
0.0
 11
272.556707
 21
298.012551
 31
0.0
  0
LINE
  8
LC-003-005-----0
  6
CONTINUOUS
  5
110
 10
347.306156
 20
372.762
 30
0.0
 11
347.656707
 21
373.112551
 31
0.0
  0
LINE
  8
LC-003-005-----0
  6
CONTINUOUS
  5
111
 10
347.806156
 20
373.262
 30
0.0
 11
350.806156
 21
376.262
 31
0.0
  0
LINE
  8
LC-003-005-----0
  6
CONTINUOUS
  5
112
 10
269.056707
 20
297.340978
 30
0.0
 11
272.556707
 21
300.840978
 31
0.0
  0
LINE
  8
LC-003-005-----0
  6
CONTINUOUS
  5
113
 10
344.477729
 20
372.762
 30
0.0
 11
347.977729
 21
376.262
 31
0.0
  0
LINE
  8
LC-003-005-----0
  6
CONTINUOUS
  5
114
 10
269.056707
 20
300.169405
 30
0.0
 11
272.556707
 21
303.669405
 31
0.0
  0
LINE
  8
LC-003-005-----0
  6
CONTINUOUS
  5
115
 10
341.649302
 20
372.762
 30
0.0
 11
341.756707
 21
372.869405
 31
0.0
  0
LINE
  8
LC-003-005-----0
  6
CONTINUOUS
  5
116
 10
342.149302
 20
373.262
 30
0.0
 11
345.149302
 21
376.262
 31
0.0
  0
LINE
  8
LC-003-005-----0
  6
CONTINUOUS
  5
117
 10
269.056707
 20
302.997833
 30
0.0
 11
272.556707
 21
306.497833
 31
0.0
  0
LINE
  8
LC-003-005-----0
  6
CONTINUOUS
  5
118
 10
338.820875
 20
372.762
 30
0.0
 11
342.320875
 21
376.262
 31
0.0
  0
LINE
  8
LC-003-005-----0
  6
CONTINUOUS
  5
119
 10
269.056707
 20
305.82626
 30
0.0
 11
272.556707
 21
309.32626
 31
0.0
  0
LINE
  8
LC-003-005-----0
  6
CONTINUOUS
  5
11A
 10
336.492447
 20
373.262
 30
0.0
 11
339.492447
 21
376.262
 31
0.0
  0
LINE
  8
LC-003-005-----0
  6
CONTINUOUS
  5
11B
 10
269.056707
 20
308.654687
 30
0.0
 11
272.556707
 21
312.154687
 31
0.0
  0
LINE
  8
LC-003-005-----0
  6
CONTINUOUS
  5
11C
 10
333.16402
 20
372.762
 30
0.0
 11
336.66402
 21
376.262
 31
0.0
  0
LINE
  8
LC-003-005-----0
  6
CONTINUOUS
  5
11D
 10
269.056707
 20
311.483114
 30
0.0
 11
272.556707
 21
314.983114
 31
0.0
  0
LINE
  8
LC-003-005-----0
  6
CONTINUOUS
  5
11E
 10
330.835593
 20
373.262
 30
0.0
 11
333.835593
 21
376.262
 31
0.0
  0
LINE
  8
LC-003-005-----0
  6
CONTINUOUS
  5
11F
 10
269.056707
 20
314.311541
 30
0.0
 11
272.556707
 21
317.811541
 31
0.0
  0
LINE
  8
LC-003-005-----0
  6
CONTINUOUS
  5
120
 10
327.507166
 20
372.762
 30
0.0
 11
331.007166
 21
376.262
 31
0.0
  0
LINE
  8
LC-003-005-----0
  6
CONTINUOUS
  5
121
 10
269.056707
 20
317.139968
 30
0.0
 11
272.556707
 21
320.639968
 31
0.0
  0
LINE
  8
LC-003-005-----0
  6
CONTINUOUS
  5
122
 10
325.178739
 20
373.262
 30
0.0
 11
328.178739
 21
376.262
 31
0.0
  0
LINE
  8
LC-003-005-----0
  6
CONTINUOUS
  5
123
 10
269.056707
 20
319.968395
 30
0.0
 11
272.556707
 21
323.468395
 31
0.0
  0
LINE
  8
LC-003-005-----0
  6
CONTINUOUS
  5
124
 10
321.850312
 20
372.762
 30
0.0
 11
325.350312
 21
376.262
 31
0.0
  0
LINE
  8
LC-003-005-----0
  6
CONTINUOUS
  5
125
 10
269.056707
 20
322.796822
 30
0.0
 11
272.556707
 21
326.296822
 31
0.0
  0
LINE
  8
LC-003-005-----0
  6
CONTINUOUS
  5
126
 10
319.521885
 20
373.262
 30
0.0
 11
322.521885
 21
376.262
 31
0.0
  0
LINE
  8
LC-003-005-----0
  6
CONTINUOUS
  5
127
 10
269.056707
 20
325.62525
 30
0.0
 11
272.556707
 21
329.12525
 31
0.0
  0
LINE
  8
LC-003-005-----0
  6
CONTINUOUS
  5
128
 10
316.193458
 20
372.762
 30
0.0
 11
319.693458
 21
376.262
 31
0.0
  0
LINE
  8
LC-003-005-----0
  6
CONTINUOUS
  5
129
 10
269.056707
 20
328.453677
 30
0.0
 11
272.556707
 21
331.953677
 31
0.0
  0
LINE
  8
LC-003-005-----0
  6
CONTINUOUS
  5
12A
 10
313.86503
 20
373.262
 30
0.0
 11
316.86503
 21
376.262
 31
0.0
  0
LINE
  8
LC-003-005-----0
  6
CONTINUOUS
  5
12B
 10
269.056707
 20
331.282104
 30
0.0
 11
272.556707
 21
334.782104
 31
0.0
  0
LINE
  8
LC-003-005-----0
  6
CONTINUOUS
  5
12C
 10
310.536603
 20
372.762
 30
0.0
 11
314.036603
 21
376.262
 31
0.0
  0
LINE
  8
LC-003-005-----0
  6
CONTINUOUS
  5
12D
 10
269.056707
 20
334.110531
 30
0.0
 11
272.556707
 21
337.610531
 31
0.0
  0
LINE
  8
LC-003-005-----0
  6
CONTINUOUS
  5
12E
 10
304.708176
 20
369.762
 30
0.0
 11
305.756707
 21
370.810531
 31
0.0
  0
LINE
  8
LC-003-005-----0
  6
CONTINUOUS
  5
12F
 10
308.208176
 20
373.262
 30
0.0
 11
311.208176
 21
376.262
 31
0.0
  0
LINE
  8
LC-003-005-----0
  6
CONTINUOUS
  5
130
 10
269.056707
 20
336.938958
 30
0.0
 11
272.556707
 21
340.438958
 31
0.0
  0
LINE
  8
LC-003-005-----0
  6
CONTINUOUS
  5
131
 10
303.756707
 20
371.638958
 30
0.0
 11
308.379749
 21
376.262
 31
0.0
  0
LINE
  8
LC-003-005-----0
  6
CONTINUOUS
  5
132
 10
269.056707
 20
339.767385
 30
0.0
 11
272.556707
 21
343.267385
 31
0.0
  0
LINE
  8
LC-003-005-----0
  6
CONTINUOUS
  5
133
 10
302.551322
 20
373.262
 30
0.0
 11
305.551322
 21
376.262
 31
0.0
  0
LINE
  8
LC-003-005-----0
  6
CONTINUOUS
  5
134
 10
269.056707
 20
342.595812
 30
0.0
 11
272.556707
 21
346.095812
 31
0.0
  0
LINE
  8
LC-003-005-----0
  6
CONTINUOUS
  5
135
 10
299.222895
 20
372.762
 30
0.0
 11
302.722895
 21
376.262
 31
0.0
  0
LINE
  8
LC-003-005-----0
  6
CONTINUOUS
  5
136
 10
269.056707
 20
345.424239
 30
0.0
 11
272.556707
 21
348.924239
 31
0.0
  0
LINE
  8
LC-003-005-----0
  6
CONTINUOUS
  5
137
 10
296.894468
 20
373.262
 30
0.0
 11
299.894468
 21
376.262
 31
0.0
  0
LINE
  8
LC-003-005-----0
  6
CONTINUOUS
  5
138
 10
269.056707
 20
348.252667
 30
0.0
 11
272.556707
 21
351.752667
 31
0.0
  0
LINE
  8
LC-003-005-----0
  6
CONTINUOUS
  5
139
 10
293.566041
 20
372.762
 30
0.0
 11
297.066041
 21
376.262
 31
0.0
  0
LINE
  8
LC-003-005-----0
  6
CONTINUOUS
  5
13A
 10
269.056707
 20
351.081094
 30
0.0
 11
272.556707
 21
354.581094
 31
0.0
  0
LINE
  8
LC-003-005-----0
  6
CONTINUOUS
  5
13B
 10
287.805373
 20
369.82976
 30
0.0
 11
289.556707
 21
371.581094
 31
0.0
  0
LINE
  8
LC-003-005-----0
  6
CONTINUOUS
  5
13C
 10
290.737613
 20
372.762
 30
0.0
 11
294.237613
 21
376.262
 31
0.0
  0
LINE
  8
LC-003-005-----0
  6
CONTINUOUS
  5
13D
 10
269.056707
 20
353.909521
 30
0.0
 11
272.556707
 21
357.409521
 31
0.0
  0
LINE
  8
LC-003-005-----0
  6
CONTINUOUS
  5
13E
 10
287.556707
 20
372.409521
 30
0.0
 11
291.409186
 21
376.262
 31
0.0
  0
LINE
  8
LC-003-005-----0
  6
CONTINUOUS
  5
13F
 10
269.056707
 20
356.737948
 30
0.0
 11
272.556707
 21
360.237948
 31
0.0
  0
LINE
  8
LC-003-005-----0
  6
CONTINUOUS
  5
140
 10
285.080759
 20
372.762
 30
0.0
 11
288.580759
 21
376.262
 31
0.0
  0
LINE
  8
LC-003-005-----0
  6
CONTINUOUS
  5
141
 10
269.056707
 20
359.566375
 30
0.0
 11
272.556707
 21
363.066375
 31
0.0
  0
LINE
  8
LC-003-005-----0
  6
CONTINUOUS
  5
142
 10
282.252332
 20
372.762
 30
0.0
 11
285.752332
 21
376.262
 31
0.0
  0
LINE
  8
LC-003-005-----0
  6
CONTINUOUS
  5
143
 10
269.056707
 20
362.394802
 30
0.0
 11
272.556707
 21
365.894802
 31
0.0
  0
LINE
  8
LC-003-005-----0
  6
CONTINUOUS
  5
144
 10
279.923905
 20
373.262
 30
0.0
 11
282.923905
 21
376.262
 31
0.0
  0
LINE
  8
LC-003-005-----0
  6
CONTINUOUS
  5
145
 10
269.056707
 20
365.223229
 30
0.0
 11
272.556707
 21
368.723229
 31
0.0
  0
LINE
  8
LC-003-005-----0
  6
CONTINUOUS
  5
146
 10
277.095478
 20
373.262
 30
0.0
 11
280.095478
 21
376.262
 31
0.0
  0
LINE
  8
LC-003-005-----0
  6
CONTINUOUS
  5
147
 10
269.056707
 20
368.051656
 30
0.0
 11
272.556707
 21
371.551656
 31
0.0
  0
LINE
  8
LC-003-005-----0
  6
CONTINUOUS
  5
148
 10
274.267051
 20
373.262
 30
0.0
 11
277.267051
 21
376.262
 31
0.0
  0
LINE
  8
LC-003-005-----0
  6
CONTINUOUS
  5
149
 10
269.056707
 20
370.880084
 30
0.0
 11
274.438624
 21
376.262
 31
0.0
  0
ENDBLK
  8
0
  5
14A
  0
BLOCK
  8
0
  5
14C
  2
*X9
 70
    65
 10
222.556707
 20
249.762
 30
0.0
  3
*X9
  0
LINE
  8
LC-003-005-----0
  6
CONTINUOUS
  5
14D
 10
411.948292
 20
423.262
 30
0.0
 11
412.556707
 21
423.870416
 31
0.0
  0
LINE
  8
LC-003-005-----0
  6
CONTINUOUS
  5
14E
 10
409.119864
 20
423.262
 30
0.0
 11
412.556707
 21
426.698843
 31
0.0
  0
LINE
  8
LC-003-005-----0
  6
CONTINUOUS
  5
14F
 10
406.291437
 20
423.262
 30
0.0
 11
409.291437
 21
426.262
 31
0.0
  0
LINE
  8
LC-003-005-----0
  6
CONTINUOUS
  5
150
 10
409.356707
 20
426.32727
 30
0.0
 11
409.791437
 21
426.762
 31
0.0
  0
LINE
  8
LC-003-005-----0
  6
CONTINUOUS
  5
151
 10
403.46301
 20
423.262
 30
0.0
 11
406.656707
 21
426.455697
 31
0.0
  0
LINE
  8
LC-003-005-----0
  6
CONTINUOUS
  5
152
 10
400.634583
 20
423.262
 30
0.0
 11
404.134583
 21
426.762
 31
0.0
  0
LINE
  8
LC-003-005-----0
  6
CONTINUOUS
  5
153
 10
224.306156
 20
249.762
 30
0.0
 11
226.056707
 21
251.512551
 31
0.0
  0
LINE
  8
LC-003-005-----0
  6
CONTINUOUS
  5
154
 10
397.806156
 20
423.262
 30
0.0
 11
400.806156
 21
426.262
 31
0.0
  0
LINE
  8
LC-003-005-----0
  6
CONTINUOUS
  5
155
 10
223.068329
 20
251.3526
 30
0.0
 11
226.056707
 21
254.340978
 31
0.0
  0
LINE
  8
LC-003-005-----0
  6
CONTINUOUS
  5
156
 10
394.977729
 20
423.262
 30
0.0
 11
398.477729
 21
426.762
 31
0.0
  0
LINE
  8
LC-003-005-----0
  6
CONTINUOUS
  5
157
 10
222.556707
 20
253.669405
 30
0.0
 11
226.056707
 21
257.169405
 31
0.0
  0
LINE
  8
LC-003-005-----0
  6
CONTINUOUS
  5
158
 10
392.149302
 20
423.262
 30
0.0
 11
395.149302
 21
426.262
 31
0.0
  0
LINE
  8
LC-003-005-----0
  6
CONTINUOUS
  5
159
 10
222.556707
 20
256.497833
 30
0.0
 11
226.056707
 21
259.997833
 31
0.0
  0
LINE
  8
LC-003-005-----0
  6
CONTINUOUS
  5
15A
 10
389.320875
 20
423.262
 30
0.0
 11
392.820875
 21
426.762
 31
0.0
  0
LINE
  8
LC-003-005-----0
  6
CONTINUOUS
  5
15B
 10
222.556707
 20
259.32626
 30
0.0
 11
226.056707
 21
262.82626
 31
0.0
  0
LINE
  8
LC-003-005-----0
  6
CONTINUOUS
  5
15C
 10
386.492447
 20
423.262
 30
0.0
 11
389.492447
 21
426.262
 31
0.0
  0
LINE
  8
LC-003-005-----0
  6
CONTINUOUS
  5
15D
 10
222.556707
 20
262.154687
 30
0.0
 11
226.056707
 21
265.654687
 31
0.0
  0
LINE
  8
LC-003-005-----0
  6
CONTINUOUS
  5
15E
 10
383.66402
 20
423.262
 30
0.0
 11
387.16402
 21
426.762
 31
0.0
  0
LINE
  8
LC-003-005-----0
  6
CONTINUOUS
  5
15F
 10
222.556707
 20
264.983114
 30
0.0
 11
226.056707
 21
268.483114
 31
0.0
  0
LINE
  8
LC-003-005-----0
  6
CONTINUOUS
  5
160
 10
380.835593
 20
423.262
 30
0.0
 11
383.835593
 21
426.262
 31
0.0
  0
LINE
  8
LC-003-005-----0
  6
CONTINUOUS
  5
161
 10
222.556707
 20
267.811541
 30
0.0
 11
226.056707
 21
271.311541
 31
0.0
  0
LINE
  8
LC-003-005-----0
  6
CONTINUOUS
  5
162
 10
378.007166
 20
423.262
 30
0.0
 11
381.507166
 21
426.762
 31
0.0
  0
LINE
  8
LC-003-005-----0
  6
CONTINUOUS
  5
163
 10
222.556707
 20
270.639968
 30
0.0
 11
226.056707
 21
274.139968
 31
0.0
  0
LINE
  8
LC-003-005-----0
  6
CONTINUOUS
  5
164
 10
375.178739
 20
423.262
 30
0.0
 11
378.178739
 21
426.262
 31
0.0
  0
LINE
  8
LC-003-005-----0
  6
CONTINUOUS
  5
165
 10
222.556707
 20
273.468395
 30
0.0
 11
226.056707
 21
276.968395
 31
0.0
  0
LINE
  8
LC-003-005-----0
  6
CONTINUOUS
  5
166
 10
372.350312
 20
423.262
 30
0.0
 11
375.850312
 21
426.762
 31
0.0
  0
LINE
  8
LC-003-005-----0
  6
CONTINUOUS
  5
167
 10
222.556707
 20
276.296822
 30
0.0
 11
226.056707
 21
279.796822
 31
0.0
  0
LINE
  8
LC-003-005-----0
  6
CONTINUOUS
  5
168
 10
369.521885
 20
423.262
 30
0.0
 11
372.521885
 21
426.262
 31
0.0
  0
LINE
  8
LC-003-005-----0
  6
CONTINUOUS
  5
169
 10
222.556707
 20
279.12525
 30
0.0
 11
226.056707
 21
282.62525
 31
0.0
  0
LINE
  8
LC-003-005-----0
  6
CONTINUOUS
  5
16A
 10
366.693458
 20
423.262
 30
0.0
 11
370.193458
 21
426.762
 31
0.0
  0
LINE
  8
LC-003-005-----0
  6
CONTINUOUS
  5
16B
 10
222.556707
 20
281.953677
 30
0.0
 11
226.056707
 21
285.453677
 31
0.0
  0
LINE
  8
LC-003-005-----0
  6
CONTINUOUS
  5
16C
 10
363.86503
 20
423.262
 30
0.0
 11
366.86503
 21
426.262
 31
0.0
  0
LINE
  8
LC-003-005-----0
  6
CONTINUOUS
  5
16D
 10
222.556707
 20
284.782104
 30
0.0
 11
226.056707
 21
288.282104
 31
0.0
  0
LINE
  8
LC-003-005-----0
  6
CONTINUOUS
  5
16E
 10
361.036603
 20
423.262
 30
0.0
 11
364.536603
 21
426.762
 31
0.0
  0
LINE
  8
LC-003-005-----0
  6
CONTINUOUS
  5
16F
 10
222.556707
 20
287.610531
 30
0.0
 11
226.056707
 21
291.110531
 31
0.0
  0
LINE
  8
LC-003-005-----0
  6
CONTINUOUS
  5
170
 10
358.208176
 20
423.262
 30
0.0
 11
361.208176
 21
426.262
 31
0.0
  0
LINE
  8
LC-003-005-----0
  6
CONTINUOUS
  5
171
 10
222.556707
 20
290.438958
 30
0.0
 11
226.056707
 21
293.938958
 31
0.0
  0
LINE
  8
LC-003-005-----0
  6
CONTINUOUS
  5
172
 10
355.379749
 20
423.262
 30
0.0
 11
358.879749
 21
426.762
 31
0.0
  0
LINE
  8
LC-003-005-----0
  6
CONTINUOUS
  5
173
 10
222.556707
 20
293.267385
 30
0.0
 11
226.056707
 21
296.767385
 31
0.0
  0
LINE
  8
LC-003-005-----0
  6
CONTINUOUS
  5
174
 10
352.551322
 20
423.262
 30
0.0
 11
355.551322
 21
426.262
 31
0.0
  0
LINE
  8
LC-003-005-----0
  6
CONTINUOUS
  5
175
 10
222.556707
 20
296.095812
 30
0.0
 11
226.056707
 21
299.595812
 31
0.0
  0
LINE
  8
LC-003-005-----0
  6
CONTINUOUS
  5
176
 10
349.722895
 20
423.262
 30
0.0
 11
353.222895
 21
426.762
 31
0.0
  0
LINE
  8
LC-003-005-----0
  6
CONTINUOUS
  5
177
 10
222.556707
 20
298.924239
 30
0.0
 11
236.056707
 21
312.424239
 31
0.0
  0
LINE
  8
LC-003-005-----0
  6
CONTINUOUS
  5
178
 10
346.894468
 20
423.262
 30
0.0
 11
349.894468
 21
426.262
 31
0.0
  0
LINE
  8
LC-003-005-----0
  6
CONTINUOUS
  5
179
 10
350.356707
 20
426.724239
 30
0.0
 11
350.394468
 21
426.762
 31
0.0
  0
LINE
  8
LC-003-005-----0
  6
CONTINUOUS
  5
17A
 10
222.556707
 20
301.752667
 30
0.0
 11
236.056707
 21
315.252667
 31
0.0
  0
LINE
  8
LC-003-005-----0
  6
CONTINUOUS
  5
17B
 10
344.066041
 20
423.262
 30
0.0
 11
347.566041
 21
426.762
 31
0.0
  0
LINE
  8
LC-003-005-----0
  6
CONTINUOUS
  5
17C
 10
232.556707
 20
314.581094
 30
0.0
 11
236.056707
 21
318.081094
 31
0.0
  0
LINE
  8
LC-003-005-----0
  6
CONTINUOUS
  5
17D
 10
341.237613
 20
423.262
 30
0.0
 11
344.237613
 21
426.262
 31
0.0
  0
LINE
  8
LC-003-005-----0
  6
CONTINUOUS
  5
17E
 10
344.456707
 20
426.481094
 30
0.0
 11
344.737613
 21
426.762
 31
0.0
  0
LINE
  8
LC-003-005-----0
  6
CONTINUOUS
  5
17F
 10
232.556707
 20
317.409521
 30
0.0
 11
236.056707
 21
320.909521
 31
0.0
  0
LINE
  8
LC-003-005-----0
  6
CONTINUOUS
  5
180
 10
338.409186
 20
423.262
 30
0.0
 11
341.756707
 21
426.609521
 31
0.0
  0
LINE
  8
LC-003-005-----0
  6
CONTINUOUS
  5
181
 10
232.556707
 20
320.237948
 30
0.0
 11
236.056707
 21
323.737948
 31
0.0
  0
LINE
  8
LC-003-005-----0
  6
CONTINUOUS
  5
182
 10
335.580759
 20
423.262
 30
0.0
 11
339.080759
 21
426.762
 31
0.0
  0
LINE
  8
LC-003-005-----0
  6
CONTINUOUS
  5
183
 10
232.556707
 20
323.066375
 30
0.0
 11
236.056707
 21
326.566375
 31
0.0
  0
LINE
  8
LC-003-005-----0
  6
CONTINUOUS
  5
184
 10
332.752332
 20
423.262
 30
0.0
 11
335.856707
 21
426.366375
 31
0.0
  0
LINE
  8
LC-003-005-----0
  6
CONTINUOUS
  5
185
 10
232.556707
 20
325.894802
 30
0.0
 11
236.056707
 21
329.394802
 31
0.0
  0
LINE
  8
LC-003-005-----0
  6
CONTINUOUS
  5
186
 10
329.923905
 20
423.262
 30
0.0
 11
333.423905
 21
426.762
 31
0.0
  0
LINE
  8
LC-003-005-----0
  6
CONTINUOUS
  5
187
 10
232.556707
 20
328.723229
 30
0.0
 11
236.056707
 21
332.223229
 31
0.0
  0
LINE
  8
LC-003-005-----0
  6
CONTINUOUS
  5
188
 10
327.095478
 20
423.262
 30
0.0
 11
330.095478
 21
426.262
 31
0.0
  0
LINE
  8
LC-003-005-----0
  6
CONTINUOUS
  5
189
 10
232.556707
 20
331.551656
 30
0.0
 11
236.056707
 21
335.051656
 31
0.0
  0
LINE
  8
LC-003-005-----0
  6
CONTINUOUS
  5
18A
 10
324.267051
 20
423.262
 30
0.0
 11
327.767051
 21
426.762
 31
0.0
  0
LINE
  8
LC-003-005-----0
  6
CONTINUOUS
  5
18B
 10
232.556707
 20
334.380084
 30
0.0
 11
236.056707
 21
337.880084
 31
0.0
  0
LINE
  8
LC-003-005-----0
  6
CONTINUOUS
  5
18C
 10
321.438624
 20
423.262
 30
0.0
 11
324.438624
 21
426.262
 31
0.0
  0
LINE
  8
LC-003-005-----0
  6
CONTINUOUS
  5
18D
 10
232.556707
 20
337.208511
 30
0.0
 11
236.056707
 21
340.708511
 31
0.0
  0
LINE
  8
LC-003-005-----0
  6
CONTINUOUS
  5
18E
 10
318.610196
 20
423.262
 30
0.0
 11
322.110196
 21
426.762
 31
0.0
  0
LINE
  8
LC-003-005-----0
  6
CONTINUOUS
  5
18F
 10
232.556707
 20
340.036938
 30
0.0
 11
236.056707
 21
343.536938
 31
0.0
  0
LINE
  8
LC-003-005-----0
  6
CONTINUOUS
  5
190
 10
315.781769
 20
423.262
 30
0.0
 11
318.781769
 21
426.262
 31
0.0
  0
LINE
  8
LC-003-005-----0
  6
CONTINUOUS
  5
191
 10
232.556707
 20
342.865365
 30
0.0
 11
236.056707
 21
346.365365
 31
0.0
  0
LINE
  8
LC-003-005-----0
  6
CONTINUOUS
  5
192
 10
312.953342
 20
423.262
 30
0.0
 11
316.453342
 21
426.762
 31
0.0
  0
LINE
  8
LC-003-005-----0
  6
CONTINUOUS
  5
193
 10
232.556707
 20
345.693792
 30
0.0
 11
236.056707
 21
349.193792
 31
0.0
  0
LINE
  8
LC-003-005-----0
  6
CONTINUOUS
  5
194
 10
310.124915
 20
423.262
 30
0.0
 11
313.124915
 21
426.262
 31
0.0
  0
LINE
  8
LC-003-005-----0
  6
CONTINUOUS
  5
195
 10
232.556707
 20
348.522219
 30
0.0
 11
236.056707
 21
352.022219
 31
0.0
  0
LINE
  8
LC-003-005-----0
  6
CONTINUOUS
  5
196
 10
307.296488
 20
423.262
 30
0.0
 11
310.796488
 21
426.762
 31
0.0
  0
LINE
  8
LC-003-005-----0
  6
CONTINUOUS
  5
197
 10
232.556707
 20
351.350646
 30
0.0
 11
236.056707
 21
354.850646
 31
0.0
  0
LINE
  8
LC-003-005-----0
  6
CONTINUOUS
  5
198
 10
304.468061
 20
423.262
 30
0.0
 11
307.468061
 21
426.262
 31
0.0
  0
LINE
  8
LC-003-005-----0
  6
CONTINUOUS
  5
199
 10
232.556707
 20
354.179073
 30
0.0
 11
236.056707
 21
357.679073
 31
0.0
  0
LINE
  8
LC-003-005-----0
  6
CONTINUOUS
  5
19A
 10
301.639634
 20
423.262
 30
0.0
 11
305.756707
 21
427.379073
 31
0.0
  0
LINE
  8
LC-003-005-----0
  6
CONTINUOUS
  5
19B
 10
232.556707
 20
357.007501
 30
0.0
 11
236.056707
 21
360.507501
 31
0.0
  0
LINE
  8
LC-003-005-----0
  6
CONTINUOUS
  5
19C
 10
298.811207
 20
423.262
 30
0.0
 11
301.811207
 21
426.262
 31
0.0
  0
LINE
  8
LC-003-005-----0
  6
CONTINUOUS
  5
19D
 10
303.756707
 20
428.207501
 30
0.0
 11
305.308515
 21
429.759309
 31
0.0
  0
LINE
  8
LC-003-005-----0
  6
CONTINUOUS
  5
19E
 10
232.556707
 20
359.835928
 30
0.0
 11
236.056707
 21
363.335928
 31
0.0
  0
LINE
  8
LC-003-005-----0
  6
CONTINUOUS
  5
19F
 10
295.982779
 20
423.262
 30
0.0
 11
299.482779
 21
426.762
 31
0.0
  0
LINE
  8
LC-003-005-----0
  6
CONTINUOUS
  5
1A0
 10
232.556707
 20
362.664355
 30
0.0
 11
236.056707
 21
366.164355
 31
0.0
  0
LINE
  8
LC-003-005-----0
  6
CONTINUOUS
  5
1A1
 10
293.154352
 20
423.262
 30
0.0
 11
296.154352
 21
426.262
 31
0.0
  0
LINE
  8
LC-003-005-----0
  6
CONTINUOUS
  5
1A2
 10
232.556707
 20
365.492782
 30
0.0
 11
236.056707
 21
368.992782
 31
0.0
  0
LINE
  8
LC-003-005-----0
  6
CONTINUOUS
  5
1A3
 10
290.325925
 20
423.262
 30
0.0
 11
293.825925
 21
426.762
 31
0.0
  0
LINE
  8
LC-003-005-----0
  6
CONTINUOUS
  5
1A4
 10
232.556707
 20
368.321209
 30
0.0
 11
236.056707
 21
371.821209
 31
0.0
  0
LINE
  8
LC-003-005-----0
  6
CONTINUOUS
  5
1A5
 10
273.997498
 20
409.762
 30
0.0
 11
277.571931
 21
413.336433
 31
0.0
  0
LINE
  8
LC-003-005-----0
  6
CONTINUOUS
  5
1A6
 10
287.497498
 20
423.262
 30
0.0
 11
290.997498
 21
426.762
 31
0.0
  0
LINE
  8
LC-003-005-----0
  6
CONTINUOUS
  5
1A7
 10
232.169071
 20
370.762
 30
0.0
 11
236.084148
 21
374.677077
 31
0.0
  0
LINE
  8
LC-003-005-----0
  6
CONTINUOUS
  5
1A8
 10
271.14163
 20
409.734559
 30
0.0
 11
280.871763
 21
419.464692
 31
0.0
  0
LINE
  8
LC-003-005-----0
  6
CONTINUOUS
  5
1A9
 10
284.669071
 20
423.262
 30
0.0
 11
289.556707
 21
428.149636
 31
0.0
  0
LINE
  8
LC-003-005-----0
  6
CONTINUOUS
  5
1AA
 10
231.356707
 20
372.778063
 30
0.0
 11
236.33439
 21
377.755746
 31
0.0
  0
LINE
  8
LC-003-005-----0
  6
CONTINUOUS
  5
1AB
 10
268.062961
 20
409.484317
 30
0.0
 11
271.834117
 21
413.255473
 31
0.0
  0
LINE
  8
LC-003-005-----0
  6
CONTINUOUS
  5
1AC
 10
275.558781
 20
416.980137
 30
0.0
 11
285.340644
 21
426.762
 31
0.0
  0
LINE
  8
LC-003-005-----0
  6
CONTINUOUS
  5
1AD
 10
287.556707
 20
428.978063
 30
0.0
 11
288.340644
 21
429.762
 31
0.0
  0
LINE
  8
LC-003-005-----0
  6
CONTINUOUS
  5
1AE
 10
231.356707
 20
375.60649
 30
0.0
 11
236.924652
 21
381.174435
 31
0.0
  0
LINE
  8
LC-003-005-----0
  6
CONTINUOUS
  5
1AF
 10
264.644272
 20
408.894055
 30
0.0
 11
268.839083
 21
413.088866
 31
0.0
  0
LINE
  8
LC-003-005-----0
  6
CONTINUOUS
  5
1B0
 10
278.858613
 20
423.108396
 30
0.0
 11
282.512217
 21
426.762
 31
0.0
  0
LINE
  8
LC-003-005-----0
  6
CONTINUOUS
  5
1B1
 10
231.356707
 20
378.434918
 30
0.0
 11
238.033885
 21
385.112096
 31
0.0
  0
LINE
  8
LC-003-005-----0
  6
CONTINUOUS
  5
1B2
 10
260.706611
 20
407.784822
 30
0.0
 11
265.568647
 21
412.646858
 31
0.0
  0
LINE
  8
LC-003-005-----0
  6
CONTINUOUS
  5
1B3
 10
231.356707
 20
381.263345
 30
0.0
 11
240.150145
 21
390.056782
 31
0.0
  0
LINE
  8
LC-003-005-----0
  6
CONTINUOUS
  5
1B4
 10
255.761925
 20
405.668562
 30
0.0
 11
261.91336
 21
411.819997
 31
0.0
  0
LINE
  8
LC-003-005-----0
  6
CONTINUOUS
  5
1B5
 10
231.356707
 20
384.091772
 30
0.0
 11
234.356707
 21
387.091772
 31
0.0
  0
LINE
  8
LC-003-005-----0
  6
CONTINUOUS
  5
1B6
 10
235.441113
 20
388.176178
 30
0.0
 11
257.642529
 21
410.377594
 31
0.0
  0
LINE
  8
LC-003-005-----0
  6
CONTINUOUS
  5
1B7
 10
231.356707
 20
386.920199
 30
0.0
 11
234.356707
 21
389.920199
 31
0.0
  0
LINE
  8
LC-003-005-----0
  6
CONTINUOUS
  5
1B8
 10
238.225108
 20
393.7886
 30
0.0
 11
252.030107
 21
407.593599
 31
0.0
  0
LINE
  8
LC-003-005-----0
  6
CONTINUOUS
  5
1B9
 10
231.356707
 20
389.748626
 30
0.0
 11
234.356707
 21
392.748626
 31
0.0
  0
LINE
  8
LC-003-005-----0
  6
CONTINUOUS
  5
1BA
 10
231.356707
 20
392.577053
 30
0.0
 11
234.356707
 21
395.577053
 31
0.0
  0
LINE
  8
LC-003-005-----0
  6
CONTINUOUS
  5
1BB
 10
231.356707
 20
395.40548
 30
0.0
 11
234.356707
 21
398.40548
 31
0.0
  0
LINE
  8
LC-003-005-----0
  6
CONTINUOUS
  5
1BC
 10
231.356707
 20
398.233907
 30
0.0
 11
234.356707
 21
401.233907
 31
0.0
  0
LINE
  8
LC-003-005-----0
  6
CONTINUOUS
  5
1BD
 10
231.356707
 20
401.062335
 30
0.0
 11
234.356707
 21
404.062335
 31
0.0
  0
LINE
  8
LC-003-005-----0
  6
CONTINUOUS
  5
1BE
 10
231.356707
 20
403.890762
 30
0.0
 11
234.356707
 21
406.890762
 31
0.0
  0
LINE
  8
LC-003-005-----0
  6
CONTINUOUS
  5
1BF
 10
231.356707
 20
406.719189
 30
0.0
 11
234.356707
 21
409.719189
 31
0.0
  0
LINE
  8
LC-003-005-----0
  6
CONTINUOUS
  5
1C0
 10
231.356707
 20
409.547616
 30
0.0
 11
234.356707
 21
412.547616
 31
0.0
  0
LINE
  8
LC-003-005-----0
  6
CONTINUOUS
  5
1C1
 10
231.356707
 20
412.376043
 30
0.0
 11
234.356707
 21
415.376043
 31
0.0
  0
LINE
  8
LC-003-005-----0
  6
CONTINUOUS
  5
1C2
 10
231.356707
 20
415.20447
 30
0.0
 11
234.336887
 21
418.18465
 31
0.0
  0
LINE
  8
LC-003-005-----0
  6
CONTINUOUS
  5
1C3
 10
231.356707
 20
418.032897
 30
0.0
 11
234.356707
 21
421.032897
 31
0.0
  0
LINE
  8
LC-003-005-----0
  6
CONTINUOUS
  5
1C4
 10
231.356707
 20
420.861324
 30
0.0
 11
234.012406
 21
423.517023
 31
0.0
  0
ENDBLK
  8
0
  5
1C5
  0
ENDSEC
  0
SECTION
  2
ENTITIES
  0
VIEWPORT
  8
LC-000
  5
2EA
 67
     1
 68
     1
 10
420.0
 20
297.0
 30
0.0
 40
840.0
 41
594.0
 69
     1
1001
ACAD
1000
MVIEW
1002
{
1070
    16
1010
0.0
1020
0.0
1030
0.0
1010
0.0
1020
0.0
1030
1.0
1040
0.0
1040
594.0
1040
420.0
1040
297.0
1040
50.0
1040
0.0
1040
0.0
1070
     0
1070
   100
1070
     1
1070
     1
1070
     0
1070
     0
1070
     0
1070
     0
1040
0.0
1040
0.0
1040
0.0
1040
1.0
1040
1.0
1040
0.0
1040
0.0
1070
     0
1002
{
1002
}
1002
}
  0
VIEWPORT
  8
0
  5
2EB
 67
     1
 68
     1
 10
0.0
 20
0.0
 30
0.0
 40
0.0
 41
0.0
 69
     1
1001
ACAD
1000
MVIEW
1002
{
1070
    16
1010
0.0
1020
0.0
1030
0.0
1010
0.0
1020
0.0
1030
1.0
1040
0.0
1040
594.0
1040
0.0
1040
0.0
1040
50.0
1040
0.0
1040
0.0
1070
     0
1070
   100
1070
     0
1070
     1
1070
     0
1070
     0
1070
     0
1070
     0
1040
0.0
1040
0.0
1040
0.0
1040
0.5
1040
0.5
1040
0.5
1040
0.5
1070
     0
1002
{
1002
}
1002
}
  0
INSERT
  8
0
  5
1C6
  2
*X0
 10
396.056707
 20
412.012
 30
0.0
  0
INSERT
  8
0
  5
1C7
  2
*X1
 10
396.056707
 20
370.512
 30
0.0
  0
INSERT
  8
0
  5
1C8
  2
*X2
 10
428.824536
 20
399.762
 30
0.0
  0
INSERT
  8
0
  5
1C9
  2
*X3
 10
428.824536
 20
374.762
 30
0.0
  0
DIMENSION
  8
0
  5
1CA
  2
*D4
 10
304.328973
 20
216.0
 30
0.0
 11
304.328973
 21
216.0
 31
0.0
  1
DN40
 13
272.556707
 23
253.262
 33
0.0
 14
232.556707
 24
312.762
 34
0.0
  3
LC-DIM-L-0090-02-02
  0
DIMENSION
  8
0
  5
1CB
  2
*D5
 10
289.472143
 20
180.0
 30
0.0
 11
289.472143
 21
180.0
 31
0.0
  1
DN50
 13
272.556707
 23
253.262
 33
0.0
 14
222.556707
 24
253.262
 34
0.0
  3
LC-DIM-L-0090-02-02
  0
DIMENSION
  8
0
  5
1CC
  2
*D6
 10
332.556707
 20
440.0
 30
0.0
 11
332.556707
 21
440.0
 31
0.0
  1
56-160
 13
412.556707
 23
426.762
 33
0.0
 14
252.556707
 24
379.762
 34
0.0
  3
LC-DIM-L-0090-02-02
  0
DIMENSION
  8
0
  5
1CD
  2
*D7
 10
200.0
 20
324.762
 30
0.0
 11
200.0
 21
324.762
 31
0.0
 13
272.556707
 23
399.762
 33
0.0
 14
223.494529
 24
249.762
 34
0.0
 50
90.0
  3
LC-DIM-L-0090-02-02
  0
INSERT
  8
0
  5
1CE
  2
*X8
 10
269.056707
 20
249.762
 30
0.0
  0
INSERT
  8
0
  5
1CF
  2
*X9
 10
222.556707
 20
249.762
 30
0.0
  0
LINE
  8
LC-001-002-----0
  5
1D2
 10
450.324536
 20
399.762
 30
0.0
 11
428.824536
 21
399.762
 31
0.0
  0
LINE
  8
LC-001-002-----0
  5
1D3
 10
252.556707
 20
379.762
 30
0.0
 11
252.556707
 21
306.50941
 31
0.0
  0
LINE
  8
LC-001-002-----0
  6
CONTINUOUS
 62
     1
  5
1D4
 10
232.556707
 20
370.762
 30
0.0
 11
232.556707
 21
312.762
 31
0.0
  0
LINE
  8
LC-001-002-----0
  6
CONTINUOUS
 62
     1
  5
1D5
 10
412.556707
 20
426.762
 30
0.0
 11
412.556707
 21
423.262
 31
0.0
  0
LINE
  8
LC-001-002-----0
  6
CONTINUOUS
 62
     1
  5
1D6
 10
412.556707
 20
426.762
 30
0.0
 11
407.556707
 21
426.762
 31
0.0
  0
LINE
  8
LC-001-002-----0
  6
CONTINUOUS
 62
     1
  5
1D7
 10
412.556707
 20
423.262
 30
0.0
 11
398.334131
 21
423.262
 31
0.0
  0
LINE
  8
LC-001-002-----0
  6
CONTINUOUS
 62
     1
  5
1D8
 10
272.556707
 20
372.262
 30
0.0
 11
272.556707
 21
253.262
 31
0.0
  0
LINE
  8
LC-001-002-----0
  6
CONTINUOUS
 62
     1
  5
1D9
 10
409.356707
 20
426.762
 30
0.0
 11
409.356707
 21
426.262
 31
0.0
  0
LINE
  8
LC-001-002-----0
  6
CONTINUOUS
 62
     1
  5
1DA
 10
406.656707
 20
426.762
 30
0.0
 11
406.656707
 21
426.262
 31
0.0
  0
LINE
  8
LC-001-002-----0
  6
CONTINUOUS
 62
     1
  5
1DB
 10
409.356707
 20
426.262
 30
0.0
 11
406.656707
 21
426.262
 31
0.0
  0
LINE
  8
LC-001-002-----0
  6
CONTINUOUS
 62
     1
  5
1DC
 10
271.618885
 20
249.762
 30
0.0
 11
223.494529
 21
249.762
 31
0.0
  0
LINE
  8
LC-001-002-----0
  6
CONTINUOUS
 62
     1
  5
1DD
 10
406.656707
 20
426.762
 30
0.0
 11
403.456707
 21
426.762
 31
0.0
  0
LINE
  8
LC-001-002-----0
  6
CONTINUOUS
 62
     1
  5
1DE
 10
403.456707
 20
426.762
 30
0.0
 11
403.456707
 21
426.262
 31
0.0
  0
LINE
  8
LC-001-002-----0
  6
CONTINUOUS
 62
     1
  5
1DF
 10
400.756707
 20
426.762
 30
0.0
 11
400.756707
 21
426.262
 31
0.0
  0
LINE
  8
LC-001-002-----0
  6
CONTINUOUS
 62
     1
  5
1E0
 10
403.456707
 20
426.262
 30
0.0
 11
400.756707
 21
426.262
 31
0.0
  0
LINE
  8
LC-001-002-----0
  6
CONTINUOUS
 62
     1
  5
1E1
 10
400.756707
 20
426.762
 30
0.0
 11
397.556707
 21
426.762
 31
0.0
  0
LINE
  8
LC-001-002-----0
  6
CONTINUOUS
 62
     1
  5
1E2
 10
397.556707
 20
426.762
 30
0.0
 11
397.556707
 21
426.262
 31
0.0
  0
LINE
  8
LC-001-002-----0
  6
CONTINUOUS
 62
     1
  5
1E3
 10
394.856707
 20
426.762
 30
0.0
 11
394.856707
 21
426.262
 31
0.0
  0
LINE
  8
LC-001-002-----0
  6
CONTINUOUS
 62
     1
  5
1E4
 10
397.556707
 20
426.262
 30
0.0
 11
394.856707
 21
426.262
 31
0.0
  0
LINE
  8
LC-001-002-----0
  6
CONTINUOUS
 62
     1
  5
1E5
 10
394.856707
 20
426.762
 30
0.0
 11
391.656707
 21
426.762
 31
0.0
  0
LINE
  8
LC-001-002-----0
  6
CONTINUOUS
 62
     1
  5
1E6
 10
391.656707
 20
426.762
 30
0.0
 11
391.656707
 21
426.262
 31
0.0
  0
LINE
  8
LC-001-002-----0
  6
CONTINUOUS
 62
     1
  5
1E7
 10
388.956707
 20
426.762
 30
0.0
 11
388.956707
 21
426.262
 31
0.0
  0
LINE
  8
LC-001-002-----0
  6
CONTINUOUS
 62
     1
  5
1E8
 10
391.656707
 20
426.262
 30
0.0
 11
388.956707
 21
426.262
 31
0.0
  0
LINE
  8
LC-001-002-----0
  6
CONTINUOUS
 62
     1
  5
1E9
 10
388.956707
 20
426.762
 30
0.0
 11
385.756707
 21
426.762
 31
0.0
  0
LINE
  8
LC-001-002-----0
  6
CONTINUOUS
 62
     1
  5
1EA
 10
385.756707
 20
426.762
 30
0.0
 11
385.756707
 21
426.262
 31
0.0
  0
LINE
  8
LC-001-002-----0
  6
CONTINUOUS
 62
     1
  5
1EB
 10
383.056707
 20
426.762
 30
0.0
 11
383.056707
 21
426.262
 31
0.0
  0
LINE
  8
LC-001-002-----0
  6
CONTINUOUS
 62
     1
  5
1EC
 10
385.756707
 20
426.262
 30
0.0
 11
383.056707
 21
426.262
 31
0.0
  0
LINE
  8
LC-001-002-----0
  6
CONTINUOUS
 62
     1
  5
1ED
 10
383.056707
 20
426.762
 30
0.0
 11
379.856707
 21
426.762
 31
0.0
  0
LINE
  8
LC-001-002-----0
  6
CONTINUOUS
 62
     1
  5
1EE
 10
379.856707
 20
426.762
 30
0.0
 11
379.856707
 21
426.262
 31
0.0
  0
LINE
  8
LC-001-002-----0
  6
CONTINUOUS
 62
     1
  5
1EF
 10
377.156707
 20
426.762
 30
0.0
 11
377.156707
 21
426.262
 31
0.0
  0
LINE
  8
LC-001-002-----0
  6
CONTINUOUS
 62
     1
  5
1F0
 10
379.856707
 20
426.262
 30
0.0
 11
377.156707
 21
426.262
 31
0.0
  0
LINE
  8
LC-001-002-----0
  6
CONTINUOUS
 62
     1
  5
1F1
 10
377.156707
 20
426.762
 30
0.0
 11
373.956707
 21
426.762
 31
0.0
  0
LINE
  8
LC-001-002-----0
  6
CONTINUOUS
 62
     1
  5
1F2
 10
373.956707
 20
426.762
 30
0.0
 11
373.956707
 21
426.262
 31
0.0
  0
LINE
  8
LC-001-002-----0
  6
CONTINUOUS
 62
     1
  5
1F3
 10
371.256707
 20
426.762
 30
0.0
 11
371.256707
 21
426.262
 31
0.0
  0
LINE
  8
LC-001-002-----0
  6
CONTINUOUS
 62
     1
  5
1F4
 10
373.956707
 20
426.262
 30
0.0
 11
371.256707
 21
426.262
 31
0.0
  0
LINE
  8
LC-001-002-----0
  6
CONTINUOUS
 62
     1
  5
1F5
 10
371.256707
 20
426.762
 30
0.0
 11
368.056707
 21
426.762
 31
0.0
  0
LINE
  8
LC-001-002-----0
  6
CONTINUOUS
 62
     1
  5
1F6
 10
368.056707
 20
426.762
 30
0.0
 11
368.056707
 21
426.262
 31
0.0
  0
LINE
  8
LC-001-002-----0
  6
CONTINUOUS
 62
     1
  5
1F7
 10
365.356707
 20
426.762
 30
0.0
 11
365.356707
 21
426.262
 31
0.0
  0
LINE
  8
LC-001-002-----0
  6
CONTINUOUS
 62
     1
  5
1F8
 10
368.056707
 20
426.262
 30
0.0
 11
365.356707
 21
426.262
 31
0.0
  0
LINE
  8
LC-001-002-----0
  6
CONTINUOUS
 62
     1
  5
1F9
 10
365.356707
 20
426.762
 30
0.0
 11
362.156707
 21
426.762
 31
0.0
  0
LINE
  8
LC-001-002-----0
  6
CONTINUOUS
 62
     1
  5
1FA
 10
362.156707
 20
426.762
 30
0.0
 11
362.156707
 21
426.262
 31
0.0
  0
LINE
  8
LC-001-002-----0
  6
CONTINUOUS
 62
     1
  5
1FB
 10
359.456707
 20
426.762
 30
0.0
 11
359.456707
 21
426.262
 31
0.0
  0
LINE
  8
LC-001-002-----0
  6
CONTINUOUS
 62
     1
  5
1FC
 10
362.156707
 20
426.262
 30
0.0
 11
359.456707
 21
426.262
 31
0.0
  0
LINE
  8
LC-001-002-----0
  6
CONTINUOUS
 62
     1
  5
1FD
 10
359.456707
 20
426.762
 30
0.0
 11
356.256707
 21
426.762
 31
0.0
  0
LINE
  8
LC-001-002-----0
  6
CONTINUOUS
 62
     1
  5
1FE
 10
356.256707
 20
426.762
 30
0.0
 11
356.256707
 21
426.262
 31
0.0
  0
LINE
  8
LC-001-002-----0
  6
CONTINUOUS
 62
     1
  5
1FF
 10
353.556707
 20
426.762
 30
0.0
 11
353.556707
 21
426.262
 31
0.0
  0
LINE
  8
LC-001-002-----0
  6
CONTINUOUS
 62
     1
  5
200
 10
356.256707
 20
426.262
 30
0.0
 11
353.556707
 21
426.262
 31
0.0
  0
LINE
  8
LC-001-002-----0
  6
CONTINUOUS
 62
     1
  5
201
 10
353.556707
 20
426.762
 30
0.0
 11
350.356707
 21
426.762
 31
0.0
  0
LINE
  8
LC-001-002-----0
  6
CONTINUOUS
 62
     1
  5
202
 10
350.356707
 20
426.762
 30
0.0
 11
350.356707
 21
426.262
 31
0.0
  0
LINE
  8
LC-001-002-----0
  6
CONTINUOUS
 62
     1
  5
203
 10
347.656707
 20
426.762
 30
0.0
 11
347.656707
 21
426.262
 31
0.0
  0
LINE
  8
LC-001-002-----0
  6
CONTINUOUS
 62
     1
  5
204
 10
350.356707
 20
426.262
 30
0.0
 11
347.656707
 21
426.262
 31
0.0
  0
LINE
  8
LC-001-002-----0
  6
CONTINUOUS
 62
     1
  5
205
 10
347.656707
 20
426.762
 30
0.0
 11
344.456707
 21
426.762
 31
0.0
  0
LINE
  8
LC-001-002-----0
  6
CONTINUOUS
 62
     1
  5
206
 10
344.456707
 20
426.762
 30
0.0
 11
344.456707
 21
426.262
 31
0.0
  0
LINE
  8
LC-001-002-----0
  6
CONTINUOUS
 62
     1
  5
207
 10
341.756707
 20
426.762
 30
0.0
 11
341.756707
 21
426.262
 31
0.0
  0
LINE
  8
LC-001-002-----0
  6
CONTINUOUS
 62
     1
  5
208
 10
344.456707
 20
426.262
 30
0.0
 11
341.756707
 21
426.262
 31
0.0
  0
LINE
  8
LC-001-002-----0
  6
CONTINUOUS
 62
     1
  5
209
 10
341.756707
 20
426.762
 30
0.0
 11
338.556707
 21
426.762
 31
0.0
  0
LINE
  8
LC-001-002-----0
  6
CONTINUOUS
 62
     1
  5
20A
 10
338.556707
 20
426.762
 30
0.0
 11
338.556707
 21
426.262
 31
0.0
  0
LINE
  8
LC-001-002-----0
  6
CONTINUOUS
 62
     1
  5
20B
 10
335.856707
 20
426.762
 30
0.0
 11
335.856707
 21
426.262
 31
0.0
  0
LINE
  8
LC-001-002-----0
  6
CONTINUOUS
 62
     1
  5
20C
 10
338.556707
 20
426.262
 30
0.0
 11
335.856707
 21
426.262
 31
0.0
  0
LINE
  8
LC-001-002-----0
  6
CONTINUOUS
 62
     1
  5
20D
 10
335.856707
 20
426.762
 30
0.0
 11
332.656707
 21
426.762
 31
0.0
  0
LINE
  8
LC-001-002-----0
  6
CONTINUOUS
 62
     1
  5
20E
 10
332.656707
 20
426.762
 30
0.0
 11
332.656707
 21
426.262
 31
0.0
  0
LINE
  8
LC-001-002-----0
  6
CONTINUOUS
 62
     1
  5
20F
 10
329.956707
 20
426.762
 30
0.0
 11
329.956707
 21
426.262
 31
0.0
  0
LINE
  8
LC-001-002-----0
  6
CONTINUOUS
 62
     1
  5
210
 10
332.656707
 20
426.262
 30
0.0
 11
329.956707
 21
426.262
 31
0.0
  0
LINE
  8
LC-001-002-----0
  6
CONTINUOUS
 62
     1
  5
211
 10
329.956707
 20
426.762
 30
0.0
 11
326.756707
 21
426.762
 31
0.0
  0
LINE
  8
LC-001-002-----0
  6
CONTINUOUS
 62
     1
  5
212
 10
326.756707
 20
426.762
 30
0.0
 11
326.756707
 21
426.262
 31
0.0
  0
LINE
  8
LC-001-002-----0
  6
CONTINUOUS
 62
     1
  5
213
 10
324.056707
 20
426.762
 30
0.0
 11
324.056707
 21
426.262
 31
0.0
  0
LINE
  8
LC-001-002-----0
  6
CONTINUOUS
 62
     1
  5
214
 10
326.756707
 20
426.262
 30
0.0
 11
324.056707
 21
426.262
 31
0.0
  0
LINE
  8
LC-001-002-----0
  6
CONTINUOUS
 62
     1
  5
215
 10
324.056707
 20
426.762
 30
0.0
 11
320.856707
 21
426.762
 31
0.0
  0
LINE
  8
LC-001-002-----0
  6
CONTINUOUS
 62
     1
  5
216
 10
320.856707
 20
426.762
 30
0.0
 11
320.856707
 21
426.262
 31
0.0
  0
LINE
  8
LC-001-002-----0
  6
CONTINUOUS
 62
     1
  5
217
 10
318.156707
 20
426.762
 30
0.0
 11
318.156707
 21
426.262
 31
0.0
  0
LINE
  8
LC-001-002-----0
  6
CONTINUOUS
 62
     1
  5
218
 10
320.856707
 20
426.262
 30
0.0
 11
318.156707
 21
426.262
 31
0.0
  0
LINE
  8
LC-001-002-----0
  6
CONTINUOUS
 62
     1
  5
219
 10
318.156707
 20
426.762
 30
0.0
 11
314.956707
 21
426.762
 31
0.0
  0
LINE
  8
LC-001-002-----0
  6
CONTINUOUS
 62
     1
  5
21A
 10
314.956707
 20
426.762
 30
0.0
 11
314.956707
 21
426.262
 31
0.0
  0
LINE
  8
LC-001-002-----0
  6
CONTINUOUS
 62
     1
  5
21B
 10
312.256707
 20
426.762
 30
0.0
 11
312.256707
 21
426.262
 31
0.0
  0
LINE
  8
LC-001-002-----0
  6
CONTINUOUS
 62
     1
  5
21C
 10
314.956707
 20
426.262
 30
0.0
 11
312.256707
 21
426.262
 31
0.0
  0
LINE
  8
LC-001-002-----0
  6
CONTINUOUS
 62
     1
  5
21D
 10
312.256707
 20
426.762
 30
0.0
 11
309.056707
 21
426.762
 31
0.0
  0
LINE
  8
LC-001-002-----0
  6
CONTINUOUS
 62
     1
  5
21E
 10
309.056707
 20
426.762
 30
0.0
 11
309.056707
 21
426.262
 31
0.0
  0
LINE
  8
LC-001-002-----0
  6
CONTINUOUS
 62
     1
  5
21F
 10
306.356707
 20
426.762
 30
0.0
 11
306.356707
 21
426.262
 31
0.0
  0
LINE
  8
LC-001-002-----0
  6
CONTINUOUS
 62
     1
  5
220
 10
309.056707
 20
426.262
 30
0.0
 11
306.356707
 21
426.262
 31
0.0
  0
LINE
  8
LC-001-002-----0
  6
CONTINUOUS
 62
     1
  5
221
 10
306.356707
 20
426.762
 30
0.0
 11
305.756707
 21
426.762
 31
0.0
  0
LINE
  8
LC-001-002-----0
  6
CONTINUOUS
 62
     1
  5
222
 10
303.156707
 20
426.762
 30
0.0
 11
303.156707
 21
426.262
 31
0.0
  0
LINE
  8
LC-001-002-----0
  6
CONTINUOUS
 62
     1
  5
223
 10
300.456707
 20
426.762
 30
0.0
 11
300.456707
 21
426.262
 31
0.0
  0
LINE
  8
LC-001-002-----0
  6
CONTINUOUS
 62
     1
  5
224
 10
303.156707
 20
426.262
 30
0.0
 11
300.456707
 21
426.262
 31
0.0
  0
LINE
  8
LC-001-002-----0
  6
CONTINUOUS
 62
     1
  5
225
 10
300.456707
 20
426.762
 30
0.0
 11
297.256707
 21
426.762
 31
0.0
  0
LINE
  8
LC-001-002-----0
  6
CONTINUOUS
 62
     1
  5
226
 10
297.256707
 20
426.762
 30
0.0
 11
297.256707
 21
426.262
 31
0.0
  0
LINE
  8
LC-001-002-----0
  6
CONTINUOUS
 62
     1
  5
227
 10
294.556707
 20
426.762
 30
0.0
 11
294.556707
 21
426.262
 31
0.0
  0
LINE
  8
LC-001-002-----0
  6
CONTINUOUS
 62
     1
  5
228
 10
297.256707
 20
426.262
 30
0.0
 11
294.556707
 21
426.262
 31
0.0
  0
LINE
  8
LC-001-002-----0
  6
CONTINUOUS
 62
     1
  5
229
 10
294.556707
 20
426.762
 30
0.0
 11
289.556707
 21
426.762
 31
0.0
  0
LINE
  8
LC-001-002-----0
  6
CONTINUOUS
 62
     1
  5
22A
 10
280.556707
 20
426.762
 30
0.0
 11
280.556707
 21
426.262
 31
0.0
  0
LINE
  8
LC-001-002-----0
  6
CONTINUOUS
 62
     1
  5
22B
 10
269.056707
 20
371.762
 30
0.0
 11
269.056707
 21
249.762
 31
0.0
  0
LINE
  8
LC-001-002-----0
  6
CONTINUOUS
 62
     1
  5
22C
 10
412.556707
 20
372.762
 30
0.0
 11
407.556707
 21
372.762
 31
0.0
  0
LINE
  8
LC-001-002-----0
  6
CONTINUOUS
 62
     1
  5
22D
 10
409.356707
 20
372.762
 30
0.0
 11
409.356707
 21
373.262
 31
0.0
  0
LINE
  8
LC-001-002-----0
  6
CONTINUOUS
 62
     1
  5
22E
 10
406.656707
 20
372.762
 30
0.0
 11
406.656707
 21
373.262
 31
0.0
  0
LINE
  8
LC-001-002-----0
  6
CONTINUOUS
 62
     1
  5
22F
 10
409.356707
 20
373.262
 30
0.0
 11
406.656707
 21
373.262
 31
0.0
  0
LINE
  8
LC-001-002-----0
  6
CONTINUOUS
 62
     1
  5
230
 10
406.656707
 20
372.762
 30
0.0
 11
403.456707
 21
372.762
 31
0.0
  0
LINE
  8
LC-001-002-----0
  6
CONTINUOUS
 62
     1
  5
231
 10
403.456707
 20
372.762
 30
0.0
 11
403.456707
 21
373.262
 31
0.0
  0
LINE
  8
LC-001-002-----0
  6
CONTINUOUS
 62
     1
  5
232
 10
400.756707
 20
372.762
 30
0.0
 11
400.756707
 21
373.262
 31
0.0
  0
LINE
  8
LC-001-002-----0
  6
CONTINUOUS
 62
     1
  5
233
 10
403.456707
 20
373.262
 30
0.0
 11
400.756707
 21
373.262
 31
0.0
  0
LINE
  8
LC-001-002-----0
  6
CONTINUOUS
 62
     1
  5
234
 10
400.756707
 20
372.762
 30
0.0
 11
397.556707
 21
372.762
 31
0.0
  0
LINE
  8
LC-001-002-----0
  6
CONTINUOUS
 62
     1
  5
235
 10
397.556707
 20
372.762
 30
0.0
 11
397.556707
 21
373.262
 31
0.0
  0
LINE
  8
LC-001-002-----0
  6
CONTINUOUS
 62
     1
  5
236
 10
394.856707
 20
372.762
 30
0.0
 11
394.856707
 21
373.262
 31
0.0
  0
LINE
  8
LC-001-002-----0
  6
CONTINUOUS
 62
     1
  5
237
 10
397.556707
 20
373.262
 30
0.0
 11
394.856707
 21
373.262
 31
0.0
  0
LINE
  8
LC-001-002-----0
  6
CONTINUOUS
 62
     1
  5
238
 10
394.856707
 20
372.762
 30
0.0
 11
391.656707
 21
372.762
 31
0.0
  0
LINE
  8
LC-001-002-----0
  6
CONTINUOUS
 62
     1
  5
239
 10
391.656707
 20
372.762
 30
0.0
 11
391.656707
 21
373.262
 31
0.0
  0
LINE
  8
LC-001-002-----0
  6
CONTINUOUS
 62
     1
  5
23A
 10
388.956707
 20
372.762
 30
0.0
 11
388.956707
 21
373.262
 31
0.0
  0
LINE
  8
LC-001-002-----0
  6
CONTINUOUS
 62
     1
  5
23B
 10
391.656707
 20
373.262
 30
0.0
 11
388.956707
 21
373.262
 31
0.0
  0
LINE
  8
LC-001-002-----0
  6
CONTINUOUS
 62
     1
  5
23C
 10
388.956707
 20
372.762
 30
0.0
 11
385.756707
 21
372.762
 31
0.0
  0
LINE
  8
LC-001-002-----0
  6
CONTINUOUS
 62
     1
  5
23D
 10
385.756707
 20
372.762
 30
0.0
 11
385.756707
 21
373.262
 31
0.0
  0
LINE
  8
LC-001-002-----0
  6
CONTINUOUS
 62
     1
  5
23E
 10
383.056707
 20
372.762
 30
0.0
 11
383.056707
 21
373.262
 31
0.0
  0
LINE
  8
LC-001-002-----0
  6
CONTINUOUS
 62
     1
  5
23F
 10
385.756707
 20
373.262
 30
0.0
 11
383.056707
 21
373.262
 31
0.0
  0
LINE
  8
LC-001-002-----0
  6
CONTINUOUS
 62
     1
  5
240
 10
383.056707
 20
372.762
 30
0.0
 11
379.856707
 21
372.762
 31
0.0
  0
LINE
  8
LC-001-002-----0
  6
CONTINUOUS
 62
     1
  5
241
 10
379.856707
 20
372.762
 30
0.0
 11
379.856707
 21
373.262
 31
0.0
  0
LINE
  8
LC-001-002-----0
  6
CONTINUOUS
 62
     1
  5
242
 10
377.156707
 20
372.762
 30
0.0
 11
377.156707
 21
373.262
 31
0.0
  0
LINE
  8
LC-001-002-----0
  6
CONTINUOUS
 62
     1
  5
243
 10
379.856707
 20
373.262
 30
0.0
 11
377.156707
 21
373.262
 31
0.0
  0
LINE
  8
LC-001-002-----0
  6
CONTINUOUS
 62
     1
  5
244
 10
377.156707
 20
372.762
 30
0.0
 11
373.956707
 21
372.762
 31
0.0
  0
LINE
  8
LC-001-002-----0
  6
CONTINUOUS
 62
     1
  5
245
 10
373.956707
 20
372.762
 30
0.0
 11
373.956707
 21
373.262
 31
0.0
  0
LINE
  8
LC-001-002-----0
  6
CONTINUOUS
 62
     1
  5
246
 10
371.256707
 20
372.762
 30
0.0
 11
371.256707
 21
373.262
 31
0.0
  0
LINE
  8
LC-001-002-----0
  6
CONTINUOUS
 62
     1
  5
247
 10
373.956707
 20
373.262
 30
0.0
 11
371.256707
 21
373.262
 31
0.0
  0
LINE
  8
LC-001-002-----0
  6
CONTINUOUS
 62
     1
  5
248
 10
371.256707
 20
372.762
 30
0.0
 11
368.056707
 21
372.762
 31
0.0
  0
LINE
  8
LC-001-002-----0
  6
CONTINUOUS
 62
     1
  5
249
 10
368.056707
 20
372.762
 30
0.0
 11
368.056707
 21
373.262
 31
0.0
  0
LINE
  8
LC-001-002-----0
  6
CONTINUOUS
 62
     1
  5
24A
 10
365.356707
 20
372.762
 30
0.0
 11
365.356707
 21
373.262
 31
0.0
  0
LINE
  8
LC-001-002-----0
  6
CONTINUOUS
 62
     1
  5
24B
 10
368.056707
 20
373.262
 30
0.0
 11
365.356707
 21
373.262
 31
0.0
  0
LINE
  8
LC-001-002-----0
  6
CONTINUOUS
 62
     1
  5
24C
 10
365.356707
 20
372.762
 30
0.0
 11
362.156707
 21
372.762
 31
0.0
  0
LINE
  8
LC-001-002-----0
  6
CONTINUOUS
 62
     1
  5
24D
 10
362.156707
 20
372.762
 30
0.0
 11
362.156707
 21
373.262
 31
0.0
  0
LINE
  8
LC-001-002-----0
  6
CONTINUOUS
 62
     1
  5
24E
 10
359.456707
 20
372.762
 30
0.0
 11
359.456707
 21
373.262
 31
0.0
  0
LINE
  8
LC-001-002-----0
  6
CONTINUOUS
 62
     1
  5
24F
 10
362.156707
 20
373.262
 30
0.0
 11
359.456707
 21
373.262
 31
0.0
  0
LINE
  8
LC-001-002-----0
  6
CONTINUOUS
 62
     1
  5
250
 10
359.456707
 20
372.762
 30
0.0
 11
356.256707
 21
372.762
 31
0.0
  0
LINE
  8
LC-001-002-----0
  6
CONTINUOUS
 62
     1
  5
251
 10
356.256707
 20
372.762
 30
0.0
 11
356.256707
 21
373.262
 31
0.0
  0
LINE
  8
LC-001-002-----0
  6
CONTINUOUS
 62
     1
  5
252
 10
353.556707
 20
372.762
 30
0.0
 11
353.556707
 21
373.262
 31
0.0
  0
LINE
  8
LC-001-002-----0
  6
CONTINUOUS
 62
     1
  5
253
 10
356.256707
 20
373.262
 30
0.0
 11
353.556707
 21
373.262
 31
0.0
  0
LINE
  8
LC-001-002-----0
  6
CONTINUOUS
 62
     1
  5
254
 10
353.556707
 20
372.762
 30
0.0
 11
350.356707
 21
372.762
 31
0.0
  0
LINE
  8
LC-001-002-----0
  6
CONTINUOUS
 62
     1
  5
255
 10
350.356707
 20
372.762
 30
0.0
 11
350.356707
 21
373.262
 31
0.0
  0
LINE
  8
LC-001-002-----0
  6
CONTINUOUS
 62
     1
  5
256
 10
347.656707
 20
372.762
 30
0.0
 11
347.656707
 21
373.262
 31
0.0
  0
LINE
  8
LC-001-002-----0
  6
CONTINUOUS
 62
     1
  5
257
 10
350.356707
 20
373.262
 30
0.0
 11
347.656707
 21
373.262
 31
0.0
  0
LINE
  8
LC-001-002-----0
  6
CONTINUOUS
 62
     1
  5
258
 10
347.656707
 20
372.762
 30
0.0
 11
344.456707
 21
372.762
 31
0.0
  0
LINE
  8
LC-001-002-----0
  6
CONTINUOUS
 62
     1
  5
259
 10
344.456707
 20
372.762
 30
0.0
 11
344.456707
 21
373.262
 31
0.0
  0
LINE
  8
LC-001-002-----0
  6
CONTINUOUS
 62
     1
  5
25A
 10
341.756707
 20
372.762
 30
0.0
 11
341.756707
 21
373.262
 31
0.0
  0
LINE
  8
LC-001-002-----0
  6
CONTINUOUS
 62
     1
  5
25B
 10
344.456707
 20
373.262
 30
0.0
 11
341.756707
 21
373.262
 31
0.0
  0
LINE
  8
LC-001-002-----0
  6
CONTINUOUS
 62
     1
  5
25C
 10
341.756707
 20
372.762
 30
0.0
 11
338.556707
 21
372.762
 31
0.0
  0
LINE
  8
LC-001-002-----0
  6
CONTINUOUS
 62
     1
  5
25D
 10
338.556707
 20
372.762
 30
0.0
 11
338.556707
 21
373.262
 31
0.0
  0
LINE
  8
LC-001-002-----0
  6
CONTINUOUS
 62
     1
  5
25E
 10
335.856707
 20
372.762
 30
0.0
 11
335.856707
 21
373.262
 31
0.0
  0
LINE
  8
LC-001-002-----0
  6
CONTINUOUS
 62
     1
  5
25F
 10
338.556707
 20
373.262
 30
0.0
 11
335.856707
 21
373.262
 31
0.0
  0
LINE
  8
LC-001-002-----0
  6
CONTINUOUS
 62
     1
  5
260
 10
335.856707
 20
372.762
 30
0.0
 11
332.656707
 21
372.762
 31
0.0
  0
LINE
  8
LC-001-002-----0
  6
CONTINUOUS
 62
     1
  5
261
 10
332.656707
 20
372.762
 30
0.0
 11
332.656707
 21
373.262
 31
0.0
  0
LINE
  8
LC-001-002-----0
  6
CONTINUOUS
 62
     1
  5
262
 10
329.956707
 20
372.762
 30
0.0
 11
329.956707
 21
373.262
 31
0.0
  0
LINE
  8
LC-001-002-----0
  6
CONTINUOUS
 62
     1
  5
263
 10
332.656707
 20
373.262
 30
0.0
 11
329.956707
 21
373.262
 31
0.0
  0
LINE
  8
LC-001-002-----0
  6
CONTINUOUS
 62
     1
  5
264
 10
329.956707
 20
372.762
 30
0.0
 11
326.756707
 21
372.762
 31
0.0
  0
LINE
  8
LC-001-002-----0
  6
CONTINUOUS
 62
     1
  5
265
 10
326.756707
 20
372.762
 30
0.0
 11
326.756707
 21
373.262
 31
0.0
  0
LINE
  8
LC-001-002-----0
  6
CONTINUOUS
 62
     1
  5
266
 10
324.056707
 20
372.762
 30
0.0
 11
324.056707
 21
373.262
 31
0.0
  0
LINE
  8
LC-001-002-----0
  6
CONTINUOUS
 62
     1
  5
267
 10
326.756707
 20
373.262
 30
0.0
 11
324.056707
 21
373.262
 31
0.0
  0
LINE
  8
LC-001-002-----0
  6
CONTINUOUS
 62
     1
  5
268
 10
324.056707
 20
372.762
 30
0.0
 11
320.856707
 21
372.762
 31
0.0
  0
LINE
  8
LC-001-002-----0
  6
CONTINUOUS
 62
     1
  5
269
 10
320.856707
 20
372.762
 30
0.0
 11
320.856707
 21
373.262
 31
0.0
  0
LINE
  8
LC-001-002-----0
  6
CONTINUOUS
 62
     1
  5
26A
 10
318.156707
 20
372.762
 30
0.0
 11
318.156707
 21
373.262
 31
0.0
  0
LINE
  8
LC-001-002-----0
  6
CONTINUOUS
 62
     1
  5
26B
 10
320.856707
 20
373.262
 30
0.0
 11
318.156707
 21
373.262
 31
0.0
  0
LINE
  8
LC-001-002-----0
  6
CONTINUOUS
 62
     1
  5
26C
 10
318.156707
 20
372.762
 30
0.0
 11
314.956707
 21
372.762
 31
0.0
  0
LINE
  8
LC-001-002-----0
  6
CONTINUOUS
 62
     1
  5
26D
 10
314.956707
 20
372.762
 30
0.0
 11
314.956707
 21
373.262
 31
0.0
  0
LINE
  8
LC-001-002-----0
  6
CONTINUOUS
 62
     1
  5
26E
 10
312.256707
 20
372.762
 30
0.0
 11
312.256707
 21
373.262
 31
0.0
  0
LINE
  8
LC-001-002-----0
  6
CONTINUOUS
 62
     1
  5
26F
 10
314.956707
 20
373.262
 30
0.0
 11
312.256707
 21
373.262
 31
0.0
  0
LINE
  8
LC-001-002-----0
  6
CONTINUOUS
 62
     1
  5
270
 10
312.256707
 20
372.762
 30
0.0
 11
309.056707
 21
372.762
 31
0.0
  0
LINE
  8
LC-001-002-----0
  6
CONTINUOUS
 62
     1
  5
271
 10
309.056707
 20
372.762
 30
0.0
 11
309.056707
 21
373.262
 31
0.0
  0
LINE
  8
LC-001-002-----0
  6
CONTINUOUS
 62
     1
  5
272
 10
306.356707
 20
372.762
 30
0.0
 11
306.356707
 21
373.262
 31
0.0
  0
LINE
  8
LC-001-002-----0
  6
CONTINUOUS
 62
     1
  5
273
 10
309.056707
 20
373.262
 30
0.0
 11
306.356707
 21
373.262
 31
0.0
  0
LINE
  8
LC-001-002-----0
  6
CONTINUOUS
 62
     1
  5
274
 10
306.356707
 20
372.762
 30
0.0
 11
305.756707
 21
372.762
 31
0.0
  0
LINE
  8
LC-001-002-----0
  6
CONTINUOUS
 62
     1
  5
275
 10
303.156707
 20
372.762
 30
0.0
 11
303.156707
 21
373.262
 31
0.0
  0
LINE
  8
LC-001-002-----0
  6
CONTINUOUS
 62
     1
  5
276
 10
300.456707
 20
372.762
 30
0.0
 11
300.456707
 21
373.262
 31
0.0
  0
LINE
  8
LC-001-002-----0
  6
CONTINUOUS
 62
     1
  5
277
 10
303.156707
 20
373.262
 30
0.0
 11
300.456707
 21
373.262
 31
0.0
  0
LINE
  8
LC-001-002-----0
  6
CONTINUOUS
 62
     1
  5
278
 10
300.456707
 20
372.762
 30
0.0
 11
297.256707
 21
372.762
 31
0.0
  0
LINE
  8
LC-001-002-----0
  6
CONTINUOUS
 62
     1
  5
279
 10
297.256707
 20
372.762
 30
0.0
 11
297.256707
 21
373.262
 31
0.0
  0
LINE
  8
LC-001-002-----0
  6
CONTINUOUS
 62
     1
  5
27A
 10
294.556707
 20
372.762
 30
0.0
 11
294.556707
 21
373.262
 31
0.0
  0
LINE
  8
LC-001-002-----0
  6
CONTINUOUS
 62
     1
  5
27B
 10
297.256707
 20
373.262
 30
0.0
 11
294.556707
 21
373.262
 31
0.0
  0
LINE
  8
LC-001-002-----0
  6
CONTINUOUS
 62
     1
  5
27C
 10
294.556707
 20
372.762
 30
0.0
 11
289.556707
 21
372.762
 31
0.0
  0
LINE
  8
LC-001-002-----0
  6
CONTINUOUS
 62
     1
  5
27D
 10
412.556707
 20
376.262
 30
0.0
 11
273.556707
 21
376.262
 31
0.0
  0
LINE
  8
LC-001-002-----0
  6
CONTINUOUS
 62
     1
  5
27E
 10
282.916467
 20
423.262
 30
0.0
 11
275.647236
 21
409.762
 31
0.0
  0
LINE
  8
LC-001-002-----0
  6
CONTINUOUS
 62
     1
  5
27F
 10
275.647236
 20
409.762
 30
0.0
 11
272.556707
 21
409.762
 31
0.0
  0
LINE
  8
LC-001-002-----0
  6
CONTINUOUS
 62
     1
  5
280
 10
280.556707
 20
373.262
 30
0.0
 11
273.556707
 21
373.262
 31
0.0
  0
LINE
  8
LC-001-002-----0
  6
CONTINUOUS
 62
     1
  5
281
 10
280.556707
 20
372.762
 30
0.0
 11
280.556707
 21
373.262
 31
0.0
  0
LINE
  8
LC-001-002-----0
  6
CONTINUOUS
 62
     1
  5
282
 10
273.556707
 20
413.262
 30
0.0
 11
272.556707
 21
413.262
 31
0.0
  0
LINE
  8
LC-001-002-----0
  6
CONTINUOUS
 62
     1
  5
283
 10
280.556707
 20
426.262
 30
0.0
 11
273.556707
 21
413.262
 31
0.0
  0
LINE
  8
LC-001-002-----0
  6
CONTINUOUS
 62
     1
  5
284
 10
236.056707
 20
373.262
 30
0.0
 11
236.056707
 21
311.25941
 31
0.0
  0
LINE
  8
LC-001-002-----0
  6
CONTINUOUS
 62
     1
  5
285
 10
226.056707
 20
301.75941
 30
0.0
 11
269.056707
 21
301.75941
 31
0.0
  0
LINE
  8
LC-001-002-----0
  6
CONTINUOUS
 62
     1
  5
286
 10
222.556707
 20
303.262
 30
0.0
 11
222.556707
 21
253.262
 31
0.0
  0
LINE
  8
LC-001-002-----0
  6
CONTINUOUS
 62
     1
  5
287
 10
226.056707
 20
301.75941
 30
0.0
 11
226.056707
 21
249.762
 31
0.0
  0
LINE
  8
LC-001-002-----0
  6
CONTINUOUS
 62
     1
  5
288
 10
222.556707
 20
303.262
 30
0.0
 11
232.556707
 21
312.762
 31
0.0
  0
LINE
  8
LC-001-002-----0
  6
CONTINUOUS
 62
     1
  5
289
 10
226.056707
 20
301.75941
 30
0.0
 11
236.056707
 21
311.25941
 31
0.0
  0
LINE
  8
LC-001-002-----0
  6
CONTINUOUS
 62
     1
  5
28A
 10
236.056707
 20
311.25941
 30
0.0
 11
269.056707
 21
301.75941
 31
0.0
  0
ARC
  8
LC-002-002-RND-0
  6
CONTINUOUS
  5
28C
 10
272.556707
 20
373.262
 30
0.0
 40
40.0
 50
90.0
 51
162.746147
  0
LINE
  8
LC-001-002-----0
  6
CONTINUOUS
 62
     1
  5
28D
 10
272.556707
 20
253.262
 30
0.0
 11
271.618885
 21
249.762
 31
0.0
  0
LINE
  8
LC-001-002-----0
  5
28E
 10
247.556707
 20
301.75941
 30
0.0
 11
247.556707
 21
249.762
 31
0.0
  0
LINE
  8
LC-001-002-----0
  6
CONTINUOUS
 62
     1
  5
28F
 10
222.556707
 20
253.262
 30
0.0
 11
223.494529
 21
249.762
 31
0.0
  0
ARC
  8
LC-002-002-RND-0
  6
CONTINUOUS
  5
290
 10
272.556707
 20
373.262
 30
0.0
 40
36.5
 50
90.0
 51
180.0
  0
ARC
  8
LC-002-002-RND-0
  6
CONTINUOUS
  5
291
 10
273.556707
 20
372.262
 30
0.0
 40
1.0
 50
90.0
 51
180.0
  0
ARC
  8
LC-002-002-RND-0
  6
CONTINUOUS
  5
292
 10
273.556707
 20
371.762
 30
0.0
 40
4.5
 50
90.0
 51
180.0
  0
ARC
  8
LC-002-002-RND-0
  6
DASHDOT
 62
     2
  5
293
 10
272.556707
 20
379.762
 30
0.0
 40
20.0
 50
90.0
 51
180.0
  0
LINE
  8
LC-001-002-----0
  6
CONTINUOUS
 62
     1
  5
294
 10
233.356707
 20
423.762
 30
0.0
 11
232.356707
 21
423.762
 31
0.0
  0
LINE
  8
LC-001-002-----0
  6
CONTINUOUS
 62
     1
  5
295
 10
232.556707
 20
370.762
 30
0.0
 11
231.356707
 21
370.762
 31
0.0
  0
LINE
  8
LC-001-002-----0
  6
CONTINUOUS
 62
     1
  5
296
 10
415.556707
 20
426.012
 30
0.0
 11
415.556707
 21
372.762
 31
0.0
  0
LINE
  8
LC-001-002-----0
  6
CONTINUOUS
 62
     1
  5
297
 10
407.556707
 20
429.012
 30
0.0
 11
407.556707
 21
426.762
 31
0.0
  0
LINE
  8
LC-001-002-----0
  6
CONTINUOUS
 62
     1
  5
298
 10
412.556707
 20
429.012
 30
0.0
 11
407.556707
 21
429.012
 31
0.0
  0
ARC
  8
LC-002-002-RND-0
  6
CONTINUOUS
  5
299
 10
412.556707
 20
426.012
 30
0.0
 40
3.0
 50
0.0
 51
90.0
  0
LINE
  8
LC-001-002-----0
  6
CONTINUOUS
 62
     1
  5
29A
 10
415.556707
 20
419.762
 30
0.0
 11
412.556707
 21
419.762
 31
0.0
  0
LINE
  8
LC-001-002-----0
  6
CONTINUOUS
 62
     1
  5
29B
 10
396.056707
 20
421.062
 30
0.0
 11
396.056707
 21
422.672512
 31
0.0
  0
LINE
  8
LC-001-002-----0
  6
CONTINUOUS
 62
     1
  5
29C
 10
412.311546
 20
421.062
 30
0.0
 11
402.311546
 21
421.062
 31
0.0
  0
LINE
  8
LC-001-002-----0
  6
CONTINUOUS
 62
     1
  5
29D
 10
398.256707
 20
376.262
 30
0.0
 11
396.056707
 21
376.851488
 31
0.0
  0
LINE
  8
LC-001-002-----0
  6
CONTINUOUS
 62
     1
  5
29E
 10
398.256707
 20
423.262
 30
0.0
 11
396.056707
 21
422.672512
 31
0.0
  0
LINE
  8
LC-001-002-----0
  6
CONTINUOUS
 62
     1
  5
29F
 10
412.311546
 20
378.462
 30
0.0
 11
402.311546
 21
378.462
 31
0.0
  0
ARC
  8
LC-002-002-RND-0
  6
CONTINUOUS
  5
2A0
 10
412.556707
 20
373.512
 30
0.0
 40
3.0
 50
270.0
 51
0.0
  0
LINE
  8
LC-001-002-----0
  6
CONTINUOUS
 62
     1
  5
2A1
 10
412.556707
 20
370.512
 30
0.0
 11
407.556707
 21
370.512
 31
0.0
  0
LINE
  8
LC-001-002-----0
  6
CONTINUOUS
 62
     1
  5
2A2
 10
407.556707
 20
370.512
 30
0.0
 11
407.556707
 21
372.762
 31
0.0
  0
LINE
  8
LC-001-002-----0
  6
CONTINUOUS
 62
     1
  5
2A3
 10
398.334131
 20
423.262
 30
0.0
 11
282.916467
 21
423.262
 31
0.0
  0
LINE
  8
LC-001-002-----0
  6
CONTINUOUS
 62
     1
  5
2A4
 10
408.056707
 20
412.012
 30
0.0
 11
408.056707
 21
399.762
 31
0.0
  0
LINE
  8
LC-001-002-----0
  6
CONTINUOUS
 62
     1
  5
2A5
 10
408.056707
 20
412.012
 30
0.0
 11
407.056707
 21
412.012
 31
0.0
  0
LINE
  8
LC-001-002-----0
  6
CONTINUOUS
 62
     1
  5
2A6
 10
407.056707
 20
412.012
 30
0.0
 11
407.056707
 21
399.762
 31
0.0
  0
LINE
  8
LC-001-002-----0
  6
CONTINUOUS
 62
     1
  5
2A7
 10
412.556707
 20
419.762
 30
0.0
 11
408.056707
 21
412.012
 31
0.0
  0
LINE
  8
LC-001-002-----0
  6
CONTINUOUS
 62
     1
  5
2A8
 10
412.556707
 20
419.762
 30
0.0
 11
412.556707
 21
379.762
 31
0.0
  0
LINE
  8
LC-001-002-----0
  6
CONTINUOUS
 62
     1
  5
2A9
 10
412.311546
 20
421.062
 30
0.0
 11
407.056707
 21
412.012
 31
0.0
  0
LINE
  8
LC-001-002-----0
  6
CONTINUOUS
 62
     1
  5
2AA
 10
396.056707
 20
412.012
 30
0.0
 11
396.056707
 21
399.762
 31
0.0
  0
LINE
  8
LC-001-002-----0
  6
CONTINUOUS
 62
     1
  5
2AB
 10
397.056707
 20
412.012
 30
0.0
 11
397.056707
 21
399.762
 31
0.0
  0
LINE
  8
LC-001-002-----0
  6
CONTINUOUS
 62
     1
  5
2AC
 10
397.056707
 20
412.012
 30
0.0
 11
396.056707
 21
412.012
 31
0.0
  0
LINE
  8
LC-001-002-----0
  6
CONTINUOUS
 62
     1
  5
2AD
 10
402.311546
 20
421.062
 30
0.0
 11
397.056707
 21
412.012
 31
0.0
  0
LINE
  8
LC-001-002-----0
  6
CONTINUOUS
 62
     1
  5
2AE
 10
401.311546
 20
421.062
 30
0.0
 11
396.056707
 21
412.012
 31
0.0
  0
LINE
  8
LC-001-002-----0
  6
CONTINUOUS
 62
     1
  5
2AF
 10
401.311546
 20
421.062
 30
0.0
 11
396.056707
 21
421.062
 31
0.0
  0
LINE
  8
LC-001-002-----0
  6
CONTINUOUS
 62
     1
  5
2B0
 10
408.056707
 20
387.512
 30
0.0
 11
408.056707
 21
399.762
 31
0.0
  0
LINE
  8
LC-001-002-----0
  6
CONTINUOUS
 62
     1
  5
2B1
 10
407.056707
 20
387.512
 30
0.0
 11
407.056707
 21
399.762
 31
0.0
  0
LINE
  8
LC-001-002-----0
  6
CONTINUOUS
 62
     1
  5
2B2
 10
397.056707
 20
387.512
 30
0.0
 11
397.056707
 21
399.762
 31
0.0
  0
LINE
  8
LC-001-002-----0
  6
CONTINUOUS
 62
     1
  5
2B3
 10
396.056707
 20
387.512
 30
0.0
 11
396.056707
 21
399.762
 31
0.0
  0
LINE
  8
LC-001-002-----0
  6
CONTINUOUS
 62
     1
  5
2B4
 10
396.056707
 20
378.462
 30
0.0
 11
396.056707
 21
376.851488
 31
0.0
  0
LINE
  8
LC-001-002-----0
  6
CONTINUOUS
 62
     1
  5
2B5
 10
402.311546
 20
378.462
 30
0.0
 11
397.056707
 21
387.512
 31
0.0
  0
LINE
  8
LC-001-002-----0
  6
CONTINUOUS
 62
     1
  5
2B6
 10
401.311546
 20
378.462
 30
0.0
 11
396.056707
 21
387.512
 31
0.0
  0
LINE
  8
LC-001-002-----0
  6
CONTINUOUS
 62
     1
  5
2B7
 10
412.311546
 20
378.462
 30
0.0
 11
407.056707
 21
387.512
 31
0.0
  0
LINE
  8
LC-001-002-----0
  6
CONTINUOUS
 62
     1
  5
2B8
 10
412.556707
 20
379.762
 30
0.0
 11
408.056707
 21
387.512
 31
0.0
  0
LINE
  8
LC-001-002-----0
  6
CONTINUOUS
 62
     1
  5
2B9
 10
415.556707
 20
379.762
 30
0.0
 11
412.556707
 21
379.762
 31
0.0
  0
LINE
  8
LC-001-002-----0
  6
CONTINUOUS
 62
     1
  5
2BA
 10
401.311546
 20
378.462
 30
0.0
 11
396.056707
 21
378.462
 31
0.0
  0
LINE
  8
LC-001-002-----0
  6
CONTINUOUS
 62
     1
  5
2BB
 10
412.556707
 20
376.262
 30
0.0
 11
412.556707
 21
372.762
 31
0.0
  0
LINE
  8
LC-001-002-----0
  6
CONTINUOUS
 62
     1
  5
2BC
 10
408.056707
 20
387.512
 30
0.0
 11
407.056707
 21
387.512
 31
0.0
  0
LINE
  8
LC-001-002-----0
  6
CONTINUOUS
 62
     1
  5
2BD
 10
397.056707
 20
387.512
 30
0.0
 11
396.056707
 21
387.512
 31
0.0
  0
LINE
  8
LC-001-002-----0
  5
2BE
 10
415.556707
 20
399.762
 30
0.0
 11
272.556707
 21
399.762
 31
0.0
  0
LINE
  8
LC-001-002-----0
  6
CONTINUOUS
 62
     1
  5
2BF
 10
428.824536
 20
385.101746
 30
0.0
 11
428.824536
 21
414.422254
 31
0.0
  0
LINE
  8
LC-001-002-----0
  6
CONTINUOUS
 62
     1
  5
2C0
 10
448.824536
 20
415.762
 30
0.0
 11
433.824536
 21
415.762
 31
0.0
  0
LINE
  8
LC-001-002-----0
  6
CONTINUOUS
 62
     1
  5
2C1
 10
448.824536
 20
383.762
 30
0.0
 11
433.824536
 21
383.762
 31
0.0
  0
LINE
  8
LC-001-002-----0
  6
CONTINUOUS
 62
     1
  5
2C2
 10
450.324536
 20
374.762
 30
0.0
 11
450.324536
 21
424.762
 31
0.0
  0
LINE
  8
LC-001-002-----0
  6
CONTINUOUS
 62
     1
  5
2C3
 10
450.324536
 20
424.762
 30
0.0
 11
448.824536
 21
424.762
 31
0.0
  0
LINE
  8
LC-001-002-----0
  6
CONTINUOUS
 62
     1
  5
2C4
 10
448.824536
 20
414.162
 30
0.0
 11
428.824536
 21
414.162
 31
0.0
  0
LINE
  8
LC-001-002-----0
  6
CONTINUOUS
 62
     1
  5
2C5
 10
448.824536
 20
385.362
 30
0.0
 11
428.824536
 21
385.362
 31
0.0
  0
LINE
  8
LC-001-002-----0
  6
CONTINUOUS
 62
     1
  5
2C6
 10
433.824536
 20
383.762
 30
0.0
 11
428.824536
 21
385.101746
 31
0.0
  0
LINE
  8
LC-001-002-----0
  6
CONTINUOUS
 62
     1
  5
2C7
 10
433.824536
 20
415.762
 30
0.0
 11
428.824536
 21
414.422254
 31
0.0
  0
LINE
  8
LC-001-002-----0
  6
CONTINUOUS
 62
     1
  5
2C8
 10
450.324536
 20
374.762
 30
0.0
 11
448.824536
 21
374.762
 31
0.0
  0
LINE
  8
LC-001-002-----0
  6
CONTINUOUS
 62
     1
  5
2C9
 10
448.824536
 20
415.762
 30
0.0
 11
448.824536
 21
424.762
 31
0.0
  0
LINE
  8
LC-001-002-----0
  6
CONTINUOUS
 62
     1
  5
2CA
 10
448.824536
 20
374.762
 30
0.0
 11
448.824536
 21
383.762
 31
0.0
  0
LINE
  8
LC-001-002-----0
  6
CONTINUOUS
 62
     1
  5
2CB
 10
448.824536
 20
414.162
 30
0.0
 11
448.824536
 21
385.362
 31
0.0
  0
LINE
  8
LC-001-002-----0
  6
CONTINUOUS
 62
     1
  5
2CC
 10
289.056707
 20
429.762
 30
0.0
 11
288.056707
 21
429.762
 31
0.0
  0
LINE
  8
LC-001-002-----0
  6
CONTINUOUS
 62
     1
  5
2CD
 10
287.556707
 20
426.762
 30
0.0
 11
287.556707
 21
429.262
 31
0.0
  0
LINE
  8
LC-001-002-----0
  6
CONTINUOUS
 62
     1
  5
2CE
 10
289.556707
 20
426.762
 30
0.0
 11
289.556707
 21
429.262
 31
0.0
  0
LINE
  8
LC-001-002-----0
  6
CONTINUOUS
 62
     1
  5
2CF
 10
287.556707
 20
426.762
 30
0.0
 11
280.556707
 21
426.762
 31
0.0
  0
ARC
  8
LC-002-002-RND-0
  6
CONTINUOUS
  5
2D0
 10
288.056707
 20
429.262
 30
0.0
 40
0.5
 50
90.0
 51
180.0
  0
ARC
  8
LC-002-002-RND-0
  6
CONTINUOUS
  5
2D1
 10
289.056707
 20
429.262
 30
0.0
 40
0.5
 50
0.0
 51
90.0
  0
LINE
  8
LC-001-002-----0
  6
CONTINUOUS
 62
     1
  5
2D2
 10
303.756707
 20
426.762
 30
0.0
 11
303.756707
 21
429.262
 31
0.0
  0
LINE
  8
LC-001-002-----0
  6
CONTINUOUS
 62
     1
  5
2D3
 10
305.756707
 20
426.762
 30
0.0
 11
305.756707
 21
429.262
 31
0.0
  0
LINE
  8
LC-001-002-----0
  6
CONTINUOUS
 62
     1
  5
2D4
 10
304.256707
 20
429.762
 30
0.0
 11
305.256707
 21
429.762
 31
0.0
  0
ARC
  8
LC-002-002-RND-0
  6
CONTINUOUS
  5
2D5
 10
304.256707
 20
429.262
 30
0.0
 40
0.5
 50
90.0
 51
180.0
  0
ARC
  8
LC-002-002-RND-0
  6
CONTINUOUS
  5
2D6
 10
305.256707
 20
429.262
 30
0.0
 40
0.5
 50
0.0
 51
90.0
  0
LINE
  8
LC-001-002-----0
  6
CONTINUOUS
 62
     1
  5
2D7
 10
303.756707
 20
426.762
 30
0.0
 11
303.156707
 21
426.762
 31
0.0
  0
LINE
  8
LC-001-002-----0
  6
CONTINUOUS
 62
     1
  5
2D8
 10
289.056707
 20
369.762
 30
0.0
 11
288.056707
 21
369.762
 31
0.0
  0
LINE
  8
LC-001-002-----0
  6
CONTINUOUS
 62
     1
  5
2D9
 10
287.556707
 20
372.762
 30
0.0
 11
287.556707
 21
370.262
 31
0.0
  0
LINE
  8
LC-001-002-----0
  6
CONTINUOUS
 62
     1
  5
2DA
 10
289.556707
 20
372.762
 30
0.0
 11
289.556707
 21
370.262
 31
0.0
  0
ARC
  8
LC-002-002-RND-0
  6
CONTINUOUS
  5
2DB
 10
288.056707
 20
370.262
 30
0.0
 40
0.5
 50
180.0
 51
270.0
  0
ARC
  8
LC-002-002-RND-0
  6
CONTINUOUS
  5
2DC
 10
289.056707
 20
370.262
 30
0.0
 40
0.5
 50
270.0
 51
0.0
  0
LINE
  8
LC-001-002-----0
  6
CONTINUOUS
 62
     1
  5
2DD
 10
303.756707
 20
372.762
 30
0.0
 11
303.756707
 21
370.262
 31
0.0
  0
LINE
  8
LC-001-002-----0
  6
CONTINUOUS
 62
     1
  5
2DE
 10
305.756707
 20
372.762
 30
0.0
 11
305.756707
 21
370.262
 31
0.0
  0
LINE
  8
LC-001-002-----0
  6
CONTINUOUS
 62
     1
  5
2DF
 10
304.256707
 20
369.762
 30
0.0
 11
305.256707
 21
369.762
 31
0.0
  0
ARC
  8
LC-002-002-RND-0
  6
CONTINUOUS
  5
2E0
 10
304.256707
 20
370.262
 30
0.0
 40
0.5
 50
180.0
 51
270.0
  0
ARC
  8
LC-002-002-RND-0
  6
CONTINUOUS
  5
2E1
 10
305.256707
 20
370.262
 30
0.0
 40
0.5
 50
270.0
 51
0.0
  0
LINE
  8
LC-001-002-----0
  6
CONTINUOUS
 62
     1
  5
2E2
 10
287.556707
 20
372.762
 30
0.0
 11
280.556707
 21
372.762
 31
0.0
  0
LINE
  8
LC-001-002-----0
  6
CONTINUOUS
 62
     1
  5
2E3
 10
303.756707
 20
372.762
 30
0.0
 11
303.156707
 21
372.762
 31
0.0
  0
LINE
  8
LC-001-002-----0
  6
CONTINUOUS
 62
     1
  5
2E4
 10
231.356707
 20
422.762
 30
0.0
 11
231.356707
 21
370.762
 31
0.0
  0
LINE
  8
LC-001-002-----0
  6
CONTINUOUS
 62
     1
  5
2E5
 10
234.356707
 20
422.762
 30
0.0
 11
234.356707
 21
385.126232
 31
0.0
  0
ARC
  8
LC-002-002-RND-0
  6
CONTINUOUS
  5
2E6
 10
232.356707
 20
422.762
 30
0.0
 40
1.0
 50
90.0
 51
180.0
  0
ARC
  8
LC-001-002-----0
  6
CONTINUOUS
 62
     1
  5
2E7
 10
247.170466
 20
419.37471
 30
0.0
 40
12.888638
 50
173.820903
 51
289.002991
  0
ARC
  8
LC-002-002-RND-0
  6
CONTINUOUS
  5
2E8
 10
233.356707
 20
422.762
 30
0.0
 40
1.0
 50
0.0
 51
90.0
  0
ENDSEC
  0
EOF
