  0
SECTION
  2
HEADER
  9
$ACADVER
  1
AC1009
  9
$INSBASE
 10
0.0
 20
0.0
 30
0.0
  9
$EXTMIN
 10
-315.0
 20
-148.5
 30
0.0
  9
$EXTMAX
 10
525.0
 20
445.5
 30
0.0
  9
$LIMMIN
 10
-315.0
 20
-148.5
  9
$LIMMAX
 10
525.0
 20
445.5
  9
$ORTHOMODE
 70
     0
  9
$REGENMODE
 70
     1
  9
$FILLMODE
 70
     1
  9
$QTEXTMODE
 70
     0
  9
$MIRRTEXT
 70
     1
  9
$DRAGMODE
 70
     2
  9
$LTSCALE
 40
2.0
  9
$OSMODE
 70
     0
  9
$ATTMODE
 70
     1
  9
$TEXTSIZE
 40
0.2
  9
$TRACEWID
 40
0.05
  9
$TEXTSTYLE
  7
STANDARD
  9
$CLAYER
  8
0
  9
$CELTYPE
  6
BYLAYER
  9
$CECOLOR
 62
     7
  9
$DIMSCALE
 40
2.0
  9
$DIMASZ
 40
3.5
  9
$DIMEXO
 40
0.0625
  9
$DIMDLI
 40
0.38
  9
$DIMRND
 40
0.0
  9
$DIMDLE
 40
0.0
  9
$DIMEXE
 40
0.18
  9
$DIMTP
 40
0.0
  9
$DIMTM
 40
0.0
  9
$DIMTXT
 40
3.5
  9
$DIMCEN
 40
0.09
  9
$DIMTSZ
 40
0.0
  9
$DIMTOL
 70
     0
  9
$DIMLIM
 70
     0
  9
$DIMTIH
 70
     1
  9
$DIMTOH
 70
     1
  9
$DIMSE1
 70
     0
  9
$DIMSE2
 70
     0
  9
$DIMTAD
 70
     1
  9
$DIMZIN
 70
     0
  9
$DIMBLK
  1

  9
$DIMASO
 70
     1
  9
$DIMSHO
 70
     1
  9
$DIMPOST
  1

  9
$DIMAPOST
  1

  9
$DIMALT
 70
     0
  9
$DIMALTD
 70
     2
  9
$DIMALTF
 40
25.4
  9
$DIMLFAC
 40
1.0
  9
$DIMTOFL
 70
     0
  9
$DIMTVP
 40
0.0
  9
$DIMTIX
 70
     0
  9
$DIMSOXD
 70
     0
  9
$DIMSAH
 70
     0
  9
$DIMBLK1
  1

  9
$DIMBLK2
  1

  9
$DIMSTYLE
  2
STANDARD
  9
$DIMCLRD
 70
     0
  9
$DIMCLRE
 70
     0
  9
$DIMCLRT
 70
     0
  9
$DIMTFAC
 40
1.0
  9
$DIMGAP
 40
0.09
  9
$LUNITS
 70
     2
  9
$LUPREC
 70
     2
  9
$AXISMODE
 70
     0
  9
$AXISUNIT
 10
0.0
 20
0.0
  9
$SKETCHINC
 40
0.1
  9
$FILLETRAD
 40
0.0
  9
$AUNITS
 70
     0
  9
$AUPREC
 70
     0
  9
$MENU
  1
acad
  9
$ELEVATION
 40
0.0
  9
$PELEVATION
 40
0.0
  9
$THICKNESS
 40
0.0
  9
$LIMCHECK
 70
     0
  9
$BLIPMODE
 70
     1
  9
$CHAMFERA
 40
0.0
  9
$CHAMFERB
 40
0.0
  9
$SKPOLY
 70
     0
  9
$TDCREATE
 40
0.000000000
  9
$TDUPDATE
 40
0.000000000
  9
$TDINDWG
 40
0.0000000000
  9
$TDUSRTIMER
 40
0.0000000000
  9
$USRTIMER
 70
     1
  9
$ANGBASE
 50
0.0
  9
$ANGDIR
 70
     0
  9
$PDMODE
 70
     0
  9
$PDSIZE
 40
0.0
  9
$PLINEWID
 40
0.0
  9
$COORDS
 70
     0
  9
$SPLFRAME
 70
     0
  9
$SPLINETYPE
 70
     6
  9
$SPLINESEGS
 70
     8
  9
$ATTDIA
 70
     0
  9
$ATTREQ
 70
     1
  9
$HANDLING
 70
     1
  9
$HANDSEED
  5
109
  9
$SURFTAB1
 70
     6
  9
$SURFTAB2
 70
     6
  9
$SURFTYPE
 70
     6
  9
$SURFU
 70
     6
  9
$SURFV
 70
     6
  9
$UCSNAME
  2

  9
$UCSORG
 10
0.0
 20
0.0
 30
0.0
  9
$UCSXDIR
 10
1.0
 20
0.0
 30
0.0
  9
$UCSYDIR
 10
0.0
 20
1.0
 30
0.0
  9
$PUCSNAME
  2

  9
$PUCSORG
 10
0.0
 20
0.0
 30
0.0
  9
$PUCSXDIR
 10
1.0
 20
0.0
 30
0.0
  9
$PUCSYDIR
 10
0.0
 20
1.0
 30
0.0
  9
$USERI1
 70
     0
  9
$USERI2
 70
     0
  9
$USERI3
 70
     0
  9
$USERI4
 70
     0
  9
$USERI5
 70
     0
  9
$USERR1
 40
0.0
  9
$USERR2
 40
0.0
  9
$USERR3
 40
0.0
  9
$USERR4
 40
0.0
  9
$USERR5
 40
0.0
  9
$WORLDVIEW
 70
     1
  9
$SHADEDGE
 70
     3
  9
$SHADEDIF
 70
    70
  9
$TILEMODE
 70
     1
  9
$MAXACTVP
 70
    16
  9
$PINSBASE
 10
0.0
 20
0.0
 30
0.0
  9
$PLIMCHECK
 70
     0
  9
$PEXTMIN
 10
1.000000E+20
 20
1.000000E+20
 30
1.000000E+20
  9
$PEXTMAX
 10
-1.000000E+20
 20
-1.000000E+20
 30
-1.000000E+20
  9
$PLIMMIN
 10
-315.0
 20
-148.5
  9
$PLIMMAX
 10
525.0
 20
445.5
  9
$UNITMODE
 70
     0
  9
$VISRETAIN
 70
     0
  9
$PLINEGEN
 70
     1
  9
$PSLTSCALE
 70
     0
  9
$TREEDEPTH
 70
  3020
  9
$DWGCODEPAGE
  3
dos850
  0
ENDSEC
  0
SECTION
  2
TABLES
  0
TABLE
  2
VPORT
 70
     1
  0
VPORT
  2
*ACTIVE
 70
     0
 10
0.0
 20
0.0
 11
1.0
 21
1.0
 12
420.0
 22
297.0
 13
0.0
 23
0.0
 14
1.0
 24
1.0
 15
0.0
 25
0.0
 16
0.0
 26
0.0
 36
1.0
 17
-315.0
 27
-148.5
 37
0.0
 40
594.0
 41
1.604229
 42
50.0
 43
0.0
 44
0.0
 50
0.0
 51
0.0
 71
     0
 72
   100
 73
     1
 74
     1
 75
     0
 76
     0
 77
     0
 78
     0
  0
ENDTAB
  0
TABLE
  2
LTYPE
 70
     4
  0
LTYPE
  2
CONTINUOUS
 70
    64
  3
Solid line
 72
    65
 73
     0
 40
0.0
  0
LTYPE
  2
DASHED
 70
    64
  3
__ __ __ __ __
 72
    65
 73
     2
 40
6.25
 49
5.0
 49
-1.25
  0
LTYPE
  2
DASHDOT
 70
    64
  3
__ . __ . __ . __ . __
 72
    65
 73
     4
 40
7.5
 49
5.0
 49
-1.25
 49
0.0
 49
-1.25
  0
LTYPE
  2
CENTER
 70
    64
  3
__ . __ . __ . __ . __
 72
    65
 73
     4
 40
7.5
 49
5.0
 49
-1.25
 49
0.0
 49
-1.25
  0
ENDTAB
  0
TABLE
  2
LAYER
 70
    10
  0
LAYER
  2
0
 70
     0
 62
     7
  6
CONTINUOUS
  0
LAYER
  2
LC-INFO-1-2-MM-A3-0
 70
     1
 62
    -1
  6
CONTINUOUS
  0
LAYER
  2
LC-003-005-----0
 70
     0
 62
     2
  6
CONTINUOUS
  0
LAYER
  2
LC-006-003-MTH-0
 70
     0
 62
     2
  6
CONTINUOUS
  0
LAYER
  2
LC-007-003-MTG-0
 70
     0
 62
     2
  6
CONTINUOUS
  0
LAYER
  2
LC-005-003-----0
 70
     0
 62
     2
  6
CONTINUOUS
  0
LAYER
  2
LC-001-002-----0
 70
     0
 62
     1
  6
CONTINUOUS
  0
LAYER
  2
LC-002-006-MLN-0
 70
     0
 62
     2
  6
CENTER
  0
LAYER
  2
LC-004-002-RND-0
 70
     0
 62
     1
  6
CONTINUOUS
  0
LAYER
  2
LC-000
 70
     0
 62
     7
  6
CONTINUOUS
  0
ENDTAB
  0
TABLE
  2
STYLE
 70
     4
  0
STYLE
  2
STANDARD
 70
     0
 40
0.0
 41
1.0
 50
0.0
 71
     0
 42
0.0
  3
txt
  4

  0
STYLE
  2
LC-STANDARD
 70
    64
 40
0.0
 41
1.0
 50
0.0
 71
     0
 42
3.5
  3
MONOTXT
  4

  0
STYLE
  2
LC-TXTSTYLE-150-400-0-0-D2
 70
    64
 40
0.0
 41
1.0
 50
15.0
 71
     0
 42
3.5
  3
MONOTXT
  4

  0
STYLE
  2
LC-TXTSTYLE-150-400-0-0-D3
 70
    64
 40
0.0
 41
1.0
 50
15.0
 71
     0
 42
3.5
  3
LC-STANDARD
  4

  0
ENDTAB
  0
TABLE
  2
VIEW
 70
     0
  0
ENDTAB
  0
TABLE
  2
UCS
 70
     0
  0
ENDTAB
  0
TABLE
  2
APPID
 70
     1
  0
APPID
  2
ACAD
 70
     0
  0
ENDTAB
  0
TABLE
  2
DIMSTYLE
 70
     3
  0
DIMSTYLE
  2
STANDARD
 70
     0
  3

  4

  5

  6

  7

 40
1.0
 41
0.18
 42
0.0625
 43
0.38
 44
0.18
 45
0.0
 46
0.0
 47
0.0
 48
0.0
 71
     0
 72
     0
 73
     1
 74
     1
 75
     0
 76
     0
 77
     0
 78
     0
140
0.18
141
0.09
142
0.0
143
25.4
144
1.0
145
0.0
146
1.0
147
0.09
170
     0
171
     2
172
     0
173
     0
174
     0
175
     0
176
     0
177
     0
178
     0
  0
DIMSTYLE
  2
LC-STANDARD
 70
     0
  3

  4

  5

  6

  7

 40
1.0
 41
3.5
 42
0.0
 43
7.5
 44
1.8
 45
0.0
 46
0.0
 47
0.0
 48
0.0
 71
     0
 72
     0
 73
     0
 74
     0
 75
     0
 76
     0
 77
     1
 78
     8
140
3.5
141
0.0
142
0.0
143
25.4
144
1.0
145
0.0
146
0.71
147
1.5
170
     0
171
     2
172
     1
173
     0
174
     0
175
     0
176
     0
177
     0
178
     3
  0
DIMSTYLE
  2
LC-DIM-L-0090-02-02
 70
     0
  3

  4

  5

  6

  7

 40
2.0
 41
3.5
 42
0.0
 43
7.5
 44
1.8
 45
0.0
 46
0.0
 47
0.0
 48
0.0
 71
     0
 72
     0
 73
     0
 74
     0
 75
     0
 76
     0
 77
     1
 78
     8
140
9.0
141
0.0
142
0.0
143
25.4
144
1.0
145
0.0
146
0.71
147
1.5
170
     0
171
     2
172
     0
173
     0
174
     0
175
     0
176
     2
177
     2
178
     6
  0
ENDTAB
  0
ENDSEC
  0
SECTION
  2
BLOCKS
  0
BLOCK
  8
0
  5
23
  2
*X0
 70
    65
 10
146.912273
 20
194.798915
 30
0.0
  3
*X0
  0
LINE
  8
LC-003-005-----0
  6
DASHED
  5
26
 10
158.155361
 20
194.924914
 30
0.0
 11
158.905758
 21
195.67531
 31
0.0
  0
LINE
  8
LC-003-005-----0
  6
DASHED
  5
27
 10
157.101337
 20
196.699316
 30
0.0
 11
158.320604
 21
197.918584
 31
0.0
  0
LINE
  8
LC-003-005-----0
  6
DASHED
  5
28
 10
163.900935
 20
203.498915
 30
0.0
 11
166.812273
 21
206.410253
 31
0.0
  0
LINE
  8
LC-003-005-----0
  6
CONTINUOUS
  5
29
 10
155.030784
 20
200.285618
 30
0.0
 11
157.931072
 21
203.185906
 31
0.0
  0
LINE
  8
LC-003-005-----0
  6
CONTINUOUS
  5
2A
 10
164.412273
 20
209.667107
 30
0.0
 11
169.362273
 21
214.617107
 31
0.0
  0
LINE
  8
LC-003-005-----0
  6
CONTINUOUS
  5
2B
 10
149.515653
 20
197.598915
 30
0.0
 11
150.862273
 21
198.945534
 31
0.0
  0
LINE
  8
LC-003-005-----0
  6
CONTINUOUS
  5
2C
 10
150.974331
 20
199.057593
 30
0.0
 11
153.484067
 21
201.567328
 31
0.0
  0
LINE
  8
LC-003-005-----0
  6
CONTINUOUS
  5
2D
 10
164.412273
 20
212.495534
 30
0.0
 11
167.615653
 21
215.698915
 31
0.0
  0
ENDBLK
  8
0
  5
2E
  0
BLOCK
  8
0
  5
30
  2
*X1
 70
    65
 10
46.662273
 20
194.798915
 30
0.0
  3
*X1
  0
LINE
  8
LC-003-005-----0
  6
DASHED
  5
31
 10
67.491267
 20
197.598915
 30
0.0
 11
68.935397
 21
199.043045
 31
0.0
  0
LINE
  8
LC-003-005-----0
  6
DASHED
  5
32
 10
65.162273
 20
198.098348
 30
0.0
 11
67.005954
 21
199.942028
 31
0.0
  0
LINE
  8
LC-003-005-----0
  6
CONTINUOUS
  5
33
 10
57.13454
 20
195.727469
 30
0.0
 11
60.039008
 21
198.631938
 31
0.0
  0
LINE
  8
LC-003-005-----0
  6
CONTINUOUS
  5
34
 10
61.6883
 20
200.281229
 30
0.0
 11
62.858609
 21
201.451538
 31
0.0
  0
LINE
  8
LC-003-005-----0
  6
CONTINUOUS
  5
35
 10
58.169806
 20
199.591162
 30
0.0
 11
60.784937
 21
202.206293
 31
0.0
  0
LINE
  8
LC-003-005-----0
  6
DASHED
  5
36
 10
55.467284
 20
202.545494
 30
0.0
 11
56.637593
 21
203.715803
 31
0.0
  0
LINE
  8
LC-003-005-----0
  6
DASHED
  5
37
 10
53.393611
 20
203.300249
 30
0.0
 11
54.56392
 21
204.470558
 31
0.0
  0
LINE
  8
LC-003-005-----0
  6
CONTINUOUS
  5
38
 10
49.212273
 20
204.775765
 30
0.0
 11
51.612273
 21
207.175765
 31
0.0
  0
LINE
  8
LC-003-005-----0
  6
CONTINUOUS
  5
39
 10
49.212273
 20
207.604192
 30
0.0
 11
51.612273
 21
210.004192
 31
0.0
  0
LINE
  8
LC-003-005-----0
  6
DASHED
  5
3A
 10
46.662273
 20
210.711046
 30
0.0
 11
51.045294
 21
215.094067
 31
0.0
  0
LINE
  8
LC-003-005-----0
  6
DASHED
  5
3B
 10
46.662273
 20
213.539473
 30
0.0
 11
48.821714
 21
215.698915
 31
0.0
  0
ENDBLK
  8
0
  5
3C
  0
BLOCK
  8
0
  5
3E
  2
*D2
 70
    65
 10
0.0
 20
0.0
 30
0.0
  3
*D2
  0
LINE
  8
LC-006-003-MTH-0
  6
CONTINUOUS
  5
40
 10
46.662273
 20
215.698915
 30
0.0
 11
46.662273
 21
298.8
 31
0.0
  0
LINE
  8
LC-006-003-MTH-0
  6
CONTINUOUS
  5
41
 10
169.362273
 20
215.698915
 30
0.0
 11
169.362273
 21
298.8
 31
0.0
  0
LINE
  8
LC-007-003-MTG-0
  6
CONTINUOUS
  5
43
 10
46.662273
 20
288.0
 30
0.0
 11
169.362273
 21
288.0
 31
0.0
  0
LINE
  8
LC-005-003-----0
  6
CONTINUOUS
  5
45
 10
64.50828
 20
290.349471
 30
0.0
 11
46.662273
 21
288.0
 31
0.0
  0
LINE
  8
LC-005-003-----0
  6
CONTINUOUS
  5
46
 10
46.662273
 20
288.0
 30
0.0
 11
64.50828
 21
285.650529
 31
0.0
  0
LINE
  8
LC-005-003-----0
  6
CONTINUOUS
  5
47
 10
64.50828
 20
285.650529
 30
0.0
 11
64.50828
 21
290.349471
 31
0.0
  0
LINE
  8
LC-005-003-----0
  6
CONTINUOUS
  5
48
 10
64.548318
 20
289.738609
 30
0.0
 11
51.342273
 21
288.0
 31
0.0
  0
LINE
  8
LC-005-003-----0
  6
CONTINUOUS
  5
49
 10
51.342273
 20
288.0
 30
0.0
 11
64.548318
 21
286.261391
 31
0.0
  0
LINE
  8
LC-005-003-----0
  6
CONTINUOUS
  5
4A
 10
64.588356
 20
289.127746
 30
0.0
 11
56.022273
 21
288.0
 31
0.0
  0
LINE
  8
LC-005-003-----0
  6
CONTINUOUS
  5
4B
 10
56.022273
 20
288.0
 30
0.0
 11
64.588356
 21
286.872254
 31
0.0
  0
LINE
  8
LC-005-003-----0
  6
CONTINUOUS
  5
4C
 10
64.628395
 20
288.516884
 30
0.0
 11
60.702273
 21
288.0
 31
0.0
  0
LINE
  8
LC-005-003-----0
  6
CONTINUOUS
  5
4D
 10
60.702273
 20
288.0
 30
0.0
 11
64.628395
 21
287.483116
 31
0.0
  0
LINE
  8
LC-005-003-----0
  6
CONTINUOUS
  5
4E
 10
151.516265
 20
285.650529
 30
0.0
 11
169.362273
 21
288.0
 31
0.0
  0
LINE
  8
LC-005-003-----0
  6
CONTINUOUS
  5
4F
 10
169.362273
 20
288.0
 30
0.0
 11
151.516265
 21
290.349471
 31
0.0
  0
LINE
  8
LC-005-003-----0
  6
CONTINUOUS
  5
50
 10
151.516265
 20
290.349471
 30
0.0
 11
151.516265
 21
285.650529
 31
0.0
  0
LINE
  8
LC-005-003-----0
  6
CONTINUOUS
  5
51
 10
151.476227
 20
286.261391
 30
0.0
 11
164.682273
 21
288.0
 31
0.0
  0
LINE
  8
LC-005-003-----0
  6
CONTINUOUS
  5
52
 10
164.682273
 20
288.0
 30
0.0
 11
151.476227
 21
289.738609
 31
0.0
  0
LINE
  8
LC-005-003-----0
  6
CONTINUOUS
  5
53
 10
151.436189
 20
286.872254
 30
0.0
 11
160.002273
 21
288.0
 31
0.0
  0
LINE
  8
LC-005-003-----0
  6
CONTINUOUS
  5
54
 10
160.002273
 20
288.0
 30
0.0
 11
151.436189
 21
289.127746
 31
0.0
  0
LINE
  8
LC-005-003-----0
  6
CONTINUOUS
  5
55
 10
151.396151
 20
287.483116
 30
0.0
 11
155.322273
 21
288.0
 31
0.0
  0
LINE
  8
LC-005-003-----0
  6
CONTINUOUS
  5
56
 10
155.322273
 20
288.0
 30
0.0
 11
151.396151
 21
288.516884
 31
0.0
  0
TEXT
  8
LC-005-003-----0
  6
CONTINUOUS
 62
     6
  5
58
 10
70.594101
 20
298.431999
 30
0.0
 40
18.0
  1
Ø122,7
 41
0.9
 51
15.0
  7
LC-TXTSTYLE-150-400-0-0-D0
 72
     1
 11
105.672842
 21
298.431999
 31
0.0
  0
ENDBLK
  8
0
  5
59
  0
BLOCK
  8
0
  5
5B
  2
*D3
 70
    65
 10
0.0
 20
0.0
 30
0.0
  3
*D3
  0
LINE
  8
LC-006-003-MTH-0
  6
CONTINUOUS
  5
5C
 10
51.612273
 20
213.698915
 30
0.0
 11
51.612273
 21
262.8
 31
0.0
  0
LINE
  8
LC-006-003-MTH-0
  6
CONTINUOUS
  5
5D
 10
164.412273
 20
213.698915
 30
0.0
 11
164.412273
 21
262.8
 31
0.0
  0
LINE
  8
LC-007-003-MTG-0
  6
CONTINUOUS
  5
5E
 10
51.612273
 20
252.0
 30
0.0
 11
164.412273
 21
252.0
 31
0.0
  0
LINE
  8
LC-005-003-----0
  6
CONTINUOUS
  5
5F
 10
69.45828
 20
254.349471
 30
0.0
 11
51.612273
 21
252.0
 31
0.0
  0
LINE
  8
LC-005-003-----0
  6
CONTINUOUS
  5
60
 10
51.612273
 20
252.0
 30
0.0
 11
69.45828
 21
249.650529
 31
0.0
  0
LINE
  8
LC-005-003-----0
  6
CONTINUOUS
  5
61
 10
69.45828
 20
249.650529
 30
0.0
 11
69.45828
 21
254.349471
 31
0.0
  0
LINE
  8
LC-005-003-----0
  6
CONTINUOUS
  5
62
 10
69.498318
 20
253.738609
 30
0.0
 11
56.292273
 21
252.0
 31
0.0
  0
LINE
  8
LC-005-003-----0
  6
CONTINUOUS
  5
63
 10
56.292273
 20
252.0
 30
0.0
 11
69.498318
 21
250.261391
 31
0.0
  0
LINE
  8
LC-005-003-----0
  6
CONTINUOUS
  5
64
 10
69.538356
 20
253.127746
 30
0.0
 11
60.972273
 21
252.0
 31
0.0
  0
LINE
  8
LC-005-003-----0
  6
CONTINUOUS
  5
65
 10
60.972273
 20
252.0
 30
0.0
 11
69.538356
 21
250.872254
 31
0.0
  0
LINE
  8
LC-005-003-----0
  6
CONTINUOUS
  5
66
 10
69.578395
 20
252.516884
 30
0.0
 11
65.652273
 21
252.0
 31
0.0
  0
LINE
  8
LC-005-003-----0
  6
CONTINUOUS
  5
67
 10
65.652273
 20
252.0
 30
0.0
 11
69.578395
 21
251.483116
 31
0.0
  0
LINE
  8
LC-005-003-----0
  6
CONTINUOUS
  5
68
 10
146.566265
 20
249.650529
 30
0.0
 11
164.412273
 21
252.0
 31
0.0
  0
LINE
  8
LC-005-003-----0
  6
CONTINUOUS
  5
69
 10
164.412273
 20
252.0
 30
0.0
 11
146.566265
 21
254.349471
 31
0.0
  0
LINE
  8
LC-005-003-----0
  6
CONTINUOUS
  5
6A
 10
146.566265
 20
254.349471
 30
0.0
 11
146.566265
 21
249.650529
 31
0.0
  0
LINE
  8
LC-005-003-----0
  6
CONTINUOUS
  5
6B
 10
146.526227
 20
250.261391
 30
0.0
 11
159.732273
 21
252.0
 31
0.0
  0
LINE
  8
LC-005-003-----0
  6
CONTINUOUS
  5
6C
 10
159.732273
 20
252.0
 30
0.0
 11
146.526227
 21
253.738609
 31
0.0
  0
LINE
  8
LC-005-003-----0
  6
CONTINUOUS
  5
6D
 10
146.486189
 20
250.872254
 30
0.0
 11
155.052273
 21
252.0
 31
0.0
  0
LINE
  8
LC-005-003-----0
  6
CONTINUOUS
  5
6E
 10
155.052273
 20
252.0
 30
0.0
 11
146.486189
 21
253.127746
 31
0.0
  0
LINE
  8
LC-005-003-----0
  6
CONTINUOUS
  5
6F
 10
146.446151
 20
251.483116
 30
0.0
 11
150.372273
 21
252.0
 31
0.0
  0
LINE
  8
LC-005-003-----0
  6
CONTINUOUS
  5
70
 10
150.372273
 20
252.0
 30
0.0
 11
146.446151
 21
252.516884
 31
0.0
  0
TEXT
  8
LC-005-003-----0
  6
CONTINUOUS
 62
     6
  5
71
 10
72.716506
 20
262.431999
 30
0.0
 40
18.0
  1
Ø112,8
 51
15.0
  7
LC-TXTSTYLE-150-400-0-0-D0
 72
     1
 11
107.795246
 21
262.431999
 31
0.0
  0
ENDBLK
  8
0
  5
72
  0
BLOCK
  8
0
  5
74
  2
*D4
 70
    65
 10
0.0
 20
0.0
 30
0.0
  3
*D4
  0
LINE
  8
LC-006-003-MTH-0
  6
CONTINUOUS
  5
75
 10
49.212273
 20
204.498915
 30
0.0
 11
49.212273
 21
136.2
 31
0.0
  0
LINE
  8
LC-006-003-MTH-0
  6
CONTINUOUS
  5
76
 10
166.812273
 20
204.498915
 30
0.0
 11
166.812273
 21
136.2
 31
0.0
  0
LINE
  8
LC-007-003-MTG-0
  6
CONTINUOUS
  5
77
 10
49.212273
 20
147.0
 30
0.0
 11
166.812273
 21
147.0
 31
0.0
  0
LINE
  8
LC-005-003-----0
  6
CONTINUOUS
  5
78
 10
67.05828
 20
149.349471
 30
0.0
 11
49.212273
 21
147.0
 31
0.0
  0
LINE
  8
LC-005-003-----0
  6
CONTINUOUS
  5
79
 10
49.212273
 20
147.0
 30
0.0
 11
67.05828
 21
144.650529
 31
0.0
  0
LINE
  8
LC-005-003-----0
  6
CONTINUOUS
  5
7A
 10
67.05828
 20
144.650529
 30
0.0
 11
67.05828
 21
149.349471
 31
0.0
  0
LINE
  8
LC-005-003-----0
  6
CONTINUOUS
  5
7B
 10
67.098318
 20
148.738609
 30
0.0
 11
53.892273
 21
147.0
 31
0.0
  0
LINE
  8
LC-005-003-----0
  6
CONTINUOUS
  5
7C
 10
53.892273
 20
147.0
 30
0.0
 11
67.098318
 21
145.261391
 31
0.0
  0
LINE
  8
LC-005-003-----0
  6
CONTINUOUS
  5
7D
 10
67.138356
 20
148.127746
 30
0.0
 11
58.572273
 21
147.0
 31
0.0
  0
LINE
  8
LC-005-003-----0
  6
CONTINUOUS
  5
7E
 10
58.572273
 20
147.0
 30
0.0
 11
67.138356
 21
145.872254
 31
0.0
  0
LINE
  8
LC-005-003-----0
  6
CONTINUOUS
  5
7F
 10
67.178395
 20
147.516884
 30
0.0
 11
63.252273
 21
147.0
 31
0.0
  0
LINE
  8
LC-005-003-----0
  6
CONTINUOUS
  5
80
 10
63.252273
 20
147.0
 30
0.0
 11
67.178395
 21
146.483116
 31
0.0
  0
LINE
  8
LC-005-003-----0
  6
CONTINUOUS
  5
81
 10
148.966265
 20
144.650529
 30
0.0
 11
166.812273
 21
147.0
 31
0.0
  0
LINE
  8
LC-005-003-----0
  6
CONTINUOUS
  5
82
 10
166.812273
 20
147.0
 30
0.0
 11
148.966265
 21
149.349471
 31
0.0
  0
LINE
  8
LC-005-003-----0
  6
CONTINUOUS
  5
83
 10
148.966265
 20
149.349471
 30
0.0
 11
148.966265
 21
144.650529
 31
0.0
  0
LINE
  8
LC-005-003-----0
  6
CONTINUOUS
  5
84
 10
148.926227
 20
145.261391
 30
0.0
 11
162.132273
 21
147.0
 31
0.0
  0
LINE
  8
LC-005-003-----0
  6
CONTINUOUS
  5
85
 10
162.132273
 20
147.0
 30
0.0
 11
148.926227
 21
148.738609
 31
0.0
  0
LINE
  8
LC-005-003-----0
  6
CONTINUOUS
  5
86
 10
148.886189
 20
145.872254
 30
0.0
 11
157.452273
 21
147.0
 31
0.0
  0
LINE
  8
LC-005-003-----0
  6
CONTINUOUS
  5
87
 10
157.452273
 20
147.0
 30
0.0
 11
148.886189
 21
148.127746
 31
0.0
  0
LINE
  8
LC-005-003-----0
  6
CONTINUOUS
  5
88
 10
148.846151
 20
146.483116
 30
0.0
 11
152.772273
 21
147.0
 31
0.0
  0
LINE
  8
LC-005-003-----0
  6
CONTINUOUS
  5
89
 10
152.772273
 20
147.0
 30
0.0
 11
148.846151
 21
147.516884
 31
0.0
  0
TEXT
  8
LC-005-003-----0
  6
CONTINUOUS
 62
     6
  5
8A
 10
75.728778
 20
157.431999
 30
0.0
 40
18.0
  1
Ø117,6
 51
15.0
  7
LC-TXTSTYLE-150-400-0-0-D0
 72
     1
 11
110.807519
 21
157.431999
 31
0.0
  0
ENDBLK
  8
0
  5
8B
  0
BLOCK
  8
0
  5
8D
  2
*D5
 70
    65
 10
0.0
 20
0.0
 30
0.0
  3
*D5
  0
LINE
  8
LC-006-003-MTH-0
  6
CONTINUOUS
  5
8E
 10
169.362273
 20
209.898915
 30
0.0
 11
226.8
 21
209.898915
 31
0.0
  0
LINE
  8
LC-006-003-MTH-0
  6
CONTINUOUS
  5
8F
 10
169.362273
 20
215.698915
 30
0.0
 11
226.8
 21
215.698915
 31
0.0
  0
LINE
  8
LC-005-003-----0
  6
CONTINUOUS
  5
90
 10
218.349471
 20
192.052907
 30
0.0
 11
216.0
 21
209.898915
 31
0.0
  0
LINE
  8
LC-005-003-----0
  6
CONTINUOUS
  5
91
 10
216.0
 20
209.898915
 30
0.0
 11
213.650529
 21
192.052907
 31
0.0
  0
LINE
  8
LC-005-003-----0
  6
CONTINUOUS
  5
92
 10
213.650529
 20
192.052907
 30
0.0
 11
218.349471
 21
192.052907
 31
0.0
  0
LINE
  8
LC-005-003-----0
  6
CONTINUOUS
  5
93
 10
217.738609
 20
192.012869
 30
0.0
 11
216.0
 21
205.218915
 31
0.0
  0
LINE
  8
LC-005-003-----0
  6
CONTINUOUS
  5
94
 10
216.0
 20
205.218915
 30
0.0
 11
214.261391
 21
192.012869
 31
0.0
  0
LINE
  8
LC-005-003-----0
  6
CONTINUOUS
  5
95
 10
217.127746
 20
191.972831
 30
0.0
 11
216.0
 21
200.538915
 31
0.0
  0
LINE
  8
LC-005-003-----0
  6
CONTINUOUS
  5
96
 10
216.0
 20
200.538915
 30
0.0
 11
214.872254
 21
191.972831
 31
0.0
  0
LINE
  8
LC-005-003-----0
  6
CONTINUOUS
  5
97
 10
216.516884
 20
191.932793
 30
0.0
 11
216.0
 21
195.858915
 31
0.0
  0
LINE
  8
LC-005-003-----0
  6
CONTINUOUS
  5
98
 10
216.0
 20
195.858915
 30
0.0
 11
215.483116
 21
191.932793
 31
0.0
  0
LINE
  8
LC-005-003-----0
  6
CONTINUOUS
  5
99
 10
213.650529
 20
233.544922
 30
0.0
 11
216.0
 21
215.698915
 31
0.0
  0
LINE
  8
LC-005-003-----0
  6
CONTINUOUS
  5
9A
 10
216.0
 20
215.698915
 30
0.0
 11
218.349471
 21
233.544922
 31
0.0
  0
LINE
  8
LC-005-003-----0
  6
CONTINUOUS
  5
9B
 10
218.349471
 20
233.544922
 30
0.0
 11
213.650529
 21
233.544922
 31
0.0
  0
LINE
  8
LC-005-003-----0
  6
CONTINUOUS
  5
9C
 10
214.261391
 20
233.58496
 30
0.0
 11
216.0
 21
220.378915
 31
0.0
  0
LINE
  8
LC-005-003-----0
  6
CONTINUOUS
  5
9D
 10
216.0
 20
220.378915
 30
0.0
 11
217.738609
 21
233.58496
 31
0.0
  0
LINE
  8
LC-005-003-----0
  6
CONTINUOUS
  5
9E
 10
214.872254
 20
233.624998
 30
0.0
 11
216.0
 21
225.058915
 31
0.0
  0
LINE
  8
LC-005-003-----0
  6
CONTINUOUS
  5
9F
 10
216.0
 20
225.058915
 30
0.0
 11
217.127746
 21
233.624998
 31
0.0
  0
LINE
  8
LC-005-003-----0
  6
CONTINUOUS
  5
A0
 10
215.483116
 20
233.665036
 30
0.0
 11
216.0
 21
229.738915
 31
0.0
  0
LINE
  8
LC-005-003-----0
  6
CONTINUOUS
  5
A1
 10
216.0
 20
229.738915
 30
0.0
 11
216.516884
 21
233.665036
 31
0.0
  0
LINE
  8
LC-007-003-MTG-0
  6
CONTINUOUS
  5
A2
 10
216.0
 20
184.698915
 30
0.0
 11
216.0
 21
289.901434
 31
0.0
  0
TEXT
  8
LC-005-003-----0
  6
CONTINUOUS
 62
     6
  5
A3
 10
205.568001
 20
242.97416
 30
0.0
 40
18.0
  1
5,8
 50
90.0
 51
15.0
  7
LC-TXTSTYLE-150-400-0-0-D0
  0
ENDBLK
  8
0
  5
A4
  0
BLOCK
  8
0
  5
A6
  2
*D6
 70
    65
 10
0.0
 20
0.0
 30
0.0
  3
*D6
  0
LINE
  8
LC-006-003-MTH-0
  6
CONTINUOUS
  5
A7
 10
158.487209
 20
194.798915
 30
0.0
 11
262.8
 21
194.798915
 31
0.0
  0
LINE
  8
LC-006-003-MTH-0
  6
CONTINUOUS
  5
A8
 10
169.362273
 20
215.698915
 30
0.0
 11
262.8
 21
215.698915
 31
0.0
  0
LINE
  8
LC-005-003-----0
  6
CONTINUOUS
  5
A9
 10
254.349471
 20
176.952907
 30
0.0
 11
252.0
 21
194.798915
 31
0.0
  0
LINE
  8
LC-005-003-----0
  6
CONTINUOUS
  5
AA
 10
252.0
 20
194.798915
 30
0.0
 11
249.650529
 21
176.952907
 31
0.0
  0
LINE
  8
LC-005-003-----0
  6
CONTINUOUS
  5
AB
 10
249.650529
 20
176.952907
 30
0.0
 11
254.349471
 21
176.952907
 31
0.0
  0
LINE
  8
LC-005-003-----0
  6
CONTINUOUS
  5
AC
 10
253.738609
 20
176.912869
 30
0.0
 11
252.0
 21
190.118915
 31
0.0
  0
LINE
  8
LC-005-003-----0
  6
CONTINUOUS
  5
AD
 10
252.0
 20
190.118915
 30
0.0
 11
250.261391
 21
176.912869
 31
0.0
  0
LINE
  8
LC-005-003-----0
  6
CONTINUOUS
  5
AE
 10
253.127746
 20
176.872831
 30
0.0
 11
252.0
 21
185.438915
 31
0.0
  0
LINE
  8
LC-005-003-----0
  6
CONTINUOUS
  5
AF
 10
252.0
 20
185.438915
 30
0.0
 11
250.872254
 21
176.872831
 31
0.0
  0
LINE
  8
LC-005-003-----0
  6
CONTINUOUS
  5
B0
 10
252.516884
 20
176.832793
 30
0.0
 11
252.0
 21
180.758915
 31
0.0
  0
LINE
  8
LC-005-003-----0
  6
CONTINUOUS
  5
B1
 10
252.0
 20
180.758915
 30
0.0
 11
251.483116
 21
176.832793
 31
0.0
  0
LINE
  8
LC-005-003-----0
  6
CONTINUOUS
  5
B2
 10
249.650529
 20
233.544922
 30
0.0
 11
252.0
 21
215.698915
 31
0.0
  0
LINE
  8
LC-005-003-----0
  6
CONTINUOUS
  5
B3
 10
252.0
 20
215.698915
 30
0.0
 11
254.349471
 21
233.544922
 31
0.0
  0
LINE
  8
LC-005-003-----0
  6
CONTINUOUS
  5
B4
 10
254.349471
 20
233.544922
 30
0.0
 11
249.650529
 21
233.544922
 31
0.0
  0
LINE
  8
LC-005-003-----0
  6
CONTINUOUS
  5
B5
 10
250.261391
 20
233.58496
 30
0.0
 11
252.0
 21
220.378915
 31
0.0
  0
LINE
  8
LC-005-003-----0
  6
CONTINUOUS
  5
B6
 10
252.0
 20
220.378915
 30
0.0
 11
253.738609
 21
233.58496
 31
0.0
  0
LINE
  8
LC-005-003-----0
  6
CONTINUOUS
  5
B7
 10
250.872254
 20
233.624998
 30
0.0
 11
252.0
 21
225.058915
 31
0.0
  0
LINE
  8
LC-005-003-----0
  6
CONTINUOUS
  5
B8
 10
252.0
 20
225.058915
 30
0.0
 11
253.127746
 21
233.624998
 31
0.0
  0
LINE
  8
LC-005-003-----0
  6
CONTINUOUS
  5
B9
 10
251.483116
 20
233.665036
 30
0.0
 11
252.0
 21
229.738915
 31
0.0
  0
LINE
  8
LC-005-003-----0
  6
CONTINUOUS
  5
BA
 10
252.0
 20
229.738915
 30
0.0
 11
252.516884
 21
233.665036
 31
0.0
  0
LINE
  8
LC-007-003-MTG-0
  6
CONTINUOUS
  5
BB
 10
252.0
 20
169.598915
 30
0.0
 11
252.0
 21
306.101434
 31
0.0
  0
TEXT
  8
LC-005-003-----0
  6
CONTINUOUS
 62
     6
  5
BC
 10
241.568001
 20
242.97416
 30
0.0
 40
18.0
  1
20,9
 50
90.0
 51
15.0
  7
LC-TXTSTYLE-150-400-0-0-D0
  0
ENDBLK
  8
0
  5
BD
  0
ENDSEC
  0
SECTION
  2
ENTITIES
  0
VIEWPORT
  8
LC-000
  5
105
 67
     1
 68
     1
 10
420.0
 20
297.0
 30
0.0
 40
840.0
 41
594.0
 69
     1
1001
ACAD
1000
MVIEW
1002
{
1070
    16
1010
0.0
1020
0.0
1030
0.0
1010
0.0
1020
0.0
1030
1.0
1040
0.0
1040
594.0
1040
420.0
1040
297.0
1040
50.0
1040
0.0
1040
0.0
1070
     0
1070
   100
1070
     1
1070
     1
1070
     0
1070
     0
1070
     0
1070
     0
1040
0.0
1040
0.0
1040
0.0
1040
1.0
1040
1.0
1040
0.0
1040
0.0
1070
     0
1002
{
1002
}
1002
}
  0
VIEWPORT
  8
0
  5
106
 67
     1
 68
     1
 10
0.0
 20
0.0
 30
0.0
 40
0.0
 41
0.0
 69
     1
1001
ACAD
1000
MVIEW
1002
{
1070
    16
1010
0.0
1020
0.0
1030
0.0
1010
0.0
1020
0.0
1030
1.0
1040
0.0
1040
594.0
1040
0.0
1040
0.0
1040
50.0
1040
0.0
1040
0.0
1070
     0
1070
   100
1070
     0
1070
     1
1070
     0
1070
     0
1070
     0
1070
     0
1040
0.0
1040
0.0
1040
0.0
1040
0.5
1040
0.5
1040
0.5
1040
0.5
1070
     0
1002
{
1002
}
1002
}
  0
INSERT
  8
0
  5
BE
  2
*X0
 10
146.912273
 20
194.798915
 30
0.0
  0
INSERT
  8
0
  5
BF
  2
*X1
 10
46.662273
 20
194.798915
 30
0.0
  0
DIMENSION
  8
0
  5
C0
  2
*D2
 10
102.877596
 20
288.0
 30
0.0
 11
102.877596
 21
288.0
 31
0.0
  1
%%c<>
 13
46.662273
 23
215.698915
 33
0.0
 14
169.362273
 24
215.698915
 34
0.0
  3
LC-DIM-L-0090-02-02
  0
DIMENSION
  8
0
  5
C1
  2
*D3
 10
105.0
 20
252.0
 30
0.0
 11
105.0
 21
252.0
 31
0.0
  1
%%c<>
 13
51.612273
 23
213.698915
 33
0.0
 14
164.412273
 24
213.698915
 34
0.0
  3
LC-DIM-L-0090-02-02
  0
DIMENSION
  8
0
  5
C2
  2
*D4
 10
108.012273
 20
147.0
 30
0.0
 11
108.012273
 21
147.0
 31
0.0
  1
%%c<>
 13
49.212273
 23
204.498915
 33
0.0
 14
166.812273
 24
204.498915
 34
0.0
  3
LC-DIM-L-0090-02-02
  0
DIMENSION
  8
0
  5
C3
  2
*D5
 10
216.0
 20
251.262
 30
0.0
 11
216.0
 21
251.262
 31
0.0
 13
169.362273
 23
215.698915
 33
0.0
 14
169.362273
 24
209.898915
 34
0.0
 50
90.0
  3
LC-DIM-L-0090-02-02
  0
DIMENSION
  8
0
  5
C4
  2
*D6
 10
252.0
 20
222.75
 30
0.0
 11
252.0
 21
222.75
 31
0.0
 13
169.362273
 23
215.698915
 33
0.0
 14
158.487209
 24
194.798915
 34
0.0
 50
90.0
  3
LC-DIM-L-0090-02-02
  0
LINE
  8
LC-001-002-----0
  6
CONTINUOUS
  5
C6
 10
166.412273
 20
215.698915
 30
0.0
 11
169.362273
 21
215.698915
 31
0.0
  0
LINE
  8
LC-002-006-MLN-0
  6
DASHDOT
  5
CA
 10
108.012273
 20
225.698915
 30
0.0
 11
108.012273
 21
184.798915
 31
0.0
  0
LINE
  8
LC-001-002-----0
  6
CONTINUOUS
  5
CB
 10
162.912273
 20
204.998915
 30
0.0
 11
163.912273
 21
204.998915
 31
0.0
  0
LINE
  8
LC-001-002-----0
  6
CONTINUOUS
  5
CC
 10
146.912273
 20
197.598915
 30
0.0
 11
150.862273
 21
197.598915
 31
0.0
  0
LINE
  8
LC-001-002-----0
  6
CONTINUOUS
  5
CD
 10
108.012273
 20
194.798915
 30
0.0
 11
158.487209
 21
194.798915
 31
0.0
  0
LINE
  8
LC-001-002-----0
  6
CONTINUOUS
  5
CE
 10
169.362273
 20
215.698915
 30
0.0
 11
169.362273
 21
209.898915
 31
0.0
  0
LINE
  8
LC-001-002-----0
  6
CONTINUOUS
  5
CF
 10
164.412273
 20
213.698915
 30
0.0
 11
164.412273
 21
205.498915
 31
0.0
  0
ARC
  8
LC-004-002-RND-0
  6
CONTINUOUS
  5
D1
 10
163.912273
 20
205.498915
 30
0.0
 40
0.5
 50
270.0
 51
0.0
  0
ARC
  8
LC-004-002-RND-0
  6
CONTINUOUS
  5
D2
 10
165.812273
 20
204.498915
 30
0.0
 40
1.0
 50
270.0
 51
0.0
  0
LINE
  8
LC-001-002-----0
  6
CONTINUOUS
  5
D3
 10
168.162273
 20
211.898915
 30
0.0
 11
168.162273
 21
209.898915
 31
0.0
  0
LINE
  8
LC-001-002-----0
  6
CONTINUOUS
  5
D4
 10
150.862273
 20
199.016807
 30
0.0
 11
154.912273
 21
200.490886
 31
0.0
  0
LINE
  8
LC-001-002-----0
  6
CONTINUOUS
  5
D5
 10
147.570253
 20
199.414876
 30
0.0
 11
162.912273
 21
204.998915
 31
0.0
  0
LINE
  8
LC-001-002-----0
  6
CONTINUOUS
  5
D6
 10
146.912273
 20
198.475183
 30
0.0
 11
146.912273
 21
197.598915
 31
0.0
  0
LINE
  8
LC-001-002-----0
  6
CONTINUOUS
  5
D7
 10
157.412273
 20
201.400812
 30
0.0
 11
163.176763
 21
203.498915
 31
0.0
  0
LINE
  8
LC-001-002-----0
  6
CONTINUOUS
  5
D8
 10
150.862273
 20
199.016807
 30
0.0
 11
150.862273
 21
197.598915
 31
0.0
  0
LINE
  8
LC-001-002-----0
  6
CONTINUOUS
  5
D9
 10
163.176763
 20
203.498915
 30
0.0
 11
165.812273
 21
203.498915
 31
0.0
  0
ARC
  8
LC-004-002-RND-0
  6
CONTINUOUS
  5
DA
 10
147.912273
 20
198.475183
 30
0.0
 40
1.0
 50
110.0
 51
180.0
  0
LINE
  8
LC-001-002-----0
  6
CONTINUOUS
  5
DB
 10
166.812273
 20
211.898915
 30
0.0
 11
166.812273
 21
204.498915
 31
0.0
  0
LINE
  8
LC-001-002-----0
  6
CONTINUOUS
  5
DC
 10
166.812273
 20
211.898915
 30
0.0
 11
168.162273
 21
211.898915
 31
0.0
  0
LINE
  8
LC-001-002-----0
  6
CONTINUOUS
  5
DD
 10
168.162273
 20
209.898915
 30
0.0
 11
169.362273
 21
209.898915
 31
0.0
  0
LINE
  8
LC-001-002-----0
  6
CONTINUOUS
  5
DE
 10
154.912273
 20
200.490886
 30
0.0
 11
158.054197
 21
195.048915
 31
0.0
  0
LINE
  8
LC-001-002-----0
  6
CONTINUOUS
  5
DF
 10
158.97102
 20
195.425116
 30
0.0
 11
157.412273
 21
201.400812
 31
0.0
  0
ARC
  8
LC-004-002-RND-0
  6
CONTINUOUS
  5
E0
 10
158.487209
 20
195.298915
 30
0.0
 40
0.5
 50
210.0
 51
14.61971
  0
ARC
  8
LC-004-002-RND-0
  6
CONTINUOUS
  5
E1
 10
166.412273
 20
213.698915
 30
0.0
 40
2.0
 50
90.0
 51
180.0
  0
LINE
  8
LC-001-002-----0
  6
CONTINUOUS
  5
E2
 10
166.412273
 20
215.698915
 30
0.0
 11
108.012273
 21
215.698915
 31
0.0
  0
LINE
  8
LC-001-002-----0
  6
CONTINUOUS
  5
E3
 10
162.912273
 20
204.998915
 30
0.0
 11
108.012273
 21
204.998915
 31
0.0
  0
LINE
  8
LC-001-002-----0
  6
CONTINUOUS
  5
E4
 10
146.912273
 20
197.598915
 30
0.0
 11
108.012273
 21
197.598915
 31
0.0
  0
LINE
  8
LC-001-002-----0
  6
CONTINUOUS
 62
     2
  5
E5
 10
145.599854
 20
199.080334
 30
0.0
 11
108.012273
 21
199.080334
 31
0.0
  0
LINE
  8
LC-001-002-----0
  6
CONTINUOUS
  5
E6
 10
168.162273
 20
209.898915
 30
0.0
 11
166.812273
 21
209.898915
 31
0.0
  0
LINE
  8
LC-001-002-----0
  6
CONTINUOUS
  5
E7
 10
49.612273
 20
215.698915
 30
0.0
 11
46.662273
 21
215.698915
 31
0.0
  0
LINE
  8
LC-002-006-MLN-0
  6
DASHDOT
  5
E8
 10
108.012273
 20
225.698915
 30
0.0
 11
108.012273
 21
184.798915
 31
0.0
  0
LINE
  8
LC-001-002-----0
  6
CONTINUOUS
  5
E9
 10
53.112273
 20
204.998915
 30
0.0
 11
52.112273
 21
204.998915
 31
0.0
  0
LINE
  8
LC-001-002-----0
  6
CONTINUOUS
  5
EA
 10
69.112273
 20
197.598915
 30
0.0
 11
65.162273
 21
197.598915
 31
0.0
  0
LINE
  8
LC-001-002-----0
  6
CONTINUOUS
  5
EB
 10
108.012273
 20
194.798915
 30
0.0
 11
57.537336
 21
194.798915
 31
0.0
  0
LINE
  8
LC-001-002-----0
  6
CONTINUOUS
  5
EC
 10
46.662273
 20
215.698915
 30
0.0
 11
46.662273
 21
209.898915
 31
0.0
  0
LINE
  8
LC-001-002-----0
  6
CONTINUOUS
  5
ED
 10
51.612273
 20
213.698915
 30
0.0
 11
51.612273
 21
205.498915
 31
0.0
  0
ARC
  8
LC-004-002-RND-0
  6
CONTINUOUS
  5
EE
 10
52.112273
 20
205.498915
 30
0.0
 40
0.5
 50
180.0
 51
270.0
  0
ARC
  8
LC-004-002-RND-0
  6
CONTINUOUS
  5
EF
 10
50.212273
 20
204.498915
 30
0.0
 40
1.0
 50
180.0
 51
270.0
  0
LINE
  8
LC-001-002-----0
  6
CONTINUOUS
  5
F0
 10
47.862273
 20
211.898915
 30
0.0
 11
47.862273
 21
209.898915
 31
0.0
  0
LINE
  8
LC-001-002-----0
  6
CONTINUOUS
  5
F1
 10
65.162273
 20
199.016807
 30
0.0
 11
61.112273
 21
200.490886
 31
0.0
  0
LINE
  8
LC-001-002-----0
  6
CONTINUOUS
  5
F2
 10
68.454293
 20
199.414876
 30
0.0
 11
53.112273
 21
204.998915
 31
0.0
  0
LINE
  8
LC-001-002-----0
  6
CONTINUOUS
  5
F3
 10
69.112273
 20
198.475183
 30
0.0
 11
69.112273
 21
197.598915
 31
0.0
  0
LINE
  8
LC-001-002-----0
  6
CONTINUOUS
  5
F4
 10
58.650927
 20
201.386743
 30
0.0
 11
52.847782
 21
203.498915
 31
0.0
  0
LINE
  8
LC-001-002-----0
  6
CONTINUOUS
  5
F5
 10
65.162273
 20
199.016807
 30
0.0
 11
65.162273
 21
197.598915
 31
0.0
  0
LINE
  8
LC-001-002-----0
  6
CONTINUOUS
  5
F6
 10
52.847782
 20
203.498915
 30
0.0
 11
50.212273
 21
203.498915
 31
0.0
  0
ARC
  8
LC-004-002-RND-0
  6
CONTINUOUS
  5
F7
 10
68.112273
 20
198.475183
 30
0.0
 40
1.0
 50
0.0
 51
70.0
  0
LINE
  8
LC-001-002-----0
  6
CONTINUOUS
  5
F8
 10
49.212273
 20
211.898915
 30
0.0
 11
49.212273
 21
204.498915
 31
0.0
  0
LINE
  8
LC-001-002-----0
  6
CONTINUOUS
  5
F9
 10
49.212273
 20
211.898915
 30
0.0
 11
47.862273
 21
211.898915
 31
0.0
  0
LINE
  8
LC-001-002-----0
  6
CONTINUOUS
  5
FA
 10
47.862273
 20
209.898915
 30
0.0
 11
46.662273
 21
209.898915
 31
0.0
  0
LINE
  8
LC-001-002-----0
  6
CONTINUOUS
  5
FB
 10
61.112273
 20
200.490886
 30
0.0
 11
57.970349
 21
195.048915
 31
0.0
  0
LINE
  8
LC-001-002-----0
  6
CONTINUOUS
  5
FC
 10
57.053525
 20
195.425116
 30
0.0
 11
58.650927
 21
201.386743
 31
0.0
  0
ARC
  8
LC-004-002-RND-0
  6
CONTINUOUS
  5
FD
 10
57.537336
 20
195.298915
 30
0.0
 40
0.5
 50
165.38029
 51
330.0
  0
ARC
  8
LC-004-002-RND-0
  6
CONTINUOUS
  5
FE
 10
49.612273
 20
213.698915
 30
0.0
 40
2.0
 50
0.0
 51
90.0
  0
LINE
  8
LC-001-002-----0
  6
CONTINUOUS
  5
FF
 10
49.612273
 20
215.698915
 30
0.0
 11
108.012273
 21
215.698915
 31
0.0
  0
LINE
  8
LC-001-002-----0
  6
CONTINUOUS
  5
100
 10
53.112273
 20
204.998915
 30
0.0
 11
108.012273
 21
204.998915
 31
0.0
  0
LINE
  8
LC-001-002-----0
  6
CONTINUOUS
  5
101
 10
69.112273
 20
197.598915
 30
0.0
 11
108.012273
 21
197.598915
 31
0.0
  0
LINE
  8
LC-001-002-----0
  6
CONTINUOUS
 62
     2
  5
102
 10
70.424692
 20
199.080334
 30
0.0
 11
108.012273
 21
199.080334
 31
0.0
  0
LINE
  8
LC-001-002-----0
  6
CONTINUOUS
  5
103
 10
47.862273
 20
209.898915
 30
0.0
 11
49.212273
 21
209.898915
 31
0.0
  0
ENDSEC
  0
EOF
