  0
SECTION
  2
HEADER
  9
$ACADVER
  1
AC1009
  9
$INSBASE
 10
0.0
 20
0.0
 30
0.0
  9
$EXTMIN
 10
0.0
 20
0.0
 30
0.0
  9
$EXTMAX
 10
840.0
 20
594.0
 30
0.0
  9
$LIMMIN
 10
0.0
 20
0.0
  9
$LIMMAX
 10
840.0
 20
594.0
  9
$ORTHOMODE
 70
     0
  9
$REGENMODE
 70
     1
  9
$FILLMODE
 70
     1
  9
$QTEXTMODE
 70
     0
  9
$MIRRTEXT
 70
     1
  9
$DRAGMODE
 70
     2
  9
$LTSCALE
 40
2.0
  9
$OSMODE
 70
     0
  9
$ATTMODE
 70
     1
  9
$TEXTSIZE
 40
0.2
  9
$TRACEWID
 40
0.05
  9
$TEXTSTYLE
  7
STANDARD
  9
$CLAYER
  8
0
  9
$CELTYPE
  6
BYLAYER
  9
$CECOLOR
 62
     7
  9
$DIMSCALE
 40
2.0
  9
$DIMASZ
 40
3.5
  9
$DIMEXO
 40
0.0625
  9
$DIMDLI
 40
0.38
  9
$DIMRND
 40
0.0
  9
$DIMDLE
 40
0.0
  9
$DIMEXE
 40
0.18
  9
$DIMTP
 40
0.0
  9
$DIMTM
 40
0.0
  9
$DIMTXT
 40
3.5
  9
$DIMCEN
 40
0.09
  9
$DIMTSZ
 40
0.0
  9
$DIMTOL
 70
     0
  9
$DIMLIM
 70
     0
  9
$DIMTIH
 70
     1
  9
$DIMTOH
 70
     1
  9
$DIMSE1
 70
     0
  9
$DIMSE2
 70
     0
  9
$DIMTAD
 70
     1
  9
$DIMZIN
 70
     0
  9
$DIMBLK
  1

  9
$DIMASO
 70
     1
  9
$DIMSHO
 70
     1
  9
$DIMPOST
  1

  9
$DIMAPOST
  1

  9
$DIMALT
 70
     0
  9
$DIMALTD
 70
     2
  9
$DIMALTF
 40
25.4
  9
$DIMLFAC
 40
1.0
  9
$DIMTOFL
 70
     0
  9
$DIMTVP
 40
0.0
  9
$DIMTIX
 70
     0
  9
$DIMSOXD
 70
     0
  9
$DIMSAH
 70
     0
  9
$DIMBLK1
  1

  9
$DIMBLK2
  1

  9
$DIMSTYLE
  2
STANDARD
  9
$DIMCLRD
 70
     0
  9
$DIMCLRE
 70
     0
  9
$DIMCLRT
 70
     0
  9
$DIMTFAC
 40
1.0
  9
$DIMGAP
 40
0.09
  9
$LUNITS
 70
     2
  9
$LUPREC
 70
     2
  9
$AXISMODE
 70
     0
  9
$AXISUNIT
 10
0.0
 20
0.0
  9
$SKETCHINC
 40
0.1
  9
$FILLETRAD
 40
0.0
  9
$AUNITS
 70
     0
  9
$AUPREC
 70
     0
  9
$MENU
  1
acad
  9
$ELEVATION
 40
0.0
  9
$PELEVATION
 40
0.0
  9
$THICKNESS
 40
0.0
  9
$LIMCHECK
 70
     0
  9
$BLIPMODE
 70
     1
  9
$CHAMFERA
 40
0.0
  9
$CHAMFERB
 40
0.0
  9
$SKPOLY
 70
     0
  9
$TDCREATE
 40
0.000000000
  9
$TDUPDATE
 40
0.000000000
  9
$TDINDWG
 40
0.0000000000
  9
$TDUSRTIMER
 40
0.0000000000
  9
$USRTIMER
 70
     1
  9
$ANGBASE
 50
0.0
  9
$ANGDIR
 70
     0
  9
$PDMODE
 70
     0
  9
$PDSIZE
 40
0.0
  9
$PLINEWID
 40
0.0
  9
$COORDS
 70
     0
  9
$SPLFRAME
 70
     0
  9
$SPLINETYPE
 70
     6
  9
$SPLINESEGS
 70
     8
  9
$ATTDIA
 70
     0
  9
$ATTREQ
 70
     1
  9
$HANDLING
 70
     1
  9
$HANDSEED
  5
15A
  9
$SURFTAB1
 70
     6
  9
$SURFTAB2
 70
     6
  9
$SURFTYPE
 70
     6
  9
$SURFU
 70
     6
  9
$SURFV
 70
     6
  9
$UCSNAME
  2

  9
$UCSORG
 10
0.0
 20
0.0
 30
0.0
  9
$UCSXDIR
 10
1.0
 20
0.0
 30
0.0
  9
$UCSYDIR
 10
0.0
 20
1.0
 30
0.0
  9
$PUCSNAME
  2

  9
$PUCSORG
 10
0.0
 20
0.0
 30
0.0
  9
$PUCSXDIR
 10
1.0
 20
0.0
 30
0.0
  9
$PUCSYDIR
 10
0.0
 20
1.0
 30
0.0
  9
$USERI1
 70
     0
  9
$USERI2
 70
     0
  9
$USERI3
 70
     0
  9
$USERI4
 70
     0
  9
$USERI5
 70
     0
  9
$USERR1
 40
0.0
  9
$USERR2
 40
0.0
  9
$USERR3
 40
0.0
  9
$USERR4
 40
0.0
  9
$USERR5
 40
0.0
  9
$WORLDVIEW
 70
     1
  9
$SHADEDGE
 70
     3
  9
$SHADEDIF
 70
    70
  9
$TILEMODE
 70
     1
  9
$MAXACTVP
 70
    16
  9
$PINSBASE
 10
0.0
 20
0.0
 30
0.0
  9
$PLIMCHECK
 70
     0
  9
$PEXTMIN
 10
1.000000E+20
 20
1.000000E+20
 30
1.000000E+20
  9
$PEXTMAX
 10
-1.000000E+20
 20
-1.000000E+20
 30
-1.000000E+20
  9
$PLIMMIN
 10
0.0
 20
0.0
  9
$PLIMMAX
 10
840.0
 20
594.0
  9
$UNITMODE
 70
     0
  9
$VISRETAIN
 70
     0
  9
$PLINEGEN
 70
     1
  9
$PSLTSCALE
 70
     0
  9
$TREEDEPTH
 70
  3020
  9
$DWGCODEPAGE
  3
dos850
  0
ENDSEC
  0
SECTION
  2
TABLES
  0
TABLE
  2
VPORT
 70
     1
  0
VPORT
  2
*ACTIVE
 70
     0
 10
0.0
 20
0.0
 11
1.0
 21
1.0
 12
420.0
 22
297.0
 13
0.0
 23
0.0
 14
1.0
 24
1.0
 15
0.0
 25
0.0
 16
0.0
 26
0.0
 36
1.0
 17
0.0
 27
0.0
 37
0.0
 40
594.0
 41
1.604229
 42
50.0
 43
0.0
 44
0.0
 50
0.0
 51
0.0
 71
     0
 72
   100
 73
     1
 74
     1
 75
     0
 76
     0
 77
     0
 78
     0
  0
ENDTAB
  0
TABLE
  2
LTYPE
 70
     2
  0
LTYPE
  2
CONTINUOUS
 70
    64
  3
Solid line
 72
    65
 73
     0
 40
0.0
  0
LTYPE
  2
DASHDOT
 70
    64
  3
__ . __ . __ . __ . __
 72
    65
 73
     4
 40
7.5
 49
5.0
 49
-1.25
 49
0.0
 49
-1.25
  0
ENDTAB
  0
TABLE
  2
LAYER
 70
     9
  0
LAYER
  2
0
 70
     0
 62
     7
  6
CONTINUOUS
  0
LAYER
  2
LC-INFO-1-2-MM-A3-0
 70
     1
 62
    -1
  6
CONTINUOUS
  0
LAYER
  2
LC-003-003-MTH-0
 70
     0
 62
     2
  6
CONTINUOUS
  0
LAYER
  2
LC-002-003-----0
 70
     0
 62
     2
  6
CONTINUOUS
  0
LAYER
  2
LC-004-003-MTG-0
 70
     0
 62
     2
  6
CONTINUOUS
  0
LAYER
  2
LC-006-005-----0
 70
     0
 62
     2
  6
CONTINUOUS
  0
LAYER
  2
LC-001-002-----0
 70
     0
 62
     1
  6
CONTINUOUS
  0
LAYER
  2
LC-005-002-RND-0
 70
     0
 62
     1
  6
CONTINUOUS
  0
LAYER
  2
LC-000
 70
     0
 62
     7
  6
CONTINUOUS
  0
ENDTAB
  0
TABLE
  2
STYLE
 70
     4
  0
STYLE
  2
STANDARD
 70
     0
 40
0.0
 41
1.0
 50
0.0
 71
     0
 42
0.0
  3
txt
  4

  0
STYLE
  2
LC-STANDARD
 70
    64
 40
0.0
 41
1.0
 50
0.0
 71
     0
 42
3.5
  3
MONOTXT
  4

  0
STYLE
  2
LC-TXTSTYLE-150-400-0-0-D2
 70
    64
 40
0.0
 41
1.0
 50
15.0
 71
     0
 42
3.5
  3
MONOTXT
  4

  0
STYLE
  2
LC-TXTSTYLE-150-400-0-0-D3
 70
    64
 40
0.0
 41
1.0
 50
15.0
 71
     0
 42
3.5
  3
LC-STANDARD
  4

  0
ENDTAB
  0
TABLE
  2
VIEW
 70
     0
  0
ENDTAB
  0
TABLE
  2
UCS
 70
     0
  0
ENDTAB
  0
TABLE
  2
APPID
 70
     1
  0
APPID
  2
ACAD
 70
     0
  0
ENDTAB
  0
TABLE
  2
DIMSTYLE
 70
     3
  0
DIMSTYLE
  2
STANDARD
 70
     0
  3

  4

  5

  6

  7

 40
1.0
 41
0.18
 42
0.0625
 43
0.38
 44
0.18
 45
0.0
 46
0.0
 47
0.0
 48
0.0
 71
     0
 72
     0
 73
     1
 74
     1
 75
     0
 76
     0
 77
     0
 78
     0
140
0.18
141
0.09
142
0.0
143
25.4
144
1.0
145
0.0
146
1.0
147
0.09
170
     0
171
     2
172
     0
173
     0
174
     0
175
     0
176
     0
177
     0
178
     0
  0
DIMSTYLE
  2
LC-STANDARD
 70
     0
  3

  4

  5

  6

  7

 40
1.0
 41
3.5
 42
0.0
 43
7.5
 44
1.8
 45
0.0
 46
0.0
 47
0.0
 48
0.0
 71
     0
 72
     0
 73
     0
 74
     0
 75
     0
 76
     0
 77
     1
 78
     8
140
3.5
141
0.0
142
0.0
143
25.4
144
1.0
145
0.0
146
0.71
147
1.5
170
     0
171
     2
172
     1
173
     0
174
     0
175
     0
176
     0
177
     0
178
     3
  0
DIMSTYLE
  2
LC-DIM-L-0090-02-02
 70
     0
  3

  4

  5

  6

  7

 40
2.0
 41
3.5
 42
0.0
 43
7.5
 44
1.8
 45
0.0
 46
0.0
 47
0.0
 48
0.0
 71
     0
 72
     0
 73
     0
 74
     0
 75
     0
 76
     0
 77
     1
 78
     8
140
9.0
141
0.0
142
0.0
143
25.4
144
1.0
145
0.0
146
0.71
147
1.5
170
     0
171
     2
172
     0
173
     0
174
     0
175
     0
176
     2
177
     2
178
     6
  0
ENDTAB
  0
ENDSEC
  0
SECTION
  2
BLOCKS
  0
BLOCK
  8
0
  5
23
  2
*D0
 70
    65
 10
0.0
 20
0.0
 30
0.0
  3
*D0
  0
LINE
  8
LC-003-003-MTH-0
  6
CONTINUOUS
  5
25
 10
161.487057
 20
312.573544
 30
0.0
 11
115.2
 21
312.573544
 31
0.0
  0
LINE
  8
LC-003-003-MTH-0
  6
CONTINUOUS
  5
26
 10
161.487131
 20
357.573548
 30
0.0
 11
115.2
 21
357.573548
 31
0.0
  0
LINE
  8
LC-002-003-----0
  6
CONTINUOUS
  5
28
 10
128.349471
 20
294.727536
 30
0.0
 11
126.0
 21
312.573544
 31
0.0
  0
LINE
  8
LC-002-003-----0
  6
CONTINUOUS
  5
29
 10
126.0
 20
312.573544
 30
0.0
 11
123.650529
 21
294.727536
 31
0.0
  0
LINE
  8
LC-002-003-----0
  6
CONTINUOUS
  5
2A
 10
123.650529
 20
294.727536
 30
0.0
 11
128.349471
 21
294.727536
 31
0.0
  0
LINE
  8
LC-002-003-----0
  6
CONTINUOUS
  5
2B
 10
127.738609
 20
294.687498
 30
0.0
 11
126.0
 21
307.893544
 31
0.0
  0
LINE
  8
LC-002-003-----0
  6
CONTINUOUS
  5
2C
 10
126.0
 20
307.893544
 30
0.0
 11
124.261391
 21
294.687498
 31
0.0
  0
LINE
  8
LC-002-003-----0
  6
CONTINUOUS
  5
2D
 10
127.127746
 20
294.64746
 30
0.0
 11
126.0
 21
303.213544
 31
0.0
  0
LINE
  8
LC-002-003-----0
  6
CONTINUOUS
  5
2E
 10
126.0
 20
303.213544
 30
0.0
 11
124.872254
 21
294.64746
 31
0.0
  0
LINE
  8
LC-002-003-----0
  6
CONTINUOUS
  5
2F
 10
126.516884
 20
294.607422
 30
0.0
 11
126.0
 21
298.533544
 31
0.0
  0
LINE
  8
LC-002-003-----0
  6
CONTINUOUS
  5
30
 10
126.0
 20
298.533544
 30
0.0
 11
125.483116
 21
294.607422
 31
0.0
  0
LINE
  8
LC-002-003-----0
  6
CONTINUOUS
  5
31
 10
123.650529
 20
375.419555
 30
0.0
 11
126.0
 21
357.573548
 31
0.0
  0
LINE
  8
LC-002-003-----0
  6
CONTINUOUS
  5
32
 10
126.0
 20
357.573548
 30
0.0
 11
128.349471
 21
375.419555
 31
0.0
  0
LINE
  8
LC-002-003-----0
  6
CONTINUOUS
  5
33
 10
128.349471
 20
375.419555
 30
0.0
 11
123.650529
 21
375.419555
 31
0.0
  0
LINE
  8
LC-002-003-----0
  6
CONTINUOUS
  5
34
 10
124.261391
 20
375.459593
 30
0.0
 11
126.0
 21
362.253548
 31
0.0
  0
LINE
  8
LC-002-003-----0
  6
CONTINUOUS
  5
35
 10
126.0
 20
362.253548
 30
0.0
 11
127.738609
 21
375.459593
 31
0.0
  0
LINE
  8
LC-002-003-----0
  6
CONTINUOUS
  5
36
 10
124.872254
 20
375.499631
 30
0.0
 11
126.0
 21
366.933548
 31
0.0
  0
LINE
  8
LC-002-003-----0
  6
CONTINUOUS
  5
37
 10
126.0
 20
366.933548
 30
0.0
 11
127.127746
 21
375.499631
 31
0.0
  0
LINE
  8
LC-002-003-----0
  6
CONTINUOUS
  5
38
 10
125.483116
 20
375.539669
 30
0.0
 11
126.0
 21
371.613548
 31
0.0
  0
LINE
  8
LC-002-003-----0
  6
CONTINUOUS
  5
39
 10
126.0
 20
371.613548
 30
0.0
 11
126.516884
 21
375.539669
 31
0.0
  0
LINE
  8
LC-004-003-MTG-0
  6
CONTINUOUS
  5
3B
 10
126.0
 20
287.373544
 30
0.0
 11
126.0
 21
431.776067
 31
0.0
  0
TEXT
  8
LC-002-003-----0
  6
CONTINUOUS
 62
     6
  5
3D
 10
115.568001
 20
384.848793
 30
0.0
 40
18.0
  1
Ø45
 50
90.0
 41
0.9
 51
15.0
  7
LC-TXTSTYLE-150-400-0-0-D0
  0
ENDBLK
  8
0
  5
3E
  0
BLOCK
  8
0
  5
40
  2
*D1
 70
    65
 10
0.0
 20
0.0
 30
0.0
  3
*D1
  0
LINE
  8
LC-003-003-MTH-0
  6
CONTINUOUS
  5
41
 10
158.48713
 20
356.7697
 30
0.0
 11
158.48713
 21
402.8
 31
0.0
  0
LINE
  8
LC-003-003-MTH-0
  6
CONTINUOUS
  5
42
 10
458.48713
 20
356.828384
 30
0.0
 11
458.48713
 21
402.8
 31
0.0
  0
LINE
  8
LC-004-003-MTG-0
  6
CONTINUOUS
  5
43
 10
158.48713
 20
392.0
 30
0.0
 11
458.48713
 21
392.0
 31
0.0
  0
LINE
  8
LC-002-003-----0
  6
CONTINUOUS
  5
44
 10
176.333137
 20
394.349471
 30
0.0
 11
158.48713
 21
392.0
 31
0.0
  0
LINE
  8
LC-002-003-----0
  6
CONTINUOUS
  5
45
 10
158.48713
 20
392.0
 30
0.0
 11
176.333137
 21
389.650529
 31
0.0
  0
LINE
  8
LC-002-003-----0
  6
CONTINUOUS
  5
46
 10
176.333137
 20
389.650529
 30
0.0
 11
176.333137
 21
394.349471
 31
0.0
  0
LINE
  8
LC-002-003-----0
  6
CONTINUOUS
  5
47
 10
176.373175
 20
393.738609
 30
0.0
 11
163.16713
 21
392.0
 31
0.0
  0
LINE
  8
LC-002-003-----0
  6
CONTINUOUS
  5
48
 10
163.16713
 20
392.0
 30
0.0
 11
176.373175
 21
390.261391
 31
0.0
  0
LINE
  8
LC-002-003-----0
  6
CONTINUOUS
  5
49
 10
176.413213
 20
393.127746
 30
0.0
 11
167.84713
 21
392.0
 31
0.0
  0
LINE
  8
LC-002-003-----0
  6
CONTINUOUS
  5
4A
 10
167.84713
 20
392.0
 30
0.0
 11
176.413213
 21
390.872254
 31
0.0
  0
LINE
  8
LC-002-003-----0
  6
CONTINUOUS
  5
4B
 10
176.453251
 20
392.516884
 30
0.0
 11
172.52713
 21
392.0
 31
0.0
  0
LINE
  8
LC-002-003-----0
  6
CONTINUOUS
  5
4C
 10
172.52713
 20
392.0
 30
0.0
 11
176.453251
 21
391.483116
 31
0.0
  0
LINE
  8
LC-002-003-----0
  6
CONTINUOUS
  5
4D
 10
440.641122
 20
389.650529
 30
0.0
 11
458.48713
 21
392.0
 31
0.0
  0
LINE
  8
LC-002-003-----0
  6
CONTINUOUS
  5
4E
 10
458.48713
 20
392.0
 30
0.0
 11
440.641122
 21
394.349471
 31
0.0
  0
LINE
  8
LC-002-003-----0
  6
CONTINUOUS
  5
4F
 10
440.641122
 20
394.349471
 30
0.0
 11
440.641122
 21
389.650529
 31
0.0
  0
LINE
  8
LC-002-003-----0
  6
CONTINUOUS
  5
50
 10
440.601084
 20
390.261391
 30
0.0
 11
453.80713
 21
392.0
 31
0.0
  0
LINE
  8
LC-002-003-----0
  6
CONTINUOUS
  5
51
 10
453.80713
 20
392.0
 30
0.0
 11
440.601084
 21
393.738609
 31
0.0
  0
LINE
  8
LC-002-003-----0
  6
CONTINUOUS
  5
52
 10
440.561046
 20
390.872254
 30
0.0
 11
449.12713
 21
392.0
 31
0.0
  0
LINE
  8
LC-002-003-----0
  6
CONTINUOUS
  5
53
 10
449.12713
 20
392.0
 30
0.0
 11
440.561046
 21
393.127746
 31
0.0
  0
LINE
  8
LC-002-003-----0
  6
CONTINUOUS
  5
54
 10
440.521008
 20
391.483116
 30
0.0
 11
444.44713
 21
392.0
 31
0.0
  0
LINE
  8
LC-002-003-----0
  6
CONTINUOUS
  5
55
 10
444.44713
 20
392.0
 30
0.0
 11
440.521008
 21
392.516884
 31
0.0
  0
TEXT
  8
LC-002-003-----0
  6
CONTINUOUS
 62
     6
  5
56
 10
292.148517
 20
402.431999
 30
0.0
 40
18.0
  1
300
 51
15.0
  7
LC-TXTSTYLE-150-400-0-0-D0
 72
     1
 11
311.282376
 21
402.431999
 31
0.0
  0
ENDBLK
  8
0
  5
57
  0
BLOCK
  8
0
  5
59
  2
*X2
 70
    65
 10
158.487128
 20
355.073312
 30
0.0
  3
*X2
  0
LINE
  8
LC-006-005-----0
  6
CONTINUOUS
  5
5B
 10
456.89669
 20
355.073314
 30
0.0
 11
458.48713
 21
356.663753
 31
0.0
  0
LINE
  8
LC-006-005-----0
  6
CONTINUOUS
  5
5C
 10
454.068265
 20
355.073316
 30
0.0
 11
456.339796
 21
357.344847
 31
0.0
  0
LINE
  8
LC-006-005-----0
  6
CONTINUOUS
  5
5D
 10
451.23984
 20
355.073318
 30
0.0
 11
453.739841
 21
357.573319
 31
0.0
  0
LINE
  8
LC-006-005-----0
  6
CONTINUOUS
  5
5E
 10
448.411415
 20
355.07332
 30
0.0
 11
450.911417
 21
357.573322
 31
0.0
  0
LINE
  8
LC-006-005-----0
  6
CONTINUOUS
  5
5F
 10
445.582991
 20
355.073323
 30
0.0
 11
448.082994
 21
357.573326
 31
0.0
  0
LINE
  8
LC-006-005-----0
  6
CONTINUOUS
  5
60
 10
442.754566
 20
355.073325
 30
0.0
 11
445.254571
 21
357.57333
 31
0.0
  0
LINE
  8
LC-006-005-----0
  6
CONTINUOUS
  5
61
 10
439.926141
 20
355.073327
 30
0.0
 11
442.426147
 21
357.573333
 31
0.0
  0
LINE
  8
LC-006-005-----0
  6
CONTINUOUS
  5
62
 10
437.097716
 20
355.073329
 30
0.0
 11
440.487132
 21
358.462745
 31
0.0
  0
LINE
  8
LC-006-005-----0
  6
CONTINUOUS
  5
63
 10
434.269291
 20
355.073331
 30
0.0
 11
436.769299
 21
357.57334
 31
0.0
  0
LINE
  8
LC-006-005-----0
  6
CONTINUOUS
  5
64
 10
438.487133
 20
359.291174
 30
0.0
 11
439.737459
 21
360.541499
 31
0.0
  0
LINE
  8
LC-006-005-----0
  6
CONTINUOUS
  5
65
 10
431.440866
 20
355.073334
 30
0.0
 11
433.940874
 21
357.573342
 31
0.0
  0
LINE
  8
LC-006-005-----0
  6
CONTINUOUS
  5
66
 10
428.612441
 20
355.073336
 30
0.0
 11
431.112449
 21
357.573344
 31
0.0
  0
LINE
  8
LC-006-005-----0
  6
CONTINUOUS
  5
67
 10
425.784016
 20
355.073338
 30
0.0
 11
428.284024
 21
357.573346
 31
0.0
  0
LINE
  8
LC-006-005-----0
  6
CONTINUOUS
  5
68
 10
422.955591
 20
355.07334
 30
0.0
 11
425.455599
 21
357.573348
 31
0.0
  0
LINE
  8
LC-006-005-----0
  6
CONTINUOUS
  5
69
 10
420.127166
 20
355.073343
 30
0.0
 11
422.627174
 21
357.57335
 31
0.0
  0
LINE
  8
LC-006-005-----0
  6
CONTINUOUS
  5
6A
 10
417.298741
 20
355.073345
 30
0.0
 11
419.798749
 21
357.573352
 31
0.0
  0
LINE
  8
LC-006-005-----0
  6
CONTINUOUS
  5
6B
 10
414.470317
 20
355.073347
 30
0.0
 11
416.970324
 21
357.573355
 31
0.0
  0
LINE
  8
LC-006-005-----0
  6
CONTINUOUS
  5
6C
 10
411.641892
 20
355.073349
 30
0.0
 11
414.141899
 21
357.573357
 31
0.0
  0
LINE
  8
LC-006-005-----0
  6
CONTINUOUS
  5
6D
 10
408.813467
 20
355.073351
 30
0.0
 11
411.313474
 21
357.573359
 31
0.0
  0
LINE
  8
LC-006-005-----0
  6
CONTINUOUS
  5
6E
 10
405.985042
 20
355.073354
 30
0.0
 11
408.485049
 21
357.573361
 31
0.0
  0
LINE
  8
LC-006-005-----0
  6
CONTINUOUS
  5
6F
 10
403.156617
 20
355.073356
 30
0.0
 11
405.656624
 21
357.573363
 31
0.0
  0
LINE
  8
LC-006-005-----0
  6
CONTINUOUS
  5
70
 10
400.328192
 20
355.073358
 30
0.0
 11
402.828199
 21
357.573365
 31
0.0
  0
LINE
  8
LC-006-005-----0
  6
CONTINUOUS
  5
71
 10
397.499767
 20
355.07336
 30
0.0
 11
399.999774
 21
357.573367
 31
0.0
  0
LINE
  8
LC-006-005-----0
  6
CONTINUOUS
  5
72
 10
394.671342
 20
355.073362
 30
0.0
 11
397.171349
 21
357.573369
 31
0.0
  0
LINE
  8
LC-006-005-----0
  6
CONTINUOUS
  5
73
 10
391.842917
 20
355.073365
 30
0.0
 11
394.342924
 21
357.573371
 31
0.0
  0
LINE
  8
LC-006-005-----0
  6
CONTINUOUS
  5
74
 10
389.014492
 20
355.073367
 30
0.0
 11
391.514499
 21
357.573373
 31
0.0
  0
LINE
  8
LC-006-005-----0
  6
CONTINUOUS
  5
75
 10
386.186068
 20
355.073369
 30
0.0
 11
388.686074
 21
357.573375
 31
0.0
  0
LINE
  8
LC-006-005-----0
  6
CONTINUOUS
  5
76
 10
383.357643
 20
355.073371
 30
0.0
 11
385.857649
 21
357.573378
 31
0.0
  0
LINE
  8
LC-006-005-----0
  6
CONTINUOUS
  5
77
 10
380.529218
 20
355.073374
 30
0.0
 11
383.029224
 21
357.57338
 31
0.0
  0
LINE
  8
LC-006-005-----0
  6
CONTINUOUS
  5
78
 10
377.700793
 20
355.073376
 30
0.0
 11
380.200799
 21
357.573382
 31
0.0
  0
LINE
  8
LC-006-005-----0
  6
CONTINUOUS
  5
79
 10
374.872368
 20
355.073378
 30
0.0
 11
377.372374
 21
357.573384
 31
0.0
  0
LINE
  8
LC-006-005-----0
  6
CONTINUOUS
  5
7A
 10
372.043943
 20
355.07338
 30
0.0
 11
374.543949
 21
357.573386
 31
0.0
  0
LINE
  8
LC-006-005-----0
  6
CONTINUOUS
  5
7B
 10
369.215518
 20
355.073382
 30
0.0
 11
371.715524
 21
357.573388
 31
0.0
  0
LINE
  8
LC-006-005-----0
  6
CONTINUOUS
  5
7C
 10
366.387093
 20
355.073385
 30
0.0
 11
368.887099
 21
357.57339
 31
0.0
  0
LINE
  8
LC-006-005-----0
  6
CONTINUOUS
  5
7D
 10
363.558668
 20
355.073387
 30
0.0
 11
366.058674
 21
357.573392
 31
0.0
  0
LINE
  8
LC-006-005-----0
  6
CONTINUOUS
  5
7E
 10
360.730243
 20
355.073389
 30
0.0
 11
363.230249
 21
357.573394
 31
0.0
  0
LINE
  8
LC-006-005-----0
  6
CONTINUOUS
  5
7F
 10
357.901818
 20
355.073391
 30
0.0
 11
360.401824
 21
357.573396
 31
0.0
  0
LINE
  8
LC-006-005-----0
  6
CONTINUOUS
  5
80
 10
355.073394
 20
355.073394
 30
0.0
 11
357.573399
 21
357.573399
 31
0.0
  0
LINE
  8
LC-006-005-----0
  6
CONTINUOUS
  5
81
 10
352.244969
 20
355.073396
 30
0.0
 11
354.744973
 21
357.573401
 31
0.0
  0
LINE
  8
LC-006-005-----0
  6
CONTINUOUS
  5
82
 10
349.416544
 20
355.073398
 30
0.0
 11
351.916548
 21
357.573403
 31
0.0
  0
LINE
  8
LC-006-005-----0
  6
CONTINUOUS
  5
83
 10
346.588119
 20
355.0734
 30
0.0
 11
349.088123
 21
357.573405
 31
0.0
  0
LINE
  8
LC-006-005-----0
  6
CONTINUOUS
  5
84
 10
343.759694
 20
355.073402
 30
0.0
 11
346.259698
 21
357.573407
 31
0.0
  0
LINE
  8
LC-006-005-----0
  6
CONTINUOUS
  5
85
 10
340.931269
 20
355.073405
 30
0.0
 11
343.431273
 21
357.573409
 31
0.0
  0
LINE
  8
LC-006-005-----0
  6
CONTINUOUS
  5
86
 10
338.102844
 20
355.073407
 30
0.0
 11
340.602848
 21
357.573411
 31
0.0
  0
LINE
  8
LC-006-005-----0
  6
CONTINUOUS
  5
87
 10
335.274419
 20
355.073409
 30
0.0
 11
337.774423
 21
357.573413
 31
0.0
  0
LINE
  8
LC-006-005-----0
  6
CONTINUOUS
  5
88
 10
332.445994
 20
355.073411
 30
0.0
 11
334.945998
 21
357.573415
 31
0.0
  0
LINE
  8
LC-006-005-----0
  6
CONTINUOUS
  5
89
 10
329.617569
 20
355.073414
 30
0.0
 11
332.117573
 21
357.573417
 31
0.0
  0
LINE
  8
LC-006-005-----0
  6
CONTINUOUS
  5
8A
 10
326.789144
 20
355.073416
 30
0.0
 11
329.289148
 21
357.573419
 31
0.0
  0
LINE
  8
LC-006-005-----0
  6
CONTINUOUS
  5
8B
 10
323.96072
 20
355.073418
 30
0.0
 11
326.460723
 21
357.573422
 31
0.0
  0
LINE
  8
LC-006-005-----0
  6
CONTINUOUS
  5
8C
 10
321.132295
 20
355.07342
 30
0.0
 11
323.632298
 21
357.573424
 31
0.0
  0
LINE
  8
LC-006-005-----0
  6
CONTINUOUS
  5
8D
 10
318.30387
 20
355.073422
 30
0.0
 11
320.803873
 21
357.573426
 31
0.0
  0
LINE
  8
LC-006-005-----0
  6
CONTINUOUS
  5
8E
 10
315.475445
 20
355.073425
 30
0.0
 11
317.975448
 21
357.573428
 31
0.0
  0
LINE
  8
LC-006-005-----0
  6
CONTINUOUS
  5
8F
 10
312.64702
 20
355.073427
 30
0.0
 11
315.147023
 21
357.57343
 31
0.0
  0
LINE
  8
LC-006-005-----0
  6
CONTINUOUS
  5
90
 10
309.818595
 20
355.073429
 30
0.0
 11
312.318598
 21
357.573432
 31
0.0
  0
LINE
  8
LC-006-005-----0
  6
CONTINUOUS
  5
91
 10
306.99017
 20
355.073431
 30
0.0
 11
309.490173
 21
357.573434
 31
0.0
  0
LINE
  8
LC-006-005-----0
  6
CONTINUOUS
  5
92
 10
304.161745
 20
355.073433
 30
0.0
 11
306.661748
 21
357.573436
 31
0.0
  0
LINE
  8
LC-006-005-----0
  6
CONTINUOUS
  5
93
 10
301.33332
 20
355.073436
 30
0.0
 11
303.833323
 21
357.573438
 31
0.0
  0
LINE
  8
LC-006-005-----0
  6
CONTINUOUS
  5
94
 10
298.504895
 20
355.073438
 30
0.0
 11
301.004898
 21
357.57344
 31
0.0
  0
LINE
  8
LC-006-005-----0
  6
CONTINUOUS
  5
95
 10
295.676471
 20
355.07344
 30
0.0
 11
298.176473
 21
357.573443
 31
0.0
  0
LINE
  8
LC-006-005-----0
  6
CONTINUOUS
  5
96
 10
292.848046
 20
355.073442
 30
0.0
 11
295.348048
 21
357.573445
 31
0.0
  0
LINE
  8
LC-006-005-----0
  6
CONTINUOUS
  5
97
 10
290.019621
 20
355.073445
 30
0.0
 11
292.519623
 21
357.573447
 31
0.0
  0
LINE
  8
LC-006-005-----0
  6
CONTINUOUS
  5
98
 10
287.191196
 20
355.073447
 30
0.0
 11
289.691198
 21
357.573449
 31
0.0
  0
LINE
  8
LC-006-005-----0
  6
CONTINUOUS
  5
99
 10
284.362771
 20
355.073449
 30
0.0
 11
286.862773
 21
357.573451
 31
0.0
  0
LINE
  8
LC-006-005-----0
  6
CONTINUOUS
  5
9A
 10
281.534346
 20
355.073451
 30
0.0
 11
284.034348
 21
357.573453
 31
0.0
  0
LINE
  8
LC-006-005-----0
  6
CONTINUOUS
  5
9B
 10
278.705921
 20
355.073453
 30
0.0
 11
281.205923
 21
357.573455
 31
0.0
  0
LINE
  8
LC-006-005-----0
  6
CONTINUOUS
  5
9C
 10
275.877496
 20
355.073456
 30
0.0
 11
278.377498
 21
357.573457
 31
0.0
  0
LINE
  8
LC-006-005-----0
  6
CONTINUOUS
  5
9D
 10
273.049071
 20
355.073458
 30
0.0
 11
275.549073
 21
357.573459
 31
0.0
  0
LINE
  8
LC-006-005-----0
  6
CONTINUOUS
  5
9E
 10
270.220646
 20
355.07346
 30
0.0
 11
272.720648
 21
357.573461
 31
0.0
  0
LINE
  8
LC-006-005-----0
  6
CONTINUOUS
  5
9F
 10
267.392221
 20
355.073462
 30
0.0
 11
269.892223
 21
357.573463
 31
0.0
  0
LINE
  8
LC-006-005-----0
  6
CONTINUOUS
  5
A0
 10
264.563797
 20
355.073465
 30
0.0
 11
267.063798
 21
357.573466
 31
0.0
  0
LINE
  8
LC-006-005-----0
  6
CONTINUOUS
  5
A1
 10
261.735372
 20
355.073467
 30
0.0
 11
264.235373
 21
357.573468
 31
0.0
  0
LINE
  8
LC-006-005-----0
  6
CONTINUOUS
  5
A2
 10
258.906947
 20
355.073469
 30
0.0
 11
261.406948
 21
357.57347
 31
0.0
  0
LINE
  8
LC-006-005-----0
  6
CONTINUOUS
  5
A3
 10
256.078522
 20
355.073471
 30
0.0
 11
258.578523
 21
357.573472
 31
0.0
  0
LINE
  8
LC-006-005-----0
  6
CONTINUOUS
  5
A4
 10
253.250097
 20
355.073473
 30
0.0
 11
255.750097
 21
357.573474
 31
0.0
  0
LINE
  8
LC-006-005-----0
  6
CONTINUOUS
  5
A5
 10
250.421672
 20
355.073476
 30
0.0
 11
252.921672
 21
357.573476
 31
0.0
  0
LINE
  8
LC-006-005-----0
  6
CONTINUOUS
  5
A6
 10
247.593247
 20
355.073478
 30
0.0
 11
250.093247
 21
357.573478
 31
0.0
  0
LINE
  8
LC-006-005-----0
  6
CONTINUOUS
  5
A7
 10
244.764822
 20
355.07348
 30
0.0
 11
247.264822
 21
357.57348
 31
0.0
  0
LINE
  8
LC-006-005-----0
  6
CONTINUOUS
  5
A8
 10
241.936397
 20
355.073482
 30
0.0
 11
244.436397
 21
357.573482
 31
0.0
  0
LINE
  8
LC-006-005-----0
  6
CONTINUOUS
  5
A9
 10
239.107972
 20
355.073484
 30
0.0
 11
241.607972
 21
357.573484
 31
0.0
  0
LINE
  8
LC-006-005-----0
  6
CONTINUOUS
  5
AA
 10
236.279547
 20
355.073487
 30
0.0
 11
238.779547
 21
357.573487
 31
0.0
  0
LINE
  8
LC-006-005-----0
  6
CONTINUOUS
  5
AB
 10
233.451123
 20
355.073489
 30
0.0
 11
235.951122
 21
357.573489
 31
0.0
  0
LINE
  8
LC-006-005-----0
  6
CONTINUOUS
  5
AC
 10
230.622698
 20
355.073491
 30
0.0
 11
233.122697
 21
357.573491
 31
0.0
  0
LINE
  8
LC-006-005-----0
  6
CONTINUOUS
  5
AD
 10
227.794273
 20
355.073493
 30
0.0
 11
230.294272
 21
357.573493
 31
0.0
  0
LINE
  8
LC-006-005-----0
  6
CONTINUOUS
  5
AE
 10
224.965848
 20
355.073496
 30
0.0
 11
227.465847
 21
357.573495
 31
0.0
  0
LINE
  8
LC-006-005-----0
  6
CONTINUOUS
  5
AF
 10
222.137423
 20
355.073498
 30
0.0
 11
224.637422
 21
357.573497
 31
0.0
  0
LINE
  8
LC-006-005-----0
  6
CONTINUOUS
  5
B0
 10
219.308998
 20
355.0735
 30
0.0
 11
221.808997
 21
357.573499
 31
0.0
  0
LINE
  8
LC-006-005-----0
  6
CONTINUOUS
  5
B1
 10
216.480573
 20
355.073502
 30
0.0
 11
218.980572
 21
357.573501
 31
0.0
  0
LINE
  8
LC-006-005-----0
  6
CONTINUOUS
  5
B2
 10
213.652148
 20
355.073504
 30
0.0
 11
216.152147
 21
357.573503
 31
0.0
  0
LINE
  8
LC-006-005-----0
  6
CONTINUOUS
  5
B3
 10
210.823723
 20
355.073507
 30
0.0
 11
213.323722
 21
357.573505
 31
0.0
  0
LINE
  8
LC-006-005-----0
  6
CONTINUOUS
  5
B4
 10
207.995298
 20
355.073509
 30
0.0
 11
210.495297
 21
357.573507
 31
0.0
  0
LINE
  8
LC-006-005-----0
  6
CONTINUOUS
  5
B5
 10
205.166874
 20
355.073511
 30
0.0
 11
207.666872
 21
357.57351
 31
0.0
  0
LINE
  8
LC-006-005-----0
  6
CONTINUOUS
  5
B6
 10
202.338449
 20
355.073513
 30
0.0
 11
204.838447
 21
357.573512
 31
0.0
  0
LINE
  8
LC-006-005-----0
  6
CONTINUOUS
  5
B7
 10
199.510024
 20
355.073516
 30
0.0
 11
202.010022
 21
357.573514
 31
0.0
  0
LINE
  8
LC-006-005-----0
  6
CONTINUOUS
  5
B8
 10
196.681599
 20
355.073518
 30
0.0
 11
199.181597
 21
357.573516
 31
0.0
  0
LINE
  8
LC-006-005-----0
  6
CONTINUOUS
  5
B9
 10
193.853174
 20
355.07352
 30
0.0
 11
196.353172
 21
357.573518
 31
0.0
  0
LINE
  8
LC-006-005-----0
  6
CONTINUOUS
  5
BA
 10
191.024749
 20
355.073522
 30
0.0
 11
193.524747
 21
357.57352
 31
0.0
  0
LINE
  8
LC-006-005-----0
  6
CONTINUOUS
  5
BB
 10
188.196324
 20
355.073524
 30
0.0
 11
190.696322
 21
357.573522
 31
0.0
  0
LINE
  8
LC-006-005-----0
  6
CONTINUOUS
  5
BC
 10
185.367899
 20
355.073527
 30
0.0
 11
187.867897
 21
357.573524
 31
0.0
  0
LINE
  8
LC-006-005-----0
  6
CONTINUOUS
  5
BD
 10
182.539474
 20
355.073529
 30
0.0
 11
185.039472
 21
357.573526
 31
0.0
  0
LINE
  8
LC-006-005-----0
  6
CONTINUOUS
  5
BE
 10
179.711049
 20
355.073531
 30
0.0
 11
182.211047
 21
357.573528
 31
0.0
  0
LINE
  8
LC-006-005-----0
  6
CONTINUOUS
  5
BF
 10
176.882624
 20
355.073533
 30
0.0
 11
179.382622
 21
357.573531
 31
0.0
  0
LINE
  8
LC-006-005-----0
  6
CONTINUOUS
  5
C0
 10
174.0542
 20
355.073536
 30
0.0
 11
176.554197
 21
357.573533
 31
0.0
  0
LINE
  8
LC-006-005-----0
  6
CONTINUOUS
  5
C1
 10
171.225775
 20
355.073538
 30
0.0
 11
173.725772
 21
357.573535
 31
0.0
  0
LINE
  8
LC-006-005-----0
  6
CONTINUOUS
  5
C2
 10
168.39735
 20
355.07354
 30
0.0
 11
170.897347
 21
357.573537
 31
0.0
  0
LINE
  8
LC-006-005-----0
  6
CONTINUOUS
  5
C3
 10
165.568925
 20
355.073542
 30
0.0
 11
168.068922
 21
357.573539
 31
0.0
  0
LINE
  8
LC-006-005-----0
  6
CONTINUOUS
  5
C4
 10
162.7405
 20
355.073544
 30
0.0
 11
165.240497
 21
357.573541
 31
0.0
  0
LINE
  8
LC-006-005-----0
  6
CONTINUOUS
  5
C5
 10
159.912075
 20
355.073547
 30
0.0
 11
162.412072
 21
357.573543
 31
0.0
  0
LINE
  8
LC-006-005-----0
  6
CONTINUOUS
  5
C6
 10
158.487129
 20
356.477028
 30
0.0
 11
158.886926
 21
356.876825
 31
0.0
  0
ENDBLK
  8
0
  5
C7
  0
BLOCK
  8
0
  5
C9
  2
*X3
 70
    65
 10
158.487073
 20
309.573337
 30
0.0
  3
*X3
  0
LINE
  8
LC-006-005-----0
  6
CONTINUOUS
  5
CA
 10
457.312114
 20
313.062331
 30
0.0
 11
458.487074
 21
314.237291
 31
0.0
  0
LINE
  8
LC-006-005-----0
  6
CONTINUOUS
  5
CB
 10
453.994675
 20
312.573318
 30
0.0
 11
456.49467
 21
315.073314
 31
0.0
  0
LINE
  8
LC-006-005-----0
  6
CONTINUOUS
  5
CC
 10
451.166251
 20
312.573322
 30
0.0
 11
453.666245
 21
315.073316
 31
0.0
  0
LINE
  8
LC-006-005-----0
  6
CONTINUOUS
  5
CD
 10
448.337828
 20
312.573326
 30
0.0
 11
450.83782
 21
315.073318
 31
0.0
  0
LINE
  8
LC-006-005-----0
  6
CONTINUOUS
  5
CE
 10
445.509404
 20
312.573329
 30
0.0
 11
448.009396
 21
315.073321
 31
0.0
  0
LINE
  8
LC-006-005-----0
  6
CONTINUOUS
  5
CF
 10
439.705027
 20
309.597379
 30
0.0
 11
440.463028
 21
310.35538
 31
0.0
  0
LINE
  8
LC-006-005-----0
  6
CONTINUOUS
  5
D0
 10
442.680981
 20
312.573333
 30
0.0
 11
445.180971
 21
315.073323
 31
0.0
  0
LINE
  8
LC-006-005-----0
  6
CONTINUOUS
  5
D1
 10
438.48707
 20
311.20785
 30
0.0
 11
442.352546
 21
315.073325
 31
0.0
  0
LINE
  8
LC-006-005-----0
  6
CONTINUOUS
  5
D2
 10
437.024133
 20
312.57334
 30
0.0
 11
439.524121
 21
315.073327
 31
0.0
  0
LINE
  8
LC-006-005-----0
  6
CONTINUOUS
  5
D3
 10
434.195708
 20
312.573342
 30
0.0
 11
436.695696
 21
315.07333
 31
0.0
  0
LINE
  8
LC-006-005-----0
  6
CONTINUOUS
  5
D4
 10
431.367283
 20
312.573344
 30
0.0
 11
433.867271
 21
315.073332
 31
0.0
  0
LINE
  8
LC-006-005-----0
  6
CONTINUOUS
  5
D5
 10
428.538858
 20
312.573346
 30
0.0
 11
431.038846
 21
315.073334
 31
0.0
  0
LINE
  8
LC-006-005-----0
  6
CONTINUOUS
  5
D6
 10
425.710433
 20
312.573348
 30
0.0
 11
428.210421
 21
315.073336
 31
0.0
  0
LINE
  8
LC-006-005-----0
  6
CONTINUOUS
  5
D7
 10
422.882008
 20
312.57335
 30
0.0
 11
425.381996
 21
315.073338
 31
0.0
  0
LINE
  8
LC-006-005-----0
  6
CONTINUOUS
  5
D8
 10
420.053583
 20
312.573352
 30
0.0
 11
422.553571
 21
315.073341
 31
0.0
  0
LINE
  8
LC-006-005-----0
  6
CONTINUOUS
  5
D9
 10
417.225158
 20
312.573354
 30
0.0
 11
419.725146
 21
315.073343
 31
0.0
  0
LINE
  8
LC-006-005-----0
  6
CONTINUOUS
  5
DA
 10
414.396733
 20
312.573356
 30
0.0
 11
416.896722
 21
315.073345
 31
0.0
  0
LINE
  8
LC-006-005-----0
  6
CONTINUOUS
  5
DB
 10
411.568308
 20
312.573359
 30
0.0
 11
414.068297
 21
315.073347
 31
0.0
  0
LINE
  8
LC-006-005-----0
  6
CONTINUOUS
  5
DC
 10
408.739883
 20
312.573361
 30
0.0
 11
411.239872
 21
315.073349
 31
0.0
  0
LINE
  8
LC-006-005-----0
  6
CONTINUOUS
  5
DD
 10
405.911458
 20
312.573363
 30
0.0
 11
408.411447
 21
315.073352
 31
0.0
  0
LINE
  8
LC-006-005-----0
  6
CONTINUOUS
  5
DE
 10
403.083033
 20
312.573365
 30
0.0
 11
405.583022
 21
315.073354
 31
0.0
  0
LINE
  8
LC-006-005-----0
  6
CONTINUOUS
  5
DF
 10
400.254608
 20
312.573367
 30
0.0
 11
402.754597
 21
315.073356
 31
0.0
  0
LINE
  8
LC-006-005-----0
  6
CONTINUOUS
  5
E0
 10
397.426183
 20
312.573369
 30
0.0
 11
399.926172
 21
315.073358
 31
0.0
  0
LINE
  8
LC-006-005-----0
  6
CONTINUOUS
  5
E1
 10
394.597758
 20
312.573371
 30
0.0
 11
397.097747
 21
315.073361
 31
0.0
  0
LINE
  8
LC-006-005-----0
  6
CONTINUOUS
  5
E2
 10
391.769333
 20
312.573373
 30
0.0
 11
394.269322
 21
315.073363
 31
0.0
  0
LINE
  8
LC-006-005-----0
  6
CONTINUOUS
  5
E3
 10
388.940908
 20
312.573375
 30
0.0
 11
391.440897
 21
315.073365
 31
0.0
  0
LINE
  8
LC-006-005-----0
  6
CONTINUOUS
  5
E4
 10
386.112483
 20
312.573377
 30
0.0
 11
388.612472
 21
315.073367
 31
0.0
  0
LINE
  8
LC-006-005-----0
  6
CONTINUOUS
  5
E5
 10
383.284058
 20
312.573379
 30
0.0
 11
385.784048
 21
315.073369
 31
0.0
  0
LINE
  8
LC-006-005-----0
  6
CONTINUOUS
  5
E6
 10
380.455633
 20
312.573382
 30
0.0
 11
382.955623
 21
315.073372
 31
0.0
  0
LINE
  8
LC-006-005-----0
  6
CONTINUOUS
  5
E7
 10
377.627208
 20
312.573384
 30
0.0
 11
380.127198
 21
315.073374
 31
0.0
  0
LINE
  8
LC-006-005-----0
  6
CONTINUOUS
  5
E8
 10
374.798783
 20
312.573386
 30
0.0
 11
377.298773
 21
315.073376
 31
0.0
  0
LINE
  8
LC-006-005-----0
  6
CONTINUOUS
  5
E9
 10
371.970357
 20
312.573388
 30
0.0
 11
374.470348
 21
315.073378
 31
0.0
  0
LINE
  8
LC-006-005-----0
  6
CONTINUOUS
  5
EA
 10
369.141932
 20
312.57339
 30
0.0
 11
371.641923
 21
315.073381
 31
0.0
  0
LINE
  8
LC-006-005-----0
  6
CONTINUOUS
  5
EB
 10
366.313507
 20
312.573392
 30
0.0
 11
368.813498
 21
315.073383
 31
0.0
  0
LINE
  8
LC-006-005-----0
  6
CONTINUOUS
  5
EC
 10
363.485082
 20
312.573394
 30
0.0
 11
365.985073
 21
315.073385
 31
0.0
  0
LINE
  8
LC-006-005-----0
  6
CONTINUOUS
  5
ED
 10
360.656657
 20
312.573396
 30
0.0
 11
363.156648
 21
315.073387
 31
0.0
  0
LINE
  8
LC-006-005-----0
  6
CONTINUOUS
  5
EE
 10
357.828232
 20
312.573398
 30
0.0
 11
360.328223
 21
315.073389
 31
0.0
  0
LINE
  8
LC-006-005-----0
  6
CONTINUOUS
  5
EF
 10
354.999807
 20
312.5734
 30
0.0
 11
357.499799
 21
315.073392
 31
0.0
  0
LINE
  8
LC-006-005-----0
  6
CONTINUOUS
  5
F0
 10
352.171382
 20
312.573403
 30
0.0
 11
354.671374
 21
315.073394
 31
0.0
  0
LINE
  8
LC-006-005-----0
  6
CONTINUOUS
  5
F1
 10
349.342957
 20
312.573405
 30
0.0
 11
351.842949
 21
315.073396
 31
0.0
  0
LINE
  8
LC-006-005-----0
  6
CONTINUOUS
  5
F2
 10
346.514532
 20
312.573407
 30
0.0
 11
349.014524
 21
315.073398
 31
0.0
  0
LINE
  8
LC-006-005-----0
  6
CONTINUOUS
  5
F3
 10
343.686107
 20
312.573409
 30
0.0
 11
346.186099
 21
315.073401
 31
0.0
  0
LINE
  8
LC-006-005-----0
  6
CONTINUOUS
  5
F4
 10
340.857682
 20
312.573411
 30
0.0
 11
343.357674
 21
315.073403
 31
0.0
  0
LINE
  8
LC-006-005-----0
  6
CONTINUOUS
  5
F5
 10
338.029257
 20
312.573413
 30
0.0
 11
340.529249
 21
315.073405
 31
0.0
  0
LINE
  8
LC-006-005-----0
  6
CONTINUOUS
  5
F6
 10
335.200832
 20
312.573415
 30
0.0
 11
337.700824
 21
315.073407
 31
0.0
  0
LINE
  8
LC-006-005-----0
  6
CONTINUOUS
  5
F7
 10
332.372407
 20
312.573417
 30
0.0
 11
334.872399
 21
315.073409
 31
0.0
  0
LINE
  8
LC-006-005-----0
  6
CONTINUOUS
  5
F8
 10
329.543982
 20
312.573419
 30
0.0
 11
332.043974
 21
315.073412
 31
0.0
  0
LINE
  8
LC-006-005-----0
  6
CONTINUOUS
  5
F9
 10
326.715557
 20
312.573421
 30
0.0
 11
329.215549
 21
315.073414
 31
0.0
  0
LINE
  8
LC-006-005-----0
  6
CONTINUOUS
  5
FA
 10
323.887132
 20
312.573423
 30
0.0
 11
326.387125
 21
315.073416
 31
0.0
  0
LINE
  8
LC-006-005-----0
  6
CONTINUOUS
  5
FB
 10
321.058707
 20
312.573426
 30
0.0
 11
323.5587
 21
315.073418
 31
0.0
  0
LINE
  8
LC-006-005-----0
  6
CONTINUOUS
  5
FC
 10
318.230282
 20
312.573428
 30
0.0
 11
320.730275
 21
315.07342
 31
0.0
  0
LINE
  8
LC-006-005-----0
  6
CONTINUOUS
  5
FD
 10
315.401857
 20
312.57343
 30
0.0
 11
317.90185
 21
315.073423
 31
0.0
  0
LINE
  8
LC-006-005-----0
  6
CONTINUOUS
  5
FE
 10
312.573432
 20
312.573432
 30
0.0
 11
315.073425
 21
315.073425
 31
0.0
  0
LINE
  8
LC-006-005-----0
  6
CONTINUOUS
  5
FF
 10
309.745007
 20
312.573434
 30
0.0
 11
312.245
 21
315.073427
 31
0.0
  0
LINE
  8
LC-006-005-----0
  6
CONTINUOUS
  5
100
 10
306.916582
 20
312.573436
 30
0.0
 11
309.416575
 21
315.073429
 31
0.0
  0
LINE
  8
LC-006-005-----0
  6
CONTINUOUS
  5
101
 10
304.088157
 20
312.573438
 30
0.0
 11
306.58815
 21
315.073432
 31
0.0
  0
LINE
  8
LC-006-005-----0
  6
CONTINUOUS
  5
102
 10
301.259732
 20
312.57344
 30
0.0
 11
303.759725
 21
315.073434
 31
0.0
  0
LINE
  8
LC-006-005-----0
  6
CONTINUOUS
  5
103
 10
298.431307
 20
312.573442
 30
0.0
 11
300.9313
 21
315.073436
 31
0.0
  0
LINE
  8
LC-006-005-----0
  6
CONTINUOUS
  5
104
 10
295.602882
 20
312.573444
 30
0.0
 11
298.102875
 21
315.073438
 31
0.0
  0
LINE
  8
LC-006-005-----0
  6
CONTINUOUS
  5
105
 10
292.774457
 20
312.573447
 30
0.0
 11
295.274451
 21
315.07344
 31
0.0
  0
LINE
  8
LC-006-005-----0
  6
CONTINUOUS
  5
106
 10
289.946032
 20
312.573449
 30
0.0
 11
292.446026
 21
315.073443
 31
0.0
  0
LINE
  8
LC-006-005-----0
  6
CONTINUOUS
  5
107
 10
287.117607
 20
312.573451
 30
0.0
 11
289.617601
 21
315.073445
 31
0.0
  0
LINE
  8
LC-006-005-----0
  6
CONTINUOUS
  5
108
 10
284.289182
 20
312.573453
 30
0.0
 11
286.789176
 21
315.073447
 31
0.0
  0
LINE
  8
LC-006-005-----0
  6
CONTINUOUS
  5
109
 10
281.460757
 20
312.573455
 30
0.0
 11
283.960751
 21
315.073449
 31
0.0
  0
LINE
  8
LC-006-005-----0
  6
CONTINUOUS
  5
10A
 10
278.632332
 20
312.573457
 30
0.0
 11
281.132326
 21
315.073452
 31
0.0
  0
LINE
  8
LC-006-005-----0
  6
CONTINUOUS
  5
10B
 10
275.803906
 20
312.573459
 30
0.0
 11
278.303901
 21
315.073454
 31
0.0
  0
LINE
  8
LC-006-005-----0
  6
CONTINUOUS
  5
10C
 10
272.975481
 20
312.573461
 30
0.0
 11
275.475476
 21
315.073456
 31
0.0
  0
LINE
  8
LC-006-005-----0
  6
CONTINUOUS
  5
10D
 10
270.147056
 20
312.573463
 30
0.0
 11
272.647051
 21
315.073458
 31
0.0
  0
LINE
  8
LC-006-005-----0
  6
CONTINUOUS
  5
10E
 10
267.318631
 20
312.573465
 30
0.0
 11
269.818626
 21
315.07346
 31
0.0
  0
LINE
  8
LC-006-005-----0
  6
CONTINUOUS
  5
10F
 10
264.490206
 20
312.573467
 30
0.0
 11
266.990202
 21
315.073463
 31
0.0
  0
LINE
  8
LC-006-005-----0
  6
CONTINUOUS
  5
110
 10
261.661781
 20
312.57347
 30
0.0
 11
264.161777
 21
315.073465
 31
0.0
  0
LINE
  8
LC-006-005-----0
  6
CONTINUOUS
  5
111
 10
258.833356
 20
312.573472
 30
0.0
 11
261.333352
 21
315.073467
 31
0.0
  0
LINE
  8
LC-006-005-----0
  6
CONTINUOUS
  5
112
 10
256.004931
 20
312.573474
 30
0.0
 11
258.504927
 21
315.073469
 31
0.0
  0
LINE
  8
LC-006-005-----0
  6
CONTINUOUS
  5
113
 10
253.176506
 20
312.573476
 30
0.0
 11
255.676502
 21
315.073472
 31
0.0
  0
LINE
  8
LC-006-005-----0
  6
CONTINUOUS
  5
114
 10
250.348081
 20
312.573478
 30
0.0
 11
252.848077
 21
315.073474
 31
0.0
  0
LINE
  8
LC-006-005-----0
  6
CONTINUOUS
  5
115
 10
247.519656
 20
312.57348
 30
0.0
 11
250.019652
 21
315.073476
 31
0.0
  0
LINE
  8
LC-006-005-----0
  6
CONTINUOUS
  5
116
 10
244.691231
 20
312.573482
 30
0.0
 11
247.191227
 21
315.073478
 31
0.0
  0
LINE
  8
LC-006-005-----0
  6
CONTINUOUS
  5
117
 10
241.862806
 20
312.573484
 30
0.0
 11
244.362802
 21
315.07348
 31
0.0
  0
LINE
  8
LC-006-005-----0
  6
CONTINUOUS
  5
118
 10
239.034381
 20
312.573486
 30
0.0
 11
241.534377
 21
315.073483
 31
0.0
  0
LINE
  8
LC-006-005-----0
  6
CONTINUOUS
  5
119
 10
236.205956
 20
312.573488
 30
0.0
 11
238.705952
 21
315.073485
 31
0.0
  0
LINE
  8
LC-006-005-----0
  6
CONTINUOUS
  5
11A
 10
233.377531
 20
312.573491
 30
0.0
 11
235.877528
 21
315.073487
 31
0.0
  0
LINE
  8
LC-006-005-----0
  6
CONTINUOUS
  5
11B
 10
230.549106
 20
312.573493
 30
0.0
 11
233.049103
 21
315.073489
 31
0.0
  0
LINE
  8
LC-006-005-----0
  6
CONTINUOUS
  5
11C
 10
227.720681
 20
312.573495
 30
0.0
 11
230.220678
 21
315.073491
 31
0.0
  0
LINE
  8
LC-006-005-----0
  6
CONTINUOUS
  5
11D
 10
224.892256
 20
312.573497
 30
0.0
 11
227.392253
 21
315.073494
 31
0.0
  0
LINE
  8
LC-006-005-----0
  6
CONTINUOUS
  5
11E
 10
222.063831
 20
312.573499
 30
0.0
 11
224.563828
 21
315.073496
 31
0.0
  0
LINE
  8
LC-006-005-----0
  6
CONTINUOUS
  5
11F
 10
219.235406
 20
312.573501
 30
0.0
 11
221.735403
 21
315.073498
 31
0.0
  0
LINE
  8
LC-006-005-----0
  6
CONTINUOUS
  5
120
 10
216.406981
 20
312.573503
 30
0.0
 11
218.906978
 21
315.0735
 31
0.0
  0
LINE
  8
LC-006-005-----0
  6
CONTINUOUS
  5
121
 10
213.578556
 20
312.573505
 30
0.0
 11
216.078553
 21
315.073503
 31
0.0
  0
LINE
  8
LC-006-005-----0
  6
CONTINUOUS
  5
122
 10
210.750131
 20
312.573507
 30
0.0
 11
213.250128
 21
315.073505
 31
0.0
  0
LINE
  8
LC-006-005-----0
  6
CONTINUOUS
  5
123
 10
207.921706
 20
312.573509
 30
0.0
 11
210.421703
 21
315.073507
 31
0.0
  0
LINE
  8
LC-006-005-----0
  6
CONTINUOUS
  5
124
 10
205.093281
 20
312.573511
 30
0.0
 11
207.593278
 21
315.073509
 31
0.0
  0
LINE
  8
LC-006-005-----0
  6
CONTINUOUS
  5
125
 10
202.264856
 20
312.573514
 30
0.0
 11
204.764854
 21
315.073511
 31
0.0
  0
LINE
  8
LC-006-005-----0
  6
CONTINUOUS
  5
126
 10
199.436431
 20
312.573516
 30
0.0
 11
201.936429
 21
315.073514
 31
0.0
  0
LINE
  8
LC-006-005-----0
  6
CONTINUOUS
  5
127
 10
196.608006
 20
312.573518
 30
0.0
 11
199.108004
 21
315.073516
 31
0.0
  0
LINE
  8
LC-006-005-----0
  6
CONTINUOUS
  5
128
 10
193.779581
 20
312.57352
 30
0.0
 11
196.279579
 21
315.073518
 31
0.0
  0
LINE
  8
LC-006-005-----0
  6
CONTINUOUS
  5
129
 10
190.951156
 20
312.573522
 30
0.0
 11
193.451154
 21
315.07352
 31
0.0
  0
LINE
  8
LC-006-005-----0
  6
CONTINUOUS
  5
12A
 10
188.122731
 20
312.573524
 30
0.0
 11
190.622729
 21
315.073523
 31
0.0
  0
LINE
  8
LC-006-005-----0
  6
CONTINUOUS
  5
12B
 10
185.294306
 20
312.573526
 30
0.0
 11
187.794304
 21
315.073525
 31
0.0
  0
LINE
  8
LC-006-005-----0
  6
CONTINUOUS
  5
12C
 10
182.465881
 20
312.573528
 30
0.0
 11
184.965879
 21
315.073527
 31
0.0
  0
LINE
  8
LC-006-005-----0
  6
CONTINUOUS
  5
12D
 10
179.637455
 20
312.57353
 30
0.0
 11
182.137454
 21
315.073529
 31
0.0
  0
LINE
  8
LC-006-005-----0
  6
CONTINUOUS
  5
12E
 10
176.80903
 20
312.573532
 30
0.0
 11
179.309029
 21
315.073531
 31
0.0
  0
LINE
  8
LC-006-005-----0
  6
CONTINUOUS
  5
12F
 10
173.980605
 20
312.573535
 30
0.0
 11
176.480605
 21
315.073534
 31
0.0
  0
LINE
  8
LC-006-005-----0
  6
CONTINUOUS
  5
130
 10
171.15218
 20
312.573537
 30
0.0
 11
173.65218
 21
315.073536
 31
0.0
  0
LINE
  8
LC-006-005-----0
  6
CONTINUOUS
  5
131
 10
168.323755
 20
312.573539
 30
0.0
 11
170.823755
 21
315.073538
 31
0.0
  0
LINE
  8
LC-006-005-----0
  6
CONTINUOUS
  5
132
 10
165.49533
 20
312.573541
 30
0.0
 11
167.99533
 21
315.07354
 31
0.0
  0
LINE
  8
LC-006-005-----0
  6
CONTINUOUS
  5
133
 10
162.666905
 20
312.573543
 30
0.0
 11
165.166905
 21
315.073542
 31
0.0
  0
LINE
  8
LC-006-005-----0
  6
CONTINUOUS
  5
134
 10
160.186868
 20
312.921932
 30
0.0
 11
162.33848
 21
315.073545
 31
0.0
  0
LINE
  8
LC-006-005-----0
  6
CONTINUOUS
  5
135
 10
158.487074
 20
314.050566
 30
0.0
 11
159.510055
 21
315.073547
 31
0.0
  0
ENDBLK
  8
0
  5
136
  0
ENDSEC
  0
SECTION
  2
ENTITIES
  0
VIEWPORT
  8
LC-000
  5
156
 67
     1
 68
     1
 10
420.0
 20
297.0
 30
0.0
 40
840.0
 41
594.0
 69
     1
1001
ACAD
1000
MVIEW
1002
{
1070
    16
1010
0.0
1020
0.0
1030
0.0
1010
0.0
1020
0.0
1030
1.0
1040
0.0
1040
594.0
1040
420.0
1040
297.0
1040
50.0
1040
0.0
1040
0.0
1070
     0
1070
   100
1070
     1
1070
     1
1070
     0
1070
     0
1070
     0
1070
     0
1040
0.0
1040
0.0
1040
0.0
1040
1.0
1040
1.0
1040
0.0
1040
0.0
1070
     0
1002
{
1002
}
1002
}
  0
VIEWPORT
  8
0
  5
157
 67
     1
 68
     1
 10
0.0
 20
0.0
 30
0.0
 40
0.0
 41
0.0
 69
     1
1001
ACAD
1000
MVIEW
1002
{
1070
    16
1010
0.0
1020
0.0
1030
0.0
1010
0.0
1020
0.0
1030
1.0
1040
0.0
1040
594.0
1040
0.0
1040
0.0
1040
50.0
1040
0.0
1040
0.0
1070
     0
1070
   100
1070
     0
1070
     1
1070
     0
1070
     0
1070
     0
1070
     0
1040
0.0
1040
0.0
1040
0.0
1040
0.5
1040
0.5
1040
0.5
1040
0.5
1070
     0
1002
{
1002
}
1002
}
  0
DIMENSION
  8
0
  5
137
  2
*D0
 10
126.0
 20
335.073546
 30
0.0
 11
126.0
 21
335.073546
 31
0.0
  1
%%c<>
 13
161.487131
 23
357.573548
 33
0.0
 14
161.487057
 24
312.573544
 34
0.0
 50
90.0
  3
LC-DIM-L-0090-02-02
  0
DIMENSION
  8
0
  5
138
  2
*D1
 10
308.48713
 20
392.0
 30
0.0
 11
308.48713
 21
392.0
 31
0.0
 13
158.48713
 23
356.7697
 33
0.0
 14
458.48713
 24
356.828384
 34
0.0
  3
LC-DIM-L-0090-02-02
  0
INSERT
  8
0
  5
139
  2
*X2
 10
158.487128
 20
355.073312
 30
0.0
  0
INSERT
  8
0
  5
13A
  2
*X3
 10
158.487073
 20
309.573337
 30
0.0
  0
LINE
  8
LC-001-002-----0
  6
CONTINUOUS
  5
13C
 10
158.48713
 20
356.7697
 30
0.0
 11
158.487073
 21
313.377396
 31
0.0
  0
ARC
  8
LC-005-002-RND-0
  6
CONTINUOUS
  5
13E
 10
439.487133
 20
359.573337
 30
0.0
 40
1.0
 50
89.999925
 51
179.999925
  0
ARC
  8
LC-005-002-RND-0
  6
CONTINUOUS
  5
13F
 10
439.487133
 20
359.573337
 30
0.0
 40
1.0
 50
359.999925
 51
89.999925
  0
LINE
  8
LC-001-002-----0
  6
CONTINUOUS
  5
140
 10
455.487072
 20
312.573316
 30
0.0
 11
440.487072
 21
312.573336
 31
0.0
  0
LINE
  8
LC-001-002-----0
  6
CONTINUOUS
  5
141
 10
161.487116
 20
357.573544
 30
0.0
 11
438.487131
 21
357.573339
 31
0.0
  0
LINE
  8
LC-001-002-----0
  6
CONTINUOUS
  5
142
 10
458.487075
 20
315.073312
 30
0.0
 11
158.487075
 21
315.073548
 31
0.0
  0
LINE
  8
LC-001-002-----0
  6
CONTINUOUS
  5
143
 10
158.487128
 20
355.073548
 30
0.0
 11
458.487128
 21
355.073312
 31
0.0
  0
LINE
  8
LC-001-002-----0
  6
CONTINUOUS
  5
144
 10
458.48713
 20
356.828384
 30
0.0
 11
458.487073
 21
313.37716
 31
0.0
  0
LINE
  8
LC-001-002-----0
  6
CONTINUOUS
  5
145
 10
438.487133
 20
359.573339
 30
0.0
 11
438.487131
 21
357.573339
 31
0.0
  0
LINE
  8
LC-001-002-----0
  6
CONTINUOUS
  5
146
 10
440.487133
 20
359.573336
 30
0.0
 11
440.487131
 21
357.573336
 31
0.0
  0
LINE
  8
LC-001-002-----0
  6
CONTINUOUS
  5
147
 10
439.487135
 20
360.573337
 30
0.0
 11
439.487135
 21
360.573337
 31
0.0
  0
LINE
  8
LC-001-002-----0
  6
CONTINUOUS
  5
148
 10
439.487068
 20
309.573337
 30
0.0
 11
439.487068
 21
309.573337
 31
0.0
  0
LINE
  8
LC-001-002-----0
  6
CONTINUOUS
  5
149
 10
438.487072
 20
312.573339
 30
0.0
 11
438.487069
 21
310.573339
 31
0.0
  0
LINE
  8
LC-001-002-----0
  6
CONTINUOUS
  5
14A
 10
440.487072
 20
312.573336
 30
0.0
 11
440.487069
 21
310.573336
 31
0.0
  0
LINE
  8
LC-001-002-----0
  6
CONTINUOUS
  5
14B
 10
440.487131
 20
357.573336
 30
0.0
 11
455.487131
 21
357.573316
 31
0.0
  0
LINE
  8
LC-001-002-----0
  6
CONTINUOUS
  5
14C
 10
438.487072
 20
312.573339
 30
0.0
 11
161.487072
 21
312.573544
 31
0.0
  0
ARC
  8
LC-005-002-RND-0
  6
CONTINUOUS
  5
14D
 10
439.487069
 20
310.573337
 30
0.0
 40
1.0
 50
179.999925
 51
269.999925
  0
ARC
  8
LC-005-002-RND-0
  6
CONTINUOUS
  5
14E
 10
439.487069
 20
310.573337
 30
0.0
 40
1.0
 50
269.999925
 51
359.999925
  0
LINE
  8
LC-001-002-----0
  6
CONTINUOUS
  5
14F
 10
455.487072
 20
312.573312
 30
0.0
 11
458.487073
 21
313.37716
 31
0.0
  0
LINE
  8
LC-001-002-----0
  6
CONTINUOUS
  5
150
 10
455.487131
 20
357.57332
 30
0.0
 11
458.48713
 21
356.769465
 31
0.0
  0
LINE
  8
LC-001-002-----0
  6
CONTINUOUS
  5
151
 10
161.487131
 20
357.573548
 30
0.0
 11
158.48713
 21
356.7697
 31
0.0
  0
LINE
  8
LC-001-002-----0
  6
CONTINUOUS
  5
152
 10
161.487072
 20
312.57354
 30
0.0
 11
158.487073
 21
313.377396
 31
0.0
  0
LINE
  8
LC-001-002-----0
  6
DASHDOT
 62
     2
  5
154
 10
458.487101
 20
335.073288
 30
0.0
 11
158.487101
 21
335.073288
 31
0.0
  0
ENDSEC
  0
EOF
