  0
SECTION
  2
HEADER
  9
$ACADVER
  1
AC1015
  9
$ACADMAINTVER
 70
     6
  9
$DWGCODEPAGE
  3
ANSI_1252
  9
$INSBASE
 10
0.0
 20
0.0
 30
0.0
  9
$EXTMIN
 10
-78.793945
 20
-90.344879
 30
0.0
  9
$EXTMAX
 10
761.206055
 20
503.655121
 30
0.0
  9
$LIMMIN
 10
-78.793945
 20
-90.344879
  9
$LIMMAX
 10
761.206055
 20
503.655121
  9
$ORTHOMODE
 70
     0
  9
$REGENMODE
 70
     1
  9
$FILLMODE
 70
     1
  9
$QTEXTMODE
 70
     0
  9
$MIRRTEXT
 70
     1
  9
$LTSCALE
 40
2.0
  9
$ATTMODE
 70
     1
  9
$TEXTSIZE
 40
2.5
  9
$TRACEWID
 40
1.0
  9
$TEXTSTYLE
  7
Standard
  9
$CLAYER
  8
0
  9
$CELTYPE
  6
ByLayer
  9
$CECOLOR
 62
     7
  9
$CELTSCALE
 40
1.0
  9
$DISPSILH
 70
     0
  9
$DIMSCALE
 40
2.0
  9
$DIMASZ
 40
3.5
  9
$DIMEXO
 40
0.625
  9
$DIMDLI
 40
3.75
  9
$DIMRND
 40
0.0
  9
$DIMDLE
 40
0.0
  9
$DIMEXE
 40
1.25
  9
$DIMTP
 40
0.0
  9
$DIMTM
 40
0.0
  9
$DIMTXT
 40
3.5
  9
$DIMCEN
 40
2.5
  9
$DIMTSZ
 40
0.0
  9
$DIMTOL
 70
     0
  9
$DIMLIM
 70
     0
  9
$DIMTIH
 70
     0
  9
$DIMTOH
 70
     0
  9
$DIMSE1
 70
     0
  9
$DIMSE2
 70
     0
  9
$DIMTAD
 70
     1
  9
$DIMZIN
 70
     8
  9
$DIMBLK
  1

  9
$DIMASO
 70
     1
  9
$DIMSHO
 70
     1
  9
$DIMPOST
  1

  9
$DIMAPOST
  1

  9
$DIMALT
 70
     0
  9
$DIMALTD
 70
     3
  9
$DIMALTF
 40
0.03937
  9
$DIMLFAC
 40
1.0
  9
$DIMTOFL
 70
     1
  9
$DIMTVP
 40
0.0
  9
$DIMTIX
 70
     0
  9
$DIMSOXD
 70
     0
  9
$DIMSAH
 70
     0
  9
$DIMBLK1
  1

  9
$DIMBLK2
  1

  9
$DIMSTYLE
  2
ISO-25
  9
$DIMCLRD
 70
     0
  9
$DIMCLRE
 70
     0
  9
$DIMCLRT
 70
     0
  9
$DIMTFAC
 40
1.0
  9
$DIMGAP
 40
0.625
  9
$DIMJUST
 70
     0
  9
$DIMSD1
 70
     0
  9
$DIMSD2
 70
     0
  9
$DIMTOLJ
 70
     0
  9
$DIMTZIN
 70
     8
  9
$DIMALTZ
 70
     0
  9
$DIMALTTZ
 70
     0
  9
$DIMUPT
 70
     0
  9
$DIMDEC
 70
     2
  9
$DIMTDEC
 70
     2
  9
$DIMALTU
 70
     2
  9
$DIMALTTD
 70
     3
  9
$DIMTXSTY
  7
Standard
  9
$DIMAUNIT
 70
     0
  9
$DIMADEC
 70
     0
  9
$DIMALTRND
 40
0.0
  9
$DIMAZIN
 70
     0
  9
$DIMDSEP
 70
    44
  9
$DIMATFIT
 70
     3
  9
$DIMFRAC
 70
     0
  9
$DIMLDRBLK
  1

  9
$DIMLUNIT
 70
     2
  9
$DIMLWD
 70
    -2
  9
$DIMLWE
 70
    -2
  9
$DIMTMOVE
 70
     0
  9
$LUNITS
 70
     2
  9
$LUPREC
 70
     4
  9
$SKETCHINC
 40
1.0
  9
$FILLETRAD
 40
10.0
  9
$AUNITS
 70
     0
  9
$AUPREC
 70
     0
  9
$MENU
  1
.
  9
$ELEVATION
 40
0.0
  9
$PELEVATION
 40
0.0
  9
$THICKNESS
 40
0.0
  9
$LIMCHECK
 70
     0
  9
$CHAMFERA
 40
10.0
  9
$CHAMFERB
 40
10.0
  9
$CHAMFERC
 40
20.0
  9
$CHAMFERD
 40
0.0
  9
$SKPOLY
 70
     0
  9
$TDCREATE
 40
2456000.581062269
  9
$TDUCREATE
 40
2456000.539395602
  9
$TDUPDATE
 40
2456000.58106228
  9
$TDUUPDATE
 40
2456000.539395614
  9
$TDINDWG
 40
0.0000000116
  9
$TDUSRTIMER
 40
0.0000000116
  9
$USRTIMER
 70
     1
  9
$ANGBASE
 50
0.0
  9
$ANGDIR
 70
     0
  9
$PDMODE
 70
     0
  9
$PDSIZE
 40
0.0
  9
$PLINEWID
 40
0.0
  9
$SPLFRAME
 70
     0
  9
$SPLINETYPE
 70
     6
  9
$SPLINESEGS
 70
     8
  9
$HANDSEED
  5
60B
  9
$SURFTAB1
 70
     6
  9
$SURFTAB2
 70
     6
  9
$SURFTYPE
 70
     6
  9
$SURFU
 70
     6
  9
$SURFV
 70
     6
  9
$UCSBASE
  2

  9
$UCSNAME
  2

  9
$UCSORG
 10
0.0
 20
0.0
 30
0.0
  9
$UCSXDIR
 10
1.0
 20
0.0
 30
0.0
  9
$UCSYDIR
 10
0.0
 20
1.0
 30
0.0
  9
$UCSORTHOREF
  2

  9
$UCSORTHOVIEW
 70
     0
  9
$UCSORGTOP
 10
0.0
 20
0.0
 30
0.0
  9
$UCSORGBOTTOM
 10
0.0
 20
0.0
 30
0.0
  9
$UCSORGLEFT
 10
0.0
 20
0.0
 30
0.0
  9
$UCSORGRIGHT
 10
0.0
 20
0.0
 30
0.0
  9
$UCSORGFRONT
 10
0.0
 20
0.0
 30
0.0
  9
$UCSORGBACK
 10
0.0
 20
0.0
 30
0.0
  9
$PUCSBASE
  2

  9
$PUCSNAME
  2

  9
$PUCSORG
 10
0.0
 20
0.0
 30
0.0
  9
$PUCSXDIR
 10
1.0
 20
0.0
 30
0.0
  9
$PUCSYDIR
 10
0.0
 20
1.0
 30
0.0
  9
$PUCSORTHOREF
  2

  9
$PUCSORTHOVIEW
 70
     0
  9
$PUCSORGTOP
 10
0.0
 20
0.0
 30
0.0
  9
$PUCSORGBOTTOM
 10
0.0
 20
0.0
 30
0.0
  9
$PUCSORGLEFT
 10
0.0
 20
0.0
 30
0.0
  9
$PUCSORGRIGHT
 10
0.0
 20
0.0
 30
0.0
  9
$PUCSORGFRONT
 10
0.0
 20
0.0
 30
0.0
  9
$PUCSORGBACK
 10
0.0
 20
0.0
 30
0.0
  9
$USERI1
 70
     0
  9
$USERI2
 70
     0
  9
$USERI3
 70
     0
  9
$USERI4
 70
     0
  9
$USERI5
 70
     0
  9
$USERR1
 40
0.0
  9
$USERR2
 40
0.0
  9
$USERR3
 40
0.0
  9
$USERR4
 40
0.0
  9
$USERR5
 40
0.0
  9
$WORLDVIEW
 70
     1
  9
$SHADEDGE
 70
     3
  9
$SHADEDIF
 70
    70
  9
$TILEMODE
 70
     1
  9
$MAXACTVP
 70
    64
  9
$PINSBASE
 10
0.0
 20
0.0
 30
0.0
  9
$PLIMCHECK
 70
     0
  9
$PEXTMIN
 10
-78.793945
 20
-90.344879
 30
0.0
  9
$PEXTMAX
 10
761.206055
 20
503.655121
 30
0.0
  9
$PLIMMIN
 10
-78.793945
 20
-90.344879
  9
$PLIMMAX
 10
761.206055
 20
503.655121
  9
$UNITMODE
 70
     0
  9
$VISRETAIN
 70
     1
  9
$PLINEGEN
 70
     0
  9
$PSLTSCALE
 70
     1
  9
$TREEDEPTH
 70
  3020
  9
$CMLSTYLE
  2
Standard
  9
$CMLJUST
 70
     0
  9
$CMLSCALE
 40
20.0
  9
$PROXYGRAPHICS
 70
     1
  9
$MEASUREMENT
 70
     1
  9
$CELWEIGHT
370
    -1
  9
$ENDCAPS
280
     0
  9
$JOINSTYLE
280
     0
  9
$LWDISPLAY
290
     0
  9
$INSUNITS
 70
     4
  9
$HYPERLINKBASE
  1

  9
$STYLESHEET
  1

  9
$XEDIT
290
     1
  9
$CEPSNTYPE
380
     0
  9
$PSTYLEMODE
290
     1
  9
$FINGERPRINTGUID
  2
{FAEB1C30-E019-11D5-929B-00C0DF256EC4}
  9
$VERSIONGUID
  2
{FAEB1C32-E019-11D5-929B-00C0DF256EC4}
  9
$EXTNAMES
290
     1
  9
$PSVPSCALE
 40
0.0
  9
$OLESTARTUP
290
     0
  0
ENDSEC
  0
SECTION
  2
CLASSES
  0
CLASS
  1
ACDBDICTIONARYWDFLT
  2
AcDbDictionaryWithDefault
  3
ObjectDBX Classes
 90
        0
280
     0
281
     0
  0
CLASS
  1
ACDBPLACEHOLDER
  2
AcDbPlaceHolder
  3
ObjectDBX Classes
 90
        0
280
     0
281
     0
  0
CLASS
  1
LAYOUT
  2
AcDbLayout
  3
ObjectDBX Classes
 90
        0
280
     0
281
     0
  0
ENDSEC
  0
SECTION
  2
TABLES
  0
TABLE
  2
VPORT
  5
8
330
0
100
AcDbSymbolTable
 70
     2
  0
VPORT
  5
29
330
8
100
AcDbSymbolTableRecord
100
AcDbViewportTableRecord
  2
*ACTIVE
 70
     0
 10
0.0
 20
0.0
 11
1.0
 21
1.0
 12
341.206055
 22
206.655121
 13
0.0
 23
0.0
 14
1.0
 24
1.0
 15
0.0
 25
0.0
 16
0.0
 26
0.0
 36
1.0
 17
0.0
 27
0.0
 37
0.0
 40
594.0
 41
1.414141
 42
50.0
 43
0.0
 44
0.0
 50
0.0
 51
0.0
 71
    16
 72
   100
 73
     1
 74
     0
 75
     0
 76
     0
 77
     0
 78
     0
281
     0
 65
     0
110
0.0
120
0.0
130
0.0
111
1.0
121
0.0
131
0.0
112
0.0
122
1.0
132
0.0
 79
     0
146
0.0
  0
ENDTAB
  0
TABLE
  2
LTYPE
  5
5
330
0
100
AcDbSymbolTable
 70
     3
  0
LTYPE
  5
14
330
5
100
AcDbSymbolTableRecord
100
AcDbLinetypeTableRecord
  2
ByBlock
 70
     0
  3

 72
    65
 73
     0
 40
0.0
  0
LTYPE
  5
15
330
5
100
AcDbSymbolTableRecord
100
AcDbLinetypeTableRecord
  2
ByLayer
 70
     0
  3

 72
    65
 73
     0
 40
0.0
  0
LTYPE
  5
16
330
5
100
AcDbSymbolTableRecord
100
AcDbLinetypeTableRecord
  2
Continuous
 70
     0
  3
Solid line
 72
    65
 73
     0
 40
0.0
  0
LTYPE
  5
2A
330
5
100
AcDbSymbolTableRecord
100
AcDbLinetypeTableRecord
  2
DASHED
 70
     0
  3
__ __ __ __ __
 72
    65
 73
     2
 40
6.25
 49
5.0
 74
     4
 75
     0
340
0
 46
1.0
 50
0.0
 44
0.0
 45
0.0
 49
-1.25
 74
     4
 75
     0
340
0
 46
1.0
 50
0.0
 44
0.0
 45
0.0
  0
LTYPE
  5
3E0
330
5
100
AcDbSymbolTableRecord
100
AcDbLinetypeTableRecord
  2
DASHDOT
 70
     0
  3
__ . __ . __ . __ . __
 72
    65
 73
     4
 40
7.5
 49
5.0
 74
     4
 75
     0
340
0
 46
1.0
 50
0.0
 44
0.0
 45
0.0
 49
-1.25
 74
     4
 75
     0
340
0
 46
1.0
 50
0.0
 44
0.0
 45
0.0
 49
0.0
 74
     4
 75
     0
340
0
 46
1.0
 50
0.0
 44
0.0
 45
0.0
 49
-1.25
 74
     4
 75
     0
340
0
 46
1.0
 50
0.0
 44
0.0
 45
0.0
  0
ENDTAB
  0
TABLE
  2
LAYER
  5
2
330
0
100
AcDbSymbolTable
 70
    10
  0
LAYER
  5
10
330
2
100
AcDbSymbolTableRecord
100
AcDbLayerTableRecord
  2
0
 70
     0
 62
     7
  6
Continuous
370
    -3
390
F
  0
LAYER
  5
2B
330
2
100
AcDbSymbolTableRecord
100
AcDbLayerTableRecord
  2
LC-INFO-1-2-mm-A3-0
 70
     1
 62
     7
  6
ByBlock
370
    -3
390
F
  0
LAYER
  5
2C
330
2
100
AcDbSymbolTableRecord
100
AcDbLayerTableRecord
  2
LC-CUT-HIDDEN
 70
     0
 62
     7
  6
DASHED
370
    -3
390
F
  0
LAYER
  5
2D
330
2
100
AcDbSymbolTableRecord
100
AcDbLayerTableRecord
  2
LC-VIEWPORT
 70
     0
 62
     7
  6
ByBlock
370
    -3
390
F
  0
LAYER
  5
2E
330
2
100
AcDbSymbolTableRecord
100
AcDbLayerTableRecord
  2
LC-3D-HIDDEN
 70
     0
 62
     9
  6
DASHED
370
    -3
390
F
  0
LAYER
  5
30
330
2
100
AcDbSymbolTableRecord
100
AcDbLayerTableRecord
  2
LC-001-100-D00-0
 70
     0
 62
     1
  6
ByBlock
370
    -3
390
F
  0
LAYER
  5
32
330
2
100
AcDbSymbolTableRecord
100
AcDbLayerTableRecord
  2
LC-002-002-----0
 70
     0
 62
     1
  6
ByBlock
370
    -3
390
F
  0
LAYER
  5
3F3
330
2
100
AcDbSymbolTableRecord
100
AcDbLayerTableRecord
  2
LC-003-005-----0
 70
     0
 62
     2
  6
ByBlock
370
    -3
390
F
  0
LAYER
  5
599
330
2
100
AcDbSymbolTableRecord
100
AcDbLayerTableRecord
  2
LC-004-003-----0
 70
     0
 62
     2
  6
ByBlock
370
    -3
390
F
  0
LAYER
  5
59B
330
2
100
AcDbSymbolTableRecord
100
AcDbLayerTableRecord
  2
Defpoints
 70
     0
 62
     7
  6
Continuous
290
     0
370
    -3
390
F
  0
ENDTAB
  0
TABLE
  2
STYLE
  5
3
330
0
100
AcDbSymbolTable
 70
     3
  0
STYLE
  5
11
330
3
100
AcDbSymbolTableRecord
100
AcDbTextStyleTableRecord
  2
Standard
 70
     0
 40
0.0
 41
1.0
 50
0.0
 71
     0
 42
2.5
  3
txt
  4

  0
STYLE
  5
2F
330
3
100
AcDbSymbolTableRecord
100
AcDbTextStyleTableRecord
  2
LCTX15-400-0-0-Arial
 70
     0
 40
0.0
 41
0.8
 50
0.0
 71
     0
 42
3.5
  3

  4

1001
ACAD
1000
Arial
1071
 16777218
  0
STYLE
  5
597
330
3
100
AcDbSymbolTableRecord
100
AcDbTextStyleTableRecord
  2
LCTX15-400-0-0pDIN-Schrift
 70
     0
 40
2.5
 41
0.8
 50
15.0
 71
     0
 42
3.5
  3
STANDARD
  4

  0
ENDTAB
  0
TABLE
  2
VIEW
  5
6
330
0
100
AcDbSymbolTable
 70
     0
  0
ENDTAB
  0
TABLE
  2
UCS
  5
7
330
0
100
AcDbSymbolTable
 70
     0
  0
ENDTAB
  0
TABLE
  2
APPID
  5
9
330
0
100
AcDbSymbolTable
 70
     1
  0
APPID
  5
12
330
9
100
AcDbSymbolTableRecord
100
AcDbRegAppTableRecord
  2
ACAD
 70
     0
  0
ENDTAB
  0
TABLE
  2
DIMSTYLE
  5
A
330
0
100
AcDbSymbolTable
 70
     2
100
AcDbDimStyleTable
  0
DIMSTYLE
105
27
330
A
100
AcDbSymbolTableRecord
100
AcDbDimStyleTableRecord
  2
ISO-25
 70
     0
 41
2.5
 42
0.625
 43
3.75
 44
1.25
 73
     0
 74
     0
 77
     1
 78
     8
140
2.5
141
2.5
143
0.03937
147
0.625
171
     3
172
     1
271
     2
272
     2
274
     3
278
    44
283
     0
284
     8
340
11
  0
DIMSTYLE
105
598
102
{ACAD_REACTORS
330
59A
330
5A8
330
5B5
330
5C2
330
5CF
330
5DE
330
5ED
330
5FB
102
}
330
A
100
AcDbSymbolTableRecord
100
AcDbDimStyleTableRecord
  2
LC-DIM-L-0140-02-02
 70
     0
 40
2.0
 41
14.0
 42
0.0
 43
7.5
 44
1.8
 73
     0
 74
     0
 77
     1
 78
     8
 79
     2
140
14.0
141
0.0
146
0.71
147
1.5
176
     2
177
     2
178
     2
179
     2
271
     2
278
    44
289
     1
340
597
  0
ENDTAB
  0
TABLE
  2
BLOCK_RECORD
  5
1
330
0
100
AcDbSymbolTable
 70
    74
  0
BLOCK_RECORD
  5
1F
330
1
100
AcDbSymbolTableRecord
100
AcDbBlockTableRecord
  2
*Model_Space
340
22
  0
BLOCK_RECORD
  5
1B
330
1
100
AcDbSymbolTableRecord
100
AcDbBlockTableRecord
  2
*Paper_Space
340
1E
  0
BLOCK_RECORD
  5
23
330
1
100
AcDbSymbolTableRecord
100
AcDbBlockTableRecord
  2
*Paper_Space0
340
26
  0
BLOCK_RECORD
  5
34
330
1
100
AcDbSymbolTableRecord
100
AcDbBlockTableRecord
  2
POLY1
340
0
102
{BLKREFS
331
3F
102
}
  0
BLOCK_RECORD
  5
40
330
1
100
AcDbSymbolTableRecord
100
AcDbBlockTableRecord
  2
POLY2
340
0
102
{BLKREFS
331
4B
102
}
  0
BLOCK_RECORD
  5
4C
330
1
100
AcDbSymbolTableRecord
100
AcDbBlockTableRecord
  2
POLY3
340
0
102
{BLKREFS
331
57
102
}
  0
BLOCK_RECORD
  5
58
330
1
100
AcDbSymbolTableRecord
100
AcDbBlockTableRecord
  2
POLY4
340
0
102
{BLKREFS
331
63
102
}
  0
BLOCK_RECORD
  5
64
330
1
100
AcDbSymbolTableRecord
100
AcDbBlockTableRecord
  2
POLY5
340
0
102
{BLKREFS
331
6F
102
}
  0
BLOCK_RECORD
  5
70
330
1
100
AcDbSymbolTableRecord
100
AcDbBlockTableRecord
  2
POLY6
340
0
102
{BLKREFS
331
7B
102
}
  0
BLOCK_RECORD
  5
7C
330
1
100
AcDbSymbolTableRecord
100
AcDbBlockTableRecord
  2
POLY7
340
0
102
{BLKREFS
331
87
102
}
  0
BLOCK_RECORD
  5
88
330
1
100
AcDbSymbolTableRecord
100
AcDbBlockTableRecord
  2
POLY8
340
0
102
{BLKREFS
331
93
102
}
  0
BLOCK_RECORD
  5
94
330
1
100
AcDbSymbolTableRecord
100
AcDbBlockTableRecord
  2
POLY9
340
0
102
{BLKREFS
331
9F
102
}
  0
BLOCK_RECORD
  5
A0
330
1
100
AcDbSymbolTableRecord
100
AcDbBlockTableRecord
  2
POLY10
340
0
102
{BLKREFS
331
AB
102
}
  0
BLOCK_RECORD
  5
B0
330
1
100
AcDbSymbolTableRecord
100
AcDbBlockTableRecord
  2
POLY11
340
0
102
{BLKREFS
331
BB
102
}
  0
BLOCK_RECORD
  5
C5
330
1
100
AcDbSymbolTableRecord
100
AcDbBlockTableRecord
  2
KLON1
340
0
102
{BLKREFS
331
CB
102
}
  0
BLOCK_RECORD
  5
CC
330
1
100
AcDbSymbolTableRecord
100
AcDbBlockTableRecord
  2
POLY12
340
0
102
{BLKREFS
331
D7
102
}
  0
BLOCK_RECORD
  5
D9
330
1
100
AcDbSymbolTableRecord
100
AcDbBlockTableRecord
  2
KLON2
340
0
102
{BLKREFS
331
DF
102
}
  0
BLOCK_RECORD
  5
E0
330
1
100
AcDbSymbolTableRecord
100
AcDbBlockTableRecord
  2
KLON3
340
0
102
{BLKREFS
331
E6
102
}
  0
BLOCK_RECORD
  5
E7
330
1
100
AcDbSymbolTableRecord
100
AcDbBlockTableRecord
  2
POLY13
340
0
102
{BLKREFS
331
F2
102
}
  0
BLOCK_RECORD
  5
F4
330
1
100
AcDbSymbolTableRecord
100
AcDbBlockTableRecord
  2
KLON4
340
0
102
{BLKREFS
331
FA
102
}
  0
BLOCK_RECORD
  5
FB
330
1
100
AcDbSymbolTableRecord
100
AcDbBlockTableRecord
  2
KLON5
340
0
102
{BLKREFS
331
101
102
}
  0
BLOCK_RECORD
  5
102
330
1
100
AcDbSymbolTableRecord
100
AcDbBlockTableRecord
  2
KLON6
340
0
102
{BLKREFS
331
108
102
}
  0
BLOCK_RECORD
  5
109
330
1
100
AcDbSymbolTableRecord
100
AcDbBlockTableRecord
  2
POLY14
340
0
102
{BLKREFS
331
114
102
}
  0
BLOCK_RECORD
  5
116
330
1
100
AcDbSymbolTableRecord
100
AcDbBlockTableRecord
  2
KLON7
340
0
102
{BLKREFS
331
11C
102
}
  0
BLOCK_RECORD
  5
11D
330
1
100
AcDbSymbolTableRecord
100
AcDbBlockTableRecord
  2
KLON8
340
0
102
{BLKREFS
331
123
102
}
  0
BLOCK_RECORD
  5
124
330
1
100
AcDbSymbolTableRecord
100
AcDbBlockTableRecord
  2
KLON9
340
0
102
{BLKREFS
331
12A
102
}
  0
BLOCK_RECORD
  5
12B
330
1
100
AcDbSymbolTableRecord
100
AcDbBlockTableRecord
  2
KLON10
340
0
102
{BLKREFS
331
131
102
}
  0
BLOCK_RECORD
  5
132
330
1
100
AcDbSymbolTableRecord
100
AcDbBlockTableRecord
  2
KLON11
340
0
102
{BLKREFS
331
138
102
}
  0
BLOCK_RECORD
  5
139
330
1
100
AcDbSymbolTableRecord
100
AcDbBlockTableRecord
  2
POLY15
340
0
102
{BLKREFS
331
144
102
}
  0
BLOCK_RECORD
  5
146
330
1
100
AcDbSymbolTableRecord
100
AcDbBlockTableRecord
  2
KLON12
340
0
102
{BLKREFS
331
14C
102
}
  0
BLOCK_RECORD
  5
14D
330
1
100
AcDbSymbolTableRecord
100
AcDbBlockTableRecord
  2
KLON13
340
0
102
{BLKREFS
331
153
102
}
  0
BLOCK_RECORD
  5
154
330
1
100
AcDbSymbolTableRecord
100
AcDbBlockTableRecord
  2
POLY16
340
0
102
{BLKREFS
331
15F
102
}
  0
BLOCK_RECORD
  5
161
330
1
100
AcDbSymbolTableRecord
100
AcDbBlockTableRecord
  2
KLON14
340
0
102
{BLKREFS
331
167
102
}
  0
BLOCK_RECORD
  5
168
330
1
100
AcDbSymbolTableRecord
100
AcDbBlockTableRecord
  2
KLON15
340
0
102
{BLKREFS
331
16E
102
}
  0
BLOCK_RECORD
  5
16F
330
1
100
AcDbSymbolTableRecord
100
AcDbBlockTableRecord
  2
KLON16
340
0
102
{BLKREFS
331
175
102
}
  0
BLOCK_RECORD
  5
176
330
1
100
AcDbSymbolTableRecord
100
AcDbBlockTableRecord
  2
KLON17
340
0
102
{BLKREFS
331
17C
102
}
  0
BLOCK_RECORD
  5
17D
330
1
100
AcDbSymbolTableRecord
100
AcDbBlockTableRecord
  2
KLON18
340
0
102
{BLKREFS
331
183
102
}
  0
BLOCK_RECORD
  5
184
330
1
100
AcDbSymbolTableRecord
100
AcDbBlockTableRecord
  2
KLON19
340
0
102
{BLKREFS
331
18A
102
}
  0
BLOCK_RECORD
  5
18B
330
1
100
AcDbSymbolTableRecord
100
AcDbBlockTableRecord
  2
KLON20
340
0
102
{BLKREFS
331
191
102
}
  0
BLOCK_RECORD
  5
1B4
330
1
100
AcDbSymbolTableRecord
100
AcDbBlockTableRecord
  2
POLY17
340
0
102
{BLKREFS
331
1BF
102
}
  0
BLOCK_RECORD
  5
1C1
330
1
100
AcDbSymbolTableRecord
100
AcDbBlockTableRecord
  2
POLY18
340
0
102
{BLKREFS
331
1CC
102
}
  0
BLOCK_RECORD
  5
1E3
330
1
100
AcDbSymbolTableRecord
100
AcDbBlockTableRecord
  2
POLY19
340
0
102
{BLKREFS
331
1EE
102
}
  0
BLOCK_RECORD
  5
1F0
330
1
100
AcDbSymbolTableRecord
100
AcDbBlockTableRecord
  2
POLY20
340
0
102
{BLKREFS
331
201
102
}
  0
BLOCK_RECORD
  5
237
330
1
100
AcDbSymbolTableRecord
100
AcDbBlockTableRecord
  2
POLY21
340
0
102
{BLKREFS
331
242
102
}
  0
BLOCK_RECORD
  5
246
330
1
100
AcDbSymbolTableRecord
100
AcDbBlockTableRecord
  2
POLY22
340
0
102
{BLKREFS
331
251
102
}
  0
BLOCK_RECORD
  5
260
330
1
100
AcDbSymbolTableRecord
100
AcDbBlockTableRecord
  2
POLY23
340
0
102
{BLKREFS
331
26D
102
}
  0
BLOCK_RECORD
  5
290
330
1
100
AcDbSymbolTableRecord
100
AcDbBlockTableRecord
  2
POLY24
340
0
102
{BLKREFS
331
2A1
102
}
  0
BLOCK_RECORD
  5
318
330
1
100
AcDbSymbolTableRecord
100
AcDbBlockTableRecord
  2
POLY25
340
0
102
{BLKREFS
331
323
102
}
  0
BLOCK_RECORD
  5
328
330
1
100
AcDbSymbolTableRecord
100
AcDbBlockTableRecord
  2
POLY26
340
0
102
{BLKREFS
331
335
102
}
  0
BLOCK_RECORD
  5
34E
330
1
100
AcDbSymbolTableRecord
100
AcDbBlockTableRecord
  2
POLY27
340
0
102
{BLKREFS
331
359
102
}
  0
BLOCK_RECORD
  5
35A
330
1
100
AcDbSymbolTableRecord
100
AcDbBlockTableRecord
  2
POLY28
340
0
102
{BLKREFS
331
365
102
}
  0
BLOCK_RECORD
  5
366
330
1
100
AcDbSymbolTableRecord
100
AcDbBlockTableRecord
  2
KLON21
340
0
102
{BLKREFS
331
38C
102
}
  0
BLOCK_RECORD
  5
38D
330
1
100
AcDbSymbolTableRecord
100
AcDbBlockTableRecord
  2
KLON22
340
0
102
{BLKREFS
331
3B1
102
}
  0
BLOCK_RECORD
  5
3B2
330
1
100
AcDbSymbolTableRecord
100
AcDbBlockTableRecord
  2
KLON23
340
0
102
{BLKREFS
331
3CE
102
}
  0
BLOCK_RECORD
  5
3CF
330
1
100
AcDbSymbolTableRecord
100
AcDbBlockTableRecord
  2
KLON24
340
0
102
{BLKREFS
331
3D6
102
}
  0
BLOCK_RECORD
  5
3D8
330
1
100
AcDbSymbolTableRecord
100
AcDbBlockTableRecord
  2
KLON25
340
0
102
{BLKREFS
331
3DF
102
}
  0
BLOCK_RECORD
  5
3F0
330
1
100
AcDbSymbolTableRecord
100
AcDbBlockTableRecord
  2
*X154
340
0
102
{BLKREFS
331
40E
102
}
  0
BLOCK_RECORD
  5
410
330
1
100
AcDbSymbolTableRecord
100
AcDbBlockTableRecord
  2
*X255
340
0
102
{BLKREFS
331
42D
102
}
  0
BLOCK_RECORD
  5
42F
330
1
100
AcDbSymbolTableRecord
100
AcDbBlockTableRecord
  2
*X356
340
0
102
{BLKREFS
331
44C
102
}
  0
BLOCK_RECORD
  5
44F
330
1
100
AcDbSymbolTableRecord
100
AcDbBlockTableRecord
  2
*X457
340
0
102
{BLKREFS
331
46C
102
}
  0
BLOCK_RECORD
  5
477
330
1
100
AcDbSymbolTableRecord
100
AcDbBlockTableRecord
  2
*X558
340
0
102
{BLKREFS
331
494
102
}
  0
BLOCK_RECORD
  5
496
330
1
100
AcDbSymbolTableRecord
100
AcDbBlockTableRecord
  2
*X659
340
0
102
{BLKREFS
331
4B9
102
}
  0
BLOCK_RECORD
  5
4C0
330
1
100
AcDbSymbolTableRecord
100
AcDbBlockTableRecord
  2
*X760
340
0
102
{BLKREFS
331
4DD
102
}
  0
BLOCK_RECORD
  5
4DF
330
1
100
AcDbSymbolTableRecord
100
AcDbBlockTableRecord
  2
*X861
340
0
102
{BLKREFS
331
4FC
102
}
  0
BLOCK_RECORD
  5
4FE
330
1
100
AcDbSymbolTableRecord
100
AcDbBlockTableRecord
  2
*X962
340
0
102
{BLKREFS
331
51B
102
}
  0
BLOCK_RECORD
  5
51E
330
1
100
AcDbSymbolTableRecord
100
AcDbBlockTableRecord
  2
*X1063
340
0
102
{BLKREFS
331
53B
102
}
  0
BLOCK_RECORD
  5
544
330
1
100
AcDbSymbolTableRecord
100
AcDbBlockTableRecord
  2
*X1164
340
0
102
{BLKREFS
331
560
102
}
  0
BLOCK_RECORD
  5
561
330
1
100
AcDbSymbolTableRecord
100
AcDbBlockTableRecord
  2
*X1265
340
0
102
{BLKREFS
331
579
102
}
  0
BLOCK_RECORD
  5
59C
330
1
100
AcDbSymbolTableRecord
100
AcDbBlockTableRecord
  2
*D66
340
0
  0
BLOCK_RECORD
  5
5A9
330
1
100
AcDbSymbolTableRecord
100
AcDbBlockTableRecord
  2
*D67
340
0
  0
BLOCK_RECORD
  5
5B6
330
1
100
AcDbSymbolTableRecord
100
AcDbBlockTableRecord
  2
*D68
340
0
  0
BLOCK_RECORD
  5
5C3
330
1
100
AcDbSymbolTableRecord
100
AcDbBlockTableRecord
  2
*D69
340
0
  0
BLOCK_RECORD
  5
5D0
330
1
100
AcDbSymbolTableRecord
100
AcDbBlockTableRecord
  2
*D70
340
0
  0
BLOCK_RECORD
  5
5DF
330
1
100
AcDbSymbolTableRecord
100
AcDbBlockTableRecord
  2
*D71
340
0
  0
BLOCK_RECORD
  5
5EE
330
1
100
AcDbSymbolTableRecord
100
AcDbBlockTableRecord
  2
*D72
340
0
  0
BLOCK_RECORD
  5
5FC
330
1
100
AcDbSymbolTableRecord
100
AcDbBlockTableRecord
  2
*D73
340
0
  0
ENDTAB
  0
ENDSEC
  0
SECTION
  2
BLOCKS
  0
BLOCK
  5
20
330
1F
100
AcDbEntity
  8
0
100
AcDbBlockBegin
  2
*Model_Space
 70
     0
 71
     0
 10
0.0
 20
0.0
 30
0.0
  3
*Model_Space
  1

  0
ENDBLK
  5
21
330
1F
100
AcDbEntity
  8
0
100
AcDbBlockEnd
  0
BLOCK
  5
1C
330
1B
100
AcDbEntity
 67
     1
  8
0
100
AcDbBlockBegin
  2
*Paper_Space
 70
     0
 71
     0
 10
0.0
 20
0.0
 30
0.0
  3
*Paper_Space
  1

  0
ENDBLK
  5
1D
330
1B
100
AcDbEntity
 67
     1
  8
0
100
AcDbBlockEnd
  0
BLOCK
  5
24
330
23
100
AcDbEntity
  8
0
100
AcDbBlockBegin
  2
*Paper_Space0
 70
     0
 71
     0
 10
0.0
 20
0.0
 30
0.0
  3
*Paper_Space0
  1

  0
ENDBLK
  5
25
330
23
100
AcDbEntity
  8
0
100
AcDbBlockEnd
  0
BLOCK
  5
35
330
34
100
AcDbEntity
  8
0
100
AcDbBlockBegin
  2
POLY1
 70
     0
 71
     0
 10
0.0
 20
0.0
 30
0.0
  3
POLY1
  1

  4
POLY1
  0
LINE
  5
37
330
34
100
AcDbEntity
  8
LC-001-100-D00-0
 62
     7
370
    50
100
AcDbLine
 10
212.518017
 20
281.236949
 30
0.0
 11
212.518017
 21
281.236949
 31
0.0
  0
LINE
  5
38
330
34
100
AcDbEntity
  8
LC-001-100-D00-0
 62
     7
370
    50
100
AcDbLine
 10
212.518017
 20
281.236949
 30
0.0
 11
212.304219
 21
281.353581
 31
0.0
  0
LINE
  5
39
330
34
100
AcDbEntity
  8
LC-001-100-D00-0
 62
     7
370
    50
100
AcDbLine
 10
212.304219
 20
281.353581
 30
0.0
 11
212.304219
 21
281.353581
 31
0.0
  0
LINE
  5
3A
330
34
100
AcDbEntity
  8
LC-001-100-D00-0
 62
     7
370
    50
100
AcDbLine
 10
212.304219
 20
281.353581
 30
0.0
 11
211.940982
 21
281.551737
 31
0.0
  0
LINE
  5
3B
330
34
100
AcDbEntity
  8
LC-001-100-D00-0
 62
     7
370
    50
100
AcDbLine
 10
211.940982
 20
281.551737
 30
0.0
 11
211.940982
 21
281.551737
 31
0.0
  0
LINE
  5
3C
330
34
100
AcDbEntity
  8
LC-001-100-D00-0
 62
     7
370
    50
100
AcDbLine
 10
211.940982
 20
281.551737
 30
0.0
 11
211.588205
 21
281.752152
 31
0.0
  0
LINE
  5
3D
330
34
100
AcDbEntity
  8
LC-001-100-D00-0
 62
     7
370
    50
100
AcDbLine
 10
211.588205
 20
281.752152
 30
0.0
 11
211.588205
 21
281.752152
 31
0.0
  0
LINE
  5
3E
330
34
100
AcDbEntity
  8
LC-001-100-D00-0
 62
     7
370
    50
100
AcDbLine
 10
211.588205
 20
281.752152
 30
0.0
 11
211.44307
 21
281.834605
 31
0.0
  0
ENDBLK
  5
36
330
34
100
AcDbEntity
  8
0
100
AcDbBlockEnd
  0
BLOCK
  5
41
330
40
100
AcDbEntity
  8
0
100
AcDbBlockBegin
  2
POLY2
 70
     0
 71
     0
 10
0.0
 20
0.0
 30
0.0
  3
POLY2
  1

  4
POLY2
  0
LINE
  5
43
330
40
100
AcDbEntity
  8
LC-001-100-D00-0
 62
     7
370
    50
100
AcDbLine
 10
212.518017
 20
278.23695
 30
0.0
 11
212.518017
 21
278.23695
 31
0.0
  0
LINE
  5
44
330
40
100
AcDbEntity
  8
LC-001-100-D00-0
 62
     7
370
    50
100
AcDbLine
 10
212.518017
 20
278.23695
 30
0.0
 11
212.304219
 21
278.353581
 31
0.0
  0
LINE
  5
45
330
40
100
AcDbEntity
  8
LC-001-100-D00-0
 62
     7
370
    50
100
AcDbLine
 10
212.304219
 20
278.353581
 30
0.0
 11
212.304219
 21
278.353581
 31
0.0
  0
LINE
  5
46
330
40
100
AcDbEntity
  8
LC-001-100-D00-0
 62
     7
370
    50
100
AcDbLine
 10
212.304219
 20
278.353581
 30
0.0
 11
211.940981
 21
278.551733
 31
0.0
  0
LINE
  5
47
330
40
100
AcDbEntity
  8
LC-001-100-D00-0
 62
     7
370
    50
100
AcDbLine
 10
211.940981
 20
278.551733
 30
0.0
 11
211.940981
 21
278.551733
 31
0.0
  0
LINE
  5
48
330
40
100
AcDbEntity
  8
LC-001-100-D00-0
 62
     7
370
    50
100
AcDbLine
 10
211.940981
 20
278.551733
 30
0.0
 11
211.588205
 21
278.752152
 31
0.0
  0
LINE
  5
49
330
40
100
AcDbEntity
  8
LC-001-100-D00-0
 62
     7
370
    50
100
AcDbLine
 10
211.588205
 20
278.752152
 30
0.0
 11
211.588205
 21
278.752152
 31
0.0
  0
LINE
  5
4A
330
40
100
AcDbEntity
  8
LC-001-100-D00-0
 62
     7
370
    50
100
AcDbLine
 10
211.588205
 20
278.752152
 30
0.0
 11
211.44307
 21
278.834606
 31
0.0
  0
ENDBLK
  5
42
330
40
100
AcDbEntity
  8
0
100
AcDbBlockEnd
  0
BLOCK
  5
4D
330
4C
100
AcDbEntity
  8
0
100
AcDbBlockBegin
  2
POLY3
 70
     0
 71
     0
 10
0.0
 20
0.0
 30
0.0
  3
POLY3
  1

  4
POLY3
  0
LINE
  5
4F
330
4C
100
AcDbEntity
  8
LC-001-100-D00-0
 62
     7
370
    50
100
AcDbLine
 10
206.352639
 20
282.429791
 30
0.0
 11
206.352639
 21
282.429791
 31
0.0
  0
LINE
  5
50
330
4C
100
AcDbEntity
  8
LC-001-100-D00-0
 62
     7
370
    50
100
AcDbLine
 10
206.352639
 20
282.429791
 30
0.0
 11
206.592539
 21
282.303658
 31
0.0
  0
LINE
  5
51
330
4C
100
AcDbEntity
  8
LC-001-100-D00-0
 62
     7
370
    50
100
AcDbLine
 10
206.592539
 20
282.303658
 30
0.0
 11
206.592539
 21
282.303658
 31
0.0
  0
LINE
  5
52
330
4C
100
AcDbEntity
  8
LC-001-100-D00-0
 62
     7
370
    50
100
AcDbLine
 10
206.592539
 20
282.303658
 30
0.0
 11
206.956386
 21
282.112357
 31
0.0
  0
LINE
  5
53
330
4C
100
AcDbEntity
  8
LC-001-100-D00-0
 62
     7
370
    50
100
AcDbLine
 10
206.956386
 20
282.112357
 30
0.0
 11
206.956386
 21
282.112357
 31
0.0
  0
LINE
  5
54
330
4C
100
AcDbEntity
  8
LC-001-100-D00-0
 62
     7
370
    50
100
AcDbLine
 10
206.956386
 20
282.112357
 30
0.0
 11
207.319404
 21
281.907093
 31
0.0
  0
LINE
  5
55
330
4C
100
AcDbEntity
  8
LC-001-100-D00-0
 62
     7
370
    50
100
AcDbLine
 10
207.319404
 20
281.907093
 30
0.0
 11
207.319404
 21
281.907093
 31
0.0
  0
LINE
  5
56
330
4C
100
AcDbEntity
  8
LC-001-100-D00-0
 62
     7
370
    50
100
AcDbLine
 10
207.319404
 20
281.907093
 30
0.0
 11
207.443069
 21
281.837168
 31
0.0
  0
ENDBLK
  5
4E
330
4C
100
AcDbEntity
  8
0
100
AcDbBlockEnd
  0
BLOCK
  5
59
330
58
100
AcDbEntity
  8
0
100
AcDbBlockBegin
  2
POLY4
 70
     0
 71
     0
 10
0.0
 20
0.0
 30
0.0
  3
POLY4
  1

  4
POLY4
  0
LINE
  5
5B
330
58
100
AcDbEntity
  8
LC-001-100-D00-0
 62
     7
370
    50
100
AcDbLine
 10
206.352639
 20
276.429793
 30
0.0
 11
206.352639
 21
276.429793
 31
0.0
  0
LINE
  5
5C
330
58
100
AcDbEntity
  8
LC-001-100-D00-0
 62
     7
370
    50
100
AcDbLine
 10
206.352639
 20
276.429793
 30
0.0
 11
206.592539
 21
276.303661
 31
0.0
  0
LINE
  5
5D
330
58
100
AcDbEntity
  8
LC-001-100-D00-0
 62
     7
370
    50
100
AcDbLine
 10
206.592539
 20
276.303661
 30
0.0
 11
206.592539
 21
276.303661
 31
0.0
  0
LINE
  5
5E
330
58
100
AcDbEntity
  8
LC-001-100-D00-0
 62
     7
370
    50
100
AcDbLine
 10
206.592539
 20
276.303661
 30
0.0
 11
206.956387
 21
276.112361
 31
0.0
  0
LINE
  5
5F
330
58
100
AcDbEntity
  8
LC-001-100-D00-0
 62
     7
370
    50
100
AcDbLine
 10
206.956387
 20
276.112361
 30
0.0
 11
206.956387
 21
276.112361
 31
0.0
  0
LINE
  5
60
330
58
100
AcDbEntity
  8
LC-001-100-D00-0
 62
     7
370
    50
100
AcDbLine
 10
206.956387
 20
276.112361
 30
0.0
 11
207.319404
 21
275.907093
 31
0.0
  0
LINE
  5
61
330
58
100
AcDbEntity
  8
LC-001-100-D00-0
 62
     7
370
    50
100
AcDbLine
 10
207.319404
 20
275.907093
 30
0.0
 11
207.319404
 21
275.907093
 31
0.0
  0
LINE
  5
62
330
58
100
AcDbEntity
  8
LC-001-100-D00-0
 62
     7
370
    50
100
AcDbLine
 10
207.319404
 20
275.907093
 30
0.0
 11
207.443069
 21
275.837167
 31
0.0
  0
ENDBLK
  5
5A
330
58
100
AcDbEntity
  8
0
100
AcDbBlockEnd
  0
BLOCK
  5
65
330
64
100
AcDbEntity
  8
0
100
AcDbBlockBegin
  2
POLY5
 70
     0
 71
     0
 10
0.0
 20
0.0
 30
0.0
  3
POLY5
  1

  4
POLY5
  0
LINE
  5
67
330
64
100
AcDbEntity
  8
LC-001-100-D00-0
 62
     7
370
    50
100
AcDbLine
 10
206.352639
 20
279.429792
 30
0.0
 11
206.352639
 21
279.429792
 31
0.0
  0
LINE
  5
68
330
64
100
AcDbEntity
  8
LC-001-100-D00-0
 62
     7
370
    50
100
AcDbLine
 10
206.352639
 20
279.429792
 30
0.0
 11
206.592539
 21
279.30366
 31
0.0
  0
LINE
  5
69
330
64
100
AcDbEntity
  8
LC-001-100-D00-0
 62
     7
370
    50
100
AcDbLine
 10
206.592539
 20
279.30366
 30
0.0
 11
206.592539
 21
279.30366
 31
0.0
  0
LINE
  5
6A
330
64
100
AcDbEntity
  8
LC-001-100-D00-0
 62
     7
370
    50
100
AcDbLine
 10
206.592539
 20
279.30366
 30
0.0
 11
206.956387
 21
279.11236
 31
0.0
  0
LINE
  5
6B
330
64
100
AcDbEntity
  8
LC-001-100-D00-0
 62
     7
370
    50
100
AcDbLine
 10
206.956387
 20
279.11236
 30
0.0
 11
206.956387
 21
279.11236
 31
0.0
  0
LINE
  5
6C
330
64
100
AcDbEntity
  8
LC-001-100-D00-0
 62
     7
370
    50
100
AcDbLine
 10
206.956387
 20
279.11236
 30
0.0
 11
207.319404
 21
278.907092
 31
0.0
  0
LINE
  5
6D
330
64
100
AcDbEntity
  8
LC-001-100-D00-0
 62
     7
370
    50
100
AcDbLine
 10
207.319404
 20
278.907092
 30
0.0
 11
207.319404
 21
278.907092
 31
0.0
  0
LINE
  5
6E
330
64
100
AcDbEntity
  8
LC-001-100-D00-0
 62
     7
370
    50
100
AcDbLine
 10
207.319404
 20
278.907092
 30
0.0
 11
207.443069
 21
278.837165
 31
0.0
  0
ENDBLK
  5
66
330
64
100
AcDbEntity
  8
0
100
AcDbBlockEnd
  0
BLOCK
  5
71
330
70
100
AcDbEntity
  8
0
100
AcDbBlockBegin
  2
POLY6
 70
     0
 71
     0
 10
0.0
 20
0.0
 30
0.0
  3
POLY6
  1

  4
POLY6
  0
LINE
  5
73
330
70
100
AcDbEntity
  8
LC-001-100-D00-0
 62
     7
370
    50
100
AcDbLine
 10
212.518017
 20
272.236949
 30
0.0
 11
212.518017
 21
272.236949
 31
0.0
  0
LINE
  5
74
330
70
100
AcDbEntity
  8
LC-001-100-D00-0
 62
     7
370
    50
100
AcDbLine
 10
212.518017
 20
272.236949
 30
0.0
 11
212.304219
 21
272.353582
 31
0.0
  0
LINE
  5
75
330
70
100
AcDbEntity
  8
LC-001-100-D00-0
 62
     7
370
    50
100
AcDbLine
 10
212.304219
 20
272.353582
 30
0.0
 11
212.304219
 21
272.353582
 31
0.0
  0
LINE
  5
76
330
70
100
AcDbEntity
  8
LC-001-100-D00-0
 62
     7
370
    50
100
AcDbLine
 10
212.304219
 20
272.353582
 30
0.0
 11
211.940982
 21
272.551737
 31
0.0
  0
LINE
  5
77
330
70
100
AcDbEntity
  8
LC-001-100-D00-0
 62
     7
370
    50
100
AcDbLine
 10
211.940982
 20
272.551737
 30
0.0
 11
211.940982
 21
272.551737
 31
0.0
  0
LINE
  5
78
330
70
100
AcDbEntity
  8
LC-001-100-D00-0
 62
     7
370
    50
100
AcDbLine
 10
211.940982
 20
272.551737
 30
0.0
 11
211.588205
 21
272.752152
 31
0.0
  0
LINE
  5
79
330
70
100
AcDbEntity
  8
LC-001-100-D00-0
 62
     7
370
    50
100
AcDbLine
 10
211.588205
 20
272.752152
 30
0.0
 11
211.588205
 21
272.752152
 31
0.0
  0
LINE
  5
7A
330
70
100
AcDbEntity
  8
LC-001-100-D00-0
 62
     7
370
    50
100
AcDbLine
 10
211.588205
 20
272.752152
 30
0.0
 11
211.44307
 21
272.834605
 31
0.0
  0
ENDBLK
  5
72
330
70
100
AcDbEntity
  8
0
100
AcDbBlockEnd
  0
BLOCK
  5
7D
330
7C
100
AcDbEntity
  8
0
100
AcDbBlockBegin
  2
POLY7
 70
     0
 71
     0
 10
0.0
 20
0.0
 30
0.0
  3
POLY7
  1

  4
POLY7
  0
LINE
  5
7F
330
7C
100
AcDbEntity
  8
LC-001-100-D00-0
 62
     7
370
    50
100
AcDbLine
 10
212.518017
 20
284.236947
 30
0.0
 11
212.518017
 21
284.236947
 31
0.0
  0
LINE
  5
80
330
7C
100
AcDbEntity
  8
LC-001-100-D00-0
 62
     7
370
    50
100
AcDbLine
 10
212.518017
 20
284.236947
 30
0.0
 11
212.304219
 21
284.35358
 31
0.0
  0
LINE
  5
81
330
7C
100
AcDbEntity
  8
LC-001-100-D00-0
 62
     7
370
    50
100
AcDbLine
 10
212.304219
 20
284.35358
 30
0.0
 11
212.304219
 21
284.35358
 31
0.0
  0
LINE
  5
82
330
7C
100
AcDbEntity
  8
LC-001-100-D00-0
 62
     7
370
    50
100
AcDbLine
 10
212.304219
 20
284.35358
 30
0.0
 11
211.940981
 21
284.551735
 31
0.0
  0
LINE
  5
83
330
7C
100
AcDbEntity
  8
LC-001-100-D00-0
 62
     7
370
    50
100
AcDbLine
 10
211.940981
 20
284.551735
 30
0.0
 11
211.940981
 21
284.551735
 31
0.0
  0
LINE
  5
84
330
7C
100
AcDbEntity
  8
LC-001-100-D00-0
 62
     7
370
    50
100
AcDbLine
 10
211.940981
 20
284.551735
 30
0.0
 11
211.588205
 21
284.752153
 31
0.0
  0
LINE
  5
85
330
7C
100
AcDbEntity
  8
LC-001-100-D00-0
 62
     7
370
    50
100
AcDbLine
 10
211.588205
 20
284.752153
 30
0.0
 11
211.588205
 21
284.752153
 31
0.0
  0
LINE
  5
86
330
7C
100
AcDbEntity
  8
LC-001-100-D00-0
 62
     7
370
    50
100
AcDbLine
 10
211.588205
 20
284.752153
 30
0.0
 11
211.44307
 21
284.834607
 31
0.0
  0
ENDBLK
  5
7E
330
7C
100
AcDbEntity
  8
0
100
AcDbBlockEnd
  0
BLOCK
  5
89
330
88
100
AcDbEntity
  8
0
100
AcDbBlockBegin
  2
POLY8
 70
     0
 71
     0
 10
0.0
 20
0.0
 30
0.0
  3
POLY8
  1

  4
POLY8
  0
LINE
  5
8B
330
88
100
AcDbEntity
  8
LC-001-100-D00-0
 62
     7
370
    50
100
AcDbLine
 10
206.352639
 20
273.429791
 30
0.0
 11
206.352639
 21
273.429791
 31
0.0
  0
LINE
  5
8C
330
88
100
AcDbEntity
  8
LC-001-100-D00-0
 62
     7
370
    50
100
AcDbLine
 10
206.352639
 20
273.429791
 30
0.0
 11
206.592539
 21
273.303659
 31
0.0
  0
LINE
  5
8D
330
88
100
AcDbEntity
  8
LC-001-100-D00-0
 62
     7
370
    50
100
AcDbLine
 10
206.592539
 20
273.303659
 30
0.0
 11
206.592539
 21
273.303659
 31
0.0
  0
LINE
  5
8E
330
88
100
AcDbEntity
  8
LC-001-100-D00-0
 62
     7
370
    50
100
AcDbLine
 10
206.592539
 20
273.303659
 30
0.0
 11
206.956387
 21
273.112359
 31
0.0
  0
LINE
  5
8F
330
88
100
AcDbEntity
  8
LC-001-100-D00-0
 62
     7
370
    50
100
AcDbLine
 10
206.956387
 20
273.112359
 30
0.0
 11
206.956387
 21
273.112359
 31
0.0
  0
LINE
  5
90
330
88
100
AcDbEntity
  8
LC-001-100-D00-0
 62
     7
370
    50
100
AcDbLine
 10
206.956387
 20
273.112359
 30
0.0
 11
207.319404
 21
272.907091
 31
0.0
  0
LINE
  5
91
330
88
100
AcDbEntity
  8
LC-001-100-D00-0
 62
     7
370
    50
100
AcDbLine
 10
207.319404
 20
272.907091
 30
0.0
 11
207.319404
 21
272.907091
 31
0.0
  0
LINE
  5
92
330
88
100
AcDbEntity
  8
LC-001-100-D00-0
 62
     7
370
    50
100
AcDbLine
 10
207.319404
 20
272.907091
 30
0.0
 11
207.443069
 21
272.837164
 31
0.0
  0
ENDBLK
  5
8A
330
88
100
AcDbEntity
  8
0
100
AcDbBlockEnd
  0
BLOCK
  5
95
330
94
100
AcDbEntity
  8
0
100
AcDbBlockBegin
  2
POLY9
 70
     0
 71
     0
 10
0.0
 20
0.0
 30
0.0
  3
POLY9
  1

  4
POLY9
  0
LINE
  5
97
330
94
100
AcDbEntity
  8
LC-001-100-D00-0
 62
     7
370
    50
100
AcDbLine
 10
206.352639
 20
285.429793
 30
0.0
 11
206.352639
 21
285.429793
 31
0.0
  0
LINE
  5
98
330
94
100
AcDbEntity
  8
LC-001-100-D00-0
 62
     7
370
    50
100
AcDbLine
 10
206.352639
 20
285.429793
 30
0.0
 11
206.592539
 21
285.303661
 31
0.0
  0
LINE
  5
99
330
94
100
AcDbEntity
  8
LC-001-100-D00-0
 62
     7
370
    50
100
AcDbLine
 10
206.592539
 20
285.303661
 30
0.0
 11
206.592539
 21
285.303661
 31
0.0
  0
LINE
  5
9A
330
94
100
AcDbEntity
  8
LC-001-100-D00-0
 62
     7
370
    50
100
AcDbLine
 10
206.592539
 20
285.303661
 30
0.0
 11
206.956387
 21
285.112361
 31
0.0
  0
LINE
  5
9B
330
94
100
AcDbEntity
  8
LC-001-100-D00-0
 62
     7
370
    50
100
AcDbLine
 10
206.956387
 20
285.112361
 30
0.0
 11
206.956387
 21
285.112361
 31
0.0
  0
LINE
  5
9C
330
94
100
AcDbEntity
  8
LC-001-100-D00-0
 62
     7
370
    50
100
AcDbLine
 10
206.956387
 20
285.112361
 30
0.0
 11
207.319404
 21
284.907093
 31
0.0
  0
LINE
  5
9D
330
94
100
AcDbEntity
  8
LC-001-100-D00-0
 62
     7
370
    50
100
AcDbLine
 10
207.319404
 20
284.907093
 30
0.0
 11
207.319404
 21
284.907093
 31
0.0
  0
LINE
  5
9E
330
94
100
AcDbEntity
  8
LC-001-100-D00-0
 62
     7
370
    50
100
AcDbLine
 10
207.319404
 20
284.907093
 30
0.0
 11
207.443069
 21
284.837166
 31
0.0
  0
ENDBLK
  5
96
330
94
100
AcDbEntity
  8
0
100
AcDbBlockEnd
  0
BLOCK
  5
A1
330
A0
100
AcDbEntity
  8
0
100
AcDbBlockBegin
  2
POLY10
 70
     0
 71
     0
 10
0.0
 20
0.0
 30
0.0
  3
POLY10
  1

  4
POLY10
  0
LINE
  5
A3
330
A0
100
AcDbEntity
  8
LC-001-100-D00-0
 62
     7
370
    50
100
AcDbLine
 10
212.518017
 20
275.236948
 30
0.0
 11
212.518017
 21
275.236948
 31
0.0
  0
LINE
  5
A4
330
A0
100
AcDbEntity
  8
LC-001-100-D00-0
 62
     7
370
    50
100
AcDbLine
 10
212.518017
 20
275.236948
 30
0.0
 11
212.304219
 21
275.35358
 31
0.0
  0
LINE
  5
A5
330
A0
100
AcDbEntity
  8
LC-001-100-D00-0
 62
     7
370
    50
100
AcDbLine
 10
212.304219
 20
275.35358
 30
0.0
 11
212.304219
 21
275.35358
 31
0.0
  0
LINE
  5
A6
330
A0
100
AcDbEntity
  8
LC-001-100-D00-0
 62
     7
370
    50
100
AcDbLine
 10
212.304219
 20
275.35358
 30
0.0
 11
211.940982
 21
275.551736
 31
0.0
  0
LINE
  5
A7
330
A0
100
AcDbEntity
  8
LC-001-100-D00-0
 62
     7
370
    50
100
AcDbLine
 10
211.940982
 20
275.551736
 30
0.0
 11
211.940982
 21
275.551736
 31
0.0
  0
LINE
  5
A8
330
A0
100
AcDbEntity
  8
LC-001-100-D00-0
 62
     7
370
    50
100
AcDbLine
 10
211.940982
 20
275.551736
 30
0.0
 11
211.588205
 21
275.752151
 31
0.0
  0
LINE
  5
A9
330
A0
100
AcDbEntity
  8
LC-001-100-D00-0
 62
     7
370
    50
100
AcDbLine
 10
211.588205
 20
275.752151
 30
0.0
 11
211.588205
 21
275.752151
 31
0.0
  0
LINE
  5
AA
330
A0
100
AcDbEntity
  8
LC-001-100-D00-0
 62
     7
370
    50
100
AcDbLine
 10
211.588205
 20
275.752151
 30
0.0
 11
211.44307
 21
275.834604
 31
0.0
  0
ENDBLK
  5
A2
330
A0
100
AcDbEntity
  8
0
100
AcDbBlockEnd
  0
BLOCK
  5
B1
330
B0
100
AcDbEntity
  8
0
100
AcDbBlockBegin
  2
POLY11
 70
     0
 71
     0
 10
0.0
 20
0.0
 30
0.0
  3
POLY11
  1

  4
POLY11
  0
LINE
  5
B3
330
B0
100
AcDbEntity
  8
LC-001-100-D00-0
 62
     7
370
    50
100
AcDbLine
 10
318.802084
 20
284.192497
 30
0.0
 11
318.802084
 21
284.192497
 31
0.0
  0
LINE
  5
B4
330
B0
100
AcDbEntity
  8
LC-001-100-D00-0
 62
     7
370
    50
100
AcDbLine
 10
318.802084
 20
284.192497
 30
0.0
 11
318.829274
 21
284.132895
 31
0.0
  0
LINE
  5
B5
330
B0
100
AcDbEntity
  8
LC-001-100-D00-0
 62
     7
370
    50
100
AcDbLine
 10
318.829274
 20
284.132895
 30
0.0
 11
318.829274
 21
284.132895
 31
0.0
  0
LINE
  5
B6
330
B0
100
AcDbEntity
  8
LC-001-100-D00-0
 62
     7
370
    50
100
AcDbLine
 10
318.829274
 20
284.132895
 30
0.0
 11
318.868075
 21
284.047838
 31
0.0
  0
LINE
  5
B7
330
B0
100
AcDbEntity
  8
LC-001-100-D00-0
 62
     7
370
    50
100
AcDbLine
 10
318.868075
 20
284.047838
 30
0.0
 11
318.868075
 21
284.047838
 31
0.0
  0
LINE
  5
B8
330
B0
100
AcDbEntity
  8
LC-001-100-D00-0
 62
     7
370
    50
100
AcDbLine
 10
318.868075
 20
284.047838
 30
0.0
 11
318.902203
 21
283.962912
 31
0.0
  0
LINE
  5
B9
330
B0
100
AcDbEntity
  8
LC-001-100-D00-0
 62
     7
370
    50
100
AcDbLine
 10
318.902203
 20
283.962912
 30
0.0
 11
318.902203
 21
283.962912
 31
0.0
  0
LINE
  5
BA
330
B0
100
AcDbEntity
  8
LC-001-100-D00-0
 62
     7
370
    50
100
AcDbLine
 10
318.902203
 20
283.962912
 30
0.0
 11
318.912416
 21
283.937497
 31
0.0
  0
ENDBLK
  5
B2
330
B0
100
AcDbEntity
  8
0
100
AcDbBlockEnd
  0
BLOCK
  5
C6
330
C5
100
AcDbEntity
  8
0
100
AcDbBlockBegin
  2
KLON1
 70
     0
 71
     0
 10
0.0
 20
0.0
 30
0.0
  3
KLON1
  1

  4
KLON1
  0
LINE
  5
C8
330
C5
100
AcDbEntity
  8
LC-001-100-D00-0
 62
     7
370
    15
100
AcDbLine
 10
207.443069
 20
283.22432
 30
0.0
 11
207.091975
 21
283.041554
 31
0.0
  0
LINE
  5
C9
330
C5
100
AcDbEntity
  8
LC-001-100-D00-0
 62
     7
370
    15
100
AcDbLine
 10
207.091975
 20
283.041554
 30
0.0
 11
206.740881
 21
282.858784
 31
0.0
  0
LINE
  5
CA
330
C5
100
AcDbEntity
  8
LC-001-100-D00-0
 62
     7
370
    15
100
AcDbLine
 10
206.740881
 20
282.858784
 30
0.0
 11
206.19307
 21
282.573613
 31
0.0
  0
ENDBLK
  5
C7
330
C5
100
AcDbEntity
  8
0
100
AcDbBlockEnd
  0
BLOCK
  5
CD
330
CC
100
AcDbEntity
  8
0
100
AcDbBlockBegin
  2
POLY12
 70
     0
 71
     0
 10
0.0
 20
0.0
 30
0.0
  3
POLY12
  1

  4
POLY12
  0
LINE
  5
CF
330
CC
100
AcDbEntity
  8
LC-001-100-D00-0
 62
     7
370
    50
100
AcDbLine
 10
206.19307
 20
282.573613
 30
0.0
 11
206.19307
 21
282.573613
 31
0.0
  0
LINE
  5
D0
330
CC
100
AcDbEntity
  8
LC-001-100-D00-0
 62
     7
370
    50
100
AcDbLine
 10
206.19307
 20
282.573613
 30
0.0
 11
206.193073
 21
282.572879
 31
0.0
  0
LINE
  5
D1
330
CC
100
AcDbEntity
  8
LC-001-100-D00-0
 62
     7
370
    50
100
AcDbLine
 10
206.193073
 20
282.572879
 30
0.0
 11
206.193073
 21
282.572879
 31
0.0
  0
LINE
  5
D2
330
CC
100
AcDbEntity
  8
LC-001-100-D00-0
 62
     7
370
    50
100
AcDbLine
 10
206.193073
 20
282.572879
 30
0.0
 11
206.193285
 21
282.521886
 31
0.0
  0
LINE
  5
D3
330
CC
100
AcDbEntity
  8
LC-001-100-D00-0
 62
     7
370
    50
100
AcDbLine
 10
206.193285
 20
282.521886
 30
0.0
 11
206.193285
 21
282.521886
 31
0.0
  0
LINE
  5
D4
330
CC
100
AcDbEntity
  8
LC-001-100-D00-0
 62
     7
370
    50
100
AcDbLine
 10
206.193285
 20
282.521886
 30
0.0
 11
206.293217
 21
282.474546
 31
0.0
  0
LINE
  5
D5
330
CC
100
AcDbEntity
  8
LC-001-100-D00-0
 62
     7
370
    50
100
AcDbLine
 10
206.293217
 20
282.474546
 30
0.0
 11
206.293217
 21
282.474546
 31
0.0
  0
LINE
  5
D6
330
CC
100
AcDbEntity
  8
LC-001-100-D00-0
 62
     7
370
    50
100
AcDbLine
 10
206.293217
 20
282.474546
 30
0.0
 11
206.39171
 21
282.427887
 31
0.0
  0
ENDBLK
  5
CE
330
CC
100
AcDbEntity
  8
0
100
AcDbBlockEnd
  0
BLOCK
  5
DA
330
D9
100
AcDbEntity
  8
0
100
AcDbBlockBegin
  2
KLON2
 70
     0
 71
     0
 10
0.0
 20
0.0
 30
0.0
  3
KLON2
  1

  4
KLON2
  0
LINE
  5
DC
330
D9
100
AcDbEntity
  8
LC-001-100-D00-0
 62
     7
370
    15
100
AcDbLine
 10
212.693068
 20
281.073614
 30
0.0
 11
212.341975
 21
281.25638
 31
0.0
  0
LINE
  5
DD
330
D9
100
AcDbEntity
  8
LC-001-100-D00-0
 62
     7
370
    15
100
AcDbLine
 10
212.341975
 20
281.25638
 30
0.0
 11
211.990877
 21
281.43915
 31
0.0
  0
LINE
  5
DE
330
D9
100
AcDbEntity
  8
LC-001-100-D00-0
 62
     7
370
    15
100
AcDbLine
 10
211.990877
 20
281.43915
 30
0.0
 11
211.44307
 21
281.724321
 31
0.0
  0
ENDBLK
  5
DB
330
D9
100
AcDbEntity
  8
0
100
AcDbBlockEnd
  0
BLOCK
  5
E1
330
E0
100
AcDbEntity
  8
0
100
AcDbBlockBegin
  2
KLON3
 70
     0
 71
     0
 10
0.0
 20
0.0
 30
0.0
  3
KLON3
  1

  4
KLON3
  0
LINE
  5
E3
330
E0
100
AcDbEntity
  8
LC-001-100-D00-0
 62
     7
370
    15
100
AcDbLine
 10
207.443069
 20
280.224322
 30
0.0
 11
207.091975
 21
280.041552
 31
0.0
  0
LINE
  5
E4
330
E0
100
AcDbEntity
  8
LC-001-100-D00-0
 62
     7
370
    15
100
AcDbLine
 10
207.091975
 20
280.041552
 30
0.0
 11
206.740881
 21
279.858785
 31
0.0
  0
LINE
  5
E5
330
E0
100
AcDbEntity
  8
LC-001-100-D00-0
 62
     7
370
    15
100
AcDbLine
 10
206.740881
 20
279.858785
 30
0.0
 11
206.19307
 21
279.57361
 31
0.0
  0
ENDBLK
  5
E2
330
E0
100
AcDbEntity
  8
0
100
AcDbBlockEnd
  0
BLOCK
  5
E8
330
E7
100
AcDbEntity
  8
0
100
AcDbBlockBegin
  2
POLY13
 70
     0
 71
     0
 10
0.0
 20
0.0
 30
0.0
  3
POLY13
  1

  4
POLY13
  0
LINE
  5
EA
330
E7
100
AcDbEntity
  8
LC-001-100-D00-0
 62
     7
370
    50
100
AcDbLine
 10
206.19307
 20
279.57361
 30
0.0
 11
206.19307
 21
279.57361
 31
0.0
  0
LINE
  5
EB
330
E7
100
AcDbEntity
  8
LC-001-100-D00-0
 62
     7
370
    50
100
AcDbLine
 10
206.19307
 20
279.57361
 30
0.0
 11
206.193073
 21
279.572876
 31
0.0
  0
LINE
  5
EC
330
E7
100
AcDbEntity
  8
LC-001-100-D00-0
 62
     7
370
    50
100
AcDbLine
 10
206.193073
 20
279.572876
 30
0.0
 11
206.193073
 21
279.572876
 31
0.0
  0
LINE
  5
ED
330
E7
100
AcDbEntity
  8
LC-001-100-D00-0
 62
     7
370
    50
100
AcDbLine
 10
206.193073
 20
279.572876
 30
0.0
 11
206.193285
 21
279.521884
 31
0.0
  0
LINE
  5
EE
330
E7
100
AcDbEntity
  8
LC-001-100-D00-0
 62
     7
370
    50
100
AcDbLine
 10
206.193285
 20
279.521884
 30
0.0
 11
206.193285
 21
279.521884
 31
0.0
  0
LINE
  5
EF
330
E7
100
AcDbEntity
  8
LC-001-100-D00-0
 62
     7
370
    50
100
AcDbLine
 10
206.193285
 20
279.521884
 30
0.0
 11
206.293217
 21
279.474545
 31
0.0
  0
LINE
  5
F0
330
E7
100
AcDbEntity
  8
LC-001-100-D00-0
 62
     7
370
    50
100
AcDbLine
 10
206.293217
 20
279.474545
 30
0.0
 11
206.293217
 21
279.474545
 31
0.0
  0
LINE
  5
F1
330
E7
100
AcDbEntity
  8
LC-001-100-D00-0
 62
     7
370
    50
100
AcDbLine
 10
206.293217
 20
279.474545
 30
0.0
 11
206.39171
 21
279.427888
 31
0.0
  0
ENDBLK
  5
E9
330
E7
100
AcDbEntity
  8
0
100
AcDbBlockEnd
  0
BLOCK
  5
F5
330
F4
100
AcDbEntity
  8
0
100
AcDbBlockBegin
  2
KLON4
 70
     0
 71
     0
 10
0.0
 20
0.0
 30
0.0
  3
KLON4
  1

  4
KLON4
  0
LINE
  5
F7
330
F4
100
AcDbEntity
  8
LC-001-100-D00-0
 62
     7
370
    15
100
AcDbLine
 10
212.693068
 20
278.073611
 30
0.0
 11
212.341975
 21
278.256381
 31
0.0
  0
LINE
  5
F8
330
F4
100
AcDbEntity
  8
LC-001-100-D00-0
 62
     7
370
    15
100
AcDbLine
 10
212.341975
 20
278.256381
 30
0.0
 11
211.990877
 21
278.439148
 31
0.0
  0
LINE
  5
F9
330
F4
100
AcDbEntity
  8
LC-001-100-D00-0
 62
     7
370
    15
100
AcDbLine
 10
211.990877
 20
278.439148
 30
0.0
 11
211.44307
 21
278.724323
 31
0.0
  0
ENDBLK
  5
F6
330
F4
100
AcDbEntity
  8
0
100
AcDbBlockEnd
  0
BLOCK
  5
FC
330
FB
100
AcDbEntity
  8
0
100
AcDbBlockBegin
  2
KLON5
 70
     0
 71
     0
 10
0.0
 20
0.0
 30
0.0
  3
KLON5
  1

  4
KLON5
  0
LINE
  5
FE
330
FB
100
AcDbEntity
  8
LC-001-100-D00-0
 62
     7
370
    15
100
AcDbLine
 10
206.19307
 20
282.573613
 30
0.0
 11
206.544164
 21
282.390843
 31
0.0
  0
LINE
  5
FF
330
FB
100
AcDbEntity
  8
LC-001-100-D00-0
 62
     7
370
    15
100
AcDbLine
 10
206.544164
 20
282.390843
 30
0.0
 11
206.895257
 21
282.208076
 31
0.0
  0
LINE
  5
100
330
FB
100
AcDbEntity
  8
LC-001-100-D00-0
 62
     7
370
    15
100
AcDbLine
 10
206.895257
 20
282.208076
 30
0.0
 11
207.443069
 21
281.922901
 31
0.0
  0
ENDBLK
  5
FD
330
FB
100
AcDbEntity
  8
0
100
AcDbBlockEnd
  0
BLOCK
  5
103
330
102
100
AcDbEntity
  8
0
100
AcDbBlockBegin
  2
KLON6
 70
     0
 71
     0
 10
0.0
 20
0.0
 30
0.0
  3
KLON6
  1

  4
KLON6
  0
LINE
  5
105
330
102
100
AcDbEntity
  8
LC-001-100-D00-0
 62
     7
370
    15
100
AcDbLine
 10
211.44307
 20
280.422902
 30
0.0
 11
211.794163
 21
280.605672
 31
0.0
  0
LINE
  5
106
330
102
100
AcDbEntity
  8
LC-001-100-D00-0
 62
     7
370
    15
100
AcDbLine
 10
211.794163
 20
280.605672
 30
0.0
 11
212.145261
 21
280.788439
 31
0.0
  0
LINE
  5
107
330
102
100
AcDbEntity
  8
LC-001-100-D00-0
 62
     7
370
    15
100
AcDbLine
 10
212.145261
 20
280.788439
 30
0.0
 11
212.693068
 21
281.073614
 31
0.0
  0
ENDBLK
  5
104
330
102
100
AcDbEntity
  8
0
100
AcDbBlockEnd
  0
BLOCK
  5
10A
330
109
100
AcDbEntity
  8
0
100
AcDbBlockBegin
  2
POLY14
 70
     0
 71
     0
 10
0.0
 20
0.0
 30
0.0
  3
POLY14
  1

  4
POLY14
  0
LINE
  5
10C
330
109
100
AcDbEntity
  8
LC-001-100-D00-0
 62
     7
370
    50
100
AcDbLine
 10
206.19307
 20
276.573612
 30
0.0
 11
206.19307
 21
276.573612
 31
0.0
  0
LINE
  5
10D
330
109
100
AcDbEntity
  8
LC-001-100-D00-0
 62
     7
370
    50
100
AcDbLine
 10
206.19307
 20
276.573612
 30
0.0
 11
206.193073
 21
276.572878
 31
0.0
  0
LINE
  5
10E
330
109
100
AcDbEntity
  8
LC-001-100-D00-0
 62
     7
370
    50
100
AcDbLine
 10
206.193073
 20
276.572878
 30
0.0
 11
206.193073
 21
276.572878
 31
0.0
  0
LINE
  5
10F
330
109
100
AcDbEntity
  8
LC-001-100-D00-0
 62
     7
370
    50
100
AcDbLine
 10
206.193073
 20
276.572878
 30
0.0
 11
206.193285
 21
276.521885
 31
0.0
  0
LINE
  5
110
330
109
100
AcDbEntity
  8
LC-001-100-D00-0
 62
     7
370
    50
100
AcDbLine
 10
206.193285
 20
276.521885
 30
0.0
 11
206.193285
 21
276.521885
 31
0.0
  0
LINE
  5
111
330
109
100
AcDbEntity
  8
LC-001-100-D00-0
 62
     7
370
    50
100
AcDbLine
 10
206.193285
 20
276.521885
 30
0.0
 11
206.293217
 21
276.474545
 31
0.0
  0
LINE
  5
112
330
109
100
AcDbEntity
  8
LC-001-100-D00-0
 62
     7
370
    50
100
AcDbLine
 10
206.293217
 20
276.474545
 30
0.0
 11
206.293217
 21
276.474545
 31
0.0
  0
LINE
  5
113
330
109
100
AcDbEntity
  8
LC-001-100-D00-0
 62
     7
370
    50
100
AcDbLine
 10
206.293217
 20
276.474545
 30
0.0
 11
206.39171
 21
276.427886
 31
0.0
  0
ENDBLK
  5
10B
330
109
100
AcDbEntity
  8
0
100
AcDbBlockEnd
  0
BLOCK
  5
117
330
116
100
AcDbEntity
  8
0
100
AcDbBlockBegin
  2
KLON7
 70
     0
 71
     0
 10
0.0
 20
0.0
 30
0.0
  3
KLON7
  1

  4
KLON7
  0
LINE
  5
119
330
116
100
AcDbEntity
  8
LC-001-100-D00-0
 62
     7
370
    15
100
AcDbLine
 10
206.19307
 20
276.573612
 30
0.0
 11
206.544164
 21
276.390845
 31
0.0
  0
LINE
  5
11A
330
116
100
AcDbEntity
  8
LC-001-100-D00-0
 62
     7
370
    15
100
AcDbLine
 10
206.544164
 20
276.390845
 30
0.0
 11
206.895257
 21
276.208075
 31
0.0
  0
LINE
  5
11B
330
116
100
AcDbEntity
  8
LC-001-100-D00-0
 62
     7
370
    15
100
AcDbLine
 10
206.895257
 20
276.208075
 30
0.0
 11
207.443069
 21
275.922904
 31
0.0
  0
ENDBLK
  5
118
330
116
100
AcDbEntity
  8
0
100
AcDbBlockEnd
  0
BLOCK
  5
11E
330
11D
100
AcDbEntity
  8
0
100
AcDbBlockBegin
  2
KLON8
 70
     0
 71
     0
 10
0.0
 20
0.0
 30
0.0
  3
KLON8
  1

  4
KLON8
  0
LINE
  5
120
330
11D
100
AcDbEntity
  8
LC-001-100-D00-0
 62
     7
370
    15
100
AcDbLine
 10
211.44307
 20
274.422905
 30
0.0
 11
211.794163
 21
274.605671
 31
0.0
  0
LINE
  5
121
330
11D
100
AcDbEntity
  8
LC-001-100-D00-0
 62
     7
370
    15
100
AcDbLine
 10
211.794163
 20
274.605671
 30
0.0
 11
212.145261
 21
274.788442
 31
0.0
  0
LINE
  5
122
330
11D
100
AcDbEntity
  8
LC-001-100-D00-0
 62
     7
370
    15
100
AcDbLine
 10
212.145261
 20
274.788442
 30
0.0
 11
212.693068
 21
275.073613
 31
0.0
  0
ENDBLK
  5
11F
330
11D
100
AcDbEntity
  8
0
100
AcDbBlockEnd
  0
BLOCK
  5
125
330
124
100
AcDbEntity
  8
0
100
AcDbBlockBegin
  2
KLON9
 70
     0
 71
     0
 10
0.0
 20
0.0
 30
0.0
  3
KLON9
  1

  4
KLON9
  0
LINE
  5
127
330
124
100
AcDbEntity
  8
LC-001-100-D00-0
 62
     7
370
    15
100
AcDbLine
 10
206.19307
 20
279.57361
 30
0.0
 11
206.544164
 21
279.390844
 31
0.0
  0
LINE
  5
128
330
124
100
AcDbEntity
  8
LC-001-100-D00-0
 62
     7
370
    15
100
AcDbLine
 10
206.544164
 20
279.390844
 30
0.0
 11
206.895257
 21
279.208074
 31
0.0
  0
LINE
  5
129
330
124
100
AcDbEntity
  8
LC-001-100-D00-0
 62
     7
370
    15
100
AcDbLine
 10
206.895257
 20
279.208074
 30
0.0
 11
207.443069
 21
278.922903
 31
0.0
  0
ENDBLK
  5
126
330
124
100
AcDbEntity
  8
0
100
AcDbBlockEnd
  0
BLOCK
  5
12C
330
12B
100
AcDbEntity
  8
0
100
AcDbBlockBegin
  2
KLON10
 70
     0
 71
     0
 10
0.0
 20
0.0
 30
0.0
  3
KLON10
  1

  4
KLON10
  0
LINE
  5
12E
330
12B
100
AcDbEntity
  8
LC-001-100-D00-0
 62
     7
370
    15
100
AcDbLine
 10
211.44307
 20
277.422904
 30
0.0
 11
211.794163
 21
277.605674
 31
0.0
  0
LINE
  5
12F
330
12B
100
AcDbEntity
  8
LC-001-100-D00-0
 62
     7
370
    15
100
AcDbLine
 10
211.794163
 20
277.605674
 30
0.0
 11
212.145261
 21
277.78844
 31
0.0
  0
LINE
  5
130
330
12B
100
AcDbEntity
  8
LC-001-100-D00-0
 62
     7
370
    15
100
AcDbLine
 10
212.145261
 20
277.78844
 30
0.0
 11
212.693068
 21
278.073611
 31
0.0
  0
ENDBLK
  5
12D
330
12B
100
AcDbEntity
  8
0
100
AcDbBlockEnd
  0
BLOCK
  5
133
330
132
100
AcDbEntity
  8
0
100
AcDbBlockBegin
  2
KLON11
 70
     0
 71
     0
 10
0.0
 20
0.0
 30
0.0
  3
KLON11
  1

  4
KLON11
  0
LINE
  5
135
330
132
100
AcDbEntity
  8
LC-001-100-D00-0
 62
     7
370
    15
100
AcDbLine
 10
207.443069
 20
274.224321
 30
0.0
 11
207.091975
 21
274.041551
 31
0.0
  0
LINE
  5
136
330
132
100
AcDbEntity
  8
LC-001-100-D00-0
 62
     7
370
    15
100
AcDbLine
 10
207.091975
 20
274.041551
 30
0.0
 11
206.740881
 21
273.858784
 31
0.0
  0
LINE
  5
137
330
132
100
AcDbEntity
  8
LC-001-100-D00-0
 62
     7
370
    15
100
AcDbLine
 10
206.740881
 20
273.858784
 30
0.0
 11
206.19307
 21
273.573613
 31
0.0
  0
ENDBLK
  5
134
330
132
100
AcDbEntity
  8
0
100
AcDbBlockEnd
  0
BLOCK
  5
13A
330
139
100
AcDbEntity
  8
0
100
AcDbBlockBegin
  2
POLY15
 70
     0
 71
     0
 10
0.0
 20
0.0
 30
0.0
  3
POLY15
  1

  4
POLY15
  0
LINE
  5
13C
330
139
100
AcDbEntity
  8
LC-001-100-D00-0
 62
     7
370
    50
100
AcDbLine
 10
206.19307
 20
273.573613
 30
0.0
 11
206.19307
 21
273.573613
 31
0.0
  0
LINE
  5
13D
330
139
100
AcDbEntity
  8
LC-001-100-D00-0
 62
     7
370
    50
100
AcDbLine
 10
206.19307
 20
273.573613
 30
0.0
 11
206.193073
 21
273.572878
 31
0.0
  0
LINE
  5
13E
330
139
100
AcDbEntity
  8
LC-001-100-D00-0
 62
     7
370
    50
100
AcDbLine
 10
206.193073
 20
273.572878
 30
0.0
 11
206.193073
 21
273.572878
 31
0.0
  0
LINE
  5
13F
330
139
100
AcDbEntity
  8
LC-001-100-D00-0
 62
     7
370
    50
100
AcDbLine
 10
206.193073
 20
273.572878
 30
0.0
 11
206.193285
 21
273.5218
 31
0.0
  0
LINE
  5
140
330
139
100
AcDbEntity
  8
LC-001-100-D00-0
 62
     7
370
    50
100
AcDbLine
 10
206.193285
 20
273.5218
 30
0.0
 11
206.193285
 21
273.5218
 31
0.0
  0
LINE
  5
141
330
139
100
AcDbEntity
  8
LC-001-100-D00-0
 62
     7
370
    50
100
AcDbLine
 10
206.193285
 20
273.5218
 30
0.0
 11
206.293217
 21
273.474503
 31
0.0
  0
LINE
  5
142
330
139
100
AcDbEntity
  8
LC-001-100-D00-0
 62
     7
370
    50
100
AcDbLine
 10
206.293217
 20
273.474503
 30
0.0
 11
206.293217
 21
273.474503
 31
0.0
  0
LINE
  5
143
330
139
100
AcDbEntity
  8
LC-001-100-D00-0
 62
     7
370
    50
100
AcDbLine
 10
206.293217
 20
273.474503
 30
0.0
 11
206.39171
 21
273.427887
 31
0.0
  0
ENDBLK
  5
13B
330
139
100
AcDbEntity
  8
0
100
AcDbBlockEnd
  0
BLOCK
  5
147
330
146
100
AcDbEntity
  8
0
100
AcDbBlockBegin
  2
KLON12
 70
     0
 71
     0
 10
0.0
 20
0.0
 30
0.0
  3
KLON12
  1

  4
KLON12
  0
LINE
  5
149
330
146
100
AcDbEntity
  8
LC-001-100-D00-0
 62
     7
370
    15
100
AcDbLine
 10
212.693068
 20
272.073614
 30
0.0
 11
212.341975
 21
272.25638
 31
0.0
  0
LINE
  5
14A
330
146
100
AcDbEntity
  8
LC-001-100-D00-0
 62
     7
370
    15
100
AcDbLine
 10
212.341975
 20
272.25638
 30
0.0
 11
211.990877
 21
272.439151
 31
0.0
  0
LINE
  5
14B
330
146
100
AcDbEntity
  8
LC-001-100-D00-0
 62
     7
370
    15
100
AcDbLine
 10
211.990877
 20
272.439151
 30
0.0
 11
211.44307
 21
272.724322
 31
0.0
  0
ENDBLK
  5
148
330
146
100
AcDbEntity
  8
0
100
AcDbBlockEnd
  0
BLOCK
  5
14E
330
14D
100
AcDbEntity
  8
0
100
AcDbBlockBegin
  2
KLON13
 70
     0
 71
     0
 10
0.0
 20
0.0
 30
0.0
  3
KLON13
  1

  4
KLON13
  0
LINE
  5
150
330
14D
100
AcDbEntity
  8
LC-001-100-D00-0
 62
     7
370
    15
100
AcDbLine
 10
207.443069
 20
286.224323
 30
0.0
 11
207.091975
 21
286.041553
 31
0.0
  0
LINE
  5
151
330
14D
100
AcDbEntity
  8
LC-001-100-D00-0
 62
     7
370
    15
100
AcDbLine
 10
207.091975
 20
286.041553
 30
0.0
 11
206.740881
 21
285.858782
 31
0.0
  0
LINE
  5
152
330
14D
100
AcDbEntity
  8
LC-001-100-D00-0
 62
     7
370
    15
100
AcDbLine
 10
206.740881
 20
285.858782
 30
0.0
 11
206.19307
 21
285.573611
 31
0.0
  0
ENDBLK
  5
14F
330
14D
100
AcDbEntity
  8
0
100
AcDbBlockEnd
  0
BLOCK
  5
155
330
154
100
AcDbEntity
  8
0
100
AcDbBlockBegin
  2
POLY16
 70
     0
 71
     0
 10
0.0
 20
0.0
 30
0.0
  3
POLY16
  1

  4
POLY16
  0
LINE
  5
157
330
154
100
AcDbEntity
  8
LC-001-100-D00-0
 62
     7
370
    50
100
AcDbLine
 10
206.19307
 20
285.573611
 30
0.0
 11
206.19307
 21
285.573611
 31
0.0
  0
LINE
  5
158
330
154
100
AcDbEntity
  8
LC-001-100-D00-0
 62
     7
370
    50
100
AcDbLine
 10
206.19307
 20
285.573611
 30
0.0
 11
206.193073
 21
285.572877
 31
0.0
  0
LINE
  5
159
330
154
100
AcDbEntity
  8
LC-001-100-D00-0
 62
     7
370
    50
100
AcDbLine
 10
206.193073
 20
285.572877
 30
0.0
 11
206.193073
 21
285.572877
 31
0.0
  0
LINE
  5
15A
330
154
100
AcDbEntity
  8
LC-001-100-D00-0
 62
     7
370
    50
100
AcDbLine
 10
206.193073
 20
285.572877
 30
0.0
 11
206.193285
 21
285.521885
 31
0.0
  0
LINE
  5
15B
330
154
100
AcDbEntity
  8
LC-001-100-D00-0
 62
     7
370
    50
100
AcDbLine
 10
206.193285
 20
285.521885
 30
0.0
 11
206.193285
 21
285.521885
 31
0.0
  0
LINE
  5
15C
330
154
100
AcDbEntity
  8
LC-001-100-D00-0
 62
     7
370
    50
100
AcDbLine
 10
206.193285
 20
285.521885
 30
0.0
 11
206.293217
 21
285.474544
 31
0.0
  0
LINE
  5
15D
330
154
100
AcDbEntity
  8
LC-001-100-D00-0
 62
     7
370
    50
100
AcDbLine
 10
206.293217
 20
285.474544
 30
0.0
 11
206.293217
 21
285.474544
 31
0.0
  0
LINE
  5
15E
330
154
100
AcDbEntity
  8
LC-001-100-D00-0
 62
     7
370
    50
100
AcDbLine
 10
206.293217
 20
285.474544
 30
0.0
 11
206.39171
 21
285.427886
 31
0.0
  0
ENDBLK
  5
156
330
154
100
AcDbEntity
  8
0
100
AcDbBlockEnd
  0
BLOCK
  5
162
330
161
100
AcDbEntity
  8
0
100
AcDbBlockBegin
  2
KLON14
 70
     0
 71
     0
 10
0.0
 20
0.0
 30
0.0
  3
KLON14
  1

  4
KLON14
  0
LINE
  5
164
330
161
100
AcDbEntity
  8
LC-001-100-D00-0
 62
     7
370
    15
100
AcDbLine
 10
212.693068
 20
284.073612
 30
0.0
 11
212.341975
 21
284.256382
 31
0.0
  0
LINE
  5
165
330
161
100
AcDbEntity
  8
LC-001-100-D00-0
 62
     7
370
    15
100
AcDbLine
 10
212.341975
 20
284.256382
 30
0.0
 11
211.990877
 21
284.439149
 31
0.0
  0
LINE
  5
166
330
161
100
AcDbEntity
  8
LC-001-100-D00-0
 62
     7
370
    15
100
AcDbLine
 10
211.990877
 20
284.439149
 30
0.0
 11
211.44307
 21
284.72432
 31
0.0
  0
ENDBLK
  5
163
330
161
100
AcDbEntity
  8
0
100
AcDbBlockEnd
  0
BLOCK
  5
169
330
168
100
AcDbEntity
  8
0
100
AcDbBlockBegin
  2
KLON15
 70
     0
 71
     0
 10
0.0
 20
0.0
 30
0.0
  3
KLON15
  1

  4
KLON15
  0
LINE
  5
16B
330
168
100
AcDbEntity
  8
LC-001-100-D00-0
 62
     7
370
    15
100
AcDbLine
 10
206.19307
 20
273.573613
 30
0.0
 11
206.544164
 21
273.390843
 31
0.0
  0
LINE
  5
16C
330
168
100
AcDbEntity
  8
LC-001-100-D00-0
 62
     7
370
    15
100
AcDbLine
 10
206.544164
 20
273.390843
 30
0.0
 11
206.895257
 21
273.208077
 31
0.0
  0
LINE
  5
16D
330
168
100
AcDbEntity
  8
LC-001-100-D00-0
 62
     7
370
    15
100
AcDbLine
 10
206.895257
 20
273.208077
 30
0.0
 11
207.443069
 21
272.922902
 31
0.0
  0
ENDBLK
  5
16A
330
168
100
AcDbEntity
  8
0
100
AcDbBlockEnd
  0
BLOCK
  5
170
330
16F
100
AcDbEntity
  8
0
100
AcDbBlockBegin
  2
KLON16
 70
     0
 71
     0
 10
0.0
 20
0.0
 30
0.0
  3
KLON16
  1

  4
KLON16
  0
LINE
  5
172
330
16F
100
AcDbEntity
  8
LC-001-100-D00-0
 62
     7
370
    15
100
AcDbLine
 10
211.44307
 20
271.422903
 30
0.0
 11
211.794163
 21
271.605673
 31
0.0
  0
LINE
  5
173
330
16F
100
AcDbEntity
  8
LC-001-100-D00-0
 62
     7
370
    15
100
AcDbLine
 10
211.794163
 20
271.605673
 30
0.0
 11
212.145261
 21
271.788439
 31
0.0
  0
LINE
  5
174
330
16F
100
AcDbEntity
  8
LC-001-100-D00-0
 62
     7
370
    15
100
AcDbLine
 10
212.145261
 20
271.788439
 30
0.0
 11
212.693068
 21
272.073614
 31
0.0
  0
ENDBLK
  5
171
330
16F
100
AcDbEntity
  8
0
100
AcDbBlockEnd
  0
BLOCK
  5
177
330
176
100
AcDbEntity
  8
0
100
AcDbBlockBegin
  2
KLON17
 70
     0
 71
     0
 10
0.0
 20
0.0
 30
0.0
  3
KLON17
  1

  4
KLON17
  0
LINE
  5
179
330
176
100
AcDbEntity
  8
LC-001-100-D00-0
 62
     7
370
    15
100
AcDbLine
 10
206.19307
 20
285.573611
 30
0.0
 11
206.544164
 21
285.390845
 31
0.0
  0
LINE
  5
17A
330
176
100
AcDbEntity
  8
LC-001-100-D00-0
 62
     7
370
    15
100
AcDbLine
 10
206.544164
 20
285.390845
 30
0.0
 11
206.895257
 21
285.208075
 31
0.0
  0
LINE
  5
17B
330
176
100
AcDbEntity
  8
LC-001-100-D00-0
 62
     7
370
    15
100
AcDbLine
 10
206.895257
 20
285.208075
 30
0.0
 11
207.443069
 21
284.922904
 31
0.0
  0
ENDBLK
  5
178
330
176
100
AcDbEntity
  8
0
100
AcDbBlockEnd
  0
BLOCK
  5
17E
330
17D
100
AcDbEntity
  8
0
100
AcDbBlockBegin
  2
KLON18
 70
     0
 71
     0
 10
0.0
 20
0.0
 30
0.0
  3
KLON18
  1

  4
KLON18
  0
LINE
  5
180
330
17D
100
AcDbEntity
  8
LC-001-100-D00-0
 62
     7
370
    15
100
AcDbLine
 10
211.44307
 20
283.422905
 30
0.0
 11
211.794163
 21
283.605671
 31
0.0
  0
LINE
  5
181
330
17D
100
AcDbEntity
  8
LC-001-100-D00-0
 62
     7
370
    15
100
AcDbLine
 10
211.794163
 20
283.605671
 30
0.0
 11
212.145261
 21
283.788441
 31
0.0
  0
LINE
  5
182
330
17D
100
AcDbEntity
  8
LC-001-100-D00-0
 62
     7
370
    15
100
AcDbLine
 10
212.145261
 20
283.788441
 30
0.0
 11
212.693068
 21
284.073612
 31
0.0
  0
ENDBLK
  5
17F
330
17D
100
AcDbEntity
  8
0
100
AcDbBlockEnd
  0
BLOCK
  5
185
330
184
100
AcDbEntity
  8
0
100
AcDbBlockBegin
  2
KLON19
 70
     0
 71
     0
 10
0.0
 20
0.0
 30
0.0
  3
KLON19
  1

  4
KLON19
  0
LINE
  5
187
330
184
100
AcDbEntity
  8
LC-001-100-D00-0
 62
     7
370
    15
100
AcDbLine
 10
207.443069
 20
277.224319
 30
0.0
 11
207.091975
 21
277.041553
 31
0.0
  0
LINE
  5
188
330
184
100
AcDbEntity
  8
LC-001-100-D00-0
 62
     7
370
    15
100
AcDbLine
 10
207.091975
 20
277.041553
 30
0.0
 11
206.740881
 21
276.858783
 31
0.0
  0
LINE
  5
189
330
184
100
AcDbEntity
  8
LC-001-100-D00-0
 62
     7
370
    15
100
AcDbLine
 10
206.740881
 20
276.858783
 30
0.0
 11
206.19307
 21
276.573612
 31
0.0
  0
ENDBLK
  5
186
330
184
100
AcDbEntity
  8
0
100
AcDbBlockEnd
  0
BLOCK
  5
18C
330
18B
100
AcDbEntity
  8
0
100
AcDbBlockBegin
  2
KLON20
 70
     0
 71
     0
 10
0.0
 20
0.0
 30
0.0
  3
KLON20
  1

  4
KLON20
  0
LINE
  5
18E
330
18B
100
AcDbEntity
  8
LC-001-100-D00-0
 62
     7
370
    15
100
AcDbLine
 10
212.693068
 20
275.073613
 30
0.0
 11
212.341975
 21
275.256379
 31
0.0
  0
LINE
  5
18F
330
18B
100
AcDbEntity
  8
LC-001-100-D00-0
 62
     7
370
    15
100
AcDbLine
 10
212.341975
 20
275.256379
 30
0.0
 11
211.990877
 21
275.439149
 31
0.0
  0
LINE
  5
190
330
18B
100
AcDbEntity
  8
LC-001-100-D00-0
 62
     7
370
    15
100
AcDbLine
 10
211.990877
 20
275.439149
 30
0.0
 11
211.44307
 21
275.72432
 31
0.0
  0
ENDBLK
  5
18D
330
18B
100
AcDbEntity
  8
0
100
AcDbBlockEnd
  0
BLOCK
  5
1B5
330
1B4
100
AcDbEntity
  8
0
100
AcDbBlockBegin
  2
POLY17
 70
     0
 71
     0
 10
0.0
 20
0.0
 30
0.0
  3
POLY17
  1

  4
POLY17
  0
LINE
  5
1B7
330
1B4
100
AcDbEntity
  8
LC-001-100-D00-0
 62
     7
370
    50
100
AcDbLine
 10
212.444211
 20
290.207727
 30
0.0
 11
212.444211
 21
290.207727
 31
0.0
  0
LINE
  5
1B8
330
1B4
100
AcDbEntity
  8
LC-001-100-D00-0
 62
     7
370
    50
100
AcDbLine
 10
212.444211
 20
290.207727
 30
0.0
 11
212.422537
 21
290.216139
 31
0.0
  0
LINE
  5
1B9
330
1B4
100
AcDbEntity
  8
LC-001-100-D00-0
 62
     7
370
    50
100
AcDbLine
 10
212.422537
 20
290.216139
 30
0.0
 11
212.422537
 21
290.216139
 31
0.0
  0
LINE
  5
1BA
330
1B4
100
AcDbEntity
  8
LC-001-100-D00-0
 62
     7
370
    50
100
AcDbLine
 10
212.422537
 20
290.216139
 30
0.0
 11
212.393147
 21
290.227546
 31
0.0
  0
LINE
  5
1BB
330
1B4
100
AcDbEntity
  8
LC-001-100-D00-0
 62
     7
370
    50
100
AcDbLine
 10
212.393147
 20
290.227546
 30
0.0
 11
212.393147
 21
290.227546
 31
0.0
  0
LINE
  5
1BC
330
1B4
100
AcDbEntity
  8
LC-001-100-D00-0
 62
     7
370
    50
100
AcDbLine
 10
212.393147
 20
290.227546
 30
0.0
 11
212.361921
 21
290.228484
 31
0.0
  0
LINE
  5
1BD
330
1B4
100
AcDbEntity
  8
LC-001-100-D00-0
 62
     7
370
    50
100
AcDbLine
 10
212.361921
 20
290.228484
 30
0.0
 11
212.361921
 21
290.228484
 31
0.0
  0
LINE
  5
1BE
330
1B4
100
AcDbEntity
  8
LC-001-100-D00-0
 62
     7
370
    50
100
AcDbLine
 10
212.361921
 20
290.228484
 30
0.0
 11
212.353724
 21
290.22873
 31
0.0
  0
ENDBLK
  5
1B6
330
1B4
100
AcDbEntity
  8
0
100
AcDbBlockEnd
  0
BLOCK
  5
1C2
330
1C1
100
AcDbEntity
  8
0
100
AcDbBlockBegin
  2
POLY18
 70
     0
 71
     0
 10
0.0
 20
0.0
 30
0.0
  3
POLY18
  1

  4
POLY18
  0
LINE
  5
1C4
330
1C1
100
AcDbEntity
  8
LC-001-100-D00-0
 62
     7
370
    50
100
AcDbLine
 10
206.532414
 20
290.22873
 30
0.0
 11
206.532414
 21
290.22873
 31
0.0
  0
LINE
  5
1C5
330
1C1
100
AcDbEntity
  8
LC-001-100-D00-0
 62
     7
370
    50
100
AcDbLine
 10
206.532414
 20
290.22873
 30
0.0
 11
206.509249
 21
290.226741
 31
0.0
  0
LINE
  5
1C6
330
1C1
100
AcDbEntity
  8
LC-001-100-D00-0
 62
     7
370
    50
100
AcDbLine
 10
206.509249
 20
290.226741
 30
0.0
 11
206.509249
 21
290.226741
 31
0.0
  0
LINE
  5
1C7
330
1C1
100
AcDbEntity
  8
LC-001-100-D00-0
 62
     7
370
    50
100
AcDbLine
 10
206.509249
 20
290.226741
 30
0.0
 11
206.477837
 21
290.224044
 31
0.0
  0
LINE
  5
1C8
330
1C1
100
AcDbEntity
  8
LC-001-100-D00-0
 62
     7
370
    50
100
AcDbLine
 10
206.477837
 20
290.224044
 30
0.0
 11
206.477837
 21
290.224044
 31
0.0
  0
LINE
  5
1C9
330
1C1
100
AcDbEntity
  8
LC-001-100-D00-0
 62
     7
370
    50
100
AcDbLine
 10
206.477837
 20
290.224044
 30
0.0
 11
206.449394
 21
290.21112
 31
0.0
  0
LINE
  5
1CA
330
1C1
100
AcDbEntity
  8
LC-001-100-D00-0
 62
     7
370
    50
100
AcDbLine
 10
206.449394
 20
290.21112
 30
0.0
 11
206.449394
 21
290.21112
 31
0.0
  0
LINE
  5
1CB
330
1C1
100
AcDbEntity
  8
LC-001-100-D00-0
 62
     7
370
    50
100
AcDbLine
 10
206.449394
 20
290.21112
 30
0.0
 11
206.441927
 21
290.207727
 31
0.0
  0
ENDBLK
  5
1C3
330
1C1
100
AcDbEntity
  8
0
100
AcDbBlockEnd
  0
BLOCK
  5
1E4
330
1E3
100
AcDbEntity
  8
0
100
AcDbBlockBegin
  2
POLY19
 70
     0
 71
     0
 10
0.0
 20
0.0
 30
0.0
  3
POLY19
  1

  4
POLY19
  0
LINE
  5
1E6
330
1E3
100
AcDbEntity
  8
LC-001-100-D00-0
 62
     7
370
    50
100
AcDbLine
 10
322.932947
 20
285.934264
 30
0.0
 11
322.932947
 21
285.934264
 31
0.0
  0
LINE
  5
1E7
330
1E3
100
AcDbEntity
  8
LC-001-100-D00-0
 62
     7
370
    50
100
AcDbLine
 10
322.932947
 20
285.934264
 30
0.0
 11
323.057963
 21
285.825007
 31
0.0
  0
LINE
  5
1E8
330
1E3
100
AcDbEntity
  8
LC-001-100-D00-0
 62
     7
370
    50
100
AcDbLine
 10
323.057963
 20
285.825007
 30
0.0
 11
323.057963
 21
285.825007
 31
0.0
  0
LINE
  5
1E9
330
1E3
100
AcDbEntity
  8
LC-001-100-D00-0
 62
     7
370
    50
100
AcDbLine
 10
323.057963
 20
285.825007
 30
0.0
 11
323.312103
 21
285.602904
 31
0.0
  0
LINE
  5
1EA
330
1E3
100
AcDbEntity
  8
LC-001-100-D00-0
 62
     7
370
    50
100
AcDbLine
 10
323.312103
 20
285.602904
 30
0.0
 11
323.312103
 21
285.602904
 31
0.0
  0
LINE
  5
1EB
330
1E3
100
AcDbEntity
  8
LC-001-100-D00-0
 62
     7
370
    50
100
AcDbLine
 10
323.312103
 20
285.602904
 30
0.0
 11
323.453358
 21
285.354792
 31
0.0
  0
LINE
  5
1EC
330
1E3
100
AcDbEntity
  8
LC-001-100-D00-0
 62
     7
370
    50
100
AcDbLine
 10
323.453358
 20
285.354792
 30
0.0
 11
323.453358
 21
285.354792
 31
0.0
  0
LINE
  5
1ED
330
1E3
100
AcDbEntity
  8
LC-001-100-D00-0
 62
     7
370
    50
100
AcDbLine
 10
323.453358
 20
285.354792
 30
0.0
 11
323.525126
 21
285.228732
 31
0.0
  0
ENDBLK
  5
1E5
330
1E3
100
AcDbEntity
  8
0
100
AcDbBlockEnd
  0
BLOCK
  5
1F1
330
1F0
100
AcDbEntity
  8
0
100
AcDbBlockBegin
  2
POLY20
 70
     0
 71
     0
 10
0.0
 20
0.0
 30
0.0
  3
POLY20
  1

  4
POLY20
  0
LINE
  5
1F3
330
1F0
100
AcDbEntity
  8
LC-001-100-D00-0
 62
     7
370
    50
100
AcDbLine
 10
203.387442
 20
284.22873
 30
0.0
 11
203.387442
 21
284.22873
 31
0.0
  0
LINE
  5
1F4
330
1F0
100
AcDbEntity
  8
LC-001-100-D00-0
 62
     7
370
    50
100
AcDbLine
 10
203.387442
 20
284.22873
 30
0.0
 11
203.386379
 21
284.235153
 31
0.0
  0
LINE
  5
1F5
330
1F0
100
AcDbEntity
  8
LC-001-100-D00-0
 62
     7
370
    50
100
AcDbLine
 10
203.386379
 20
284.235153
 30
0.0
 11
203.386379
 21
284.235153
 31
0.0
  0
LINE
  5
1F6
330
1F0
100
AcDbEntity
  8
LC-001-100-D00-0
 62
     7
370
    50
100
AcDbLine
 10
203.386379
 20
284.235153
 30
0.0
 11
203.384256
 21
284.247982
 31
0.0
  0
LINE
  5
1F7
330
1F0
100
AcDbEntity
  8
LC-001-100-D00-0
 62
     7
370
    50
100
AcDbLine
 10
203.384256
 20
284.247982
 30
0.0
 11
203.384256
 21
284.247982
 31
0.0
  0
LINE
  5
1F8
330
1F0
100
AcDbEntity
  8
LC-001-100-D00-0
 62
     7
370
    50
100
AcDbLine
 10
203.384256
 20
284.247982
 30
0.0
 11
203.469515
 21
284.354569
 31
0.0
  0
LINE
  5
1F9
330
1F0
100
AcDbEntity
  8
LC-001-100-D00-0
 62
     7
370
    50
100
AcDbLine
 10
203.469515
 20
284.354569
 30
0.0
 11
203.469515
 21
284.354569
 31
0.0
  0
LINE
  5
1FA
330
1F0
100
AcDbEntity
  8
LC-001-100-D00-0
 62
     7
370
    50
100
AcDbLine
 10
203.469515
 20
284.354569
 30
0.0
 11
203.640166
 21
284.545242
 31
0.0
  0
LINE
  5
1FB
330
1F0
100
AcDbEntity
  8
LC-001-100-D00-0
 62
     7
370
    50
100
AcDbLine
 10
203.640166
 20
284.545242
 30
0.0
 11
203.640166
 21
284.545242
 31
0.0
  0
LINE
  5
1FC
330
1F0
100
AcDbEntity
  8
LC-001-100-D00-0
 62
     7
370
    50
100
AcDbLine
 10
203.640166
 20
284.545242
 30
0.0
 11
203.928726
 21
284.84992
 31
0.0
  0
LINE
  5
1FD
330
1F0
100
AcDbEntity
  8
LC-001-100-D00-0
 62
     7
370
    50
100
AcDbLine
 10
203.928726
 20
284.84992
 30
0.0
 11
203.928726
 21
284.84992
 31
0.0
  0
LINE
  5
1FE
330
1F0
100
AcDbEntity
  8
LC-001-100-D00-0
 62
     7
370
    50
100
AcDbLine
 10
203.928726
 20
284.84992
 30
0.0
 11
204.170839
 21
285.094481
 31
0.0
  0
LINE
  5
1FF
330
1F0
100
AcDbEntity
  8
LC-001-100-D00-0
 62
     7
370
    50
100
AcDbLine
 10
204.170839
 20
285.094481
 30
0.0
 11
204.170839
 21
285.094481
 31
0.0
  0
LINE
  5
200
330
1F0
100
AcDbEntity
  8
LC-001-100-D00-0
 62
     7
370
    50
100
AcDbLine
 10
204.170839
 20
285.094481
 30
0.0
 11
204.303744
 21
285.228732
 31
0.0
  0
ENDBLK
  5
1F2
330
1F0
100
AcDbEntity
  8
0
100
AcDbBlockEnd
  0
BLOCK
  5
238
330
237
100
AcDbEntity
  8
0
100
AcDbBlockBegin
  2
POLY21
 70
     0
 71
     0
 10
0.0
 20
0.0
 30
0.0
  3
POLY21
  1

  4
POLY21
  0
LINE
  5
23A
330
237
100
AcDbEntity
  8
LC-001-100-D00-0
 62
     7
370
    50
100
AcDbLine
 10
340.94851
 20
285.228732
 30
0.0
 11
340.94851
 21
285.228732
 31
0.0
  0
LINE
  5
23B
330
237
100
AcDbEntity
  8
LC-001-100-D00-0
 62
     7
370
    50
100
AcDbLine
 10
340.94851
 20
285.228732
 30
0.0
 11
340.996249
 21
285.228732
 31
0.0
  0
LINE
  5
23C
330
237
100
AcDbEntity
  8
LC-001-100-D00-0
 62
     7
370
    50
100
AcDbLine
 10
340.996249
 20
285.228732
 30
0.0
 11
340.996249
 21
285.228732
 31
0.0
  0
LINE
  5
23D
330
237
100
AcDbEntity
  8
LC-001-100-D00-0
 62
     7
370
    50
100
AcDbLine
 10
340.996249
 20
285.228732
 30
0.0
 11
341.081495
 21
285.228732
 31
0.0
  0
LINE
  5
23E
330
237
100
AcDbEntity
  8
LC-001-100-D00-0
 62
     7
370
    50
100
AcDbLine
 10
341.081495
 20
285.228732
 30
0.0
 11
341.081495
 21
285.228732
 31
0.0
  0
LINE
  5
23F
330
237
100
AcDbEntity
  8
LC-001-100-D00-0
 62
     7
370
    50
100
AcDbLine
 10
341.081495
 20
285.228732
 30
0.0
 11
341.169852
 21
285.228732
 31
0.0
  0
LINE
  5
240
330
237
100
AcDbEntity
  8
LC-001-100-D00-0
 62
     7
370
    50
100
AcDbLine
 10
341.169852
 20
285.228732
 30
0.0
 11
341.169852
 21
285.228732
 31
0.0
  0
LINE
  5
241
330
237
100
AcDbEntity
  8
LC-001-100-D00-0
 62
     7
370
    50
100
AcDbLine
 10
341.169852
 20
285.228732
 30
0.0
 11
341.208729
 21
285.228732
 31
0.0
  0
ENDBLK
  5
239
330
237
100
AcDbEntity
  8
0
100
AcDbBlockEnd
  0
BLOCK
  5
247
330
246
100
AcDbEntity
  8
0
100
AcDbBlockBegin
  2
POLY22
 70
     0
 71
     0
 10
0.0
 20
0.0
 30
0.0
  3
POLY22
  1

  4
POLY22
  0
LINE
  5
249
330
246
100
AcDbEntity
  8
LC-001-100-D00-0
 62
     7
370
    50
100
AcDbLine
 10
339.659232
 20
285.228732
 30
0.0
 11
339.659232
 21
285.228732
 31
0.0
  0
LINE
  5
24A
330
246
100
AcDbEntity
  8
LC-001-100-D00-0
 62
     7
370
    50
100
AcDbLine
 10
339.659232
 20
285.228732
 30
0.0
 11
339.716138
 21
285.228732
 31
0.0
  0
LINE
  5
24B
330
246
100
AcDbEntity
  8
LC-001-100-D00-0
 62
     7
370
    50
100
AcDbLine
 10
339.716138
 20
285.228732
 30
0.0
 11
339.716138
 21
285.228732
 31
0.0
  0
LINE
  5
24C
330
246
100
AcDbEntity
  8
LC-001-100-D00-0
 62
     7
370
    50
100
AcDbLine
 10
339.716138
 20
285.228732
 30
0.0
 11
339.817769
 21
285.228732
 31
0.0
  0
LINE
  5
24D
330
246
100
AcDbEntity
  8
LC-001-100-D00-0
 62
     7
370
    50
100
AcDbLine
 10
339.817769
 20
285.228732
 30
0.0
 11
339.817769
 21
285.228732
 31
0.0
  0
LINE
  5
24E
330
246
100
AcDbEntity
  8
LC-001-100-D00-0
 62
     7
370
    50
100
AcDbLine
 10
339.817769
 20
285.228732
 30
0.0
 11
339.914117
 21
285.228732
 31
0.0
  0
LINE
  5
24F
330
246
100
AcDbEntity
  8
LC-001-100-D00-0
 62
     7
370
    50
100
AcDbLine
 10
339.914117
 20
285.228732
 30
0.0
 11
339.914117
 21
285.228732
 31
0.0
  0
LINE
  5
250
330
246
100
AcDbEntity
  8
LC-001-100-D00-0
 62
     7
370
    50
100
AcDbLine
 10
339.914117
 20
285.228732
 30
0.0
 11
339.956517
 21
285.228732
 31
0.0
  0
ENDBLK
  5
248
330
246
100
AcDbEntity
  8
0
100
AcDbBlockEnd
  0
BLOCK
  5
261
330
260
100
AcDbEntity
  8
0
100
AcDbBlockBegin
  2
POLY23
 70
     0
 71
     0
 10
0.0
 20
0.0
 30
0.0
  3
POLY23
  1

  4
POLY23
  0
LINE
  5
263
330
260
100
AcDbEntity
  8
LC-001-100-D00-0
 62
     7
370
    50
100
AcDbLine
 10
322.932947
 20
285.934264
 30
0.0
 11
322.932947
 21
285.934264
 31
0.0
  0
LINE
  5
264
330
260
100
AcDbEntity
  8
LC-001-100-D00-0
 62
     7
370
    50
100
AcDbLine
 10
322.932947
 20
285.934264
 30
0.0
 11
322.788248
 21
286.019442
 31
0.0
  0
LINE
  5
265
330
260
100
AcDbEntity
  8
LC-001-100-D00-0
 62
     7
370
    50
100
AcDbLine
 10
322.788248
 20
286.019442
 30
0.0
 11
322.788248
 21
286.019442
 31
0.0
  0
LINE
  5
266
330
260
100
AcDbEntity
  8
LC-001-100-D00-0
 62
     7
370
    50
100
AcDbLine
 10
322.788248
 20
286.019442
 30
0.0
 11
322.499685
 21
286.189305
 31
0.0
  0
LINE
  5
267
330
260
100
AcDbEntity
  8
LC-001-100-D00-0
 62
     7
370
    50
100
AcDbLine
 10
322.499685
 20
286.189305
 30
0.0
 11
322.499685
 21
286.189305
 31
0.0
  0
LINE
  5
268
330
260
100
AcDbEntity
  8
LC-001-100-D00-0
 62
     7
370
    50
100
AcDbLine
 10
322.499685
 20
286.189305
 30
0.0
 11
322.160833
 21
286.228506
 31
0.0
  0
LINE
  5
269
330
260
100
AcDbEntity
  8
LC-001-100-D00-0
 62
     7
370
    50
100
AcDbLine
 10
322.160833
 20
286.228506
 30
0.0
 11
322.160833
 21
286.228506
 31
0.0
  0
LINE
  5
26A
330
260
100
AcDbEntity
  8
LC-001-100-D00-0
 62
     7
370
    50
100
AcDbLine
 10
322.160833
 20
286.228506
 30
0.0
 11
321.994437
 21
286.228727
 31
0.0
  0
LINE
  5
26B
330
260
100
AcDbEntity
  8
LC-001-100-D00-0
 62
     7
370
    50
100
AcDbLine
 10
321.994437
 20
286.228727
 30
0.0
 11
321.994437
 21
286.228727
 31
0.0
  0
LINE
  5
26C
330
260
100
AcDbEntity
  8
LC-001-100-D00-0
 62
     7
370
    50
100
AcDbLine
 10
321.994437
 20
286.228727
 30
0.0
 11
321.992378
 21
286.22873
 31
0.0
  0
ENDBLK
  5
262
330
260
100
AcDbEntity
  8
0
100
AcDbBlockEnd
  0
BLOCK
  5
291
330
290
100
AcDbEntity
  8
0
100
AcDbBlockBegin
  2
POLY24
 70
     0
 71
     0
 10
0.0
 20
0.0
 30
0.0
  3
POLY24
  1

  4
POLY24
  0
LINE
  5
293
330
290
100
AcDbEntity
  8
LC-001-100-D00-0
 62
     7
370
    50
100
AcDbLine
 10
259.658102
 20
259.593058
 30
0.0
 11
259.658102
 21
259.593058
 31
0.0
  0
LINE
  5
294
330
290
100
AcDbEntity
  8
LC-001-100-D00-0
 62
     7
370
    50
100
AcDbLine
 10
259.658102
 20
259.593058
 30
0.0
 11
259.705004
 21
260.717161
 31
0.0
  0
LINE
  5
295
330
290
100
AcDbEntity
  8
LC-001-100-D00-0
 62
     7
370
    50
100
AcDbLine
 10
259.705004
 20
260.717161
 30
0.0
 11
259.705004
 21
260.717161
 31
0.0
  0
LINE
  5
296
330
290
100
AcDbEntity
  8
LC-001-100-D00-0
 62
     7
370
    50
100
AcDbLine
 10
259.705004
 20
260.717161
 30
0.0
 11
259.798808
 21
262.965359
 31
0.0
  0
LINE
  5
297
330
290
100
AcDbEntity
  8
LC-001-100-D00-0
 62
     7
370
    50
100
AcDbLine
 10
259.798808
 20
262.965359
 30
0.0
 11
259.798808
 21
262.965359
 31
0.0
  0
LINE
  5
298
330
290
100
AcDbEntity
  8
LC-001-100-D00-0
 62
     7
370
    50
100
AcDbLine
 10
259.798808
 20
262.965359
 30
0.0
 11
260.638547
 21
265.961577
 31
0.0
  0
LINE
  5
299
330
290
100
AcDbEntity
  8
LC-001-100-D00-0
 62
     7
370
    50
100
AcDbLine
 10
260.638547
 20
265.961577
 30
0.0
 11
260.638547
 21
265.961577
 31
0.0
  0
LINE
  5
29A
330
290
100
AcDbEntity
  8
LC-001-100-D00-0
 62
     7
370
    50
100
AcDbLine
 10
260.638547
 20
265.961577
 30
0.0
 11
261.890559
 21
268.223091
 31
0.0
  0
LINE
  5
29B
330
290
100
AcDbEntity
  8
LC-001-100-D00-0
 62
     7
370
    50
100
AcDbLine
 10
261.890559
 20
268.223091
 30
0.0
 11
261.890559
 21
268.223091
 31
0.0
  0
LINE
  5
29C
330
290
100
AcDbEntity
  8
LC-001-100-D00-0
 62
     7
370
    50
100
AcDbLine
 10
261.890559
 20
268.223091
 30
0.0
 11
263.288237
 21
269.422106
 31
0.0
  0
LINE
  5
29D
330
290
100
AcDbEntity
  8
LC-001-100-D00-0
 62
     7
370
    50
100
AcDbLine
 10
263.288237
 20
269.422106
 30
0.0
 11
263.288237
 21
269.422106
 31
0.0
  0
LINE
  5
29E
330
290
100
AcDbEntity
  8
LC-001-100-D00-0
 62
     7
370
    50
100
AcDbLine
 10
263.288237
 20
269.422106
 30
0.0
 11
264.217142
 21
269.544471
 31
0.0
  0
LINE
  5
29F
330
290
100
AcDbEntity
  8
LC-001-100-D00-0
 62
     7
370
    50
100
AcDbLine
 10
264.217142
 20
269.544471
 30
0.0
 11
264.217142
 21
269.544471
 31
0.0
  0
LINE
  5
2A0
330
290
100
AcDbEntity
  8
LC-001-100-D00-0
 62
     7
370
    50
100
AcDbLine
 10
264.217142
 20
269.544471
 30
0.0
 11
264.585976
 21
269.593057
 31
0.0
  0
ENDBLK
  5
292
330
290
100
AcDbEntity
  8
0
100
AcDbBlockEnd
  0
BLOCK
  5
319
330
318
100
AcDbEntity
  8
0
100
AcDbBlockBegin
  2
POLY25
 70
     0
 71
     0
 10
0.0
 20
0.0
 30
0.0
  3
POLY25
  1

  4
POLY25
  0
LINE
  5
31B
330
318
100
AcDbEntity
  8
LC-001-100-D00-0
 62
     7
370
    50
100
AcDbLine
 10
344.71162
 20
277.858124
 30
0.0
 11
344.71162
 21
277.858124
 31
0.0
  0
LINE
  5
31C
330
318
100
AcDbEntity
  8
LC-001-100-D00-0
 62
     7
370
    50
100
AcDbLine
 10
344.71162
 20
277.858124
 30
0.0
 11
344.631936
 21
278.006321
 31
0.0
  0
LINE
  5
31D
330
318
100
AcDbEntity
  8
LC-001-100-D00-0
 62
     7
370
    50
100
AcDbLine
 10
344.631936
 20
278.006321
 30
0.0
 11
344.631936
 21
278.006321
 31
0.0
  0
LINE
  5
31E
330
318
100
AcDbEntity
  8
LC-001-100-D00-0
 62
     7
370
    50
100
AcDbLine
 10
344.631936
 20
278.006321
 30
0.0
 11
344.482288
 21
278.284639
 31
0.0
  0
LINE
  5
31F
330
318
100
AcDbEntity
  8
LC-001-100-D00-0
 62
     7
370
    50
100
AcDbLine
 10
344.482288
 20
278.284639
 30
0.0
 11
344.482288
 21
278.284639
 31
0.0
  0
LINE
  5
320
330
318
100
AcDbEntity
  8
LC-001-100-D00-0
 62
     7
370
    50
100
AcDbLine
 10
344.482288
 20
278.284639
 30
0.0
 11
344.455565
 21
278.334587
 31
0.0
  0
LINE
  5
321
330
318
100
AcDbEntity
  8
LC-001-100-D00-0
 62
     7
370
    50
100
AcDbLine
 10
344.455565
 20
278.334587
 30
0.0
 11
344.455565
 21
278.334587
 31
0.0
  0
LINE
  5
322
330
318
100
AcDbEntity
  8
LC-001-100-D00-0
 62
     7
370
    50
100
AcDbLine
 10
344.455565
 20
278.334587
 30
0.0
 11
344.443071
 21
278.357939
 31
0.0
  0
ENDBLK
  5
31A
330
318
100
AcDbEntity
  8
0
100
AcDbBlockEnd
  0
BLOCK
  5
329
330
328
100
AcDbEntity
  8
0
100
AcDbBlockBegin
  2
POLY26
 70
     0
 71
     0
 10
0.0
 20
0.0
 30
0.0
  3
POLY26
  1

  4
POLY26
  0
LINE
  5
32B
330
328
100
AcDbEntity
  8
LC-001-100-D00-0
 62
     7
370
    50
100
AcDbLine
 10
354.443069
 20
278.358125
 30
0.0
 11
354.443069
 21
278.358125
 31
0.0
  0
LINE
  5
32C
330
328
100
AcDbEntity
  8
LC-001-100-D00-0
 62
     7
370
    50
100
AcDbLine
 10
354.443069
 20
278.358125
 30
0.0
 11
354.442658
 21
278.35746
 31
0.0
  0
LINE
  5
32D
330
328
100
AcDbEntity
  8
LC-001-100-D00-0
 62
     7
370
    50
100
AcDbLine
 10
354.442658
 20
278.35746
 30
0.0
 11
354.442658
 21
278.35746
 31
0.0
  0
LINE
  5
32E
330
328
100
AcDbEntity
  8
LC-001-100-D00-0
 62
     7
370
    50
100
AcDbLine
 10
354.442658
 20
278.35746
 30
0.0
 11
354.439522
 21
278.35239
 31
0.0
  0
LINE
  5
32F
330
328
100
AcDbEntity
  8
LC-001-100-D00-0
 62
     7
370
    50
100
AcDbLine
 10
354.439522
 20
278.35239
 30
0.0
 11
354.439522
 21
278.35239
 31
0.0
  0
LINE
  5
330
330
328
100
AcDbEntity
  8
LC-001-100-D00-0
 62
     7
370
    50
100
AcDbLine
 10
354.439522
 20
278.35239
 30
0.0
 11
354.366429
 21
278.234345
 31
0.0
  0
LINE
  5
331
330
328
100
AcDbEntity
  8
LC-001-100-D00-0
 62
     7
370
    50
100
AcDbLine
 10
354.366429
 20
278.234345
 30
0.0
 11
354.366429
 21
278.234345
 31
0.0
  0
LINE
  5
332
330
328
100
AcDbEntity
  8
LC-001-100-D00-0
 62
     7
370
    50
100
AcDbLine
 10
354.366429
 20
278.234345
 30
0.0
 11
354.208314
 21
277.978006
 31
0.0
  0
LINE
  5
333
330
328
100
AcDbEntity
  8
LC-001-100-D00-0
 62
     7
370
    50
100
AcDbLine
 10
354.208314
 20
277.978006
 30
0.0
 11
354.208314
 21
277.978006
 31
0.0
  0
LINE
  5
334
330
328
100
AcDbEntity
  8
LC-001-100-D00-0
 62
     7
370
    50
100
AcDbLine
 10
354.208314
 20
277.978006
 30
0.0
 11
354.134369
 21
277.858124
 31
0.0
  0
ENDBLK
  5
32A
330
328
100
AcDbEntity
  8
0
100
AcDbBlockEnd
  0
BLOCK
  5
34F
330
34E
100
AcDbEntity
  8
0
100
AcDbBlockBegin
  2
POLY27
 70
     0
 71
     0
 10
0.0
 20
0.0
 30
0.0
  3
POLY27
  1

  4
POLY27
  0
LINE
  5
351
330
34E
100
AcDbEntity
  8
LC-001-100-D00-0
 62
     7
370
    50
100
AcDbLine
 10
317.353725
 20
290.22873
 30
0.0
 11
317.353725
 21
290.22873
 31
0.0
  0
LINE
  5
352
330
34E
100
AcDbEntity
  8
LC-001-100-D00-0
 62
     7
370
    50
100
AcDbLine
 10
317.353725
 20
290.22873
 30
0.0
 11
317.37689
 21
290.226741
 31
0.0
  0
LINE
  5
353
330
34E
100
AcDbEntity
  8
LC-001-100-D00-0
 62
     7
370
    50
100
AcDbLine
 10
317.37689
 20
290.226741
 30
0.0
 11
317.37689
 21
290.226741
 31
0.0
  0
LINE
  5
354
330
34E
100
AcDbEntity
  8
LC-001-100-D00-0
 62
     7
370
    50
100
AcDbLine
 10
317.37689
 20
290.226741
 30
0.0
 11
317.408302
 21
290.224044
 31
0.0
  0
LINE
  5
355
330
34E
100
AcDbEntity
  8
LC-001-100-D00-0
 62
     7
370
    50
100
AcDbLine
 10
317.408302
 20
290.224044
 30
0.0
 11
317.408302
 21
290.224044
 31
0.0
  0
LINE
  5
356
330
34E
100
AcDbEntity
  8
LC-001-100-D00-0
 62
     7
370
    50
100
AcDbLine
 10
317.408302
 20
290.224044
 30
0.0
 11
317.436745
 21
290.21112
 31
0.0
  0
LINE
  5
357
330
34E
100
AcDbEntity
  8
LC-001-100-D00-0
 62
     7
370
    50
100
AcDbLine
 10
317.436745
 20
290.21112
 30
0.0
 11
317.436745
 21
290.21112
 31
0.0
  0
LINE
  5
358
330
34E
100
AcDbEntity
  8
LC-001-100-D00-0
 62
     7
370
    50
100
AcDbLine
 10
317.436745
 20
290.21112
 30
0.0
 11
317.444212
 21
290.207727
 31
0.0
  0
ENDBLK
  5
350
330
34E
100
AcDbEntity
  8
0
100
AcDbBlockEnd
  0
BLOCK
  5
35B
330
35A
100
AcDbEntity
  8
0
100
AcDbBlockBegin
  2
POLY28
 70
     0
 71
     0
 10
0.0
 20
0.0
 30
0.0
  3
POLY28
  1

  4
POLY28
  0
LINE
  5
35D
330
35A
100
AcDbEntity
  8
LC-001-100-D00-0
 62
     7
370
    50
100
AcDbLine
 10
311.441927
 20
290.207727
 30
0.0
 11
311.441927
 21
290.207727
 31
0.0
  0
LINE
  5
35E
330
35A
100
AcDbEntity
  8
LC-001-100-D00-0
 62
     7
370
    50
100
AcDbLine
 10
311.441927
 20
290.207727
 30
0.0
 11
311.463602
 21
290.216139
 31
0.0
  0
LINE
  5
35F
330
35A
100
AcDbEntity
  8
LC-001-100-D00-0
 62
     7
370
    50
100
AcDbLine
 10
311.463602
 20
290.216139
 30
0.0
 11
311.463602
 21
290.216139
 31
0.0
  0
LINE
  5
360
330
35A
100
AcDbEntity
  8
LC-001-100-D00-0
 62
     7
370
    50
100
AcDbLine
 10
311.463602
 20
290.216139
 30
0.0
 11
311.492992
 21
290.227546
 31
0.0
  0
LINE
  5
361
330
35A
100
AcDbEntity
  8
LC-001-100-D00-0
 62
     7
370
    50
100
AcDbLine
 10
311.492992
 20
290.227546
 30
0.0
 11
311.492992
 21
290.227546
 31
0.0
  0
LINE
  5
362
330
35A
100
AcDbEntity
  8
LC-001-100-D00-0
 62
     7
370
    50
100
AcDbLine
 10
311.492992
 20
290.227546
 30
0.0
 11
311.524218
 21
290.228484
 31
0.0
  0
LINE
  5
363
330
35A
100
AcDbEntity
  8
LC-001-100-D00-0
 62
     7
370
    50
100
AcDbLine
 10
311.524218
 20
290.228484
 30
0.0
 11
311.524218
 21
290.228484
 31
0.0
  0
LINE
  5
364
330
35A
100
AcDbEntity
  8
LC-001-100-D00-0
 62
     7
370
    50
100
AcDbLine
 10
311.524218
 20
290.228484
 30
0.0
 11
311.532415
 21
290.22873
 31
0.0
  0
ENDBLK
  5
35C
330
35A
100
AcDbEntity
  8
0
100
AcDbBlockEnd
  0
BLOCK
  5
367
330
366
100
AcDbEntity
  8
0
100
AcDbBlockBegin
  2
KLON21
 70
     0
 71
     0
 10
0.0
 20
0.0
 30
0.0
  3
KLON21
  1

  4
KLON21
  0
LINE
  5
369
330
366
100
AcDbEntity
  8
LC-001-100-D00-0
 62
     7
370
    25
100
AcDbLine
 10
254.569836
 20
136.62002
 30
0.0
 11
257.443069
 21
139.493253
 31
0.0
  0
LINE
  5
36A
330
366
100
AcDbEntity
  8
LC-001-100-D00-0
 62
     7
370
    25
100
AcDbLine
 10
254.443069
 20
145.473509
 30
0.0
 11
257.443069
 21
148.473509
 31
0.0
  0
LINE
  5
36B
330
366
100
AcDbEntity
  8
LC-001-100-D00-0
 62
     7
370
    25
100
AcDbLine
 10
254.443069
 20
154.453766
 30
0.0
 11
257.443069
 21
157.453766
 31
0.0
  0
LINE
  5
36C
330
366
100
AcDbEntity
  8
LC-001-100-D00-0
 62
     7
370
    25
100
AcDbLine
 10
254.443069
 20
163.434022
 30
0.0
 11
257.443069
 21
166.434022
 31
0.0
  0
LINE
  5
36D
330
366
100
AcDbEntity
  8
LC-001-100-D00-0
 62
     7
370
    25
100
AcDbLine
 10
254.443069
 20
172.414278
 30
0.0
 11
257.443069
 21
175.414278
 31
0.0
  0
LINE
  5
36E
330
366
100
AcDbEntity
  8
LC-001-100-D00-0
 62
     7
370
    25
100
AcDbLine
 10
254.443069
 20
181.394534
 30
0.0
 11
257.443069
 21
184.394534
 31
0.0
  0
LINE
  5
36F
330
366
100
AcDbEntity
  8
LC-001-100-D00-0
 62
     7
370
    25
100
AcDbLine
 10
254.443069
 20
190.37479
 30
0.0
 11
257.443069
 21
193.37479
 31
0.0
  0
LINE
  5
370
330
366
100
AcDbEntity
  8
LC-001-100-D00-0
 62
     7
370
    25
100
AcDbLine
 10
246.681144
 20
191.593121
 30
0.0
 11
249.181144
 21
194.093121
 31
0.0
  0
LINE
  5
371
330
366
100
AcDbEntity
  8
LC-001-100-D00-0
 62
     7
370
    25
100
AcDbLine
 10
254.943069
 20
199.855046
 30
0.0
 11
257.443069
 21
202.355046
 31
0.0
  0
LINE
  5
372
330
366
100
AcDbEntity
  8
LC-001-100-D00-0
 62
     7
370
    25
100
AcDbLine
 10
237.700888
 20
191.593121
 30
0.0
 11
240.200888
 21
194.093121
 31
0.0
  0
LINE
  5
373
330
366
100
AcDbEntity
  8
LC-001-100-D00-0
 62
     7
370
    25
100
AcDbLine
 10
254.943069
 20
208.835302
 30
0.0
 11
257.443069
 21
211.335302
 31
0.0
  0
LINE
  5
374
330
366
100
AcDbEntity
  8
LC-001-100-D00-0
 62
     7
370
    25
100
AcDbLine
 10
229.144891
 20
192.01738
 30
0.0
 11
231.583277
 21
194.455766
 31
0.0
  0
LINE
  5
375
330
366
100
AcDbEntity
  8
LC-001-100-D00-0
 62
     7
370
    25
100
AcDbLine
 10
254.943069
 20
217.815558
 30
0.0
 11
257.443069
 21
220.315558
 31
0.0
  0
LINE
  5
376
330
366
100
AcDbEntity
  8
LC-001-100-D00-0
 62
     7
370
    25
100
AcDbLine
 10
226.554972
 20
198.407718
 30
0.0
 11
228.92101
 21
200.773755
 31
0.0
  0
LINE
  5
377
330
366
100
AcDbEntity
  8
LC-001-100-D00-0
 62
     7
370
    25
100
AcDbLine
 10
254.943069
 20
226.795815
 30
0.0
 11
257.443069
 21
229.295815
 31
0.0
  0
LINE
  5
378
330
366
100
AcDbEntity
  8
LC-001-100-D00-0
 62
     7
370
    25
100
AcDbLine
 10
224.65721
 20
205.490211
 30
0.0
 11
227.443069
 21
208.276071
 31
0.0
  0
LINE
  5
379
330
366
100
AcDbEntity
  8
LC-001-100-D00-0
 62
     7
370
    25
100
AcDbLine
 10
254.943069
 20
235.776071
 30
0.0
 11
257.443069
 21
238.276071
 31
0.0
  0
LINE
  5
37A
330
366
100
AcDbEntity
  8
LC-001-100-D00-0
 62
     7
370
    25
100
AcDbLine
 10
224.443069
 20
214.256327
 30
0.0
 11
227.443069
 21
217.256327
 31
0.0
  0
LINE
  5
37B
330
366
100
AcDbEntity
  8
LC-001-100-D00-0
 62
     7
370
    25
100
AcDbLine
 10
254.943069
 20
244.756327
 30
0.0
 11
257.443069
 21
247.256327
 31
0.0
  0
LINE
  5
37C
330
366
100
AcDbEntity
  8
LC-001-100-D00-0
 62
     7
370
    25
100
AcDbLine
 10
224.443069
 20
223.236583
 30
0.0
 11
227.443069
 21
226.236583
 31
0.0
  0
LINE
  5
37D
330
366
100
AcDbEntity
  8
LC-001-100-D00-0
 62
     7
370
    25
100
AcDbLine
 10
254.943069
 20
253.736583
 30
0.0
 11
257.299607
 21
256.093121
 31
0.0
  0
LINE
  5
37E
330
366
100
AcDbEntity
  8
LC-001-100-D00-0
 62
     7
370
    25
100
AcDbLine
 10
224.443069
 20
232.216839
 30
0.0
 11
227.443069
 21
235.216839
 31
0.0
  0
LINE
  5
37F
330
366
100
AcDbEntity
  8
LC-001-100-D00-0
 62
     7
370
    25
100
AcDbLine
 10
224.443069
 20
241.197095
 30
0.0
 11
227.443069
 21
244.197095
 31
0.0
  0
LINE
  5
380
330
366
100
AcDbEntity
  8
LC-001-100-D00-0
 62
     7
370
    25
100
AcDbLine
 10
222.858839
 20
248.593121
 30
0.0
 11
225.858839
 21
251.593121
 31
0.0
  0
LINE
  5
381
330
366
100
AcDbEntity
  8
LC-001-100-D00-0
 62
     7
370
    25
100
AcDbLine
 10
216.470899
 20
251.185437
 30
0.0
 11
219.443069
 21
254.157607
 31
0.0
  0
LINE
  5
382
330
366
100
AcDbEntity
  8
LC-001-100-D00-0
 62
     7
370
    25
100
AcDbLine
 10
216.443069
 20
260.137864
 30
0.0
 11
219.443069
 21
263.137864
 31
0.0
  0
LINE
  5
383
330
366
100
AcDbEntity
  8
LC-001-100-D00-0
 62
     7
370
    25
100
AcDbLine
 10
208.943127
 20
261.618178
 30
0.0
 11
219.443069
 21
272.11812
 31
0.0
  0
LINE
  5
384
330
366
100
AcDbEntity
  8
LC-001-100-D00-0
 62
     7
370
    25
100
AcDbLine
 10
203.443069
 20
265.098376
 30
0.0
 11
206.943069
 21
268.598376
 31
0.0
  0
LINE
  5
385
330
366
100
AcDbEntity
  8
LC-001-100-D00-0
 62
     7
370
    25
100
AcDbLine
 10
211.943069
 20
273.598376
 30
0.0
 11
218.443069
 21
280.098376
 31
0.0
  0
LINE
  5
386
330
366
100
AcDbEntity
  8
LC-001-100-D00-0
 62
     7
370
    25
100
AcDbLine
 10
201.383015
 20
272.018578
 30
0.0
 11
206.943069
 21
277.578632
 31
0.0
  0
LINE
  5
387
330
366
100
AcDbEntity
  8
LC-001-100-D00-0
 62
     7
370
    25
100
AcDbLine
 10
194.315971
 20
273.93179
 30
0.0
 11
196.443069
 21
276.058888
 31
0.0
  0
LINE
  5
388
330
366
100
AcDbEntity
  8
LC-001-100-D00-0
 62
     7
370
    25
100
AcDbLine
 10
187.672194
 20
276.268268
 30
0.0
 11
190.475162
 21
279.071236
 31
0.0
  0
LINE
  5
389
330
366
100
AcDbEntity
  8
LC-001-100-D00-0
 62
     7
370
    25
100
AcDbLine
 10
180.794622
 20
278.370953
 30
0.0
 11
183.59759
 21
281.173921
 31
0.0
  0
LINE
  5
38A
330
366
100
AcDbEntity
  8
LC-001-100-D00-0
 62
     7
370
    25
100
AcDbLine
 10
173.914939
 20
280.471526
 30
0.0
 11
176.720019
 21
283.276606
 31
0.0
  0
LINE
  5
38B
330
366
100
AcDbEntity
  8
LC-001-100-D00-0
 62
     7
370
    25
100
AcDbLine
 10
165.233799
 20
280.770642
 30
0.0
 11
168.67063
 21
284.207473
 31
0.0
  0
ENDBLK
  5
368
330
366
100
AcDbEntity
  8
0
100
AcDbBlockEnd
  0
BLOCK
  5
38E
330
38D
100
AcDbEntity
  8
0
100
AcDbBlockBegin
  2
KLON22
 70
     0
 71
     0
 10
0.0
 20
0.0
 30
0.0
  3
KLON22
  1

  4
KLON22
  0
LINE
  5
390
330
38D
100
AcDbEntity
  8
LC-001-100-D00-0
 62
     7
370
    25
100
AcDbLine
 10
301.443069
 20
138.591973
 30
0.0
 11
304.443069
 21
141.591973
 31
0.0
  0
LINE
  5
391
330
38D
100
AcDbEntity
  8
LC-001-100-D00-0
 62
     7
370
    25
100
AcDbLine
 10
301.443069
 20
147.572229
 30
0.0
 11
304.443069
 21
150.572229
 31
0.0
  0
LINE
  5
392
330
38D
100
AcDbEntity
  8
LC-001-100-D00-0
 62
     7
370
    25
100
AcDbLine
 10
301.443069
 20
156.552485
 30
0.0
 11
304.443069
 21
159.552485
 31
0.0
  0
LINE
  5
393
330
38D
100
AcDbEntity
  8
LC-001-100-D00-0
 62
     7
370
    25
100
AcDbLine
 10
301.443069
 20
165.532741
 30
0.0
 11
304.443069
 21
168.532741
 31
0.0
  0
LINE
  5
394
330
38D
100
AcDbEntity
  8
LC-001-100-D00-0
 62
     7
370
    25
100
AcDbLine
 10
327.503449
 20
191.593121
 30
0.0
 11
331.60391
 21
195.693582
 31
0.0
  0
LINE
  5
395
330
38D
100
AcDbEntity
  8
LC-001-100-D00-0
 62
     7
370
    25
100
AcDbLine
 10
301.443069
 20
174.512997
 30
0.0
 11
304.443069
 21
177.512997
 31
0.0
  0
LINE
  5
396
330
38D
100
AcDbEntity
  8
LC-001-100-D00-0
 62
     7
370
    25
100
AcDbLine
 10
318.523193
 20
191.593121
 30
0.0
 11
321.023193
 21
194.093121
 31
0.0
  0
LINE
  5
397
330
38D
100
AcDbEntity
  8
LC-001-100-D00-0
 62
     7
370
    25
100
AcDbLine
 10
330.792846
 20
203.862774
 30
0.0
 11
334.443069
 21
207.512997
 31
0.0
  0
LINE
  5
398
330
38D
100
AcDbEntity
  8
LC-001-100-D00-0
 62
     7
370
    25
100
AcDbLine
 10
301.443069
 20
183.493253
 30
0.0
 11
304.443069
 21
186.493253
 31
0.0
  0
LINE
  5
399
330
38D
100
AcDbEntity
  8
LC-001-100-D00-0
 62
     7
370
    25
100
AcDbLine
 10
309.542937
 20
191.593121
 30
0.0
 11
312.042937
 21
194.093121
 31
0.0
  0
LINE
  5
39A
330
38D
100
AcDbEntity
  8
LC-001-100-D00-0
 62
     7
370
    25
100
AcDbLine
 10
331.443069
 20
213.493253
 30
0.0
 11
334.443069
 21
216.493253
 31
0.0
  0
LINE
  5
39B
330
38D
100
AcDbEntity
  8
LC-001-100-D00-0
 62
     7
370
    25
100
AcDbLine
 10
301.443069
 20
192.473509
 30
0.0
 11
304.037873
 21
195.068313
 31
0.0
  0
LINE
  5
39C
330
38D
100
AcDbEntity
  8
LC-001-100-D00-0
 62
     7
370
    25
100
AcDbLine
 10
331.443069
 20
222.473509
 30
0.0
 11
334.443069
 21
225.473509
 31
0.0
  0
LINE
  5
39D
330
38D
100
AcDbEntity
  8
LC-001-100-D00-0
 62
     7
370
    25
100
AcDbLine
 10
389.600596
 20
280.631036
 30
0.0
 11
392.95708
 21
283.98752
 31
0.0
  0
LINE
  5
39E
330
38D
100
AcDbEntity
  8
LC-001-100-D00-0
 62
     7
370
    25
100
AcDbLine
 10
301.443069
 20
201.453766
 30
0.0
 11
303.943069
 21
203.953766
 31
0.0
  0
LINE
  5
39F
330
38D
100
AcDbEntity
  8
LC-001-100-D00-0
 62
     7
370
    25
100
AcDbLine
 10
331.443069
 20
231.453766
 30
0.0
 11
334.443069
 21
234.453766
 31
0.0
  0
LINE
  5
3A0
330
38D
100
AcDbEntity
  8
LC-001-100-D00-0
 62
     7
370
    25
100
AcDbLine
 10
378.4786
 20
278.489296
 30
0.0
 11
383.750216
 21
283.760912
 31
0.0
  0
LINE
  5
3A1
330
38D
100
AcDbEntity
  8
LC-001-100-D00-0
 62
     7
370
    25
100
AcDbLine
 10
301.443069
 20
210.434022
 30
0.0
 11
303.943069
 21
212.934022
 31
0.0
  0
LINE
  5
3A2
330
38D
100
AcDbEntity
  8
LC-001-100-D00-0
 62
     7
370
    25
100
AcDbLine
 10
331.443069
 20
240.434022
 30
0.0
 11
334.443069
 21
243.434022
 31
0.0
  0
LINE
  5
3A3
330
38D
100
AcDbEntity
  8
LC-001-100-D00-0
 62
     7
370
    25
100
AcDbLine
 10
339.60663
 20
248.597583
 30
0.0
 11
342.438607
 21
251.42956
 31
0.0
  0
LINE
  5
3A4
330
38D
100
AcDbEntity
  8
LC-001-100-D00-0
 62
     7
370
    25
100
AcDbLine
 10
353.527625
 20
262.518578
 30
0.0
 11
355.443069
 21
264.434022
 31
0.0
  0
LINE
  5
3A5
330
38D
100
AcDbEntity
  8
LC-001-100-D00-0
 62
     7
370
    25
100
AcDbLine
 10
365.543769
 20
274.534722
 30
0.0
 11
370.815385
 21
279.806338
 31
0.0
  0
LINE
  5
3A6
330
38D
100
AcDbEntity
  8
LC-001-100-D00-0
 62
     7
370
    25
100
AcDbLine
 10
301.443069
 20
219.414278
 30
0.0
 11
303.943069
 21
221.914278
 31
0.0
  0
LINE
  5
3A7
330
38D
100
AcDbEntity
  8
LC-001-100-D00-0
 62
     7
370
    25
100
AcDbLine
 10
331.443069
 20
249.414278
 30
0.0
 11
333.621912
 21
251.593121
 31
0.0
  0
LINE
  5
3A8
330
38D
100
AcDbEntity
  8
LC-001-100-D00-0
 62
     7
370
    25
100
AcDbLine
 10
339.443069
 20
257.414278
 30
0.0
 11
342.443069
 21
260.414278
 31
0.0
  0
LINE
  5
3A9
330
38D
100
AcDbEntity
  8
LC-001-100-D00-0
 62
     7
370
    25
100
AcDbLine
 10
344.547369
 20
262.518578
 30
0.0
 11
347.164993
 21
265.136201
 31
0.0
  0
LINE
  5
3AA
330
38D
100
AcDbEntity
  8
LC-001-100-D00-0
 62
     7
370
    25
100
AcDbLine
 10
351.943069
 20
269.914278
 30
0.0
 11
356.386917
 21
274.358125
 31
0.0
  0
LINE
  5
3AB
330
38D
100
AcDbEntity
  8
LC-001-100-D00-0
 62
     7
370
    25
100
AcDbLine
 10
301.443069
 20
228.394534
 30
0.0
 11
303.943069
 21
230.894534
 31
0.0
  0
LINE
  5
3AC
330
38D
100
AcDbEntity
  8
LC-001-100-D00-0
 62
     7
370
    25
100
AcDbLine
 10
339.443069
 20
266.394534
 30
0.0
 11
346.943069
 21
273.894534
 31
0.0
  0
LINE
  5
3AD
330
38D
100
AcDbEntity
  8
LC-001-100-D00-0
 62
     7
370
    25
100
AcDbLine
 10
301.443069
 20
237.37479
 30
0.0
 11
303.943069
 21
239.87479
 31
0.0
  0
LINE
  5
3AE
330
38D
100
AcDbEntity
  8
LC-001-100-D00-0
 62
     7
370
    25
100
AcDbLine
 10
339.443069
 20
275.37479
 30
0.0
 11
343.426477
 21
279.358198
 31
0.0
  0
LINE
  5
3AF
330
38D
100
AcDbEntity
  8
LC-001-100-D00-0
 62
     7
370
    25
100
AcDbLine
 10
301.443069
 20
246.355046
 30
0.0
 11
303.943069
 21
248.855046
 31
0.0
  0
LINE
  5
3B0
330
38D
100
AcDbEntity
  8
LC-001-100-D00-0
 62
     7
370
    25
100
AcDbLine
 10
301.443069
 20
255.335302
 30
0.0
 11
302.200888
 21
256.093121
 31
0.0
  0
ENDBLK
  5
38F
330
38D
100
AcDbEntity
  8
0
100
AcDbBlockEnd
  0
BLOCK
  5
3B3
330
3B2
100
AcDbEntity
  8
0
100
AcDbBlockBegin
  2
KLON23
 70
     0
 71
     0
 10
0.0
 20
0.0
 30
0.0
  3
KLON23
  1

  4
KLON23
  0
LINE
  5
3B5
330
3B2
100
AcDbEntity
  8
LC-001-100-D00-0
 62
     7
370
    25
100
AcDbLine
 10
317.443069
 20
208.473509
 30
0.0
 11
318.943069
 21
209.973509
 31
0.0
  0
LINE
  5
3B6
330
3B2
100
AcDbEntity
  8
LC-001-100-D00-0
 62
     7
370
    25
100
AcDbLine
 10
317.443069
 20
217.453766
 30
0.0
 11
318.943069
 21
218.953766
 31
0.0
  0
LINE
  5
3B7
330
3B2
100
AcDbEntity
  8
LC-001-100-D00-0
 62
     7
370
    25
100
AcDbLine
 10
317.443069
 20
226.434022
 30
0.0
 11
318.943069
 21
227.934022
 31
0.0
  0
LINE
  5
3B8
330
3B2
100
AcDbEntity
  8
LC-001-100-D00-0
 62
     7
370
    25
100
AcDbLine
 10
317.443069
 20
235.414278
 30
0.0
 11
318.943069
 21
236.914278
 31
0.0
  0
LINE
  5
3B9
330
3B2
100
AcDbEntity
  8
LC-001-100-D00-0
 62
     7
370
    25
100
AcDbLine
 10
314.641593
 20
241.593058
 30
0.0
 11
318.943069
 21
245.894534
 31
0.0
  0
LINE
  5
3BA
330
3B2
100
AcDbEntity
  8
LC-001-100-D00-0
 62
     7
370
    25
100
AcDbLine
 10
305.661337
 20
241.593058
 30
0.0
 11
318.943069
 21
254.87479
 31
0.0
  0
LINE
  5
3BB
330
3B2
100
AcDbEntity
  8
LC-001-100-D00-0
 62
     7
370
    25
100
AcDbLine
 10
303.943069
 20
248.855046
 30
0.0
 11
318.363949
 21
263.275926
 31
0.0
  0
LINE
  5
3BC
330
3B2
100
AcDbEntity
  8
LC-001-100-D00-0
 62
     7
370
    25
100
AcDbLine
 10
298.200825
 20
252.093058
 30
0.0
 11
301.443069
 21
255.335302
 31
0.0
  0
LINE
  5
3BD
330
3B2
100
AcDbEntity
  8
LC-001-100-D00-0
 62
     7
370
    25
100
AcDbLine
 10
302.700825
 20
256.593058
 30
0.0
 11
314.784465
 21
268.676698
 31
0.0
  0
LINE
  5
3BE
330
3B2
100
AcDbEntity
  8
LC-001-100-D00-0
 62
     7
370
    25
100
AcDbLine
 10
297.443069
 20
260.315558
 30
0.0
 11
308.604937
 21
271.477426
 31
0.0
  0
LINE
  5
3BF
330
3B2
100
AcDbEntity
  8
LC-001-100-D00-0
 62
     7
370
    25
100
AcDbLine
 10
239.943069
 20
211.795815
 30
0.0
 11
241.443069
 21
213.295815
 31
0.0
  0
LINE
  5
3C0
330
3B2
100
AcDbEntity
  8
LC-001-100-D00-0
 62
     7
370
    25
100
AcDbLine
 10
297.443069
 20
269.295815
 30
0.0
 11
299.740313
 21
271.593058
 31
0.0
  0
LINE
  5
3C1
330
3B2
100
AcDbEntity
  8
LC-001-100-D00-0
 62
     7
370
    25
100
AcDbLine
 10
239.943069
 20
220.776071
 30
0.0
 11
241.443069
 21
222.276071
 31
0.0
  0
LINE
  5
3C2
330
3B2
100
AcDbEntity
  8
LC-001-100-D00-0
 62
     7
370
    25
100
AcDbLine
 10
288.760057
 20
269.593058
 30
0.0
 11
293.093708
 21
273.92671
 31
0.0
  0
LINE
  5
3C3
330
3B2
100
AcDbEntity
  8
LC-001-100-D00-0
 62
     7
370
    25
100
AcDbLine
 10
239.943069
 20
229.756327
 30
0.0
 11
241.443069
 21
231.256327
 31
0.0
  0
LINE
  5
3C4
330
3B2
100
AcDbEntity
  8
LC-001-100-D00-0
 62
     7
370
    25
100
AcDbLine
 10
279.779801
 20
269.593058
 30
0.0
 11
289.811043
 21
279.624301
 31
0.0
  0
LINE
  5
3C5
330
3B2
100
AcDbEntity
  8
LC-001-100-D00-0
 62
     7
370
    25
100
AcDbLine
 10
239.943069
 20
238.736583
 30
0.0
 11
241.443069
 21
240.236583
 31
0.0
  0
LINE
  5
3C6
330
3B2
100
AcDbEntity
  8
LC-001-100-D00-0
 62
     7
370
    25
100
AcDbLine
 10
270.799544
 20
269.593058
 30
0.0
 11
282.799544
 21
281.593058
 31
0.0
  0
LINE
  5
3C7
330
3B2
100
AcDbEntity
  8
LC-001-100-D00-0
 62
     7
370
    25
100
AcDbLine
 10
239.943069
 20
247.716839
 30
0.0
 11
241.443069
 21
249.216839
 31
0.0
  0
LINE
  5
3C8
330
3B2
100
AcDbEntity
  8
LC-001-100-D00-0
 62
     7
370
    25
100
AcDbLine
 10
261.819288
 20
269.593058
 30
0.0
 11
263.819288
 21
271.593058
 31
0.0
  0
LINE
  5
3C9
330
3B2
100
AcDbEntity
  8
LC-001-100-D00-0
 62
     7
370
    25
100
AcDbLine
 10
265.740321
 20
273.514091
 30
0.0
 11
273.772036
 21
281.545806
 31
0.0
  0
LINE
  5
3CA
330
3B2
100
AcDbEntity
  8
LC-001-100-D00-0
 62
     7
370
    25
100
AcDbLine
 10
239.943069
 20
256.697095
 30
0.0
 11
241.443069
 21
258.197095
 31
0.0
  0
LINE
  5
3CB
330
3B2
100
AcDbEntity
  8
LC-001-100-D00-0
 62
     7
370
    25
100
AcDbLine
 10
252.839032
 20
269.593058
 30
0.0
 11
254.839032
 21
271.593058
 31
0.0
  0
LINE
  5
3CC
330
3B2
100
AcDbEntity
  8
LC-001-100-D00-0
 62
     7
370
    25
100
AcDbLine
 10
281.779801
 20
271.593058
 30
0.0
 11
286.950633
 21
276.76389
 31
0.0
  0
LINE
  5
3CD
330
3B2
100
AcDbEntity
  8
LC-001-100-D00-0
 62
     7
370
    25
100
AcDbLine
 10
272.799544
 20
271.593058
 30
0.0
 11
278.799544
 21
277.593058
 31
0.0
  0
ENDBLK
  5
3B4
330
3B2
100
AcDbEntity
  8
0
100
AcDbBlockEnd
  0
BLOCK
  5
3D0
330
3CF
100
AcDbEntity
  8
0
100
AcDbBlockBegin
  2
KLON24
 70
     0
 71
     0
 10
0.0
 20
0.0
 30
0.0
  3
KLON24
  1

  4
KLON24
  0
LINE
  5
3D2
330
3CF
100
AcDbEntity
  8
LC-001-100-D00-0
 62
     7
370
    25
100
AcDbLine
 10
361.311073
 20
282.22873
 30
0.0
 11
362.535873
 21
283.453531
 31
0.0
  0
LINE
  5
3D3
330
3CF
100
AcDbEntity
  8
LC-001-100-D00-0
 62
     7
370
    25
100
AcDbLine
 10
354.330816
 20
284.22873
 30
0.0
 11
355.330816
 21
285.22873
 31
0.0
  0
LINE
  5
3D4
330
3CF
100
AcDbEntity
  8
LC-001-100-D00-0
 62
     7
370
    25
100
AcDbLine
 10
345.35056
 20
284.22873
 30
0.0
 11
346.35056
 21
285.22873
 31
0.0
  0
LINE
  5
3D5
330
3CF
100
AcDbEntity
  8
LC-001-100-D00-0
 62
     7
370
    25
100
AcDbLine
 10
336.443069
 20
284.301496
 30
0.0
 11
337.370304
 21
285.22873
 31
0.0
  0
ENDBLK
  5
3D1
330
3CF
100
AcDbEntity
  8
0
100
AcDbBlockEnd
  0
BLOCK
  5
3D9
330
3D8
100
AcDbEntity
  8
0
100
AcDbBlockBegin
  2
KLON25
 70
     0
 71
     0
 10
0.0
 20
0.0
 30
0.0
  3
KLON25
  1

  4
KLON25
  0
LINE
  5
3DB
330
3D8
100
AcDbEntity
  8
LC-001-100-D00-0
 62
     7
370
    25
100
AcDbLine
 10
207.443069
 20
272.044825
 30
0.0
 11
211.443069
 21
276.044825
 31
0.0
  0
LINE
  5
3DC
330
3D8
100
AcDbEntity
  8
LC-001-100-D00-0
 62
     7
370
    25
100
AcDbLine
 10
207.443069
 20
281.025081
 30
0.0
 11
211.443069
 21
285.025081
 31
0.0
  0
LINE
  5
3DD
330
3D8
100
AcDbEntity
  8
LC-001-100-D00-0
 62
     7
370
    25
100
AcDbLine
 10
212.646719
 20
286.22873
 30
0.0
 11
214.693069
 21
288.275081
 31
0.0
  0
LINE
  5
3DE
330
3D8
100
AcDbEntity
  8
LC-001-100-D00-0
 62
     7
370
    25
100
AcDbLine
 10
204.193069
 20
286.755337
 30
0.0
 11
206.166462
 21
288.72873
 31
0.0
  0
ENDBLK
  5
3DA
330
3D8
100
AcDbEntity
  8
0
100
AcDbBlockEnd
  0
BLOCK
  5
3F1
330
3F0
100
AcDbEntity
  8
0
100
AcDbBlockBegin
  2
*X154
 70
     1
 71
     0
 10
0.0
 20
0.0
 30
0.0
  3
*X154
  1

  4
*X1
  0
LINE
  5
3F4
330
3F0
100
AcDbEntity
  8
LC-003-005-----0
 62
     7
370
    25
100
AcDbLine
 10
90.557012
 20
284.021427
 30
0.0
 11
90.624873
 21
284.089288
 31
0.0
  0
LINE
  5
3F5
330
3F0
100
AcDbEntity
  8
LC-003-005-----0
 62
     7
370
    25
100
AcDbLine
 10
89.991326
 20
284.021427
 30
0.0
 11
90.624873
 21
284.654974
 31
0.0
  0
LINE
  5
3F6
330
3F0
100
AcDbEntity
  8
LC-003-005-----0
 62
     7
370
    25
100
AcDbLine
 10
89.425641
 20
284.021427
 30
0.0
 11
90.624873
 21
285.220659
 31
0.0
  0
LINE
  5
3F7
330
3F0
100
AcDbEntity
  8
LC-003-005-----0
 62
     7
370
    25
100
AcDbLine
 10
88.859955
 20
284.021427
 30
0.0
 11
90.624873
 21
285.786345
 31
0.0
  0
LINE
  5
3F8
330
3F0
100
AcDbEntity
  8
LC-003-005-----0
 62
     7
370
    25
100
AcDbLine
 10
88.29427
 20
284.021427
 30
0.0
 11
90.624873
 21
286.35203
 31
0.0
  0
LINE
  5
3F9
330
3F0
100
AcDbEntity
  8
LC-003-005-----0
 62
     7
370
    25
100
AcDbLine
 10
87.728585
 20
284.021427
 30
0.0
 11
90.624873
 21
286.917716
 31
0.0
  0
LINE
  5
3FA
330
3F0
100
AcDbEntity
  8
LC-003-005-----0
 62
     7
370
    25
100
AcDbLine
 10
87.162899
 20
284.021427
 30
0.0
 11
90.624873
 21
287.483401
 31
0.0
  0
LINE
  5
3FB
330
3F0
100
AcDbEntity
  8
LC-003-005-----0
 62
     7
370
    25
100
AcDbLine
 10
86.597214
 20
284.021427
 30
0.0
 11
90.624873
 21
288.049086
 31
0.0
  0
LINE
  5
3FC
330
3F0
100
AcDbEntity
  8
LC-003-005-----0
 62
     7
370
    25
100
AcDbLine
 10
86.031528
 20
284.021427
 30
0.0
 11
90.624873
 21
288.614772
 31
0.0
  0
LINE
  5
3FD
330
3F0
100
AcDbEntity
  8
LC-003-005-----0
 62
     7
370
    25
100
AcDbLine
 10
85.465843
 20
284.021427
 30
0.0
 11
90.165843
 21
288.721427
 31
0.0
  0
LINE
  5
3FE
330
3F0
100
AcDbEntity
  8
LC-003-005-----0
 62
     7
370
    25
100
AcDbLine
 10
84.900157
 20
284.021427
 30
0.0
 11
89.600157
 21
288.721427
 31
0.0
  0
LINE
  5
3FF
330
3F0
100
AcDbEntity
  8
LC-003-005-----0
 62
     7
370
    25
100
AcDbLine
 10
84.334472
 20
284.021427
 30
0.0
 11
89.034472
 21
288.721427
 31
0.0
  0
LINE
  5
400
330
3F0
100
AcDbEntity
  8
LC-003-005-----0
 62
     7
370
    25
100
AcDbLine
 10
83.768787
 20
284.021427
 30
0.0
 11
88.468787
 21
288.721427
 31
0.0
  0
LINE
  5
401
330
3F0
100
AcDbEntity
  8
LC-003-005-----0
 62
     7
370
    25
100
AcDbLine
 10
83.203101
 20
284.021427
 30
0.0
 11
87.903101
 21
288.721427
 31
0.0
  0
LINE
  5
402
330
3F0
100
AcDbEntity
  8
LC-003-005-----0
 62
     7
370
    25
100
AcDbLine
 10
82.637416
 20
284.021427
 30
0.0
 11
87.337416
 21
288.721427
 31
0.0
  0
LINE
  5
403
330
3F0
100
AcDbEntity
  8
LC-003-005-----0
 62
     7
370
    25
100
AcDbLine
 10
82.07173
 20
284.021427
 30
0.0
 11
86.77173
 21
288.721427
 31
0.0
  0
LINE
  5
404
330
3F0
100
AcDbEntity
  8
LC-003-005-----0
 62
     7
370
    25
100
AcDbLine
 10
81.506045
 20
284.021427
 30
0.0
 11
86.206045
 21
288.721427
 31
0.0
  0
LINE
  5
405
330
3F0
100
AcDbEntity
  8
LC-003-005-----0
 62
     7
370
    25
100
AcDbLine
 10
80.940359
 20
284.021427
 30
0.0
 11
85.640359
 21
288.721427
 31
0.0
  0
LINE
  5
406
330
3F0
100
AcDbEntity
  8
LC-003-005-----0
 62
     7
370
    25
100
AcDbLine
 10
80.624873
 20
284.271626
 30
0.0
 11
85.074674
 21
288.721427
 31
0.0
  0
LINE
  5
407
330
3F0
100
AcDbEntity
  8
LC-003-005-----0
 62
     7
370
    25
100
AcDbLine
 10
80.624873
 20
284.837312
 30
0.0
 11
84.508989
 21
288.721427
 31
0.0
  0
LINE
  5
408
330
3F0
100
AcDbEntity
  8
LC-003-005-----0
 62
     7
370
    25
100
AcDbLine
 10
80.624873
 20
285.402997
 30
0.0
 11
83.943303
 21
288.721427
 31
0.0
  0
LINE
  5
409
330
3F0
100
AcDbEntity
  8
LC-003-005-----0
 62
     7
370
    25
100
AcDbLine
 10
80.624873
 20
285.968682
 30
0.0
 11
83.377618
 21
288.721427
 31
0.0
  0
LINE
  5
40A
330
3F0
100
AcDbEntity
  8
LC-003-005-----0
 62
     7
370
    25
100
AcDbLine
 10
80.624873
 20
286.534368
 30
0.0
 11
82.811932
 21
288.721427
 31
0.0
  0
LINE
  5
40B
330
3F0
100
AcDbEntity
  8
LC-003-005-----0
 62
     7
370
    25
100
AcDbLine
 10
80.624873
 20
287.100053
 30
0.0
 11
82.246247
 21
288.721427
 31
0.0
  0
LINE
  5
40C
330
3F0
100
AcDbEntity
  8
LC-003-005-----0
 62
     7
370
    25
100
AcDbLine
 10
80.624873
 20
287.665739
 30
0.0
 11
81.680562
 21
288.721427
 31
0.0
  0
LINE
  5
40D
330
3F0
100
AcDbEntity
  8
LC-003-005-----0
 62
     7
370
    25
100
AcDbLine
 10
80.624873
 20
288.231424
 30
0.0
 11
81.114876
 21
288.721427
 31
0.0
  0
ENDBLK
  5
3F2
330
3F0
100
AcDbEntity
  8
0
100
AcDbBlockEnd
  0
BLOCK
  5
411
330
410
100
AcDbEntity
  8
0
100
AcDbBlockBegin
  2
*X255
 70
     1
 71
     0
 10
0.0
 20
0.0
 30
0.0
  3
*X255
  1

  4
*X2
  0
LINE
  5
413
330
410
100
AcDbEntity
  8
LC-003-005-----0
 62
     7
370
    25
100
AcDbLine
 10
110.356002
 20
284.021427
 30
0.0
 11
110.624873
 21
284.290299
 31
0.0
  0
LINE
  5
414
330
410
100
AcDbEntity
  8
LC-003-005-----0
 62
     7
370
    25
100
AcDbLine
 10
109.790316
 20
284.021427
 30
0.0
 11
110.624873
 21
284.855984
 31
0.0
  0
LINE
  5
415
330
410
100
AcDbEntity
  8
LC-003-005-----0
 62
     7
370
    25
100
AcDbLine
 10
109.224631
 20
284.021427
 30
0.0
 11
110.624873
 21
285.421669
 31
0.0
  0
LINE
  5
416
330
410
100
AcDbEntity
  8
LC-003-005-----0
 62
     7
370
    25
100
AcDbLine
 10
108.658945
 20
284.021427
 30
0.0
 11
110.624873
 21
285.987355
 31
0.0
  0
LINE
  5
417
330
410
100
AcDbEntity
  8
LC-003-005-----0
 62
     7
370
    25
100
AcDbLine
 10
108.09326
 20
284.021427
 30
0.0
 11
110.624873
 21
286.55304
 31
0.0
  0
LINE
  5
418
330
410
100
AcDbEntity
  8
LC-003-005-----0
 62
     7
370
    25
100
AcDbLine
 10
107.527574
 20
284.021427
 30
0.0
 11
110.624873
 21
287.118726
 31
0.0
  0
LINE
  5
419
330
410
100
AcDbEntity
  8
LC-003-005-----0
 62
     7
370
    25
100
AcDbLine
 10
106.961889
 20
284.021427
 30
0.0
 11
110.624873
 21
287.684411
 31
0.0
  0
LINE
  5
41A
330
410
100
AcDbEntity
  8
LC-003-005-----0
 62
     7
370
    25
100
AcDbLine
 10
106.396204
 20
284.021427
 30
0.0
 11
110.624873
 21
288.250097
 31
0.0
  0
LINE
  5
41B
330
410
100
AcDbEntity
  8
LC-003-005-----0
 62
     7
370
    25
100
AcDbLine
 10
105.830518
 20
284.021427
 30
0.0
 11
110.530518
 21
288.721427
 31
0.0
  0
LINE
  5
41C
330
410
100
AcDbEntity
  8
LC-003-005-----0
 62
     7
370
    25
100
AcDbLine
 10
105.264833
 20
284.021427
 30
0.0
 11
109.964833
 21
288.721427
 31
0.0
  0
LINE
  5
41D
330
410
100
AcDbEntity
  8
LC-003-005-----0
 62
     7
370
    25
100
AcDbLine
 10
104.699147
 20
284.021427
 30
0.0
 11
109.399147
 21
288.721427
 31
0.0
  0
LINE
  5
41E
330
410
100
AcDbEntity
  8
LC-003-005-----0
 62
     7
370
    25
100
AcDbLine
 10
104.133462
 20
284.021427
 30
0.0
 11
108.833462
 21
288.721427
 31
0.0
  0
LINE
  5
41F
330
410
100
AcDbEntity
  8
LC-003-005-----0
 62
     7
370
    25
100
AcDbLine
 10
103.567776
 20
284.021427
 30
0.0
 11
108.267776
 21
288.721427
 31
0.0
  0
LINE
  5
420
330
410
100
AcDbEntity
  8
LC-003-005-----0
 62
     7
370
    25
100
AcDbLine
 10
103.002091
 20
284.021427
 30
0.0
 11
107.702091
 21
288.721427
 31
0.0
  0
LINE
  5
421
330
410
100
AcDbEntity
  8
LC-003-005-----0
 62
     7
370
    25
100
AcDbLine
 10
102.436406
 20
284.021427
 30
0.0
 11
107.136406
 21
288.721427
 31
0.0
  0
LINE
  5
422
330
410
100
AcDbEntity
  8
LC-003-005-----0
 62
     7
370
    25
100
AcDbLine
 10
101.87072
 20
284.021427
 30
0.0
 11
106.57072
 21
288.721427
 31
0.0
  0
LINE
  5
423
330
410
100
AcDbEntity
  8
LC-003-005-----0
 62
     7
370
    25
100
AcDbLine
 10
101.305035
 20
284.021427
 30
0.0
 11
106.005035
 21
288.721427
 31
0.0
  0
LINE
  5
424
330
410
100
AcDbEntity
  8
LC-003-005-----0
 62
     7
370
    25
100
AcDbLine
 10
100.739349
 20
284.021427
 30
0.0
 11
105.439349
 21
288.721427
 31
0.0
  0
LINE
  5
425
330
410
100
AcDbEntity
  8
LC-003-005-----0
 62
     7
370
    25
100
AcDbLine
 10
100.624873
 20
284.472636
 30
0.0
 11
104.873664
 21
288.721427
 31
0.0
  0
LINE
  5
426
330
410
100
AcDbEntity
  8
LC-003-005-----0
 62
     7
370
    25
100
AcDbLine
 10
100.624873
 20
285.038322
 30
0.0
 11
104.307979
 21
288.721427
 31
0.0
  0
LINE
  5
427
330
410
100
AcDbEntity
  8
LC-003-005-----0
 62
     7
370
    25
100
AcDbLine
 10
100.624873
 20
285.604007
 30
0.0
 11
103.742293
 21
288.721427
 31
0.0
  0
LINE
  5
428
330
410
100
AcDbEntity
  8
LC-003-005-----0
 62
     7
370
    25
100
AcDbLine
 10
100.624873
 20
286.169693
 30
0.0
 11
103.176608
 21
288.721427
 31
0.0
  0
LINE
  5
429
330
410
100
AcDbEntity
  8
LC-003-005-----0
 62
     7
370
    25
100
AcDbLine
 10
100.624873
 20
286.735378
 30
0.0
 11
102.610922
 21
288.721427
 31
0.0
  0
LINE
  5
42A
330
410
100
AcDbEntity
  8
LC-003-005-----0
 62
     7
370
    25
100
AcDbLine
 10
100.624873
 20
287.301063
 30
0.0
 11
102.045237
 21
288.721427
 31
0.0
  0
LINE
  5
42B
330
410
100
AcDbEntity
  8
LC-003-005-----0
 62
     7
370
    25
100
AcDbLine
 10
100.624873
 20
287.866749
 30
0.0
 11
101.479551
 21
288.721427
 31
0.0
  0
LINE
  5
42C
330
410
100
AcDbEntity
  8
LC-003-005-----0
 62
     7
370
    25
100
AcDbLine
 10
100.624873
 20
288.432434
 30
0.0
 11
100.913866
 21
288.721427
 31
0.0
  0
ENDBLK
  5
412
330
410
100
AcDbEntity
  8
0
100
AcDbBlockEnd
  0
BLOCK
  5
430
330
42F
100
AcDbEntity
  8
0
100
AcDbBlockBegin
  2
*X356
 70
     1
 71
     0
 10
0.0
 20
0.0
 30
0.0
  3
*X356
  1

  4
*X3
  0
LINE
  5
432
330
42F
100
AcDbEntity
  8
LC-003-005-----0
 62
     7
370
    25
100
AcDbLine
 10
130.154991
 20
284.021427
 30
0.0
 11
130.624873
 21
284.491309
 31
0.0
  0
LINE
  5
433
330
42F
100
AcDbEntity
  8
LC-003-005-----0
 62
     7
370
    25
100
AcDbLine
 10
129.589306
 20
284.021427
 30
0.0
 11
130.624873
 21
285.056994
 31
0.0
  0
LINE
  5
434
330
42F
100
AcDbEntity
  8
LC-003-005-----0
 62
     7
370
    25
100
AcDbLine
 10
129.023621
 20
284.021427
 30
0.0
 11
130.624873
 21
285.62268
 31
0.0
  0
LINE
  5
435
330
42F
100
AcDbEntity
  8
LC-003-005-----0
 62
     7
370
    25
100
AcDbLine
 10
128.457935
 20
284.021427
 30
0.0
 11
130.624873
 21
286.188365
 31
0.0
  0
LINE
  5
436
330
42F
100
AcDbEntity
  8
LC-003-005-----0
 62
     7
370
    25
100
AcDbLine
 10
127.89225
 20
284.021427
 30
0.0
 11
130.624873
 21
286.75405
 31
0.0
  0
LINE
  5
437
330
42F
100
AcDbEntity
  8
LC-003-005-----0
 62
     7
370
    25
100
AcDbLine
 10
127.326564
 20
284.021427
 30
0.0
 11
130.624873
 21
287.319736
 31
0.0
  0
LINE
  5
438
330
42F
100
AcDbEntity
  8
LC-003-005-----0
 62
     7
370
    25
100
AcDbLine
 10
126.760879
 20
284.021427
 30
0.0
 11
130.624873
 21
287.885421
 31
0.0
  0
LINE
  5
439
330
42F
100
AcDbEntity
  8
LC-003-005-----0
 62
     7
370
    25
100
AcDbLine
 10
126.195193
 20
284.021427
 30
0.0
 11
130.624873
 21
288.451107
 31
0.0
  0
LINE
  5
43A
330
42F
100
AcDbEntity
  8
LC-003-005-----0
 62
     7
370
    25
100
AcDbLine
 10
125.629508
 20
284.021427
 30
0.0
 11
130.329508
 21
288.721427
 31
0.0
  0
LINE
  5
43B
330
42F
100
AcDbEntity
  8
LC-003-005-----0
 62
     7
370
    25
100
AcDbLine
 10
125.063823
 20
284.021427
 30
0.0
 11
129.763823
 21
288.721427
 31
0.0
  0
LINE
  5
43C
330
42F
100
AcDbEntity
  8
LC-003-005-----0
 62
     7
370
    25
100
AcDbLine
 10
124.498137
 20
284.021427
 30
0.0
 11
129.198137
 21
288.721427
 31
0.0
  0
LINE
  5
43D
330
42F
100
AcDbEntity
  8
LC-003-005-----0
 62
     7
370
    25
100
AcDbLine
 10
123.932452
 20
284.021427
 30
0.0
 11
128.632452
 21
288.721427
 31
0.0
  0
LINE
  5
43E
330
42F
100
AcDbEntity
  8
LC-003-005-----0
 62
     7
370
    25
100
AcDbLine
 10
123.366766
 20
284.021427
 30
0.0
 11
128.066766
 21
288.721427
 31
0.0
  0
LINE
  5
43F
330
42F
100
AcDbEntity
  8
LC-003-005-----0
 62
     7
370
    25
100
AcDbLine
 10
122.801081
 20
284.021427
 30
0.0
 11
127.501081
 21
288.721427
 31
0.0
  0
LINE
  5
440
330
42F
100
AcDbEntity
  8
LC-003-005-----0
 62
     7
370
    25
100
AcDbLine
 10
122.235396
 20
284.021427
 30
0.0
 11
126.935396
 21
288.721427
 31
0.0
  0
LINE
  5
441
330
42F
100
AcDbEntity
  8
LC-003-005-----0
 62
     7
370
    25
100
AcDbLine
 10
121.66971
 20
284.021427
 30
0.0
 11
126.36971
 21
288.721427
 31
0.0
  0
LINE
  5
442
330
42F
100
AcDbEntity
  8
LC-003-005-----0
 62
     7
370
    25
100
AcDbLine
 10
121.104025
 20
284.021427
 30
0.0
 11
125.804025
 21
288.721427
 31
0.0
  0
LINE
  5
443
330
42F
100
AcDbEntity
  8
LC-003-005-----0
 62
     7
370
    25
100
AcDbLine
 10
120.624873
 20
284.107961
 30
0.0
 11
125.238339
 21
288.721427
 31
0.0
  0
LINE
  5
444
330
42F
100
AcDbEntity
  8
LC-003-005-----0
 62
     7
370
    25
100
AcDbLine
 10
120.624873
 20
284.673646
 30
0.0
 11
124.672654
 21
288.721427
 31
0.0
  0
LINE
  5
445
330
42F
100
AcDbEntity
  8
LC-003-005-----0
 62
     7
370
    25
100
AcDbLine
 10
120.624873
 20
285.239332
 30
0.0
 11
124.106968
 21
288.721427
 31
0.0
  0
LINE
  5
446
330
42F
100
AcDbEntity
  8
LC-003-005-----0
 62
     7
370
    25
100
AcDbLine
 10
120.624873
 20
285.805017
 30
0.0
 11
123.541283
 21
288.721427
 31
0.0
  0
LINE
  5
447
330
42F
100
AcDbEntity
  8
LC-003-005-----0
 62
     7
370
    25
100
AcDbLine
 10
120.624873
 20
286.370703
 30
0.0
 11
122.975598
 21
288.721427
 31
0.0
  0
LINE
  5
448
330
42F
100
AcDbEntity
  8
LC-003-005-----0
 62
     7
370
    25
100
AcDbLine
 10
120.624873
 20
286.936388
 30
0.0
 11
122.409912
 21
288.721427
 31
0.0
  0
LINE
  5
449
330
42F
100
AcDbEntity
  8
LC-003-005-----0
 62
     7
370
    25
100
AcDbLine
 10
120.624873
 20
287.502074
 30
0.0
 11
121.844227
 21
288.721427
 31
0.0
  0
LINE
  5
44A
330
42F
100
AcDbEntity
  8
LC-003-005-----0
 62
     7
370
    25
100
AcDbLine
 10
120.624873
 20
288.067759
 30
0.0
 11
121.278541
 21
288.721427
 31
0.0
  0
LINE
  5
44B
330
42F
100
AcDbEntity
  8
LC-003-005-----0
 62
     7
370
    25
100
AcDbLine
 10
120.624873
 20
288.633444
 30
0.0
 11
120.712856
 21
288.721427
 31
0.0
  0
ENDBLK
  5
431
330
42F
100
AcDbEntity
  8
0
100
AcDbBlockEnd
  0
BLOCK
  5
450
330
44F
100
AcDbEntity
  8
0
100
AcDbBlockBegin
  2
*X457
 70
     1
 71
     0
 10
0.0
 20
0.0
 30
0.0
  3
*X457
  1

  4
*X4
  0
LINE
  5
452
330
44F
100
AcDbEntity
  8
LC-003-005-----0
 62
     7
370
    25
100
AcDbLine
 10
150.519667
 20
284.021427
 30
0.0
 11
150.624873
 21
284.126633
 31
0.0
  0
LINE
  5
453
330
44F
100
AcDbEntity
  8
LC-003-005-----0
 62
     7
370
    25
100
AcDbLine
 10
149.953981
 20
284.021427
 30
0.0
 11
150.624873
 21
284.692319
 31
0.0
  0
LINE
  5
454
330
44F
100
AcDbEntity
  8
LC-003-005-----0
 62
     7
370
    25
100
AcDbLine
 10
149.388296
 20
284.021427
 30
0.0
 11
150.624873
 21
285.258004
 31
0.0
  0
LINE
  5
455
330
44F
100
AcDbEntity
  8
LC-003-005-----0
 62
     7
370
    25
100
AcDbLine
 10
148.82261
 20
284.021427
 30
0.0
 11
150.624873
 21
285.82369
 31
0.0
  0
LINE
  5
456
330
44F
100
AcDbEntity
  8
LC-003-005-----0
 62
     7
370
    25
100
AcDbLine
 10
148.256925
 20
284.021427
 30
0.0
 11
150.624873
 21
286.389375
 31
0.0
  0
LINE
  5
457
330
44F
100
AcDbEntity
  8
LC-003-005-----0
 62
     7
370
    25
100
AcDbLine
 10
147.69124
 20
284.021427
 30
0.0
 11
150.624873
 21
286.955061
 31
0.0
  0
LINE
  5
458
330
44F
100
AcDbEntity
  8
LC-003-005-----0
 62
     7
370
    25
100
AcDbLine
 10
147.125554
 20
284.021427
 30
0.0
 11
150.624873
 21
287.520746
 31
0.0
  0
LINE
  5
459
330
44F
100
AcDbEntity
  8
LC-003-005-----0
 62
     7
370
    25
100
AcDbLine
 10
146.559869
 20
284.021427
 30
0.0
 11
150.624873
 21
288.086431
 31
0.0
  0
LINE
  5
45A
330
44F
100
AcDbEntity
  8
LC-003-005-----0
 62
     7
370
    25
100
AcDbLine
 10
145.994183
 20
284.021427
 30
0.0
 11
150.624873
 21
288.652117
 31
0.0
  0
LINE
  5
45B
330
44F
100
AcDbEntity
  8
LC-003-005-----0
 62
     7
370
    25
100
AcDbLine
 10
145.428498
 20
284.021427
 30
0.0
 11
150.128498
 21
288.721427
 31
0.0
  0
LINE
  5
45C
330
44F
100
AcDbEntity
  8
LC-003-005-----0
 62
     7
370
    25
100
AcDbLine
 10
144.862813
 20
284.021427
 30
0.0
 11
149.562813
 21
288.721427
 31
0.0
  0
LINE
  5
45D
330
44F
100
AcDbEntity
  8
LC-003-005-----0
 62
     7
370
    25
100
AcDbLine
 10
144.297127
 20
284.021427
 30
0.0
 11
148.997127
 21
288.721427
 31
0.0
  0
LINE
  5
45E
330
44F
100
AcDbEntity
  8
LC-003-005-----0
 62
     7
370
    25
100
AcDbLine
 10
143.731442
 20
284.021427
 30
0.0
 11
148.431442
 21
288.721427
 31
0.0
  0
LINE
  5
45F
330
44F
100
AcDbEntity
  8
LC-003-005-----0
 62
     7
370
    25
100
AcDbLine
 10
143.165756
 20
284.021427
 30
0.0
 11
147.865756
 21
288.721427
 31
0.0
  0
LINE
  5
460
330
44F
100
AcDbEntity
  8
LC-003-005-----0
 62
     7
370
    25
100
AcDbLine
 10
142.600071
 20
284.021427
 30
0.0
 11
147.300071
 21
288.721427
 31
0.0
  0
LINE
  5
461
330
44F
100
AcDbEntity
  8
LC-003-005-----0
 62
     7
370
    25
100
AcDbLine
 10
142.034385
 20
284.021427
 30
0.0
 11
146.734385
 21
288.721427
 31
0.0
  0
LINE
  5
462
330
44F
100
AcDbEntity
  8
LC-003-005-----0
 62
     7
370
    25
100
AcDbLine
 10
141.4687
 20
284.021427
 30
0.0
 11
146.1687
 21
288.721427
 31
0.0
  0
LINE
  5
463
330
44F
100
AcDbEntity
  8
LC-003-005-----0
 62
     7
370
    25
100
AcDbLine
 10
140.903015
 20
284.021427
 30
0.0
 11
145.603015
 21
288.721427
 31
0.0
  0
LINE
  5
464
330
44F
100
AcDbEntity
  8
LC-003-005-----0
 62
     7
370
    25
100
AcDbLine
 10
140.624873
 20
284.308971
 30
0.0
 11
145.037329
 21
288.721427
 31
0.0
  0
LINE
  5
465
330
44F
100
AcDbEntity
  8
LC-003-005-----0
 62
     7
370
    25
100
AcDbLine
 10
140.624873
 20
284.874657
 30
0.0
 11
144.471644
 21
288.721427
 31
0.0
  0
LINE
  5
466
330
44F
100
AcDbEntity
  8
LC-003-005-----0
 62
     7
370
    25
100
AcDbLine
 10
140.624873
 20
285.440342
 30
0.0
 11
143.905958
 21
288.721427
 31
0.0
  0
LINE
  5
467
330
44F
100
AcDbEntity
  8
LC-003-005-----0
 62
     7
370
    25
100
AcDbLine
 10
140.624873
 20
286.006027
 30
0.0
 11
143.340273
 21
288.721427
 31
0.0
  0
LINE
  5
468
330
44F
100
AcDbEntity
  8
LC-003-005-----0
 62
     7
370
    25
100
AcDbLine
 10
140.624873
 20
286.571713
 30
0.0
 11
142.774587
 21
288.721427
 31
0.0
  0
LINE
  5
469
330
44F
100
AcDbEntity
  8
LC-003-005-----0
 62
     7
370
    25
100
AcDbLine
 10
140.624873
 20
287.137398
 30
0.0
 11
142.208902
 21
288.721427
 31
0.0
  0
LINE
  5
46A
330
44F
100
AcDbEntity
  8
LC-003-005-----0
 62
     7
370
    25
100
AcDbLine
 10
140.624873
 20
287.703084
 30
0.0
 11
141.643217
 21
288.721427
 31
0.0
  0
LINE
  5
46B
330
44F
100
AcDbEntity
  8
LC-003-005-----0
 62
     7
370
    25
100
AcDbLine
 10
140.624873
 20
288.268769
 30
0.0
 11
141.077531
 21
288.721427
 31
0.0
  0
ENDBLK
  5
451
330
44F
100
AcDbEntity
  8
0
100
AcDbBlockEnd
  0
BLOCK
  5
478
330
477
100
AcDbEntity
  8
0
100
AcDbBlockBegin
  2
*X558
 70
     1
 71
     0
 10
0.0
 20
0.0
 30
0.0
  3
*X558
  1

  4
*X5
  0
LINE
  5
47A
330
477
100
AcDbEntity
  8
LC-003-005-----0
 62
     7
370
    25
100
AcDbLine
 10
170.318657
 20
284.021427
 30
0.0
 11
170.624873
 21
284.327644
 31
0.0
  0
LINE
  5
47B
330
477
100
AcDbEntity
  8
LC-003-005-----0
 62
     7
370
    25
100
AcDbLine
 10
169.752971
 20
284.021427
 30
0.0
 11
170.624873
 21
284.893329
 31
0.0
  0
LINE
  5
47C
330
477
100
AcDbEntity
  8
LC-003-005-----0
 62
     7
370
    25
100
AcDbLine
 10
169.187286
 20
284.021427
 30
0.0
 11
170.624873
 21
285.459014
 31
0.0
  0
LINE
  5
47D
330
477
100
AcDbEntity
  8
LC-003-005-----0
 62
     7
370
    25
100
AcDbLine
 10
168.6216
 20
284.021427
 30
0.0
 11
170.624873
 21
286.0247
 31
0.0
  0
LINE
  5
47E
330
477
100
AcDbEntity
  8
LC-003-005-----0
 62
     7
370
    25
100
AcDbLine
 10
168.055915
 20
284.021427
 30
0.0
 11
170.624873
 21
286.590385
 31
0.0
  0
LINE
  5
47F
330
477
100
AcDbEntity
  8
LC-003-005-----0
 62
     7
370
    25
100
AcDbLine
 10
167.49023
 20
284.021427
 30
0.0
 11
170.624873
 21
287.156071
 31
0.0
  0
LINE
  5
480
330
477
100
AcDbEntity
  8
LC-003-005-----0
 62
     7
370
    25
100
AcDbLine
 10
166.924544
 20
284.021427
 30
0.0
 11
170.624873
 21
287.721756
 31
0.0
  0
LINE
  5
481
330
477
100
AcDbEntity
  8
LC-003-005-----0
 62
     7
370
    25
100
AcDbLine
 10
166.358859
 20
284.021427
 30
0.0
 11
170.624873
 21
288.287442
 31
0.0
  0
LINE
  5
482
330
477
100
AcDbEntity
  8
LC-003-005-----0
 62
     7
370
    25
100
AcDbLine
 10
165.793173
 20
284.021427
 30
0.0
 11
170.366176
 21
288.59443
 31
0.0
  0
LINE
  5
483
330
477
100
AcDbEntity
  8
LC-003-005-----0
 62
     7
370
    25
100
AcDbLine
 10
165.227488
 20
284.021427
 30
0.0
 11
169.818639
 21
288.612578
 31
0.0
  0
LINE
  5
484
330
477
100
AcDbEntity
  8
LC-003-005-----0
 62
     7
370
    25
100
AcDbLine
 10
164.661802
 20
284.021427
 30
0.0
 11
169.271101
 21
288.630726
 31
0.0
  0
LINE
  5
485
330
477
100
AcDbEntity
  8
LC-003-005-----0
 62
     7
370
    25
100
AcDbLine
 10
164.096117
 20
284.021427
 30
0.0
 11
168.723564
 21
288.648874
 31
0.0
  0
LINE
  5
486
330
477
100
AcDbEntity
  8
LC-003-005-----0
 62
     7
370
    25
100
AcDbLine
 10
163.530432
 20
284.021427
 30
0.0
 11
168.176027
 21
288.667022
 31
0.0
  0
LINE
  5
487
330
477
100
AcDbEntity
  8
LC-003-005-----0
 62
     7
370
    25
100
AcDbLine
 10
162.964746
 20
284.021427
 30
0.0
 11
167.628489
 21
288.68517
 31
0.0
  0
LINE
  5
488
330
477
100
AcDbEntity
  8
LC-003-005-----0
 62
     7
370
    25
100
AcDbLine
 10
162.399061
 20
284.021427
 30
0.0
 11
167.080952
 21
288.703318
 31
0.0
  0
LINE
  5
489
330
477
100
AcDbEntity
  8
LC-003-005-----0
 62
     7
370
    25
100
AcDbLine
 10
161.833375
 20
284.021427
 30
0.0
 11
166.533375
 21
288.721427
 31
0.0
  0
LINE
  5
48A
330
477
100
AcDbEntity
  8
LC-003-005-----0
 62
     7
370
    25
100
AcDbLine
 10
161.26769
 20
284.021427
 30
0.0
 11
165.96769
 21
288.721427
 31
0.0
  0
LINE
  5
48B
330
477
100
AcDbEntity
  8
LC-003-005-----0
 62
     7
370
    25
100
AcDbLine
 10
160.702004
 20
284.021427
 30
0.0
 11
165.402004
 21
288.721427
 31
0.0
  0
LINE
  5
48C
330
477
100
AcDbEntity
  8
LC-003-005-----0
 62
     7
370
    25
100
AcDbLine
 10
160.624873
 20
284.509981
 30
0.0
 11
164.836319
 21
288.721427
 31
0.0
  0
LINE
  5
48D
330
477
100
AcDbEntity
  8
LC-003-005-----0
 62
     7
370
    25
100
AcDbLine
 10
160.624873
 20
285.075667
 30
0.0
 11
164.270634
 21
288.721427
 31
0.0
  0
LINE
  5
48E
330
477
100
AcDbEntity
  8
LC-003-005-----0
 62
     7
370
    25
100
AcDbLine
 10
160.624873
 20
285.641352
 30
0.0
 11
163.704948
 21
288.721427
 31
0.0
  0
LINE
  5
48F
330
477
100
AcDbEntity
  8
LC-003-005-----0
 62
     7
370
    25
100
AcDbLine
 10
160.624873
 20
286.207037
 30
0.0
 11
163.139263
 21
288.721427
 31
0.0
  0
LINE
  5
490
330
477
100
AcDbEntity
  8
LC-003-005-----0
 62
     7
370
    25
100
AcDbLine
 10
160.624873
 20
286.772723
 30
0.0
 11
162.573577
 21
288.721427
 31
0.0
  0
LINE
  5
491
330
477
100
AcDbEntity
  8
LC-003-005-----0
 62
     7
370
    25
100
AcDbLine
 10
160.624873
 20
287.338408
 30
0.0
 11
162.007892
 21
288.721427
 31
0.0
  0
LINE
  5
492
330
477
100
AcDbEntity
  8
LC-003-005-----0
 62
     7
370
    25
100
AcDbLine
 10
160.624873
 20
287.904094
 30
0.0
 11
161.442206
 21
288.721427
 31
0.0
  0
LINE
  5
493
330
477
100
AcDbEntity
  8
LC-003-005-----0
 62
     7
370
    25
100
AcDbLine
 10
160.624873
 20
288.469779
 30
0.0
 11
160.876521
 21
288.721427
 31
0.0
  0
ENDBLK
  5
479
330
477
100
AcDbEntity
  8
0
100
AcDbBlockEnd
  0
BLOCK
  5
497
330
496
100
AcDbEntity
  8
0
100
AcDbBlockBegin
  2
*X659
 70
     1
 71
     0
 10
0.0
 20
0.0
 30
0.0
  3
*X659
  1

  4
*X6
  0
LINE
  5
499
330
496
100
AcDbEntity
  8
LC-003-005-----0
 62
     7
370
    25
100
AcDbLine
 10
190.309327
 20
279.121938
 30
0.0
 11
190.624873
 21
279.437485
 31
0.0
  0
LINE
  5
49A
330
496
100
AcDbEntity
  8
LC-003-005-----0
 62
     7
370
    25
100
AcDbLine
 10
189.876094
 20
279.254391
 30
0.0
 11
190.624873
 21
280.00317
 31
0.0
  0
LINE
  5
49B
330
496
100
AcDbEntity
  8
LC-003-005-----0
 62
     7
370
    25
100
AcDbLine
 10
189.442861
 20
279.386843
 30
0.0
 11
190.624873
 21
280.568856
 31
0.0
  0
LINE
  5
49C
330
496
100
AcDbEntity
  8
LC-003-005-----0
 62
     7
370
    25
100
AcDbLine
 10
189.009628
 20
279.519296
 30
0.0
 11
190.624873
 21
281.134541
 31
0.0
  0
LINE
  5
49D
330
496
100
AcDbEntity
  8
LC-003-005-----0
 62
     7
370
    25
100
AcDbLine
 10
188.576395
 20
279.651749
 30
0.0
 11
190.624873
 21
281.700227
 31
0.0
  0
LINE
  5
49E
330
496
100
AcDbEntity
  8
LC-003-005-----0
 62
     7
370
    25
100
AcDbLine
 10
188.143162
 20
279.784201
 30
0.0
 11
190.624873
 21
282.265912
 31
0.0
  0
LINE
  5
49F
330
496
100
AcDbEntity
  8
LC-003-005-----0
 62
     7
370
    25
100
AcDbLine
 10
187.709929
 20
279.916654
 30
0.0
 11
190.624873
 21
282.831597
 31
0.0
  0
LINE
  5
4A0
330
496
100
AcDbEntity
  8
LC-003-005-----0
 62
     7
370
    25
100
AcDbLine
 10
187.276697
 20
280.049106
 30
0.0
 11
190.624873
 21
283.397283
 31
0.0
  0
LINE
  5
4A1
330
496
100
AcDbEntity
  8
LC-003-005-----0
 62
     7
370
    25
100
AcDbLine
 10
186.843464
 20
280.181559
 30
0.0
 11
190.607449
 21
283.945544
 31
0.0
  0
LINE
  5
4A2
330
496
100
AcDbEntity
  8
LC-003-005-----0
 62
     7
370
    25
100
AcDbLine
 10
186.410231
 20
280.314011
 30
0.0
 11
190.174216
 21
284.077997
 31
0.0
  0
LINE
  5
4A3
330
496
100
AcDbEntity
  8
LC-003-005-----0
 62
     7
370
    25
100
AcDbLine
 10
185.976998
 20
280.446464
 30
0.0
 11
189.740983
 21
284.210449
 31
0.0
  0
LINE
  5
4A4
330
496
100
AcDbEntity
  8
LC-003-005-----0
 62
     7
370
    25
100
AcDbLine
 10
185.543765
 20
280.578917
 30
0.0
 11
189.307751
 21
284.342902
 31
0.0
  0
LINE
  5
4A5
330
496
100
AcDbEntity
  8
LC-003-005-----0
 62
     7
370
    25
100
AcDbLine
 10
185.110532
 20
280.711369
 30
0.0
 11
188.874518
 21
284.475355
 31
0.0
  0
LINE
  5
4A6
330
496
100
AcDbEntity
  8
LC-003-005-----0
 62
     7
370
    25
100
AcDbLine
 10
184.677299
 20
280.843822
 30
0.0
 11
188.441285
 21
284.607807
 31
0.0
  0
LINE
  5
4A7
330
496
100
AcDbEntity
  8
LC-003-005-----0
 62
     7
370
    25
100
AcDbLine
 10
184.244067
 20
280.976274
 30
0.0
 11
188.008052
 21
284.74026
 31
0.0
  0
LINE
  5
4A8
330
496
100
AcDbEntity
  8
LC-003-005-----0
 62
     7
370
    25
100
AcDbLine
 10
183.810834
 20
281.108727
 30
0.0
 11
187.574819
 21
284.872712
 31
0.0
  0
LINE
  5
4A9
330
496
100
AcDbEntity
  8
LC-003-005-----0
 62
     7
370
    25
100
AcDbLine
 10
183.377601
 20
281.241179
 30
0.0
 11
187.141586
 21
285.005165
 31
0.0
  0
LINE
  5
4AA
330
496
100
AcDbEntity
  8
LC-003-005-----0
 62
     7
370
    25
100
AcDbLine
 10
182.944368
 20
281.373632
 30
0.0
 11
186.708353
 21
285.137617
 31
0.0
  0
LINE
  5
4AB
330
496
100
AcDbEntity
  8
LC-003-005-----0
 62
     7
370
    25
100
AcDbLine
 10
182.511135
 20
281.506085
 30
0.0
 11
186.275121
 21
285.27007
 31
0.0
  0
LINE
  5
4AC
330
496
100
AcDbEntity
  8
LC-003-005-----0
 62
     7
370
    25
100
AcDbLine
 10
182.077902
 20
281.638537
 30
0.0
 11
185.841888
 21
285.402523
 31
0.0
  0
LINE
  5
4AD
330
496
100
AcDbEntity
  8
LC-003-005-----0
 62
     7
370
    25
100
AcDbLine
 10
181.644669
 20
281.77099
 30
0.0
 11
185.408655
 21
285.534975
 31
0.0
  0
LINE
  5
4AE
330
496
100
AcDbEntity
  8
LC-003-005-----0
 62
     7
370
    25
100
AcDbLine
 10
181.211437
 20
281.903442
 30
0.0
 11
184.975422
 21
285.667428
 31
0.0
  0
LINE
  5
4AF
330
496
100
AcDbEntity
  8
LC-003-005-----0
 62
     7
370
    25
100
AcDbLine
 10
180.778204
 20
282.035895
 30
0.0
 11
184.542189
 21
285.79988
 31
0.0
  0
LINE
  5
4B0
330
496
100
AcDbEntity
  8
LC-003-005-----0
 62
     7
370
    25
100
AcDbLine
 10
180.624873
 20
282.44825
 30
0.0
 11
184.108956
 21
285.932333
 31
0.0
  0
LINE
  5
4B1
330
496
100
AcDbEntity
  8
LC-003-005-----0
 62
     7
370
    25
100
AcDbLine
 10
180.624873
 20
283.013935
 30
0.0
 11
183.675723
 21
286.064785
 31
0.0
  0
LINE
  5
4B2
330
496
100
AcDbEntity
  8
LC-003-005-----0
 62
     7
370
    25
100
AcDbLine
 10
180.624873
 20
283.57962
 30
0.0
 11
183.242491
 21
286.197238
 31
0.0
  0
LINE
  5
4B3
330
496
100
AcDbEntity
  8
LC-003-005-----0
 62
     7
370
    25
100
AcDbLine
 10
180.624873
 20
284.145306
 30
0.0
 11
182.809258
 21
286.329691
 31
0.0
  0
LINE
  5
4B4
330
496
100
AcDbEntity
  8
LC-003-005-----0
 62
     7
370
    25
100
AcDbLine
 10
180.624873
 20
284.710991
 30
0.0
 11
182.376025
 21
286.462143
 31
0.0
  0
LINE
  5
4B5
330
496
100
AcDbEntity
  8
LC-003-005-----0
 62
     7
370
    25
100
AcDbLine
 10
180.624873
 20
285.276677
 30
0.0
 11
181.942792
 21
286.594596
 31
0.0
  0
LINE
  5
4B6
330
496
100
AcDbEntity
  8
LC-003-005-----0
 62
     7
370
    25
100
AcDbLine
 10
180.624873
 20
285.842362
 30
0.0
 11
181.509559
 21
286.727048
 31
0.0
  0
LINE
  5
4B7
330
496
100
AcDbEntity
  8
LC-003-005-----0
 62
     7
370
    25
100
AcDbLine
 10
180.624873
 20
286.408048
 30
0.0
 11
181.076326
 21
286.859501
 31
0.0
  0
LINE
  5
4B8
330
496
100
AcDbEntity
  8
LC-003-005-----0
 62
     7
370
    25
100
AcDbLine
 10
180.624873
 20
286.973733
 30
0.0
 11
180.643094
 21
286.991953
 31
0.0
  0
ENDBLK
  5
498
330
496
100
AcDbEntity
  8
0
100
AcDbBlockEnd
  0
BLOCK
  5
4C1
330
4C0
100
AcDbEntity
  8
0
100
AcDbBlockBegin
  2
*X760
 70
     1
 71
     0
 10
0.0
 20
0.0
 30
0.0
  3
*X760
  1

  4
*X7
  0
LINE
  5
4C3
330
4C0
100
AcDbEntity
  8
LC-003-005-----0
 62
     7
370
    25
100
AcDbLine
 10
478.051528
 20
284.021427
 30
0.0
 11
478.261265
 21
284.231165
 31
0.0
  0
LINE
  5
4C4
330
4C0
100
AcDbEntity
  8
LC-003-005-----0
 62
     7
370
    25
100
AcDbLine
 10
477.485842
 20
284.021427
 30
0.0
 11
478.261265
 21
284.79685
 31
0.0
  0
LINE
  5
4C5
330
4C0
100
AcDbEntity
  8
LC-003-005-----0
 62
     7
370
    25
100
AcDbLine
 10
476.920157
 20
284.021427
 30
0.0
 11
478.261265
 21
285.362536
 31
0.0
  0
LINE
  5
4C6
330
4C0
100
AcDbEntity
  8
LC-003-005-----0
 62
     7
370
    25
100
AcDbLine
 10
476.354472
 20
284.021427
 30
0.0
 11
478.261265
 21
285.928221
 31
0.0
  0
LINE
  5
4C7
330
4C0
100
AcDbEntity
  8
LC-003-005-----0
 62
     7
370
    25
100
AcDbLine
 10
475.788786
 20
284.021427
 30
0.0
 11
478.261265
 21
286.493906
 31
0.0
  0
LINE
  5
4C8
330
4C0
100
AcDbEntity
  8
LC-003-005-----0
 62
     7
370
    25
100
AcDbLine
 10
475.223101
 20
284.021427
 30
0.0
 11
478.261265
 21
287.059592
 31
0.0
  0
LINE
  5
4C9
330
4C0
100
AcDbEntity
  8
LC-003-005-----0
 62
     7
370
    25
100
AcDbLine
 10
474.657415
 20
284.021427
 30
0.0
 11
478.261265
 21
287.625277
 31
0.0
  0
LINE
  5
4CA
330
4C0
100
AcDbEntity
  8
LC-003-005-----0
 62
     7
370
    25
100
AcDbLine
 10
474.09173
 20
284.021427
 30
0.0
 11
478.261265
 21
288.190963
 31
0.0
  0
LINE
  5
4CB
330
4C0
100
AcDbEntity
  8
LC-003-005-----0
 62
     7
370
    25
100
AcDbLine
 10
473.526044
 20
284.021427
 30
0.0
 11
478.226044
 21
288.721427
 31
0.0
  0
LINE
  5
4CC
330
4C0
100
AcDbEntity
  8
LC-003-005-----0
 62
     7
370
    25
100
AcDbLine
 10
472.960359
 20
284.021427
 30
0.0
 11
477.660359
 21
288.721427
 31
0.0
  0
LINE
  5
4CD
330
4C0
100
AcDbEntity
  8
LC-003-005-----0
 62
     7
370
    25
100
AcDbLine
 10
472.394674
 20
284.021427
 30
0.0
 11
477.094674
 21
288.721427
 31
0.0
  0
LINE
  5
4CE
330
4C0
100
AcDbEntity
  8
LC-003-005-----0
 62
     7
370
    25
100
AcDbLine
 10
471.828988
 20
284.021427
 30
0.0
 11
476.528988
 21
288.721427
 31
0.0
  0
LINE
  5
4CF
330
4C0
100
AcDbEntity
  8
LC-003-005-----0
 62
     7
370
    25
100
AcDbLine
 10
471.263303
 20
284.021427
 30
0.0
 11
475.963303
 21
288.721427
 31
0.0
  0
LINE
  5
4D0
330
4C0
100
AcDbEntity
  8
LC-003-005-----0
 62
     7
370
    25
100
AcDbLine
 10
470.697617
 20
284.021427
 30
0.0
 11
475.397617
 21
288.721427
 31
0.0
  0
LINE
  5
4D1
330
4C0
100
AcDbEntity
  8
LC-003-005-----0
 62
     7
370
    25
100
AcDbLine
 10
470.131932
 20
284.021427
 30
0.0
 11
474.831932
 21
288.721427
 31
0.0
  0
LINE
  5
4D2
330
4C0
100
AcDbEntity
  8
LC-003-005-----0
 62
     7
370
    25
100
AcDbLine
 10
469.566246
 20
284.021427
 30
0.0
 11
474.266246
 21
288.721427
 31
0.0
  0
LINE
  5
4D3
330
4C0
100
AcDbEntity
  8
LC-003-005-----0
 62
     7
370
    25
100
AcDbLine
 10
469.000561
 20
284.021427
 30
0.0
 11
473.700561
 21
288.721427
 31
0.0
  0
LINE
  5
4D4
330
4C0
100
AcDbEntity
  8
LC-003-005-----0
 62
     7
370
    25
100
AcDbLine
 10
468.434876
 20
284.021427
 30
0.0
 11
473.134876
 21
288.721427
 31
0.0
  0
LINE
  5
4D5
330
4C0
100
AcDbEntity
  8
LC-003-005-----0
 62
     7
370
    25
100
AcDbLine
 10
468.261265
 20
284.413502
 30
0.0
 11
472.56919
 21
288.721427
 31
0.0
  0
LINE
  5
4D6
330
4C0
100
AcDbEntity
  8
LC-003-005-----0
 62
     7
370
    25
100
AcDbLine
 10
468.261265
 20
284.979188
 30
0.0
 11
472.003505
 21
288.721427
 31
0.0
  0
LINE
  5
4D7
330
4C0
100
AcDbEntity
  8
LC-003-005-----0
 62
     7
370
    25
100
AcDbLine
 10
468.261265
 20
285.544873
 30
0.0
 11
471.437819
 21
288.721427
 31
0.0
  0
LINE
  5
4D8
330
4C0
100
AcDbEntity
  8
LC-003-005-----0
 62
     7
370
    25
100
AcDbLine
 10
468.261265
 20
286.110559
 30
0.0
 11
470.872134
 21
288.721427
 31
0.0
  0
LINE
  5
4D9
330
4C0
100
AcDbEntity
  8
LC-003-005-----0
 62
     7
370
    25
100
AcDbLine
 10
468.261265
 20
286.676244
 30
0.0
 11
470.306448
 21
288.721427
 31
0.0
  0
LINE
  5
4DA
330
4C0
100
AcDbEntity
  8
LC-003-005-----0
 62
     7
370
    25
100
AcDbLine
 10
468.261265
 20
287.241929
 30
0.0
 11
469.740763
 21
288.721427
 31
0.0
  0
LINE
  5
4DB
330
4C0
100
AcDbEntity
  8
LC-003-005-----0
 62
     7
370
    25
100
AcDbLine
 10
468.261265
 20
287.807615
 30
0.0
 11
469.175078
 21
288.721427
 31
0.0
  0
LINE
  5
4DC
330
4C0
100
AcDbEntity
  8
LC-003-005-----0
 62
     7
370
    25
100
AcDbLine
 10
468.261265
 20
288.3733
 30
0.0
 11
468.609392
 21
288.721427
 31
0.0
  0
ENDBLK
  5
4C2
330
4C0
100
AcDbEntity
  8
0
100
AcDbBlockEnd
  0
BLOCK
  5
4E0
330
4DF
100
AcDbEntity
  8
0
100
AcDbBlockBegin
  2
*X861
 70
     1
 71
     0
 10
0.0
 20
0.0
 30
0.0
  3
*X861
  1

  4
*X8
  0
LINE
  5
4E2
330
4DF
100
AcDbEntity
  8
LC-003-005-----0
 62
     7
370
    25
100
AcDbLine
 10
458.252538
 20
284.021427
 30
0.0
 11
458.261265
 21
284.030155
 31
0.0
  0
LINE
  5
4E3
330
4DF
100
AcDbEntity
  8
LC-003-005-----0
 62
     7
370
    25
100
AcDbLine
 10
457.686853
 20
284.021427
 30
0.0
 11
458.261265
 21
284.59584
 31
0.0
  0
LINE
  5
4E4
330
4DF
100
AcDbEntity
  8
LC-003-005-----0
 62
     7
370
    25
100
AcDbLine
 10
457.121167
 20
284.021427
 30
0.0
 11
458.261265
 21
285.161525
 31
0.0
  0
LINE
  5
4E5
330
4DF
100
AcDbEntity
  8
LC-003-005-----0
 62
     7
370
    25
100
AcDbLine
 10
456.555482
 20
284.021427
 30
0.0
 11
458.261265
 21
285.727211
 31
0.0
  0
LINE
  5
4E6
330
4DF
100
AcDbEntity
  8
LC-003-005-----0
 62
     7
370
    25
100
AcDbLine
 10
455.989796
 20
284.021427
 30
0.0
 11
458.261265
 21
286.292896
 31
0.0
  0
LINE
  5
4E7
330
4DF
100
AcDbEntity
  8
LC-003-005-----0
 62
     7
370
    25
100
AcDbLine
 10
455.424111
 20
284.021427
 30
0.0
 11
458.261265
 21
286.858582
 31
0.0
  0
LINE
  5
4E8
330
4DF
100
AcDbEntity
  8
LC-003-005-----0
 62
     7
370
    25
100
AcDbLine
 10
454.858425
 20
284.021427
 30
0.0
 11
458.261265
 21
287.424267
 31
0.0
  0
LINE
  5
4E9
330
4DF
100
AcDbEntity
  8
LC-003-005-----0
 62
     7
370
    25
100
AcDbLine
 10
454.29274
 20
284.021427
 30
0.0
 11
458.261265
 21
287.989953
 31
0.0
  0
LINE
  5
4EA
330
4DF
100
AcDbEntity
  8
LC-003-005-----0
 62
     7
370
    25
100
AcDbLine
 10
453.727055
 20
284.021427
 30
0.0
 11
458.261265
 21
288.555638
 31
0.0
  0
LINE
  5
4EB
330
4DF
100
AcDbEntity
  8
LC-003-005-----0
 62
     7
370
    25
100
AcDbLine
 10
453.161369
 20
284.021427
 30
0.0
 11
457.861369
 21
288.721427
 31
0.0
  0
LINE
  5
4EC
330
4DF
100
AcDbEntity
  8
LC-003-005-----0
 62
     7
370
    25
100
AcDbLine
 10
452.595684
 20
284.021427
 30
0.0
 11
457.295684
 21
288.721427
 31
0.0
  0
LINE
  5
4ED
330
4DF
100
AcDbEntity
  8
LC-003-005-----0
 62
     7
370
    25
100
AcDbLine
 10
452.029998
 20
284.021427
 30
0.0
 11
456.729998
 21
288.721427
 31
0.0
  0
LINE
  5
4EE
330
4DF
100
AcDbEntity
  8
LC-003-005-----0
 62
     7
370
    25
100
AcDbLine
 10
451.464313
 20
284.021427
 30
0.0
 11
456.164313
 21
288.721427
 31
0.0
  0
LINE
  5
4EF
330
4DF
100
AcDbEntity
  8
LC-003-005-----0
 62
     7
370
    25
100
AcDbLine
 10
450.898627
 20
284.021427
 30
0.0
 11
455.598627
 21
288.721427
 31
0.0
  0
LINE
  5
4F0
330
4DF
100
AcDbEntity
  8
LC-003-005-----0
 62
     7
370
    25
100
AcDbLine
 10
450.332942
 20
284.021427
 30
0.0
 11
455.032942
 21
288.721427
 31
0.0
  0
LINE
  5
4F1
330
4DF
100
AcDbEntity
  8
LC-003-005-----0
 62
     7
370
    25
100
AcDbLine
 10
449.767257
 20
284.021427
 30
0.0
 11
454.467257
 21
288.721427
 31
0.0
  0
LINE
  5
4F2
330
4DF
100
AcDbEntity
  8
LC-003-005-----0
 62
     7
370
    25
100
AcDbLine
 10
449.201571
 20
284.021427
 30
0.0
 11
453.901571
 21
288.721427
 31
0.0
  0
LINE
  5
4F3
330
4DF
100
AcDbEntity
  8
LC-003-005-----0
 62
     7
370
    25
100
AcDbLine
 10
448.635886
 20
284.021427
 30
0.0
 11
453.335886
 21
288.721427
 31
0.0
  0
LINE
  5
4F4
330
4DF
100
AcDbEntity
  8
LC-003-005-----0
 62
     7
370
    25
100
AcDbLine
 10
448.261265
 20
284.212492
 30
0.0
 11
452.7702
 21
288.721427
 31
0.0
  0
LINE
  5
4F5
330
4DF
100
AcDbEntity
  8
LC-003-005-----0
 62
     7
370
    25
100
AcDbLine
 10
448.261265
 20
284.778178
 30
0.0
 11
452.204515
 21
288.721427
 31
0.0
  0
LINE
  5
4F6
330
4DF
100
AcDbEntity
  8
LC-003-005-----0
 62
     7
370
    25
100
AcDbLine
 10
448.261265
 20
285.343863
 30
0.0
 11
451.638829
 21
288.721427
 31
0.0
  0
LINE
  5
4F7
330
4DF
100
AcDbEntity
  8
LC-003-005-----0
 62
     7
370
    25
100
AcDbLine
 10
448.261265
 20
285.909548
 30
0.0
 11
451.073144
 21
288.721427
 31
0.0
  0
LINE
  5
4F8
330
4DF
100
AcDbEntity
  8
LC-003-005-----0
 62
     7
370
    25
100
AcDbLine
 10
448.261265
 20
286.475234
 30
0.0
 11
450.507459
 21
288.721427
 31
0.0
  0
LINE
  5
4F9
330
4DF
100
AcDbEntity
  8
LC-003-005-----0
 62
     7
370
    25
100
AcDbLine
 10
448.261265
 20
287.040919
 30
0.0
 11
449.941773
 21
288.721427
 31
0.0
  0
LINE
  5
4FA
330
4DF
100
AcDbEntity
  8
LC-003-005-----0
 62
     7
370
    25
100
AcDbLine
 10
448.261265
 20
287.606605
 30
0.0
 11
449.376088
 21
288.721427
 31
0.0
  0
LINE
  5
4FB
330
4DF
100
AcDbEntity
  8
LC-003-005-----0
 62
     7
370
    25
100
AcDbLine
 10
448.261265
 20
288.17229
 30
0.0
 11
448.810402
 21
288.721427
 31
0.0
  0
ENDBLK
  5
4E1
330
4DF
100
AcDbEntity
  8
0
100
AcDbBlockEnd
  0
BLOCK
  5
4FF
330
4FE
100
AcDbEntity
  8
0
100
AcDbBlockBegin
  2
*X962
 70
     1
 71
     0
 10
0.0
 20
0.0
 30
0.0
  3
*X962
  1

  4
*X9
  0
LINE
  5
501
330
4FE
100
AcDbEntity
  8
LC-003-005-----0
 62
     7
370
    25
100
AcDbLine
 10
437.887863
 20
284.021427
 30
0.0
 11
438.261265
 21
284.39483
 31
0.0
  0
LINE
  5
502
330
4FE
100
AcDbEntity
  8
LC-003-005-----0
 62
     7
370
    25
100
AcDbLine
 10
437.322177
 20
284.021427
 30
0.0
 11
438.261265
 21
284.960515
 31
0.0
  0
LINE
  5
503
330
4FE
100
AcDbEntity
  8
LC-003-005-----0
 62
     7
370
    25
100
AcDbLine
 10
436.756492
 20
284.021427
 30
0.0
 11
438.261265
 21
285.526201
 31
0.0
  0
LINE
  5
504
330
4FE
100
AcDbEntity
  8
LC-003-005-----0
 62
     7
370
    25
100
AcDbLine
 10
436.190806
 20
284.021427
 30
0.0
 11
438.261265
 21
286.091886
 31
0.0
  0
LINE
  5
505
330
4FE
100
AcDbEntity
  8
LC-003-005-----0
 62
     7
370
    25
100
AcDbLine
 10
435.625121
 20
284.021427
 30
0.0
 11
438.261265
 21
286.657572
 31
0.0
  0
LINE
  5
506
330
4FE
100
AcDbEntity
  8
LC-003-005-----0
 62
     7
370
    25
100
AcDbLine
 10
435.059436
 20
284.021427
 30
0.0
 11
438.261265
 21
287.223257
 31
0.0
  0
LINE
  5
507
330
4FE
100
AcDbEntity
  8
LC-003-005-----0
 62
     7
370
    25
100
AcDbLine
 10
434.49375
 20
284.021427
 30
0.0
 11
438.261265
 21
287.788942
 31
0.0
  0
LINE
  5
508
330
4FE
100
AcDbEntity
  8
LC-003-005-----0
 62
     7
370
    25
100
AcDbLine
 10
433.928065
 20
284.021427
 30
0.0
 11
438.261265
 21
288.354628
 31
0.0
  0
LINE
  5
509
330
4FE
100
AcDbEntity
  8
LC-003-005-----0
 62
     7
370
    25
100
AcDbLine
 10
433.362379
 20
284.021427
 30
0.0
 11
438.062379
 21
288.721427
 31
0.0
  0
LINE
  5
50A
330
4FE
100
AcDbEntity
  8
LC-003-005-----0
 62
     7
370
    25
100
AcDbLine
 10
432.796694
 20
284.021427
 30
0.0
 11
437.496694
 21
288.721427
 31
0.0
  0
LINE
  5
50B
330
4FE
100
AcDbEntity
  8
LC-003-005-----0
 62
     7
370
    25
100
AcDbLine
 10
432.231008
 20
284.021427
 30
0.0
 11
436.931008
 21
288.721427
 31
0.0
  0
LINE
  5
50C
330
4FE
100
AcDbEntity
  8
LC-003-005-----0
 62
     7
370
    25
100
AcDbLine
 10
431.665323
 20
284.021427
 30
0.0
 11
436.365323
 21
288.721427
 31
0.0
  0
LINE
  5
50D
330
4FE
100
AcDbEntity
  8
LC-003-005-----0
 62
     7
370
    25
100
AcDbLine
 10
431.099638
 20
284.021427
 30
0.0
 11
435.799638
 21
288.721427
 31
0.0
  0
LINE
  5
50E
330
4FE
100
AcDbEntity
  8
LC-003-005-----0
 62
     7
370
    25
100
AcDbLine
 10
430.533952
 20
284.021427
 30
0.0
 11
435.233952
 21
288.721427
 31
0.0
  0
LINE
  5
50F
330
4FE
100
AcDbEntity
  8
LC-003-005-----0
 62
     7
370
    25
100
AcDbLine
 10
429.968267
 20
284.021427
 30
0.0
 11
434.668267
 21
288.721427
 31
0.0
  0
LINE
  5
510
330
4FE
100
AcDbEntity
  8
LC-003-005-----0
 62
     7
370
    25
100
AcDbLine
 10
429.402581
 20
284.021427
 30
0.0
 11
434.102581
 21
288.721427
 31
0.0
  0
LINE
  5
511
330
4FE
100
AcDbEntity
  8
LC-003-005-----0
 62
     7
370
    25
100
AcDbLine
 10
428.836896
 20
284.021427
 30
0.0
 11
433.536896
 21
288.721427
 31
0.0
  0
LINE
  5
512
330
4FE
100
AcDbEntity
  8
LC-003-005-----0
 62
     7
370
    25
100
AcDbLine
 10
428.27121
 20
284.021427
 30
0.0
 11
432.97121
 21
288.721427
 31
0.0
  0
LINE
  5
513
330
4FE
100
AcDbEntity
  8
LC-003-005-----0
 62
     7
370
    25
100
AcDbLine
 10
428.261265
 20
284.577168
 30
0.0
 11
432.405525
 21
288.721427
 31
0.0
  0
LINE
  5
514
330
4FE
100
AcDbEntity
  8
LC-003-005-----0
 62
     7
370
    25
100
AcDbLine
 10
428.261265
 20
285.142853
 30
0.0
 11
431.83984
 21
288.721427
 31
0.0
  0
LINE
  5
515
330
4FE
100
AcDbEntity
  8
LC-003-005-----0
 62
     7
370
    25
100
AcDbLine
 10
428.261265
 20
285.708538
 30
0.0
 11
431.274154
 21
288.721427
 31
0.0
  0
LINE
  5
516
330
4FE
100
AcDbEntity
  8
LC-003-005-----0
 62
     7
370
    25
100
AcDbLine
 10
428.261265
 20
286.274224
 30
0.0
 11
430.708469
 21
288.721427
 31
0.0
  0
LINE
  5
517
330
4FE
100
AcDbEntity
  8
LC-003-005-----0
 62
     7
370
    25
100
AcDbLine
 10
428.261265
 20
286.839909
 30
0.0
 11
430.142783
 21
288.721427
 31
0.0
  0
LINE
  5
518
330
4FE
100
AcDbEntity
  8
LC-003-005-----0
 62
     7
370
    25
100
AcDbLine
 10
428.261265
 20
287.405595
 30
0.0
 11
429.577098
 21
288.721427
 31
0.0
  0
LINE
  5
519
330
4FE
100
AcDbEntity
  8
LC-003-005-----0
 62
     7
370
    25
100
AcDbLine
 10
428.261265
 20
287.97128
 30
0.0
 11
429.011412
 21
288.721427
 31
0.0
  0
LINE
  5
51A
330
4FE
100
AcDbEntity
  8
LC-003-005-----0
 62
     7
370
    25
100
AcDbLine
 10
428.261265
 20
288.536965
 30
0.0
 11
428.445727
 21
288.721427
 31
0.0
  0
ENDBLK
  5
500
330
4FE
100
AcDbEntity
  8
0
100
AcDbBlockEnd
  0
BLOCK
  5
51F
330
51E
100
AcDbEntity
  8
0
100
AcDbBlockBegin
  2
*X1063
 70
     1
 71
     0
 10
0.0
 20
0.0
 30
0.0
  3
*X1063
  1

  4
*X10
  0
LINE
  5
521
330
51E
100
AcDbEntity
  8
LC-003-005-----0
 62
     7
370
    25
100
AcDbLine
 10
418.088873
 20
284.021427
 30
0.0
 11
418.261265
 21
284.19382
 31
0.0
  0
LINE
  5
522
330
51E
100
AcDbEntity
  8
LC-003-005-----0
 62
     7
370
    25
100
AcDbLine
 10
417.523187
 20
284.021427
 30
0.0
 11
418.261265
 21
284.759505
 31
0.0
  0
LINE
  5
523
330
51E
100
AcDbEntity
  8
LC-003-005-----0
 62
     7
370
    25
100
AcDbLine
 10
416.957502
 20
284.021427
 30
0.0
 11
418.261265
 21
285.325191
 31
0.0
  0
LINE
  5
524
330
51E
100
AcDbEntity
  8
LC-003-005-----0
 62
     7
370
    25
100
AcDbLine
 10
416.391816
 20
284.021427
 30
0.0
 11
418.261265
 21
285.890876
 31
0.0
  0
LINE
  5
525
330
51E
100
AcDbEntity
  8
LC-003-005-----0
 62
     7
370
    25
100
AcDbLine
 10
415.826131
 20
284.021427
 30
0.0
 11
418.261265
 21
286.456561
 31
0.0
  0
LINE
  5
526
330
51E
100
AcDbEntity
  8
LC-003-005-----0
 62
     7
370
    25
100
AcDbLine
 10
415.260446
 20
284.021427
 30
0.0
 11
418.261265
 21
287.022247
 31
0.0
  0
LINE
  5
527
330
51E
100
AcDbEntity
  8
LC-003-005-----0
 62
     7
370
    25
100
AcDbLine
 10
414.69476
 20
284.021427
 30
0.0
 11
418.261265
 21
287.587932
 31
0.0
  0
LINE
  5
528
330
51E
100
AcDbEntity
  8
LC-003-005-----0
 62
     7
370
    25
100
AcDbLine
 10
414.129075
 20
284.021427
 30
0.0
 11
418.261265
 21
288.153618
 31
0.0
  0
LINE
  5
529
330
51E
100
AcDbEntity
  8
LC-003-005-----0
 62
     7
370
    25
100
AcDbLine
 10
413.563389
 20
284.021427
 30
0.0
 11
418.261265
 21
288.719303
 31
0.0
  0
LINE
  5
52A
330
51E
100
AcDbEntity
  8
LC-003-005-----0
 62
     7
370
    25
100
AcDbLine
 10
412.997704
 20
284.021427
 30
0.0
 11
417.697704
 21
288.721427
 31
0.0
  0
LINE
  5
52B
330
51E
100
AcDbEntity
  8
LC-003-005-----0
 62
     7
370
    25
100
AcDbLine
 10
412.432019
 20
284.021427
 30
0.0
 11
417.132019
 21
288.721427
 31
0.0
  0
LINE
  5
52C
330
51E
100
AcDbEntity
  8
LC-003-005-----0
 62
     7
370
    25
100
AcDbLine
 10
411.866333
 20
284.021427
 30
0.0
 11
416.566333
 21
288.721427
 31
0.0
  0
LINE
  5
52D
330
51E
100
AcDbEntity
  8
LC-003-005-----0
 62
     7
370
    25
100
AcDbLine
 10
411.300648
 20
284.021427
 30
0.0
 11
416.000648
 21
288.721427
 31
0.0
  0
LINE
  5
52E
330
51E
100
AcDbEntity
  8
LC-003-005-----0
 62
     7
370
    25
100
AcDbLine
 10
410.734962
 20
284.021427
 30
0.0
 11
415.434962
 21
288.721427
 31
0.0
  0
LINE
  5
52F
330
51E
100
AcDbEntity
  8
LC-003-005-----0
 62
     7
370
    25
100
AcDbLine
 10
410.169277
 20
284.021427
 30
0.0
 11
414.869277
 21
288.721427
 31
0.0
  0
LINE
  5
530
330
51E
100
AcDbEntity
  8
LC-003-005-----0
 62
     7
370
    25
100
AcDbLine
 10
409.603591
 20
284.021427
 30
0.0
 11
414.303591
 21
288.721427
 31
0.0
  0
LINE
  5
531
330
51E
100
AcDbEntity
  8
LC-003-005-----0
 62
     7
370
    25
100
AcDbLine
 10
409.037906
 20
284.021427
 30
0.0
 11
413.737906
 21
288.721427
 31
0.0
  0
LINE
  5
532
330
51E
100
AcDbEntity
  8
LC-003-005-----0
 62
     7
370
    25
100
AcDbLine
 10
408.472221
 20
284.021427
 30
0.0
 11
413.172221
 21
288.721427
 31
0.0
  0
LINE
  5
533
330
51E
100
AcDbEntity
  8
LC-003-005-----0
 62
     7
370
    25
100
AcDbLine
 10
408.261265
 20
284.376157
 30
0.0
 11
412.606535
 21
288.721427
 31
0.0
  0
LINE
  5
534
330
51E
100
AcDbEntity
  8
LC-003-005-----0
 62
     7
370
    25
100
AcDbLine
 10
408.261265
 20
284.941843
 30
0.0
 11
412.04085
 21
288.721427
 31
0.0
  0
LINE
  5
535
330
51E
100
AcDbEntity
  8
LC-003-005-----0
 62
     7
370
    25
100
AcDbLine
 10
408.261265
 20
285.507528
 30
0.0
 11
411.475164
 21
288.721427
 31
0.0
  0
LINE
  5
536
330
51E
100
AcDbEntity
  8
LC-003-005-----0
 62
     7
370
    25
100
AcDbLine
 10
408.261265
 20
286.073214
 30
0.0
 11
410.909479
 21
288.721427
 31
0.0
  0
LINE
  5
537
330
51E
100
AcDbEntity
  8
LC-003-005-----0
 62
     7
370
    25
100
AcDbLine
 10
408.261265
 20
286.638899
 30
0.0
 11
410.343793
 21
288.721427
 31
0.0
  0
LINE
  5
538
330
51E
100
AcDbEntity
  8
LC-003-005-----0
 62
     7
370
    25
100
AcDbLine
 10
408.261265
 20
287.204585
 30
0.0
 11
409.778108
 21
288.721427
 31
0.0
  0
LINE
  5
539
330
51E
100
AcDbEntity
  8
LC-003-005-----0
 62
     7
370
    25
100
AcDbLine
 10
408.261265
 20
287.77027
 30
0.0
 11
409.212423
 21
288.721427
 31
0.0
  0
LINE
  5
53A
330
51E
100
AcDbEntity
  8
LC-003-005-----0
 62
     7
370
    25
100
AcDbLine
 10
408.261265
 20
288.335955
 30
0.0
 11
408.646737
 21
288.721427
 31
0.0
  0
ENDBLK
  5
520
330
51E
100
AcDbEntity
  8
0
100
AcDbBlockEnd
  0
BLOCK
  5
545
330
544
100
AcDbEntity
  8
0
100
AcDbBlockBegin
  2
*X1164
 70
     1
 71
     0
 10
0.0
 20
0.0
 30
0.0
  3
*X1164
  1

  4
*X11
  0
LINE
  5
547
330
544
100
AcDbEntity
  8
LC-003-005-----0
 62
     7
370
    25
100
AcDbLine
 10
397.724197
 20
284.021427
 30
0.0
 11
398.261265
 21
284.558495
 31
0.0
  0
LINE
  5
548
330
544
100
AcDbEntity
  8
LC-003-005-----0
 62
     7
370
    25
100
AcDbLine
 10
397.158512
 20
284.021427
 30
0.0
 11
398.261265
 21
285.12418
 31
0.0
  0
LINE
  5
549
330
544
100
AcDbEntity
  8
LC-003-005-----0
 62
     7
370
    25
100
AcDbLine
 10
396.592827
 20
284.021427
 30
0.0
 11
398.261265
 21
285.689866
 31
0.0
  0
LINE
  5
54A
330
544
100
AcDbEntity
  8
LC-003-005-----0
 62
     7
370
    25
100
AcDbLine
 10
396.027141
 20
284.021427
 30
0.0
 11
398.261265
 21
286.255551
 31
0.0
  0
LINE
  5
54B
330
544
100
AcDbEntity
  8
LC-003-005-----0
 62
     7
370
    25
100
AcDbLine
 10
395.461456
 20
284.021427
 30
0.0
 11
398.261265
 21
286.821237
 31
0.0
  0
LINE
  5
54C
330
544
100
AcDbEntity
  8
LC-003-005-----0
 62
     7
370
    25
100
AcDbLine
 10
394.89577
 20
284.021427
 30
0.0
 11
398.261265
 21
287.386922
 31
0.0
  0
LINE
  5
54D
330
544
100
AcDbEntity
  8
LC-003-005-----0
 62
     7
370
    25
100
AcDbLine
 10
394.330085
 20
284.021427
 30
0.0
 11
398.261265
 21
287.952608
 31
0.0
  0
LINE
  5
54E
330
544
100
AcDbEntity
  8
LC-003-005-----0
 62
     7
370
    25
100
AcDbLine
 10
393.764399
 20
284.021427
 30
0.0
 11
398.261265
 21
288.518293
 31
0.0
  0
LINE
  5
54F
330
544
100
AcDbEntity
  8
LC-003-005-----0
 62
     7
370
    25
100
AcDbLine
 10
393.198714
 20
284.021427
 30
0.0
 11
397.898714
 21
288.721427
 31
0.0
  0
LINE
  5
550
330
544
100
AcDbEntity
  8
LC-003-005-----0
 62
     7
370
    25
100
AcDbLine
 10
392.633029
 20
284.021427
 30
0.0
 11
397.333029
 21
288.721427
 31
0.0
  0
LINE
  5
551
330
544
100
AcDbEntity
  8
LC-003-005-----0
 62
     7
370
    25
100
AcDbLine
 10
392.067343
 20
284.021427
 30
0.0
 11
396.767343
 21
288.721427
 31
0.0
  0
LINE
  5
552
330
544
100
AcDbEntity
  8
LC-003-005-----0
 62
     7
370
    25
100
AcDbLine
 10
391.501658
 20
284.021427
 30
0.0
 11
396.201658
 21
288.721427
 31
0.0
  0
LINE
  5
553
330
544
100
AcDbEntity
  8
LC-003-005-----0
 62
     7
370
    25
100
AcDbLine
 10
390.935972
 20
284.021427
 30
0.0
 11
395.635972
 21
288.721427
 31
0.0
  0
LINE
  5
554
330
544
100
AcDbEntity
  8
LC-003-005-----0
 62
     7
370
    25
100
AcDbLine
 10
390.370287
 20
284.021427
 30
0.0
 11
395.070287
 21
288.721427
 31
0.0
  0
LINE
  5
555
330
544
100
AcDbEntity
  8
LC-003-005-----0
 62
     7
370
    25
100
AcDbLine
 10
389.804602
 20
284.021427
 30
0.0
 11
394.504602
 21
288.721427
 31
0.0
  0
LINE
  5
556
330
544
100
AcDbEntity
  8
LC-003-005-----0
 62
     7
370
    25
100
AcDbLine
 10
389.238916
 20
284.021427
 30
0.0
 11
393.938916
 21
288.721427
 31
0.0
  0
LINE
  5
557
330
544
100
AcDbEntity
  8
LC-003-005-----0
 62
     7
370
    25
100
AcDbLine
 10
388.673231
 20
284.021427
 30
0.0
 11
393.373231
 21
288.721427
 31
0.0
  0
LINE
  5
558
330
544
100
AcDbEntity
  8
LC-003-005-----0
 62
     7
370
    25
100
AcDbLine
 10
388.261265
 20
284.175147
 30
0.0
 11
392.807545
 21
288.721427
 31
0.0
  0
LINE
  5
559
330
544
100
AcDbEntity
  8
LC-003-005-----0
 62
     7
370
    25
100
AcDbLine
 10
388.261265
 20
284.740833
 30
0.0
 11
392.2381
 21
288.717667
 31
0.0
  0
LINE
  5
55A
330
544
100
AcDbEntity
  8
LC-003-005-----0
 62
     7
370
    25
100
AcDbLine
 10
388.261265
 20
285.306518
 30
0.0
 11
391.653022
 21
288.698275
 31
0.0
  0
LINE
  5
55B
330
544
100
AcDbEntity
  8
LC-003-005-----0
 62
     7
370
    25
100
AcDbLine
 10
388.261265
 20
285.872204
 30
0.0
 11
391.067944
 21
288.678882
 31
0.0
  0
LINE
  5
55C
330
544
100
AcDbEntity
  8
LC-003-005-----0
 62
     7
370
    25
100
AcDbLine
 10
388.261265
 20
286.437889
 30
0.0
 11
390.482867
 21
288.65949
 31
0.0
  0
LINE
  5
55D
330
544
100
AcDbEntity
  8
LC-003-005-----0
 62
     7
370
    25
100
AcDbLine
 10
388.261265
 20
287.003574
 30
0.0
 11
389.897789
 21
288.640098
 31
0.0
  0
LINE
  5
55E
330
544
100
AcDbEntity
  8
LC-003-005-----0
 62
     7
370
    25
100
AcDbLine
 10
388.261265
 20
287.56926
 30
0.0
 11
389.312711
 21
288.620706
 31
0.0
  0
LINE
  5
55F
330
544
100
AcDbEntity
  8
LC-003-005-----0
 62
     7
370
    25
100
AcDbLine
 10
388.261265
 20
288.134945
 30
0.0
 11
388.727633
 21
288.601313
 31
0.0
  0
ENDBLK
  5
546
330
544
100
AcDbEntity
  8
0
100
AcDbBlockEnd
  0
BLOCK
  5
562
330
561
100
AcDbEntity
  8
0
100
AcDbBlockBegin
  2
*X1265
 70
     1
 71
     0
 10
0.0
 20
0.0
 30
0.0
  3
*X1265
  1

  4
*X12
  0
LINE
  5
564
330
561
100
AcDbEntity
  8
LC-003-005-----0
 62
     7
370
    25
100
AcDbLine
 10
378.244024
 20
282.077501
 30
0.0
 11
378.261265
 21
282.094743
 31
0.0
  0
LINE
  5
565
330
561
100
AcDbEntity
  8
LC-003-005-----0
 62
     7
370
    25
100
AcDbLine
 10
377.429231
 20
281.828394
 30
0.0
 11
378.261265
 21
282.660429
 31
0.0
  0
LINE
  5
566
330
561
100
AcDbEntity
  8
LC-003-005-----0
 62
     7
370
    25
100
AcDbLine
 10
376.614439
 20
281.579287
 30
0.0
 11
378.261265
 21
283.226114
 31
0.0
  0
LINE
  5
567
330
561
100
AcDbEntity
  8
LC-003-005-----0
 62
     7
370
    25
100
AcDbLine
 10
375.799646
 20
281.33018
 30
0.0
 11
378.261265
 21
283.791799
 31
0.0
  0
LINE
  5
568
330
561
100
AcDbEntity
  8
LC-003-005-----0
 62
     7
370
    25
100
AcDbLine
 10
374.984854
 20
281.081073
 30
0.0
 11
378.261265
 21
284.357485
 31
0.0
  0
LINE
  5
569
330
561
100
AcDbEntity
  8
LC-003-005-----0
 62
     7
370
    25
100
AcDbLine
 10
374.170061
 20
280.831966
 30
0.0
 11
378.261265
 21
284.92317
 31
0.0
  0
LINE
  5
56A
330
561
100
AcDbEntity
  8
LC-003-005-----0
 62
     7
370
    25
100
AcDbLine
 10
373.355269
 20
280.582859
 30
0.0
 11
378.261265
 21
285.488856
 31
0.0
  0
LINE
  5
56B
330
561
100
AcDbEntity
  8
LC-003-005-----0
 62
     7
370
    25
100
AcDbLine
 10
372.540476
 20
280.333752
 30
0.0
 11
378.261265
 21
286.054541
 31
0.0
  0
LINE
  5
56C
330
561
100
AcDbEntity
  8
LC-003-005-----0
 62
     7
370
    25
100
AcDbLine
 10
371.725684
 20
280.084645
 30
0.0
 11
378.261265
 21
286.620227
 31
0.0
  0
LINE
  5
56D
330
561
100
AcDbEntity
  8
LC-003-005-----0
 62
     7
370
    25
100
AcDbLine
 10
370.910891
 20
279.835538
 30
0.0
 11
377.989918
 21
286.914565
 31
0.0
  0
LINE
  5
56E
330
561
100
AcDbEntity
  8
LC-003-005-----0
 62
     7
370
    25
100
AcDbLine
 10
370.096099
 20
279.586431
 30
0.0
 11
377.175126
 21
286.665458
 31
0.0
  0
LINE
  5
56F
330
561
100
AcDbEntity
  8
LC-003-005-----0
 62
     7
370
    25
100
AcDbLine
 10
369.281306
 20
279.337324
 30
0.0
 11
376.360333
 21
286.416351
 31
0.0
  0
LINE
  5
570
330
561
100
AcDbEntity
  8
LC-003-005-----0
 62
     7
370
    25
100
AcDbLine
 10
368.466514
 20
279.088217
 30
0.0
 11
375.545541
 21
286.167244
 31
0.0
  0
LINE
  5
571
330
561
100
AcDbEntity
  8
LC-003-005-----0
 62
     7
370
    25
100
AcDbLine
 10
368.261265
 20
279.448654
 30
0.0
 11
374.730748
 21
285.918137
 31
0.0
  0
LINE
  5
572
330
561
100
AcDbEntity
  8
LC-003-005-----0
 62
     7
370
    25
100
AcDbLine
 10
368.261265
 20
280.014339
 30
0.0
 11
373.915956
 21
285.669029
 31
0.0
  0
LINE
  5
573
330
561
100
AcDbEntity
  8
LC-003-005-----0
 62
     7
370
    25
100
AcDbLine
 10
368.261265
 20
280.580025
 30
0.0
 11
373.101163
 21
285.419922
 31
0.0
  0
LINE
  5
574
330
561
100
AcDbEntity
  8
LC-003-005-----0
 62
     7
370
    25
100
AcDbLine
 10
368.261265
 20
281.14571
 30
0.0
 11
372.286371
 21
285.170815
 31
0.0
  0
LINE
  5
575
330
561
100
AcDbEntity
  8
LC-003-005-----0
 62
     7
370
    25
100
AcDbLine
 10
368.261265
 20
281.711395
 30
0.0
 11
371.471578
 21
284.921708
 31
0.0
  0
LINE
  5
576
330
561
100
AcDbEntity
  8
LC-003-005-----0
 62
     7
370
    25
100
AcDbLine
 10
368.261265
 20
282.277081
 30
0.0
 11
370.656786
 21
284.672601
 31
0.0
  0
LINE
  5
577
330
561
100
AcDbEntity
  8
LC-003-005-----0
 62
     7
370
    25
100
AcDbLine
 10
368.261265
 20
282.842766
 30
0.0
 11
369.841993
 21
284.423494
 31
0.0
  0
LINE
  5
578
330
561
100
AcDbEntity
  8
LC-003-005-----0
 62
     7
370
    25
100
AcDbLine
 10
368.261265
 20
283.408452
 30
0.0
 11
369.027201
 21
284.174387
 31
0.0
  0
ENDBLK
  5
563
330
561
100
AcDbEntity
  8
0
100
AcDbBlockEnd
  0
BLOCK
  5
5A6
330
59C
100
AcDbEntity
  8
0
100
AcDbBlockBegin
  2
*D66
 70
     1
 71
     0
 10
0.0
 20
0.0
 30
0.0
  3
*D66
  1

  0
LINE
  5
59D
330
59C
100
AcDbEntity
  8
LC-004-003-----0
 62
     2
370
    -2
100
AcDbLine
 10
164.943072
 20
280.780659
 30
0.0
 11
164.943072
 21
323.115121
 31
0.0
  0
LINE
  5
59E
330
59C
100
AcDbEntity
  8
LC-004-003-----0
 62
     2
370
    -2
100
AcDbLine
 10
393.943067
 20
280.780659
 30
0.0
 11
393.943067
 21
323.115121
 31
0.0
  0
LINE
  5
59F
330
59C
100
AcDbEntity
  8
LC-004-003-----0
 62
     2
370
    -2
100
AcDbLine
 10
192.943072
 20
319.515121
 30
0.0
 11
365.943067
 21
319.515121
 31
0.0
  0
SOLID
  5
5A0
330
59C
100
AcDbEntity
  8
LC-004-003-----0
 62
     2
100
AcDbTrace
 10
192.943072
 20
324.181787
 30
0.0
 11
192.943072
 21
314.848454
 31
0.0
 12
164.943072
 22
319.515121
 32
0.0
 13
164.943072
 23
319.515121
 33
0.0
  0
SOLID
  5
5A1
330
59C
100
AcDbEntity
  8
LC-004-003-----0
 62
     2
100
AcDbTrace
 10
365.943067
 20
314.848454
 30
0.0
 11
365.943067
 21
324.181787
 31
0.0
 12
393.943067
 22
319.515121
 32
0.0
 13
393.943067
 23
319.515121
 33
0.0
  0
MTEXT
  5
5A2
330
59C
100
AcDbEntity
  8
LC-004-003-----0
 62
     2
100
AcDbMText
 10
275.183553
 20
350.315121
 30
0.0
 40
28.0
 41
0.0
 71
     5
 72
     1
  1
\A1;%%c230
  7
LCTX15-400-0-0pDIN-Schrift
 73
     1
 44
1.0
  0
POINT
  5
5A3
330
59C
100
AcDbEntity
  8
Defpoints
 62
     0
100
AcDbPoint
 10
164.943072
 20
280.780659
 30
0.0
  0
POINT
  5
5A4
330
59C
100
AcDbEntity
  8
Defpoints
 62
     0
100
AcDbPoint
 10
393.943067
 20
280.780659
 30
0.0
  0
POINT
  5
5A5
330
59C
100
AcDbEntity
  8
Defpoints
 62
     0
100
AcDbPoint
 10
393.943067
 20
319.515121
 30
0.0
  0
ENDBLK
  5
5A7
330
59C
100
AcDbEntity
  8
0
100
AcDbBlockEnd
  0
BLOCK
  5
5B3
330
5A9
100
AcDbEntity
  8
0
100
AcDbBlockBegin
  2
*D67
 70
     1
 71
     0
 10
0.0
 20
0.0
 30
0.0
  3
*D67
  1

  0
LINE
  5
5AA
330
5A9
100
AcDbEntity
  8
LC-004-003-----0
 62
     2
370
    -2
100
AcDbLine
 10
224.44307
 20
206.289386
 30
0.0
 11
224.44307
 21
51.585121
 31
0.0
  0
LINE
  5
5AB
330
5A9
100
AcDbEntity
  8
LC-004-003-----0
 62
     2
370
    -2
100
AcDbLine
 10
334.443069
 20
207.512997
 30
0.0
 11
334.443069
 21
51.585121
 31
0.0
  0
LINE
  5
5AC
330
5A9
100
AcDbEntity
  8
LC-004-003-----0
 62
     2
370
    -2
100
AcDbLine
 10
252.44307
 20
55.185121
 30
0.0
 11
306.443069
 21
55.185121
 31
0.0
  0
SOLID
  5
5AD
330
5A9
100
AcDbEntity
  8
LC-004-003-----0
 62
     2
100
AcDbTrace
 10
252.44307
 20
59.851787
 30
0.0
 11
252.44307
 21
50.518454
 31
0.0
 12
224.44307
 22
55.185121
 32
0.0
 13
224.44307
 23
55.185121
 33
0.0
  0
SOLID
  5
5AE
330
5A9
100
AcDbEntity
  8
LC-004-003-----0
 62
     2
100
AcDbTrace
 10
306.443069
 20
50.518454
 30
0.0
 11
306.443069
 21
59.851787
 31
0.0
 12
334.443069
 22
55.185121
 32
0.0
 13
334.443069
 23
55.185121
 33
0.0
  0
MTEXT
  5
5AF
330
5A9
100
AcDbEntity
  8
LC-004-003-----0
 62
     2
100
AcDbMText
 10
278.37819
 20
85.985121
 30
0.0
 40
28.0
 41
0.0
 71
     5
 72
     1
  1
%%c\A1;110
  7
LCTX15-400-0-0pDIN-Schrift
 73
     1
 44
1.0
  0
POINT
  5
5B0
330
5A9
100
AcDbEntity
  8
Defpoints
 62
     0
100
AcDbPoint
 10
224.44307
 20
206.289386
 30
0.0
  0
POINT
  5
5B1
330
5A9
100
AcDbEntity
  8
Defpoints
 62
     0
100
AcDbPoint
 10
334.443069
 20
207.512997
 30
0.0
  0
POINT
  5
5B2
330
5A9
100
AcDbEntity
  8
Defpoints
 62
     0
100
AcDbPoint
 10
334.443069
 20
55.185121
 30
0.0
  0
ENDBLK
  5
5B4
330
5A9
100
AcDbEntity
  8
0
100
AcDbBlockEnd
  0
BLOCK
  5
5C0
330
5B6
100
AcDbEntity
  8
0
100
AcDbBlockBegin
  2
*D68
 70
     1
 71
     0
 10
0.0
 20
0.0
 30
0.0
  3
*D68
  1

  0
LINE
  5
5B7
330
5B6
100
AcDbEntity
  8
LC-004-003-----0
 62
     2
370
    -2
100
AcDbLine
 10
216.443068
 20
251.593121
 30
0.0
 11
216.443068
 21
-7.220879
 31
0.0
  0
LINE
  5
5B8
330
5B6
100
AcDbEntity
  8
LC-004-003-----0
 62
     2
370
    -2
100
AcDbLine
 10
342.443069
 20
251.593121
 30
0.0
 11
342.443069
 21
-7.220879
 31
0.0
  0
LINE
  5
5B9
330
5B6
100
AcDbEntity
  8
LC-004-003-----0
 62
     2
370
    -2
100
AcDbLine
 10
244.443068
 20
-3.620879
 30
0.0
 11
314.443069
 21
-3.620879
 31
0.0
  0
SOLID
  5
5BA
330
5B6
100
AcDbEntity
  8
LC-004-003-----0
 62
     2
100
AcDbTrace
 10
244.443068
 20
1.045787
 30
0.0
 11
244.443068
 21
-8.287546
 31
0.0
 12
216.443068
 22
-3.620879
 32
0.0
 13
216.443068
 23
-3.620879
 33
0.0
  0
SOLID
  5
5BB
330
5B6
100
AcDbEntity
  8
LC-004-003-----0
 62
     2
100
AcDbTrace
 10
314.443069
 20
-8.287546
 30
0.0
 11
314.443069
 21
1.045787
 31
0.0
 12
342.443069
 22
-3.620879
 32
0.0
 13
342.443069
 23
-3.620879
 33
0.0
  0
MTEXT
  5
5BC
330
5B6
100
AcDbEntity
  8
LC-004-003-----0
 62
     2
100
AcDbMText
 10
278.37819
 20
27.179121
 30
0.0
 40
28.0
 41
0.0
 71
     5
 72
     1
  1
%%c\A1;126
  7
LCTX15-400-0-0pDIN-Schrift
 73
     1
 44
1.0
  0
POINT
  5
5BD
330
5B6
100
AcDbEntity
  8
Defpoints
 62
     0
100
AcDbPoint
 10
216.443068
 20
251.593121
 30
0.0
  0
POINT
  5
5BE
330
5B6
100
AcDbEntity
  8
Defpoints
 62
     0
100
AcDbPoint
 10
342.443069
 20
251.593121
 30
0.0
  0
POINT
  5
5BF
330
5B6
100
AcDbEntity
  8
Defpoints
 62
     0
100
AcDbPoint
 10
342.443069
 20
-3.620879
 30
0.0
  0
ENDBLK
  5
5C1
330
5B6
100
AcDbEntity
  8
0
100
AcDbBlockEnd
  0
BLOCK
  5
5CD
330
5C3
100
AcDbEntity
  8
0
100
AcDbBlockBegin
  2
*D69
 70
     1
 71
     0
 10
0.0
 20
0.0
 30
0.0
  3
*D69
  1

  0
LINE
  5
5C4
330
5C3
100
AcDbEntity
  8
LC-004-003-----0
 62
     2
370
    -2
100
AcDbLine
 10
164.943072
 20
280.780659
 30
0.0
 11
79.905324
 21
280.780659
 31
0.0
  0
LINE
  5
5C5
330
5C3
100
AcDbEntity
  8
LC-004-003-----0
 62
     2
370
    -2
100
AcDbLine
 10
230.682927
 20
191.593119
 30
0.0
 11
79.905324
 21
191.593119
 31
0.0
  0
LINE
  5
5C6
330
5C3
100
AcDbEntity
  8
LC-004-003-----0
 62
     2
370
    -2
100
AcDbLine
 10
83.505324
 20
252.780659
 30
0.0
 11
83.505324
 21
219.593119
 31
0.0
  0
SOLID
  5
5C7
330
5C3
100
AcDbEntity
  8
LC-004-003-----0
 62
     2
100
AcDbTrace
 10
88.17199
 20
252.780659
 30
0.0
 11
78.838657
 21
252.780659
 31
0.0
 12
83.505324
 22
280.780659
 32
0.0
 13
83.505324
 23
280.780659
 33
0.0
  0
SOLID
  5
5C8
330
5C3
100
AcDbEntity
  8
LC-004-003-----0
 62
     2
100
AcDbTrace
 10
78.838657
 20
219.593119
 30
0.0
 11
88.17199
 21
219.593119
 31
0.0
 12
83.505324
 22
191.593119
 32
0.0
 13
83.505324
 23
191.593119
 33
0.0
  0
MTEXT
  5
5C9
330
5C3
100
AcDbEntity
  8
LC-004-003-----0
 62
     2
100
AcDbMText
 10
52.705324
 20
234.573121
 30
0.0
 40
28.0
 41
0.0
 71
     5
 72
     1
  1
\A1;90
  7
LCTX15-400-0-0pDIN-Schrift
 11
6.123031769111886E-17
 21
1.0
 31
0.0
 73
     1
 44
1.0
  0
POINT
  5
5CA
330
5C3
100
AcDbEntity
  8
Defpoints
 62
     0
100
AcDbPoint
 10
164.943072
 20
280.780659
 30
0.0
  0
POINT
  5
5CB
330
5C3
100
AcDbEntity
  8
Defpoints
 62
     0
100
AcDbPoint
 10
230.682927
 20
191.593119
 30
0.0
  0
POINT
  5
5CC
330
5C3
100
AcDbEntity
  8
Defpoints
 62
     0
100
AcDbPoint
 10
83.505324
 20
191.593119
 30
0.0
  0
ENDBLK
  5
5CE
330
5C3
100
AcDbEntity
  8
0
100
AcDbBlockEnd
  0
BLOCK
  5
5DC
330
5D0
100
AcDbEntity
  8
0
100
AcDbBlockBegin
  2
*D70
 70
     1
 71
     0
 10
0.0
 20
0.0
 30
0.0
  3
*D70
  1

  0
LINE
  5
5D1
330
5D0
100
AcDbEntity
  8
LC-004-003-----0
 62
     2
370
    -2
100
AcDbLine
 10
237.700888
 20
191.593121
 30
0.0
 11
129.954639
 21
191.593121
 31
0.0
  0
LINE
  5
5D2
330
5D0
100
AcDbEntity
  8
LC-004-003-----0
 62
     2
370
    -2
100
AcDbLine
 10
257.44307
 20
133.593121
 30
0.0
 11
129.954639
 21
133.593121
 31
0.0
  0
LINE
  5
5D3
330
5D0
100
AcDbEntity
  8
LC-004-003-----0
 62
     2
370
    -2
100
AcDbLine
 10
133.554639
 20
219.593121
 30
0.0
 11
133.554639
 21
247.593121
 31
0.0
  0
LINE
  5
5D4
330
5D0
100
AcDbEntity
  8
LC-004-003-----0
 62
     2
370
    -2
100
AcDbLine
 10
133.554639
 20
105.593121
 30
0.0
 11
133.554639
 21
77.593121
 31
0.0
  0
LINE
  5
5D5
330
5D0
100
AcDbEntity
  8
LC-004-003-----0
 62
     2
370
    -2
100
AcDbLine
 10
133.554639
 20
191.593121
 30
0.0
 11
133.554639
 21
133.593121
 31
0.0
  0
SOLID
  5
5D6
330
5D0
100
AcDbEntity
  8
LC-004-003-----0
 62
     2
100
AcDbTrace
 10
128.887972
 20
219.593121
 30
0.0
 11
138.221306
 21
219.593121
 31
0.0
 12
133.554639
 22
191.593121
 32
0.0
 13
133.554639
 23
191.593121
 33
0.0
  0
SOLID
  5
5D7
330
5D0
100
AcDbEntity
  8
LC-004-003-----0
 62
     2
100
AcDbTrace
 10
138.221306
 20
105.593121
 30
0.0
 11
128.887972
 21
105.593121
 31
0.0
 12
133.554639
 22
133.593121
 32
0.0
 13
133.554639
 23
133.593121
 33
0.0
  0
MTEXT
  5
5D8
330
5D0
100
AcDbEntity
  8
LC-004-003-----0
 62
     2
100
AcDbMText
 10
102.754639
 20
144.285121
 30
0.0
 40
28.0
 41
0.0
 71
     5
 72
     1
  1
\A1;58
  7
LCTX15-400-0-0pDIN-Schrift
 11
6.123031769111886E-17
 21
1.0
 31
0.0
 73
     1
 44
1.0
  0
POINT
  5
5D9
330
5D0
100
AcDbEntity
  8
Defpoints
 62
     0
100
AcDbPoint
 10
237.700888
 20
191.593121
 30
0.0
  0
POINT
  5
5DA
330
5D0
100
AcDbEntity
  8
Defpoints
 62
     0
100
AcDbPoint
 10
257.44307
 20
133.593121
 30
0.0
  0
POINT
  5
5DB
330
5D0
100
AcDbEntity
  8
Defpoints
 62
     0
100
AcDbPoint
 10
133.554639
 20
133.593121
 30
0.0
  0
ENDBLK
  5
5DD
330
5D0
100
AcDbEntity
  8
0
100
AcDbBlockEnd
  0
BLOCK
  5
5EB
330
5DF
100
AcDbEntity
  8
0
100
AcDbBlockBegin
  2
*D71
 70
     1
 71
     0
 10
0.0
 20
0.0
 30
0.0
  3
*D71
  1

  0
LINE
  5
5E0
330
5DF
100
AcDbEntity
  8
LC-004-003-----0
 62
     2
370
    -2
100
AcDbLine
 10
239.943068
 20
206.593056
 30
0.0
 11
186.393229
 21
206.593056
 31
0.0
  0
LINE
  5
5E1
330
5DF
100
AcDbEntity
  8
LC-004-003-----0
 62
     2
370
    -2
100
AcDbLine
 10
254.94307
 20
256.09312
 30
0.0
 11
186.393229
 21
256.09312
 31
0.0
  0
LINE
  5
5E2
330
5DF
100
AcDbEntity
  8
LC-004-003-----0
 62
     2
370
    -2
100
AcDbLine
 10
189.993229
 20
178.593056
 30
0.0
 11
189.993229
 21
150.593056
 31
0.0
  0
LINE
  5
5E3
330
5DF
100
AcDbEntity
  8
LC-004-003-----0
 62
     2
370
    -2
100
AcDbLine
 10
189.993229
 20
284.09312
 30
0.0
 11
189.993229
 21
312.09312
 31
0.0
  0
LINE
  5
5E4
330
5DF
100
AcDbEntity
  8
LC-004-003-----0
 62
     2
370
    -2
100
AcDbLine
 10
189.993229
 20
206.593056
 30
0.0
 11
189.993229
 21
256.09312
 31
0.0
  0
SOLID
  5
5E5
330
5DF
100
AcDbEntity
  8
LC-004-003-----0
 62
     2
100
AcDbTrace
 10
194.659896
 20
178.593056
 30
0.0
 11
185.326562
 21
178.593056
 31
0.0
 12
189.993229
 22
206.593056
 32
0.0
 13
189.993229
 23
206.593056
 33
0.0
  0
SOLID
  5
5E6
330
5DF
100
AcDbEntity
  8
LC-004-003-----0
 62
     2
100
AcDbTrace
 10
185.326562
 20
284.09312
 30
0.0
 11
194.659896
 21
284.09312
 31
0.0
 12
189.993229
 22
256.09312
 32
0.0
 13
189.993229
 23
256.09312
 33
0.0
  0
MTEXT
  5
5E7
330
5DF
100
AcDbEntity
  8
LC-004-003-----0
 62
     2
100
AcDbMText
 10
159.193229
 20
206.655121
 30
0.0
 40
28.0
 41
0.0
 71
     5
 72
     1
  1
\A1;50
  7
LCTX15-400-0-0pDIN-Schrift
 11
6.123031769111886E-17
 21
1.0
 31
0.0
 73
     1
 44
1.0
  0
POINT
  5
5E8
330
5DF
100
AcDbEntity
  8
Defpoints
 62
     0
100
AcDbPoint
 10
239.943068
 20
206.593056
 30
0.0
  0
POINT
  5
5E9
330
5DF
100
AcDbEntity
  8
Defpoints
 62
     0
100
AcDbPoint
 10
254.94307
 20
256.09312
 30
0.0
  0
POINT
  5
5EA
330
5DF
100
AcDbEntity
  8
Defpoints
 62
     0
100
AcDbPoint
 10
189.993229
 20
256.09312
 30
0.0
  0
ENDBLK
  5
5EC
330
5DF
100
AcDbEntity
  8
0
100
AcDbBlockEnd
  0
BLOCK
  5
5F9
330
5EE
100
AcDbEntity
  8
0
100
AcDbBlockBegin
  2
*D72
 70
     1
 71
     0
 10
0.0
 20
0.0
 30
0.0
  3
*D72
  1

  0
LINE
  5
5EF
330
5EE
100
AcDbEntity
  8
LC-004-003-----0
 62
     2
370
    -2
100
AcDbLine
 10
254.443069
 20
137.09312
 30
0.0
 11
254.443069
 21
117.519121
 31
0.0
  0
LINE
  5
5F0
330
5EE
100
AcDbEntity
  8
LC-004-003-----0
 62
     2
370
    -2
100
AcDbLine
 10
304.443068
 20
137.09312
 30
0.0
 11
304.443068
 21
117.519121
 31
0.0
  0
LINE
  5
5F1
330
5EE
100
AcDbEntity
  8
LC-004-003-----0
 62
     2
370
    -2
100
AcDbLine
 10
226.443069
 20
121.119121
 30
0.0
 11
198.443069
 21
121.119121
 31
0.0
  0
LINE
  5
5F2
330
5EE
100
AcDbEntity
  8
LC-004-003-----0
 62
     2
370
    -2
100
AcDbLine
 10
332.443068
 20
121.119121
 30
0.0
 11
428.773095
 21
121.119121
 31
0.0
  0
SOLID
  5
5F3
330
5EE
100
AcDbEntity
  8
LC-004-003-----0
 62
     2
100
AcDbTrace
 10
226.443069
 20
116.452454
 30
0.0
 11
226.443069
 21
125.785787
 31
0.0
 12
254.443069
 22
121.119121
 32
0.0
 13
254.443069
 23
121.119121
 33
0.0
  0
SOLID
  5
5F4
330
5EE
100
AcDbEntity
  8
LC-004-003-----0
 62
     2
100
AcDbTrace
 10
332.443068
 20
125.785787
 30
0.0
 11
332.443068
 21
116.452454
 31
0.0
 12
304.443068
 22
121.119121
 32
0.0
 13
304.443068
 23
121.119121
 33
0.0
  0
MTEXT
  5
5F5
330
5EE
100
AcDbEntity
  8
LC-004-003-----0
 62
     2
100
AcDbMText
 10
382.736338
 20
151.919121
 30
0.0
 40
28.0
 41
0.0
 71
     5
 72
     1
  1
\A1;DN50
  7
LCTX15-400-0-0pDIN-Schrift
 73
     1
 44
1.0
  0
POINT
  5
5F6
330
5EE
100
AcDbEntity
  8
Defpoints
 62
     0
100
AcDbPoint
 10
254.443069
 20
137.09312
 30
0.0
  0
POINT
  5
5F7
330
5EE
100
AcDbEntity
  8
Defpoints
 62
     0
100
AcDbPoint
 10
304.443068
 20
137.09312
 30
0.0
  0
POINT
  5
5F8
330
5EE
100
AcDbEntity
  8
Defpoints
 62
     0
100
AcDbPoint
 10
304.443068
 20
121.119121
 30
0.0
  0
ENDBLK
  5
5FA
330
5EE
100
AcDbEntity
  8
0
100
AcDbBlockEnd
  0
BLOCK
  5
606
330
5FC
100
AcDbEntity
  8
0
100
AcDbBlockBegin
  2
*D73
 70
     1
 71
     0
 10
0.0
 20
0.0
 30
0.0
  3
*D73
  1

  0
LINE
  5
5FD
330
5FC
100
AcDbEntity
  8
LC-004-003-----0
 62
     2
370
    -2
100
AcDbLine
 10
80.624873
 20
284.021427
 30
0.0
 11
80.624873
 21
373.605121
 31
0.0
  0
LINE
  5
5FE
330
5FC
100
AcDbEntity
  8
LC-004-003-----0
 62
     2
370
    -2
100
AcDbLine
 10
478.261265
 20
284.021427
 30
0.0
 11
478.261265
 21
373.605121
 31
0.0
  0
LINE
  5
5FF
330
5FC
100
AcDbEntity
  8
LC-004-003-----0
 62
     2
370
    -2
100
AcDbLine
 10
108.624873
 20
370.005121
 30
0.0
 11
450.261265
 21
370.005121
 31
0.0
  0
SOLID
  5
600
330
5FC
100
AcDbEntity
  8
LC-004-003-----0
 62
     2
100
AcDbTrace
 10
108.624873
 20
374.671787
 30
0.0
 11
108.624873
 21
365.338454
 31
0.0
 12
80.624873
 22
370.005121
 32
0.0
 13
80.624873
 23
370.005121
 33
0.0
  0
SOLID
  5
601
330
5FC
100
AcDbEntity
  8
LC-004-003-----0
 62
     2
100
AcDbTrace
 10
450.261265
 20
365.338454
 30
0.0
 11
450.261265
 21
374.671787
 31
0.0
 12
478.261265
 22
370.005121
 32
0.0
 13
478.261265
 23
370.005121
 33
0.0
  0
MTEXT
  5
602
330
5FC
100
AcDbEntity
  8
LC-004-003-----0
 62
     2
100
AcDbMText
 10
279.443069
 20
400.805121
 30
0.0
 40
28.0
 41
0.0
 71
     5
 72
     1
  1
\A1;%%c420
  7
LCTX15-400-0-0pDIN-Schrift
 73
     1
 44
1.0
  0
POINT
  5
603
330
5FC
100
AcDbEntity
  8
Defpoints
 62
     0
100
AcDbPoint
 10
80.624873
 20
284.021427
 30
0.0
  0
POINT
  5
604
330
5FC
100
AcDbEntity
  8
Defpoints
 62
     0
100
AcDbPoint
 10
478.261265
 20
284.021427
 30
0.0
  0
POINT
  5
605
330
5FC
100
AcDbEntity
  8
Defpoints
 62
     0
100
AcDbPoint
 10
478.261265
 20
370.005121
 30
0.0
  0
ENDBLK
  5
607
330
5FC
100
AcDbEntity
  8
0
100
AcDbBlockEnd
  0
ENDSEC
  0
SECTION
  2
ENTITIES
  0
LINE
  5
31
330
1F
100
AcDbEntity
  8
LC-001-100-D00-0
 62
     7
370
    50
100
AcDbLine
 10
215.44307
 20
279.358198
 30
0.0
 11
215.44307
 21
277.528729
 31
0.0
  0
LINE
  5
33
330
1F
100
AcDbEntity
  8
LC-002-002-----0
 62
     7
370
    50
100
AcDbLine
 10
388.256507
 20
288.585698
 30
0.0
 11
388.256507
 21
284.021427
 31
0.0
  0
INSERT
  5
3F
330
1F
100
AcDbEntity
  8
LC-001-100-D00-0
 62
     7
370
    50
100
AcDbBlockReference
  2
POLY1
 10
0.0
 20
0.0
 30
0.0
  0
INSERT
  5
4B
330
1F
100
AcDbEntity
  8
LC-001-100-D00-0
 62
     7
370
    50
100
AcDbBlockReference
  2
POLY2
 10
0.0
 20
0.0
 30
0.0
  0
INSERT
  5
57
330
1F
100
AcDbEntity
  8
LC-001-100-D00-0
 62
     7
370
    50
100
AcDbBlockReference
  2
POLY3
 10
0.0
 20
0.0
 30
0.0
  0
INSERT
  5
63
330
1F
100
AcDbEntity
  8
LC-001-100-D00-0
 62
     7
370
    50
100
AcDbBlockReference
  2
POLY4
 10
0.0
 20
0.0
 30
0.0
  0
INSERT
  5
6F
330
1F
100
AcDbEntity
  8
LC-001-100-D00-0
 62
     7
370
    50
100
AcDbBlockReference
  2
POLY5
 10
0.0
 20
0.0
 30
0.0
  0
INSERT
  5
7B
330
1F
100
AcDbEntity
  8
LC-001-100-D00-0
 62
     7
370
    50
100
AcDbBlockReference
  2
POLY6
 10
0.0
 20
0.0
 30
0.0
  0
INSERT
  5
87
330
1F
100
AcDbEntity
  8
LC-001-100-D00-0
 62
     7
370
    50
100
AcDbBlockReference
  2
POLY7
 10
0.0
 20
0.0
 30
0.0
  0
INSERT
  5
93
330
1F
100
AcDbEntity
  8
LC-001-100-D00-0
 62
     7
370
    50
100
AcDbBlockReference
  2
POLY8
 10
0.0
 20
0.0
 30
0.0
  0
INSERT
  5
9F
330
1F
100
AcDbEntity
  8
LC-001-100-D00-0
 62
     7
370
    50
100
AcDbBlockReference
  2
POLY9
 10
0.0
 20
0.0
 30
0.0
  0
INSERT
  5
AB
330
1F
100
AcDbEntity
  8
LC-001-100-D00-0
 62
     7
370
    50
100
AcDbBlockReference
  2
POLY10
 10
0.0
 20
0.0
 30
0.0
  0
LINE
  5
AC
330
1F
100
AcDbEntity
  8
LC-001-100-D00-0
 62
     7
370
    50
100
AcDbLine
 10
211.44307
 20
283.331925
 30
0.0
 11
308.229252
 21
283.331925
 31
0.0
  0
LINE
  5
AD
330
1F
100
AcDbEntity
  8
LC-001-100-D00-0
 62
     7
370
    50
100
AcDbLine
 10
319.833226
 20
283.331925
 30
0.0
 11
348.943072
 21
283.331925
 31
0.0
  0
LINE
  5
AE
330
1F
100
AcDbEntity
  8
LC-001-100-D00-0
 62
     7
370
    50
100
AcDbLine
 10
311.151556
 20
285.228732
 30
0.0
 11
311.151556
 21
284.22873
 31
0.0
  0
ARC
  5
AF
330
1F
100
AcDbEntity
  8
LC-001-100-D00-0
 62
     7
370
    50
100
AcDbCircle
 10
308.693069
 20
285.22873
 30
0.0
 40
1.0
100
AcDbArc
 50
90.0
 51
180.000002
  0
INSERT
  5
BB
330
1F
100
AcDbEntity
  8
LC-001-100-D00-0
 62
     7
370
    50
100
AcDbBlockReference
  2
POLY11
 10
0.0
 20
0.0
 30
0.0
  0
ARC
  5
BC
330
1F
100
AcDbEntity
  8
LC-001-100-D00-0
 62
     7
370
    50
100
AcDbCircle
 10
319.833227
 20
284.331924
 30
0.0
 40
0.9999999999998608
100
AcDbArc
 50
203.243614
 51
270.0
  0
ARC
  5
BD
330
1F
100
AcDbEntity
  8
LC-001-100-D00-0
 62
     7
370
    50
100
AcDbCircle
 10
308.229251
 20
284.331924
 30
0.0
 40
1.0
100
AcDbArc
 50
270.0
 51
344.427046
  0
LINE
  5
BE
330
1F
100
AcDbEntity
  8
LC-001-100-D00-0
 62
     7
370
    50
100
AcDbLine
 10
309.193178
 20
284.063427
 30
0.0
 11
309.239707
 21
284.22873
 31
0.0
  0
LINE
  5
BF
330
1F
100
AcDbEntity
  8
LC-001-100-D00-0
 62
     7
370
    50
100
AcDbLine
 10
309.19307
 20
289.028729
 30
0.0
 11
309.19307
 21
286.22873
 31
0.0
  0
LINE
  5
C0
330
1F
100
AcDbEntity
  8
LC-001-100-D00-0
 62
     7
370
    50
100
AcDbLine
 10
319.693069
 20
286.22873
 30
0.0
 11
319.693069
 21
289.028729
 31
0.0
  0
ARC
  5
C1
330
1F
100
AcDbEntity
  8
LC-001-100-D00-0
 62
     7
370
    50
100
AcDbCircle
 10
309.393069
 20
289.02873
 30
0.0
 40
0.1999999999999318
100
AcDbArc
 50
90.0
 51
180.0
  0
ARC
  5
C2
330
1F
100
AcDbEntity
  8
LC-001-100-D00-0
 62
     7
370
    50
100
AcDbCircle
 10
319.493069
 20
289.02873
 30
0.0
 40
0.2000000000000455
100
AcDbArc
 50
0.0
 51
90.0
  0
ARC
  5
C3
330
1F
100
AcDbEntity
  8
LC-001-100-D00-0
 62
     7
370
    50
100
AcDbCircle
 10
314.443069
 20
284.10373
 30
0.0
 40
6.820236432851884
100
AcDbArc
 50
123.355647
 51
131.284711
  0
ARC
  5
C4
330
1F
100
AcDbEntity
  8
LC-001-100-D00-0
 62
     7
370
    50
100
AcDbCircle
 10
314.443069
 20
284.10373
 30
0.0
 40
6.820236432851973
100
AcDbArc
 50
48.715289
 51
56.644353
  0
INSERT
  5
CB
330
1F
100
AcDbEntity
  8
LC-001-100-D00-0
 62
     7
370
    50
100
AcDbBlockReference
  2
KLON1
 10
0.0
 20
0.0
 30
0.0
  0
INSERT
  5
D7
330
1F
100
AcDbEntity
  8
LC-001-100-D00-0
 62
     7
370
    50
100
AcDbBlockReference
  2
POLY12
 10
0.0
 20
0.0
 30
0.0
  0
LINE
  5
D8
330
1F
100
AcDbEntity
  8
LC-001-100-D00-0
 62
     7
370
    50
100
AcDbLine
 10
212.48149
 20
281.237988
 30
0.0
 11
212.693068
 21
281.073614
 31
0.0
  0
INSERT
  5
DF
330
1F
100
AcDbEntity
  8
LC-001-100-D00-0
 62
     7
370
    50
100
AcDbBlockReference
  2
KLON2
 10
0.0
 20
0.0
 30
0.0
  0
INSERT
  5
E6
330
1F
100
AcDbEntity
  8
LC-001-100-D00-0
 62
     7
370
    50
100
AcDbBlockReference
  2
KLON3
 10
0.0
 20
0.0
 30
0.0
  0
INSERT
  5
F2
330
1F
100
AcDbEntity
  8
LC-001-100-D00-0
 62
     7
370
    50
100
AcDbBlockReference
  2
POLY13
 10
0.0
 20
0.0
 30
0.0
  0
LINE
  5
F3
330
1F
100
AcDbEntity
  8
LC-001-100-D00-0
 62
     7
370
    50
100
AcDbLine
 10
212.48149
 20
278.23799
 30
0.0
 11
212.693068
 21
278.073611
 31
0.0
  0
INSERT
  5
FA
330
1F
100
AcDbEntity
  8
LC-001-100-D00-0
 62
     7
370
    50
100
AcDbBlockReference
  2
KLON4
 10
0.0
 20
0.0
 30
0.0
  0
INSERT
  5
101
330
1F
100
AcDbEntity
  8
LC-001-100-D00-0
 62
     7
370
    50
100
AcDbBlockReference
  2
KLON5
 10
0.0
 20
0.0
 30
0.0
  0
INSERT
  5
108
330
1F
100
AcDbEntity
  8
LC-001-100-D00-0
 62
     7
370
    50
100
AcDbBlockReference
  2
KLON6
 10
0.0
 20
0.0
 30
0.0
  0
INSERT
  5
114
330
1F
100
AcDbEntity
  8
LC-001-100-D00-0
 62
     7
370
    50
100
AcDbBlockReference
  2
POLY14
 10
0.0
 20
0.0
 30
0.0
  0
LINE
  5
115
330
1F
100
AcDbEntity
  8
LC-001-100-D00-0
 62
     7
370
    50
100
AcDbLine
 10
212.48149
 20
275.237987
 30
0.0
 11
212.693068
 21
275.073613
 31
0.0
  0
INSERT
  5
11C
330
1F
100
AcDbEntity
  8
LC-001-100-D00-0
 62
     7
370
    50
100
AcDbBlockReference
  2
KLON7
 10
0.0
 20
0.0
 30
0.0
  0
INSERT
  5
123
330
1F
100
AcDbEntity
  8
LC-001-100-D00-0
 62
     7
370
    50
100
AcDbBlockReference
  2
KLON8
 10
0.0
 20
0.0
 30
0.0
  0
INSERT
  5
12A
330
1F
100
AcDbEntity
  8
LC-001-100-D00-0
 62
     7
370
    50
100
AcDbBlockReference
  2
KLON9
 10
0.0
 20
0.0
 30
0.0
  0
INSERT
  5
131
330
1F
100
AcDbEntity
  8
LC-001-100-D00-0
 62
     7
370
    50
100
AcDbBlockReference
  2
KLON10
 10
0.0
 20
0.0
 30
0.0
  0
INSERT
  5
138
330
1F
100
AcDbEntity
  8
LC-001-100-D00-0
 62
     7
370
    50
100
AcDbBlockReference
  2
KLON11
 10
0.0
 20
0.0
 30
0.0
  0
INSERT
  5
144
330
1F
100
AcDbEntity
  8
LC-001-100-D00-0
 62
     7
370
    50
100
AcDbBlockReference
  2
POLY15
 10
0.0
 20
0.0
 30
0.0
  0
LINE
  5
145
330
1F
100
AcDbEntity
  8
LC-001-100-D00-0
 62
     7
370
    50
100
AcDbLine
 10
212.48149
 20
272.237989
 30
0.0
 11
212.693068
 21
272.073614
 31
0.0
  0
INSERT
  5
14C
330
1F
100
AcDbEntity
  8
LC-001-100-D00-0
 62
     7
370
    50
100
AcDbBlockReference
  2
KLON12
 10
0.0
 20
0.0
 30
0.0
  0
INSERT
  5
153
330
1F
100
AcDbEntity
  8
LC-001-100-D00-0
 62
     7
370
    50
100
AcDbBlockReference
  2
KLON13
 10
0.0
 20
0.0
 30
0.0
  0
INSERT
  5
15F
330
1F
100
AcDbEntity
  8
LC-001-100-D00-0
 62
     7
370
    50
100
AcDbBlockReference
  2
POLY16
 10
0.0
 20
0.0
 30
0.0
  0
LINE
  5
160
330
1F
100
AcDbEntity
  8
LC-001-100-D00-0
 62
     7
370
    50
100
AcDbLine
 10
212.48149
 20
284.237991
 30
0.0
 11
212.693068
 21
284.073612
 31
0.0
  0
INSERT
  5
167
330
1F
100
AcDbEntity
  8
LC-001-100-D00-0
 62
     7
370
    50
100
AcDbBlockReference
  2
KLON14
 10
0.0
 20
0.0
 30
0.0
  0
INSERT
  5
16E
330
1F
100
AcDbEntity
  8
LC-001-100-D00-0
 62
     7
370
    50
100
AcDbBlockReference
  2
KLON15
 10
0.0
 20
0.0
 30
0.0
  0
INSERT
  5
175
330
1F
100
AcDbEntity
  8
LC-001-100-D00-0
 62
     7
370
    50
100
AcDbBlockReference
  2
KLON16
 10
0.0
 20
0.0
 30
0.0
  0
INSERT
  5
17C
330
1F
100
AcDbEntity
  8
LC-001-100-D00-0
 62
     7
370
    50
100
AcDbBlockReference
  2
KLON17
 10
0.0
 20
0.0
 30
0.0
  0
INSERT
  5
183
330
1F
100
AcDbEntity
  8
LC-001-100-D00-0
 62
     7
370
    50
100
AcDbBlockReference
  2
KLON18
 10
0.0
 20
0.0
 30
0.0
  0
INSERT
  5
18A
330
1F
100
AcDbEntity
  8
LC-001-100-D00-0
 62
     7
370
    50
100
AcDbBlockReference
  2
KLON19
 10
0.0
 20
0.0
 30
0.0
  0
INSERT
  5
191
330
1F
100
AcDbEntity
  8
LC-001-100-D00-0
 62
     7
370
    50
100
AcDbBlockReference
  2
KLON20
 10
0.0
 20
0.0
 30
0.0
  0
LINE
  5
192
330
1F
100
AcDbEntity
  8
LC-001-100-D00-0
 62
     7
370
    50
100
AcDbLine
 10
207.443069
 20
270.629144
 30
0.0
 11
207.443069
 21
272.922902
 31
0.0
  0
LINE
  5
193
330
1F
100
AcDbEntity
  8
LC-001-100-D00-0
 62
     7
370
    50
100
AcDbLine
 10
211.44307
 20
271.422903
 30
0.0
 11
211.44307
 21
270.629144
 31
0.0
  0
LINE
  5
194
330
1F
100
AcDbEntity
  8
LC-001-100-D00-0
 62
     7
370
    50
100
AcDbLine
 10
213.943071
 20
289.228732
 30
0.0
 11
214.493069
 21
289.228732
 31
0.0
  0
ARC
  5
195
330
1F
100
AcDbEntity
  8
LC-001-100-D00-0
 62
     7
370
    50
100
AcDbCircle
 10
214.493069
 20
289.02873
 30
0.0
 40
0.2000000000000455
100
AcDbArc
 50
0.0
 51
90.0
  0
LINE
  5
196
330
1F
100
AcDbEntity
  8
LC-001-100-D00-0
 62
     7
370
    50
100
AcDbLine
 10
214.693069
 20
289.028729
 30
0.0
 11
214.693069
 21
286.22873
 31
0.0
  0
LINE
  5
197
330
1F
100
AcDbEntity
  8
LC-001-100-D00-0
 62
     7
370
    50
100
AcDbLine
 10
214.693069
 20
286.22873
 30
0.0
 11
211.44307
 21
286.22873
 31
0.0
  0
LINE
  5
198
330
1F
100
AcDbEntity
  8
LC-001-100-D00-0
 62
     7
370
    50
100
AcDbLine
 10
211.44307
 20
286.22873
 30
0.0
 11
211.44307
 21
284.72432
 31
0.0
  0
LINE
  5
199
330
1F
100
AcDbEntity
  8
LC-001-100-D00-0
 62
     7
370
    50
100
AcDbLine
 10
211.44307
 20
283.422905
 30
0.0
 11
211.44307
 21
281.724321
 31
0.0
  0
LINE
  5
19A
330
1F
100
AcDbEntity
  8
LC-001-100-D00-0
 62
     7
370
    50
100
AcDbLine
 10
211.44307
 20
280.422902
 30
0.0
 11
211.44307
 21
278.724323
 31
0.0
  0
LINE
  5
19B
330
1F
100
AcDbEntity
  8
LC-001-100-D00-0
 62
     7
370
    50
100
AcDbLine
 10
211.44307
 20
277.422904
 30
0.0
 11
211.44307
 21
275.72432
 31
0.0
  0
LINE
  5
19C
330
1F
100
AcDbEntity
  8
LC-001-100-D00-0
 62
     7
370
    50
100
AcDbLine
 10
211.44307
 20
274.422905
 30
0.0
 11
211.44307
 21
272.724322
 31
0.0
  0
LINE
  5
19D
330
1F
100
AcDbEntity
  8
LC-001-100-D00-0
 62
     7
370
    50
100
AcDbLine
 10
211.44307
 20
270.629144
 30
0.0
 11
209.443073
 21
269.228731
 31
0.0
  0
LINE
  5
19E
330
1F
100
AcDbEntity
  8
LC-001-100-D00-0
 62
     7
370
    50
100
AcDbLine
 10
209.443073
 20
269.228731
 30
0.0
 11
207.443069
 21
270.629144
 31
0.0
  0
LINE
  5
19F
330
1F
100
AcDbEntity
  8
LC-001-100-D00-0
 62
     7
370
    50
100
AcDbLine
 10
207.443069
 20
274.224321
 30
0.0
 11
207.443069
 21
275.922904
 31
0.0
  0
LINE
  5
1A0
330
1F
100
AcDbEntity
  8
LC-001-100-D00-0
 62
     7
370
    50
100
AcDbLine
 10
207.443069
 20
277.224319
 30
0.0
 11
207.443069
 21
278.922903
 31
0.0
  0
LINE
  5
1A1
330
1F
100
AcDbEntity
  8
LC-001-100-D00-0
 62
     7
370
    50
100
AcDbLine
 10
207.443069
 20
280.224322
 30
0.0
 11
207.443069
 21
281.922901
 31
0.0
  0
LINE
  5
1A2
330
1F
100
AcDbEntity
  8
LC-001-100-D00-0
 62
     7
370
    50
100
AcDbLine
 10
207.443069
 20
283.22432
 30
0.0
 11
207.443069
 21
284.922904
 31
0.0
  0
LINE
  5
1A3
330
1F
100
AcDbEntity
  8
LC-001-100-D00-0
 62
     7
370
    50
100
AcDbLine
 10
207.443069
 20
286.224323
 30
0.0
 11
207.443069
 21
286.22873
 31
0.0
  0
LINE
  5
1A4
330
1F
100
AcDbEntity
  8
LC-001-100-D00-0
 62
     7
370
    50
100
AcDbLine
 10
207.443069
 20
286.22873
 30
0.0
 11
204.193066
 21
286.22873
 31
0.0
  0
LINE
  5
1A5
330
1F
100
AcDbEntity
  8
LC-001-100-D00-0
 62
     7
370
    50
100
AcDbLine
 10
204.193066
 20
286.22873
 30
0.0
 11
204.193066
 21
289.028729
 31
0.0
  0
ARC
  5
1A6
330
1F
100
AcDbEntity
  8
LC-001-100-D00-0
 62
     7
370
    50
100
AcDbCircle
 10
204.393069
 20
289.02873
 30
0.0
 40
0.1999999999999318
100
AcDbArc
 50
90.0
 51
180.0
  0
LINE
  5
1A7
330
1F
100
AcDbEntity
  8
LC-001-100-D00-0
 62
     7
370
    50
100
AcDbLine
 10
204.393069
 20
289.228732
 30
0.0
 11
204.943071
 21
289.228732
 31
0.0
  0
ARC
  5
1A8
330
1F
100
AcDbEntity
  8
LC-001-100-D00-0
 62
     7
370
    50
100
AcDbCircle
 10
209.443069
 20
284.10373
 30
0.0
 40
6.820236432851884
100
AcDbArc
 50
123.355647
 51
131.284711
  0
LINE
  5
1A9
330
1F
100
AcDbEntity
  8
LC-001-100-D00-0
 62
     7
370
    50
100
AcDbLine
 10
205.693069
 20
288.728731
 30
0.0
 11
205.693069
 21
289.800493
 31
0.0
  0
LINE
  5
1AA
330
1F
100
AcDbEntity
  8
LC-001-100-D00-0
 62
     7
370
    50
100
AcDbLine
 10
205.693069
 20
288.728731
 30
0.0
 11
207.669634
 21
288.728731
 31
0.0
  0
LINE
  5
1AB
330
1F
100
AcDbEntity
  8
LC-001-100-D00-0
 62
     7
370
    50
100
AcDbLine
 10
207.669634
 20
288.728731
 30
0.0
 11
207.669634
 21
288.22873
 31
0.0
  0
LINE
  5
1AC
330
1F
100
AcDbEntity
  8
LC-001-100-D00-0
 62
     7
370
    50
100
AcDbLine
 10
207.669634
 20
288.22873
 30
0.0
 11
211.216501
 21
288.22873
 31
0.0
  0
LINE
  5
1AD
330
1F
100
AcDbEntity
  8
LC-001-100-D00-0
 62
     7
370
    50
100
AcDbLine
 10
211.216501
 20
288.728731
 30
0.0
 11
211.216501
 21
288.22873
 31
0.0
  0
LINE
  5
1AE
330
1F
100
AcDbEntity
  8
LC-001-100-D00-0
 62
     7
370
    50
100
AcDbLine
 10
211.216501
 20
288.728731
 30
0.0
 11
213.193069
 21
288.728731
 31
0.0
  0
LINE
  5
1AF
330
1F
100
AcDbEntity
  8
LC-001-100-D00-0
 62
     7
370
    50
100
AcDbLine
 10
213.193069
 20
289.800493
 30
0.0
 11
213.193069
 21
288.728731
 31
0.0
  0
ARC
  5
1B0
330
1F
100
AcDbEntity
  8
LC-001-100-D00-0
 62
     7
370
    50
100
AcDbCircle
 10
209.443069
 20
284.10373
 30
0.0
 40
6.82023643285201
100
AcDbArc
 50
48.715289
 51
56.644353
  0
ARC
  5
1B1
330
1F
100
AcDbEntity
  8
LC-001-100-D00-0
 62
     7
370
    50
100
AcDbCircle
 10
209.443069
 20
284.10373
 30
0.0
 40
6.801883930206413
100
AcDbArc
 50
56.54253
 51
63.818118
  0
ARC
  5
1B2
330
1F
100
AcDbEntity
  8
LC-001-100-D00-0
 62
     7
370
    50
100
AcDbCircle
 10
209.443069
 20
284.10373
 30
0.0
 40
6.801883930206435
100
AcDbArc
 50
116.181882
 51
123.45747
  0
LINE
  5
1B3
330
1F
100
AcDbEntity
  8
LC-001-100-D00-0
 62
     7
370
    50
100
AcDbLine
 10
212.353724
 20
290.22873
 30
0.0
 11
211.216501
 21
290.22873
 31
0.0
  0
INSERT
  5
1BF
330
1F
100
AcDbEntity
  8
LC-001-100-D00-0
 62
     7
370
    50
100
AcDbBlockReference
  2
POLY17
 10
0.0
 20
0.0
 30
0.0
  0
LINE
  5
1C0
330
1F
100
AcDbEntity
  8
LC-001-100-D00-0
 62
     7
370
    50
100
AcDbLine
 10
211.216501
 20
290.22873
 30
0.0
 11
211.216501
 21
288.728731
 31
0.0
  0
INSERT
  5
1CC
330
1F
100
AcDbEntity
  8
LC-001-100-D00-0
 62
     7
370
    50
100
AcDbBlockReference
  2
POLY18
 10
0.0
 20
0.0
 30
0.0
  0
LINE
  5
1CD
330
1F
100
AcDbEntity
  8
LC-001-100-D00-0
 62
     7
370
    50
100
AcDbLine
 10
207.669634
 20
290.22873
 30
0.0
 11
206.532414
 21
290.22873
 31
0.0
  0
LINE
  5
1CE
330
1F
100
AcDbEntity
  8
LC-001-100-D00-0
 62
     7
370
    50
100
AcDbLine
 10
207.669634
 20
290.22873
 30
0.0
 11
207.669634
 21
288.728731
 31
0.0
  0
LINE
  5
1CF
330
1F
100
AcDbEntity
  8
LC-001-100-D00-0
 62
     7
370
    50
100
AcDbLine
 10
208.773519
 20
290.22873
 30
0.0
 11
210.112619
 21
290.22873
 31
0.0
  0
LINE
  5
1D0
330
1F
100
AcDbEntity
  8
LC-001-100-D00-0
 62
     7
370
    50
100
AcDbLine
 10
210.415731
 20
290.22873
 30
0.0
 11
210.112619
 21
290.22873
 31
0.0
  0
LINE
  5
1D1
330
1F
100
AcDbEntity
  8
LC-001-100-D00-0
 62
     7
370
    50
100
AcDbLine
 10
208.470407
 20
290.22873
 30
0.0
 11
208.773519
 21
290.22873
 31
0.0
  0
LINE
  5
1D2
330
1F
100
AcDbEntity
  8
LC-001-100-D00-0
 62
     7
370
    50
100
AcDbLine
 10
210.415731
 20
290.22873
 30
0.0
 11
211.216501
 21
290.22873
 31
0.0
  0
LINE
  5
1D3
330
1F
100
AcDbEntity
  8
LC-001-100-D00-0
 62
     7
370
    50
100
AcDbLine
 10
208.470407
 20
290.22873
 30
0.0
 11
207.669634
 21
290.22873
 31
0.0
  0
ARC
  5
1D4
330
1F
100
AcDbEntity
  8
LC-001-100-D00-0
 62
     7
370
    50
100
AcDbCircle
 10
361.614642
 20
285.22873
 30
0.0
 40
3.000000000000114
100
AcDbArc
 50
270.0
 51
340.52878
  0
ARC
  5
1D5
330
1F
100
AcDbEntity
  8
LC-001-100-D00-0
 62
     7
370
    50
100
AcDbCircle
 10
197.271496
 20
285.22873
 30
0.0
 40
3.000000000000167
100
AcDbArc
 50
199.47122
 51
270.0
  0
ARC
  5
1D6
330
1F
100
AcDbEntity
  8
LC-001-100-D00-0
 62
     7
370
    50
100
AcDbCircle
 10
361.614642
 20
285.22873
 30
0.0
 40
2.000000000000114
100
AcDbArc
 50
270.0
 51
330.000001
  0
ARC
  5
1D7
330
1F
100
AcDbEntity
  8
LC-001-100-D00-0
 62
     7
370
    50
100
AcDbCircle
 10
197.271496
 20
285.22873
 30
0.0
 40
2.000000000000173
100
AcDbArc
 50
209.999999
 51
270.0
  0
LINE
  5
1D8
330
1F
100
AcDbEntity
  8
LC-001-100-D00-0
 62
     7
370
    50
100
AcDbLine
 10
195.539448
 20
284.22873
 30
0.0
 11
201.677415
 21
284.22873
 31
0.0
  0
LINE
  5
1D9
330
1F
100
AcDbEntity
  8
LC-001-100-D00-0
 62
     7
370
    50
100
AcDbLine
 10
357.208724
 20
284.22873
 30
0.0
 11
363.346691
 21
284.22873
 31
0.0
  0
LINE
  5
1DA
330
1F
100
AcDbEntity
  8
LC-001-100-D00-0
 62
     7
370
    50
100
AcDbLine
 10
200.447801
 20
282.228729
 30
0.0
 11
200.471628
 21
282.222914
 31
0.0
  0
LINE
  5
1DB
330
1F
100
AcDbEntity
  8
LC-001-100-D00-0
 62
     7
370
    50
100
AcDbLine
 10
200.471628
 20
282.222914
 30
0.0
 11
200.544099
 21
282.222914
 31
0.0
  0
LINE
  5
1DC
330
1F
100
AcDbEntity
  8
LC-001-100-D00-0
 62
     7
370
    15
100
AcDbLine
 10
358.363058
 20
282.222914
 30
0.0
 11
358.414511
 21
282.222914
 31
0.0
  0
LINE
  5
1DD
330
1F
100
AcDbEntity
  8
LC-001-100-D00-0
 62
     7
370
    15
100
AcDbLine
 10
358.414511
 20
282.222914
 30
0.0
 11
358.438331
 21
282.228729
 31
0.0
  0
ARC
  5
1DE
330
1F
100
AcDbEntity
  8
LC-001-100-D00-0
 62
     7
370
    50
100
AcDbCircle
 10
358.412078
 20
283.728701
 30
0.0
 40
0.500000000000052
100
AcDbArc
 50
224.9955
 51
270.625237
  0
ARC
  5
1DF
330
1F
100
AcDbEntity
  8
LC-001-100-D00-0
 62
     7
370
    50
100
AcDbCircle
 10
200.47406
 20
283.728701
 30
0.0
 40
0.5000000000000425
100
AcDbArc
 50
269.374763
 51
315.0045
  0
ARC
  5
1E0
330
1F
100
AcDbEntity
  8
LC-001-100-D00-0
 62
     7
370
    15
100
AcDbCircle
 10
358.417846
 20
283.722909
 30
0.0
 40
1.499999999999929
100
AcDbArc
 50
224.872726
 51
269.872723
  0
ARC
  5
1E1
330
1F
100
AcDbEntity
  8
LC-001-100-D00-0
 62
     7
370
    50
100
AcDbCircle
 10
200.468293
 20
283.722909
 30
0.0
 40
1.499999999999908
100
AcDbArc
 50
270.127277
 51
315.127274
  0
LINE
  5
1E2
330
1F
100
AcDbEntity
  8
LC-001-100-D00-0
 62
     7
370
    50
100
AcDbLine
 10
358.0585
 20
283.375176
 30
0.0
 11
356.41219
 21
285.028818
 31
0.0
  0
INSERT
  5
1EE
330
1F
100
AcDbEntity
  8
LC-001-100-D00-0
 62
     7
370
    50
100
AcDbBlockReference
  2
POLY19
 10
0.0
 20
0.0
 30
0.0
  0
LINE
  5
1EF
330
1F
100
AcDbEntity
  8
LC-001-100-D00-0
 62
     7
370
    50
100
AcDbLine
 10
203.37538
 20
285.934264
 30
0.0
 11
200.827639
 21
283.375176
 31
0.0
  0
INSERT
  5
201
330
1F
100
AcDbEntity
  8
LC-001-100-D00-0
 62
     7
370
    50
100
AcDbBlockReference
  2
POLY20
 10
0.0
 20
0.0
 30
0.0
  0
LINE
  5
202
330
1F
100
AcDbEntity
  8
LC-001-100-D00-0
 62
     7
370
    50
100
AcDbLine
 10
357.35483
 20
282.664607
 30
0.0
 11
355.797644
 21
284.22873
 31
0.0
  0
LINE
  5
203
330
1F
100
AcDbEntity
  8
LC-001-100-D00-0
 62
     7
370
    50
100
AcDbLine
 10
204.084057
 20
285.228732
 30
0.0
 11
201.531309
 21
282.664607
 31
0.0
  0
LINE
  5
204
330
1F
100
AcDbEntity
  8
LC-001-100-D00-0
 62
     7
370
    50
100
AcDbLine
 10
222.605663
 20
284.22873
 30
0.0
 11
304.135929
 21
284.22873
 31
0.0
  0
LINE
  5
205
330
1F
100
AcDbEntity
  8
LC-001-100-D00-0
 62
     7
370
    50
100
AcDbLine
 10
222.605663
 20
285.228732
 30
0.0
 11
304.135929
 21
285.228732
 31
0.0
  0
LINE
  5
206
330
1F
100
AcDbEntity
  8
LC-001-100-D00-0
 62
     7
370
    50
100
AcDbLine
 10
355.797644
 20
284.22873
 30
0.0
 11
350.355308
 21
284.22873
 31
0.0
  0
ARC
  5
207
330
1F
100
AcDbEntity
  8
LC-001-100-D00-0
 62
     7
370
    50
100
AcDbCircle
 10
350.355306
 20
283.72873
 30
0.0
 40
0.5
100
AcDbArc
 50
90.0
 51
144.5
  0
LINE
  5
208
330
1F
100
AcDbEntity
  8
LC-001-100-D00-0
 62
     7
370
    50
100
AcDbLine
 10
349.757183
 20
283.751222
 30
0.0
 11
349.948245
 21
284.019081
 31
0.0
  0
ARC
  5
209
330
1F
100
AcDbEntity
  8
LC-001-100-D00-0
 62
     7
370
    50
100
AcDbCircle
 10
348.943069
 20
284.331924
 30
0.0
 40
0.9999999999999383
100
AcDbArc
 50
215.5
 51
324.5
  0
LINE
  5
20A
330
1F
100
AcDbEntity
  8
LC-001-100-D00-0
 62
     7
370
    50
100
AcDbLine
 10
348.128955
 20
283.751222
 30
0.0
 11
347.937892
 21
284.019081
 31
0.0
  0
ARC
  5
20B
330
1F
100
AcDbEntity
  8
LC-001-100-D00-0
 62
     7
370
    50
100
AcDbCircle
 10
347.530833
 20
283.72873
 30
0.0
 40
0.4999999999999691
100
AcDbArc
 50
35.5
 51
90.0
  0
LINE
  5
20C
330
1F
100
AcDbEntity
  8
LC-001-100-D00-0
 62
     7
370
    50
100
AcDbLine
 10
336.44307
 20
284.22873
 30
0.0
 11
347.53083
 21
284.22873
 31
0.0
  0
LINE
  5
20D
330
1F
100
AcDbEntity
  8
LC-001-100-D00-0
 62
     7
370
    50
100
AcDbLine
 10
336.44307
 20
284.22873
 30
0.0
 11
336.44307
 21
285.228732
 31
0.0
  0
LINE
  5
20E
330
1F
100
AcDbEntity
  8
LC-001-100-D00-0
 62
     7
370
    50
100
AcDbLine
 10
339.659321
 20
285.228732
 30
0.0
 11
336.44307
 21
285.228732
 31
0.0
  0
LINE
  5
20F
330
1F
100
AcDbEntity
  8
LC-001-100-D00-0
 62
     7
370
    50
100
AcDbLine
 10
339.659321
 20
285.228732
 30
0.0
 11
339.659321
 21
285.12873
 31
0.0
  0
LINE
  5
210
330
1F
100
AcDbEntity
  8
LC-001-100-D00-0
 62
     7
370
    50
100
AcDbLine
 10
339.659321
 20
285.12873
 30
0.0
 11
340.07072
 21
285.12873
 31
0.0
  0
LINE
  5
211
330
1F
100
AcDbEntity
  8
LC-001-100-D00-0
 62
     7
370
    50
100
AcDbLine
 10
340.07072
 20
285.12873
 30
0.0
 11
340.07072
 21
285.228732
 31
0.0
  0
LINE
  5
212
330
1F
100
AcDbEntity
  8
LC-001-100-D00-0
 62
     7
370
    50
100
AcDbLine
 10
340.680461
 20
285.228732
 30
0.0
 11
340.07072
 21
285.228732
 31
0.0
  0
LINE
  5
213
330
1F
100
AcDbEntity
  8
LC-001-100-D00-0
 62
     7
370
    50
100
AcDbLine
 10
340.680461
 20
285.228732
 30
0.0
 11
340.680461
 21
285.12873
 31
0.0
  0
LINE
  5
214
330
1F
100
AcDbEntity
  8
LC-001-100-D00-0
 62
     7
370
    50
100
AcDbLine
 10
340.680461
 20
285.12873
 30
0.0
 11
341.208729
 21
285.12873
 31
0.0
  0
LINE
  5
215
330
1F
100
AcDbEntity
  8
LC-001-100-D00-0
 62
     7
370
    50
100
AcDbLine
 10
341.208729
 20
285.12873
 30
0.0
 11
341.208729
 21
285.228732
 31
0.0
  0
LINE
  5
216
330
1F
100
AcDbEntity
  8
LC-001-100-D00-0
 62
     7
370
    50
100
AcDbLine
 10
342.805627
 20
285.228732
 30
0.0
 11
341.208729
 21
285.228732
 31
0.0
  0
LINE
  5
217
330
1F
100
AcDbEntity
  8
LC-001-100-D00-0
 62
     7
370
    50
100
AcDbLine
 10
342.805627
 20
285.228732
 30
0.0
 11
342.805627
 21
285.12873
 31
0.0
  0
LINE
  5
218
330
1F
100
AcDbEntity
  8
LC-001-100-D00-0
 62
     7
370
    50
100
AcDbLine
 10
342.805627
 20
285.12873
 30
0.0
 11
343.159939
 21
285.12873
 31
0.0
  0
LINE
  5
219
330
1F
100
AcDbEntity
  8
LC-001-100-D00-0
 62
     7
370
    50
100
AcDbLine
 10
343.159939
 20
285.12873
 30
0.0
 11
343.159939
 21
285.228732
 31
0.0
  0
LINE
  5
21A
330
1F
100
AcDbEntity
  8
LC-001-100-D00-0
 62
     7
370
    50
100
AcDbLine
 10
347.942862
 20
285.228732
 30
0.0
 11
343.159939
 21
285.228732
 31
0.0
  0
ARC
  5
21B
330
1F
100
AcDbEntity
  8
LC-001-100-D00-0
 62
     7
370
    50
100
AcDbCircle
 10
347.94286
 20
284.52873
 30
0.0
 40
0.7000000000000163
100
AcDbArc
 50
35.5
 51
90.0
  0
LINE
  5
21C
330
1F
100
AcDbEntity
  8
LC-001-100-D00-0
 62
     7
370
    50
100
AcDbLine
 10
348.943072
 20
284.331924
 30
0.0
 11
348.512742
 21
284.935223
 31
0.0
  0
LINE
  5
21D
330
1F
100
AcDbEntity
  8
LC-001-100-D00-0
 62
     7
370
    50
100
AcDbLine
 10
349.373969
 20
284.936028
 30
0.0
 11
348.943072
 21
284.331924
 31
0.0
  0
ARC
  5
21E
330
1F
100
AcDbEntity
  8
LC-001-100-D00-0
 62
     7
370
    50
100
AcDbCircle
 10
349.943278
 20
284.52873
 30
0.0
 40
0.7000000597449094
100
AcDbArc
 50
89.974696
 51
144.419032
  0
LINE
  5
21F
330
1F
100
AcDbEntity
  8
LC-001-100-D00-0
 62
     7
370
    50
100
AcDbLine
 10
349.943589
 20
285.228732
 30
0.0
 11
355.92227
 21
285.228732
 31
0.0
  0
ARC
  5
220
330
1F
100
AcDbEntity
  8
LC-001-100-D00-0
 62
     7
370
    50
100
AcDbCircle
 10
355.922379
 20
284.52873
 30
0.0
 40
0.7000000000000153
100
AcDbArc
 50
45.594937
 51
90.008938
  0
LINE
  5
221
330
1F
100
AcDbEntity
  8
LC-001-100-D00-0
 62
     7
370
    50
100
AcDbLine
 10
358.417536
 20
283.228731
 30
0.0
 11
361.61464
 21
283.228731
 31
0.0
  0
LINE
  5
222
330
1F
100
AcDbEntity
  8
LC-001-100-D00-0
 62
     7
370
    15
100
AcDbLine
 10
358.438331
 20
282.228729
 30
0.0
 11
361.61464
 21
282.228729
 31
0.0
  0
LINE
  5
223
330
1F
100
AcDbEntity
  8
LC-001-100-D00-0
 62
     7
370
    50
100
AcDbLine
 10
364.443067
 20
284.22873
 30
0.0
 11
363.346691
 21
284.22873
 31
0.0
  0
ARC
  5
224
330
1F
100
AcDbEntity
  8
LC-001-100-D00-0
 62
     7
370
    50
100
AcDbCircle
 10
204.084059
 20
285.22873
 30
0.0
 40
1.0
100
AcDbArc
 50
90.0
 51
135.12732
  0
LINE
  5
225
330
1F
100
AcDbEntity
  8
LC-001-100-D00-0
 62
     7
370
    50
100
AcDbLine
 10
204.084057
 20
286.22873
 30
0.0
 11
205.693069
 21
286.22873
 31
0.0
  0
LINE
  5
226
330
1F
100
AcDbEntity
  8
LC-001-100-D00-0
 62
     7
370
    50
100
AcDbLine
 10
205.693069
 20
285.228732
 30
0.0
 11
205.693069
 21
286.22873
 31
0.0
  0
LINE
  5
227
330
1F
100
AcDbEntity
  8
LC-001-100-D00-0
 62
     7
370
    50
100
AcDbLine
 10
205.693069
 20
285.228732
 30
0.0
 11
204.084057
 21
285.228732
 31
0.0
  0
LINE
  5
228
330
1F
100
AcDbEntity
  8
LC-001-100-D00-0
 62
     7
370
    50
100
AcDbLine
 10
197.271499
 20
283.228731
 30
0.0
 11
200.468603
 21
283.228731
 31
0.0
  0
LINE
  5
229
330
1F
100
AcDbEntity
  8
LC-001-100-D00-0
 62
     7
370
    50
100
AcDbLine
 10
197.271499
 20
282.228729
 30
0.0
 11
200.447801
 21
282.228729
 31
0.0
  0
LINE
  5
22A
330
1F
100
AcDbEntity
  8
LC-001-100-D00-0
 62
     7
370
    50
100
AcDbLine
 10
195.539448
 20
284.22873
 30
0.0
 11
194.443072
 21
284.22873
 31
0.0
  0
LINE
  5
22B
330
1F
100
AcDbEntity
  8
LC-001-100-D00-0
 62
     7
370
    50
100
AcDbLine
 10
213.193069
 20
286.22873
 30
0.0
 11
213.193069
 21
285.228732
 31
0.0
  0
LINE
  5
22C
330
1F
100
AcDbEntity
  8
LC-001-100-D00-0
 62
     7
370
    50
100
AcDbLine
 10
205.693069
 20
285.228732
 30
0.0
 11
206.702809
 21
285.228732
 31
0.0
  0
LINE
  5
22D
330
1F
100
AcDbEntity
  8
LC-001-100-D00-0
 62
     7
370
    50
100
AcDbLine
 10
211.44307
 20
285.228732
 30
0.0
 11
213.193069
 21
285.228732
 31
0.0
  0
ARC
  5
22E
330
1F
100
AcDbEntity
  8
LC-001-100-D00-0
 62
     7
370
    50
100
AcDbCircle
 10
215.193069
 20
285.22873
 30
0.0
 40
1.0
100
AcDbArc
 50
359.999998
 51
90.0
  0
LINE
  5
22F
330
1F
100
AcDbEntity
  8
LC-001-100-D00-0
 62
     7
370
    50
100
AcDbLine
 10
216.193068
 20
284.22873
 30
0.0
 11
216.193068
 21
285.228732
 31
0.0
  0
ARC
  5
230
330
1F
100
AcDbEntity
  8
LC-001-100-D00-0
 62
     7
370
    50
100
AcDbCircle
 10
216.193069
 20
285.22873
 30
0.0
 40
1.0
100
AcDbArc
 50
180.0
 51
270.0
  0
LINE
  5
231
330
1F
100
AcDbEntity
  8
LC-001-100-D00-0
 62
     7
370
    50
100
AcDbLine
 10
213.193069
 20
286.22873
 30
0.0
 11
215.19307
 21
286.22873
 31
0.0
  0
LINE
  5
232
330
1F
100
AcDbEntity
  8
LC-001-100-D00-0
 62
     7
370
    50
100
AcDbLine
 10
215.19307
 20
285.228732
 30
0.0
 11
213.193069
 21
285.228732
 31
0.0
  0
LINE
  5
233
330
1F
100
AcDbEntity
  8
LC-001-100-D00-0
 62
     7
370
    50
100
AcDbLine
 10
216.193068
 20
284.22873
 30
0.0
 11
212.49495
 21
284.22873
 31
0.0
  0
LINE
  5
234
330
1F
100
AcDbEntity
  8
LC-001-100-D00-0
 62
     7
370
    50
100
AcDbLine
 10
218.776598
 20
284.22873
 30
0.0
 11
216.193068
 21
284.22873
 31
0.0
  0
LINE
  5
235
330
1F
100
AcDbEntity
  8
LC-001-100-D00-0
 62
     7
370
    50
100
AcDbLine
 10
218.776598
 20
285.228732
 30
0.0
 11
216.193068
 21
285.228732
 31
0.0
  0
LINE
  5
236
330
1F
100
AcDbEntity
  8
LC-001-100-D00-0
 62
     7
370
    50
100
AcDbLine
 10
347.942862
 20
285.228732
 30
0.0
 11
349.943589
 21
285.228732
 31
0.0
  0
INSERT
  5
242
330
1F
100
AcDbEntity
  8
LC-001-100-D00-0
 62
     7
370
    50
100
AcDbBlockReference
  2
POLY21
 10
0.0
 20
0.0
 30
0.0
  0
LINE
  5
243
330
1F
100
AcDbEntity
  8
LC-001-100-D00-0
 62
     7
370
    50
100
AcDbLine
 10
311.068068
 20
284.22873
 30
0.0
 11
336.44307
 21
284.22873
 31
0.0
  0
LINE
  5
244
330
1F
100
AcDbEntity
  8
LC-001-100-D00-0
 62
     7
370
    50
100
AcDbLine
 10
311.587616
 20
285.228732
 30
0.0
 11
336.44307
 21
285.228732
 31
0.0
  0
LINE
  5
245
330
1F
100
AcDbEntity
  8
LC-001-100-D00-0
 62
     7
370
    50
100
AcDbLine
 10
339.956517
 20
285.12873
 30
0.0
 11
339.956517
 21
285.228732
 31
0.0
  0
INSERT
  5
251
330
1F
100
AcDbEntity
  8
LC-001-100-D00-0
 62
     7
370
    50
100
AcDbBlockReference
  2
POLY22
 10
0.0
 20
0.0
 30
0.0
  0
LINE
  5
252
330
1F
100
AcDbEntity
  8
LC-001-100-D00-0
 62
     7
370
    50
100
AcDbLine
 10
221.747338
 20
284.22873
 30
0.0
 11
218.776598
 21
284.22873
 31
0.0
  0
LINE
  5
253
330
1F
100
AcDbEntity
  8
LC-001-100-D00-0
 62
     7
370
    50
100
AcDbLine
 10
221.747338
 20
285.228732
 30
0.0
 11
218.776598
 21
285.228732
 31
0.0
  0
LINE
  5
254
330
1F
100
AcDbEntity
  8
LC-001-100-D00-0
 62
     7
370
    50
100
AcDbLine
 10
222.605663
 20
284.22873
 30
0.0
 11
221.747338
 21
284.22873
 31
0.0
  0
LINE
  5
255
330
1F
100
AcDbEntity
  8
LC-001-100-D00-0
 62
     7
370
    50
100
AcDbLine
 10
221.747338
 20
285.228732
 30
0.0
 11
222.605663
 21
285.228732
 31
0.0
  0
LINE
  5
256
330
1F
100
AcDbEntity
  8
LC-001-100-D00-0
 62
     7
370
    50
100
AcDbLine
 10
207.443069
 20
284.22873
 30
0.0
 11
203.387442
 21
284.22873
 31
0.0
  0
LINE
  5
257
330
1F
100
AcDbEntity
  8
LC-001-100-D00-0
 62
     7
370
    50
100
AcDbLine
 10
311.151556
 20
285.228732
 30
0.0
 11
311.587616
 21
285.228732
 31
0.0
  0
LINE
  5
258
330
1F
100
AcDbEntity
  8
LC-001-100-D00-0
 62
     7
370
    50
100
AcDbLine
 10
305.357366
 20
284.22873
 30
0.0
 11
304.135929
 21
284.22873
 31
0.0
  0
LINE
  5
259
330
1F
100
AcDbEntity
  8
LC-001-100-D00-0
 62
     7
370
    50
100
AcDbLine
 10
304.135929
 20
285.228732
 30
0.0
 11
305.357366
 21
285.228732
 31
0.0
  0
LINE
  5
25A
330
1F
100
AcDbEntity
  8
LC-001-100-D00-0
 62
     7
370
    50
100
AcDbLine
 10
311.151556
 20
285.228732
 30
0.0
 11
311.068068
 21
285.228732
 31
0.0
  0
LINE
  5
25B
330
1F
100
AcDbEntity
  8
LC-001-100-D00-0
 62
     7
370
    50
100
AcDbLine
 10
311.068068
 20
284.22873
 30
0.0
 11
307.203385
 21
284.22873
 31
0.0
  0
LINE
  5
25C
330
1F
100
AcDbEntity
  8
LC-001-100-D00-0
 62
     7
370
    50
100
AcDbLine
 10
311.068068
 20
285.228732
 30
0.0
 11
307.203385
 21
285.228732
 31
0.0
  0
LINE
  5
25D
330
1F
100
AcDbEntity
  8
LC-001-100-D00-0
 62
     7
370
    50
100
AcDbLine
 10
308.693069
 20
286.22873
 30
0.0
 11
319.422714
 21
286.22873
 31
0.0
  0
LINE
  5
25E
330
1F
100
AcDbEntity
  8
LC-001-100-D00-0
 62
     7
370
    50
100
AcDbLine
 10
307.203385
 20
284.22873
 30
0.0
 11
305.357366
 21
284.22873
 31
0.0
  0
LINE
  5
25F
330
1F
100
AcDbEntity
  8
LC-001-100-D00-0
 62
     7
370
    50
100
AcDbLine
 10
307.203385
 20
285.228732
 30
0.0
 11
305.357366
 21
285.228732
 31
0.0
  0
INSERT
  5
26D
330
1F
100
AcDbEntity
  8
LC-001-100-D00-0
 62
     7
370
    50
100
AcDbBlockReference
  2
POLY23
 10
0.0
 20
0.0
 30
0.0
  0
LINE
  5
26E
330
1F
100
AcDbEntity
  8
LC-001-100-D00-0
 62
     7
370
    50
100
AcDbLine
 10
319.422714
 20
286.22873
 30
0.0
 11
321.992378
 21
286.22873
 31
0.0
  0
ARC
  5
26F
330
1F
100
AcDbEntity
  8
LC-001-100-D00-0
 62
     7
370
    50
100
AcDbCircle
 10
284.193069
 20
272.593058
 30
0.0
 40
5.0
100
AcDbArc
 50
0.0
 51
90.0
  0
LINE
  5
270
330
1F
100
AcDbEntity
  8
LC-001-100-D00-0
 62
     7
370
    50
100
AcDbLine
 10
284.193069
 20
277.593059
 30
0.0
 11
274.693069
 21
277.593059
 31
0.0
  0
ARC
  5
271
330
1F
100
AcDbEntity
  8
LC-001-100-D00-0
 62
     7
370
    50
100
AcDbCircle
 10
274.693069
 20
272.593058
 30
0.0
 40
5.0
100
AcDbArc
 50
90.0
 51
180.0
  0
LINE
  5
272
330
1F
100
AcDbEntity
  8
LC-001-100-D00-0
 62
     7
370
    50
100
AcDbLine
 10
269.693069
 20
272.593058
 30
0.0
 11
269.693069
 21
271.593058
 31
0.0
  0
LINE
  5
273
330
1F
100
AcDbEntity
  8
LC-001-100-D00-0
 62
     7
370
    50
100
AcDbLine
 10
289.193069
 20
271.593058
 30
0.0
 11
269.693069
 21
271.593058
 31
0.0
  0
LINE
  5
274
330
1F
100
AcDbEntity
  8
LC-001-100-D00-0
 62
     7
370
    50
100
AcDbLine
 10
289.193069
 20
272.593058
 30
0.0
 11
289.193069
 21
271.593058
 31
0.0
  0
ARC
  5
275
330
1F
100
AcDbEntity
  8
LC-001-100-D00-0
 62
     7
370
    50
100
AcDbCircle
 10
274.693069
 20
272.593058
 30
0.0
 40
9.0
100
AcDbArc
 50
90.0
 51
180.0
  0
LINE
  5
276
330
1F
100
AcDbEntity
  8
LC-001-100-D00-0
 62
     7
370
    15
100
AcDbLine
 10
274.693069
 20
281.593059
 30
0.0
 11
284.193069
 21
281.593059
 31
0.0
  0
ARC
  5
277
330
1F
100
AcDbEntity
  8
LC-001-100-D00-0
 62
     7
370
    50
100
AcDbCircle
 10
284.193069
 20
272.593058
 30
0.0
 40
9.0
100
AcDbArc
 50
0.0
 51
90.0
  0
LINE
  5
278
330
1F
100
AcDbEntity
  8
LC-001-100-D00-0
 62
     7
370
    50
100
AcDbLine
 10
293.193069
 20
271.593058
 30
0.0
 11
293.193069
 21
272.593058
 31
0.0
  0
LINE
  5
279
330
1F
100
AcDbEntity
  8
LC-001-100-D00-0
 62
     7
370
    50
100
AcDbLine
 10
306.943069
 20
271.593058
 30
0.0
 11
293.193069
 21
271.593058
 31
0.0
  0
ARC
  5
27A
330
1F
100
AcDbEntity
  8
LC-001-100-D00-0
 62
     7
370
    50
100
AcDbCircle
 10
306.943069
 20
259.593058
 30
0.0
 40
12.0
100
AcDbArc
 50
0.0
 51
90.0
  0
LINE
  5
27B
330
1F
100
AcDbEntity
  8
LC-001-100-D00-0
 62
     7
370
    50
100
AcDbLine
 10
318.943068
 20
206.593056
 30
0.0
 11
318.943068
 21
259.593058
 31
0.0
  0
LINE
  5
27C
330
1F
100
AcDbEntity
  8
LC-001-100-D00-0
 62
     7
370
    50
100
AcDbLine
 10
317.443068
 20
206.593056
 30
0.0
 11
318.943068
 21
206.593056
 31
0.0
  0
LINE
  5
27D
330
1F
100
AcDbEntity
  8
LC-001-100-D00-0
 62
     7
370
    50
100
AcDbLine
 10
317.443068
 20
241.593058
 30
0.0
 11
317.443068
 21
206.593056
 31
0.0
  0
LINE
  5
27E
330
1F
100
AcDbEntity
  8
LC-001-100-D00-0
 62
     7
370
    50
100
AcDbLine
 10
305.416788
 20
241.593058
 30
0.0
 11
317.443068
 21
241.593058
 31
0.0
  0
LINE
  5
27F
330
1F
100
AcDbEntity
  8
LC-001-100-D00-0
 62
     7
370
    50
100
AcDbLine
 10
303.943069
 20
247.093058
 30
0.0
 11
305.416788
 21
241.593058
 31
0.0
  0
LINE
  5
280
330
1F
100
AcDbEntity
  8
LC-001-100-D00-0
 62
     7
370
    50
100
AcDbLine
 10
303.943069
 20
256.593058
 30
0.0
 11
303.943069
 21
247.093058
 31
0.0
  0
LINE
  5
281
330
1F
100
AcDbEntity
  8
LC-001-100-D00-0
 62
     7
370
    50
100
AcDbLine
 10
301.443069
 20
256.593058
 30
0.0
 11
303.943069
 21
256.593058
 31
0.0
  0
LINE
  5
282
330
1F
100
AcDbEntity
  8
LC-001-100-D00-0
 62
     7
370
    50
100
AcDbLine
 10
301.443069
 20
256.593058
 30
0.0
 11
301.443069
 21
254.093058
 31
0.0
  0
LINE
  5
283
330
1F
100
AcDbEntity
  8
LC-001-100-D00-0
 62
     7
370
    50
100
AcDbLine
 10
301.443069
 20
254.093058
 30
0.0
 11
300.907171
 21
252.093058
 31
0.0
  0
LINE
  5
284
330
1F
100
AcDbEntity
  8
LC-001-100-D00-0
 62
     7
370
    50
100
AcDbLine
 10
300.907171
 20
252.093058
 30
0.0
 11
297.443069
 21
252.093058
 31
0.0
  0
LINE
  5
285
330
1F
100
AcDbEntity
  8
LC-001-100-D00-0
 62
     7
370
    50
100
AcDbLine
 10
297.443069
 20
269.593057
 30
0.0
 11
297.443069
 21
252.093058
 31
0.0
  0
LINE
  5
286
330
1F
100
AcDbEntity
  8
LC-001-100-D00-0
 62
     7
370
    50
100
AcDbLine
 10
251.443069
 20
269.593057
 30
0.0
 11
297.443069
 21
269.593057
 31
0.0
  0
ARC
  5
287
330
1F
100
AcDbEntity
  8
LC-001-100-D00-0
 62
     7
370
    50
100
AcDbCircle
 10
251.443069
 20
259.593058
 30
0.0
 40
10.0
100
AcDbArc
 50
90.0
 51
180.0
  0
LINE
  5
288
330
1F
100
AcDbEntity
  8
LC-001-100-D00-0
 62
     7
370
    50
100
AcDbLine
 10
241.443071
 20
206.593056
 30
0.0
 11
241.443071
 21
259.593058
 31
0.0
  0
LINE
  5
289
330
1F
100
AcDbEntity
  8
LC-001-100-D00-0
 62
     7
370
    50
100
AcDbLine
 10
239.943068
 20
206.593056
 30
0.0
 11
241.443071
 21
206.593056
 31
0.0
  0
LINE
  5
28A
330
1F
100
AcDbEntity
  8
LC-001-100-D00-0
 62
     7
370
    50
100
AcDbLine
 10
239.943068
 20
259.593058
 30
0.0
 11
239.943068
 21
206.593056
 31
0.0
  0
ARC
  5
28B
330
1F
100
AcDbEntity
  8
LC-001-100-D00-0
 62
     7
370
    50
100
AcDbCircle
 10
251.943069
 20
259.593058
 30
0.0
 40
12.0
100
AcDbArc
 50
90.0
 51
180.0
  0
LINE
  5
28C
330
1F
100
AcDbEntity
  8
LC-001-100-D00-0
 62
     7
370
    50
100
AcDbLine
 10
265.693069
 20
271.593058
 30
0.0
 11
251.94307
 21
271.593058
 31
0.0
  0
LINE
  5
28D
330
1F
100
AcDbEntity
  8
LC-001-100-D00-0
 62
     7
370
    50
100
AcDbLine
 10
265.693069
 20
271.593058
 30
0.0
 11
265.693069
 21
272.593058
 31
0.0
  0
LINE
  5
28E
330
1F
100
AcDbEntity
  8
LC-001-100-D00-0
 62
     7
370
    50
100
AcDbLine
 10
241.443071
 20
206.593056
 30
0.0
 11
254.94307
 21
206.593056
 31
0.0
  0
LINE
  5
28F
330
1F
100
AcDbEntity
  8
LC-001-100-D00-0
 62
     7
370
    50
100
AcDbLine
 10
303.943069
 20
206.593056
 30
0.0
 11
317.443068
 21
206.593056
 31
0.0
  0
INSERT
  5
2A1
330
1F
100
AcDbEntity
  8
LC-001-100-D00-0
 62
     7
370
    50
100
AcDbBlockReference
  2
POLY24
 10
0.0
 20
0.0
 30
0.0
  0
LINE
  5
2A2
330
1F
100
AcDbEntity
  8
LC-001-100-D00-0
 62
     7
370
    50
100
AcDbLine
 10
266.429072
 20
256.09312
 30
0.0
 11
266.425294
 21
256.593058
 31
0.0
  0
LINE
  5
2A3
330
1F
100
AcDbEntity
  8
LC-001-100-D00-0
 62
     7
370
    50
100
AcDbLine
 10
269.709303
 20
252.093058
 30
0.0
 11
269.577044
 21
269.593057
 31
0.0
  0
LINE
  5
2A4
330
1F
100
AcDbEntity
  8
LC-001-100-D00-0
 62
     7
370
    50
100
AcDbLine
 10
267.977253
 20
252.093058
 30
0.0
 11
269.709303
 21
252.093058
 31
0.0
  0
LINE
  5
2A5
330
1F
100
AcDbEntity
  8
LC-001-100-D00-0
 62
     7
370
    50
100
AcDbLine
 10
267.703157
 20
254.029689
 30
0.0
 11
267.977253
 21
252.093058
 31
0.0
  0
LINE
  5
2A6
330
1F
100
AcDbEntity
  8
LC-001-100-D00-0
 62
     7
370
    50
100
AcDbLine
 10
267.679072
 20
256.09312
 30
0.0
 11
267.675294
 21
256.593058
 31
0.0
  0
LINE
  5
2A7
330
1F
100
AcDbEntity
  8
LC-001-100-D00-0
 62
     7
370
    50
100
AcDbLine
 10
266.425294
 20
256.593058
 30
0.0
 11
267.675294
 21
256.593058
 31
0.0
  0
LINE
  5
2A8
330
1F
100
AcDbEntity
  8
LC-001-100-D00-0
 62
     7
370
    50
100
AcDbLine
 10
271.176835
 20
252.093058
 30
0.0
 11
271.309095
 21
269.593057
 31
0.0
  0
LINE
  5
2A9
330
1F
100
AcDbEntity
  8
LC-001-100-D00-0
 62
     7
370
    50
100
AcDbLine
 10
269.709303
 20
252.093058
 30
0.0
 11
271.176835
 21
252.093058
 31
0.0
  0
ARC
  5
2AA
330
1F
100
AcDbEntity
  8
LC-001-100-D00-0
 62
     7
370
    50
100
AcDbCircle
 10
328.20321
 20
194.593121
 30
0.0
 40
3.0
100
AcDbArc
 50
270.0
 51
344.999892
  0
ARC
  5
2AB
330
1F
100
AcDbEntity
  8
LC-001-100-D00-0
 62
     7
370
    50
100
AcDbCircle
 10
230.682928
 20
194.593121
 30
0.0
 40
3.000000000000007
100
AcDbArc
 50
195.000108
 51
270.0
  0
LINE
  5
2AC
330
1F
100
AcDbEntity
  8
LC-001-100-D00-0
 62
     7
370
    50
100
AcDbLine
 10
342.443067
 20
262.518578
 30
0.0
 11
342.443067
 21
251.593121
 31
0.0
  0
LINE
  5
2AD
330
1F
100
AcDbEntity
  8
LC-001-100-D00-0
 62
     7
370
    50
100
AcDbLine
 10
216.443068
 20
251.593121
 30
0.0
 11
216.443068
 21
262.518578
 31
0.0
  0
ARC
  5
2AE
330
1F
100
AcDbEntity
  8
LC-001-100-D00-0
 62
     7
370
    50
100
AcDbCircle
 10
325.873051
 20
197.093121
 30
0.0
 40
3.0
100
AcDbArc
 50
270.0
 51
344.999691
  0
ARC
  5
2AF
330
1F
100
AcDbEntity
  8
LC-001-100-D00-0
 62
     7
370
    50
100
AcDbCircle
 10
233.013088
 20
197.093121
 30
0.0
 40
3.00000000000001
100
AcDbArc
 50
195.000309
 51
270.0
  0
ARC
  5
2B0
330
1F
100
AcDbEntity
  8
LC-001-100-D00-0
 62
     7
370
    50
100
AcDbCircle
 10
253.443069
 20
195.593121
 30
0.0
 40
1.5
100
AcDbArc
 50
270.0
 51
0.0
  0
ARC
  5
2B1
330
1F
100
AcDbEntity
  8
LC-001-100-D00-0
 62
     7
370
    50
100
AcDbCircle
 10
305.443069
 20
195.593121
 30
0.0
 40
1.5
100
AcDbArc
 50
180.0
 51
270.0
  0
LINE
  5
2B2
330
1F
100
AcDbEntity
  8
LC-001-100-D00-0
 62
     7
370
    50
100
AcDbLine
 10
227.494183
 20
206.098632
 30
0.0
 11
230.115316
 21
196.316649
 31
0.0
  0
LINE
  5
2B3
330
1F
100
AcDbEntity
  8
LC-001-100-D00-0
 62
     7
370
    50
100
AcDbLine
 10
328.770823
 20
196.316649
 30
0.0
 11
331.391956
 21
206.098632
 31
0.0
  0
ARC
  5
2B4
330
1F
100
AcDbEntity
  8
LC-001-100-D00-0
 62
     7
370
    50
100
AcDbCircle
 10
228.943069
 20
206.48687
 30
0.0
 40
1.500000000000057
100
AcDbArc
 50
180.0
 51
195.000309
  0
LINE
  5
2B5
330
1F
100
AcDbEntity
  8
LC-001-100-D00-0
 62
     7
370
    50
100
AcDbLine
 10
233.013089
 20
194.09312
 30
0.0
 11
253.443069
 21
194.09312
 31
0.0
  0
LINE
  5
2B6
330
1F
100
AcDbEntity
  8
LC-001-100-D00-0
 62
     7
370
    50
100
AcDbLine
 10
254.94307
 20
256.09312
 30
0.0
 11
254.94307
 21
195.59312
 31
0.0
  0
LINE
  5
2B7
330
1F
100
AcDbEntity
  8
LC-001-100-D00-0
 62
     7
370
    50
100
AcDbLine
 10
257.44307
 20
256.09312
 30
0.0
 11
254.94307
 21
256.09312
 31
0.0
  0
LINE
  5
2B8
330
1F
100
AcDbEntity
  8
LC-001-100-D00-0
 62
     7
370
    50
100
AcDbLine
 10
257.44307
 20
133.593121
 30
0.0
 11
257.44307
 21
256.09312
 31
0.0
  0
LINE
  5
2B9
330
1F
100
AcDbEntity
  8
LC-001-100-D00-0
 62
     7
370
    50
100
AcDbLine
 10
257.44307
 20
133.593121
 30
0.0
 11
255.380892
 21
133.593121
 31
0.0
  0
LINE
  5
2BA
330
1F
100
AcDbEntity
  8
LC-001-100-D00-0
 62
     7
370
    50
100
AcDbLine
 10
255.380892
 20
133.593121
 30
0.0
 11
254.443069
 21
137.09312
 31
0.0
  0
LINE
  5
2BB
330
1F
100
AcDbEntity
  8
LC-001-100-D00-0
 62
     7
370
    50
100
AcDbLine
 10
254.443069
 20
191.593119
 30
0.0
 11
254.443069
 21
137.09312
 31
0.0
  0
LINE
  5
2BC
330
1F
100
AcDbEntity
  8
LC-001-100-D00-0
 62
     7
370
    50
100
AcDbLine
 10
230.682927
 20
191.593119
 30
0.0
 11
254.443069
 21
191.593119
 31
0.0
  0
LINE
  5
2BD
330
1F
100
AcDbEntity
  8
LC-001-100-D00-0
 62
     7
370
    50
100
AcDbLine
 10
224.44307
 20
206.289386
 30
0.0
 11
227.785151
 21
193.816659
 31
0.0
  0
LINE
  5
2BE
330
1F
100
AcDbEntity
  8
LC-001-100-D00-0
 62
     7
370
    50
100
AcDbLine
 10
224.44307
 20
248.59312
 30
0.0
 11
224.44307
 21
206.289386
 31
0.0
  0
ARC
  5
2BF
330
1F
100
AcDbEntity
  8
LC-001-100-D00-0
 62
     7
370
    50
100
AcDbCircle
 10
219.443069
 20
251.593121
 30
0.0
 40
3.0
100
AcDbArc
 50
180.0
 51
270.0
  0
LINE
  5
2C0
330
1F
100
AcDbEntity
  8
LC-001-100-D00-0
 62
     7
370
    50
100
AcDbLine
 10
216.443068
 20
262.518578
 30
0.0
 11
212.341017
 21
262.518578
 31
0.0
  0
ARC
  5
2C1
330
1F
100
AcDbEntity
  8
LC-001-100-D00-0
 62
     7
370
    50
100
AcDbCircle
 10
209.443069
 20
266.593121
 30
0.0
 40
4.999999999999925
100
AcDbArc
 50
234.578322
 51
305.421678
  0
LINE
  5
2C2
330
1F
100
AcDbEntity
  8
LC-001-100-D00-0
 62
     7
370
    50
100
AcDbLine
 10
206.545125
 20
262.518578
 30
0.0
 11
203.443068
 21
262.518578
 31
0.0
  0
LINE
  5
2C3
330
1F
100
AcDbEntity
  8
LC-001-100-D00-0
 62
     7
370
    50
100
AcDbLine
 10
203.443068
 20
272.018577
 30
0.0
 11
203.443068
 21
262.518578
 31
0.0
  0
LINE
  5
2C4
330
1F
100
AcDbEntity
  8
LC-001-100-D00-0
 62
     7
370
    50
100
AcDbLine
 10
203.443068
 20
272.018577
 30
0.0
 11
196.470204
 21
272.018577
 31
0.0
  0
LINE
  5
2C5
330
1F
100
AcDbEntity
  8
LC-001-100-D00-0
 62
     7
370
    50
100
AcDbLine
 10
196.470204
 20
272.018577
 30
0.0
 11
193.791795
 21
274.397318
 31
0.0
  0
LINE
  5
2C6
330
1F
100
AcDbEntity
  8
LC-001-100-D00-0
 62
     7
370
    50
100
AcDbLine
 10
193.791795
 20
274.397318
 30
0.0
 11
173.925105
 21
280.471177
 31
0.0
  0
LINE
  5
2C7
330
1F
100
AcDbEntity
  8
LC-001-100-D00-0
 62
     7
370
    50
100
AcDbLine
 10
173.925105
 20
280.471177
 30
0.0
 11
164.943072
 21
280.780659
 31
0.0
  0
LINE
  5
2C8
330
1F
100
AcDbEntity
  8
LC-001-100-D00-0
 62
     7
370
    50
100
AcDbLine
 10
164.943072
 20
282.263634
 30
0.0
 11
164.943072
 21
280.780659
 31
0.0
  0
ARC
  5
2C9
330
1F
100
AcDbEntity
  8
LC-001-100-D00-0
 62
     7
370
    15
100
AcDbCircle
 10
166.943069
 20
282.263635
 30
0.0
 40
2.000000000000044
100
AcDbArc
 50
118.490517
 51
180.0
  0
LINE
  5
2CA
330
1F
100
AcDbEntity
  8
LC-001-100-D00-0
 62
     7
370
    50
100
AcDbLine
 10
194.443072
 20
277.858124
 30
0.0
 11
174.28382
 21
284.021427
 31
0.0
  0
LINE
  5
2CB
330
1F
100
AcDbEntity
  8
LC-001-100-D00-0
 62
     7
370
    50
100
AcDbLine
 10
196.443069
 20
274.358125
 30
0.0
 11
196.443069
 21
277.528729
 31
0.0
  0
LINE
  5
2CC
330
1F
100
AcDbEntity
  8
LC-001-100-D00-0
 62
     7
370
    50
100
AcDbLine
 10
203.443068
 20
274.358125
 30
0.0
 11
196.443069
 21
274.358125
 31
0.0
  0
LINE
  5
2CD
330
1F
100
AcDbEntity
  8
LC-001-100-D00-0
 62
     7
370
    50
100
AcDbLine
 10
203.443068
 20
277.528729
 30
0.0
 11
203.443068
 21
274.358125
 31
0.0
  0
LINE
  5
2CE
330
1F
100
AcDbEntity
  8
LC-001-100-D00-0
 62
     7
370
    50
100
AcDbLine
 10
206.943068
 20
265.358125
 30
0.0
 11
206.943068
 21
277.858124
 31
0.0
  0
LINE
  5
2CF
330
1F
100
AcDbEntity
  8
LC-001-100-D00-0
 62
     7
370
    50
100
AcDbLine
 10
207.443069
 20
264.858126
 30
0.0
 11
206.943068
 21
265.358125
 31
0.0
  0
LINE
  5
2D0
330
1F
100
AcDbEntity
  8
LC-001-100-D00-0
 62
     7
370
    50
100
AcDbLine
 10
207.443069
 20
264.858126
 30
0.0
 11
211.44307
 21
264.858126
 31
0.0
  0
LINE
  5
2D1
330
1F
100
AcDbEntity
  8
LC-001-100-D00-0
 62
     7
370
    50
100
AcDbLine
 10
211.943071
 20
265.358125
 30
0.0
 11
211.44307
 21
264.858126
 31
0.0
  0
LINE
  5
2D2
330
1F
100
AcDbEntity
  8
LC-001-100-D00-0
 62
     7
370
    50
100
AcDbLine
 10
211.943071
 20
277.683187
 30
0.0
 11
211.943071
 21
265.358125
 31
0.0
  0
LINE
  5
2D3
330
1F
100
AcDbEntity
  8
LC-001-100-D00-0
 62
     7
370
    50
100
AcDbLine
 10
214.443176
 20
278.358125
 30
0.0
 11
214.443068
 21
278.357939
 31
0.0
  0
LINE
  5
2D4
330
1F
100
AcDbEntity
  8
LC-001-100-D00-0
 62
     7
370
    50
100
AcDbLine
 10
215.44307
 20
279.358198
 30
0.0
 11
216.443068
 21
279.358198
 31
0.0
  0
LINE
  5
2D5
330
1F
100
AcDbEntity
  8
LC-001-100-D00-0
 62
     7
370
    50
100
AcDbLine
 10
216.443068
 20
282.358197
 30
0.0
 11
216.443068
 21
279.358198
 31
0.0
  0
LINE
  5
2D6
330
1F
100
AcDbEntity
  8
LC-001-100-D00-0
 62
     7
370
    50
100
AcDbLine
 10
216.443068
 20
282.358197
 30
0.0
 11
218.443069
 21
282.358197
 31
0.0
  0
LINE
  5
2D7
330
1F
100
AcDbEntity
  8
LC-001-100-D00-0
 62
     7
370
    50
100
AcDbLine
 10
218.443069
 20
279.358198
 30
0.0
 11
218.443069
 21
282.358197
 31
0.0
  0
LINE
  5
2D8
330
1F
100
AcDbEntity
  8
LC-001-100-D00-0
 62
     7
370
    50
100
AcDbLine
 10
218.442964
 20
279.358198
 30
0.0
 11
218.443069
 21
279.358198
 31
0.0
  0
LINE
  5
2D9
330
1F
100
AcDbEntity
  8
LC-001-100-D00-0
 62
     7
370
    50
100
AcDbLine
 10
219.443071
 20
278.358125
 30
0.0
 11
218.442964
 21
279.358198
 31
0.0
  0
LINE
  5
2DA
330
1F
100
AcDbEntity
  8
LC-001-100-D00-0
 62
     7
370
    50
100
AcDbLine
 10
219.443071
 20
251.593121
 30
0.0
 11
219.443071
 21
278.358125
 31
0.0
  0
LINE
  5
2DB
330
1F
100
AcDbEntity
  8
LC-001-100-D00-0
 62
     7
370
    50
100
AcDbLine
 10
227.443068
 20
251.593121
 30
0.0
 11
219.443071
 21
251.593121
 31
0.0
  0
LINE
  5
2DC
330
1F
100
AcDbEntity
  8
LC-001-100-D00-0
 62
     7
370
    50
100
AcDbLine
 10
227.443068
 20
251.593121
 30
0.0
 11
227.443068
 21
206.486871
 31
0.0
  0
LINE
  5
2DD
330
1F
100
AcDbEntity
  8
LC-001-100-D00-0
 62
     7
370
    50
100
AcDbLine
 10
219.443071
 20
248.59312
 30
0.0
 11
224.44307
 21
248.59312
 31
0.0
  0
LINE
  5
2DE
330
1F
100
AcDbEntity
  8
LC-001-100-D00-0
 62
     7
370
    50
100
AcDbLine
 10
331.443071
 20
206.486871
 30
0.0
 11
331.443071
 21
251.593121
 31
0.0
  0
LINE
  5
2DF
330
1F
100
AcDbEntity
  8
LC-001-100-D00-0
 62
     7
370
    50
100
AcDbLine
 10
227.443068
 20
251.593121
 30
0.0
 11
239.943068
 21
251.593121
 31
0.0
  0
LINE
  5
2E0
330
1F
100
AcDbEntity
  8
LC-001-100-D00-0
 62
     7
370
    50
100
AcDbLine
 10
318.943068
 20
251.593121
 30
0.0
 11
331.443071
 21
251.593121
 31
0.0
  0
ARC
  5
2E1
330
1F
100
AcDbEntity
  8
LC-001-100-D00-0
 62
     7
370
    50
100
AcDbCircle
 10
329.943069
 20
206.48687
 30
0.0
 40
1.49999999999997
100
AcDbArc
 50
344.999691
 51
0.0
  0
LINE
  5
2E2
330
1F
100
AcDbEntity
  8
LC-001-100-D00-0
 62
     7
370
    50
100
AcDbLine
 10
339.443068
 20
251.593121
 30
0.0
 11
331.443071
 21
251.593121
 31
0.0
  0
LINE
  5
2E3
330
1F
100
AcDbEntity
  8
LC-001-100-D00-0
 62
     7
370
    50
100
AcDbLine
 10
339.443068
 20
278.358125
 30
0.0
 11
339.443068
 21
251.593121
 31
0.0
  0
LINE
  5
2E4
330
1F
100
AcDbEntity
  8
LC-001-100-D00-0
 62
     7
370
    50
100
AcDbLine
 10
340.443174
 20
279.358198
 30
0.0
 11
339.443068
 21
278.358125
 31
0.0
  0
LINE
  5
2E5
330
1F
100
AcDbEntity
  8
LC-001-100-D00-0
 62
     7
370
    50
100
AcDbLine
 10
340.443174
 20
279.358198
 30
0.0
 11
343.443069
 21
279.358198
 31
0.0
  0
LINE
  5
2E6
330
1F
100
AcDbEntity
  8
LC-001-100-D00-0
 62
     7
370
    50
100
AcDbLine
 10
343.443069
 20
277.858124
 30
0.0
 11
343.443069
 21
282.228729
 31
0.0
  0
LINE
  5
2E7
330
1F
100
AcDbEntity
  8
LC-001-100-D00-0
 62
     7
370
    50
100
AcDbLine
 10
344.154286
 20
277.858124
 30
0.0
 11
343.443069
 21
277.858124
 31
0.0
  0
LINE
  5
2E8
330
1F
100
AcDbEntity
  8
LC-001-100-D00-0
 62
     7
370
    50
100
AcDbLine
 10
344.442959
 20
278.358125
 30
0.0
 11
344.154286
 21
277.858124
 31
0.0
  0
LINE
  5
2E9
330
1F
100
AcDbEntity
  8
LC-001-100-D00-0
 62
     7
370
    50
100
AcDbLine
 10
344.443071
 20
278.357939
 30
0.0
 11
344.442959
 21
278.358125
 31
0.0
  0
LINE
  5
2EA
330
1F
100
AcDbEntity
  8
LC-001-100-D00-0
 62
     7
370
    50
100
AcDbLine
 10
344.443071
 20
278.357939
 30
0.0
 11
344.443071
 21
277.858124
 31
0.0
  0
LINE
  5
2EB
330
1F
100
AcDbEntity
  8
LC-001-100-D00-0
 62
     7
370
    50
100
AcDbLine
 10
346.943068
 20
277.858124
 30
0.0
 11
344.443071
 21
277.858124
 31
0.0
  0
LINE
  5
2EC
330
1F
100
AcDbEntity
  8
LC-001-100-D00-0
 62
     7
370
    50
100
AcDbLine
 10
346.943068
 20
265.358125
 30
0.0
 11
346.943068
 21
277.858124
 31
0.0
  0
LINE
  5
2ED
330
1F
100
AcDbEntity
  8
LC-001-100-D00-0
 62
     7
370
    50
100
AcDbLine
 10
347.443069
 20
264.858126
 30
0.0
 11
346.943068
 21
265.358125
 31
0.0
  0
LINE
  5
2EE
330
1F
100
AcDbEntity
  8
LC-001-100-D00-0
 62
     7
370
    50
100
AcDbLine
 10
347.443069
 20
264.858126
 30
0.0
 11
351.44307
 21
264.858126
 31
0.0
  0
LINE
  5
2EF
330
1F
100
AcDbEntity
  8
LC-001-100-D00-0
 62
     7
370
    50
100
AcDbLine
 10
351.943071
 20
265.358125
 30
0.0
 11
351.44307
 21
264.858126
 31
0.0
  0
LINE
  5
2F0
330
1F
100
AcDbEntity
  8
LC-001-100-D00-0
 62
     7
370
    50
100
AcDbLine
 10
351.943071
 20
277.858124
 30
0.0
 11
351.943071
 21
265.358125
 31
0.0
  0
LINE
  5
2F1
330
1F
100
AcDbEntity
  8
LC-001-100-D00-0
 62
     7
370
    50
100
AcDbLine
 10
354.443069
 20
277.858124
 30
0.0
 11
351.943071
 21
277.858124
 31
0.0
  0
LINE
  5
2F2
330
1F
100
AcDbEntity
  8
LC-001-100-D00-0
 62
     7
370
    50
100
AcDbLine
 10
354.443069
 20
277.858124
 30
0.0
 11
354.443069
 21
278.358125
 31
0.0
  0
LINE
  5
2F3
330
1F
100
AcDbEntity
  8
LC-001-100-D00-0
 62
     7
370
    50
100
AcDbLine
 10
354.731741
 20
277.858124
 30
0.0
 11
354.443069
 21
278.358125
 31
0.0
  0
LINE
  5
2F4
330
1F
100
AcDbEntity
  8
LC-001-100-D00-0
 62
     7
370
    50
100
AcDbLine
 10
355.443071
 20
277.858124
 30
0.0
 11
354.731741
 21
277.858124
 31
0.0
  0
LINE
  5
2F5
330
1F
100
AcDbEntity
  8
LC-001-100-D00-0
 62
     7
370
    50
100
AcDbLine
 10
355.443071
 20
274.358125
 30
0.0
 11
355.443071
 21
277.858124
 31
0.0
  0
LINE
  5
2F6
330
1F
100
AcDbEntity
  8
LC-001-100-D00-0
 62
     7
370
    50
100
AcDbLine
 10
362.44307
 20
274.358125
 30
0.0
 11
355.443071
 21
274.358125
 31
0.0
  0
LINE
  5
2F7
330
1F
100
AcDbEntity
  8
LC-001-100-D00-0
 62
     7
370
    50
100
AcDbLine
 10
362.44307
 20
277.858124
 30
0.0
 11
362.44307
 21
274.358125
 31
0.0
  0
LINE
  5
2F8
330
1F
100
AcDbEntity
  8
LC-001-100-D00-0
 62
     7
370
    50
100
AcDbLine
 10
364.443067
 20
277.858124
 30
0.0
 11
362.44307
 21
277.858124
 31
0.0
  0
LINE
  5
2F9
330
1F
100
AcDbEntity
  8
LC-001-100-D00-0
 62
     7
370
    50
100
AcDbLine
 10
384.602319
 20
284.021427
 30
0.0
 11
364.443067
 21
277.858124
 31
0.0
  0
ARC
  5
2FA
330
1F
100
AcDbEntity
  8
LC-001-100-D00-0
 62
     7
370
    15
100
AcDbCircle
 10
391.943069
 20
282.263635
 30
0.0
 40
2.0
100
AcDbArc
 50
0.0
 51
61.509483
  0
LINE
  5
2FB
330
1F
100
AcDbEntity
  8
LC-001-100-D00-0
 62
     7
370
    50
100
AcDbLine
 10
393.943067
 20
280.780659
 30
0.0
 11
393.943067
 21
282.263634
 31
0.0
  0
LINE
  5
2FC
330
1F
100
AcDbEntity
  8
LC-001-100-D00-0
 62
     7
370
    50
100
AcDbLine
 10
393.943067
 20
280.780659
 30
0.0
 11
384.961034
 21
280.471177
 31
0.0
  0
LINE
  5
2FD
330
1F
100
AcDbEntity
  8
LC-001-100-D00-0
 62
     7
370
    50
100
AcDbLine
 10
384.961034
 20
280.471177
 30
0.0
 11
365.094344
 21
274.397318
 31
0.0
  0
LINE
  5
2FE
330
1F
100
AcDbEntity
  8
LC-001-100-D00-0
 62
     7
370
    50
100
AcDbLine
 10
365.094344
 20
274.397318
 30
0.0
 11
362.415935
 21
272.018577
 31
0.0
  0
LINE
  5
2FF
330
1F
100
AcDbEntity
  8
LC-001-100-D00-0
 62
     7
370
    50
100
AcDbLine
 10
362.415935
 20
272.018577
 30
0.0
 11
355.443071
 21
272.018577
 31
0.0
  0
LINE
  5
300
330
1F
100
AcDbEntity
  8
LC-001-100-D00-0
 62
     7
370
    50
100
AcDbLine
 10
355.443071
 20
262.518578
 30
0.0
 11
355.443071
 21
272.018577
 31
0.0
  0
LINE
  5
301
330
1F
100
AcDbEntity
  8
LC-001-100-D00-0
 62
     7
370
    50
100
AcDbLine
 10
355.443071
 20
262.518578
 30
0.0
 11
352.341014
 21
262.518578
 31
0.0
  0
ARC
  5
302
330
1F
100
AcDbEntity
  8
LC-001-100-D00-0
 62
     7
370
    50
100
AcDbCircle
 10
349.443069
 20
266.593121
 30
0.0
 40
4.999999999999925
100
AcDbArc
 50
234.578322
 51
305.421678
  0
LINE
  5
303
330
1F
100
AcDbEntity
  8
LC-001-100-D00-0
 62
     7
370
    50
100
AcDbLine
 10
346.545118
 20
262.518578
 30
0.0
 11
342.443067
 21
262.518578
 31
0.0
  0
ARC
  5
304
330
1F
100
AcDbEntity
  8
LC-001-100-D00-0
 62
     7
370
    50
100
AcDbCircle
 10
339.443069
 20
251.593121
 30
0.0
 40
3.0
100
AcDbArc
 50
270.0
 51
0.0
  0
LINE
  5
305
330
1F
100
AcDbEntity
  8
LC-001-100-D00-0
 62
     7
370
    50
100
AcDbLine
 10
334.443069
 20
206.289386
 30
0.0
 11
334.443069
 21
248.59312
 31
0.0
  0
LINE
  5
306
330
1F
100
AcDbEntity
  8
LC-001-100-D00-0
 62
     7
370
    50
100
AcDbLine
 10
331.100985
 20
193.816659
 30
0.0
 11
334.443069
 21
206.289386
 31
0.0
  0
LINE
  5
307
330
1F
100
AcDbEntity
  8
LC-001-100-D00-0
 62
     7
370
    50
100
AcDbLine
 10
304.443068
 20
191.593119
 30
0.0
 11
328.203212
 21
191.593119
 31
0.0
  0
LINE
  5
308
330
1F
100
AcDbEntity
  8
LC-001-100-D00-0
 62
     7
370
    50
100
AcDbLine
 10
304.443068
 20
137.09312
 30
0.0
 11
304.443068
 21
191.593119
 31
0.0
  0
LINE
  5
309
330
1F
100
AcDbEntity
  8
LC-001-100-D00-0
 62
     7
370
    50
100
AcDbLine
 10
304.443068
 20
137.09312
 30
0.0
 11
303.505247
 21
133.593121
 31
0.0
  0
LINE
  5
30A
330
1F
100
AcDbEntity
  8
LC-001-100-D00-0
 62
     7
370
    50
100
AcDbLine
 10
303.505247
 20
133.593121
 30
0.0
 11
301.443069
 21
133.593121
 31
0.0
  0
LINE
  5
30B
330
1F
100
AcDbEntity
  8
LC-001-100-D00-0
 62
     7
370
    50
100
AcDbLine
 10
301.443069
 20
256.09312
 30
0.0
 11
301.443069
 21
133.593121
 31
0.0
  0
LINE
  5
30C
330
1F
100
AcDbEntity
  8
LC-001-100-D00-0
 62
     7
370
    50
100
AcDbLine
 10
303.943069
 20
256.09312
 30
0.0
 11
301.443069
 21
256.09312
 31
0.0
  0
LINE
  5
30D
330
1F
100
AcDbEntity
  8
LC-001-100-D00-0
 62
     7
370
    50
100
AcDbLine
 10
303.943069
 20
195.59312
 30
0.0
 11
303.943069
 21
256.09312
 31
0.0
  0
LINE
  5
30E
330
1F
100
AcDbEntity
  8
LC-001-100-D00-0
 62
     7
370
    50
100
AcDbLine
 10
305.44307
 20
194.09312
 30
0.0
 11
325.87305
 21
194.09312
 31
0.0
  0
LINE
  5
30F
330
1F
100
AcDbEntity
  8
LC-001-100-D00-0
 62
     7
370
    50
100
AcDbLine
 10
334.443069
 20
248.59312
 30
0.0
 11
339.443068
 21
248.59312
 31
0.0
  0
LINE
  5
310
330
1F
100
AcDbEntity
  8
LC-001-100-D00-0
 62
     7
370
    50
100
AcDbLine
 10
219.443071
 20
278.358125
 30
0.0
 11
267.781919
 21
278.358125
 31
0.0
  0
LINE
  5
311
330
1F
100
AcDbEntity
  8
LC-001-100-D00-0
 62
     7
370
    50
100
AcDbLine
 10
291.104219
 20
278.358125
 30
0.0
 11
339.443068
 21
278.358125
 31
0.0
  0
LINE
  5
312
330
1F
100
AcDbEntity
  8
LC-001-100-D00-0
 62
     7
370
    50
100
AcDbLine
 10
218.509629
 20
279.358198
 30
0.0
 11
268.75734
 21
279.358198
 31
0.0
  0
LINE
  5
313
330
1F
100
AcDbEntity
  8
LC-001-100-D00-0
 62
     7
370
    50
100
AcDbLine
 10
206.943068
 20
265.358125
 30
0.0
 11
211.943071
 21
265.358125
 31
0.0
  0
LINE
  5
314
330
1F
100
AcDbEntity
  8
LC-001-100-D00-0
 62
     7
370
    50
100
AcDbLine
 10
207.443069
 20
277.858124
 30
0.0
 11
206.943068
 21
277.858124
 31
0.0
  0
LINE
  5
315
330
1F
100
AcDbEntity
  8
LC-001-100-D00-0
 62
     7
370
    50
100
AcDbLine
 10
257.44307
 20
256.09312
 30
0.0
 11
267.679072
 21
256.09312
 31
0.0
  0
LINE
  5
316
330
1F
100
AcDbEntity
  8
LC-001-100-D00-0
 62
     7
370
    50
100
AcDbLine
 10
271.207066
 20
256.09312
 30
0.0
 11
297.443069
 21
256.09312
 31
0.0
  0
LINE
  5
317
330
1F
100
AcDbEntity
  8
LC-001-100-D00-0
 62
     7
370
    50
100
AcDbLine
 10
257.44307
 20
133.593121
 30
0.0
 11
301.443069
 21
133.593121
 31
0.0
  0
INSERT
  5
323
330
1F
100
AcDbEntity
  8
LC-001-100-D00-0
 62
     7
370
    50
100
AcDbBlockReference
  2
POLY25
 10
0.0
 20
0.0
 30
0.0
  0
LINE
  5
324
330
1F
100
AcDbEntity
  8
LC-001-100-D00-0
 62
     7
370
    50
100
AcDbLine
 10
343.443069
 20
278.358125
 30
0.0
 11
344.442959
 21
278.358125
 31
0.0
  0
LINE
  5
325
330
1F
100
AcDbEntity
  8
LC-001-100-D00-0
 62
     7
370
    50
100
AcDbLine
 10
346.943068
 20
265.358125
 30
0.0
 11
351.943071
 21
265.358125
 31
0.0
  0
LINE
  5
326
330
1F
100
AcDbEntity
  8
LC-001-100-D00-0
 62
     7
370
    50
100
AcDbLine
 10
351.943071
 20
277.858124
 30
0.0
 11
346.943068
 21
277.858124
 31
0.0
  0
LINE
  5
327
330
1F
100
AcDbEntity
  8
LC-001-100-D00-0
 62
     7
370
    50
100
AcDbLine
 10
352.32878
 20
278.358125
 30
0.0
 11
354.443069
 21
278.358125
 31
0.0
  0
INSERT
  5
335
330
1F
100
AcDbEntity
  8
LC-001-100-D00-0
 62
     7
370
    50
100
AcDbBlockReference
  2
POLY26
 10
0.0
 20
0.0
 30
0.0
  0
LINE
  5
336
330
1F
100
AcDbEntity
  8
LC-001-100-D00-0
 62
     7
370
    50
100
AcDbLine
 10
218.509737
 20
282.358197
 30
0.0
 11
218.509737
 21
279.358198
 31
0.0
  0
LINE
  5
337
330
1F
100
AcDbEntity
  8
LC-001-100-D00-0
 62
     7
370
    50
100
AcDbLine
 10
218.443069
 20
279.358198
 30
0.0
 11
218.509737
 21
279.358198
 31
0.0
  0
LINE
  5
338
330
1F
100
AcDbEntity
  8
LC-001-100-D00-0
 62
     7
370
    50
100
AcDbLine
 10
218.443069
 20
282.358197
 30
0.0
 11
218.509737
 21
282.358197
 31
0.0
  0
LINE
  5
339
330
1F
100
AcDbEntity
  8
LC-001-100-D00-0
 62
     7
370
    50
100
AcDbLine
 10
355.443071
 20
277.858124
 30
0.0
 11
362.44307
 21
277.858124
 31
0.0
  0
LINE
  5
33A
330
1F
100
AcDbEntity
  8
LC-001-100-D00-0
 62
     7
370
    50
100
AcDbLine
 10
212.307449
 20
277.906676
 30
0.0
 11
212.280559
 21
277.858124
 31
0.0
  0
LINE
  5
33B
330
1F
100
AcDbEntity
  8
LC-001-100-D00-0
 62
     7
370
    50
100
AcDbLine
 10
344.442959
 20
278.358125
 30
0.0
 11
346.328679
 21
278.358125
 31
0.0
  0
LINE
  5
33C
330
1F
100
AcDbEntity
  8
LC-001-100-D00-0
 62
     7
370
    50
100
AcDbLine
 10
346.328679
 20
278.358125
 30
0.0
 11
346.05297
 21
277.858124
 31
0.0
  0
LINE
  5
33D
330
1F
100
AcDbEntity
  8
LC-001-100-D00-0
 62
     7
370
    50
100
AcDbLine
 10
346.605579
 20
277.858124
 30
0.0
 11
346.328679
 21
278.358125
 31
0.0
  0
LINE
  5
33E
330
1F
100
AcDbEntity
  8
LC-001-100-D00-0
 62
     7
370
    50
100
AcDbLine
 10
352.630424
 20
277.858124
 30
0.0
 11
352.32878
 21
278.358125
 31
0.0
  0
LINE
  5
33F
330
1F
100
AcDbEntity
  8
LC-001-100-D00-0
 62
     7
370
    50
100
AcDbLine
 10
352.32878
 20
278.358125
 30
0.0
 11
352.028336
 21
277.858124
 31
0.0
  0
LINE
  5
340
330
1F
100
AcDbEntity
  8
LC-001-100-D00-0
 62
     7
370
    50
100
AcDbLine
 10
350.271638
 20
278.358125
 30
0.0
 11
352.32878
 21
278.358125
 31
0.0
  0
LINE
  5
341
330
1F
100
AcDbEntity
  8
LC-001-100-D00-0
 62
     7
370
    50
100
AcDbLine
 10
348.55679
 20
277.858124
 30
0.0
 11
348.271641
 21
278.358125
 31
0.0
  0
LINE
  5
342
330
1F
100
AcDbEntity
  8
LC-001-100-D00-0
 62
     7
370
    50
100
AcDbLine
 10
348.271641
 20
278.358125
 30
0.0
 11
347.987685
 21
277.858124
 31
0.0
  0
LINE
  5
343
330
1F
100
AcDbEntity
  8
LC-001-100-D00-0
 62
     7
370
    50
100
AcDbLine
 10
346.328679
 20
278.358125
 30
0.0
 11
348.271641
 21
278.358125
 31
0.0
  0
LINE
  5
344
330
1F
100
AcDbEntity
  8
LC-001-100-D00-0
 62
     7
370
    50
100
AcDbLine
 10
350.565034
 20
277.858124
 30
0.0
 11
350.271638
 21
278.358125
 31
0.0
  0
LINE
  5
345
330
1F
100
AcDbEntity
  8
LC-001-100-D00-0
 62
     7
370
    50
100
AcDbLine
 10
350.271638
 20
278.358125
 30
0.0
 11
349.979433
 21
277.858124
 31
0.0
  0
LINE
  5
346
330
1F
100
AcDbEntity
  8
LC-001-100-D00-0
 62
     7
370
    50
100
AcDbLine
 10
348.271641
 20
278.358125
 30
0.0
 11
350.271638
 21
278.358125
 31
0.0
  0
LINE
  5
347
330
1F
100
AcDbEntity
  8
LC-001-100-D00-0
 62
     7
370
    50
100
AcDbLine
 10
314.44307
 20
289.228732
 30
0.0
 11
319.493069
 21
289.228732
 31
0.0
  0
LINE
  5
348
330
1F
100
AcDbEntity
  8
LC-001-100-D00-0
 62
     7
370
    50
100
AcDbLine
 10
309.39307
 20
289.228732
 30
0.0
 11
314.44307
 21
289.228732
 31
0.0
  0
LINE
  5
349
330
1F
100
AcDbEntity
  8
LC-001-100-D00-0
 62
     7
370
    50
100
AcDbLine
 10
310.693069
 20
289.800493
 30
0.0
 11
310.693069
 21
289.778511
 31
0.0
  0
ARC
  5
34A
330
1F
100
AcDbEntity
  8
LC-001-100-D00-0
 62
     7
370
    50
100
AcDbCircle
 10
314.443069
 20
284.10373
 30
0.0
 40
6.80188393020669
100
AcDbArc
 50
116.181882
 51
123.45747
  0
ARC
  5
34B
330
1F
100
AcDbEntity
  8
LC-001-100-D00-0
 62
     7
370
    50
100
AcDbCircle
 10
314.443069
 20
284.10373
 30
0.0
 40
6.801883930206286
100
AcDbArc
 50
56.54253
 51
63.818118
  0
LINE
  5
34C
330
1F
100
AcDbEntity
  8
LC-001-100-D00-0
 62
     7
370
    50
100
AcDbLine
 10
318.19307
 20
289.778511
 30
0.0
 11
318.19307
 21
289.800493
 31
0.0
  0
LINE
  5
34D
330
1F
100
AcDbEntity
  8
LC-001-100-D00-0
 62
     7
370
    50
100
AcDbLine
 10
311.532415
 20
290.22873
 30
0.0
 11
317.353725
 21
290.22873
 31
0.0
  0
INSERT
  5
359
330
1F
100
AcDbEntity
  8
LC-001-100-D00-0
 62
     7
370
    50
100
AcDbBlockReference
  2
POLY27
 10
0.0
 20
0.0
 30
0.0
  0
INSERT
  5
365
330
1F
100
AcDbEntity
  8
LC-001-100-D00-0
 62
     7
370
    50
100
AcDbBlockReference
  2
POLY28
 10
0.0
 20
0.0
 30
0.0
  0
INSERT
  5
38C
330
1F
100
AcDbEntity
  8
LC-001-100-D00-0
 62
     7
370
    25
100
AcDbBlockReference
  2
KLON21
 10
0.0
 20
0.0
 30
0.0
  0
INSERT
  5
3B1
330
1F
100
AcDbEntity
  8
LC-001-100-D00-0
 62
     7
370
    25
100
AcDbBlockReference
  2
KLON22
 10
0.0
 20
0.0
 30
0.0
  0
INSERT
  5
3CE
330
1F
100
AcDbEntity
  8
LC-001-100-D00-0
 62
     7
370
    25
100
AcDbBlockReference
  2
KLON23
 10
0.0
 20
0.0
 30
0.0
  0
INSERT
  5
3D6
330
1F
100
AcDbEntity
  8
LC-001-100-D00-0
 62
     7
370
    25
100
AcDbBlockReference
  2
KLON24
 10
0.0
 20
0.0
 30
0.0
  0
LINE
  5
3D7
330
1F
100
AcDbEntity
  8
LC-001-100-D00-0
 62
     7
370
    25
100
AcDbLine
 10
199.666462
 20
282.22873
 30
0.0
 11
200.748447
 21
283.310715
 31
0.0
  0
INSERT
  5
3DF
330
1F
100
AcDbEntity
  8
LC-001-100-D00-0
 62
     7
370
    25
100
AcDbBlockReference
  2
KLON25
 10
0.0
 20
0.0
 30
0.0
  0
LINE
  5
3E1
330
1F
100
AcDbEntity
  8
LC-001-100-D00-0
  6
DASHDOT
 62
     7
370
    25
100
AcDbLine
 10
279.443069
 20
133.593121
 30
0.0
 11
279.443069
 21
285.228732
 31
0.0
  0
LINE
  5
3E2
330
1F
100
AcDbEntity
  8
LC-001-100-D00-0
 62
     7
370
    50
100
AcDbLine
 10
215.44307
 20
277.528729
 30
0.0
 11
211.943071
 21
277.528729
 31
0.0
  0
LINE
  5
3E3
330
1F
100
AcDbEntity
  8
LC-001-100-D00-0
 62
     7
370
    50
100
AcDbLine
 10
205.520479
 20
278.028729
 30
0.0
 11
207.443069
 21
278.028729
 31
0.0
  0
LINE
  5
3E4
330
1F
100
AcDbEntity
  8
LC-001-100-D00-0
 62
     7
370
    50
100
AcDbLine
 10
195.520479
 20
277.528729
 30
0.0
 11
174.28382
 21
284.021427
 31
0.0
  0
LINE
  5
3E5
330
1F
100
AcDbEntity
  8
LC-001-100-D00-0
 62
     7
370
    50
100
AcDbLine
 10
197.519958
 20
277.528729
 30
0.0
 11
204.520479
 21
277.528729
 31
0.0
  0
LINE
  5
3E6
330
1F
100
AcDbEntity
  8
LC-001-100-D00-0
 62
     7
370
    50
100
AcDbLine
 10
205.520479
 20
278.028729
 30
0.0
 11
205.231804
 21
277.528729
 31
0.0
  0
LINE
  5
3E7
330
1F
100
AcDbEntity
  8
LC-001-100-D00-0
 62
     7
370
    50
100
AcDbLine
 10
205.809154
 20
277.528729
 30
0.0
 11
205.520479
 21
278.028729
 31
0.0
  0
LINE
  5
3E8
330
1F
100
AcDbEntity
  8
LC-001-100-D00-0
 62
     7
370
    50
100
AcDbLine
 10
205.231804
 20
277.528729
 30
0.0
 11
204.520479
 21
277.528729
 31
0.0
  0
LINE
  5
3E9
330
1F
100
AcDbEntity
  8
LC-001-100-D00-0
 62
     7
370
    50
100
AcDbLine
 10
197.519958
 20
277.528729
 30
0.0
 11
195.520479
 21
277.528729
 31
0.0
  0
LINE
  5
3EA
102
{ACAD_REACTORS
330
609
102
}
330
1F
100
AcDbEntity
  8
LC-002-002-----0
 62
     7
370
    50
100
AcDbLine
 10
174.28382
 20
284.021427
 30
0.0
 11
90.624873
 21
284.021427
 31
0.0
  0
LINE
  5
3EB
102
{ACAD_REACTORS
330
609
102
}
330
1F
100
AcDbEntity
  8
LC-002-002-----0
 62
     7
370
    50
100
AcDbLine
 10
80.624873
 20
288.721427
 30
0.0
 11
80.624873
 21
284.021427
 31
0.0
  0
LINE
  5
3EC
330
1F
100
AcDbEntity
  8
LC-002-002-----0
 62
     7
370
    50
100
AcDbLine
 10
90.624873
 20
288.721427
 30
0.0
 11
90.624873
 21
284.021427
 31
0.0
  0
LINE
  5
3ED
330
1F
100
AcDbEntity
  8
LC-002-002-----0
 62
     7
370
    50
100
AcDbLine
 10
100.624873
 20
288.721427
 30
0.0
 11
100.624873
 21
284.021427
 31
0.0
  0
LINE
  5
3EE
102
{ACAD_REACTORS
330
609
102
}
330
1F
100
AcDbEntity
  8
LC-002-002-----0
 62
     7
370
    50
100
AcDbLine
 10
90.624873
 20
284.021427
 30
0.0
 11
80.624873
 21
284.021427
 31
0.0
  0
LINE
  5
3EF
330
1F
100
AcDbEntity
  8
LC-002-002-----0
 62
     7
370
    50
100
AcDbLine
 10
166.534598
 20
288.721427
 30
0.0
 11
80.624873
 21
288.721427
 31
0.0
  0
INSERT
  5
40E
330
1F
100
AcDbEntity
  8
LC-003-005-----0
 62
     7
370
    25
100
AcDbBlockReference
  2
*X154
 10
0.0
 20
0.0
 30
0.0
  0
LINE
  5
40F
330
1F
100
AcDbEntity
  8
LC-002-002-----0
 62
     7
370
    50
100
AcDbLine
 10
110.624873
 20
288.721427
 30
0.0
 11
110.624873
 21
284.021427
 31
0.0
  0
INSERT
  5
42D
330
1F
100
AcDbEntity
  8
LC-003-005-----0
 62
     7
370
    25
100
AcDbBlockReference
  2
*X255
 10
0.0
 20
0.0
 30
0.0
  0
LINE
  5
42E
330
1F
100
AcDbEntity
  8
LC-002-002-----0
 62
     7
370
    50
100
AcDbLine
 10
130.624873
 20
288.721427
 30
0.0
 11
130.624873
 21
284.021427
 31
0.0
  0
INSERT
  5
44C
330
1F
100
AcDbEntity
  8
LC-003-005-----0
 62
     7
370
    25
100
AcDbBlockReference
  2
*X356
 10
0.0
 20
0.0
 30
0.0
  0
LINE
  5
44D
330
1F
100
AcDbEntity
  8
LC-002-002-----0
 62
     7
370
    50
100
AcDbLine
 10
120.624873
 20
288.721427
 30
0.0
 11
120.624873
 21
284.021427
 31
0.0
  0
LINE
  5
44E
330
1F
100
AcDbEntity
  8
LC-002-002-----0
 62
     7
370
    50
100
AcDbLine
 10
140.624873
 20
288.721427
 30
0.0
 11
140.624873
 21
284.021427
 31
0.0
  0
INSERT
  5
46C
330
1F
100
AcDbEntity
  8
LC-003-005-----0
 62
     7
370
    25
100
AcDbBlockReference
  2
*X457
 10
0.0
 20
0.0
 30
0.0
  0
LINE
  5
46D
330
1F
100
AcDbEntity
  8
LC-002-002-----0
 62
     7
370
    50
100
AcDbLine
 10
150.624873
 20
288.721427
 30
0.0
 11
150.624873
 21
284.021427
 31
0.0
  0
LINE
  5
46E
330
1F
100
AcDbEntity
  8
LC-002-002-----0
 62
     7
370
    50
100
AcDbLine
 10
170.624873
 20
288.585856
 30
0.0
 11
170.624873
 21
284.021427
 31
0.0
  0
LINE
  5
46F
330
1F
100
AcDbEntity
  8
LC-002-002-----0
 62
     7
370
    50
100
AcDbLine
 10
160.624873
 20
288.721427
 30
0.0
 11
160.624873
 21
284.021427
 31
0.0
  0
LINE
  5
470
330
1F
100
AcDbEntity
  8
LC-001-100-D00-0
 62
     7
370
    50
100
AcDbLine
 10
198.34899
 20
282.228717
 30
0.0
 11
201.54467
 21
282.228717
 31
0.0
  0
LINE
  5
471
330
1F
100
AcDbEntity
  8
LC-002-002-----0
 62
     7
370
    50
100
AcDbLine
 10
176.01391
 20
288.407237
 30
0.0
 11
166.534598
 21
288.721427
 31
0.0
  0
LINE
  5
472
330
1F
100
AcDbEntity
  8
LC-002-002-----0
 62
     7
370
    50
100
AcDbLine
 10
196.222898
 20
282.228729
 30
0.0
 11
176.01391
 21
288.407237
 31
0.0
  0
LINE
  5
473
330
1F
100
AcDbEntity
  8
LC-001-100-D00-0
 62
     7
370
    50
100
AcDbLine
 10
196.222898
 20
282.228729
 30
0.0
 11
206.719711
 21
282.228729
 31
0.0
  0
LINE
  5
474
330
1F
100
AcDbEntity
  8
LC-002-002-----0
 62
     7
370
    50
100
AcDbLine
 10
180.624873
 20
286.997524
 30
0.0
 11
180.624873
 21
282.082773
 31
0.0
  0
LINE
  5
475
330
1F
100
AcDbEntity
  8
LC-001-100-D00-0
 62
     7
370
    50
100
AcDbLine
 10
190.624873
 20
283.940217
 30
0.0
 11
190.624873
 21
279.025466
 31
0.0
  0
LINE
  5
476
330
1F
100
AcDbEntity
  8
LC-001-100-D00-0
 62
     7
370
    50
100
AcDbLine
 10
200.624873
 20
282.228717
 30
0.0
 11
200.624873
 21
277.528729
 31
0.0
  0
INSERT
  5
494
330
1F
100
AcDbEntity
  8
LC-003-005-----0
 62
     7
370
    25
100
AcDbBlockReference
  2
*X558
 10
0.0
 20
0.0
 30
0.0
  0
LINE
  5
495
330
1F
100
AcDbEntity
  8
LC-002-002-----0
 62
     7
370
    50
100
AcDbLine
 10
175.332009
 20
283.700964
 30
0.0
 11
175.23555
 21
283.730454
 31
0.0
  0
INSERT
  5
4B9
330
1F
100
AcDbEntity
  8
LC-003-005-----0
 62
     7
370
    25
100
AcDbBlockReference
  2
*X659
 10
0.0
 20
0.0
 30
0.0
  0
LINE
  5
4BA
102
{ACAD_REACTORS
330
60A
102
}
330
1F
100
AcDbEntity
  8
LC-002-002-----0
 62
     7
370
    50
100
AcDbLine
 10
384.602318
 20
284.021427
 30
0.0
 11
468.261265
 21
284.021427
 31
0.0
  0
LINE
  5
4BB
102
{ACAD_REACTORS
330
60A
102
}
330
1F
100
AcDbEntity
  8
LC-002-002-----0
 62
     7
370
    50
100
AcDbLine
 10
478.261265
 20
288.721427
 30
0.0
 11
478.261265
 21
284.021427
 31
0.0
  0
LINE
  5
4BC
330
1F
100
AcDbEntity
  8
LC-002-002-----0
 62
     7
370
    50
100
AcDbLine
 10
468.261265
 20
288.721427
 30
0.0
 11
468.261265
 21
284.021427
 31
0.0
  0
LINE
  5
4BD
330
1F
100
AcDbEntity
  8
LC-002-002-----0
 62
     7
370
    50
100
AcDbLine
 10
458.261265
 20
288.721427
 30
0.0
 11
458.261265
 21
284.021427
 31
0.0
  0
LINE
  5
4BE
102
{ACAD_REACTORS
330
60A
102
}
330
1F
100
AcDbEntity
  8
LC-002-002-----0
 62
     7
370
    50
100
AcDbLine
 10
468.261265
 20
284.021427
 30
0.0
 11
478.261265
 21
284.021427
 31
0.0
  0
LINE
  5
4BF
330
1F
100
AcDbEntity
  8
LC-002-002-----0
 62
     7
370
    50
100
AcDbLine
 10
392.351541
 20
288.721427
 30
0.0
 11
478.261265
 21
288.721427
 31
0.0
  0
INSERT
  5
4DD
330
1F
100
AcDbEntity
  8
LC-003-005-----0
 62
     7
370
    25
100
AcDbBlockReference
  2
*X760
 10
0.0
 20
0.0
 30
0.0
  0
LINE
  5
4DE
330
1F
100
AcDbEntity
  8
LC-002-002-----0
 62
     7
370
    50
100
AcDbLine
 10
448.261265
 20
288.721427
 30
0.0
 11
448.261265
 21
284.021427
 31
0.0
  0
INSERT
  5
4FC
330
1F
100
AcDbEntity
  8
LC-003-005-----0
 62
     7
370
    25
100
AcDbBlockReference
  2
*X861
 10
0.0
 20
0.0
 30
0.0
  0
LINE
  5
4FD
330
1F
100
AcDbEntity
  8
LC-002-002-----0
 62
     7
370
    50
100
AcDbLine
 10
428.261265
 20
288.721427
 30
0.0
 11
428.261265
 21
284.021427
 31
0.0
  0
INSERT
  5
51B
330
1F
100
AcDbEntity
  8
LC-003-005-----0
 62
     7
370
    25
100
AcDbBlockReference
  2
*X962
 10
0.0
 20
0.0
 30
0.0
  0
LINE
  5
51C
330
1F
100
AcDbEntity
  8
LC-002-002-----0
 62
     7
370
    50
100
AcDbLine
 10
438.261265
 20
288.721427
 30
0.0
 11
438.261265
 21
284.021427
 31
0.0
  0
LINE
  5
51D
330
1F
100
AcDbEntity
  8
LC-002-002-----0
 62
     7
370
    50
100
AcDbLine
 10
418.261265
 20
288.721427
 30
0.0
 11
418.261265
 21
284.021427
 31
0.0
  0
INSERT
  5
53B
330
1F
100
AcDbEntity
  8
LC-003-005-----0
 62
     7
370
    25
100
AcDbBlockReference
  2
*X1063
 10
0.0
 20
0.0
 30
0.0
  0
LINE
  5
53C
330
1F
100
AcDbEntity
  8
LC-002-002-----0
 62
     7
370
    50
100
AcDbLine
 10
408.261265
 20
288.721427
 30
0.0
 11
408.261265
 21
284.021427
 31
0.0
  0
LINE
  5
53D
330
1F
100
AcDbEntity
  8
LC-002-002-----0
 62
     7
370
    50
100
AcDbLine
 10
398.261265
 20
288.721427
 30
0.0
 11
398.261265
 21
284.021427
 31
0.0
  0
LINE
  5
53E
330
1F
100
AcDbEntity
  8
LC-002-002-----0
 62
     7
370
    50
100
AcDbLine
 10
382.872229
 20
288.407237
 30
0.0
 11
392.351541
 21
288.721427
 31
0.0
  0
LINE
  5
53F
330
1F
100
AcDbEntity
  8
LC-001-100-D00-0
 62
     7
370
    50
100
AcDbLine
 10
362.66324
 20
282.228729
 30
0.0
 11
382.872229
 21
288.407237
 31
0.0
  0
LINE
  5
540
330
1F
100
AcDbEntity
  8
LC-002-002-----0
 62
     7
370
    50
100
AcDbLine
 10
362.66324
 20
282.228729
 30
0.0
 11
343.443069
 21
282.228729
 31
0.0
  0
LINE
  5
541
330
1F
100
AcDbEntity
  8
LC-002-002-----0
 62
     7
370
    50
100
AcDbLine
 10
378.261265
 20
286.997524
 30
0.0
 11
378.261265
 21
282.082773
 31
0.0
  0
LINE
  5
542
330
1F
100
AcDbEntity
  8
LC-001-100-D00-0
 62
     7
370
    50
100
AcDbLine
 10
368.261265
 20
283.940217
 30
0.0
 11
368.261265
 21
279.025466
 31
0.0
  0
LINE
  5
543
330
1F
100
AcDbEntity
  8
LC-001-100-D00-0
 62
     7
370
    50
100
AcDbLine
 10
358.261265
 20
282.228717
 30
0.0
 11
358.261265
 21
277.858124
 31
0.0
  0
INSERT
  5
560
330
1F
100
AcDbEntity
  8
LC-003-005-----0
 62
     7
370
    25
100
AcDbBlockReference
  2
*X1164
 10
0.0
 20
0.0
 30
0.0
  0
INSERT
  5
579
330
1F
100
AcDbEntity
  8
LC-003-005-----0
 62
     7
370
    25
100
AcDbBlockReference
  2
*X1265
 10
0.0
 20
0.0
 30
0.0
  0
LINE
  5
57A
330
1F
100
AcDbEntity
  8
LC-001-100-D00-0
 62
     7
370
    50
100
AcDbLine
 10
206.943068
 20
277.528729
 30
0.0
 11
205.809154
 21
277.528729
 31
0.0
  0
LINE
  5
57B
330
1F
100
AcDbEntity
  8
LC-001-100-D00-0
 62
     7
370
    50
100
AcDbLine
 10
348.261265
 20
282.228717
 30
0.0
 11
348.261265
 21
277.858124
 31
0.0
  0
LINE
  5
57C
102
{ACAD_REACTORS
330
608
102
}
330
1F
100
AcDbEntity
  8
LC-001-100-D00-0
 62
     7
370
    50
100
AcDbLine
 10
358.185455
 20
277.858124
 30
0.0
 11
358.261265
 21
277.933935
 31
0.0
  0
LINE
  5
57D
102
{ACAD_REACTORS
330
608
102
}
330
1F
100
AcDbEntity
  8
LC-001-100-D00-0
 62
     7
370
    25
100
AcDbLine
 10
357.619769
 20
277.858124
 30
0.0
 11
358.261265
 21
278.499621
 31
0.0
  0
LINE
  5
57E
102
{ACAD_REACTORS
330
608
102
}
330
1F
100
AcDbEntity
  8
LC-001-100-D00-0
 62
     7
370
    25
100
AcDbLine
 10
357.054084
 20
277.858124
 30
0.0
 11
358.261265
 21
279.065306
 31
0.0
  0
LINE
  5
57F
102
{ACAD_REACTORS
330
608
102
}
330
1F
100
AcDbEntity
  8
LC-001-100-D00-0
 62
     7
370
    25
100
AcDbLine
 10
356.488398
 20
277.858124
 30
0.0
 11
358.261265
 21
279.630991
 31
0.0
  0
LINE
  5
580
102
{ACAD_REACTORS
330
608
102
}
330
1F
100
AcDbEntity
  8
LC-001-100-D00-0
 62
     7
370
    25
100
AcDbLine
 10
355.922713
 20
277.858124
 30
0.0
 11
358.261265
 21
280.196677
 31
0.0
  0
LINE
  5
581
102
{ACAD_REACTORS
330
608
102
}
330
1F
100
AcDbEntity
  8
LC-001-100-D00-0
 62
     7
370
    25
100
AcDbLine
 10
355.357027
 20
277.858124
 30
0.0
 11
358.261265
 21
280.762362
 31
0.0
  0
LINE
  5
582
102
{ACAD_REACTORS
330
608
102
}
330
1F
100
AcDbEntity
  8
LC-001-100-D00-0
 62
     7
370
    25
100
AcDbLine
 10
354.791342
 20
277.858124
 30
0.0
 11
358.261265
 21
281.328048
 31
0.0
  0
LINE
  5
583
102
{ACAD_REACTORS
330
608
102
}
330
1F
100
AcDbEntity
  8
LC-001-100-D00-0
 62
     7
370
    25
100
AcDbLine
 10
354.546503
 20
278.17897
 30
0.0
 11
358.261265
 21
281.893733
 31
0.0
  0
LINE
  5
584
102
{ACAD_REACTORS
330
608
102
}
330
1F
100
AcDbEntity
  8
LC-001-100-D00-0
 62
     7
370
    50
100
AcDbLine
 10
351.943071
 20
277.83828
 30
0.0
 11
351.962915
 21
277.858124
 31
0.0
  0
LINE
  5
585
102
{ACAD_REACTORS
330
608
102
}
330
1F
100
AcDbEntity
  8
LC-001-100-D00-0
 62
     7
370
    25
100
AcDbLine
 10
348.503118
 20
278.358125
 30
0.0
 11
352.37371
 21
282.228717
 31
0.0
  0
LINE
  5
586
102
{ACAD_REACTORS
330
608
102
}
330
1F
100
AcDbEntity
  8
LC-001-100-D00-0
 62
     7
370
    25
100
AcDbLine
 10
348.261265
 20
278.681958
 30
0.0
 11
351.808024
 21
282.228717
 31
0.0
  0
LINE
  5
587
102
{ACAD_REACTORS
330
608
102
}
330
1F
100
AcDbEntity
  8
LC-001-100-D00-0
 62
     7
370
    25
100
AcDbLine
 10
348.261265
 20
279.247644
 30
0.0
 11
351.242339
 21
282.228717
 31
0.0
  0
LINE
  5
588
102
{ACAD_REACTORS
330
608
102
}
330
1F
100
AcDbEntity
  8
LC-001-100-D00-0
 62
     7
370
    25
100
AcDbLine
 10
348.261265
 20
279.813329
 30
0.0
 11
350.676653
 21
282.228717
 31
0.0
  0
LINE
  5
589
102
{ACAD_REACTORS
330
608
102
}
330
1F
100
AcDbEntity
  8
LC-001-100-D00-0
 62
     7
370
    25
100
AcDbLine
 10
348.261265
 20
280.379014
 30
0.0
 11
350.110968
 21
282.228717
 31
0.0
  0
LINE
  5
58A
102
{ACAD_REACTORS
330
608
102
}
330
1F
100
AcDbEntity
  8
LC-001-100-D00-0
 62
     7
370
    25
100
AcDbLine
 10
348.261265
 20
280.9447
 30
0.0
 11
349.545282
 21
282.228717
 31
0.0
  0
LINE
  5
58B
102
{ACAD_REACTORS
330
608
102
}
330
1F
100
AcDbEntity
  8
LC-003-005-----0
 62
     7
370
    25
100
AcDbLine
 10
348.261265
 20
281.510385
 30
0.0
 11
348.979597
 21
282.228717
 31
0.0
  0
LINE
  5
58C
102
{ACAD_REACTORS
330
608
102
}
330
1F
100
AcDbEntity
  8
LC-003-005-----0
 62
     7
370
    25
100
AcDbLine
 10
348.261265
 20
282.076071
 30
0.0
 11
348.413912
 21
282.228717
 31
0.0
  0
LINE
  5
58D
102
{ACAD_REACTORS
330
608
102
}
330
1F
100
AcDbEntity
  8
LC-001-100-D00-0
 62
     7
370
    25
100
AcDbLine
 10
354.159972
 20
278.358125
 30
0.0
 11
358.030564
 21
282.228717
 31
0.0
  0
LINE
  5
58E
102
{ACAD_REACTORS
330
608
102
}
330
1F
100
AcDbEntity
  8
LC-001-100-D00-0
 62
     7
370
    25
100
AcDbLine
 10
353.594287
 20
278.358125
 30
0.0
 11
357.464878
 21
282.228717
 31
0.0
  0
LINE
  5
58F
102
{ACAD_REACTORS
330
608
102
}
330
1F
100
AcDbEntity
  8
LC-001-100-D00-0
 62
     7
370
    25
100
AcDbLine
 10
353.028601
 20
278.358125
 30
0.0
 11
356.899193
 21
282.228717
 31
0.0
  0
LINE
  5
590
102
{ACAD_REACTORS
330
608
102
}
330
1F
100
AcDbEntity
  8
LC-001-100-D00-0
 62
     7
370
    25
100
AcDbLine
 10
352.462916
 20
278.358125
 30
0.0
 11
356.333508
 21
282.228717
 31
0.0
  0
LINE
  5
591
102
{ACAD_REACTORS
330
608
102
}
330
1F
100
AcDbEntity
  8
LC-001-100-D00-0
 62
     7
370
    25
100
AcDbLine
 10
351.89723
 20
278.358125
 30
0.0
 11
355.767822
 21
282.228717
 31
0.0
  0
LINE
  5
592
102
{ACAD_REACTORS
330
608
102
}
330
1F
100
AcDbEntity
  8
LC-001-100-D00-0
 62
     7
370
    25
100
AcDbLine
 10
351.331545
 20
278.358125
 30
0.0
 11
355.202137
 21
282.228717
 31
0.0
  0
LINE
  5
593
102
{ACAD_REACTORS
330
608
102
}
330
1F
100
AcDbEntity
  8
LC-001-100-D00-0
 62
     7
370
    25
100
AcDbLine
 10
350.76586
 20
278.358125
 30
0.0
 11
354.636451
 21
282.228717
 31
0.0
  0
LINE
  5
594
102
{ACAD_REACTORS
330
608
102
}
330
1F
100
AcDbEntity
  8
LC-001-100-D00-0
 62
     7
370
    25
100
AcDbLine
 10
350.200174
 20
278.358125
 30
0.0
 11
354.070766
 21
282.228717
 31
0.0
  0
LINE
  5
595
102
{ACAD_REACTORS
330
608
102
}
330
1F
100
AcDbEntity
  8
LC-001-100-D00-0
 62
     7
370
    25
100
AcDbLine
 10
349.634489
 20
278.358125
 30
0.0
 11
353.50508
 21
282.228717
 31
0.0
  0
LINE
  5
596
102
{ACAD_REACTORS
330
608
102
}
330
1F
100
AcDbEntity
  8
LC-001-100-D00-0
 62
     7
370
    25
100
AcDbLine
 10
349.068803
 20
278.358125
 30
0.0
 11
352.939395
 21
282.228717
 31
0.0
  0
DIMENSION
  5
59A
330
1F
100
AcDbEntity
  8
LC-004-003-----0
 62
     7
370
    25
100
AcDbDimension
  2
*D66
 10
393.943067
 20
319.515121
 30
0.0
 11
275.183553
 21
350.315121
 31
0.0
 70
   160
  1
%%c230
 71
     5
 42
228.999995
  3
LC-DIM-L-0140-02-02
100
AcDbAlignedDimension
 13
164.943072
 23
280.780659
 33
0.0
 14
393.943067
 24
280.780659
 34
0.0
100
AcDbRotatedDimension
  0
DIMENSION
  5
5A8
330
1F
100
AcDbEntity
  8
LC-004-003-----0
 62
     7
370
    25
100
AcDbDimension
  2
*D67
 10
334.443069
 20
55.185121
 30
0.0
 11
278.37819
 21
85.985121
 31
0.0
 70
   160
  1
%%c<>
 71
     5
 42
110.0
  3
LC-DIM-L-0140-02-02
100
AcDbAlignedDimension
 13
224.44307
 23
206.289386
 33
0.0
 14
334.443069
 24
207.512997
 34
0.0
100
AcDbRotatedDimension
  0
DIMENSION
  5
5B5
330
1F
100
AcDbEntity
  8
LC-004-003-----0
 62
     7
370
    25
100
AcDbDimension
  2
*D68
 10
342.443069
 20
-3.620879
 30
0.0
 11
278.37819
 21
27.179121
 31
0.0
 70
   160
  1
%%c<>
 71
     5
 42
126.000001
  3
LC-DIM-L-0140-02-02
100
AcDbAlignedDimension
 13
216.443068
 23
251.593121
 33
0.0
 14
342.443069
 24
251.593121
 34
0.0
100
AcDbRotatedDimension
  0
DIMENSION
  5
5C2
330
1F
100
AcDbEntity
  8
LC-004-003-----0
 62
     7
370
    25
100
AcDbDimension
  2
*D69
 10
83.505324
 20
191.593119
 30
0.0
 11
52.705324
 21
234.573121
 31
0.0
 70
   160
  1
90
 71
     5
 42
89.18754
 53
90.0
  3
LC-DIM-L-0140-02-02
100
AcDbAlignedDimension
 13
164.943072
 23
280.780659
 33
0.0
 14
230.682927
 24
191.593119
 34
0.0
 50
90.0
100
AcDbRotatedDimension
  0
DIMENSION
  5
5CF
330
1F
100
AcDbEntity
  8
LC-004-003-----0
 62
     7
370
    25
100
AcDbDimension
  2
*D70
 10
133.554639
 20
133.593121
 30
0.0
 11
102.754639
 21
144.285121
 31
0.0
 70
   160
 71
     5
 42
58.0
 53
90.0
  3
LC-DIM-L-0140-02-02
100
AcDbAlignedDimension
 13
237.700888
 23
191.593121
 33
0.0
 14
257.44307
 24
133.593121
 34
0.0
 50
90.0
100
AcDbRotatedDimension
  0
DIMENSION
  5
5DE
330
1F
100
AcDbEntity
  8
LC-004-003-----0
 62
     7
370
    25
100
AcDbDimension
  2
*D71
 10
189.993229
 20
256.09312
 30
0.0
 11
159.193229
 21
206.655121
 31
0.0
 70
   160
  1
50
 71
     5
 42
49.500064
 53
90.0
  3
LC-DIM-L-0140-02-02
100
AcDbAlignedDimension
 13
239.943068
 23
206.593056
 33
0.0
 14
254.94307
 24
256.09312
 34
0.0
 50
90.0
100
AcDbRotatedDimension
  0
DIMENSION
  5
5ED
330
1F
100
AcDbEntity
  8
LC-004-003-----0
 62
     7
370
    25
100
AcDbDimension
  2
*D72
 10
304.443068
 20
121.119121
 30
0.0
 11
382.736338
 21
151.919121
 31
0.0
 70
   160
  1
DN50
 71
     5
 42
49.999999
  3
LC-DIM-L-0140-02-02
100
AcDbAlignedDimension
 13
254.443069
 23
137.09312
 33
0.0
 14
304.443068
 24
137.09312
 34
0.0
100
AcDbRotatedDimension
  0
DIMENSION
  5
5FB
330
1F
100
AcDbEntity
  8
LC-004-003-----0
 62
     7
370
    25
100
AcDbDimension
  2
*D73
 10
478.261265
 20
370.005121
 30
0.0
 11
279.443069
 21
400.805121
 31
0.0
 70
   160
  1
%%c420
 71
     5
 42
397.636392
  3
LC-DIM-L-0140-02-02
100
AcDbAlignedDimension
 13
80.624873
 23
284.021427
 33
0.0
 14
478.261265
 24
284.021427
 34
0.0
100
AcDbRotatedDimension
  0
ENDSEC
  0
SECTION
  2
OBJECTS
  0
DICTIONARY
  5
C
330
0
100
AcDbDictionary
281
     1
  3
ACAD_GROUP
350
D
  3
ACAD_LAYOUT
350
1A
  3
ACAD_MLINESTYLE
350
17
  3
ACAD_PLOTSETTINGS
350
19
  3
ACAD_PLOTSTYLENAME
350
E
  0
DICTIONARY
  5
D
102
{ACAD_REACTORS
330
C
102
}
330
C
100
AcDbDictionary
281
     1
  3
LCGROUP1440
350
609
  3
LCGROUP1472
350
60A
  3
LCGROUP40
350
608
  0
DICTIONARY
  5
1A
102
{ACAD_REACTORS
330
C
102
}
330
C
100
AcDbDictionary
281
     1
  3
Layout1
350
1E
  3
Layout2
350
26
  3
Model
350
22
  0
DICTIONARY
  5
17
102
{ACAD_REACTORS
330
C
102
}
330
C
100
AcDbDictionary
281
     1
  3
Standard
350
18
  0
DICTIONARY
  5
19
102
{ACAD_REACTORS
330
C
102
}
330
C
100
AcDbDictionary
281
     1
  0
ACDBDICTIONARYWDFLT
  5
E
102
{ACAD_REACTORS
330
C
102
}
330
C
100
AcDbDictionary
281
     1
  3
Normal
350
F
100
AcDbDictionaryWithDefault
340
F
  0
GROUP
  5
609
102
{ACAD_REACTORS
330
D
102
}
330
D
100
AcDbGroup
300
GRP1440
 70
     1
 71
     1
340
3EA
340
3EB
340
3EE
  0
GROUP
  5
60A
102
{ACAD_REACTORS
330
D
102
}
330
D
100
AcDbGroup
300
GRP1472
 70
     1
 71
     1
340
4BA
340
4BB
340
4BE
  0
GROUP
  5
608
102
{ACAD_REACTORS
330
D
102
}
330
D
100
AcDbGroup
300
GRP40
 70
     1
 71
     1
340
57C
340
57D
340
57E
340
57F
340
580
340
581
340
582
340
583
340
584
340
585
340
586
340
587
340
588
340
589
340
58A
340
58B
340
58C
340
58D
340
58E
340
58F
340
590
340
591
340
592
340
593
340
594
340
595
340
596
  0
LAYOUT
  5
1E
102
{ACAD_REACTORS
330
1A
102
}
330
1A
100
AcDbPlotSettings
  1

  2

  4

  6

 40
0.0
 41
0.0
 42
0.0
 43
0.0
 44
0.0
 45
0.0
 46
0.0
 47
0.0
 48
0.0
 49
0.0
140
0.0
141
0.0
142
1.0
143
1.0
 70
   688
 72
     0
 73
     0
 74
     5
  7

 75
    16
147
1.0
148
0.0
149
0.0
100
AcDbLayout
  1
Layout1
 70
     1
 71
     1
 10
-78.793945
 20
-90.344879
 11
761.206055
 21
503.655121
 12
0.0
 22
0.0
 32
0.0
 14
-78.793945
 24
-90.344879
 34
0.0
 15
761.206055
 25
503.655121
 35
0.0
146
0.0
 13
0.0
 23
0.0
 33
0.0
 16
1.0
 26
0.0
 36
0.0
 17
0.0
 27
1.0
 37
0.0
 76
     0
330
1B
  0
LAYOUT
  5
26
102
{ACAD_REACTORS
330
1A
102
}
330
1A
100
AcDbPlotSettings
  1

  2

  4

  6

 40
0.0
 41
0.0
 42
0.0
 43
0.0
 44
0.0
 45
0.0
 46
0.0
 47
0.0
 48
0.0
 49
0.0
140
0.0
141
0.0
142
1.0
143
1.0
 70
   688
 72
     0
 73
     0
 74
     5
  7

 75
    16
147
1.0
148
0.0
149
0.0
100
AcDbLayout
  1
Layout2
 70
     1
 71
     2
 10
0.0
 20
0.0
 11
0.0
 21
0.0
 12
0.0
 22
0.0
 32
0.0
 14
0.0
 24
0.0
 34
0.0
 15
0.0
 25
0.0
 35
0.0
146
0.0
 13
0.0
 23
0.0
 33
0.0
 16
1.0
 26
0.0
 36
0.0
 17
0.0
 27
1.0
 37
0.0
 76
     0
330
23
  0
LAYOUT
  5
22
102
{ACAD_REACTORS
330
1A
102
}
330
1A
100
AcDbPlotSettings
  1

  2

  4

  6

 40
0.0
 41
0.0
 42
0.0
 43
0.0
 44
0.0
 45
0.0
 46
0.0
 47
0.0
 48
0.0
 49
0.0
140
0.0
141
0.0
142
1.0
143
1.0
 70
  1776
 72
     0
 73
     0
 74
     0
  7

 75
     0
147
1.0
148
0.0
149
0.0
100
AcDbLayout
  1
Model
 70
     1
 71
     0
 10
-78.793945
 20
-90.344879
 11
761.206055
 21
503.655121
 12
0.0
 22
0.0
 32
0.0
 14
-78.793945
 24
-90.344879
 34
0.0
 15
761.206055
 25
503.655121
 35
0.0
146
0.0
 13
0.0
 23
0.0
 33
0.0
 16
1.0
 26
0.0
 36
0.0
 17
0.0
 27
1.0
 37
0.0
 76
     0
330
1F
  0
MLINESTYLE
  5
18
102
{ACAD_REACTORS
330
17
102
}
330
17
100
AcDbMlineStyle
  2
Standard
 70
     0
  3

 62
   256
 51
90.0
 52
90.0
 71
     2
 49
0.5
 62
   256
  6
BYLAYER
 49
-0.5
 62
   256
  6
BYLAYER
  0
ACDBPLACEHOLDER
  5
F
102
{ACAD_REACTORS
330
E
102
}
330
E
  0
ENDSEC
  0
EOF
