  0
SECTION
  2
HEADER
  9
$ACADVER
  1
AC1015
  9
$ACADMAINTVER
 70
     6
  9
$DWGCODEPAGE
  3
ANSI_1252
  9
$INSBASE
 10
0.0
 20
0.0
 30
0.0
  9
$EXTMIN
 10
-220.259639
 20
-163.425663
 30
0.0
  9
$EXTMAX
 10
619.740361
 20
430.574337
 30
0.0
  9
$LIMMIN
 10
-220.259639
 20
-163.425663
  9
$LIMMAX
 10
619.740361
 20
430.574337
  9
$ORTHOMODE
 70
     0
  9
$REGENMODE
 70
     1
  9
$FILLMODE
 70
     1
  9
$QTEXTMODE
 70
     0
  9
$MIRRTEXT
 70
     1
  9
$LTSCALE
 40
2.0
  9
$ATTMODE
 70
     1
  9
$TEXTSIZE
 40
2.5
  9
$TRACEWID
 40
1.0
  9
$TEXTSTYLE
  7
Standard
  9
$CLAYER
  8
0
  9
$CELTYPE
  6
ByLayer
  9
$CECOLOR
 62
     7
  9
$CELTSCALE
 40
1.0
  9
$DISPSILH
 70
     0
  9
$DIMSCALE
 40
2.0
  9
$DIMASZ
 40
3.5
  9
$DIMEXO
 40
0.625
  9
$DIMDLI
 40
3.75
  9
$DIMRND
 40
0.0
  9
$DIMDLE
 40
0.0
  9
$DIMEXE
 40
1.25
  9
$DIMTP
 40
0.0
  9
$DIMTM
 40
0.0
  9
$DIMTXT
 40
3.5
  9
$DIMCEN
 40
2.5
  9
$DIMTSZ
 40
0.0
  9
$DIMTOL
 70
     0
  9
$DIMLIM
 70
     0
  9
$DIMTIH
 70
     0
  9
$DIMTOH
 70
     0
  9
$DIMSE1
 70
     0
  9
$DIMSE2
 70
     0
  9
$DIMTAD
 70
     1
  9
$DIMZIN
 70
     8
  9
$DIMBLK
  1

  9
$DIMASO
 70
     1
  9
$DIMSHO
 70
     1
  9
$DIMPOST
  1

  9
$DIMAPOST
  1

  9
$DIMALT
 70
     0
  9
$DIMALTD
 70
     3
  9
$DIMALTF
 40
0.03937
  9
$DIMLFAC
 40
1.0
  9
$DIMTOFL
 70
     1
  9
$DIMTVP
 40
0.0
  9
$DIMTIX
 70
     0
  9
$DIMSOXD
 70
     0
  9
$DIMSAH
 70
     0
  9
$DIMBLK1
  1

  9
$DIMBLK2
  1

  9
$DIMSTYLE
  2
ISO-25
  9
$DIMCLRD
 70
     0
  9
$DIMCLRE
 70
     0
  9
$DIMCLRT
 70
     0
  9
$DIMTFAC
 40
1.0
  9
$DIMGAP
 40
0.625
  9
$DIMJUST
 70
     0
  9
$DIMSD1
 70
     0
  9
$DIMSD2
 70
     0
  9
$DIMTOLJ
 70
     0
  9
$DIMTZIN
 70
     8
  9
$DIMALTZ
 70
     0
  9
$DIMALTTZ
 70
     0
  9
$DIMUPT
 70
     0
  9
$DIMDEC
 70
     2
  9
$DIMTDEC
 70
     2
  9
$DIMALTU
 70
     2
  9
$DIMALTTD
 70
     3
  9
$DIMTXSTY
  7
Standard
  9
$DIMAUNIT
 70
     0
  9
$DIMADEC
 70
     0
  9
$DIMALTRND
 40
0.0
  9
$DIMAZIN
 70
     0
  9
$DIMDSEP
 70
    44
  9
$DIMATFIT
 70
     3
  9
$DIMFRAC
 70
     0
  9
$DIMLDRBLK
  1

  9
$DIMLUNIT
 70
     2
  9
$DIMLWD
 70
    -2
  9
$DIMLWE
 70
    -2
  9
$DIMTMOVE
 70
     0
  9
$LUNITS
 70
     2
  9
$LUPREC
 70
     4
  9
$SKETCHINC
 40
1.0
  9
$FILLETRAD
 40
10.0
  9
$AUNITS
 70
     0
  9
$AUPREC
 70
     0
  9
$MENU
  1
.
  9
$ELEVATION
 40
0.0
  9
$PELEVATION
 40
0.0
  9
$THICKNESS
 40
0.0
  9
$LIMCHECK
 70
     0
  9
$CHAMFERA
 40
10.0
  9
$CHAMFERB
 40
10.0
  9
$CHAMFERC
 40
20.0
  9
$CHAMFERD
 40
0.0
  9
$SKPOLY
 70
     0
  9
$TDCREATE
 40
2455905.444273588
  9
$TDUCREATE
 40
2455905.402606921
  9
$TDUPDATE
 40
2455905.444273599
  9
$TDUUPDATE
 40
2455905.402606933
  9
$TDINDWG
 40
0.0000000116
  9
$TDUSRTIMER
 40
0.0000000116
  9
$USRTIMER
 70
     1
  9
$ANGBASE
 50
0.0
  9
$ANGDIR
 70
     0
  9
$PDMODE
 70
     0
  9
$PDSIZE
 40
0.0
  9
$PLINEWID
 40
0.0
  9
$SPLFRAME
 70
     0
  9
$SPLINETYPE
 70
     6
  9
$SPLINESEGS
 70
     8
  9
$HANDSEED
  5
6C8
  9
$SURFTAB1
 70
     6
  9
$SURFTAB2
 70
     6
  9
$SURFTYPE
 70
     6
  9
$SURFU
 70
     6
  9
$SURFV
 70
     6
  9
$UCSBASE
  2

  9
$UCSNAME
  2

  9
$UCSORG
 10
0.0
 20
0.0
 30
0.0
  9
$UCSXDIR
 10
1.0
 20
0.0
 30
0.0
  9
$UCSYDIR
 10
0.0
 20
1.0
 30
0.0
  9
$UCSORTHOREF
  2

  9
$UCSORTHOVIEW
 70
     0
  9
$UCSORGTOP
 10
0.0
 20
0.0
 30
0.0
  9
$UCSORGBOTTOM
 10
0.0
 20
0.0
 30
0.0
  9
$UCSORGLEFT
 10
0.0
 20
0.0
 30
0.0
  9
$UCSORGRIGHT
 10
0.0
 20
0.0
 30
0.0
  9
$UCSORGFRONT
 10
0.0
 20
0.0
 30
0.0
  9
$UCSORGBACK
 10
0.0
 20
0.0
 30
0.0
  9
$PUCSBASE
  2

  9
$PUCSNAME
  2

  9
$PUCSORG
 10
0.0
 20
0.0
 30
0.0
  9
$PUCSXDIR
 10
1.0
 20
0.0
 30
0.0
  9
$PUCSYDIR
 10
0.0
 20
1.0
 30
0.0
  9
$PUCSORTHOREF
  2

  9
$PUCSORTHOVIEW
 70
     0
  9
$PUCSORGTOP
 10
0.0
 20
0.0
 30
0.0
  9
$PUCSORGBOTTOM
 10
0.0
 20
0.0
 30
0.0
  9
$PUCSORGLEFT
 10
0.0
 20
0.0
 30
0.0
  9
$PUCSORGRIGHT
 10
0.0
 20
0.0
 30
0.0
  9
$PUCSORGFRONT
 10
0.0
 20
0.0
 30
0.0
  9
$PUCSORGBACK
 10
0.0
 20
0.0
 30
0.0
  9
$USERI1
 70
     0
  9
$USERI2
 70
     0
  9
$USERI3
 70
     0
  9
$USERI4
 70
     0
  9
$USERI5
 70
     0
  9
$USERR1
 40
0.0
  9
$USERR2
 40
0.0
  9
$USERR3
 40
0.0
  9
$USERR4
 40
0.0
  9
$USERR5
 40
0.0
  9
$WORLDVIEW
 70
     1
  9
$SHADEDGE
 70
     3
  9
$SHADEDIF
 70
    70
  9
$TILEMODE
 70
     1
  9
$MAXACTVP
 70
    64
  9
$PINSBASE
 10
0.0
 20
0.0
 30
0.0
  9
$PLIMCHECK
 70
     0
  9
$PEXTMIN
 10
-220.259639
 20
-163.425663
 30
0.0
  9
$PEXTMAX
 10
619.740361
 20
430.574337
 30
0.0
  9
$PLIMMIN
 10
-220.259639
 20
-163.425663
  9
$PLIMMAX
 10
619.740361
 20
430.574337
  9
$UNITMODE
 70
     0
  9
$VISRETAIN
 70
     1
  9
$PLINEGEN
 70
     0
  9
$PSLTSCALE
 70
     1
  9
$TREEDEPTH
 70
  3020
  9
$CMLSTYLE
  2
Standard
  9
$CMLJUST
 70
     0
  9
$CMLSCALE
 40
20.0
  9
$PROXYGRAPHICS
 70
     1
  9
$MEASUREMENT
 70
     1
  9
$CELWEIGHT
370
    -1
  9
$ENDCAPS
280
     0
  9
$JOINSTYLE
280
     0
  9
$LWDISPLAY
290
     0
  9
$INSUNITS
 70
     4
  9
$HYPERLINKBASE
  1

  9
$STYLESHEET
  1

  9
$XEDIT
290
     1
  9
$CEPSNTYPE
380
     0
  9
$PSTYLEMODE
290
     1
  9
$FINGERPRINTGUID
  2
{FAEB1C30-E019-11D5-929B-00C0DF256EC4}
  9
$VERSIONGUID
  2
{FAEB1C32-E019-11D5-929B-00C0DF256EC4}
  9
$EXTNAMES
290
     1
  9
$PSVPSCALE
 40
0.0
  9
$OLESTARTUP
290
     0
  0
ENDSEC
  0
SECTION
  2
CLASSES
  0
CLASS
  1
ACDBDICTIONARYWDFLT
  2
AcDbDictionaryWithDefault
  3
ObjectDBX Classes
 90
        0
280
     0
281
     0
  0
CLASS
  1
ACDBPLACEHOLDER
  2
AcDbPlaceHolder
  3
ObjectDBX Classes
 90
        0
280
     0
281
     0
  0
CLASS
  1
LAYOUT
  2
AcDbLayout
  3
ObjectDBX Classes
 90
        0
280
     0
281
     0
  0
ENDSEC
  0
SECTION
  2
TABLES
  0
TABLE
  2
VPORT
  5
8
330
0
100
AcDbSymbolTable
 70
     2
  0
VPORT
  5
29
330
8
100
AcDbSymbolTableRecord
100
AcDbViewportTableRecord
  2
*ACTIVE
 70
     0
 10
0.0
 20
0.0
 11
1.0
 21
1.0
 12
199.740361
 22
133.574337
 13
0.0
 23
0.0
 14
1.0
 24
1.0
 15
0.0
 25
0.0
 16
0.0
 26
0.0
 36
1.0
 17
0.0
 27
0.0
 37
0.0
 40
594.0
 41
1.414141
 42
50.0
 43
0.0
 44
0.0
 50
0.0
 51
0.0
 71
    16
 72
   100
 73
     1
 74
     0
 75
     0
 76
     0
 77
     0
 78
     0
281
     0
 65
     0
110
0.0
120
0.0
130
0.0
111
1.0
121
0.0
131
0.0
112
0.0
122
1.0
132
0.0
 79
     0
146
0.0
  0
ENDTAB
  0
TABLE
  2
LTYPE
  5
5
330
0
100
AcDbSymbolTable
 70
     3
  0
LTYPE
  5
14
330
5
100
AcDbSymbolTableRecord
100
AcDbLinetypeTableRecord
  2
ByBlock
 70
     0
  3

 72
    65
 73
     0
 40
0.0
  0
LTYPE
  5
15
330
5
100
AcDbSymbolTableRecord
100
AcDbLinetypeTableRecord
  2
ByLayer
 70
     0
  3

 72
    65
 73
     0
 40
0.0
  0
LTYPE
  5
16
330
5
100
AcDbSymbolTableRecord
100
AcDbLinetypeTableRecord
  2
Continuous
 70
     0
  3
Solid line
 72
    65
 73
     0
 40
0.0
  0
LTYPE
  5
2A
330
5
100
AcDbSymbolTableRecord
100
AcDbLinetypeTableRecord
  2
DASHED
 70
     0
  3
__ __ __ __ __
 72
    65
 73
     2
 40
6.25
 49
5.0
 74
     4
 75
     0
340
0
 46
1.0
 50
0.0
 44
0.0
 45
0.0
 49
-1.25
 74
     4
 75
     0
340
0
 46
1.0
 50
0.0
 44
0.0
 45
0.0
  0
LTYPE
  5
30
330
5
100
AcDbSymbolTableRecord
100
AcDbLinetypeTableRecord
  2
DASHDOT
 70
     0
  3
__ . __ . __ . __ . __
 72
    65
 73
     4
 40
7.5
 49
5.0
 74
     4
 75
     0
340
0
 46
1.0
 50
0.0
 44
0.0
 45
0.0
 49
-1.25
 74
     4
 75
     0
340
0
 46
1.0
 50
0.0
 44
0.0
 45
0.0
 49
0.0
 74
     4
 75
     0
340
0
 46
1.0
 50
0.0
 44
0.0
 45
0.0
 49
-1.25
 74
     4
 75
     0
340
0
 46
1.0
 50
0.0
 44
0.0
 45
0.0
  0
ENDTAB
  0
TABLE
  2
LAYER
  5
2
330
0
100
AcDbSymbolTable
 70
     9
  0
LAYER
  5
10
330
2
100
AcDbSymbolTableRecord
100
AcDbLayerTableRecord
  2
0
 70
     0
 62
     7
  6
Continuous
370
    -3
390
F
  0
LAYER
  5
2B
330
2
100
AcDbSymbolTableRecord
100
AcDbLayerTableRecord
  2
LC-INFO-1-2-mm-A3-0
 70
     1
 62
     7
  6
ByBlock
370
    -3
390
F
  0
LAYER
  5
2C
330
2
100
AcDbSymbolTableRecord
100
AcDbLayerTableRecord
  2
LC-CUT-HIDDEN
 70
     0
 62
     7
  6
DASHED
370
    -3
390
F
  0
LAYER
  5
2D
330
2
100
AcDbSymbolTableRecord
100
AcDbLayerTableRecord
  2
LC-VIEWPORT
 70
     0
 62
     7
  6
ByBlock
370
    -3
390
F
  0
LAYER
  5
2E
330
2
100
AcDbSymbolTableRecord
100
AcDbLayerTableRecord
  2
LC-3D-HIDDEN
 70
     0
 62
     9
  6
DASHED
370
    -3
390
F
  0
LAYER
  5
31
330
2
100
AcDbSymbolTableRecord
100
AcDbLayerTableRecord
  2
LC-001-002-----0
 70
     0
 62
     2
  6
DASHDOT
370
    -3
390
F
  0
LAYER
  5
34
330
2
100
AcDbSymbolTableRecord
100
AcDbLayerTableRecord
  2
LC-002-100-D00-0
 70
     0
 62
     1
  6
ByBlock
370
    -3
390
F
  0
LAYER
  5
622
330
2
100
AcDbSymbolTableRecord
100
AcDbLayerTableRecord
  2
LC-003-003-----0
 70
     0
 62
     2
  6
ByBlock
370
    -3
390
F
  0
LAYER
  5
624
330
2
100
AcDbSymbolTableRecord
100
AcDbLayerTableRecord
  2
Defpoints
 70
     0
 62
     7
  6
Continuous
290
     0
370
    -3
390
F
  0
ENDTAB
  0
TABLE
  2
STYLE
  5
3
330
0
100
AcDbSymbolTable
 70
     3
  0
STYLE
  5
11
330
3
100
AcDbSymbolTableRecord
100
AcDbTextStyleTableRecord
  2
Standard
 70
     0
 40
0.0
 41
1.0
 50
0.0
 71
     0
 42
2.5
  3
txt
  4

  0
STYLE
  5
2F
330
3
100
AcDbSymbolTableRecord
100
AcDbTextStyleTableRecord
  2
LCTX15-400-0-0-Arial
 70
     0
 40
0.0
 41
0.8
 50
0.0
 71
     0
 42
3.5
  3

  4

1001
ACAD
1000
Arial
1071
 16777218
  0
STYLE
  5
620
330
3
100
AcDbSymbolTableRecord
100
AcDbTextStyleTableRecord
  2
LCTX15-400-0-0pDIN-Schrift
 70
     0
 40
2.5
 41
0.8
 50
15.0
 71
     0
 42
3.5
  3
STANDARD
  4

  0
ENDTAB
  0
TABLE
  2
VIEW
  5
6
330
0
100
AcDbSymbolTable
 70
     0
  0
ENDTAB
  0
TABLE
  2
UCS
  5
7
330
0
100
AcDbSymbolTable
 70
     0
  0
ENDTAB
  0
TABLE
  2
APPID
  5
9
330
0
100
AcDbSymbolTable
 70
     1
  0
APPID
  5
12
330
9
100
AcDbSymbolTableRecord
100
AcDbRegAppTableRecord
  2
ACAD
 70
     0
  0
ENDTAB
  0
TABLE
  2
DIMSTYLE
  5
A
330
0
100
AcDbSymbolTable
 70
     2
100
AcDbDimStyleTable
  0
DIMSTYLE
105
27
330
A
100
AcDbSymbolTableRecord
100
AcDbDimStyleTableRecord
  2
ISO-25
 70
     0
 41
2.5
 42
0.625
 43
3.75
 44
1.25
 73
     0
 74
     0
 77
     1
 78
     8
140
2.5
141
2.5
143
0.03937
147
0.625
171
     3
172
     1
271
     2
272
     2
274
     3
278
    44
283
     0
284
     8
340
11
  0
DIMSTYLE
105
621
102
{ACAD_REACTORS
330
623
330
632
330
640
330
64F
330
65D
330
66A
330
678
330
685
330
692
330
69F
330
6AC
330
6B9
102
}
330
A
100
AcDbSymbolTableRecord
100
AcDbDimStyleTableRecord
  2
LC-DIM-L-0140-02-02
 70
     0
 40
2.0
 41
14.0
 42
0.0
 43
7.5
 44
1.8
 73
     0
 74
     0
 77
     1
 78
     8
 79
     2
140
14.0
141
0.0
146
0.71
147
1.5
176
     2
177
     2
178
     2
179
     2
271
     2
278
    44
289
     1
340
620
  0
ENDTAB
  0
TABLE
  2
BLOCK_RECORD
  5
1
330
0
100
AcDbSymbolTable
 70
    85
  0
BLOCK_RECORD
  5
1F
330
1
100
AcDbSymbolTableRecord
100
AcDbBlockTableRecord
  2
*Model_Space
340
22
  0
BLOCK_RECORD
  5
1B
330
1
100
AcDbSymbolTableRecord
100
AcDbBlockTableRecord
  2
*Paper_Space
340
1E
  0
BLOCK_RECORD
  5
23
330
1
100
AcDbSymbolTableRecord
100
AcDbBlockTableRecord
  2
*Paper_Space0
340
26
  0
BLOCK_RECORD
  5
42
330
1
100
AcDbSymbolTableRecord
100
AcDbBlockTableRecord
  2
POLY1
340
0
102
{BLKREFS
331
4D
102
}
  0
BLOCK_RECORD
  5
4F
330
1
100
AcDbSymbolTableRecord
100
AcDbBlockTableRecord
  2
POLY2
340
0
102
{BLKREFS
331
5A
102
}
  0
BLOCK_RECORD
  5
A5
330
1
100
AcDbSymbolTableRecord
100
AcDbBlockTableRecord
  2
POLY3
340
0
102
{BLKREFS
331
B8
102
}
  0
BLOCK_RECORD
  5
BA
330
1
100
AcDbSymbolTableRecord
100
AcDbBlockTableRecord
  2
POLY4
340
0
102
{BLKREFS
331
C7
102
}
  0
BLOCK_RECORD
  5
CA
330
1
100
AcDbSymbolTableRecord
100
AcDbBlockTableRecord
  2
POLY5
340
0
102
{BLKREFS
331
D7
102
}
  0
BLOCK_RECORD
  5
DA
330
1
100
AcDbSymbolTableRecord
100
AcDbBlockTableRecord
  2
POLY6
340
0
102
{BLKREFS
331
E7
102
}
  0
BLOCK_RECORD
  5
E8
330
1
100
AcDbSymbolTableRecord
100
AcDbBlockTableRecord
  2
POLY7
340
0
102
{BLKREFS
331
FB
102
}
  0
BLOCK_RECORD
  5
109
330
1
100
AcDbSymbolTableRecord
100
AcDbBlockTableRecord
  2
POLY8
340
0
102
{BLKREFS
331
114
102
}
  0
BLOCK_RECORD
  5
126
330
1
100
AcDbSymbolTableRecord
100
AcDbBlockTableRecord
  2
POLY9
340
0
102
{BLKREFS
331
139
102
}
  0
BLOCK_RECORD
  5
163
330
1
100
AcDbSymbolTableRecord
100
AcDbBlockTableRecord
  2
POLY10
340
0
102
{BLKREFS
331
16E
102
}
  0
BLOCK_RECORD
  5
16F
330
1
100
AcDbSymbolTableRecord
100
AcDbBlockTableRecord
  2
POLY11
340
0
102
{BLKREFS
331
17E
102
}
  0
BLOCK_RECORD
  5
1BD
330
1
100
AcDbSymbolTableRecord
100
AcDbBlockTableRecord
  2
POLY12
340
0
102
{BLKREFS
331
1C6
102
}
  0
BLOCK_RECORD
  5
1C7
330
1
100
AcDbSymbolTableRecord
100
AcDbBlockTableRecord
  2
POLY13
340
0
102
{BLKREFS
331
1D0
102
}
  0
BLOCK_RECORD
  5
1D1
330
1
100
AcDbSymbolTableRecord
100
AcDbBlockTableRecord
  2
POLY14
340
0
102
{BLKREFS
331
1DA
102
}
  0
BLOCK_RECORD
  5
1DB
330
1
100
AcDbSymbolTableRecord
100
AcDbBlockTableRecord
  2
POLY15
340
0
102
{BLKREFS
331
1E4
102
}
  0
BLOCK_RECORD
  5
1E5
330
1
100
AcDbSymbolTableRecord
100
AcDbBlockTableRecord
  2
POLY16
340
0
102
{BLKREFS
331
1EE
102
}
  0
BLOCK_RECORD
  5
1EF
330
1
100
AcDbSymbolTableRecord
100
AcDbBlockTableRecord
  2
POLY17
340
0
102
{BLKREFS
331
1F8
102
}
  0
BLOCK_RECORD
  5
1F9
330
1
100
AcDbSymbolTableRecord
100
AcDbBlockTableRecord
  2
POLY18
340
0
102
{BLKREFS
331
202
102
}
  0
BLOCK_RECORD
  5
203
330
1
100
AcDbSymbolTableRecord
100
AcDbBlockTableRecord
  2
POLY19
340
0
102
{BLKREFS
331
20C
102
}
  0
BLOCK_RECORD
  5
20D
330
1
100
AcDbSymbolTableRecord
100
AcDbBlockTableRecord
  2
POLY20
340
0
102
{BLKREFS
331
216
102
}
  0
BLOCK_RECORD
  5
217
330
1
100
AcDbSymbolTableRecord
100
AcDbBlockTableRecord
  2
POLY21
340
0
102
{BLKREFS
331
220
102
}
  0
BLOCK_RECORD
  5
221
330
1
100
AcDbSymbolTableRecord
100
AcDbBlockTableRecord
  2
POLY22
340
0
102
{BLKREFS
331
22A
102
}
  0
BLOCK_RECORD
  5
22B
330
1
100
AcDbSymbolTableRecord
100
AcDbBlockTableRecord
  2
POLY23
340
0
102
{BLKREFS
331
234
102
}
  0
BLOCK_RECORD
  5
282
330
1
100
AcDbSymbolTableRecord
100
AcDbBlockTableRecord
  2
POLY24
340
0
102
{BLKREFS
331
28D
102
}
  0
BLOCK_RECORD
  5
28E
330
1
100
AcDbSymbolTableRecord
100
AcDbBlockTableRecord
  2
POLY25
340
0
102
{BLKREFS
331
299
102
}
  0
BLOCK_RECORD
  5
36F
330
1
100
AcDbSymbolTableRecord
100
AcDbBlockTableRecord
  2
POLY26
340
0
102
{BLKREFS
331
38C
102
}
  0
BLOCK_RECORD
  5
3A9
330
1
100
AcDbSymbolTableRecord
100
AcDbBlockTableRecord
  2
KLON1
340
0
102
{BLKREFS
331
3AF
102
}
  0
BLOCK_RECORD
  5
3B0
330
1
100
AcDbSymbolTableRecord
100
AcDbBlockTableRecord
  2
KLON2
340
0
102
{BLKREFS
331
3B6
102
}
  0
BLOCK_RECORD
  5
3B8
330
1
100
AcDbSymbolTableRecord
100
AcDbBlockTableRecord
  2
KLON3
340
0
102
{BLKREFS
331
3BE
102
}
  0
BLOCK_RECORD
  5
3BF
330
1
100
AcDbSymbolTableRecord
100
AcDbBlockTableRecord
  2
KLON4
340
0
102
{BLKREFS
331
3C5
102
}
  0
BLOCK_RECORD
  5
3C7
330
1
100
AcDbSymbolTableRecord
100
AcDbBlockTableRecord
  2
KLON5
340
0
102
{BLKREFS
331
3CD
102
}
  0
BLOCK_RECORD
  5
3CE
330
1
100
AcDbSymbolTableRecord
100
AcDbBlockTableRecord
  2
KLON6
340
0
102
{BLKREFS
331
3D4
102
}
  0
BLOCK_RECORD
  5
3D6
330
1
100
AcDbSymbolTableRecord
100
AcDbBlockTableRecord
  2
KLON7
340
0
102
{BLKREFS
331
3DC
102
}
  0
BLOCK_RECORD
  5
3DD
330
1
100
AcDbSymbolTableRecord
100
AcDbBlockTableRecord
  2
KLON8
340
0
102
{BLKREFS
331
3E3
102
}
  0
BLOCK_RECORD
  5
3E5
330
1
100
AcDbSymbolTableRecord
100
AcDbBlockTableRecord
  2
KLON9
340
0
102
{BLKREFS
331
3EB
102
}
  0
BLOCK_RECORD
  5
3EC
330
1
100
AcDbSymbolTableRecord
100
AcDbBlockTableRecord
  2
KLON10
340
0
102
{BLKREFS
331
3F2
102
}
  0
BLOCK_RECORD
  5
3F5
330
1
100
AcDbSymbolTableRecord
100
AcDbBlockTableRecord
  2
KLON11
340
0
102
{BLKREFS
331
3FB
102
}
  0
BLOCK_RECORD
  5
3FC
330
1
100
AcDbSymbolTableRecord
100
AcDbBlockTableRecord
  2
KLON12
340
0
102
{BLKREFS
331
402
102
}
  0
BLOCK_RECORD
  5
404
330
1
100
AcDbSymbolTableRecord
100
AcDbBlockTableRecord
  2
KLON13
340
0
102
{BLKREFS
331
40A
102
}
  0
BLOCK_RECORD
  5
40B
330
1
100
AcDbSymbolTableRecord
100
AcDbBlockTableRecord
  2
KLON14
340
0
102
{BLKREFS
331
411
102
}
  0
BLOCK_RECORD
  5
413
330
1
100
AcDbSymbolTableRecord
100
AcDbBlockTableRecord
  2
KLON15
340
0
102
{BLKREFS
331
419
102
}
  0
BLOCK_RECORD
  5
41A
330
1
100
AcDbSymbolTableRecord
100
AcDbBlockTableRecord
  2
KLON16
340
0
102
{BLKREFS
331
420
102
}
  0
BLOCK_RECORD
  5
422
330
1
100
AcDbSymbolTableRecord
100
AcDbBlockTableRecord
  2
KLON17
340
0
102
{BLKREFS
331
428
102
}
  0
BLOCK_RECORD
  5
429
330
1
100
AcDbSymbolTableRecord
100
AcDbBlockTableRecord
  2
KLON18
340
0
102
{BLKREFS
331
42F
102
}
  0
BLOCK_RECORD
  5
431
330
1
100
AcDbSymbolTableRecord
100
AcDbBlockTableRecord
  2
KLON19
340
0
102
{BLKREFS
331
437
102
}
  0
BLOCK_RECORD
  5
438
330
1
100
AcDbSymbolTableRecord
100
AcDbBlockTableRecord
  2
KLON20
340
0
102
{BLKREFS
331
43E
102
}
  0
BLOCK_RECORD
  5
44D
330
1
100
AcDbSymbolTableRecord
100
AcDbBlockTableRecord
  2
POLY27
340
0
102
{BLKREFS
331
458
102
}
  0
BLOCK_RECORD
  5
45C
330
1
100
AcDbSymbolTableRecord
100
AcDbBlockTableRecord
  2
POLY28
340
0
102
{BLKREFS
331
467
102
}
  0
BLOCK_RECORD
  5
468
330
1
100
AcDbSymbolTableRecord
100
AcDbBlockTableRecord
  2
POLY29
340
0
102
{BLKREFS
331
473
102
}
  0
BLOCK_RECORD
  5
4D6
330
1
100
AcDbSymbolTableRecord
100
AcDbBlockTableRecord
  2
KLON21
340
0
102
{BLKREFS
331
4DD
102
}
  0
BLOCK_RECORD
  5
4DF
330
1
100
AcDbSymbolTableRecord
100
AcDbBlockTableRecord
  2
KLON22
340
0
102
{BLKREFS
331
4E7
102
}
  0
BLOCK_RECORD
  5
4E8
330
1
100
AcDbSymbolTableRecord
100
AcDbBlockTableRecord
  2
KLON23
340
0
102
{BLKREFS
331
4EF
102
}
  0
BLOCK_RECORD
  5
4F0
330
1
100
AcDbSymbolTableRecord
100
AcDbBlockTableRecord
  2
KLON24
340
0
102
{BLKREFS
331
4F7
102
}
  0
BLOCK_RECORD
  5
4F8
330
1
100
AcDbSymbolTableRecord
100
AcDbBlockTableRecord
  2
KLON25
340
0
102
{BLKREFS
331
4FF
102
}
  0
BLOCK_RECORD
  5
500
330
1
100
AcDbSymbolTableRecord
100
AcDbBlockTableRecord
  2
KLON26
340
0
102
{BLKREFS
331
505
102
}
  0
BLOCK_RECORD
  5
507
330
1
100
AcDbSymbolTableRecord
100
AcDbBlockTableRecord
  2
KLON27
340
0
102
{BLKREFS
331
512
102
}
  0
BLOCK_RECORD
  5
513
330
1
100
AcDbSymbolTableRecord
100
AcDbBlockTableRecord
  2
KLON28
340
0
102
{BLKREFS
331
521
102
}
  0
BLOCK_RECORD
  5
522
330
1
100
AcDbSymbolTableRecord
100
AcDbBlockTableRecord
  2
KLON29
340
0
102
{BLKREFS
331
52B
102
}
  0
BLOCK_RECORD
  5
52C
330
1
100
AcDbSymbolTableRecord
100
AcDbBlockTableRecord
  2
KLON30
340
0
102
{BLKREFS
331
534
102
}
  0
BLOCK_RECORD
  5
535
330
1
100
AcDbSymbolTableRecord
100
AcDbBlockTableRecord
  2
KLON31
340
0
102
{BLKREFS
331
543
102
}
  0
BLOCK_RECORD
  5
544
330
1
100
AcDbSymbolTableRecord
100
AcDbBlockTableRecord
  2
KLON32
340
0
102
{BLKREFS
331
54F
102
}
  0
BLOCK_RECORD
  5
550
330
1
100
AcDbSymbolTableRecord
100
AcDbBlockTableRecord
  2
KLON33
340
0
102
{BLKREFS
331
557
102
}
  0
BLOCK_RECORD
  5
558
330
1
100
AcDbSymbolTableRecord
100
AcDbBlockTableRecord
  2
KLON34
340
0
102
{BLKREFS
331
561
102
}
  0
BLOCK_RECORD
  5
562
330
1
100
AcDbSymbolTableRecord
100
AcDbBlockTableRecord
  2
KLON35
340
0
102
{BLKREFS
331
57D
102
}
  0
BLOCK_RECORD
  5
57F
330
1
100
AcDbSymbolTableRecord
100
AcDbBlockTableRecord
  2
KLON36
340
0
102
{BLKREFS
331
586
102
}
  0
BLOCK_RECORD
  5
587
330
1
100
AcDbSymbolTableRecord
100
AcDbBlockTableRecord
  2
KLON37
340
0
102
{BLKREFS
331
592
102
}
  0
BLOCK_RECORD
  5
593
330
1
100
AcDbSymbolTableRecord
100
AcDbBlockTableRecord
  2
KLON38
340
0
102
{BLKREFS
331
5B0
102
}
  0
BLOCK_RECORD
  5
5B1
330
1
100
AcDbSymbolTableRecord
100
AcDbBlockTableRecord
  2
KLON39
340
0
102
{BLKREFS
331
5D4
102
}
  0
BLOCK_RECORD
  5
5D5
330
1
100
AcDbSymbolTableRecord
100
AcDbBlockTableRecord
  2
KLON40
340
0
102
{BLKREFS
331
5EE
102
}
  0
BLOCK_RECORD
  5
5EF
330
1
100
AcDbSymbolTableRecord
100
AcDbBlockTableRecord
  2
KLON41
340
0
102
{BLKREFS
331
609
102
}
  0
BLOCK_RECORD
  5
60C
330
1
100
AcDbSymbolTableRecord
100
AcDbBlockTableRecord
  2
KLON42
340
0
102
{BLKREFS
331
615
102
}
  0
BLOCK_RECORD
  5
616
330
1
100
AcDbSymbolTableRecord
100
AcDbBlockTableRecord
  2
KLON43
340
0
102
{BLKREFS
331
61F
102
}
  0
BLOCK_RECORD
  5
625
330
1
100
AcDbSymbolTableRecord
100
AcDbBlockTableRecord
  2
*D73
340
0
  0
BLOCK_RECORD
  5
633
330
1
100
AcDbSymbolTableRecord
100
AcDbBlockTableRecord
  2
*D74
340
0
  0
BLOCK_RECORD
  5
641
330
1
100
AcDbSymbolTableRecord
100
AcDbBlockTableRecord
  2
*D75
340
0
  0
BLOCK_RECORD
  5
650
330
1
100
AcDbSymbolTableRecord
100
AcDbBlockTableRecord
  2
*D76
340
0
  0
BLOCK_RECORD
  5
65E
330
1
100
AcDbSymbolTableRecord
100
AcDbBlockTableRecord
  2
*D77
340
0
  0
BLOCK_RECORD
  5
66B
330
1
100
AcDbSymbolTableRecord
100
AcDbBlockTableRecord
  2
*D78
340
0
  0
BLOCK_RECORD
  5
679
330
1
100
AcDbSymbolTableRecord
100
AcDbBlockTableRecord
  2
*D79
340
0
  0
BLOCK_RECORD
  5
686
330
1
100
AcDbSymbolTableRecord
100
AcDbBlockTableRecord
  2
*D80
340
0
  0
BLOCK_RECORD
  5
693
330
1
100
AcDbSymbolTableRecord
100
AcDbBlockTableRecord
  2
*D81
340
0
  0
BLOCK_RECORD
  5
6A0
330
1
100
AcDbSymbolTableRecord
100
AcDbBlockTableRecord
  2
*D82
340
0
  0
BLOCK_RECORD
  5
6AD
330
1
100
AcDbSymbolTableRecord
100
AcDbBlockTableRecord
  2
*D83
340
0
  0
BLOCK_RECORD
  5
6BA
330
1
100
AcDbSymbolTableRecord
100
AcDbBlockTableRecord
  2
*D84
340
0
  0
ENDTAB
  0
ENDSEC
  0
SECTION
  2
BLOCKS
  0
BLOCK
  5
20
330
1F
100
AcDbEntity
  8
0
100
AcDbBlockBegin
  2
*Model_Space
 70
     0
 71
     0
 10
0.0
 20
0.0
 30
0.0
  3
*Model_Space
  1

  0
ENDBLK
  5
21
330
1F
100
AcDbEntity
  8
0
100
AcDbBlockEnd
  0
BLOCK
  5
1C
330
1B
100
AcDbEntity
 67
     1
  8
0
100
AcDbBlockBegin
  2
*Paper_Space
 70
     0
 71
     0
 10
0.0
 20
0.0
 30
0.0
  3
*Paper_Space
  1

  0
ENDBLK
  5
1D
330
1B
100
AcDbEntity
 67
     1
  8
0
100
AcDbBlockEnd
  0
BLOCK
  5
24
330
23
100
AcDbEntity
  8
0
100
AcDbBlockBegin
  2
*Paper_Space0
 70
     0
 71
     0
 10
0.0
 20
0.0
 30
0.0
  3
*Paper_Space0
  1

  0
ENDBLK
  5
25
330
23
100
AcDbEntity
  8
0
100
AcDbBlockEnd
  0
BLOCK
  5
43
330
42
100
AcDbEntity
  8
0
100
AcDbBlockBegin
  2
POLY1
 70
     0
 71
     0
 10
0.0
 20
0.0
 30
0.0
  3
POLY1
  1

  4
POLY1
  0
LINE
  5
45
330
42
100
AcDbEntity
  8
LC-002-100-D00-0
 62
     7
370
    50
100
AcDbLine
 10
123.455297
 20
242.176133
 30
0.0
 11
123.455297
 21
242.176133
 31
0.0
  0
LINE
  5
46
330
42
100
AcDbEntity
  8
LC-002-100-D00-0
 62
     7
370
    50
100
AcDbLine
 10
123.455297
 20
242.176133
 30
0.0
 11
123.695197
 21
242.050002
 31
0.0
  0
LINE
  5
47
330
42
100
AcDbEntity
  8
LC-002-100-D00-0
 62
     7
370
    50
100
AcDbLine
 10
123.695197
 20
242.050002
 30
0.0
 11
123.695197
 21
242.050002
 31
0.0
  0
LINE
  5
48
330
42
100
AcDbEntity
  8
LC-002-100-D00-0
 62
     7
370
    50
100
AcDbLine
 10
123.695197
 20
242.050002
 30
0.0
 11
124.059044
 21
241.858704
 31
0.0
  0
LINE
  5
49
330
42
100
AcDbEntity
  8
LC-002-100-D00-0
 62
     7
370
    50
100
AcDbLine
 10
124.059044
 20
241.858704
 30
0.0
 11
124.059044
 21
241.858704
 31
0.0
  0
LINE
  5
4A
330
42
100
AcDbEntity
  8
LC-002-100-D00-0
 62
     7
370
    50
100
AcDbLine
 10
124.059044
 20
241.858704
 30
0.0
 11
124.422062
 21
241.653439
 31
0.0
  0
LINE
  5
4B
330
42
100
AcDbEntity
  8
LC-002-100-D00-0
 62
     7
370
    50
100
AcDbLine
 10
124.422062
 20
241.653439
 30
0.0
 11
124.422062
 21
241.653439
 31
0.0
  0
LINE
  5
4C
330
42
100
AcDbEntity
  8
LC-002-100-D00-0
 62
     7
370
    50
100
AcDbLine
 10
124.422062
 20
241.653439
 30
0.0
 11
124.545727
 21
241.583514
 31
0.0
  0
ENDBLK
  5
44
330
42
100
AcDbEntity
  8
0
100
AcDbBlockEnd
  0
BLOCK
  5
50
330
4F
100
AcDbEntity
  8
0
100
AcDbBlockBegin
  2
POLY2
 70
     0
 71
     0
 10
0.0
 20
0.0
 30
0.0
  3
POLY2
  1

  4
POLY2
  0
LINE
  5
52
330
4F
100
AcDbEntity
  8
LC-002-100-D00-0
 62
     7
370
    50
100
AcDbLine
 10
129.620667
 20
240.983295
 30
0.0
 11
129.620667
 21
240.983295
 31
0.0
  0
LINE
  5
53
330
4F
100
AcDbEntity
  8
LC-002-100-D00-0
 62
     7
370
    50
100
AcDbLine
 10
129.620667
 20
240.983295
 30
0.0
 11
129.40687
 21
241.09993
 31
0.0
  0
LINE
  5
54
330
4F
100
AcDbEntity
  8
LC-002-100-D00-0
 62
     7
370
    50
100
AcDbLine
 10
129.40687
 20
241.09993
 30
0.0
 11
129.40687
 21
241.09993
 31
0.0
  0
LINE
  5
55
330
4F
100
AcDbEntity
  8
LC-002-100-D00-0
 62
     7
370
    50
100
AcDbLine
 10
129.40687
 20
241.09993
 30
0.0
 11
129.043635
 21
241.298088
 31
0.0
  0
LINE
  5
56
330
4F
100
AcDbEntity
  8
LC-002-100-D00-0
 62
     7
370
    50
100
AcDbLine
 10
129.043635
 20
241.298088
 30
0.0
 11
129.043635
 21
241.298088
 31
0.0
  0
LINE
  5
57
330
4F
100
AcDbEntity
  8
LC-002-100-D00-0
 62
     7
370
    50
100
AcDbLine
 10
129.043635
 20
241.298088
 30
0.0
 11
128.690856
 21
241.4985
 31
0.0
  0
LINE
  5
58
330
4F
100
AcDbEntity
  8
LC-002-100-D00-0
 62
     7
370
    50
100
AcDbLine
 10
128.690856
 20
241.4985
 30
0.0
 11
128.690856
 21
241.4985
 31
0.0
  0
LINE
  5
59
330
4F
100
AcDbEntity
  8
LC-002-100-D00-0
 62
     7
370
    50
100
AcDbLine
 10
128.690856
 20
241.4985
 30
0.0
 11
128.54572
 21
241.580951
 31
0.0
  0
ENDBLK
  5
51
330
4F
100
AcDbEntity
  8
0
100
AcDbBlockEnd
  0
BLOCK
  5
A6
330
A5
100
AcDbEntity
  8
0
100
AcDbBlockBegin
  2
POLY3
 70
     0
 71
     0
 10
0.0
 20
0.0
 30
0.0
  3
POLY3
  1

  4
POLY3
  0
LINE
  5
A8
330
A5
100
AcDbEntity
  8
LC-002-100-D00-0
 62
     7
370
    50
100
AcDbLine
 10
85.33882
 20
351.710084
 30
0.0
 11
85.33882
 21
351.710084
 31
0.0
  0
LINE
  5
A9
330
A5
100
AcDbEntity
  8
LC-002-100-D00-0
 62
     7
370
    50
100
AcDbLine
 10
85.33882
 20
351.710084
 30
0.0
 11
85.339408
 21
351.710082
 31
0.0
  0
LINE
  5
AA
330
A5
100
AcDbEntity
  8
LC-002-100-D00-0
 62
     7
370
    50
100
AcDbLine
 10
85.339408
 20
351.710082
 30
0.0
 11
85.339408
 21
351.710082
 31
0.0
  0
LINE
  5
AB
330
A5
100
AcDbEntity
  8
LC-002-100-D00-0
 62
     7
370
    50
100
AcDbLine
 10
85.339408
 20
351.710082
 30
0.0
 11
85.351862
 21
351.710037
 31
0.0
  0
LINE
  5
AC
330
A5
100
AcDbEntity
  8
LC-002-100-D00-0
 62
     7
370
    50
100
AcDbLine
 10
85.351862
 20
351.710037
 30
0.0
 11
85.351862
 21
351.710037
 31
0.0
  0
LINE
  5
AD
330
A5
100
AcDbEntity
  8
LC-002-100-D00-0
 62
     7
370
    50
100
AcDbLine
 10
85.351862
 20
351.710037
 30
0.0
 11
85.396041
 21
351.720212
 31
0.0
  0
LINE
  5
AE
330
A5
100
AcDbEntity
  8
LC-002-100-D00-0
 62
     7
370
    50
100
AcDbLine
 10
85.396041
 20
351.720212
 30
0.0
 11
85.396041
 21
351.720212
 31
0.0
  0
LINE
  5
AF
330
A5
100
AcDbEntity
  8
LC-002-100-D00-0
 62
     7
370
    50
100
AcDbLine
 10
85.396041
 20
351.720212
 30
0.0
 11
85.463264
 21
351.792218
 31
0.0
  0
LINE
  5
B0
330
A5
100
AcDbEntity
  8
LC-002-100-D00-0
 62
     7
370
    50
100
AcDbLine
 10
85.463264
 20
351.792218
 30
0.0
 11
85.463264
 21
351.792218
 31
0.0
  0
LINE
  5
B1
330
A5
100
AcDbEntity
  8
LC-002-100-D00-0
 62
     7
370
    50
100
AcDbLine
 10
85.463264
 20
351.792218
 30
0.0
 11
85.528977
 21
351.97707
 31
0.0
  0
LINE
  5
B2
330
A5
100
AcDbEntity
  8
LC-002-100-D00-0
 62
     7
370
    50
100
AcDbLine
 10
85.528977
 20
351.97707
 30
0.0
 11
85.528977
 21
351.97707
 31
0.0
  0
LINE
  5
B3
330
A5
100
AcDbEntity
  8
LC-002-100-D00-0
 62
     7
370
    50
100
AcDbLine
 10
85.528977
 20
351.97707
 30
0.0
 11
85.5755
 21
352.227722
 31
0.0
  0
LINE
  5
B4
330
A5
100
AcDbEntity
  8
LC-002-100-D00-0
 62
     7
370
    50
100
AcDbLine
 10
85.5755
 20
352.227722
 30
0.0
 11
85.5755
 21
352.227722
 31
0.0
  0
LINE
  5
B5
330
A5
100
AcDbEntity
  8
LC-002-100-D00-0
 62
     7
370
    50
100
AcDbLine
 10
85.5755
 20
352.227722
 30
0.0
 11
85.588286
 21
352.433433
 31
0.0
  0
LINE
  5
B6
330
A5
100
AcDbEntity
  8
LC-002-100-D00-0
 62
     7
370
    50
100
AcDbLine
 10
85.588286
 20
352.433433
 30
0.0
 11
85.588286
 21
352.433433
 31
0.0
  0
LINE
  5
B7
330
A5
100
AcDbEntity
  8
LC-002-100-D00-0
 62
     7
370
    50
100
AcDbLine
 10
85.588286
 20
352.433433
 30
0.0
 11
85.594687
 21
352.536413
 31
0.0
  0
ENDBLK
  5
A7
330
A5
100
AcDbEntity
  8
0
100
AcDbBlockEnd
  0
BLOCK
  5
BB
330
BA
100
AcDbEntity
  8
0
100
AcDbBlockBegin
  2
POLY4
 70
     0
 71
     0
 10
0.0
 20
0.0
 30
0.0
  3
POLY4
  1

  4
POLY4
  0
LINE
  5
BD
330
BA
100
AcDbEntity
  8
LC-002-100-D00-0
 62
     7
370
    50
100
AcDbLine
 10
91.612812
 20
361.770722
 30
0.0
 11
91.612812
 21
361.770722
 31
0.0
  0
LINE
  5
BE
330
BA
100
AcDbEntity
  8
LC-002-100-D00-0
 62
     7
370
    50
100
AcDbLine
 10
91.612812
 20
361.770722
 30
0.0
 11
91.635273
 21
361.897859
 31
0.0
  0
LINE
  5
BF
330
BA
100
AcDbEntity
  8
LC-002-100-D00-0
 62
     7
370
    50
100
AcDbLine
 10
91.635273
 20
361.897859
 30
0.0
 11
91.635273
 21
361.897859
 31
0.0
  0
LINE
  5
C0
330
BA
100
AcDbEntity
  8
LC-002-100-D00-0
 62
     7
370
    50
100
AcDbLine
 10
91.635273
 20
361.897859
 30
0.0
 11
91.670704
 21
362.098408
 31
0.0
  0
LINE
  5
C1
330
BA
100
AcDbEntity
  8
LC-002-100-D00-0
 62
     7
370
    50
100
AcDbLine
 10
91.670704
 20
362.098408
 30
0.0
 11
91.670704
 21
362.098408
 31
0.0
  0
LINE
  5
C2
330
BA
100
AcDbEntity
  8
LC-002-100-D00-0
 62
     7
370
    50
100
AcDbLine
 10
91.670704
 20
362.098408
 30
0.0
 11
91.990999
 21
363.911444
 31
0.0
  0
LINE
  5
C3
330
BA
100
AcDbEntity
  8
LC-002-100-D00-0
 62
     7
370
    50
100
AcDbLine
 10
91.990999
 20
363.911444
 30
0.0
 11
91.990999
 21
363.911444
 31
0.0
  0
LINE
  5
C4
330
BA
100
AcDbEntity
  8
LC-002-100-D00-0
 62
     7
370
    50
100
AcDbLine
 10
91.990999
 20
363.911444
 30
0.0
 11
92.288235
 21
365.597463
 31
0.0
  0
LINE
  5
C5
330
BA
100
AcDbEntity
  8
LC-002-100-D00-0
 62
     7
370
    50
100
AcDbLine
 10
92.288235
 20
365.597463
 30
0.0
 11
92.288235
 21
365.597463
 31
0.0
  0
LINE
  5
C6
330
BA
100
AcDbEntity
  8
LC-002-100-D00-0
 62
     7
370
    50
100
AcDbLine
 10
92.288235
 20
365.597463
 30
0.0
 11
92.572529
 21
367.210063
 31
0.0
  0
ENDBLK
  5
BC
330
BA
100
AcDbEntity
  8
0
100
AcDbBlockEnd
  0
BLOCK
  5
CB
330
CA
100
AcDbEntity
  8
0
100
AcDbBlockBegin
  2
POLY5
 70
     0
 71
     0
 10
0.0
 20
0.0
 30
0.0
  3
POLY5
  1

  4
POLY5
  0
LINE
  5
CD
330
CA
100
AcDbEntity
  8
LC-002-100-D00-0
 62
     7
370
    50
100
AcDbLine
 10
88.996406
 20
351.710084
 30
0.0
 11
88.996406
 21
351.710084
 31
0.0
  0
LINE
  5
CE
330
CA
100
AcDbEntity
  8
LC-002-100-D00-0
 62
     7
370
    50
100
AcDbLine
 10
88.996406
 20
351.710084
 30
0.0
 11
88.972215
 21
351.710084
 31
0.0
  0
LINE
  5
CF
330
CA
100
AcDbEntity
  8
LC-002-100-D00-0
 62
     7
370
    50
100
AcDbLine
 10
88.972215
 20
351.710084
 30
0.0
 11
88.972215
 21
351.710084
 31
0.0
  0
LINE
  5
D0
330
CA
100
AcDbEntity
  8
LC-002-100-D00-0
 62
     7
370
    50
100
AcDbLine
 10
88.972215
 20
351.710084
 30
0.0
 11
88.928668
 21
351.710084
 31
0.0
  0
LINE
  5
D1
330
CA
100
AcDbEntity
  8
LC-002-100-D00-0
 62
     7
370
    50
100
AcDbLine
 10
88.928668
 20
351.710084
 30
0.0
 11
88.928668
 21
351.710084
 31
0.0
  0
LINE
  5
D2
330
CA
100
AcDbEntity
  8
LC-002-100-D00-0
 62
     7
370
    50
100
AcDbLine
 10
88.928668
 20
351.710084
 30
0.0
 11
88.394787
 21
351.710084
 31
0.0
  0
LINE
  5
D3
330
CA
100
AcDbEntity
  8
LC-002-100-D00-0
 62
     7
370
    50
100
AcDbLine
 10
88.394787
 20
351.710084
 30
0.0
 11
88.394787
 21
351.710084
 31
0.0
  0
LINE
  5
D4
330
CA
100
AcDbEntity
  8
LC-002-100-D00-0
 62
     7
370
    50
100
AcDbLine
 10
88.394787
 20
351.710084
 30
0.0
 11
88.038685
 21
351.710084
 31
0.0
  0
LINE
  5
D5
330
CA
100
AcDbEntity
  8
LC-002-100-D00-0
 62
     7
370
    50
100
AcDbLine
 10
88.038685
 20
351.710084
 30
0.0
 11
88.038685
 21
351.710084
 31
0.0
  0
LINE
  5
D6
330
CA
100
AcDbEntity
  8
LC-002-100-D00-0
 62
     7
370
    50
100
AcDbLine
 10
88.038685
 20
351.710084
 30
0.0
 11
87.966945
 21
351.710084
 31
0.0
  0
ENDBLK
  5
CC
330
CA
100
AcDbEntity
  8
0
100
AcDbBlockEnd
  0
BLOCK
  5
DB
330
DA
100
AcDbEntity
  8
0
100
AcDbBlockBegin
  2
POLY6
 70
     0
 71
     0
 10
0.0
 20
0.0
 30
0.0
  3
POLY6
  1

  4
POLY6
  0
LINE
  5
DD
330
DA
100
AcDbEntity
  8
LC-002-100-D00-0
 62
     7
370
    50
100
AcDbLine
 10
262.191523
 20
351.710084
 30
0.0
 11
262.191523
 21
351.710084
 31
0.0
  0
LINE
  5
DE
330
DA
100
AcDbEntity
  8
LC-002-100-D00-0
 62
     7
370
    50
100
AcDbLine
 10
262.191523
 20
351.710084
 30
0.0
 11
261.561008
 21
351.710084
 31
0.0
  0
LINE
  5
DF
330
DA
100
AcDbEntity
  8
LC-002-100-D00-0
 62
     7
370
    50
100
AcDbLine
 10
261.561008
 20
351.710084
 30
0.0
 11
261.561008
 21
351.710084
 31
0.0
  0
LINE
  5
E0
330
DA
100
AcDbEntity
  8
LC-002-100-D00-0
 62
     7
370
    50
100
AcDbLine
 10
261.561008
 20
351.710084
 30
0.0
 11
260.425995
 21
351.710084
 31
0.0
  0
LINE
  5
E1
330
DA
100
AcDbEntity
  8
LC-002-100-D00-0
 62
     7
370
    50
100
AcDbLine
 10
260.425995
 20
351.710084
 30
0.0
 11
260.425995
 21
351.710084
 31
0.0
  0
LINE
  5
E2
330
DA
100
AcDbEntity
  8
LC-002-100-D00-0
 62
     7
370
    50
100
AcDbLine
 10
260.425995
 20
351.710084
 30
0.0
 11
259.413838
 21
351.710084
 31
0.0
  0
LINE
  5
E3
330
DA
100
AcDbEntity
  8
LC-002-100-D00-0
 62
     7
370
    50
100
AcDbLine
 10
259.413838
 20
351.710084
 30
0.0
 11
259.413838
 21
351.710084
 31
0.0
  0
LINE
  5
E4
330
DA
100
AcDbEntity
  8
LC-002-100-D00-0
 62
     7
370
    50
100
AcDbLine
 10
259.413838
 20
351.710084
 30
0.0
 11
258.995701
 21
351.710084
 31
0.0
  0
LINE
  5
E5
330
DA
100
AcDbEntity
  8
LC-002-100-D00-0
 62
     7
370
    50
100
AcDbLine
 10
258.995701
 20
351.710084
 30
0.0
 11
258.995701
 21
351.710084
 31
0.0
  0
LINE
  5
E6
330
DA
100
AcDbEntity
  8
LC-002-100-D00-0
 62
     7
370
    50
100
AcDbLine
 10
258.995701
 20
351.710084
 30
0.0
 11
258.911464
 21
351.710084
 31
0.0
  0
ENDBLK
  5
DC
330
DA
100
AcDbEntity
  8
0
100
AcDbBlockEnd
  0
BLOCK
  5
E9
330
E8
100
AcDbEntity
  8
0
100
AcDbBlockBegin
  2
POLY7
 70
     0
 71
     0
 10
0.0
 20
0.0
 30
0.0
  3
POLY7
  1

  4
POLY7
  0
LINE
  5
EB
330
E8
100
AcDbEntity
  8
LC-002-100-D00-0
 62
     7
370
    50
100
AcDbLine
 10
263.748143
 20
351.710084
 30
0.0
 11
263.748143
 21
351.710084
 31
0.0
  0
LINE
  5
EC
330
E8
100
AcDbEntity
  8
LC-002-100-D00-0
 62
     7
370
    50
100
AcDbLine
 10
263.748143
 20
351.710084
 30
0.0
 11
263.749106
 21
351.710082
 31
0.0
  0
LINE
  5
ED
330
E8
100
AcDbEntity
  8
LC-002-100-D00-0
 62
     7
370
    50
100
AcDbLine
 10
263.749106
 20
351.710082
 30
0.0
 11
263.749106
 21
351.710082
 31
0.0
  0
LINE
  5
EE
330
E8
100
AcDbEntity
  8
LC-002-100-D00-0
 62
     7
370
    50
100
AcDbLine
 10
263.749106
 20
351.710082
 30
0.0
 11
263.76949
 21
351.710037
 31
0.0
  0
LINE
  5
EF
330
E8
100
AcDbEntity
  8
LC-002-100-D00-0
 62
     7
370
    50
100
AcDbLine
 10
263.76949
 20
351.710037
 30
0.0
 11
263.76949
 21
351.710037
 31
0.0
  0
LINE
  5
F0
330
E8
100
AcDbEntity
  8
LC-002-100-D00-0
 62
     7
370
    50
100
AcDbLine
 10
263.76949
 20
351.710037
 30
0.0
 11
263.843945
 21
351.720212
 31
0.0
  0
LINE
  5
F1
330
E8
100
AcDbEntity
  8
LC-002-100-D00-0
 62
     7
370
    50
100
AcDbLine
 10
263.843945
 20
351.720212
 30
0.0
 11
263.843945
 21
351.720212
 31
0.0
  0
LINE
  5
F2
330
E8
100
AcDbEntity
  8
LC-002-100-D00-0
 62
     7
370
    50
100
AcDbLine
 10
263.843945
 20
351.720212
 30
0.0
 11
263.968325
 21
351.792217
 31
0.0
  0
LINE
  5
F3
330
E8
100
AcDbEntity
  8
LC-002-100-D00-0
 62
     7
370
    50
100
AcDbLine
 10
263.968325
 20
351.792217
 30
0.0
 11
263.968325
 21
351.792217
 31
0.0
  0
LINE
  5
F4
330
E8
100
AcDbEntity
  8
LC-002-100-D00-0
 62
     7
370
    50
100
AcDbLine
 10
263.968325
 20
351.792217
 30
0.0
 11
264.104176
 21
351.97707
 31
0.0
  0
LINE
  5
F5
330
E8
100
AcDbEntity
  8
LC-002-100-D00-0
 62
     7
370
    50
100
AcDbLine
 10
264.104176
 20
351.97707
 30
0.0
 11
264.104176
 21
351.97707
 31
0.0
  0
LINE
  5
F6
330
E8
100
AcDbEntity
  8
LC-002-100-D00-0
 62
     7
370
    50
100
AcDbLine
 10
264.104176
 20
351.97707
 30
0.0
 11
264.208661
 21
352.227722
 31
0.0
  0
LINE
  5
F7
330
E8
100
AcDbEntity
  8
LC-002-100-D00-0
 62
     7
370
    50
100
AcDbLine
 10
264.208661
 20
352.227722
 30
0.0
 11
264.208661
 21
352.227722
 31
0.0
  0
LINE
  5
F8
330
E8
100
AcDbEntity
  8
LC-002-100-D00-0
 62
     7
370
    50
100
AcDbLine
 10
264.208661
 20
352.227722
 30
0.0
 11
264.238899
 21
352.433433
 31
0.0
  0
LINE
  5
F9
330
E8
100
AcDbEntity
  8
LC-002-100-D00-0
 62
     7
370
    50
100
AcDbLine
 10
264.238899
 20
352.433433
 30
0.0
 11
264.238899
 21
352.433433
 31
0.0
  0
LINE
  5
FA
330
E8
100
AcDbEntity
  8
LC-002-100-D00-0
 62
     7
370
    50
100
AcDbLine
 10
264.238899
 20
352.433433
 30
0.0
 11
264.254037
 21
352.536413
 31
0.0
  0
ENDBLK
  5
EA
330
E8
100
AcDbEntity
  8
0
100
AcDbBlockEnd
  0
BLOCK
  5
10A
330
109
100
AcDbEntity
  8
0
100
AcDbBlockBegin
  2
POLY8
 70
     0
 71
     0
 10
0.0
 20
0.0
 30
0.0
  3
POLY8
  1

  4
POLY8
  0
LINE
  5
10C
330
109
100
AcDbEntity
  8
LC-002-100-D00-0
 62
     7
370
    50
100
AcDbLine
 10
121.854423
 20
239.975076
 30
0.0
 11
121.854423
 21
239.975076
 31
0.0
  0
LINE
  5
10D
330
109
100
AcDbEntity
  8
LC-002-100-D00-0
 62
     7
370
    50
100
AcDbLine
 10
121.854423
 20
239.975076
 30
0.0
 11
121.760366
 21
240.127715
 31
0.0
  0
LINE
  5
10E
330
109
100
AcDbEntity
  8
LC-002-100-D00-0
 62
     7
370
    50
100
AcDbLine
 10
121.760366
 20
240.127715
 30
0.0
 11
121.760366
 21
240.127715
 31
0.0
  0
LINE
  5
10F
330
109
100
AcDbEntity
  8
LC-002-100-D00-0
 62
     7
370
    50
100
AcDbLine
 10
121.760366
 20
240.127715
 30
0.0
 11
121.683343
 21
240.252442
 31
0.0
  0
LINE
  5
110
330
109
100
AcDbEntity
  8
LC-002-100-D00-0
 62
     7
370
    50
100
AcDbLine
 10
121.683343
 20
240.252442
 30
0.0
 11
121.683343
 21
240.252442
 31
0.0
  0
LINE
  5
111
330
109
100
AcDbEntity
  8
LC-002-100-D00-0
 62
     7
370
    50
100
AcDbLine
 10
121.683343
 20
240.252442
 30
0.0
 11
121.574694
 21
240.428265
 31
0.0
  0
LINE
  5
112
330
109
100
AcDbEntity
  8
LC-002-100-D00-0
 62
     7
370
    50
100
AcDbLine
 10
121.574694
 20
240.428265
 30
0.0
 11
121.574694
 21
240.428265
 31
0.0
  0
LINE
  5
113
330
109
100
AcDbEntity
  8
LC-002-100-D00-0
 62
     7
370
    50
100
AcDbLine
 10
121.574694
 20
240.428265
 30
0.0
 11
121.545724
 21
240.475076
 31
0.0
  0
ENDBLK
  5
10B
330
109
100
AcDbEntity
  8
0
100
AcDbBlockEnd
  0
BLOCK
  5
127
330
126
100
AcDbEntity
  8
0
100
AcDbBlockBegin
  2
POLY9
 70
     0
 71
     0
 10
0.0
 20
0.0
 30
0.0
  3
POLY9
  1

  4
POLY9
  0
LINE
  5
129
330
126
100
AcDbEntity
  8
LC-002-100-D00-0
 62
     7
370
    50
100
AcDbLine
 10
271.545724
 20
240.475076
 30
0.0
 11
271.545724
 21
240.475076
 31
0.0
  0
LINE
  5
12A
330
126
100
AcDbEntity
  8
LC-002-100-D00-0
 62
     7
370
    50
100
AcDbLine
 10
271.545724
 20
240.475076
 30
0.0
 11
271.538386
 21
240.463216
 31
0.0
  0
LINE
  5
12B
330
126
100
AcDbEntity
  8
LC-002-100-D00-0
 62
     7
370
    50
100
AcDbLine
 10
271.538386
 20
240.463216
 30
0.0
 11
271.538386
 21
240.463216
 31
0.0
  0
LINE
  5
12C
330
126
100
AcDbEntity
  8
LC-002-100-D00-0
 62
     7
370
    50
100
AcDbLine
 10
271.538386
 20
240.463216
 30
0.0
 11
271.510254
 21
240.417726
 31
0.0
  0
LINE
  5
12D
330
126
100
AcDbEntity
  8
LC-002-100-D00-0
 62
     7
370
    50
100
AcDbLine
 10
271.510254
 20
240.417726
 30
0.0
 11
271.510254
 21
240.417726
 31
0.0
  0
LINE
  5
12E
330
126
100
AcDbEntity
  8
LC-002-100-D00-0
 62
     7
370
    50
100
AcDbLine
 10
271.510254
 20
240.417726
 30
0.0
 11
271.489494
 21
240.384152
 31
0.0
  0
LINE
  5
12F
330
126
100
AcDbEntity
  8
LC-002-100-D00-0
 62
     7
370
    50
100
AcDbLine
 10
271.489494
 20
240.384152
 30
0.0
 11
271.489494
 21
240.384152
 31
0.0
  0
LINE
  5
130
330
126
100
AcDbEntity
  8
LC-002-100-D00-0
 62
     7
370
    50
100
AcDbLine
 10
271.489494
 20
240.384152
 30
0.0
 11
271.435536
 21
240.296834
 31
0.0
  0
LINE
  5
131
330
126
100
AcDbEntity
  8
LC-002-100-D00-0
 62
     7
370
    50
100
AcDbLine
 10
271.435536
 20
240.296834
 30
0.0
 11
271.435536
 21
240.296834
 31
0.0
  0
LINE
  5
132
330
126
100
AcDbEntity
  8
LC-002-100-D00-0
 62
     7
370
    50
100
AcDbLine
 10
271.435536
 20
240.296834
 30
0.0
 11
271.402337
 21
240.243088
 31
0.0
  0
LINE
  5
133
330
126
100
AcDbEntity
  8
LC-002-100-D00-0
 62
     7
370
    50
100
AcDbLine
 10
271.402337
 20
240.243088
 30
0.0
 11
271.402337
 21
240.243088
 31
0.0
  0
LINE
  5
134
330
126
100
AcDbEntity
  8
LC-002-100-D00-0
 62
     7
370
    50
100
AcDbLine
 10
271.402337
 20
240.243088
 30
0.0
 11
271.326628
 21
240.120421
 31
0.0
  0
LINE
  5
135
330
126
100
AcDbEntity
  8
LC-002-100-D00-0
 62
     7
370
    50
100
AcDbLine
 10
271.326628
 20
240.120421
 30
0.0
 11
271.326628
 21
240.120421
 31
0.0
  0
LINE
  5
136
330
126
100
AcDbEntity
  8
LC-002-100-D00-0
 62
     7
370
    50
100
AcDbLine
 10
271.326628
 20
240.120421
 30
0.0
 11
271.283936
 21
240.051205
 31
0.0
  0
LINE
  5
137
330
126
100
AcDbEntity
  8
LC-002-100-D00-0
 62
     7
370
    50
100
AcDbLine
 10
271.283936
 20
240.051205
 30
0.0
 11
271.283936
 21
240.051205
 31
0.0
  0
LINE
  5
138
330
126
100
AcDbEntity
  8
LC-002-100-D00-0
 62
     7
370
    50
100
AcDbLine
 10
271.283936
 20
240.051205
 30
0.0
 11
271.237024
 21
239.975076
 31
0.0
  0
ENDBLK
  5
128
330
126
100
AcDbEntity
  8
0
100
AcDbBlockEnd
  0
BLOCK
  5
164
330
163
100
AcDbEntity
  8
0
100
AcDbBlockBegin
  2
POLY10
 70
     0
 71
     0
 10
0.0
 20
0.0
 30
0.0
  3
POLY10
  1

  4
POLY10
  0
LINE
  5
166
330
163
100
AcDbEntity
  8
LC-002-100-D00-0
 62
     7
370
    50
100
AcDbLine
 10
261.814273
 20
239.975076
 30
0.0
 11
261.814273
 21
239.975076
 31
0.0
  0
LINE
  5
167
330
163
100
AcDbEntity
  8
LC-002-100-D00-0
 62
     7
370
    50
100
AcDbLine
 10
261.814273
 20
239.975076
 30
0.0
 11
261.733152
 21
240.125722
 31
0.0
  0
LINE
  5
168
330
163
100
AcDbEntity
  8
LC-002-100-D00-0
 62
     7
370
    50
100
AcDbLine
 10
261.733152
 20
240.125722
 30
0.0
 11
261.733152
 21
240.125722
 31
0.0
  0
LINE
  5
169
330
163
100
AcDbEntity
  8
LC-002-100-D00-0
 62
     7
370
    50
100
AcDbLine
 10
261.733152
 20
240.125722
 30
0.0
 11
261.66621
 21
240.250337
 31
0.0
  0
LINE
  5
16A
330
163
100
AcDbEntity
  8
LC-002-100-D00-0
 62
     7
370
    50
100
AcDbLine
 10
261.66621
 20
240.250337
 30
0.0
 11
261.66621
 21
240.250337
 31
0.0
  0
LINE
  5
16B
330
163
100
AcDbEntity
  8
LC-002-100-D00-0
 62
     7
370
    50
100
AcDbLine
 10
261.66621
 20
240.250337
 30
0.0
 11
261.571259
 21
240.427234
 31
0.0
  0
LINE
  5
16C
330
163
100
AcDbEntity
  8
LC-002-100-D00-0
 62
     7
370
    50
100
AcDbLine
 10
261.571259
 20
240.427234
 30
0.0
 11
261.571259
 21
240.427234
 31
0.0
  0
LINE
  5
16D
330
163
100
AcDbEntity
  8
LC-002-100-D00-0
 62
     7
370
    50
100
AcDbLine
 10
261.571259
 20
240.427234
 30
0.0
 11
261.545724
 21
240.474889
 31
0.0
  0
ENDBLK
  5
165
330
163
100
AcDbEntity
  8
0
100
AcDbBlockEnd
  0
BLOCK
  5
170
330
16F
100
AcDbEntity
  8
0
100
AcDbBlockBegin
  2
POLY11
 70
     0
 71
     0
 10
0.0
 20
0.0
 30
0.0
  3
POLY11
  1

  4
POLY11
  0
LINE
  5
172
330
16F
100
AcDbEntity
  8
LC-002-100-D00-0
 62
     7
370
    50
100
AcDbLine
 10
131.545724
 20
240.474889
 30
0.0
 11
131.545724
 21
240.474889
 31
0.0
  0
LINE
  5
173
330
16F
100
AcDbEntity
  8
LC-002-100-D00-0
 62
     7
370
    50
100
AcDbLine
 10
131.545724
 20
240.474889
 30
0.0
 11
131.539254
 21
240.462819
 31
0.0
  0
LINE
  5
174
330
16F
100
AcDbEntity
  8
LC-002-100-D00-0
 62
     7
370
    50
100
AcDbLine
 10
131.539254
 20
240.462819
 30
0.0
 11
131.539254
 21
240.462819
 31
0.0
  0
LINE
  5
175
330
16F
100
AcDbEntity
  8
LC-002-100-D00-0
 62
     7
370
    50
100
AcDbLine
 10
131.539254
 20
240.462819
 30
0.0
 11
131.514533
 21
240.416722
 31
0.0
  0
LINE
  5
176
330
16F
100
AcDbEntity
  8
LC-002-100-D00-0
 62
     7
370
    50
100
AcDbLine
 10
131.514533
 20
240.416722
 30
0.0
 11
131.514533
 21
240.416722
 31
0.0
  0
LINE
  5
177
330
16F
100
AcDbEntity
  8
LC-002-100-D00-0
 62
     7
370
    50
100
AcDbLine
 10
131.514533
 20
240.416722
 30
0.0
 11
131.496311
 21
240.382749
 31
0.0
  0
LINE
  5
178
330
16F
100
AcDbEntity
  8
LC-002-100-D00-0
 62
     7
370
    50
100
AcDbLine
 10
131.496311
 20
240.382749
 30
0.0
 11
131.496311
 21
240.382749
 31
0.0
  0
LINE
  5
179
330
16F
100
AcDbEntity
  8
LC-002-100-D00-0
 62
     7
370
    50
100
AcDbLine
 10
131.496311
 20
240.382749
 30
0.0
 11
131.425442
 21
240.250718
 31
0.0
  0
LINE
  5
17A
330
16F
100
AcDbEntity
  8
LC-002-100-D00-0
 62
     7
370
    50
100
AcDbLine
 10
131.425442
 20
240.250718
 30
0.0
 11
131.425442
 21
240.250718
 31
0.0
  0
LINE
  5
17B
330
16F
100
AcDbEntity
  8
LC-002-100-D00-0
 62
     7
370
    50
100
AcDbLine
 10
131.425442
 20
240.250718
 30
0.0
 11
131.358075
 21
240.125313
 31
0.0
  0
LINE
  5
17C
330
16F
100
AcDbEntity
  8
LC-002-100-D00-0
 62
     7
370
    50
100
AcDbLine
 10
131.358075
 20
240.125313
 30
0.0
 11
131.358075
 21
240.125313
 31
0.0
  0
LINE
  5
17D
330
16F
100
AcDbEntity
  8
LC-002-100-D00-0
 62
     7
370
    50
100
AcDbLine
 10
131.358075
 20
240.125313
 30
0.0
 11
131.277174
 21
239.975076
 31
0.0
  0
ENDBLK
  5
171
330
16F
100
AcDbEntity
  8
0
100
AcDbBlockEnd
  0
BLOCK
  5
1BE
330
1BD
100
AcDbEntity
  8
0
100
AcDbBlockBegin
  2
POLY12
 70
     0
 71
     0
 10
0.0
 20
0.0
 30
0.0
  3
POLY12
  1

  4
POLY12
  0
LINE
  5
1C0
330
1BD
100
AcDbEntity
  8
LC-002-100-D00-0
 62
     7
370
    50
100
AcDbLine
 10
129.93582
 20
239.975076
 30
0.0
 11
129.93582
 21
239.975076
 31
0.0
  0
LINE
  5
1C1
330
1BD
100
AcDbEntity
  8
LC-002-100-D00-0
 62
     7
370
    50
100
AcDbLine
 10
129.93582
 20
239.975076
 30
0.0
 11
129.845054
 21
240.140038
 31
0.0
  0
LINE
  5
1C2
330
1BD
100
AcDbEntity
  8
LC-002-100-D00-0
 62
     7
370
    50
100
AcDbLine
 10
129.845054
 20
240.140038
 30
0.0
 11
129.845054
 21
240.140038
 31
0.0
  0
LINE
  5
1C3
330
1BD
100
AcDbEntity
  8
LC-002-100-D00-0
 62
     7
370
    50
100
AcDbLine
 10
129.845054
 20
240.140038
 30
0.0
 11
129.753117
 21
240.306775
 31
0.0
  0
LINE
  5
1C4
330
1BD
100
AcDbEntity
  8
LC-002-100-D00-0
 62
     7
370
    50
100
AcDbLine
 10
129.753117
 20
240.306775
 30
0.0
 11
129.753117
 21
240.306775
 31
0.0
  0
LINE
  5
1C5
330
1BD
100
AcDbEntity
  8
LC-002-100-D00-0
 62
     7
370
    50
100
AcDbLine
 10
129.753117
 20
240.306775
 30
0.0
 11
129.660113
 21
240.475076
 31
0.0
  0
ENDBLK
  5
1BF
330
1BD
100
AcDbEntity
  8
0
100
AcDbBlockEnd
  0
BLOCK
  5
1C8
330
1C7
100
AcDbEntity
  8
0
100
AcDbBlockBegin
  2
POLY13
 70
     0
 71
     0
 10
0.0
 20
0.0
 30
0.0
  3
POLY13
  1

  4
POLY13
  0
LINE
  5
1CA
330
1C7
100
AcDbEntity
  8
LC-002-100-D00-0
 62
     7
370
    50
100
AcDbLine
 10
129.660113
 20
240.475076
 30
0.0
 11
129.660113
 21
240.475076
 31
0.0
  0
LINE
  5
1CB
330
1C7
100
AcDbEntity
  8
LC-002-100-D00-0
 62
     7
370
    50
100
AcDbLine
 10
129.660113
 20
240.475076
 30
0.0
 11
129.568719
 21
240.30969
 31
0.0
  0
LINE
  5
1CC
330
1C7
100
AcDbEntity
  8
LC-002-100-D00-0
 62
     7
370
    50
100
AcDbLine
 10
129.568719
 20
240.30969
 30
0.0
 11
129.568719
 21
240.30969
 31
0.0
  0
LINE
  5
1CD
330
1C7
100
AcDbEntity
  8
LC-002-100-D00-0
 62
     7
370
    50
100
AcDbLine
 10
129.568719
 20
240.30969
 30
0.0
 11
129.476398
 21
240.142978
 31
0.0
  0
LINE
  5
1CE
330
1C7
100
AcDbEntity
  8
LC-002-100-D00-0
 62
     7
370
    50
100
AcDbLine
 10
129.476398
 20
240.142978
 30
0.0
 11
129.476398
 21
240.142978
 31
0.0
  0
LINE
  5
1CF
330
1C7
100
AcDbEntity
  8
LC-002-100-D00-0
 62
     7
370
    50
100
AcDbLine
 10
129.476398
 20
240.142978
 30
0.0
 11
129.383215
 21
239.975076
 31
0.0
  0
ENDBLK
  5
1C9
330
1C7
100
AcDbEntity
  8
0
100
AcDbBlockEnd
  0
BLOCK
  5
1D2
330
1D1
100
AcDbEntity
  8
0
100
AcDbBlockBegin
  2
POLY14
 70
     0
 71
     0
 10
0.0
 20
0.0
 30
0.0
  3
POLY14
  1

  4
POLY14
  0
LINE
  5
1D4
330
1D1
100
AcDbEntity
  8
LC-002-100-D00-0
 62
     7
370
    50
100
AcDbLine
 10
263.708232
 20
239.975076
 30
0.0
 11
263.708232
 21
239.975076
 31
0.0
  0
LINE
  5
1D5
330
1D1
100
AcDbEntity
  8
LC-002-100-D00-0
 62
     7
370
    50
100
AcDbLine
 10
263.708232
 20
239.975076
 30
0.0
 11
263.615049
 21
240.142978
 31
0.0
  0
LINE
  5
1D6
330
1D1
100
AcDbEntity
  8
LC-002-100-D00-0
 62
     7
370
    50
100
AcDbLine
 10
263.615049
 20
240.142978
 30
0.0
 11
263.615049
 21
240.142978
 31
0.0
  0
LINE
  5
1D7
330
1D1
100
AcDbEntity
  8
LC-002-100-D00-0
 62
     7
370
    50
100
AcDbLine
 10
263.615049
 20
240.142978
 30
0.0
 11
263.522728
 21
240.30969
 31
0.0
  0
LINE
  5
1D8
330
1D1
100
AcDbEntity
  8
LC-002-100-D00-0
 62
     7
370
    50
100
AcDbLine
 10
263.522728
 20
240.30969
 30
0.0
 11
263.522728
 21
240.30969
 31
0.0
  0
LINE
  5
1D9
330
1D1
100
AcDbEntity
  8
LC-002-100-D00-0
 62
     7
370
    50
100
AcDbLine
 10
263.522728
 20
240.30969
 30
0.0
 11
263.431334
 21
240.475076
 31
0.0
  0
ENDBLK
  5
1D3
330
1D1
100
AcDbEntity
  8
0
100
AcDbBlockEnd
  0
BLOCK
  5
1DC
330
1DB
100
AcDbEntity
  8
0
100
AcDbBlockBegin
  2
POLY15
 70
     0
 71
     0
 10
0.0
 20
0.0
 30
0.0
  3
POLY15
  1

  4
POLY15
  0
LINE
  5
1DE
330
1DB
100
AcDbEntity
  8
LC-002-100-D00-0
 62
     7
370
    50
100
AcDbLine
 10
263.431334
 20
240.475076
 30
0.0
 11
263.431334
 21
240.475076
 31
0.0
  0
LINE
  5
1DF
330
1DB
100
AcDbEntity
  8
LC-002-100-D00-0
 62
     7
370
    50
100
AcDbLine
 10
263.431334
 20
240.475076
 30
0.0
 11
263.33833
 21
240.306775
 31
0.0
  0
LINE
  5
1E0
330
1DB
100
AcDbEntity
  8
LC-002-100-D00-0
 62
     7
370
    50
100
AcDbLine
 10
263.33833
 20
240.306775
 30
0.0
 11
263.33833
 21
240.306775
 31
0.0
  0
LINE
  5
1E1
330
1DB
100
AcDbEntity
  8
LC-002-100-D00-0
 62
     7
370
    50
100
AcDbLine
 10
263.33833
 20
240.306775
 30
0.0
 11
263.246393
 21
240.140038
 31
0.0
  0
LINE
  5
1E2
330
1DB
100
AcDbEntity
  8
LC-002-100-D00-0
 62
     7
370
    50
100
AcDbLine
 10
263.246393
 20
240.140038
 30
0.0
 11
263.246393
 21
240.140038
 31
0.0
  0
LINE
  5
1E3
330
1DB
100
AcDbEntity
  8
LC-002-100-D00-0
 62
     7
370
    50
100
AcDbLine
 10
263.246393
 20
240.140038
 30
0.0
 11
263.155627
 21
239.975076
 31
0.0
  0
ENDBLK
  5
1DD
330
1DB
100
AcDbEntity
  8
0
100
AcDbBlockEnd
  0
BLOCK
  5
1E6
330
1E5
100
AcDbEntity
  8
0
100
AcDbBlockBegin
  2
POLY16
 70
     0
 71
     0
 10
0.0
 20
0.0
 30
0.0
  3
POLY16
  1

  4
POLY16
  0
LINE
  5
1E8
330
1E5
100
AcDbEntity
  8
LC-002-100-D00-0
 62
     7
370
    50
100
AcDbLine
 10
123.660009
 20
240.475076
 30
0.0
 11
123.660009
 21
240.475076
 31
0.0
  0
LINE
  5
1E9
330
1E5
100
AcDbEntity
  8
LC-002-100-D00-0
 62
     7
370
    50
100
AcDbLine
 10
123.660009
 20
240.475076
 30
0.0
 11
123.55854
 21
240.306548
 31
0.0
  0
LINE
  5
1EA
330
1E5
100
AcDbEntity
  8
LC-002-100-D00-0
 62
     7
370
    50
100
AcDbLine
 10
123.55854
 20
240.306548
 30
0.0
 11
123.55854
 21
240.306548
 31
0.0
  0
LINE
  5
1EB
330
1E5
100
AcDbEntity
  8
LC-002-100-D00-0
 62
     7
370
    50
100
AcDbLine
 10
123.55854
 20
240.306548
 30
0.0
 11
123.457947
 21
240.139814
 31
0.0
  0
LINE
  5
1EC
330
1E5
100
AcDbEntity
  8
LC-002-100-D00-0
 62
     7
370
    50
100
AcDbLine
 10
123.457947
 20
240.139814
 30
0.0
 11
123.457947
 21
240.139814
 31
0.0
  0
LINE
  5
1ED
330
1E5
100
AcDbEntity
  8
LC-002-100-D00-0
 62
     7
370
    50
100
AcDbLine
 10
123.457947
 20
240.139814
 30
0.0
 11
123.358367
 21
239.975076
 31
0.0
  0
ENDBLK
  5
1E7
330
1E5
100
AcDbEntity
  8
0
100
AcDbBlockEnd
  0
BLOCK
  5
1F0
330
1EF
100
AcDbEntity
  8
0
100
AcDbBlockBegin
  2
POLY17
 70
     0
 71
     0
 10
0.0
 20
0.0
 30
0.0
  3
POLY17
  1

  4
POLY17
  0
LINE
  5
1F2
330
1EF
100
AcDbEntity
  8
LC-002-100-D00-0
 62
     7
370
    50
100
AcDbLine
 10
123.960461
 20
239.975076
 30
0.0
 11
123.960461
 21
239.975076
 31
0.0
  0
LINE
  5
1F3
330
1EF
100
AcDbEntity
  8
LC-002-100-D00-0
 62
     7
370
    50
100
AcDbLine
 10
123.960461
 20
239.975076
 30
0.0
 11
123.859655
 21
240.143167
 31
0.0
  0
LINE
  5
1F4
330
1EF
100
AcDbEntity
  8
LC-002-100-D00-0
 62
     7
370
    50
100
AcDbLine
 10
123.859655
 20
240.143167
 30
0.0
 11
123.859655
 21
240.143167
 31
0.0
  0
LINE
  5
1F5
330
1EF
100
AcDbEntity
  8
LC-002-100-D00-0
 62
     7
370
    50
100
AcDbLine
 10
123.859655
 20
240.143167
 30
0.0
 11
123.759475
 21
240.309876
 31
0.0
  0
LINE
  5
1F6
330
1EF
100
AcDbEntity
  8
LC-002-100-D00-0
 62
     7
370
    50
100
AcDbLine
 10
123.759475
 20
240.309876
 30
0.0
 11
123.759475
 21
240.309876
 31
0.0
  0
LINE
  5
1F7
330
1EF
100
AcDbEntity
  8
LC-002-100-D00-0
 62
     7
370
    50
100
AcDbLine
 10
123.759475
 20
240.309876
 30
0.0
 11
123.660009
 21
240.475076
 31
0.0
  0
ENDBLK
  5
1F1
330
1EF
100
AcDbEntity
  8
0
100
AcDbBlockEnd
  0
BLOCK
  5
1FA
330
1F9
100
AcDbEntity
  8
0
100
AcDbBlockBegin
  2
POLY18
 70
     0
 71
     0
 10
0.0
 20
0.0
 30
0.0
  3
POLY18
  1

  4
POLY18
  0
LINE
  5
1FC
330
1F9
100
AcDbEntity
  8
LC-002-100-D00-0
 62
     7
370
    50
100
AcDbLine
 10
269.73308
 20
239.975076
 30
0.0
 11
269.73308
 21
239.975076
 31
0.0
  0
LINE
  5
1FD
330
1F9
100
AcDbEntity
  8
LC-002-100-D00-0
 62
     7
370
    50
100
AcDbLine
 10
269.73308
 20
239.975076
 30
0.0
 11
269.6335
 21
240.139814
 31
0.0
  0
LINE
  5
1FE
330
1F9
100
AcDbEntity
  8
LC-002-100-D00-0
 62
     7
370
    50
100
AcDbLine
 10
269.6335
 20
240.139814
 30
0.0
 11
269.6335
 21
240.139814
 31
0.0
  0
LINE
  5
1FF
330
1F9
100
AcDbEntity
  8
LC-002-100-D00-0
 62
     7
370
    50
100
AcDbLine
 10
269.6335
 20
240.139814
 30
0.0
 11
269.532908
 21
240.306548
 31
0.0
  0
LINE
  5
200
330
1F9
100
AcDbEntity
  8
LC-002-100-D00-0
 62
     7
370
    50
100
AcDbLine
 10
269.532908
 20
240.306548
 30
0.0
 11
269.532908
 21
240.306548
 31
0.0
  0
LINE
  5
201
330
1F9
100
AcDbEntity
  8
LC-002-100-D00-0
 62
     7
370
    50
100
AcDbLine
 10
269.532908
 20
240.306548
 30
0.0
 11
269.431438
 21
240.475076
 31
0.0
  0
ENDBLK
  5
1FB
330
1F9
100
AcDbEntity
  8
0
100
AcDbBlockEnd
  0
BLOCK
  5
204
330
203
100
AcDbEntity
  8
0
100
AcDbBlockBegin
  2
POLY19
 70
     0
 71
     0
 10
0.0
 20
0.0
 30
0.0
  3
POLY19
  1

  4
POLY19
  0
LINE
  5
206
330
203
100
AcDbEntity
  8
LC-002-100-D00-0
 62
     7
370
    50
100
AcDbLine
 10
269.431438
 20
240.475076
 30
0.0
 11
269.431438
 21
240.475076
 31
0.0
  0
LINE
  5
207
330
203
100
AcDbEntity
  8
LC-002-100-D00-0
 62
     7
370
    50
100
AcDbLine
 10
269.431438
 20
240.475076
 30
0.0
 11
269.331972
 21
240.309876
 31
0.0
  0
LINE
  5
208
330
203
100
AcDbEntity
  8
LC-002-100-D00-0
 62
     7
370
    50
100
AcDbLine
 10
269.331972
 20
240.309876
 30
0.0
 11
269.331972
 21
240.309876
 31
0.0
  0
LINE
  5
209
330
203
100
AcDbEntity
  8
LC-002-100-D00-0
 62
     7
370
    50
100
AcDbLine
 10
269.331972
 20
240.309876
 30
0.0
 11
269.231792
 21
240.143167
 31
0.0
  0
LINE
  5
20A
330
203
100
AcDbEntity
  8
LC-002-100-D00-0
 62
     7
370
    50
100
AcDbLine
 10
269.231792
 20
240.143167
 30
0.0
 11
269.231792
 21
240.143167
 31
0.0
  0
LINE
  5
20B
330
203
100
AcDbEntity
  8
LC-002-100-D00-0
 62
     7
370
    50
100
AcDbLine
 10
269.231792
 20
240.143167
 30
0.0
 11
269.130986
 21
239.975076
 31
0.0
  0
ENDBLK
  5
205
330
203
100
AcDbEntity
  8
0
100
AcDbBlockEnd
  0
BLOCK
  5
20E
330
20D
100
AcDbEntity
  8
0
100
AcDbBlockBegin
  2
POLY20
 70
     0
 71
     0
 10
0.0
 20
0.0
 30
0.0
  3
POLY20
  1

  4
POLY20
  0
LINE
  5
210
330
20D
100
AcDbEntity
  8
LC-002-100-D00-0
 62
     7
370
    50
100
AcDbLine
 10
265.374299
 20
240.475076
 30
0.0
 11
265.374299
 21
240.475076
 31
0.0
  0
LINE
  5
211
330
20D
100
AcDbEntity
  8
LC-002-100-D00-0
 62
     7
370
    50
100
AcDbLine
 10
265.374299
 20
240.475076
 30
0.0
 11
265.279314
 21
240.308176
 31
0.0
  0
LINE
  5
212
330
20D
100
AcDbEntity
  8
LC-002-100-D00-0
 62
     7
370
    50
100
AcDbLine
 10
265.279314
 20
240.308176
 30
0.0
 11
265.279314
 21
240.308176
 31
0.0
  0
LINE
  5
213
330
20D
100
AcDbEntity
  8
LC-002-100-D00-0
 62
     7
370
    50
100
AcDbLine
 10
265.279314
 20
240.308176
 30
0.0
 11
265.184638
 21
240.141468
 31
0.0
  0
LINE
  5
214
330
20D
100
AcDbEntity
  8
LC-002-100-D00-0
 62
     7
370
    50
100
AcDbLine
 10
265.184638
 20
240.141468
 30
0.0
 11
265.184638
 21
240.141468
 31
0.0
  0
LINE
  5
215
330
20D
100
AcDbEntity
  8
LC-002-100-D00-0
 62
     7
370
    50
100
AcDbLine
 10
265.184638
 20
240.141468
 30
0.0
 11
265.090339
 21
239.975076
 31
0.0
  0
ENDBLK
  5
20F
330
20D
100
AcDbEntity
  8
0
100
AcDbBlockEnd
  0
BLOCK
  5
218
330
217
100
AcDbEntity
  8
0
100
AcDbBlockBegin
  2
POLY21
 70
     0
 71
     0
 10
0.0
 20
0.0
 30
0.0
  3
POLY21
  1

  4
POLY21
  0
LINE
  5
21A
330
217
100
AcDbEntity
  8
LC-002-100-D00-0
 62
     7
370
    50
100
AcDbLine
 10
265.659441
 20
239.975076
 30
0.0
 11
265.659441
 21
239.975076
 31
0.0
  0
LINE
  5
21B
330
217
100
AcDbEntity
  8
LC-002-100-D00-0
 62
     7
370
    50
100
AcDbLine
 10
265.659441
 20
239.975076
 30
0.0
 11
265.564109
 21
240.141895
 31
0.0
  0
LINE
  5
21C
330
217
100
AcDbEntity
  8
LC-002-100-D00-0
 62
     7
370
    50
100
AcDbLine
 10
265.564109
 20
240.141895
 30
0.0
 11
265.564109
 21
240.141895
 31
0.0
  0
LINE
  5
21D
330
217
100
AcDbEntity
  8
LC-002-100-D00-0
 62
     7
370
    50
100
AcDbLine
 10
265.564109
 20
240.141895
 30
0.0
 11
265.46904
 21
240.3086
 31
0.0
  0
LINE
  5
21E
330
217
100
AcDbEntity
  8
LC-002-100-D00-0
 62
     7
370
    50
100
AcDbLine
 10
265.46904
 20
240.3086
 30
0.0
 11
265.46904
 21
240.3086
 31
0.0
  0
LINE
  5
21F
330
217
100
AcDbEntity
  8
LC-002-100-D00-0
 62
     7
370
    50
100
AcDbLine
 10
265.46904
 20
240.3086
 30
0.0
 11
265.374299
 21
240.475076
 31
0.0
  0
ENDBLK
  5
219
330
217
100
AcDbEntity
  8
0
100
AcDbBlockEnd
  0
BLOCK
  5
222
330
221
100
AcDbEntity
  8
0
100
AcDbBlockBegin
  2
POLY22
 70
     0
 71
     0
 10
0.0
 20
0.0
 30
0.0
  3
POLY22
  1

  4
POLY22
  0
LINE
  5
224
330
221
100
AcDbEntity
  8
LC-002-100-D00-0
 62
     7
370
    50
100
AcDbLine
 10
267.374295
 20
240.475076
 30
0.0
 11
267.374295
 21
240.475076
 31
0.0
  0
LINE
  5
225
330
221
100
AcDbEntity
  8
LC-002-100-D00-0
 62
     7
370
    50
100
AcDbLine
 10
267.374295
 20
240.475076
 30
0.0
 11
267.276861
 21
240.308693
 31
0.0
  0
LINE
  5
226
330
221
100
AcDbEntity
  8
LC-002-100-D00-0
 62
     7
370
    50
100
AcDbLine
 10
267.276861
 20
240.308693
 30
0.0
 11
267.276861
 21
240.308693
 31
0.0
  0
LINE
  5
227
330
221
100
AcDbEntity
  8
LC-002-100-D00-0
 62
     7
370
    50
100
AcDbLine
 10
267.276861
 20
240.308693
 30
0.0
 11
267.179436
 21
240.141986
 31
0.0
  0
LINE
  5
228
330
221
100
AcDbEntity
  8
LC-002-100-D00-0
 62
     7
370
    50
100
AcDbLine
 10
267.179436
 20
240.141986
 30
0.0
 11
267.179436
 21
240.141986
 31
0.0
  0
LINE
  5
229
330
221
100
AcDbEntity
  8
LC-002-100-D00-0
 62
     7
370
    50
100
AcDbLine
 10
267.179436
 20
240.141986
 30
0.0
 11
267.082091
 21
239.975076
 31
0.0
  0
ENDBLK
  5
223
330
221
100
AcDbEntity
  8
0
100
AcDbBlockEnd
  0
BLOCK
  5
22C
330
22B
100
AcDbEntity
  8
0
100
AcDbBlockBegin
  2
POLY23
 70
     0
 71
     0
 10
0.0
 20
0.0
 30
0.0
  3
POLY23
  1

  4
POLY23
  0
LINE
  5
22E
330
22B
100
AcDbEntity
  8
LC-002-100-D00-0
 62
     7
370
    50
100
AcDbLine
 10
267.667689
 20
239.975076
 30
0.0
 11
267.667689
 21
239.975076
 31
0.0
  0
LINE
  5
22F
330
22B
100
AcDbEntity
  8
LC-002-100-D00-0
 62
     7
370
    50
100
AcDbLine
 10
267.667689
 20
239.975076
 30
0.0
 11
267.569912
 21
240.14137
 31
0.0
  0
LINE
  5
230
330
22B
100
AcDbEntity
  8
LC-002-100-D00-0
 62
     7
370
    50
100
AcDbLine
 10
267.569912
 20
240.14137
 30
0.0
 11
267.569912
 21
240.14137
 31
0.0
  0
LINE
  5
231
330
22B
100
AcDbEntity
  8
LC-002-100-D00-0
 62
     7
370
    50
100
AcDbLine
 10
267.569912
 20
240.14137
 30
0.0
 11
267.472087
 21
240.308081
 31
0.0
  0
LINE
  5
232
330
22B
100
AcDbEntity
  8
LC-002-100-D00-0
 62
     7
370
    50
100
AcDbLine
 10
267.472087
 20
240.308081
 30
0.0
 11
267.472087
 21
240.308081
 31
0.0
  0
LINE
  5
233
330
22B
100
AcDbEntity
  8
LC-002-100-D00-0
 62
     7
370
    50
100
AcDbLine
 10
267.472087
 20
240.308081
 30
0.0
 11
267.374295
 21
240.475076
 31
0.0
  0
ENDBLK
  5
22D
330
22B
100
AcDbEntity
  8
0
100
AcDbBlockEnd
  0
BLOCK
  5
283
330
282
100
AcDbEntity
  8
0
100
AcDbBlockBegin
  2
POLY24
 70
     0
 71
     0
 10
0.0
 20
0.0
 30
0.0
  3
POLY24
  1

  4
POLY24
  0
LINE
  5
285
330
282
100
AcDbEntity
  8
LC-002-100-D00-0
 62
     7
370
    50
100
AcDbLine
 10
164.184481
 20
344.010073
 30
0.0
 11
164.184481
 21
344.010073
 31
0.0
  0
LINE
  5
286
330
282
100
AcDbEntity
  8
LC-002-100-D00-0
 62
     7
370
    50
100
AcDbLine
 10
164.184481
 20
344.010073
 30
0.0
 11
163.830811
 21
344.562738
 31
0.0
  0
LINE
  5
287
330
282
100
AcDbEntity
  8
LC-002-100-D00-0
 62
     7
370
    50
100
AcDbLine
 10
163.830811
 20
344.562738
 30
0.0
 11
163.830811
 21
344.562738
 31
0.0
  0
LINE
  5
288
330
282
100
AcDbEntity
  8
LC-002-100-D00-0
 62
     7
370
    50
100
AcDbLine
 10
163.830811
 20
344.562738
 30
0.0
 11
161.655432
 21
347.962115
 31
0.0
  0
LINE
  5
289
330
282
100
AcDbEntity
  8
LC-002-100-D00-0
 62
     7
370
    50
100
AcDbLine
 10
161.655432
 20
347.962115
 30
0.0
 11
161.655432
 21
347.962115
 31
0.0
  0
LINE
  5
28A
330
282
100
AcDbEntity
  8
LC-002-100-D00-0
 62
     7
370
    50
100
AcDbLine
 10
161.655432
 20
347.962115
 30
0.0
 11
159.48165
 21
351.362514
 31
0.0
  0
LINE
  5
28B
330
282
100
AcDbEntity
  8
LC-002-100-D00-0
 62
     7
370
    50
100
AcDbLine
 10
159.48165
 20
351.362514
 30
0.0
 11
159.48165
 21
351.362514
 31
0.0
  0
LINE
  5
28C
330
282
100
AcDbEntity
  8
LC-002-100-D00-0
 62
     7
370
    50
100
AcDbLine
 10
159.48165
 20
351.362514
 30
0.0
 11
157.661278
 21
354.210082
 31
0.0
  0
ENDBLK
  5
284
330
282
100
AcDbEntity
  8
0
100
AcDbBlockEnd
  0
BLOCK
  5
28F
330
28E
100
AcDbEntity
  8
0
100
AcDbBlockBegin
  2
POLY25
 70
     0
 71
     0
 10
0.0
 20
0.0
 30
0.0
  3
POLY25
  1

  4
POLY25
  0
LINE
  5
291
330
28E
100
AcDbEntity
  8
LC-002-100-D00-0
 62
     7
370
    50
100
AcDbLine
 10
235.43017
 20
354.210082
 30
0.0
 11
235.43017
 21
354.210082
 31
0.0
  0
LINE
  5
292
330
28E
100
AcDbEntity
  8
LC-002-100-D00-0
 62
     7
370
    50
100
AcDbLine
 10
235.43017
 20
354.210082
 30
0.0
 11
233.609797
 21
351.362514
 31
0.0
  0
LINE
  5
293
330
28E
100
AcDbEntity
  8
LC-002-100-D00-0
 62
     7
370
    50
100
AcDbLine
 10
233.609797
 20
351.362514
 30
0.0
 11
233.609797
 21
351.362514
 31
0.0
  0
LINE
  5
294
330
28E
100
AcDbEntity
  8
LC-002-100-D00-0
 62
     7
370
    50
100
AcDbLine
 10
233.609797
 20
351.362514
 30
0.0
 11
231.436015
 21
347.962115
 31
0.0
  0
LINE
  5
295
330
28E
100
AcDbEntity
  8
LC-002-100-D00-0
 62
     7
370
    50
100
AcDbLine
 10
231.436015
 20
347.962115
 30
0.0
 11
231.436015
 21
347.962115
 31
0.0
  0
LINE
  5
296
330
28E
100
AcDbEntity
  8
LC-002-100-D00-0
 62
     7
370
    50
100
AcDbLine
 10
231.436015
 20
347.962115
 30
0.0
 11
229.260636
 21
344.562738
 31
0.0
  0
LINE
  5
297
330
28E
100
AcDbEntity
  8
LC-002-100-D00-0
 62
     7
370
    50
100
AcDbLine
 10
229.260636
 20
344.562738
 30
0.0
 11
229.260636
 21
344.562738
 31
0.0
  0
LINE
  5
298
330
28E
100
AcDbEntity
  8
LC-002-100-D00-0
 62
     7
370
    50
100
AcDbLine
 10
229.260636
 20
344.562738
 30
0.0
 11
228.906967
 21
344.010073
 31
0.0
  0
ENDBLK
  5
290
330
28E
100
AcDbEntity
  8
0
100
AcDbBlockEnd
  0
BLOCK
  5
370
330
36F
100
AcDbEntity
  8
0
100
AcDbBlockBegin
  2
POLY26
 70
     0
 71
     0
 10
0.0
 20
0.0
 30
0.0
  3
POLY26
  1

  4
POLY26
  0
LINE
  5
372
330
36F
100
AcDbEntity
  8
LC-002-100-D00-0
 62
     7
370
    50
100
AcDbLine
 10
196.545724
 20
226.710069
 30
0.0
 11
196.545724
 21
226.710069
 31
0.0
  0
LINE
  5
373
330
36F
100
AcDbEntity
  8
LC-002-100-D00-0
 62
     7
370
    50
100
AcDbLine
 10
196.545724
 20
226.710069
 30
0.0
 11
196.545724
 21
226.709984
 31
0.0
  0
LINE
  5
374
330
36F
100
AcDbEntity
  8
LC-002-100-D00-0
 62
     7
370
    50
100
AcDbLine
 10
196.545724
 20
226.709984
 30
0.0
 11
196.545724
 21
226.709984
 31
0.0
  0
LINE
  5
375
330
36F
100
AcDbEntity
  8
LC-002-100-D00-0
 62
     7
370
    50
100
AcDbLine
 10
196.545724
 20
226.709984
 30
0.0
 11
196.545724
 21
226.782073
 31
0.0
  0
LINE
  5
376
330
36F
100
AcDbEntity
  8
LC-002-100-D00-0
 62
     7
370
    50
100
AcDbLine
 10
196.545724
 20
226.782073
 30
0.0
 11
196.545724
 21
226.782073
 31
0.0
  0
LINE
  5
377
330
36F
100
AcDbEntity
  8
LC-002-100-D00-0
 62
     7
370
    50
100
AcDbLine
 10
196.545724
 20
226.782073
 30
0.0
 11
196.545724
 21
227.218972
 31
0.0
  0
LINE
  5
378
330
36F
100
AcDbEntity
  8
LC-002-100-D00-0
 62
     7
370
    50
100
AcDbLine
 10
196.545724
 20
227.218972
 30
0.0
 11
196.545724
 21
227.218972
 31
0.0
  0
LINE
  5
379
330
36F
100
AcDbEntity
  8
LC-002-100-D00-0
 62
     7
370
    50
100
AcDbLine
 10
196.545724
 20
227.218972
 30
0.0
 11
196.545724
 21
227.608482
 31
0.0
  0
LINE
  5
37A
330
36F
100
AcDbEntity
  8
LC-002-100-D00-0
 62
     7
370
    50
100
AcDbLine
 10
196.545724
 20
227.608482
 30
0.0
 11
196.545724
 21
227.608482
 31
0.0
  0
LINE
  5
37B
330
36F
100
AcDbEntity
  8
LC-002-100-D00-0
 62
     7
370
    50
100
AcDbLine
 10
196.545724
 20
227.608482
 30
0.0
 11
196.545724
 21
228.065204
 31
0.0
  0
LINE
  5
37C
330
36F
100
AcDbEntity
  8
LC-002-100-D00-0
 62
     7
370
    50
100
AcDbLine
 10
196.545724
 20
228.065204
 30
0.0
 11
196.545724
 21
228.065204
 31
0.0
  0
LINE
  5
37D
330
36F
100
AcDbEntity
  8
LC-002-100-D00-0
 62
     7
370
    50
100
AcDbLine
 10
196.545724
 20
228.065204
 30
0.0
 11
196.545724
 21
228.495851
 31
0.0
  0
LINE
  5
37E
330
36F
100
AcDbEntity
  8
LC-002-100-D00-0
 62
     7
370
    50
100
AcDbLine
 10
196.545724
 20
228.495851
 30
0.0
 11
196.545724
 21
228.495851
 31
0.0
  0
LINE
  5
37F
330
36F
100
AcDbEntity
  8
LC-002-100-D00-0
 62
     7
370
    50
100
AcDbLine
 10
196.545724
 20
228.495851
 30
0.0
 11
196.545724
 21
228.921341
 31
0.0
  0
LINE
  5
380
330
36F
100
AcDbEntity
  8
LC-002-100-D00-0
 62
     7
370
    50
100
AcDbLine
 10
196.545724
 20
228.921341
 30
0.0
 11
196.545724
 21
228.921341
 31
0.0
  0
LINE
  5
381
330
36F
100
AcDbEntity
  8
LC-002-100-D00-0
 62
     7
370
    50
100
AcDbLine
 10
196.545724
 20
228.921341
 30
0.0
 11
196.545724
 21
229.355422
 31
0.0
  0
LINE
  5
382
330
36F
100
AcDbEntity
  8
LC-002-100-D00-0
 62
     7
370
    50
100
AcDbLine
 10
196.545724
 20
229.355422
 30
0.0
 11
196.545724
 21
229.355422
 31
0.0
  0
LINE
  5
383
330
36F
100
AcDbEntity
  8
LC-002-100-D00-0
 62
     7
370
    50
100
AcDbLine
 10
196.545724
 20
229.355422
 30
0.0
 11
196.545724
 21
229.82326
 31
0.0
  0
LINE
  5
384
330
36F
100
AcDbEntity
  8
LC-002-100-D00-0
 62
     7
370
    50
100
AcDbLine
 10
196.545724
 20
229.82326
 30
0.0
 11
196.545724
 21
229.82326
 31
0.0
  0
LINE
  5
385
330
36F
100
AcDbEntity
  8
LC-002-100-D00-0
 62
     7
370
    50
100
AcDbLine
 10
196.545724
 20
229.82326
 30
0.0
 11
196.545724
 21
230.381428
 31
0.0
  0
LINE
  5
386
330
36F
100
AcDbEntity
  8
LC-002-100-D00-0
 62
     7
370
    50
100
AcDbLine
 10
196.545724
 20
230.381428
 30
0.0
 11
196.545724
 21
230.381428
 31
0.0
  0
LINE
  5
387
330
36F
100
AcDbEntity
  8
LC-002-100-D00-0
 62
     7
370
    50
100
AcDbLine
 10
196.545724
 20
230.381428
 30
0.0
 11
196.545724
 21
230.664689
 31
0.0
  0
LINE
  5
388
330
36F
100
AcDbEntity
  8
LC-002-100-D00-0
 62
     7
370
    50
100
AcDbLine
 10
196.545724
 20
230.664689
 30
0.0
 11
196.545724
 21
230.664689
 31
0.0
  0
LINE
  5
389
330
36F
100
AcDbEntity
  8
LC-002-100-D00-0
 62
     7
370
    50
100
AcDbLine
 10
196.545724
 20
230.664689
 30
0.0
 11
196.545724
 21
230.70952
 31
0.0
  0
LINE
  5
38A
330
36F
100
AcDbEntity
  8
LC-002-100-D00-0
 62
     7
370
    50
100
AcDbLine
 10
196.545724
 20
230.70952
 30
0.0
 11
196.545724
 21
230.70952
 31
0.0
  0
LINE
  5
38B
330
36F
100
AcDbEntity
  8
LC-002-100-D00-0
 62
     7
370
    50
100
AcDbLine
 10
196.545724
 20
230.70952
 30
0.0
 11
196.545724
 21
230.710073
 31
0.0
  0
ENDBLK
  5
371
330
36F
100
AcDbEntity
  8
0
100
AcDbBlockEnd
  0
BLOCK
  5
3AA
330
3A9
100
AcDbEntity
  8
0
100
AcDbBlockBegin
  2
KLON1
 70
     0
 71
     0
 10
0.0
 20
0.0
 30
0.0
  3
KLON1
  1

  4
KLON1
  0
LINE
  5
3AC
330
3A9
100
AcDbEntity
  8
LC-002-100-D00-0
 62
     7
370
    15
100
AcDbLine
 10
129.795726
 20
240.819964
 30
0.0
 11
129.444625
 21
241.002726
 31
0.0
  0
LINE
  5
3AD
330
3A9
100
AcDbEntity
  8
LC-002-100-D00-0
 62
     7
370
    15
100
AcDbLine
 10
129.444625
 20
241.002726
 30
0.0
 11
129.093531
 21
241.185489
 31
0.0
  0
LINE
  5
3AE
330
3A9
100
AcDbEntity
  8
LC-002-100-D00-0
 62
     7
370
    15
100
AcDbLine
 10
129.093531
 20
241.185489
 30
0.0
 11
128.54572
 21
241.470668
 31
0.0
  0
ENDBLK
  5
3AB
330
3A9
100
AcDbEntity
  8
0
100
AcDbBlockEnd
  0
BLOCK
  5
3B1
330
3B0
100
AcDbEntity
  8
0
100
AcDbBlockBegin
  2
KLON2
 70
     0
 71
     0
 10
0.0
 20
0.0
 30
0.0
  3
KLON2
  1

  4
KLON2
  0
LINE
  5
3B3
330
3B0
100
AcDbEntity
  8
LC-002-100-D00-0
 62
     7
370
    15
100
AcDbLine
 10
128.54572
 20
240.169245
 30
0.0
 11
128.896821
 21
240.352022
 31
0.0
  0
LINE
  5
3B4
330
3B0
100
AcDbEntity
  8
LC-002-100-D00-0
 62
     7
370
    15
100
AcDbLine
 10
128.896821
 20
240.352022
 30
0.0
 11
129.247915
 21
240.534785
 31
0.0
  0
LINE
  5
3B5
330
3B0
100
AcDbEntity
  8
LC-002-100-D00-0
 62
     7
370
    15
100
AcDbLine
 10
129.247915
 20
240.534785
 30
0.0
 11
129.795726
 21
240.819964
 31
0.0
  0
ENDBLK
  5
3B2
330
3B0
100
AcDbEntity
  8
0
100
AcDbBlockEnd
  0
BLOCK
  5
3B9
330
3B8
100
AcDbEntity
  8
0
100
AcDbBlockBegin
  2
KLON3
 70
     0
 71
     0
 10
0.0
 20
0.0
 30
0.0
  3
KLON3
  1

  4
KLON3
  0
LINE
  5
3BB
330
3B8
100
AcDbEntity
  8
LC-002-100-D00-0
 62
     7
370
    15
100
AcDbLine
 10
129.795726
 20
237.819958
 30
0.0
 11
129.444625
 21
238.00272
 31
0.0
  0
LINE
  5
3BC
330
3B8
100
AcDbEntity
  8
LC-002-100-D00-0
 62
     7
370
    15
100
AcDbLine
 10
129.444625
 20
238.00272
 30
0.0
 11
129.093531
 21
238.185498
 31
0.0
  0
LINE
  5
3BD
330
3B8
100
AcDbEntity
  8
LC-002-100-D00-0
 62
     7
370
    15
100
AcDbLine
 10
129.093531
 20
238.185498
 30
0.0
 11
128.54572
 21
238.470661
 31
0.0
  0
ENDBLK
  5
3BA
330
3B8
100
AcDbEntity
  8
0
100
AcDbBlockEnd
  0
BLOCK
  5
3C0
330
3BF
100
AcDbEntity
  8
0
100
AcDbBlockBegin
  2
KLON4
 70
     0
 71
     0
 10
0.0
 20
0.0
 30
0.0
  3
KLON4
  1

  4
KLON4
  0
LINE
  5
3C2
330
3BF
100
AcDbEntity
  8
LC-002-100-D00-0
 62
     7
370
    15
100
AcDbLine
 10
128.54572
 20
237.169254
 30
0.0
 11
128.896821
 21
237.352016
 31
0.0
  0
LINE
  5
3C3
330
3BF
100
AcDbEntity
  8
LC-002-100-D00-0
 62
     7
370
    15
100
AcDbLine
 10
128.896821
 20
237.352016
 30
0.0
 11
129.247915
 21
237.534779
 31
0.0
  0
LINE
  5
3C4
330
3BF
100
AcDbEntity
  8
LC-002-100-D00-0
 62
     7
370
    15
100
AcDbLine
 10
129.247915
 20
237.534779
 30
0.0
 11
129.795726
 21
237.819958
 31
0.0
  0
ENDBLK
  5
3C1
330
3BF
100
AcDbEntity
  8
0
100
AcDbBlockEnd
  0
BLOCK
  5
3C8
330
3C7
100
AcDbEntity
  8
0
100
AcDbBlockBegin
  2
KLON5
 70
     0
 71
     0
 10
0.0
 20
0.0
 30
0.0
  3
KLON5
  1

  4
KLON5
  0
LINE
  5
3CA
330
3C7
100
AcDbEntity
  8
LC-002-100-D00-0
 62
     7
370
    15
100
AcDbLine
 10
129.795726
 20
234.819951
 30
0.0
 11
129.444625
 21
235.002729
 31
0.0
  0
LINE
  5
3CB
330
3C7
100
AcDbEntity
  8
LC-002-100-D00-0
 62
     7
370
    15
100
AcDbLine
 10
129.444625
 20
235.002729
 30
0.0
 11
129.093531
 21
235.185492
 31
0.0
  0
LINE
  5
3CC
330
3C7
100
AcDbEntity
  8
LC-002-100-D00-0
 62
     7
370
    15
100
AcDbLine
 10
129.093531
 20
235.185492
 30
0.0
 11
128.54572
 21
235.47067
 31
0.0
  0
ENDBLK
  5
3C9
330
3C7
100
AcDbEntity
  8
0
100
AcDbBlockEnd
  0
BLOCK
  5
3CF
330
3CE
100
AcDbEntity
  8
0
100
AcDbBlockBegin
  2
KLON6
 70
     0
 71
     0
 10
0.0
 20
0.0
 30
0.0
  3
KLON6
  1

  4
KLON6
  0
LINE
  5
3D1
330
3CE
100
AcDbEntity
  8
LC-002-100-D00-0
 62
     7
370
    15
100
AcDbLine
 10
128.54572
 20
234.169248
 30
0.0
 11
128.896821
 21
234.352025
 31
0.0
  0
LINE
  5
3D2
330
3CE
100
AcDbEntity
  8
LC-002-100-D00-0
 62
     7
370
    15
100
AcDbLine
 10
128.896821
 20
234.352025
 30
0.0
 11
129.247915
 21
234.534788
 31
0.0
  0
LINE
  5
3D3
330
3CE
100
AcDbEntity
  8
LC-002-100-D00-0
 62
     7
370
    15
100
AcDbLine
 10
129.247915
 20
234.534788
 30
0.0
 11
129.795726
 21
234.819951
 31
0.0
  0
ENDBLK
  5
3D0
330
3CE
100
AcDbEntity
  8
0
100
AcDbBlockEnd
  0
BLOCK
  5
3D7
330
3D6
100
AcDbEntity
  8
0
100
AcDbBlockBegin
  2
KLON7
 70
     0
 71
     0
 10
0.0
 20
0.0
 30
0.0
  3
KLON7
  1

  4
KLON7
  0
LINE
  5
3D9
330
3D6
100
AcDbEntity
  8
LC-002-100-D00-0
 62
     7
370
    15
100
AcDbLine
 10
129.795726
 20
231.81996
 30
0.0
 11
129.444625
 21
232.002723
 31
0.0
  0
LINE
  5
3DA
330
3D6
100
AcDbEntity
  8
LC-002-100-D00-0
 62
     7
370
    15
100
AcDbLine
 10
129.444625
 20
232.002723
 30
0.0
 11
129.093531
 21
232.185501
 31
0.0
  0
LINE
  5
3DB
330
3D6
100
AcDbEntity
  8
LC-002-100-D00-0
 62
     7
370
    15
100
AcDbLine
 10
129.093531
 20
232.185501
 30
0.0
 11
128.54572
 21
232.470664
 31
0.0
  0
ENDBLK
  5
3D8
330
3D6
100
AcDbEntity
  8
0
100
AcDbBlockEnd
  0
BLOCK
  5
3DE
330
3DD
100
AcDbEntity
  8
0
100
AcDbBlockBegin
  2
KLON8
 70
     0
 71
     0
 10
0.0
 20
0.0
 30
0.0
  3
KLON8
  1

  4
KLON8
  0
LINE
  5
3E0
330
3DD
100
AcDbEntity
  8
LC-002-100-D00-0
 62
     7
370
    15
100
AcDbLine
 10
128.54572
 20
231.169256
 30
0.0
 11
128.896821
 21
231.352019
 31
0.0
  0
LINE
  5
3E1
330
3DD
100
AcDbEntity
  8
LC-002-100-D00-0
 62
     7
370
    15
100
AcDbLine
 10
128.896821
 20
231.352019
 30
0.0
 11
129.247915
 21
231.534782
 31
0.0
  0
LINE
  5
3E2
330
3DD
100
AcDbEntity
  8
LC-002-100-D00-0
 62
     7
370
    15
100
AcDbLine
 10
129.247915
 20
231.534782
 30
0.0
 11
129.795726
 21
231.81996
 31
0.0
  0
ENDBLK
  5
3DF
330
3DD
100
AcDbEntity
  8
0
100
AcDbBlockEnd
  0
BLOCK
  5
3E6
330
3E5
100
AcDbEntity
  8
0
100
AcDbBlockBegin
  2
KLON9
 70
     0
 71
     0
 10
0.0
 20
0.0
 30
0.0
  3
KLON9
  1

  4
KLON9
  0
LINE
  5
3E8
330
3E5
100
AcDbEntity
  8
LC-002-100-D00-0
 62
     7
370
    15
100
AcDbLine
 10
129.795726
 20
228.819954
 30
0.0
 11
129.444625
 21
229.002732
 31
0.0
  0
LINE
  5
3E9
330
3E5
100
AcDbEntity
  8
LC-002-100-D00-0
 62
     7
370
    15
100
AcDbLine
 10
129.444625
 20
229.002732
 30
0.0
 11
129.093531
 21
229.185495
 31
0.0
  0
LINE
  5
3EA
330
3E5
100
AcDbEntity
  8
LC-002-100-D00-0
 62
     7
370
    15
100
AcDbLine
 10
129.093531
 20
229.185495
 30
0.0
 11
128.54572
 21
229.470673
 31
0.0
  0
ENDBLK
  5
3E7
330
3E5
100
AcDbEntity
  8
0
100
AcDbBlockEnd
  0
BLOCK
  5
3ED
330
3EC
100
AcDbEntity
  8
0
100
AcDbBlockBegin
  2
KLON10
 70
     0
 71
     0
 10
0.0
 20
0.0
 30
0.0
  3
KLON10
  1

  4
KLON10
  0
LINE
  5
3EF
330
3EC
100
AcDbEntity
  8
LC-002-100-D00-0
 62
     7
370
    15
100
AcDbLine
 10
128.54572
 20
228.16925
 30
0.0
 11
128.896821
 21
228.352013
 31
0.0
  0
LINE
  5
3F0
330
3EC
100
AcDbEntity
  8
LC-002-100-D00-0
 62
     7
370
    15
100
AcDbLine
 10
128.896821
 20
228.352013
 30
0.0
 11
129.247915
 21
228.534791
 31
0.0
  0
LINE
  5
3F1
330
3EC
100
AcDbEntity
  8
LC-002-100-D00-0
 62
     7
370
    15
100
AcDbLine
 10
129.247915
 20
228.534791
 30
0.0
 11
129.795726
 21
228.819954
 31
0.0
  0
ENDBLK
  5
3EE
330
3EC
100
AcDbEntity
  8
0
100
AcDbBlockEnd
  0
BLOCK
  5
3F6
330
3F5
100
AcDbEntity
  8
0
100
AcDbBlockBegin
  2
KLON11
 70
     0
 71
     0
 10
0.0
 20
0.0
 30
0.0
  3
KLON11
  1

  4
KLON11
  0
LINE
  5
3F8
330
3F5
100
AcDbEntity
  8
LC-002-100-D00-0
 62
     7
370
    15
100
AcDbLine
 10
123.29572
 20
230.319965
 30
0.0
 11
123.646822
 21
230.137187
 31
0.0
  0
LINE
  5
3F9
330
3F5
100
AcDbEntity
  8
LC-002-100-D00-0
 62
     7
370
    15
100
AcDbLine
 10
123.646822
 20
230.137187
 30
0.0
 11
123.997915
 21
229.954424
 31
0.0
  0
LINE
  5
3FA
330
3F5
100
AcDbEntity
  8
LC-002-100-D00-0
 62
     7
370
    15
100
AcDbLine
 10
123.997915
 20
229.954424
 30
0.0
 11
124.545727
 21
229.669246
 31
0.0
  0
ENDBLK
  5
3F7
330
3F5
100
AcDbEntity
  8
0
100
AcDbBlockEnd
  0
BLOCK
  5
3FD
330
3FC
100
AcDbEntity
  8
0
100
AcDbBlockBegin
  2
KLON12
 70
     0
 71
     0
 10
0.0
 20
0.0
 30
0.0
  3
KLON12
  1

  4
KLON12
  0
LINE
  5
3FF
330
3FC
100
AcDbEntity
  8
LC-002-100-D00-0
 62
     7
370
    15
100
AcDbLine
 10
124.545727
 20
230.970669
 30
0.0
 11
124.194626
 21
230.787891
 31
0.0
  0
LINE
  5
400
330
3FC
100
AcDbEntity
  8
LC-002-100-D00-0
 62
     7
370
    15
100
AcDbLine
 10
124.194626
 20
230.787891
 30
0.0
 11
123.843532
 21
230.605128
 31
0.0
  0
LINE
  5
401
330
3FC
100
AcDbEntity
  8
LC-002-100-D00-0
 62
     7
370
    15
100
AcDbLine
 10
123.843532
 20
230.605128
 30
0.0
 11
123.29572
 21
230.319965
 31
0.0
  0
ENDBLK
  5
3FE
330
3FC
100
AcDbEntity
  8
0
100
AcDbBlockEnd
  0
BLOCK
  5
405
330
404
100
AcDbEntity
  8
0
100
AcDbBlockBegin
  2
KLON13
 70
     0
 71
     0
 10
0.0
 20
0.0
 30
0.0
  3
KLON13
  1

  4
KLON13
  0
LINE
  5
407
330
404
100
AcDbEntity
  8
LC-002-100-D00-0
 62
     7
370
    15
100
AcDbLine
 10
123.29572
 20
233.319956
 30
0.0
 11
123.646822
 21
233.137193
 31
0.0
  0
LINE
  5
408
330
404
100
AcDbEntity
  8
LC-002-100-D00-0
 62
     7
370
    15
100
AcDbLine
 10
123.646822
 20
233.137193
 30
0.0
 11
123.997915
 21
232.954415
 31
0.0
  0
LINE
  5
409
330
404
100
AcDbEntity
  8
LC-002-100-D00-0
 62
     7
370
    15
100
AcDbLine
 10
123.997915
 20
232.954415
 30
0.0
 11
124.545727
 21
232.669252
 31
0.0
  0
ENDBLK
  5
406
330
404
100
AcDbEntity
  8
0
100
AcDbBlockEnd
  0
BLOCK
  5
40C
330
40B
100
AcDbEntity
  8
0
100
AcDbBlockBegin
  2
KLON14
 70
     0
 71
     0
 10
0.0
 20
0.0
 30
0.0
  3
KLON14
  1

  4
KLON14
  0
LINE
  5
40E
330
40B
100
AcDbEntity
  8
LC-002-100-D00-0
 62
     7
370
    15
100
AcDbLine
 10
124.545727
 20
233.97066
 30
0.0
 11
124.194626
 21
233.787897
 31
0.0
  0
LINE
  5
40F
330
40B
100
AcDbEntity
  8
LC-002-100-D00-0
 62
     7
370
    15
100
AcDbLine
 10
124.194626
 20
233.787897
 30
0.0
 11
123.843532
 21
233.605134
 31
0.0
  0
LINE
  5
410
330
40B
100
AcDbEntity
  8
LC-002-100-D00-0
 62
     7
370
    15
100
AcDbLine
 10
123.843532
 20
233.605134
 30
0.0
 11
123.29572
 21
233.319956
 31
0.0
  0
ENDBLK
  5
40D
330
40B
100
AcDbEntity
  8
0
100
AcDbBlockEnd
  0
BLOCK
  5
414
330
413
100
AcDbEntity
  8
0
100
AcDbBlockBegin
  2
KLON15
 70
     0
 71
     0
 10
0.0
 20
0.0
 30
0.0
  3
KLON15
  1

  4
KLON15
  0
LINE
  5
416
330
413
100
AcDbEntity
  8
LC-002-100-D00-0
 62
     7
370
    15
100
AcDbLine
 10
123.29572
 20
236.319962
 30
0.0
 11
123.646822
 21
236.137184
 31
0.0
  0
LINE
  5
417
330
413
100
AcDbEntity
  8
LC-002-100-D00-0
 62
     7
370
    15
100
AcDbLine
 10
123.646822
 20
236.137184
 30
0.0
 11
123.997915
 21
235.954422
 31
0.0
  0
LINE
  5
418
330
413
100
AcDbEntity
  8
LC-002-100-D00-0
 62
     7
370
    15
100
AcDbLine
 10
123.997915
 20
235.954422
 30
0.0
 11
124.545727
 21
235.669243
 31
0.0
  0
ENDBLK
  5
415
330
413
100
AcDbEntity
  8
0
100
AcDbBlockEnd
  0
BLOCK
  5
41B
330
41A
100
AcDbEntity
  8
0
100
AcDbBlockBegin
  2
KLON16
 70
     0
 71
     0
 10
0.0
 20
0.0
 30
0.0
  3
KLON16
  1

  4
KLON16
  0
LINE
  5
41D
330
41A
100
AcDbEntity
  8
LC-002-100-D00-0
 62
     7
370
    15
100
AcDbLine
 10
124.545727
 20
236.970666
 30
0.0
 11
124.194626
 21
236.787903
 31
0.0
  0
LINE
  5
41E
330
41A
100
AcDbEntity
  8
LC-002-100-D00-0
 62
     7
370
    15
100
AcDbLine
 10
124.194626
 20
236.787903
 30
0.0
 11
123.843532
 21
236.605125
 31
0.0
  0
LINE
  5
41F
330
41A
100
AcDbEntity
  8
LC-002-100-D00-0
 62
     7
370
    15
100
AcDbLine
 10
123.843532
 20
236.605125
 30
0.0
 11
123.29572
 21
236.319962
 31
0.0
  0
ENDBLK
  5
41C
330
41A
100
AcDbEntity
  8
0
100
AcDbBlockEnd
  0
BLOCK
  5
423
330
422
100
AcDbEntity
  8
0
100
AcDbBlockBegin
  2
KLON17
 70
     0
 71
     0
 10
0.0
 20
0.0
 30
0.0
  3
KLON17
  1

  4
KLON17
  0
LINE
  5
425
330
422
100
AcDbEntity
  8
LC-002-100-D00-0
 62
     7
370
    15
100
AcDbLine
 10
123.29572
 20
239.319953
 30
0.0
 11
123.646822
 21
239.13719
 31
0.0
  0
LINE
  5
426
330
422
100
AcDbEntity
  8
LC-002-100-D00-0
 62
     7
370
    15
100
AcDbLine
 10
123.646822
 20
239.13719
 30
0.0
 11
123.997915
 21
238.954428
 31
0.0
  0
LINE
  5
427
330
422
100
AcDbEntity
  8
LC-002-100-D00-0
 62
     7
370
    15
100
AcDbLine
 10
123.997915
 20
238.954428
 30
0.0
 11
124.545727
 21
238.669249
 31
0.0
  0
ENDBLK
  5
424
330
422
100
AcDbEntity
  8
0
100
AcDbBlockEnd
  0
BLOCK
  5
42A
330
429
100
AcDbEntity
  8
0
100
AcDbBlockBegin
  2
KLON18
 70
     0
 71
     0
 10
0.0
 20
0.0
 30
0.0
  3
KLON18
  1

  4
KLON18
  0
LINE
  5
42C
330
429
100
AcDbEntity
  8
LC-002-100-D00-0
 62
     7
370
    15
100
AcDbLine
 10
124.545727
 20
239.970672
 30
0.0
 11
124.194626
 21
239.787894
 31
0.0
  0
LINE
  5
42D
330
429
100
AcDbEntity
  8
LC-002-100-D00-0
 62
     7
370
    15
100
AcDbLine
 10
124.194626
 20
239.787894
 30
0.0
 11
123.843532
 21
239.605132
 31
0.0
  0
LINE
  5
42E
330
429
100
AcDbEntity
  8
LC-002-100-D00-0
 62
     7
370
    15
100
AcDbLine
 10
123.843532
 20
239.605132
 30
0.0
 11
123.29572
 21
239.319953
 31
0.0
  0
ENDBLK
  5
42B
330
429
100
AcDbEntity
  8
0
100
AcDbBlockEnd
  0
BLOCK
  5
432
330
431
100
AcDbEntity
  8
0
100
AcDbBlockBegin
  2
KLON19
 70
     0
 71
     0
 10
0.0
 20
0.0
 30
0.0
  3
KLON19
  1

  4
KLON19
  0
LINE
  5
434
330
431
100
AcDbEntity
  8
LC-002-100-D00-0
 62
     7
370
    15
100
AcDbLine
 10
123.29572
 20
242.319959
 30
0.0
 11
123.646822
 21
242.137196
 31
0.0
  0
LINE
  5
435
330
431
100
AcDbEntity
  8
LC-002-100-D00-0
 62
     7
370
    15
100
AcDbLine
 10
123.646822
 20
242.137196
 30
0.0
 11
123.997915
 21
241.954419
 31
0.0
  0
LINE
  5
436
330
431
100
AcDbEntity
  8
LC-002-100-D00-0
 62
     7
370
    15
100
AcDbLine
 10
123.997915
 20
241.954419
 30
0.0
 11
124.545727
 21
241.669255
 31
0.0
  0
ENDBLK
  5
433
330
431
100
AcDbEntity
  8
0
100
AcDbBlockEnd
  0
BLOCK
  5
439
330
438
100
AcDbEntity
  8
0
100
AcDbBlockBegin
  2
KLON20
 70
     0
 71
     0
 10
0.0
 20
0.0
 30
0.0
  3
KLON20
  1

  4
KLON20
  0
LINE
  5
43B
330
438
100
AcDbEntity
  8
LC-002-100-D00-0
 62
     7
370
    15
100
AcDbLine
 10
124.545727
 20
242.970663
 30
0.0
 11
124.194626
 21
242.7879
 31
0.0
  0
LINE
  5
43C
330
438
100
AcDbEntity
  8
LC-002-100-D00-0
 62
     7
370
    15
100
AcDbLine
 10
124.194626
 20
242.7879
 30
0.0
 11
123.843532
 21
242.605123
 31
0.0
  0
LINE
  5
43D
330
438
100
AcDbEntity
  8
LC-002-100-D00-0
 62
     7
370
    15
100
AcDbLine
 10
123.843532
 20
242.605123
 30
0.0
 11
123.29572
 21
242.319959
 31
0.0
  0
ENDBLK
  5
43A
330
438
100
AcDbEntity
  8
0
100
AcDbBlockEnd
  0
BLOCK
  5
44E
330
44D
100
AcDbEntity
  8
0
100
AcDbBlockBegin
  2
POLY27
 70
     0
 71
     0
 10
0.0
 20
0.0
 30
0.0
  3
POLY27
  1

  4
POLY27
  0
LINE
  5
450
330
44D
100
AcDbEntity
  8
LC-002-100-D00-0
 62
     7
370
    50
100
AcDbLine
 10
123.29572
 20
242.319959
 30
0.0
 11
123.29572
 21
242.319959
 31
0.0
  0
LINE
  5
451
330
44D
100
AcDbEntity
  8
LC-002-100-D00-0
 62
     7
370
    50
100
AcDbLine
 10
123.29572
 20
242.319959
 30
0.0
 11
123.295726
 21
242.319224
 31
0.0
  0
LINE
  5
452
330
44D
100
AcDbEntity
  8
LC-002-100-D00-0
 62
     7
370
    50
100
AcDbLine
 10
123.295726
 20
242.319224
 30
0.0
 11
123.295726
 21
242.319224
 31
0.0
  0
LINE
  5
453
330
44D
100
AcDbEntity
  8
LC-002-100-D00-0
 62
     7
370
    50
100
AcDbLine
 10
123.295726
 20
242.319224
 30
0.0
 11
123.296111
 21
242.268146
 31
0.0
  0
LINE
  5
454
330
44D
100
AcDbEntity
  8
LC-002-100-D00-0
 62
     7
370
    50
100
AcDbLine
 10
123.296111
 20
242.268146
 30
0.0
 11
123.296111
 21
242.268146
 31
0.0
  0
LINE
  5
455
330
44D
100
AcDbEntity
  8
LC-002-100-D00-0
 62
     7
370
    50
100
AcDbLine
 10
123.296111
 20
242.268146
 30
0.0
 11
123.395955
 21
242.220846
 31
0.0
  0
LINE
  5
456
330
44D
100
AcDbEntity
  8
LC-002-100-D00-0
 62
     7
370
    50
100
AcDbLine
 10
123.395955
 20
242.220846
 30
0.0
 11
123.395955
 21
242.220846
 31
0.0
  0
LINE
  5
457
330
44D
100
AcDbEntity
  8
LC-002-100-D00-0
 62
     7
370
    50
100
AcDbLine
 10
123.395955
 20
242.220846
 30
0.0
 11
123.49436
 21
242.174226
 31
0.0
  0
ENDBLK
  5
44F
330
44D
100
AcDbEntity
  8
0
100
AcDbBlockEnd
  0
BLOCK
  5
45D
330
45C
100
AcDbEntity
  8
0
100
AcDbBlockBegin
  2
POLY28
 70
     0
 71
     0
 10
0.0
 20
0.0
 30
0.0
  3
POLY28
  1

  4
POLY28
  0
LINE
  5
45F
330
45C
100
AcDbEntity
  8
LC-002-100-D00-0
 62
     7
370
    50
100
AcDbLine
 10
123.635072
 20
246.975082
 30
0.0
 11
123.635072
 21
246.975082
 31
0.0
  0
LINE
  5
460
330
45C
100
AcDbEntity
  8
LC-002-100-D00-0
 62
     7
370
    50
100
AcDbLine
 10
123.635072
 20
246.975082
 30
0.0
 11
123.611903
 21
246.973094
 31
0.0
  0
LINE
  5
461
330
45C
100
AcDbEntity
  8
LC-002-100-D00-0
 62
     7
370
    50
100
AcDbLine
 10
123.611903
 20
246.973094
 30
0.0
 11
123.611903
 21
246.973094
 31
0.0
  0
LINE
  5
462
330
45C
100
AcDbEntity
  8
LC-002-100-D00-0
 62
     7
370
    50
100
AcDbLine
 10
123.611903
 20
246.973094
 30
0.0
 11
123.580489
 21
246.970397
 31
0.0
  0
LINE
  5
463
330
45C
100
AcDbEntity
  8
LC-002-100-D00-0
 62
     7
370
    50
100
AcDbLine
 10
123.580489
 20
246.970397
 30
0.0
 11
123.580489
 21
246.970397
 31
0.0
  0
LINE
  5
464
330
45C
100
AcDbEntity
  8
LC-002-100-D00-0
 62
     7
370
    50
100
AcDbLine
 10
123.580489
 20
246.970397
 30
0.0
 11
123.552049
 21
246.957465
 31
0.0
  0
LINE
  5
465
330
45C
100
AcDbEntity
  8
LC-002-100-D00-0
 62
     7
370
    50
100
AcDbLine
 10
123.552049
 20
246.957465
 30
0.0
 11
123.552049
 21
246.957465
 31
0.0
  0
LINE
  5
466
330
45C
100
AcDbEntity
  8
LC-002-100-D00-0
 62
     7
370
    50
100
AcDbLine
 10
123.552049
 20
246.957465
 30
0.0
 11
123.544585
 21
246.954071
 31
0.0
  0
ENDBLK
  5
45E
330
45C
100
AcDbEntity
  8
0
100
AcDbBlockEnd
  0
BLOCK
  5
469
330
468
100
AcDbEntity
  8
0
100
AcDbBlockBegin
  2
POLY29
 70
     0
 71
     0
 10
0.0
 20
0.0
 30
0.0
  3
POLY29
  1

  4
POLY29
  0
LINE
  5
46B
330
468
100
AcDbEntity
  8
LC-002-100-D00-0
 62
     7
370
    50
100
AcDbLine
 10
129.546862
 20
246.954071
 30
0.0
 11
129.546862
 21
246.954071
 31
0.0
  0
LINE
  5
46C
330
468
100
AcDbEntity
  8
LC-002-100-D00-0
 62
     7
370
    50
100
AcDbLine
 10
129.546862
 20
246.954071
 30
0.0
 11
129.525189
 21
246.962487
 31
0.0
  0
LINE
  5
46D
330
468
100
AcDbEntity
  8
LC-002-100-D00-0
 62
     7
370
    50
100
AcDbLine
 10
129.525189
 20
246.962487
 30
0.0
 11
129.525189
 21
246.962487
 31
0.0
  0
LINE
  5
46E
330
468
100
AcDbEntity
  8
LC-002-100-D00-0
 62
     7
370
    50
100
AcDbLine
 10
129.525189
 20
246.962487
 30
0.0
 11
129.4958
 21
246.973898
 31
0.0
  0
LINE
  5
46F
330
468
100
AcDbEntity
  8
LC-002-100-D00-0
 62
     7
370
    50
100
AcDbLine
 10
129.4958
 20
246.973898
 30
0.0
 11
129.4958
 21
246.973898
 31
0.0
  0
LINE
  5
470
330
468
100
AcDbEntity
  8
LC-002-100-D00-0
 62
     7
370
    50
100
AcDbLine
 10
129.4958
 20
246.973898
 30
0.0
 11
129.464573
 21
246.974836
 31
0.0
  0
LINE
  5
471
330
468
100
AcDbEntity
  8
LC-002-100-D00-0
 62
     7
370
    50
100
AcDbLine
 10
129.464573
 20
246.974836
 30
0.0
 11
129.464573
 21
246.974836
 31
0.0
  0
LINE
  5
472
330
468
100
AcDbEntity
  8
LC-002-100-D00-0
 62
     7
370
    50
100
AcDbLine
 10
129.464573
 20
246.974836
 30
0.0
 11
129.456375
 21
246.975082
 31
0.0
  0
ENDBLK
  5
46A
330
468
100
AcDbEntity
  8
0
100
AcDbBlockEnd
  0
BLOCK
  5
4D7
330
4D6
100
AcDbEntity
  8
0
100
AcDbBlockBegin
  2
KLON21
 70
     0
 71
     0
 10
0.0
 20
0.0
 30
0.0
  3
KLON21
  1

  4
KLON21
  0
LINE
  5
4D9
330
4D6
100
AcDbEntity
  8
LC-002-100-D00-0
 62
     7
370
    25
100
AcDbLine
 10
114.697563
 20
240.657762
 30
0.0
 11
120.014877
 21
245.975076
 31
0.0
  0
LINE
  5
4DA
330
4D6
100
AcDbEntity
  8
LC-002-100-D00-0
 62
     7
370
    25
100
AcDbLine
 10
107.004657
 20
241.945113
 30
0.0
 11
111.03462
 21
245.975076
 31
0.0
  0
LINE
  5
4DB
330
4D6
100
AcDbEntity
  8
LC-002-100-D00-0
 62
     7
370
    25
100
AcDbLine
 10
99.5212
 20
243.441912
 30
0.0
 11
102.054364
 21
245.975076
 31
0.0
  0
LINE
  5
4DC
330
4D6
100
AcDbEntity
  8
LC-002-100-D00-0
 62
     7
370
    25
100
AcDbLine
 10
92.646777
 20
245.547745
 30
0.0
 11
93.074108
 21
245.975076
 31
0.0
  0
ENDBLK
  5
4D8
330
4D6
100
AcDbEntity
  8
0
100
AcDbBlockEnd
  0
BLOCK
  5
4E0
330
4DF
100
AcDbEntity
  8
0
100
AcDbBlockBegin
  2
KLON22
 70
     0
 71
     0
 10
0.0
 20
0.0
 30
0.0
  3
KLON22
  1

  4
KLON22
  0
LINE
  5
4E2
330
4DF
100
AcDbEntity
  8
LC-002-100-D00-0
 62
     7
370
    25
100
AcDbLine
 10
298.63541
 20
244.990488
 30
0.0
 11
299.619999
 21
245.975076
 31
0.0
  0
LINE
  5
4E3
330
4DF
100
AcDbEntity
  8
LC-002-100-D00-0
 62
     7
370
    25
100
AcDbLine
 10
286.714887
 20
242.050221
 30
0.0
 11
290.639743
 21
245.975076
 31
0.0
  0
LINE
  5
4E4
330
4DF
100
AcDbEntity
  8
LC-002-100-D00-0
 62
     7
370
    25
100
AcDbLine
 10
276.159487
 20
240.475076
 30
0.0
 11
281.659487
 21
245.975076
 31
0.0
  0
LINE
  5
4E5
330
4DF
100
AcDbEntity
  8
LC-002-100-D00-0
 62
     7
370
    25
100
AcDbLine
 10
267.179231
 20
240.475076
 30
0.0
 11
272.679231
 21
245.975076
 31
0.0
  0
LINE
  5
4E6
330
4DF
100
AcDbEntity
  8
LC-002-100-D00-0
 62
     7
370
    25
100
AcDbLine
 10
260.045724
 20
242.321825
 30
0.0
 11
263.698975
 21
245.975076
 31
0.0
  0
ENDBLK
  5
4E1
330
4DF
100
AcDbEntity
  8
0
100
AcDbBlockEnd
  0
BLOCK
  5
4E9
330
4E8
100
AcDbEntity
  8
0
100
AcDbBlockBegin
  2
KLON23
 70
     0
 71
     0
 10
0.0
 20
0.0
 30
0.0
  3
KLON23
  1

  4
KLON23
  0
LINE
  5
4EB
330
4E8
100
AcDbEntity
  8
LC-002-100-D00-0
 62
     7
370
    25
100
AcDbLine
 10
252.545724
 20
234.821825
 30
0.0
 11
256.545724
 21
238.821825
 31
0.0
  0
LINE
  5
4EC
330
4E8
100
AcDbEntity
  8
LC-002-100-D00-0
 62
     7
370
    25
100
AcDbLine
 10
252.545724
 20
243.802082
 30
0.0
 11
253.558641
 21
244.814999
 31
0.0
  0
LINE
  5
4ED
330
4E8
100
AcDbEntity
  8
LC-002-100-D00-0
 62
     7
370
    25
100
AcDbLine
 10
254.718718
 20
245.975076
 30
0.0
 11
257.545724
 21
248.802082
 31
0.0
  0
LINE
  5
4EE
330
4E8
100
AcDbEntity
  8
LC-002-100-D00-0
 62
     7
370
    25
100
AcDbLine
 10
249.50175
 20
249.738364
 30
0.0
 11
254.238462
 21
254.475076
 31
0.0
  0
ENDBLK
  5
4EA
330
4E8
100
AcDbEntity
  8
0
100
AcDbBlockEnd
  0
BLOCK
  5
4F1
330
4F0
100
AcDbEntity
  8
0
100
AcDbBlockBegin
  2
KLON24
 70
     0
 71
     0
 10
0.0
 20
0.0
 30
0.0
  3
KLON24
  1

  4
KLON24
  0
LINE
  5
4F3
330
4F0
100
AcDbEntity
  8
LC-002-100-D00-0
 62
     7
370
    25
100
AcDbLine
 10
136.000684
 20
235.020116
 30
0.0
 11
141.211709
 21
240.23114
 31
0.0
  0
LINE
  5
4F4
330
4F0
100
AcDbEntity
  8
LC-002-100-D00-0
 62
     7
370
    25
100
AcDbLine
 10
137.975389
 20
245.975076
 30
0.0
 11
140.545724
 21
248.545411
 31
0.0
  0
LINE
  5
4F5
330
4F0
100
AcDbEntity
  8
LC-002-100-D00-0
 62
     7
370
    25
100
AcDbLine
 10
142.416197
 20
250.415885
 30
0.0
 11
143.104916
 21
251.104604
 31
0.0
  0
LINE
  5
4F6
330
4F0
100
AcDbEntity
  8
LC-002-100-D00-0
 62
     7
370
    25
100
AcDbLine
 10
135.888994
 20
252.868938
 30
0.0
 11
137.151663
 21
254.131606
 31
0.0
  0
ENDBLK
  5
4F2
330
4F0
100
AcDbEntity
  8
0
100
AcDbBlockEnd
  0
BLOCK
  5
4F9
330
4F8
100
AcDbEntity
  8
0
100
AcDbBlockBegin
  2
KLON25
 70
     0
 71
     0
 10
0.0
 20
0.0
 30
0.0
  3
KLON25
  1

  4
KLON25
  0
LINE
  5
4FB
330
4F8
100
AcDbEntity
  8
LC-002-100-D00-0
 62
     7
370
    25
100
AcDbLine
 10
127.913074
 20
226.932505
 30
0.0
 11
128.545724
 21
227.565155
 31
0.0
  0
LINE
  5
4FC
330
4F8
100
AcDbEntity
  8
LC-002-100-D00-0
 62
     7
370
    25
100
AcDbLine
 10
124.545724
 20
232.545411
 30
0.0
 11
128.545724
 21
236.545411
 31
0.0
  0
LINE
  5
4FD
330
4F8
100
AcDbEntity
  8
LC-002-100-D00-0
 62
     7
370
    25
100
AcDbLine
 10
124.545724
 20
241.525667
 30
0.0
 11
127.995133
 21
244.975076
 31
0.0
  0
LINE
  5
4FE
330
4F8
100
AcDbEntity
  8
LC-002-100-D00-0
 62
     7
370
    25
100
AcDbLine
 10
128.319156
 20
245.2991
 30
0.0
 11
128.495133
 21
245.475076
 31
0.0
  0
ENDBLK
  5
4FA
330
4F8
100
AcDbEntity
  8
0
100
AcDbBlockEnd
  0
BLOCK
  5
501
330
500
100
AcDbEntity
  8
0
100
AcDbBlockBegin
  2
KLON26
 70
     0
 71
     0
 10
0.0
 20
0.0
 30
0.0
  3
KLON26
  1

  4
KLON26
  0
LINE
  5
503
330
500
100
AcDbEntity
  8
LC-002-100-D00-0
 62
     7
370
    50
100
AcDbLine
 10
141.631409
 20
213.710072
 30
0.0
 11
144.495724
 21
216.574387
 31
0.0
  0
LINE
  5
504
330
500
100
AcDbEntity
  8
LC-002-100-D00-0
 62
     7
370
    50
100
AcDbLine
 10
137.295724
 20
218.354643
 30
0.0
 11
137.651153
 21
218.710072
 31
0.0
  0
ENDBLK
  5
502
330
500
100
AcDbEntity
  8
0
100
AcDbBlockEnd
  0
BLOCK
  5
508
330
507
100
AcDbEntity
  8
0
100
AcDbBlockBegin
  2
KLON27
 70
     0
 71
     0
 10
0.0
 20
0.0
 30
0.0
  3
KLON27
  1

  4
KLON27
  0
LINE
  5
50A
330
507
100
AcDbEntity
  8
LC-002-100-D00-0
 62
     7
370
    25
100
AcDbLine
 10
315.591921
 20
369.710072
 30
0.0
 11
317.091921
 21
371.210072
 31
0.0
  0
LINE
  5
50B
330
507
100
AcDbEntity
  8
LC-002-100-D00-0
 62
     7
370
    25
100
AcDbLine
 10
306.611665
 20
369.710072
 30
0.0
 11
308.111665
 21
371.210072
 31
0.0
  0
LINE
  5
50C
330
507
100
AcDbEntity
  8
LC-002-100-D00-0
 62
     7
370
    25
100
AcDbLine
 10
297.631409
 20
369.710072
 30
0.0
 11
299.131409
 21
371.210072
 31
0.0
  0
LINE
  5
50D
330
507
100
AcDbEntity
  8
LC-002-100-D00-0
 62
     7
370
    25
100
AcDbLine
 10
288.651153
 20
369.710072
 30
0.0
 11
290.151153
 21
371.210072
 31
0.0
  0
LINE
  5
50E
330
507
100
AcDbEntity
  8
LC-002-100-D00-0
 62
     7
370
    25
100
AcDbLine
 10
279.670896
 20
369.710072
 30
0.0
 11
281.170896
 21
371.210072
 31
0.0
  0
LINE
  5
50F
330
507
100
AcDbEntity
  8
LC-002-100-D00-0
 62
     7
370
    25
100
AcDbLine
 10
270.69064
 20
369.710072
 30
0.0
 11
272.19064
 21
371.210072
 31
0.0
  0
LINE
  5
510
330
507
100
AcDbEntity
  8
LC-002-100-D00-0
 62
     7
370
    25
100
AcDbLine
 10
261.710384
 20
369.710072
 30
0.0
 11
263.210384
 21
371.210072
 31
0.0
  0
LINE
  5
511
330
507
100
AcDbEntity
  8
LC-002-100-D00-0
 62
     7
370
    25
100
AcDbLine
 10
252.677876
 20
369.65782
 30
0.0
 11
254.230128
 21
371.210072
 31
0.0
  0
ENDBLK
  5
509
330
507
100
AcDbEntity
  8
0
100
AcDbBlockEnd
  0
BLOCK
  5
514
330
513
100
AcDbEntity
  8
0
100
AcDbBlockBegin
  2
KLON28
 70
     0
 71
     0
 10
0.0
 20
0.0
 30
0.0
  3
KLON28
  1

  4
KLON28
  0
LINE
  5
516
330
513
100
AcDbEntity
  8
LC-002-100-D00-0
 62
     7
370
    25
100
AcDbLine
 10
148.997082
 20
364.759843
 30
0.0
 11
150.095158
 21
365.857919
 31
0.0
  0
LINE
  5
517
330
513
100
AcDbEntity
  8
LC-002-100-D00-0
 62
     7
370
    25
100
AcDbLine
 10
143.303828
 20
368.046845
 30
0.0
 11
144.401904
 21
369.144921
 31
0.0
  0
LINE
  5
518
330
513
100
AcDbEntity
  8
LC-002-100-D00-0
 62
     7
370
    25
100
AcDbLine
 10
135.986798
 20
369.710072
 30
0.0
 11
137.486798
 21
371.210072
 31
0.0
  0
LINE
  5
519
330
513
100
AcDbEntity
  8
LC-002-100-D00-0
 62
     7
370
    25
100
AcDbLine
 10
127.006542
 20
369.710072
 30
0.0
 11
128.506542
 21
371.210072
 31
0.0
  0
LINE
  5
51A
330
513
100
AcDbEntity
  8
LC-002-100-D00-0
 62
     7
370
    25
100
AcDbLine
 10
118.026286
 20
369.710072
 30
0.0
 11
119.526286
 21
371.210072
 31
0.0
  0
LINE
  5
51B
330
513
100
AcDbEntity
  8
LC-002-100-D00-0
 62
     7
370
    25
100
AcDbLine
 10
109.04603
 20
369.710072
 30
0.0
 11
110.54603
 21
371.210072
 31
0.0
  0
LINE
  5
51C
330
513
100
AcDbEntity
  8
LC-002-100-D00-0
 62
     7
370
    25
100
AcDbLine
 10
100.065774
 20
369.710072
 30
0.0
 11
101.565774
 21
371.210072
 31
0.0
  0
LINE
  5
51D
330
513
100
AcDbEntity
  8
LC-002-100-D00-0
 62
     7
370
    25
100
AcDbLine
 10
89.705564
 20
368.330118
 30
0.0
 11
91.274399
 21
369.898953
 31
0.0
  0
LINE
  5
51E
330
513
100
AcDbEntity
  8
LC-002-100-D00-0
 62
     7
370
    25
100
AcDbLine
 10
91.856842
 20
370.481396
 30
0.0
 11
92.585518
 21
371.210072
 31
0.0
  0
LINE
  5
51F
330
513
100
AcDbEntity
  8
LC-002-100-D00-0
 62
     7
370
    25
100
AcDbLine
 10
82.105262
 20
369.710072
 30
0.0
 11
83.605262
 21
371.210072
 31
0.0
  0
LINE
  5
520
330
513
100
AcDbEntity
  8
LC-002-100-D00-0
 62
     7
370
    25
100
AcDbLine
 10
73.125006
 20
369.710072
 30
0.0
 11
74.625006
 21
371.210072
 31
0.0
  0
ENDBLK
  5
515
330
513
100
AcDbEntity
  8
0
100
AcDbBlockEnd
  0
BLOCK
  5
523
330
522
100
AcDbEntity
  8
0
100
AcDbBlockBegin
  2
KLON29
 70
     0
 71
     0
 10
0.0
 20
0.0
 30
0.0
  3
KLON29
  1

  4
KLON29
  0
LINE
  5
525
330
522
100
AcDbEntity
  8
LC-002-100-D00-0
 62
     7
370
    25
100
AcDbLine
 10
149.045724
 20
319.907204
 30
0.0
 11
151.045724
 21
321.907204
 31
0.0
  0
LINE
  5
526
330
522
100
AcDbEntity
  8
LC-002-100-D00-0
 62
     7
370
    25
100
AcDbLine
 10
149.045724
 20
328.88746
 30
0.0
 11
151.045724
 21
330.88746
 31
0.0
  0
LINE
  5
527
330
522
100
AcDbEntity
  8
LC-002-100-D00-0
 62
     7
370
    25
100
AcDbLine
 10
149.045724
 20
337.867716
 30
0.0
 11
153.070724
 21
341.892716
 31
0.0
  0
LINE
  5
528
330
522
100
AcDbEntity
  8
LC-002-100-D00-0
 62
     7
370
    25
100
AcDbLine
 10
149.045724
 20
346.847972
 30
0.0
 11
153.070724
 21
350.872972
 31
0.0
  0
LINE
  5
529
330
522
100
AcDbEntity
  8
LC-002-100-D00-0
 62
     7
370
    25
100
AcDbLine
 10
149.045724
 20
355.828229
 30
0.0
 11
151.295724
 21
358.078229
 31
0.0
  0
LINE
  5
52A
330
522
100
AcDbEntity
  8
LC-002-100-D00-0
 62
     7
370
    25
100
AcDbLine
 10
144.904543
 20
360.667304
 30
0.0
 11
147.904543
 21
363.667304
 31
0.0
  0
ENDBLK
  5
524
330
522
100
AcDbEntity
  8
0
100
AcDbBlockEnd
  0
BLOCK
  5
52D
330
52C
100
AcDbEntity
  8
0
100
AcDbBlockBegin
  2
KLON30
 70
     0
 71
     0
 10
0.0
 20
0.0
 30
0.0
  3
KLON30
  1

  4
KLON30
  0
LINE
  5
52F
330
52C
100
AcDbEntity
  8
LC-002-100-D00-0
 62
     7
370
    25
100
AcDbLine
 10
242.045724
 20
323.104643
 30
0.0
 11
244.045724
 21
325.104643
 31
0.0
  0
LINE
  5
530
330
52C
100
AcDbEntity
  8
LC-002-100-D00-0
 62
     7
370
    25
100
AcDbLine
 10
242.045724
 20
332.084899
 30
0.0
 11
244.045724
 21
334.084899
 31
0.0
  0
LINE
  5
531
330
52C
100
AcDbEntity
  8
LC-002-100-D00-0
 62
     7
370
    25
100
AcDbLine
 10
240.020724
 20
339.040155
 30
0.0
 11
244.045724
 21
343.065155
 31
0.0
  0
LINE
  5
532
330
52C
100
AcDbEntity
  8
LC-002-100-D00-0
 62
     7
370
    25
100
AcDbLine
 10
240.020724
 20
348.020411
 30
0.0
 11
244.045724
 21
352.045411
 31
0.0
  0
LINE
  5
533
330
52C
100
AcDbEntity
  8
LC-002-100-D00-0
 62
     7
370
    25
100
AcDbLine
 10
241.795724
 20
358.775667
 30
0.0
 11
246.68736
 21
363.667304
 31
0.0
  0
ENDBLK
  5
52E
330
52C
100
AcDbEntity
  8
0
100
AcDbBlockEnd
  0
BLOCK
  5
536
330
535
100
AcDbEntity
  8
0
100
AcDbBlockBegin
  2
KLON31
 70
     0
 71
     0
 10
0.0
 20
0.0
 30
0.0
  3
KLON31
  1

  4
KLON31
  0
LINE
  5
538
330
535
100
AcDbEntity
  8
LC-002-100-D00-0
 62
     7
370
    25
100
AcDbLine
 10
147.269947
 20
318.131427
 30
0.0
 11
149.045724
 21
319.907204
 31
0.0
  0
LINE
  5
539
330
535
100
AcDbEntity
  8
LC-002-100-D00-0
 62
     7
370
    25
100
AcDbLine
 10
146.182366
 20
326.024102
 30
0.0
 11
149.045724
 21
328.88746
 31
0.0
  0
LINE
  5
53A
330
535
100
AcDbEntity
  8
LC-002-100-D00-0
 62
     7
370
    25
100
AcDbLine
 10
144.934181
 20
333.756174
 30
0.0
 11
146.345311
 21
335.167304
 31
0.0
  0
LINE
  5
53B
330
535
100
AcDbEntity
  8
LC-002-100-D00-0
 62
     7
370
    25
100
AcDbLine
 10
147.545724
 20
336.367716
 30
0.0
 11
149.045724
 21
337.867716
 31
0.0
  0
LINE
  5
53C
330
535
100
AcDbEntity
  8
LC-002-100-D00-0
 62
     7
370
    25
100
AcDbLine
 10
143.685996
 20
341.488245
 30
0.0
 11
144.865055
 21
342.667304
 31
0.0
  0
LINE
  5
53D
330
535
100
AcDbEntity
  8
LC-002-100-D00-0
 62
     7
370
    25
100
AcDbLine
 10
147.545724
 20
345.347972
 30
0.0
 11
149.045724
 21
346.847972
 31
0.0
  0
LINE
  5
53E
330
535
100
AcDbEntity
  8
LC-002-100-D00-0
 62
     7
370
    25
100
AcDbLine
 10
142.437811
 20
349.220316
 30
0.0
 11
143.384799
 21
350.167304
 31
0.0
  0
LINE
  5
53F
330
535
100
AcDbEntity
  8
LC-002-100-D00-0
 62
     7
370
    25
100
AcDbLine
 10
147.545724
 20
354.328229
 30
0.0
 11
149.045724
 21
355.828229
 31
0.0
  0
LINE
  5
540
330
535
100
AcDbEntity
  8
LC-002-100-D00-0
 62
     7
370
    25
100
AcDbLine
 10
143.904543
 20
359.667304
 30
0.0
 11
144.904543
 21
360.667304
 31
0.0
  0
LINE
  5
541
330
535
100
AcDbEntity
  8
LC-002-100-D00-0
 62
     7
370
    25
100
AcDbLine
 10
147.904543
 20
363.667304
 30
0.0
 11
149.545724
 21
365.308485
 31
0.0
  0
LINE
  5
542
330
535
100
AcDbEntity
  8
LC-002-100-D00-0
 62
     7
370
    25
100
AcDbLine
 10
140.545724
 20
365.288741
 30
0.0
 11
143.235005
 21
367.978022
 31
0.0
  0
ENDBLK
  5
537
330
535
100
AcDbEntity
  8
0
100
AcDbBlockEnd
  0
BLOCK
  5
545
330
544
100
AcDbEntity
  8
0
100
AcDbBlockBegin
  2
KLON32
 70
     0
 71
     0
 10
0.0
 20
0.0
 30
0.0
  3
KLON32
  1

  4
KLON32
  0
LINE
  5
547
330
544
100
AcDbEntity
  8
LC-002-100-D00-0
 62
     7
370
    25
100
AcDbLine
 10
243.588641
 20
315.667304
 30
0.0
 11
245.566636
 21
317.645299
 31
0.0
  0
LINE
  5
548
330
544
100
AcDbEntity
  8
LC-002-100-D00-0
 62
     7
370
    25
100
AcDbLine
 10
246.342286
 20
318.420949
 30
0.0
 11
248.088641
 21
320.167304
 31
0.0
  0
LINE
  5
549
330
544
100
AcDbEntity
  8
LC-002-100-D00-0
 62
     7
370
    25
100
AcDbLine
 10
244.045724
 20
325.104643
 30
0.0
 11
246.608385
 21
327.667304
 31
0.0
  0
LINE
  5
54A
330
544
100
AcDbEntity
  8
LC-002-100-D00-0
 62
     7
370
    25
100
AcDbLine
 10
244.045724
 20
334.084899
 30
0.0
 11
245.551613
 21
335.590788
 31
0.0
  0
LINE
  5
54B
330
544
100
AcDbEntity
  8
LC-002-100-D00-0
 62
     7
370
    25
100
AcDbLine
 10
244.045724
 20
343.065155
 30
0.0
 11
245.545724
 21
344.565155
 31
0.0
  0
LINE
  5
54C
330
544
100
AcDbEntity
  8
LC-002-100-D00-0
 62
     7
370
    25
100
AcDbLine
 10
250.09748
 20
349.116911
 30
0.0
 11
251.088423
 21
350.107854
 31
0.0
  0
LINE
  5
54D
330
544
100
AcDbEntity
  8
LC-002-100-D00-0
 62
     7
370
    25
100
AcDbLine
 10
244.045724
 20
352.045411
 30
0.0
 11
245.545724
 21
353.545411
 31
0.0
  0
LINE
  5
54E
330
544
100
AcDbEntity
  8
LC-002-100-D00-0
 62
     7
370
    25
100
AcDbLine
 10
246.68736
 20
363.667304
 30
0.0
 11
252.545724
 21
369.525667
 31
0.0
  0
ENDBLK
  5
546
330
544
100
AcDbEntity
  8
0
100
AcDbBlockEnd
  0
BLOCK
  5
551
330
550
100
AcDbEntity
  8
0
100
AcDbBlockBegin
  2
KLON33
 70
     0
 71
     0
 10
0.0
 20
0.0
 30
0.0
  3
KLON33
  1

  4
KLON33
  0
LINE
  5
553
330
550
100
AcDbEntity
  8
LC-002-100-D00-0
 62
     7
370
    25
100
AcDbLine
 10
237.645724
 20
336.665155
 30
0.0
 11
240.845724
 21
339.865155
 31
0.0
  0
LINE
  5
554
330
550
100
AcDbEntity
  8
LC-002-100-D00-0
 62
     7
370
    25
100
AcDbLine
 10
233.510385
 20
341.510072
 30
0.0
 11
240.845724
 21
348.845411
 31
0.0
  0
LINE
  5
555
330
550
100
AcDbEntity
  8
LC-002-100-D00-0
 62
     7
370
    25
100
AcDbLine
 10
237.645724
 20
354.625667
 30
0.0
 11
240.845724
 21
357.825667
 31
0.0
  0
LINE
  5
556
330
550
100
AcDbEntity
  8
LC-002-100-D00-0
 62
     7
370
    25
100
AcDbLine
 10
239.145724
 20
365.105923
 30
0.0
 11
243.150161
 21
369.11036
 31
0.0
  0
ENDBLK
  5
552
330
550
100
AcDbEntity
  8
0
100
AcDbBlockEnd
  0
BLOCK
  5
559
330
558
100
AcDbEntity
  8
0
100
AcDbBlockBegin
  2
KLON34
 70
     0
 71
     0
 10
0.0
 20
0.0
 30
0.0
  3
KLON34
  1

  4
KLON34
  0
LINE
  5
55B
330
558
100
AcDbEntity
  8
LC-002-100-D00-0
 62
     7
370
    25
100
AcDbLine
 10
152.70703
 20
332.548766
 30
0.0
 11
155.445724
 21
335.28746
 31
0.0
  0
LINE
  5
55C
330
558
100
AcDbEntity
  8
LC-002-100-D00-0
 62
     7
370
    25
100
AcDbLine
 10
152.245724
 20
341.067716
 30
0.0
 11
158.532457
 21
347.35445
 31
0.0
  0
LINE
  5
55D
330
558
100
AcDbEntity
  8
LC-002-100-D00-0
 62
     7
370
    25
100
AcDbLine
 10
152.245724
 20
350.047972
 30
0.0
 11
155.469912
 21
353.272161
 31
0.0
  0
LINE
  5
55E
330
558
100
AcDbEntity
  8
LC-002-100-D00-0
 62
     7
370
    25
100
AcDbLine
 10
152.245724
 20
359.028229
 30
0.0
 11
153.945724
 21
360.728229
 31
0.0
  0
LINE
  5
55F
330
558
100
AcDbEntity
  8
LC-002-100-D00-0
 62
     7
370
    25
100
AcDbLine
 10
149.64885
 20
365.411611
 30
0.0
 11
152.837006
 21
368.599767
 31
0.0
  0
LINE
  5
560
330
558
100
AcDbEntity
  8
LC-002-100-D00-0
 62
     7
370
    25
100
AcDbLine
 10
143.955596
 20
368.698613
 30
0.0
 11
145.202856
 21
369.945873
 31
0.0
  0
ENDBLK
  5
55A
330
558
100
AcDbEntity
  8
0
100
AcDbBlockEnd
  0
BLOCK
  5
563
330
562
100
AcDbEntity
  8
0
100
AcDbBlockBegin
  2
KLON35
 70
     0
 71
     0
 10
0.0
 20
0.0
 30
0.0
  3
KLON35
  1

  4
KLON35
  0
LINE
  5
565
330
562
100
AcDbEntity
  8
LC-002-100-D00-0
 62
     7
370
    25
100
AcDbLine
 10
216.911665
 20
280.010072
 30
0.0
 11
218.411665
 21
281.510072
 31
0.0
  0
LINE
  5
566
330
562
100
AcDbEntity
  8
LC-002-100-D00-0
 62
     7
370
    25
100
AcDbLine
 10
227.545724
 20
290.644131
 30
0.0
 11
229.045724
 21
292.144131
 31
0.0
  0
LINE
  5
567
330
562
100
AcDbEntity
  8
LC-002-100-D00-0
 62
     7
370
    25
100
AcDbLine
 10
207.931409
 20
280.010072
 30
0.0
 11
209.431409
 21
281.510072
 31
0.0
  0
LINE
  5
568
330
562
100
AcDbEntity
  8
LC-002-100-D00-0
 62
     7
370
    25
100
AcDbLine
 10
227.545724
 20
299.624387
 30
0.0
 11
229.045724
 21
301.124387
 31
0.0
  0
LINE
  5
569
330
562
100
AcDbEntity
  8
LC-002-100-D00-0
 62
     7
370
    25
100
AcDbLine
 10
198.951153
 20
280.010072
 30
0.0
 11
200.451153
 21
281.510072
 31
0.0
  0
LINE
  5
56A
330
562
100
AcDbEntity
  8
LC-002-100-D00-0
 62
     7
370
    25
100
AcDbLine
 10
227.545724
 20
308.604643
 30
0.0
 11
229.045724
 21
310.104643
 31
0.0
  0
LINE
  5
56B
330
562
100
AcDbEntity
  8
LC-002-100-D00-0
 62
     7
370
    25
100
AcDbLine
 10
189.970897
 20
280.010072
 30
0.0
 11
191.470897
 21
281.510072
 31
0.0
  0
LINE
  5
56C
330
562
100
AcDbEntity
  8
LC-002-100-D00-0
 62
     7
370
    25
100
AcDbLine
 10
227.545724
 20
317.584899
 30
0.0
 11
229.045724
 21
319.084899
 31
0.0
  0
LINE
  5
56D
330
562
100
AcDbEntity
  8
LC-002-100-D00-0
 62
     7
370
    25
100
AcDbLine
 10
180.990641
 20
280.010072
 30
0.0
 11
182.490641
 21
281.510072
 31
0.0
  0
LINE
  5
56E
330
562
100
AcDbEntity
  8
LC-002-100-D00-0
 62
     7
370
    25
100
AcDbLine
 10
227.545724
 20
326.565155
 30
0.0
 11
229.045724
 21
328.065155
 31
0.0
  0
LINE
  5
56F
330
562
100
AcDbEntity
  8
LC-002-100-D00-0
 62
     7
370
    25
100
AcDbLine
 10
172.18502
 20
280.184708
 30
0.0
 11
173.526272
 21
281.52596
 31
0.0
  0
LINE
  5
570
330
562
100
AcDbEntity
  8
LC-002-100-D00-0
 62
     7
370
    25
100
AcDbLine
 10
227.545724
 20
335.545411
 30
0.0
 11
229.045724
 21
337.045411
 31
0.0
  0
LINE
  5
571
330
562
100
AcDbEntity
  8
LC-002-100-D00-0
 62
     7
370
    25
100
AcDbLine
 10
166.485115
 20
283.465059
 30
0.0
 11
167.549008
 21
284.528952
 31
0.0
  0
LINE
  5
572
330
562
100
AcDbEntity
  8
LC-002-100-D00-0
 62
     7
370
    25
100
AcDbLine
 10
232.586634
 20
349.566577
 30
0.0
 11
237.03267
 21
354.012614
 31
0.0
  0
LINE
  5
573
330
562
100
AcDbEntity
  8
LC-002-100-D00-0
 62
     7
370
    25
100
AcDbLine
 10
164.045725
 20
290.005924
 30
0.0
 11
165.545724
 21
291.505923
 31
0.0
  0
LINE
  5
574
330
562
100
AcDbEntity
  8
LC-002-100-D00-0
 62
     7
370
    25
100
AcDbLine
 10
164.045724
 20
298.98618
 30
0.0
 11
165.545724
 21
300.48618
 31
0.0
  0
LINE
  5
575
330
562
100
AcDbEntity
  8
LC-002-100-D00-0
 62
     7
370
    25
100
AcDbLine
 10
164.045724
 20
307.966436
 30
0.0
 11
165.545724
 21
309.466436
 31
0.0
  0
LINE
  5
576
330
562
100
AcDbEntity
  8
LC-002-100-D00-0
 62
     7
370
    25
100
AcDbLine
 10
164.045724
 20
316.946692
 30
0.0
 11
165.545724
 21
318.446692
 31
0.0
  0
LINE
  5
577
330
562
100
AcDbEntity
  8
LC-002-100-D00-0
 62
     7
370
    25
100
AcDbLine
 10
164.045724
 20
325.926948
 30
0.0
 11
165.545724
 21
327.426948
 31
0.0
  0
LINE
  5
578
330
562
100
AcDbEntity
  8
LC-002-100-D00-0
 62
     7
370
    25
100
AcDbLine
 10
164.045724
 20
334.907204
 30
0.0
 11
165.545724
 21
336.407204
 31
0.0
  0
LINE
  5
579
330
562
100
AcDbEntity
  8
LC-002-100-D00-0
 62
     7
370
    25
100
AcDbLine
 10
163.007066
 20
342.848803
 30
0.0
 11
164.168336
 21
344.010072
 31
0.0
  0
LINE
  5
57A
330
562
100
AcDbEntity
  8
LC-002-100-D00-0
 62
     7
370
    25
100
AcDbLine
 10
159.511757
 20
348.333749
 30
0.0
 11
160.598138
 21
349.42013
 31
0.0
  0
LINE
  5
57B
330
562
100
AcDbEntity
  8
LC-002-100-D00-0
 62
     7
370
    25
100
AcDbLine
 10
156.081622
 20
353.883871
 30
0.0
 11
157.545724
 21
355.347972
 31
0.0
  0
LINE
  5
57C
330
562
100
AcDbEntity
  8
LC-002-100-D00-0
 62
     7
370
    25
100
AcDbLine
 10
154.045724
 20
360.828229
 30
0.0
 11
154.227567
 21
361.010072
 31
0.0
  0
ENDBLK
  5
564
330
562
100
AcDbEntity
  8
0
100
AcDbBlockEnd
  0
BLOCK
  5
580
330
57F
100
AcDbEntity
  8
0
100
AcDbBlockBegin
  2
KLON36
 70
     0
 71
     0
 10
0.0
 20
0.0
 30
0.0
  3
KLON36
  1

  4
KLON36
  0
LINE
  5
582
330
57F
100
AcDbEntity
  8
LC-002-100-D00-0
 62
     7
370
    25
100
AcDbLine
 10
216.545724
 20
324.545411
 30
0.0
 11
217.545724
 21
325.545411
 31
0.0
  0
LINE
  5
583
330
57F
100
AcDbEntity
  8
LC-002-100-D00-0
 62
     7
370
    25
100
AcDbLine
 10
216.545724
 20
315.565151
 30
0.0
 11
217.545724
 21
316.565151
 31
0.0
  0
LINE
  5
584
330
57F
100
AcDbEntity
  8
LC-002-100-D00-0
 62
     7
370
    25
100
AcDbLine
 10
216.545724
 20
306.584891
 30
0.0
 11
217.545724
 21
307.584891
 31
0.0
  0
LINE
  5
585
330
57F
100
AcDbEntity
  8
LC-002-100-D00-0
 62
     7
370
    25
100
AcDbLine
 10
216.545724
 20
297.604611
 30
0.0
 11
217.545724
 21
298.604611
 31
0.0
  0
ENDBLK
  5
581
330
57F
100
AcDbEntity
  8
0
100
AcDbBlockEnd
  0
BLOCK
  5
588
330
587
100
AcDbEntity
  8
0
100
AcDbBlockBegin
  2
KLON37
 70
     0
 71
     0
 10
0.0
 20
0.0
 30
0.0
  3
KLON37
  1

  4
KLON37
  0
LINE
  5
58A
330
587
100
AcDbEntity
  8
LC-002-100-D00-0
 62
     7
370
    25
100
AcDbLine
 10
175.545723
 20
337.426948
 30
0.0
 11
176.545723
 21
338.426948
 31
0.0
  0
LINE
  5
58B
330
587
100
AcDbEntity
  8
LC-002-100-D00-0
 62
     7
370
    25
100
AcDbLine
 10
175.545723
 20
328.446688
 30
0.0
 11
176.545723
 21
329.446688
 31
0.0
  0
LINE
  5
58C
330
587
100
AcDbEntity
  8
LC-002-100-D00-0
 62
     7
370
    25
100
AcDbLine
 10
154.745724
 20
361.528225
 30
0.0
 11
156.027571
 21
362.810072
 31
0.0
  0
LINE
  5
58D
330
587
100
AcDbEntity
  8
LC-002-100-D00-0
 62
     7
370
    25
100
AcDbLine
 10
156.045724
 20
362.828225
 30
0.0
 11
159.90928
 21
366.691781
 31
0.0
  0
LINE
  5
58E
330
587
100
AcDbEntity
  8
LC-002-100-D00-0
 62
     7
370
    25
100
AcDbLine
 10
175.545723
 20
319.466428
 30
0.0
 11
176.545723
 21
320.466428
 31
0.0
  0
LINE
  5
58F
330
587
100
AcDbEntity
  8
LC-002-100-D00-0
 62
     7
370
    25
100
AcDbLine
 10
158.045724
 20
355.847965
 30
0.0
 11
160.295724
 21
358.097965
 31
0.0
  0
LINE
  5
590
330
587
100
AcDbEntity
  8
LC-002-100-D00-0
 62
     7
370
    25
100
AcDbLine
 10
175.545723
 20
310.486148
 30
0.0
 11
176.545723
 21
311.486148
 31
0.0
  0
LINE
  5
591
330
587
100
AcDbEntity
  8
LC-002-100-D00-0
 62
     7
370
    25
100
AcDbLine
 10
166.192565
 20
355.014526
 30
0.0
 11
167.172083
 21
355.994044
 31
0.0
  0
ENDBLK
  5
589
330
587
100
AcDbEntity
  8
0
100
AcDbBlockEnd
  0
BLOCK
  5
594
330
593
100
AcDbEntity
  8
0
100
AcDbBlockBegin
  2
KLON38
 70
     0
 71
     0
 10
0.0
 20
0.0
 30
0.0
  3
KLON38
  1

  4
KLON38
  0
LINE
  5
596
330
593
100
AcDbEntity
  8
LC-002-100-D00-0
 62
     7
370
    25
100
AcDbLine
 10
218.545724
 20
102.039008
 30
0.0
 11
221.545724
 21
105.039008
 31
0.0
  0
LINE
  5
597
330
593
100
AcDbEntity
  8
LC-002-100-D00-0
 62
     7
370
    25
100
AcDbLine
 10
218.545724
 20
111.019264
 30
0.0
 11
221.545724
 21
114.019264
 31
0.0
  0
LINE
  5
598
330
593
100
AcDbEntity
  8
LC-002-100-D00-0
 62
     7
370
    25
100
AcDbLine
 10
218.545724
 20
119.99952
 30
0.0
 11
221.545724
 21
122.99952
 31
0.0
  0
LINE
  5
599
330
593
100
AcDbEntity
  8
LC-002-100-D00-0
 62
     7
370
    25
100
AcDbLine
 10
218.545724
 20
128.979777
 30
0.0
 11
221.545724
 21
131.979777
 31
0.0
  0
LINE
  5
59A
330
593
100
AcDbEntity
  8
LC-002-100-D00-0
 62
     7
370
    25
100
AcDbLine
 10
243.276019
 20
153.710072
 30
0.0
 11
249.193414
 21
159.627467
 31
0.0
  0
LINE
  5
59B
330
593
100
AcDbEntity
  8
LC-002-100-D00-0
 62
     7
370
    25
100
AcDbLine
 10
218.545724
 20
137.960033
 30
0.0
 11
221.545724
 21
140.960033
 31
0.0
  0
LINE
  5
59C
330
593
100
AcDbEntity
  8
LC-002-100-D00-0
 62
     7
370
    25
100
AcDbLine
 10
234.295763
 20
153.710072
 30
0.0
 11
236.795763
 21
156.210072
 31
0.0
  0
LINE
  5
59D
330
593
100
AcDbEntity
  8
LC-002-100-D00-0
 62
     7
370
    25
100
AcDbLine
 10
248.38236
 20
167.796669
 30
0.0
 11
251.545724
 21
170.960033
 31
0.0
  0
LINE
  5
59E
330
593
100
AcDbEntity
  8
LC-002-100-D00-0
 62
     7
370
    25
100
AcDbLine
 10
218.545724
 20
146.940289
 30
0.0
 11
221.545724
 21
149.940289
 31
0.0
  0
LINE
  5
59F
330
593
100
AcDbEntity
  8
LC-002-100-D00-0
 62
     7
370
    25
100
AcDbLine
 10
225.315507
 20
153.710072
 30
0.0
 11
227.815507
 21
156.210072
 31
0.0
  0
LINE
  5
5A0
330
593
100
AcDbEntity
  8
LC-002-100-D00-0
 62
     7
370
    25
100
AcDbLine
 10
248.545724
 20
176.940289
 30
0.0
 11
251.545724
 21
179.940289
 31
0.0
  0
LINE
  5
5A1
330
593
100
AcDbEntity
  8
LC-002-100-D00-0
 62
     7
370
    25
100
AcDbLine
 10
218.545724
 20
155.920545
 30
0.0
 11
218.83525
 21
156.210072
 31
0.0
  0
LINE
  5
5A2
330
593
100
AcDbEntity
  8
LC-002-100-D00-0
 62
     7
370
    25
100
AcDbLine
 10
248.545724
 20
185.920545
 30
0.0
 11
251.545724
 21
188.920545
 31
0.0
  0
LINE
  5
5A3
330
593
100
AcDbEntity
  8
LC-002-100-D00-0
 62
     7
370
    25
100
AcDbLine
 10
305.325701
 20
242.700522
 30
0.0
 11
309.005357
 21
246.380179
 31
0.0
  0
LINE
  5
5A4
330
593
100
AcDbEntity
  8
LC-002-100-D00-0
 62
     7
370
    25
100
AcDbLine
 10
248.545724
 20
194.900801
 30
0.0
 11
251.545724
 21
197.900801
 31
0.0
  0
LINE
  5
5A5
330
593
100
AcDbEntity
  8
LC-002-100-D00-0
 62
     7
370
    25
100
AcDbLine
 10
293.66545
 20
240.020527
 30
0.0
 11
298.937066
 21
245.292143
 31
0.0
  0
LINE
  5
5A6
330
593
100
AcDbEntity
  8
LC-002-100-D00-0
 62
     7
370
    25
100
AcDbLine
 10
248.545724
 20
203.881057
 30
0.0
 11
251.545724
 21
206.881057
 31
0.0
  0
LINE
  5
5A7
330
593
100
AcDbEntity
  8
LC-002-100-D00-0
 62
     7
370
    25
100
AcDbLine
 10
255.374738
 20
210.710072
 30
0.0
 11
259.545724
 21
214.881057
 31
0.0
  0
LINE
  5
5A8
330
593
100
AcDbEntity
  8
LC-002-100-D00-0
 62
     7
370
    25
100
AcDbLine
 10
269.043094
 20
224.378428
 30
0.0
 11
272.545724
 21
227.881057
 31
0.0
  0
LINE
  5
5A9
330
593
100
AcDbEntity
  8
LC-002-100-D00-0
 62
     7
370
    25
100
AcDbLine
 10
278.800195
 20
234.135529
 30
0.0
 11
286.002235
 21
241.337569
 31
0.0
  0
LINE
  5
5AA
330
593
100
AcDbEntity
  8
LC-002-100-D00-0
 62
     7
370
    25
100
AcDbLine
 10
248.545724
 20
212.861313
 30
0.0
 11
249.394482
 21
213.710072
 31
0.0
  0
LINE
  5
5AB
330
593
100
AcDbEntity
  8
LC-002-100-D00-0
 62
     7
370
    25
100
AcDbLine
 10
256.545724
 20
220.861313
 30
0.0
 11
259.545724
 21
223.861313
 31
0.0
  0
LINE
  5
5AC
330
593
100
AcDbEntity
  8
LC-002-100-D00-0
 62
     7
370
    25
100
AcDbLine
 10
260.319939
 20
224.635529
 30
0.0
 11
264.045724
 21
228.361313
 31
0.0
  0
LINE
  5
5AD
330
593
100
AcDbEntity
  8
LC-002-100-D00-0
 62
     7
370
    25
100
AcDbLine
 10
269.045724
 20
233.361313
 30
0.0
 11
272.545724
 21
236.861313
 31
0.0
  0
LINE
  5
5AE
330
593
100
AcDbEntity
  8
LC-002-100-D00-0
 62
     7
370
    25
100
AcDbLine
 10
256.545724
 20
229.841569
 30
0.0
 11
264.045724
 21
237.341569
 31
0.0
  0
LINE
  5
5AF
330
593
100
AcDbEntity
  8
LC-002-100-D00-0
 62
     7
370
    25
100
AcDbLine
 10
256.545724
 20
238.821825
 30
0.0
 11
259.199047
 21
241.475149
 31
0.0
  0
ENDBLK
  5
595
330
593
100
AcDbEntity
  8
0
100
AcDbBlockEnd
  0
BLOCK
  5
5B2
330
5B1
100
AcDbEntity
  8
0
100
AcDbBlockBegin
  2
KLON39
 70
     0
 71
     0
 10
0.0
 20
0.0
 30
0.0
  3
KLON39
  1

  4
KLON39
  0
LINE
  5
5B4
330
5B1
100
AcDbEntity
  8
LC-002-100-D00-0
 62
     7
370
    25
100
AcDbLine
 10
171.545724
 20
99.940289
 30
0.0
 11
174.545724
 21
102.940289
 31
0.0
  0
LINE
  5
5B5
330
5B1
100
AcDbEntity
  8
LC-002-100-D00-0
 62
     7
370
    25
100
AcDbLine
 10
171.545724
 20
108.920545
 30
0.0
 11
174.545724
 21
111.920545
 31
0.0
  0
LINE
  5
5B6
330
5B1
100
AcDbEntity
  8
LC-002-100-D00-0
 62
     7
370
    25
100
AcDbLine
 10
171.545724
 20
117.900801
 30
0.0
 11
174.545724
 21
120.900801
 31
0.0
  0
LINE
  5
5B7
330
5B1
100
AcDbEntity
  8
LC-002-100-D00-0
 62
     7
370
    25
100
AcDbLine
 10
171.545724
 20
126.881057
 30
0.0
 11
174.545724
 21
129.881057
 31
0.0
  0
LINE
  5
5B8
330
5B1
100
AcDbEntity
  8
LC-002-100-D00-0
 62
     7
370
    25
100
AcDbLine
 10
171.545724
 20
135.861313
 30
0.0
 11
174.545724
 21
138.861313
 31
0.0
  0
LINE
  5
5B9
330
5B1
100
AcDbEntity
  8
LC-002-100-D00-0
 62
     7
370
    25
100
AcDbLine
 10
171.545724
 20
144.841569
 30
0.0
 11
174.545724
 21
147.841569
 31
0.0
  0
LINE
  5
5BA
330
5B1
100
AcDbEntity
  8
LC-002-100-D00-0
 62
     7
370
    25
100
AcDbLine
 10
171.43397
 20
153.710072
 30
0.0
 11
173.93397
 21
156.210072
 31
0.0
  0
LINE
  5
5BB
330
5B1
100
AcDbEntity
  8
LC-002-100-D00-0
 62
     7
370
    25
100
AcDbLine
 10
162.453714
 20
153.710072
 30
0.0
 11
164.953714
 21
156.210072
 31
0.0
  0
LINE
  5
5BC
330
5B1
100
AcDbEntity
  8
LC-002-100-D00-0
 62
     7
370
    25
100
AcDbLine
 10
153.473458
 20
153.710072
 30
0.0
 11
155.973458
 21
156.210072
 31
0.0
  0
LINE
  5
5BD
330
5B1
100
AcDbEntity
  8
LC-002-100-D00-0
 62
     7
370
    25
100
AcDbLine
 10
145.523115
 20
154.739985
 30
0.0
 11
147.934036
 21
157.150907
 31
0.0
  0
LINE
  5
5BE
330
5B1
100
AcDbEntity
  8
LC-002-100-D00-0
 62
     7
370
    25
100
AcDbLine
 10
143.376545
 20
161.573671
 30
0.0
 11
145.74258
 21
163.939706
 31
0.0
  0
LINE
  5
5BF
330
5B1
100
AcDbEntity
  8
LC-002-100-D00-0
 62
     7
370
    25
100
AcDbLine
 10
141.545724
 20
168.723106
 30
0.0
 11
144.545724
 21
171.723106
 31
0.0
  0
LINE
  5
5C0
330
5B1
100
AcDbEntity
  8
LC-002-100-D00-0
 62
     7
370
    25
100
AcDbLine
 10
141.545724
 20
177.703362
 30
0.0
 11
144.545724
 21
180.703362
 31
0.0
  0
LINE
  5
5C1
330
5B1
100
AcDbEntity
  8
LC-002-100-D00-0
 62
     7
370
    25
100
AcDbLine
 10
141.545724
 20
186.683618
 30
0.0
 11
144.545724
 21
189.683618
 31
0.0
  0
LINE
  5
5C2
330
5B1
100
AcDbEntity
  8
LC-002-100-D00-0
 62
     7
370
    25
100
AcDbLine
 10
141.545724
 20
195.663874
 30
0.0
 11
144.545724
 21
198.663874
 31
0.0
  0
LINE
  5
5C3
330
5B1
100
AcDbEntity
  8
LC-002-100-D00-0
 62
     7
370
    25
100
AcDbLine
 10
141.545724
 20
204.644131
 30
0.0
 11
144.545724
 21
207.644131
 31
0.0
  0
LINE
  5
5C4
330
5B1
100
AcDbEntity
  8
LC-002-100-D00-0
 62
     7
370
    25
100
AcDbLine
 10
138.631409
 20
210.710072
 30
0.0
 11
141.631409
 21
213.710072
 31
0.0
  0
LINE
  5
5C5
330
5B1
100
AcDbEntity
  8
LC-002-100-D00-0
 62
     7
370
    25
100
AcDbLine
 10
133.545724
 20
214.604643
 30
0.0
 11
136.545724
 21
217.604643
 31
0.0
  0
LINE
  5
5C6
330
5B1
100
AcDbEntity
  8
LC-002-100-D00-0
 62
     7
370
    25
100
AcDbLine
 10
133.545724
 20
223.584899
 30
0.0
 11
136.545724
 21
226.584899
 31
0.0
  0
LINE
  5
5C7
330
5B1
100
AcDbEntity
  8
LC-002-100-D00-0
 62
     7
370
    25
100
AcDbLine
 10
124.951579
 20
223.97101
 30
0.0
 11
127.955645
 21
226.975076
 31
0.0
  0
LINE
  5
5C8
330
5B1
100
AcDbEntity
  8
LC-002-100-D00-0
 62
     7
370
    25
100
AcDbLine
 10
129.045724
 20
228.065155
 30
0.0
 11
136.545724
 21
235.565155
 31
0.0
  0
LINE
  5
5C9
330
5B1
100
AcDbEntity
  8
LC-002-100-D00-0
 62
     7
370
    25
100
AcDbLine
 10
120.545724
 20
228.545411
 30
0.0
 11
124.045724
 21
232.045411
 31
0.0
  0
LINE
  5
5CA
330
5B1
100
AcDbEntity
  8
LC-002-100-D00-0
 62
     7
370
    25
100
AcDbLine
 10
129.045724
 20
237.045411
 30
0.0
 11
131.975389
 21
239.975076
 31
0.0
  0
LINE
  5
5CB
330
5B1
100
AcDbEntity
  8
LC-002-100-D00-0
 62
     7
370
    25
100
AcDbLine
 10
132.545724
 20
240.545411
 30
0.0
 11
133.475461
 21
241.475149
 31
0.0
  0
LINE
  5
5CC
330
5B1
100
AcDbEntity
  8
LC-002-100-D00-0
 62
     7
370
    25
100
AcDbLine
 10
133.545724
 20
241.545411
 30
0.0
 11
135.545724
 21
243.545411
 31
0.0
  0
LINE
  5
5CD
330
5B1
100
AcDbEntity
  8
LC-002-100-D00-0
 62
     7
370
    25
100
AcDbLine
 10
117.155585
 20
234.135529
 30
0.0
 11
119.495133
 21
236.475076
 31
0.0
  0
LINE
  5
5CE
330
5B1
100
AcDbEntity
  8
LC-002-100-D00-0
 62
     7
370
    25
100
AcDbLine
 10
120.545724
 20
237.525667
 30
0.0
 11
122.995133
 21
239.975076
 31
0.0
  0
LINE
  5
5CF
330
5B1
100
AcDbEntity
  8
LC-002-100-D00-0
 62
     7
370
    25
100
AcDbLine
 10
110.633768
 20
236.593968
 30
0.0
 11
113.545724
 21
239.505923
 31
0.0
  0
LINE
  5
5D0
330
5B1
100
AcDbEntity
  8
LC-002-100-D00-0
 62
     7
370
    25
100
AcDbLine
 10
103.756197
 20
238.696653
 30
0.0
 11
106.559165
 21
241.49962
 31
0.0
  0
LINE
  5
5D1
330
5B1
100
AcDbEntity
  8
LC-002-100-D00-0
 62
     7
370
    25
100
AcDbLine
 10
96.878625
 20
240.799337
 30
0.0
 11
99.681593
 21
243.602305
 31
0.0
  0
LINE
  5
5D2
330
5B1
100
AcDbEntity
  8
LC-002-100-D00-0
 62
     7
370
    25
100
AcDbLine
 10
89.731812
 20
242.63278
 30
0.0
 11
92.804022
 21
245.70499
 31
0.0
  0
LINE
  5
5D3
330
5B1
100
AcDbEntity
  8
LC-002-100-D00-0
 62
     7
370
    25
100
AcDbLine
 10
82.045724
 20
243.926948
 30
0.0
 11
84.485871
 21
246.367096
 31
0.0
  0
ENDBLK
  5
5B3
330
5B1
100
AcDbEntity
  8
0
100
AcDbBlockEnd
  0
BLOCK
  5
5D6
330
5D5
100
AcDbEntity
  8
0
100
AcDbBlockBegin
  2
KLON40
 70
     0
 71
     0
 10
0.0
 20
0.0
 30
0.0
  3
KLON40
  1

  4
KLON40
  0
LINE
  5
5D8
330
5D5
100
AcDbEntity
  8
LC-002-100-D00-0
 62
     7
370
    25
100
AcDbLine
 10
248.845724
 20
222.141569
 30
0.0
 11
251.545724
 21
224.841569
 31
0.0
  0
LINE
  5
5D9
330
5D5
100
AcDbEntity
  8
LC-002-100-D00-0
 62
     7
370
    25
100
AcDbLine
 10
248.845724
 20
231.121825
 30
0.0
 11
251.545724
 21
233.821825
 31
0.0
  0
LINE
  5
5DA
330
5D5
100
AcDbEntity
  8
LC-002-100-D00-0
 62
     7
370
    25
100
AcDbLine
 10
248.845724
 20
240.102082
 30
0.0
 11
251.545724
 21
242.802082
 31
0.0
  0
LINE
  5
5DB
330
5D5
100
AcDbEntity
  8
LC-002-100-D00-0
 62
     7
370
    25
100
AcDbLine
 10
248.845724
 20
249.082338
 30
0.0
 11
251.545724
 21
251.782338
 31
0.0
  0
LINE
  5
5DC
330
5D5
100
AcDbEntity
  8
LC-002-100-D00-0
 62
     7
370
    25
100
AcDbLine
 10
248.845724
 20
258.062594
 30
0.0
 11
251.545724
 21
260.762594
 31
0.0
  0
LINE
  5
5DD
330
5D5
100
AcDbEntity
  8
LC-002-100-D00-0
 62
     7
370
    25
100
AcDbLine
 10
248.845724
 20
267.04285
 30
0.0
 11
251.545724
 21
269.74285
 31
0.0
  0
LINE
  5
5DE
330
5D5
100
AcDbEntity
  8
LC-002-100-D00-0
 62
     7
370
    25
100
AcDbLine
 10
248.845724
 20
276.023106
 30
0.0
 11
251.545724
 21
278.723106
 31
0.0
  0
LINE
  5
5DF
330
5D5
100
AcDbEntity
  8
LC-002-100-D00-0
 62
     7
370
    25
100
AcDbLine
 10
248.845724
 20
285.003362
 30
0.0
 11
251.545724
 21
287.703362
 31
0.0
  0
LINE
  5
5E0
330
5D5
100
AcDbEntity
  8
LC-002-100-D00-0
 62
     7
370
    25
100
AcDbLine
 10
248.845724
 20
293.983618
 30
0.0
 11
251.545724
 21
296.683618
 31
0.0
  0
LINE
  5
5E1
330
5D5
100
AcDbEntity
  8
LC-002-100-D00-0
 62
     7
370
    25
100
AcDbLine
 10
248.845724
 20
302.963874
 30
0.0
 11
251.545724
 21
305.663874
 31
0.0
  0
LINE
  5
5E2
330
5D5
100
AcDbEntity
  8
LC-002-100-D00-0
 62
     7
370
    25
100
AcDbLine
 10
248.845724
 20
311.944131
 30
0.0
 11
251.545724
 21
314.644131
 31
0.0
  0
LINE
  5
5E3
330
5D5
100
AcDbEntity
  8
LC-002-100-D00-0
 62
     7
370
    25
100
AcDbLine
 10
304.111665
 20
367.210072
 30
0.0
 11
306.111665
 21
369.210072
 31
0.0
  0
LINE
  5
5E4
330
5D5
100
AcDbEntity
  8
LC-002-100-D00-0
 62
     7
370
    25
100
AcDbLine
 10
306.545724
 20
369.644131
 30
0.0
 11
306.611665
 21
369.710072
 31
0.0
  0
LINE
  5
5E5
330
5D5
100
AcDbEntity
  8
LC-002-100-D00-0
 62
     7
370
    25
100
AcDbLine
 10
248.845724
 20
320.924387
 30
0.0
 11
251.545724
 21
323.624387
 31
0.0
  0
LINE
  5
5E6
330
5D5
100
AcDbEntity
  8
LC-002-100-D00-0
 62
     7
370
    25
100
AcDbLine
 10
295.131409
 20
367.210072
 30
0.0
 11
297.131409
 21
369.210072
 31
0.0
  0
LINE
  5
5E7
330
5D5
100
AcDbEntity
  8
LC-002-100-D00-0
 62
     7
370
    25
100
AcDbLine
 10
248.845724
 20
329.904643
 30
0.0
 11
251.545724
 21
332.604643
 31
0.0
  0
LINE
  5
5E8
330
5D5
100
AcDbEntity
  8
LC-002-100-D00-0
 62
     7
370
    25
100
AcDbLine
 10
286.151153
 20
367.210072
 30
0.0
 11
288.151153
 21
369.210072
 31
0.0
  0
LINE
  5
5E9
330
5D5
100
AcDbEntity
  8
LC-002-100-D00-0
 62
     7
370
    25
100
AcDbLine
 10
248.845724
 20
338.884899
 30
0.0
 11
251.545724
 21
341.584899
 31
0.0
  0
LINE
  5
5EA
330
5D5
100
AcDbEntity
  8
LC-002-100-D00-0
 62
     7
370
    25
100
AcDbLine
 10
277.170896
 20
367.210072
 30
0.0
 11
279.170896
 21
369.210072
 31
0.0
  0
LINE
  5
5EB
330
5D5
100
AcDbEntity
  8
LC-002-100-D00-0
 62
     7
370
    25
100
AcDbLine
 10
248.845724
 20
347.865155
 30
0.0
 11
255.143401
 21
354.162833
 31
0.0
  0
LINE
  5
5EC
330
5D5
100
AcDbEntity
  8
LC-002-100-D00-0
 62
     7
370
    25
100
AcDbLine
 10
268.19064
 20
367.210072
 30
0.0
 11
270.19064
 21
369.210072
 31
0.0
  0
LINE
  5
5ED
330
5D5
100
AcDbEntity
  8
LC-002-100-D00-0
 62
     7
370
    25
100
AcDbLine
 10
255.956456
 20
363.956143
 30
0.0
 11
261.210384
 21
369.210072
 31
0.0
  0
ENDBLK
  5
5D7
330
5D5
100
AcDbEntity
  8
0
100
AcDbBlockEnd
  0
BLOCK
  5
5F0
330
5EF
100
AcDbEntity
  8
0
100
AcDbBlockBegin
  2
KLON41
 70
     0
 71
     0
 10
0.0
 20
0.0
 30
0.0
  3
KLON41
  1

  4
KLON41
  0
LINE
  5
5F2
330
5EF
100
AcDbEntity
  8
LC-002-100-D00-0
 62
     7
370
    25
100
AcDbLine
 10
141.673666
 20
222.732585
 30
0.0
 11
144.245724
 21
225.304643
 31
0.0
  0
LINE
  5
5F3
330
5EF
100
AcDbEntity
  8
LC-002-100-D00-0
 62
     7
370
    25
100
AcDbLine
 10
141.545724
 20
231.584899
 30
0.0
 11
144.245724
 21
234.284899
 31
0.0
  0
LINE
  5
5F4
330
5EF
100
AcDbEntity
  8
LC-002-100-D00-0
 62
     7
370
    25
100
AcDbLine
 10
141.545724
 20
240.565155
 30
0.0
 11
144.245724
 21
243.265155
 31
0.0
  0
LINE
  5
5F5
330
5EF
100
AcDbEntity
  8
LC-002-100-D00-0
 62
     7
370
    25
100
AcDbLine
 10
141.545724
 20
249.545411
 30
0.0
 11
144.245724
 21
252.245411
 31
0.0
  0
LINE
  5
5F6
330
5EF
100
AcDbEntity
  8
LC-002-100-D00-0
 62
     7
370
    25
100
AcDbLine
 10
141.545724
 20
258.525667
 30
0.0
 11
144.245724
 21
261.225667
 31
0.0
  0
LINE
  5
5F7
330
5EF
100
AcDbEntity
  8
LC-002-100-D00-0
 62
     7
370
    25
100
AcDbLine
 10
141.545724
 20
267.505923
 30
0.0
 11
144.245724
 21
270.205923
 31
0.0
  0
LINE
  5
5F8
330
5EF
100
AcDbEntity
  8
LC-002-100-D00-0
 62
     7
370
    25
100
AcDbLine
 10
141.545724
 20
276.48618
 30
0.0
 11
144.245724
 21
279.18618
 31
0.0
  0
LINE
  5
5F9
330
5EF
100
AcDbEntity
  8
LC-002-100-D00-0
 62
     7
370
    25
100
AcDbLine
 10
141.545724
 20
285.466436
 30
0.0
 11
144.245724
 21
288.166436
 31
0.0
  0
LINE
  5
5FA
330
5EF
100
AcDbEntity
  8
LC-002-100-D00-0
 62
     7
370
    25
100
AcDbLine
 10
141.545724
 20
294.446692
 30
0.0
 11
144.245724
 21
297.146692
 31
0.0
  0
LINE
  5
5FB
330
5EF
100
AcDbEntity
  8
LC-002-100-D00-0
 62
     7
370
    25
100
AcDbLine
 10
141.545724
 20
303.426948
 30
0.0
 11
144.245724
 21
306.126948
 31
0.0
  0
LINE
  5
5FC
330
5EF
100
AcDbEntity
  8
LC-002-100-D00-0
 62
     7
370
    25
100
AcDbLine
 10
141.545724
 20
312.407204
 30
0.0
 11
144.245724
 21
315.107204
 31
0.0
  0
LINE
  5
5FD
330
5EF
100
AcDbEntity
  8
LC-002-100-D00-0
 62
     7
370
    25
100
AcDbLine
 10
141.545724
 20
321.38746
 30
0.0
 11
144.245724
 21
324.08746
 31
0.0
  0
LINE
  5
5FE
330
5EF
100
AcDbEntity
  8
LC-002-100-D00-0
 62
     7
370
    25
100
AcDbLine
 10
141.545724
 20
330.367716
 30
0.0
 11
144.245724
 21
333.067716
 31
0.0
  0
LINE
  5
5FF
330
5EF
100
AcDbEntity
  8
LC-002-100-D00-0
 62
     7
370
    25
100
AcDbLine
 10
141.545724
 20
339.347972
 30
0.0
 11
144.245724
 21
342.047972
 31
0.0
  0
LINE
  5
600
330
5EF
100
AcDbEntity
  8
LC-002-100-D00-0
 62
     7
370
    25
100
AcDbLine
 10
140.88597
 20
347.668475
 30
0.0
 11
143.867675
 21
350.65018
 31
0.0
  0
LINE
  5
601
330
5EF
100
AcDbEntity
  8
LC-002-100-D00-0
 62
     7
370
    25
100
AcDbLine
 10
138.088841
 20
353.851602
 30
0.0
 11
140.566906
 21
356.329667
 31
0.0
  0
LINE
  5
602
330
5EF
100
AcDbEntity
  8
LC-002-100-D00-0
 62
     7
370
    25
100
AcDbLine
 10
135.291712
 20
360.034729
 30
0.0
 11
137.77993
 21
362.522947
 31
0.0
  0
LINE
  5
603
330
5EF
100
AcDbEntity
  8
LC-002-100-D00-0
 62
     7
370
    25
100
AcDbLine
 10
132.494583
 20
366.217856
 30
0.0
 11
135.486798
 21
369.210072
 31
0.0
  0
LINE
  5
604
330
5EF
100
AcDbEntity
  8
LC-002-100-D00-0
 62
     7
370
    25
100
AcDbLine
 10
124.506542
 20
367.210072
 30
0.0
 11
126.506542
 21
369.210072
 31
0.0
  0
LINE
  5
605
330
5EF
100
AcDbEntity
  8
LC-002-100-D00-0
 62
     7
370
    25
100
AcDbLine
 10
115.526286
 20
367.210072
 30
0.0
 11
117.526286
 21
369.210072
 31
0.0
  0
LINE
  5
606
330
5EF
100
AcDbEntity
  8
LC-002-100-D00-0
 62
     7
370
    25
100
AcDbLine
 10
106.54603
 20
367.210072
 30
0.0
 11
108.54603
 21
369.210072
 31
0.0
  0
LINE
  5
607
330
5EF
100
AcDbEntity
  8
LC-002-100-D00-0
 62
     7
370
    25
100
AcDbLine
 10
97.565774
 20
367.210072
 30
0.0
 11
99.565774
 21
369.210072
 31
0.0
  0
LINE
  5
608
330
5EF
100
AcDbEntity
  8
LC-002-100-D00-0
 62
     7
370
    25
100
AcDbLine
 10
88.585518
 20
367.210072
 30
0.0
 11
90.585518
 21
369.210072
 31
0.0
  0
ENDBLK
  5
5F1
330
5EF
100
AcDbEntity
  8
0
100
AcDbBlockEnd
  0
BLOCK
  5
60D
330
60C
100
AcDbEntity
  8
0
100
AcDbBlockBegin
  2
KLON42
 70
     0
 71
     0
 10
0.0
 20
0.0
 30
0.0
  3
KLON42
  1

  4
KLON42
  0
LINE
  5
60F
330
60C
100
AcDbEntity
  8
LC-002-100-D00-0
 62
     7
370
    50
100
AcDbLine
 10
135.486798
 20
369.210072
 30
0.0
 11
135.986798
 21
369.710072
 31
0.0
  0
LINE
  5
610
330
60C
100
AcDbEntity
  8
LC-002-100-D00-0
 62
     7
370
    50
100
AcDbLine
 10
126.506542
 20
369.210072
 30
0.0
 11
127.006542
 21
369.710072
 31
0.0
  0
LINE
  5
611
330
60C
100
AcDbEntity
  8
LC-002-100-D00-0
 62
     7
370
    50
100
AcDbLine
 10
117.526286
 20
369.210072
 30
0.0
 11
118.026286
 21
369.710072
 31
0.0
  0
LINE
  5
612
330
60C
100
AcDbEntity
  8
LC-002-100-D00-0
 62
     7
370
    50
100
AcDbLine
 10
108.54603
 20
369.210072
 30
0.0
 11
109.04603
 21
369.710072
 31
0.0
  0
LINE
  5
613
330
60C
100
AcDbEntity
  8
LC-002-100-D00-0
 62
     7
370
    50
100
AcDbLine
 10
99.565774
 20
369.210072
 30
0.0
 11
100.065774
 21
369.710072
 31
0.0
  0
LINE
  5
614
330
60C
100
AcDbEntity
  8
LC-002-100-D00-0
 62
     7
370
    50
100
AcDbLine
 10
90.585518
 20
369.210072
 30
0.0
 11
91.085518
 21
369.710072
 31
0.0
  0
ENDBLK
  5
60E
330
60C
100
AcDbEntity
  8
0
100
AcDbBlockEnd
  0
BLOCK
  5
617
330
616
100
AcDbEntity
  8
0
100
AcDbBlockBegin
  2
KLON43
 70
     0
 71
     0
 10
0.0
 20
0.0
 30
0.0
  3
KLON43
  1

  4
KLON43
  0
LINE
  5
619
330
616
100
AcDbEntity
  8
LC-002-100-D00-0
 62
     7
370
    50
100
AcDbLine
 10
306.111665
 20
369.210072
 30
0.0
 11
306.545724
 21
369.644131
 31
0.0
  0
LINE
  5
61A
330
616
100
AcDbEntity
  8
LC-002-100-D00-0
 62
     7
370
    50
100
AcDbLine
 10
297.131409
 20
369.210072
 30
0.0
 11
297.631409
 21
369.710072
 31
0.0
  0
LINE
  5
61B
330
616
100
AcDbEntity
  8
LC-002-100-D00-0
 62
     7
370
    50
100
AcDbLine
 10
288.151153
 20
369.210072
 30
0.0
 11
288.651153
 21
369.710072
 31
0.0
  0
LINE
  5
61C
330
616
100
AcDbEntity
  8
LC-002-100-D00-0
 62
     7
370
    50
100
AcDbLine
 10
279.170896
 20
369.210072
 30
0.0
 11
279.670896
 21
369.710072
 31
0.0
  0
LINE
  5
61D
330
616
100
AcDbEntity
  8
LC-002-100-D00-0
 62
     7
370
    50
100
AcDbLine
 10
270.19064
 20
369.210072
 30
0.0
 11
270.69064
 21
369.710072
 31
0.0
  0
LINE
  5
61E
330
616
100
AcDbEntity
  8
LC-002-100-D00-0
 62
     7
370
    50
100
AcDbLine
 10
261.210384
 20
369.210072
 30
0.0
 11
261.710384
 21
369.710072
 31
0.0
  0
ENDBLK
  5
618
330
616
100
AcDbEntity
  8
0
100
AcDbBlockEnd
  0
BLOCK
  5
630
330
625
100
AcDbEntity
  8
0
100
AcDbBlockBegin
  2
*D73
 70
     1
 71
     0
 10
0.0
 20
0.0
 30
0.0
  3
*D73
  1

  0
LINE
  5
626
330
625
100
AcDbEntity
  8
LC-003-003-----0
 62
     2
370
    -2
100
AcDbLine
 10
66.545728
 20
369.710061
 30
0.0
 11
49.872099
 21
369.710061
 31
0.0
  0
LINE
  5
627
330
625
100
AcDbEntity
  8
LC-003-003-----0
 62
     2
370
    -2
100
AcDbLine
 10
78.533624
 20
351.710072
 30
0.0
 11
49.872099
 21
351.710072
 31
0.0
  0
LINE
  5
628
330
625
100
AcDbEntity
  8
LC-003-003-----0
 62
     2
370
    -2
100
AcDbLine
 10
53.472099
 20
397.710061
 30
0.0
 11
53.472099
 21
425.710061
 31
0.0
  0
LINE
  5
629
330
625
100
AcDbEntity
  8
LC-003-003-----0
 62
     2
370
    -2
100
AcDbLine
 10
53.472099
 20
323.710072
 30
0.0
 11
53.472099
 21
289.849614
 31
0.0
  0
SOLID
  5
62A
330
625
100
AcDbEntity
  8
LC-003-003-----0
 62
     2
100
AcDbTrace
 10
48.805432
 20
397.710061
 30
0.0
 11
58.138765
 21
397.710061
 31
0.0
 12
53.472099
 22
369.710061
 32
0.0
 13
53.472099
 23
369.710061
 33
0.0
  0
SOLID
  5
62B
330
625
100
AcDbEntity
  8
LC-003-003-----0
 62
     2
100
AcDbTrace
 10
58.138765
 20
323.710072
 30
0.0
 11
48.805432
 21
323.710072
 31
0.0
 12
53.472099
 22
351.710072
 32
0.0
 13
53.472099
 23
351.710072
 33
0.0
  0
MTEXT
  5
62C
330
625
100
AcDbEntity
  8
LC-003-003-----0
 62
     2
100
AcDbMText
 10
22.672099
 20
309.398337
 30
0.0
 40
28.0
 41
0.0
 71
     5
 72
     1
  1
\A1;18
  7
LCTX15-400-0-0pDIN-Schrift
 11
6.123031769111886E-17
 21
1.0
 31
0.0
 73
     1
 44
1.0
  0
POINT
  5
62D
330
625
100
AcDbEntity
  8
Defpoints
 62
     0
100
AcDbPoint
 10
66.545728
 20
369.710061
 30
0.0
  0
POINT
  5
62E
330
625
100
AcDbEntity
  8
Defpoints
 62
     0
100
AcDbPoint
 10
78.533624
 20
351.710072
 30
0.0
  0
POINT
  5
62F
330
625
100
AcDbEntity
  8
Defpoints
 62
     0
100
AcDbPoint
 10
53.472099
 20
351.710072
 30
0.0
  0
ENDBLK
  5
631
330
625
100
AcDbEntity
  8
0
100
AcDbBlockEnd
  0
BLOCK
  5
63E
330
633
100
AcDbEntity
  8
0
100
AcDbBlockBegin
  2
*D74
 70
     1
 71
     0
 10
0.0
 20
0.0
 30
0.0
  3
*D74
  1

  0
LINE
  5
634
330
633
100
AcDbEntity
  8
LC-003-003-----0
 62
     2
370
    -2
100
AcDbLine
 10
66.545728
 20
369.710061
 30
0.0
 11
1.116011
 21
369.710061
 31
0.0
  0
LINE
  5
635
330
633
100
AcDbEntity
  8
LC-003-003-----0
 62
     2
370
    -2
100
AcDbLine
 10
141.545724
 20
346.210065
 30
0.0
 11
1.116011
 21
346.210065
 31
0.0
  0
LINE
  5
636
330
633
100
AcDbEntity
  8
LC-003-003-----0
 62
     2
370
    -2
100
AcDbLine
 10
4.716011
 20
397.710061
 30
0.0
 11
4.716011
 21
425.710061
 31
0.0
  0
LINE
  5
637
330
633
100
AcDbEntity
  8
LC-003-003-----0
 62
     2
370
    -2
100
AcDbLine
 10
4.716011
 20
318.210065
 30
0.0
 11
4.716011
 21
261.264382
 31
0.0
  0
SOLID
  5
638
330
633
100
AcDbEntity
  8
LC-003-003-----0
 62
     2
100
AcDbTrace
 10
0.049345
 20
397.710061
 30
0.0
 11
9.382678
 21
397.710061
 31
0.0
 12
4.716011
 22
369.710061
 32
0.0
 13
4.716011
 23
369.710061
 33
0.0
  0
SOLID
  5
639
330
633
100
AcDbEntity
  8
LC-003-003-----0
 62
     2
100
AcDbTrace
 10
9.382678
 20
318.210065
 30
0.0
 11
0.049345
 21
318.210065
 31
0.0
 12
4.716011
 22
346.210065
 32
0.0
 13
4.716011
 23
346.210065
 33
0.0
  0
MTEXT
  5
63A
330
633
100
AcDbEntity
  8
LC-003-003-----0
 62
     2
100
AcDbMText
 10
-26.083989
 20
301.082337
 30
0.0
 40
28.0
 41
0.0
 71
     5
 72
     1
  1
\A1;23,5
  7
LCTX15-400-0-0pDIN-Schrift
 11
6.123031769111886E-17
 21
1.0
 31
0.0
 73
     1
 44
1.0
  0
POINT
  5
63B
330
633
100
AcDbEntity
  8
Defpoints
 62
     0
100
AcDbPoint
 10
66.545728
 20
369.710061
 30
0.0
  0
POINT
  5
63C
330
633
100
AcDbEntity
  8
Defpoints
 62
     0
100
AcDbPoint
 10
141.545724
 20
346.210065
 30
0.0
  0
POINT
  5
63D
330
633
100
AcDbEntity
  8
Defpoints
 62
     0
100
AcDbPoint
 10
4.716011
 20
346.210065
 30
0.0
  0
ENDBLK
  5
63F
330
633
100
AcDbEntity
  8
0
100
AcDbBlockEnd
  0
BLOCK
  5
64D
330
641
100
AcDbEntity
  8
0
100
AcDbBlockBegin
  2
*D75
 70
     1
 71
     0
 10
0.0
 20
0.0
 30
0.0
  3
*D75
  1

  0
LINE
  5
642
330
641
100
AcDbEntity
  8
LC-003-003-----0
 62
     2
370
    -2
100
AcDbLine
 10
147.785581
 20
153.71007
 30
0.0
 11
64.095358
 21
153.71007
 31
0.0
  0
LINE
  5
643
330
641
100
AcDbEntity
  8
LC-003-003-----0
 62
     2
370
    -2
100
AcDbLine
 10
172.483546
 20
95.710072
 30
0.0
 11
64.095358
 21
95.710072
 31
0.0
  0
LINE
  5
644
330
641
100
AcDbEntity
  8
LC-003-003-----0
 62
     2
370
    -2
100
AcDbLine
 10
67.695358
 20
181.71007
 30
0.0
 11
67.695358
 21
209.71007
 31
0.0
  0
LINE
  5
645
330
641
100
AcDbEntity
  8
LC-003-003-----0
 62
     2
370
    -2
100
AcDbLine
 10
67.695358
 20
67.710072
 30
0.0
 11
67.695358
 21
39.710072
 31
0.0
  0
LINE
  5
646
330
641
100
AcDbEntity
  8
LC-003-003-----0
 62
     2
370
    -2
100
AcDbLine
 10
67.695358
 20
153.71007
 30
0.0
 11
67.695358
 21
95.710072
 31
0.0
  0
SOLID
  5
647
330
641
100
AcDbEntity
  8
LC-003-003-----0
 62
     2
100
AcDbTrace
 10
63.028692
 20
181.71007
 30
0.0
 11
72.362025
 21
181.71007
 31
0.0
 12
67.695358
 22
153.71007
 32
0.0
 13
67.695358
 23
153.71007
 33
0.0
  0
SOLID
  5
648
330
641
100
AcDbEntity
  8
LC-003-003-----0
 62
     2
100
AcDbTrace
 10
72.362025
 20
67.710072
 30
0.0
 11
63.028692
 21
67.710072
 31
0.0
 12
67.695358
 22
95.710072
 32
0.0
 13
67.695358
 23
95.710072
 33
0.0
  0
MTEXT
  5
649
330
641
100
AcDbEntity
  8
LC-003-003-----0
 62
     2
100
AcDbMText
 10
36.895358
 20
108.032337
 30
0.0
 40
28.0
 41
0.0
 71
     5
 72
     1
  1
\A1;58
  7
LCTX15-400-0-0pDIN-Schrift
 11
6.123031769111886E-17
 21
1.0
 31
0.0
 73
     1
 44
1.0
  0
POINT
  5
64A
330
641
100
AcDbEntity
  8
Defpoints
 62
     0
100
AcDbPoint
 10
147.785581
 20
153.71007
 30
0.0
  0
POINT
  5
64B
330
641
100
AcDbEntity
  8
Defpoints
 62
     0
100
AcDbPoint
 10
172.483546
 20
95.710072
 30
0.0
  0
POINT
  5
64C
330
641
100
AcDbEntity
  8
Defpoints
 62
     0
100
AcDbPoint
 10
67.695358
 20
95.710072
 30
0.0
  0
ENDBLK
  5
64E
330
641
100
AcDbEntity
  8
0
100
AcDbBlockEnd
  0
BLOCK
  5
65B
330
650
100
AcDbEntity
  8
0
100
AcDbBlockBegin
  2
*D76
 70
     1
 71
     0
 10
0.0
 20
0.0
 30
0.0
  3
*D76
  1

  0
LINE
  5
651
330
650
100
AcDbEntity
  8
LC-003-003-----0
 62
     2
370
    -2
100
AcDbLine
 10
254.394482
 20
218.710072
 30
0.0
 11
349.228791
 21
218.710072
 31
0.0
  0
LINE
  5
652
330
650
100
AcDbEntity
  8
LC-003-003-----0
 62
     2
370
    -2
100
AcDbLine
 10
309.045724
 20
246.380586
 30
0.0
 11
349.228791
 21
246.380586
 31
0.0
  0
LINE
  5
653
330
650
100
AcDbEntity
  8
LC-003-003-----0
 62
     2
370
    -2
100
AcDbLine
 10
345.628791
 20
274.380586
 30
0.0
 11
345.628791
 21
302.380586
 31
0.0
  0
LINE
  5
654
330
650
100
AcDbEntity
  8
LC-003-003-----0
 62
     2
370
    -2
100
AcDbLine
 10
345.628791
 20
190.710072
 30
0.0
 11
345.628791
 21
150.780382
 31
0.0
  0
SOLID
  5
655
330
650
100
AcDbEntity
  8
LC-003-003-----0
 62
     2
100
AcDbTrace
 10
350.295458
 20
190.710072
 30
0.0
 11
340.962124
 21
190.710072
 31
0.0
 12
345.628791
 22
218.710072
 32
0.0
 13
345.628791
 23
218.710072
 33
0.0
  0
SOLID
  5
656
330
650
100
AcDbEntity
  8
LC-003-003-----0
 62
     2
100
AcDbTrace
 10
340.962124
 20
274.380586
 30
0.0
 11
350.295458
 21
274.380586
 31
0.0
 12
345.628791
 22
246.380586
 32
0.0
 13
345.628791
 23
246.380586
 33
0.0
  0
MTEXT
  5
657
330
650
100
AcDbEntity
  8
LC-003-003-----0
 62
     2
100
AcDbMText
 10
314.828791
 20
190.598337
 30
0.0
 40
28.0
 41
0.0
 71
     5
 72
     1
  1
\A1;27,5
  7
LCTX15-400-0-0pDIN-Schrift
 11
6.123031769111886E-17
 21
1.0
 31
0.0
 73
     1
 44
1.0
  0
POINT
  5
658
330
650
100
AcDbEntity
  8
Defpoints
 62
     0
100
AcDbPoint
 10
254.394482
 20
218.710072
 30
0.0
  0
POINT
  5
659
330
650
100
AcDbEntity
  8
Defpoints
 62
     0
100
AcDbPoint
 10
309.045724
 20
246.380586
 30
0.0
  0
POINT
  5
65A
330
650
100
AcDbEntity
  8
Defpoints
 62
     0
100
AcDbPoint
 10
345.628791
 20
246.380586
 30
0.0
  0
ENDBLK
  5
65C
330
650
100
AcDbEntity
  8
0
100
AcDbBlockEnd
  0
BLOCK
  5
668
330
65E
100
AcDbEntity
  8
0
100
AcDbBlockBegin
  2
*D77
 70
     1
 71
     0
 10
0.0
 20
0.0
 30
0.0
  3
*D77
  1

  0
LINE
  5
65F
330
65E
100
AcDbEntity
  8
LC-003-003-----0
 62
     2
370
    -2
100
AcDbLine
 10
84.485871
 20
246.367096
 30
0.0
 11
27.88947
 21
246.367096
 31
0.0
  0
LINE
  5
660
330
65E
100
AcDbEntity
  8
LC-003-003-----0
 62
     2
370
    -2
100
AcDbLine
 10
153.473458
 20
153.710072
 30
0.0
 11
27.88947
 21
153.710072
 31
0.0
  0
LINE
  5
661
330
65E
100
AcDbEntity
  8
LC-003-003-----0
 62
     2
370
    -2
100
AcDbLine
 10
31.48947
 20
218.367096
 30
0.0
 11
31.48947
 21
181.710072
 31
0.0
  0
SOLID
  5
662
330
65E
100
AcDbEntity
  8
LC-003-003-----0
 62
     2
100
AcDbTrace
 10
36.156137
 20
218.367096
 30
0.0
 11
26.822804
 21
218.367096
 31
0.0
 12
31.48947
 22
246.367096
 32
0.0
 13
31.48947
 23
246.367096
 33
0.0
  0
SOLID
  5
663
330
65E
100
AcDbEntity
  8
LC-003-003-----0
 62
     2
100
AcDbTrace
 10
26.822804
 20
181.710072
 30
0.0
 11
36.156137
 21
181.710072
 31
0.0
 12
31.48947
 22
153.710072
 32
0.0
 13
31.48947
 23
153.710072
 33
0.0
  0
MTEXT
  5
664
330
65E
100
AcDbEntity
  8
LC-003-003-----0
 62
     2
100
AcDbMText
 10
0.68947
 20
195.350337
 30
0.0
 40
28.0
 41
0.0
 71
     5
 72
     1
  1
\A1;93
  7
LCTX15-400-0-0pDIN-Schrift
 11
6.123031769111886E-17
 21
1.0
 31
0.0
 73
     1
 44
1.0
  0
POINT
  5
665
330
65E
100
AcDbEntity
  8
Defpoints
 62
     0
100
AcDbPoint
 10
84.485871
 20
246.367096
 30
0.0
  0
POINT
  5
666
330
65E
100
AcDbEntity
  8
Defpoints
 62
     0
100
AcDbPoint
 10
153.473458
 20
153.710072
 30
0.0
  0
POINT
  5
667
330
65E
100
AcDbEntity
  8
Defpoints
 62
     0
100
AcDbPoint
 10
31.48947
 20
153.710072
 30
0.0
  0
ENDBLK
  5
669
330
65E
100
AcDbEntity
  8
0
100
AcDbBlockEnd
  0
BLOCK
  5
676
330
66B
100
AcDbEntity
  8
0
100
AcDbBlockBegin
  2
*D78
 70
     1
 71
     0
 10
0.0
 20
0.0
 30
0.0
  3
*D78
  1

  0
LINE
  5
66C
330
66B
100
AcDbEntity
  8
LC-003-003-----0
 62
     2
370
    -2
100
AcDbLine
 10
171.545723
 20
99.210072
 30
0.0
 11
171.545723
 21
66.416337
 31
0.0
  0
LINE
  5
66D
330
66B
100
AcDbEntity
  8
LC-003-003-----0
 62
     2
370
    -2
100
AcDbLine
 10
221.545724
 20
99.210072
 30
0.0
 11
221.545724
 21
66.416337
 31
0.0
  0
LINE
  5
66E
330
66B
100
AcDbEntity
  8
LC-003-003-----0
 62
     2
370
    -2
100
AcDbLine
 10
143.545723
 20
70.016337
 30
0.0
 11
115.545723
 21
70.016337
 31
0.0
  0
LINE
  5
66F
330
66B
100
AcDbEntity
  8
LC-003-003-----0
 62
     2
370
    -2
100
AcDbLine
 10
249.545724
 20
70.016337
 30
0.0
 11
306.475224
 21
70.016337
 31
0.0
  0
SOLID
  5
670
330
66B
100
AcDbEntity
  8
LC-003-003-----0
 62
     2
100
AcDbTrace
 10
143.545723
 20
65.349671
 30
0.0
 11
143.545723
 21
74.683004
 31
0.0
 12
171.545723
 22
70.016337
 32
0.0
 13
171.545723
 23
70.016337
 33
0.0
  0
SOLID
  5
671
330
66B
100
AcDbEntity
  8
LC-003-003-----0
 62
     2
100
AcDbTrace
 10
249.545724
 20
74.683004
 30
0.0
 11
249.545724
 21
65.349671
 31
0.0
 12
221.545724
 22
70.016337
 32
0.0
 13
221.545724
 23
70.016337
 33
0.0
  0
MTEXT
  5
672
330
66B
100
AcDbEntity
  8
LC-003-003-----0
 62
     2
100
AcDbMText
 10
260.438467
 20
100.816337
 30
0.0
 40
28.0
 41
0.0
 71
     5
 72
     1
  1
\A1;DN50
  7
LCTX15-400-0-0pDIN-Schrift
 73
     1
 44
1.0
  0
POINT
  5
673
330
66B
100
AcDbEntity
  8
Defpoints
 62
     0
100
AcDbPoint
 10
171.545723
 20
99.210072
 30
0.0
  0
POINT
  5
674
330
66B
100
AcDbEntity
  8
Defpoints
 62
     0
100
AcDbPoint
 10
221.545724
 20
99.210072
 30
0.0
  0
POINT
  5
675
330
66B
100
AcDbEntity
  8
Defpoints
 62
     0
100
AcDbPoint
 10
221.545724
 20
70.016337
 30
0.0
  0
ENDBLK
  5
677
330
66B
100
AcDbEntity
  8
0
100
AcDbBlockEnd
  0
BLOCK
  5
683
330
679
100
AcDbEntity
  8
0
100
AcDbBlockBegin
  2
*D79
 70
     1
 71
     0
 10
0.0
 20
0.0
 30
0.0
  3
*D79
  1

  0
LINE
  5
67A
330
679
100
AcDbEntity
  8
LC-003-003-----0
 62
     2
370
    -2
100
AcDbLine
 10
309.045724
 20
246.380586
 30
0.0
 11
397.148349
 21
246.380586
 31
0.0
  0
LINE
  5
67B
330
679
100
AcDbEntity
  8
LC-003-003-----0
 62
     2
370
    -2
100
AcDbLine
 10
326.545719
 20
369.710061
 30
0.0
 11
397.148349
 21
369.710061
 31
0.0
  0
LINE
  5
67C
330
679
100
AcDbEntity
  8
LC-003-003-----0
 62
     2
370
    -2
100
AcDbLine
 10
393.548349
 20
274.380586
 30
0.0
 11
393.548349
 21
341.710061
 31
0.0
  0
SOLID
  5
67D
330
679
100
AcDbEntity
  8
LC-003-003-----0
 62
     2
100
AcDbTrace
 10
388.881682
 20
274.380586
 30
0.0
 11
398.215015
 21
274.380586
 31
0.0
 12
393.548349
 22
246.380586
 32
0.0
 13
393.548349
 23
246.380586
 33
0.0
  0
SOLID
  5
67E
330
679
100
AcDbEntity
  8
LC-003-003-----0
 62
     2
100
AcDbTrace
 10
398.215015
 20
341.710061
 30
0.0
 11
388.881682
 21
341.710061
 31
0.0
 12
393.548349
 22
369.710061
 32
0.0
 13
393.548349
 23
369.710061
 33
0.0
  0
MTEXT
  5
67F
330
679
100
AcDbEntity
  8
LC-003-003-----0
 62
     2
100
AcDbMText
 10
362.748349
 20
304.646337
 30
0.0
 40
28.0
 41
0.0
 71
     5
 72
     1
  1
\A1;30-124
  7
LCTX15-400-0-0pDIN-Schrift
 11
6.123031769111886E-17
 21
1.0
 31
0.0
 73
     1
 44
1.0
  0
POINT
  5
680
330
679
100
AcDbEntity
  8
Defpoints
 62
     0
100
AcDbPoint
 10
309.045724
 20
246.380586
 30
0.0
  0
POINT
  5
681
330
679
100
AcDbEntity
  8
Defpoints
 62
     0
100
AcDbPoint
 10
326.545719
 20
369.710061
 30
0.0
  0
POINT
  5
682
330
679
100
AcDbEntity
  8
Defpoints
 62
     0
100
AcDbPoint
 10
393.548349
 20
369.710061
 30
0.0
  0
ENDBLK
  5
684
330
679
100
AcDbEntity
  8
0
100
AcDbBlockEnd
  0
BLOCK
  5
690
330
686
100
AcDbEntity
  8
0
100
AcDbBlockBegin
  2
*D80
 70
     1
 71
     0
 10
0.0
 20
0.0
 30
0.0
  3
*D80
  1

  0
LINE
  5
687
330
686
100
AcDbEntity
  8
LC-003-003-----0
 62
     2
370
    -2
100
AcDbLine
 10
66.545728
 20
369.710061
 30
0.0
 11
66.545728
 21
388.240338
 31
0.0
  0
LINE
  5
688
330
686
100
AcDbEntity
  8
LC-003-003-----0
 62
     2
370
    -2
100
AcDbLine
 10
326.545719
 20
369.710061
 30
0.0
 11
326.545719
 21
388.240338
 31
0.0
  0
LINE
  5
689
330
686
100
AcDbEntity
  8
LC-003-003-----0
 62
     2
370
    -2
100
AcDbLine
 10
94.545728
 20
384.640338
 30
0.0
 11
298.545719
 21
384.640338
 31
0.0
  0
SOLID
  5
68A
330
686
100
AcDbEntity
  8
LC-003-003-----0
 62
     2
100
AcDbTrace
 10
94.545728
 20
389.307004
 30
0.0
 11
94.545728
 21
379.973671
 31
0.0
 12
66.545728
 22
384.640338
 32
0.0
 13
66.545728
 23
384.640338
 33
0.0
  0
SOLID
  5
68B
330
686
100
AcDbEntity
  8
LC-003-003-----0
 62
     2
100
AcDbTrace
 10
298.545719
 20
379.973671
 30
0.0
 11
298.545719
 21
389.307004
 31
0.0
 12
326.545719
 22
384.640338
 32
0.0
 13
326.545719
 23
384.640338
 33
0.0
  0
MTEXT
  5
68C
330
686
100
AcDbEntity
  8
LC-003-003-----0
 62
     2
100
AcDbMText
 10
195.480845
 20
415.440338
 30
0.0
 40
28.0
 41
0.0
 71
     5
 72
     1
  1
%%c\A1;260
  7
LCTX15-400-0-0pDIN-Schrift
 73
     1
 44
1.0
  0
POINT
  5
68D
330
686
100
AcDbEntity
  8
Defpoints
 62
     0
100
AcDbPoint
 10
66.545728
 20
369.710061
 30
0.0
  0
POINT
  5
68E
330
686
100
AcDbEntity
  8
Defpoints
 62
     0
100
AcDbPoint
 10
326.545719
 20
369.710061
 30
0.0
  0
POINT
  5
68F
330
686
100
AcDbEntity
  8
Defpoints
 62
     0
100
AcDbPoint
 10
326.545719
 20
384.640338
 30
0.0
  0
ENDBLK
  5
691
330
686
100
AcDbEntity
  8
0
100
AcDbBlockEnd
  0
BLOCK
  5
69D
330
693
100
AcDbEntity
  8
0
100
AcDbBlockBegin
  2
*D81
 70
     1
 71
     0
 10
0.0
 20
0.0
 30
0.0
  3
*D81
  1

  0
LINE
  5
694
330
693
100
AcDbEntity
  8
LC-003-003-----0
 62
     2
370
    -2
100
AcDbLine
 10
82.045723
 20
242.897618
 30
0.0
 11
82.045723
 21
161.456337
 31
0.0
  0
LINE
  5
695
330
693
100
AcDbEntity
  8
LC-003-003-----0
 62
     2
370
    -2
100
AcDbLine
 10
311.045725
 20
242.897618
 30
0.0
 11
311.045725
 21
161.456337
 31
0.0
  0
LINE
  5
696
330
693
100
AcDbEntity
  8
LC-003-003-----0
 62
     2
370
    -2
100
AcDbLine
 10
110.045723
 20
165.056337
 30
0.0
 11
283.045725
 21
165.056337
 31
0.0
  0
SOLID
  5
697
330
693
100
AcDbEntity
  8
LC-003-003-----0
 62
     2
100
AcDbTrace
 10
110.045723
 20
169.723004
 30
0.0
 11
110.045723
 21
160.389671
 31
0.0
 12
82.045723
 22
165.056337
 32
0.0
 13
82.045723
 23
165.056337
 33
0.0
  0
SOLID
  5
698
330
693
100
AcDbEntity
  8
LC-003-003-----0
 62
     2
100
AcDbTrace
 10
283.045725
 20
160.389671
 30
0.0
 11
283.045725
 21
169.723004
 31
0.0
 12
311.045725
 22
165.056337
 32
0.0
 13
311.045725
 23
165.056337
 33
0.0
  0
MTEXT
  5
699
330
693
100
AcDbEntity
  8
LC-003-003-----0
 62
     2
100
AcDbMText
 10
191.221328
 20
195.856337
 30
0.0
 40
28.0
 41
0.0
 71
     5
 72
     1
  1
\A1;%%c230
  7
LCTX15-400-0-0pDIN-Schrift
 73
     1
 44
1.0
  0
POINT
  5
69A
330
693
100
AcDbEntity
  8
Defpoints
 62
     0
100
AcDbPoint
 10
82.045723
 20
242.897618
 30
0.0
  0
POINT
  5
69B
330
693
100
AcDbEntity
  8
Defpoints
 62
     0
100
AcDbPoint
 10
311.045725
 20
242.897618
 30
0.0
  0
POINT
  5
69C
330
693
100
AcDbEntity
  8
Defpoints
 62
     0
100
AcDbPoint
 10
311.045725
 20
165.056337
 30
0.0
  0
ENDBLK
  5
69E
330
693
100
AcDbEntity
  8
0
100
AcDbBlockEnd
  0
BLOCK
  5
6AA
330
6A0
100
AcDbEntity
  8
0
100
AcDbBlockBegin
  2
*D82
 70
     1
 71
     0
 10
0.0
 20
0.0
 30
0.0
  3
*D82
  1

  0
LINE
  5
6A1
330
6A0
100
AcDbEntity
  8
LC-003-003-----0
 62
     2
370
    -2
100
AcDbLine
 10
141.545724
 20
168.723106
 30
0.0
 11
141.545724
 21
2.858337
 31
0.0
  0
LINE
  5
6A2
330
6A0
100
AcDbEntity
  8
LC-003-003-----0
 62
     2
370
    -2
100
AcDbLine
 10
251.545724
 20
170.960033
 30
0.0
 11
251.545724
 21
2.858337
 31
0.0
  0
LINE
  5
6A3
330
6A0
100
AcDbEntity
  8
LC-003-003-----0
 62
     2
370
    -2
100
AcDbLine
 10
169.545724
 20
6.458337
 30
0.0
 11
223.545724
 21
6.458337
 31
0.0
  0
SOLID
  5
6A4
330
6A0
100
AcDbEntity
  8
LC-003-003-----0
 62
     2
100
AcDbTrace
 10
169.545724
 20
11.125004
 30
0.0
 11
169.545724
 21
1.791671
 31
0.0
 12
141.545724
 22
6.458337
 32
0.0
 13
141.545724
 23
6.458337
 33
0.0
  0
SOLID
  5
6A5
330
6A0
100
AcDbEntity
  8
LC-003-003-----0
 62
     2
100
AcDbTrace
 10
223.545724
 20
1.791671
 30
0.0
 11
223.545724
 21
11.125004
 31
0.0
 12
251.545724
 22
6.458337
 32
0.0
 13
251.545724
 23
6.458337
 33
0.0
  0
MTEXT
  5
6A6
330
6A0
100
AcDbEntity
  8
LC-003-003-----0
 62
     2
100
AcDbMText
 10
189.09157
 20
37.258337
 30
0.0
 40
28.0
 41
0.0
 71
     5
 72
     1
  1
%%c\A1;110
  7
LCTX15-400-0-0pDIN-Schrift
 73
     1
 44
1.0
  0
POINT
  5
6A7
330
6A0
100
AcDbEntity
  8
Defpoints
 62
     0
100
AcDbPoint
 10
141.545724
 20
168.723106
 30
0.0
  0
POINT
  5
6A8
330
6A0
100
AcDbEntity
  8
Defpoints
 62
     0
100
AcDbPoint
 10
251.545724
 20
170.960033
 30
0.0
  0
POINT
  5
6A9
330
6A0
100
AcDbEntity
  8
Defpoints
 62
     0
100
AcDbPoint
 10
251.545724
 20
6.458337
 30
0.0
  0
ENDBLK
  5
6AB
330
6A0
100
AcDbEntity
  8
0
100
AcDbBlockEnd
  0
BLOCK
  5
6B7
330
6AD
100
AcDbEntity
  8
0
100
AcDbBlockBegin
  2
*D83
 70
     1
 71
     0
 10
0.0
 20
0.0
 30
0.0
  3
*D83
  1

  0
LINE
  5
6AE
330
6AD
100
AcDbEntity
  8
LC-003-003-----0
 62
     2
370
    -2
100
AcDbLine
 10
133.545723
 20
213.710072
 30
0.0
 11
133.545723
 21
-52.977663
 31
0.0
  0
LINE
  5
6AF
330
6AD
100
AcDbEntity
  8
LC-003-003-----0
 62
     2
370
    -2
100
AcDbLine
 10
259.545724
 20
214.881057
 30
0.0
 11
259.545724
 21
-52.977663
 31
0.0
  0
LINE
  5
6B0
330
6AD
100
AcDbEntity
  8
LC-003-003-----0
 62
     2
370
    -2
100
AcDbLine
 10
161.545723
 20
-49.377663
 30
0.0
 11
231.545724
 21
-49.377663
 31
0.0
  0
SOLID
  5
6B1
330
6AD
100
AcDbEntity
  8
LC-003-003-----0
 62
     2
100
AcDbTrace
 10
161.545723
 20
-44.710996
 30
0.0
 11
161.545723
 21
-54.044329
 31
0.0
 12
133.545723
 22
-49.377663
 32
0.0
 13
133.545723
 23
-49.377663
 33
0.0
  0
SOLID
  5
6B2
330
6AD
100
AcDbEntity
  8
LC-003-003-----0
 62
     2
100
AcDbTrace
 10
231.545724
 20
-54.044329
 30
0.0
 11
231.545724
 21
-44.710996
 31
0.0
 12
259.545724
 22
-49.377663
 32
0.0
 13
259.545724
 23
-49.377663
 33
0.0
  0
MTEXT
  5
6B3
330
6AD
100
AcDbEntity
  8
LC-003-003-----0
 62
     2
100
AcDbMText
 10
190.156449
 20
-18.577663
 30
0.0
 40
28.0
 41
0.0
 71
     5
 72
     1
  1
%%c\A1;126
  7
LCTX15-400-0-0pDIN-Schrift
 73
     1
 44
1.0
  0
POINT
  5
6B4
330
6AD
100
AcDbEntity
  8
Defpoints
 62
     0
100
AcDbPoint
 10
133.545723
 20
213.710072
 30
0.0
  0
POINT
  5
6B5
330
6AD
100
AcDbEntity
  8
Defpoints
 62
     0
100
AcDbPoint
 10
259.545724
 20
214.881057
 30
0.0
  0
POINT
  5
6B6
330
6AD
100
AcDbEntity
  8
Defpoints
 62
     0
100
AcDbPoint
 10
259.545724
 20
-49.377663
 30
0.0
  0
ENDBLK
  5
6B8
330
6AD
100
AcDbEntity
  8
0
100
AcDbBlockEnd
  0
BLOCK
  5
6C6
330
6BA
100
AcDbEntity
  8
0
100
AcDbBlockBegin
  2
*D84
 70
     1
 71
     0
 10
0.0
 20
0.0
 30
0.0
  3
*D84
  1

  0
LINE
  5
6BB
330
6BA
100
AcDbEntity
  8
LC-003-003-----0
 62
     2
370
    -2
100
AcDbLine
 10
217.545723
 20
292.510065
 30
0.0
 11
314.14965
 21
292.510065
 31
0.0
  0
LINE
  5
6BC
330
6BA
100
AcDbEntity
  8
LC-003-003-----0
 62
     2
370
    -2
100
AcDbLine
 10
227.545723
 20
344.010073
 30
0.0
 11
314.14965
 21
344.010073
 31
0.0
  0
LINE
  5
6BD
330
6BA
100
AcDbEntity
  8
LC-003-003-----0
 62
     2
370
    -2
100
AcDbLine
 10
310.54965
 20
264.510065
 30
0.0
 11
310.54965
 21
236.510065
 31
0.0
  0
LINE
  5
6BE
330
6BA
100
AcDbEntity
  8
LC-003-003-----0
 62
     2
370
    -2
100
AcDbLine
 10
310.54965
 20
372.010073
 30
0.0
 11
310.54965
 21
400.010073
 31
0.0
  0
LINE
  5
6BF
330
6BA
100
AcDbEntity
  8
LC-003-003-----0
 62
     2
370
    -2
100
AcDbLine
 10
310.54965
 20
292.510065
 30
0.0
 11
310.54965
 21
344.010073
 31
0.0
  0
SOLID
  5
6C0
330
6BA
100
AcDbEntity
  8
LC-003-003-----0
 62
     2
100
AcDbTrace
 10
315.216317
 20
264.510065
 30
0.0
 11
305.882984
 21
264.510065
 31
0.0
 12
310.54965
 22
292.510065
 32
0.0
 13
310.54965
 23
292.510065
 33
0.0
  0
SOLID
  5
6C1
330
6BA
100
AcDbEntity
  8
LC-003-003-----0
 62
     2
100
AcDbTrace
 10
305.882984
 20
372.010073
 30
0.0
 11
315.216317
 21
372.010073
 31
0.0
 12
310.54965
 22
344.010073
 32
0.0
 13
310.54965
 23
344.010073
 33
0.0
  0
MTEXT
  5
6C2
330
6BA
100
AcDbEntity
  8
LC-003-003-----0
 62
     2
100
AcDbMText
 10
279.74965
 20
305.240337
 30
0.0
 40
28.0
 41
0.0
 71
     5
 72
     1
  1
\A1;50
  7
LCTX15-400-0-0pDIN-Schrift
 11
6.123031769111886E-17
 21
1.0
 31
0.0
 73
     1
 44
1.0
  0
POINT
  5
6C3
330
6BA
100
AcDbEntity
  8
Defpoints
 62
     0
100
AcDbPoint
 10
217.545723
 20
292.510065
 30
0.0
  0
POINT
  5
6C4
330
6BA
100
AcDbEntity
  8
Defpoints
 62
     0
100
AcDbPoint
 10
227.545723
 20
344.010073
 30
0.0
  0
POINT
  5
6C5
330
6BA
100
AcDbEntity
  8
Defpoints
 62
     0
100
AcDbPoint
 10
310.54965
 20
344.010073
 30
0.0
  0
ENDBLK
  5
6C7
330
6BA
100
AcDbEntity
  8
0
100
AcDbBlockEnd
  0
ENDSEC
  0
SECTION
  2
ENTITIES
  0
LINE
  5
32
330
1F
100
AcDbEntity
  8
LC-001-002-----0
 62
     7
370
    25
100
AcDbLine
 10
196.545724
 20
371.210071
 30
0.0
 11
196.545724
 21
209.856337
 31
0.0
  0
LINE
  5
33
330
1F
100
AcDbEntity
  8
LC-001-002-----0
 62
     7
370
    25
100
AcDbLine
 10
196.545724
 20
159.456337
 30
0.0
 11
196.545724
 21
95.710072
 31
0.0
  0
LINE
  5
35
330
1F
100
AcDbEntity
  8
LC-002-100-D00-0
 62
     7
370
    50
100
AcDbLine
 10
77.253711
 20
354.205933
 30
0.0
 11
77.548814
 21
352.532265
 31
0.0
  0
ARC
  5
36
330
1F
100
AcDbEntity
  8
LC-002-100-D00-0
 62
     7
370
    50
100
AcDbCircle
 10
78.533625
 20
352.705924
 30
0.0
 40
0.9999999999999931
100
AcDbArc
 50
190.0
 51
270.0
  0
LINE
  5
37
330
1F
100
AcDbEntity
  8
LC-002-100-D00-0
 62
     7
370
    50
100
AcDbLine
 10
89.913901
 20
352.444979
 30
0.0
 11
91.6779
 21
362.152549
 31
0.0
  0
LINE
  5
38
330
1F
100
AcDbEntity
  8
LC-002-100-D00-0
 62
     7
370
    50
100
AcDbLine
 10
91.612119
 20
361.77105
 30
0.0
 11
92.572477
 21
367.209229
 31
0.0
  0
LINE
  5
39
330
1F
100
AcDbEntity
  8
LC-002-100-D00-0
 62
     7
370
    50
100
AcDbLine
 10
257.263791
 20
358.850005
 30
0.0
 11
257.917329
 21
352.606061
 31
0.0
  0
ARC
  5
3A
330
1F
100
AcDbEntity
  8
LC-002-100-D00-0
 62
     7
370
    50
100
AcDbCircle
 10
258.911464
 20
352.710072
 30
0.0
 40
1.00000000000002
100
AcDbArc
 50
185.977625
 51
270.0
  0
ARC
  5
3B
330
1F
100
AcDbEntity
  8
LC-002-100-D00-0
 62
     7
370
    50
100
AcDbCircle
 10
168.545724
 20
228.710072
 30
0.0
 40
2.0
100
AcDbArc
 50
90.0
 51
270.0
  0
LINE
  5
3C
330
1F
100
AcDbEntity
  8
LC-002-100-D00-0
 62
     7
370
    50
100
AcDbLine
 10
168.545723
 20
226.710069
 30
0.0
 11
196.534159
 21
226.710069
 31
0.0
  0
LINE
  5
3D
330
1F
100
AcDbEntity
  8
LC-002-100-D00-0
 62
     7
370
    50
100
AcDbLine
 10
196.523932
 20
230.710077
 30
0.0
 11
168.545723
 21
230.710077
 31
0.0
  0
ARC
  5
3E
330
1F
100
AcDbEntity
  8
LC-002-100-D00-0
 62
     7
370
    50
100
AcDbCircle
 10
224.545724
 20
228.710072
 30
0.0
 40
2.0
100
AcDbArc
 50
270.0
 51
90.0
  0
LINE
  5
3F
330
1F
100
AcDbEntity
  8
LC-002-100-D00-0
 62
     7
370
    50
100
AcDbLine
 10
196.567516
 20
226.710069
 30
0.0
 11
224.545725
 21
226.710069
 31
0.0
  0
LINE
  5
40
330
1F
100
AcDbEntity
  8
LC-002-100-D00-0
 62
     7
370
    50
100
AcDbLine
 10
224.545725
 20
230.710077
 30
0.0
 11
196.556765
 21
230.710077
 31
0.0
  0
LINE
  5
41
330
1F
100
AcDbEntity
  8
LC-002-100-D00-0
 62
     7
370
    50
100
AcDbLine
 10
124.313216
 20
232.713941
 30
0.0
 11
124.545727
 21
232.583511
 31
0.0
  0
INSERT
  5
4D
330
1F
100
AcDbEntity
  8
LC-002-100-D00-0
 62
     7
370
    50
100
AcDbBlockReference
  2
POLY1
 10
0.0
 20
0.0
 30
0.0
  0
LINE
  5
4E
330
1F
100
AcDbEntity
  8
LC-002-100-D00-0
 62
     7
370
    50
100
AcDbLine
 10
124.313216
 20
238.713938
 30
0.0
 11
124.545727
 21
238.583508
 31
0.0
  0
INSERT
  5
5A
330
1F
100
AcDbEntity
  8
LC-002-100-D00-0
 62
     7
370
    50
100
AcDbBlockReference
  2
POLY2
 10
0.0
 20
0.0
 30
0.0
  0
LINE
  5
5B
330
1F
100
AcDbEntity
  8
LC-002-100-D00-0
 62
     7
370
    50
100
AcDbLine
 10
124.313216
 20
235.713932
 30
0.0
 11
124.545727
 21
235.583517
 31
0.0
  0
LINE
  5
5C
330
1F
100
AcDbEntity
  8
LC-002-100-D00-0
 62
     7
370
    50
100
AcDbLine
 10
128.858831
 20
238.404068
 30
0.0
 11
128.54572
 21
238.580945
 31
0.0
  0
LINE
  5
5D
330
1F
100
AcDbEntity
  8
LC-002-100-D00-0
 62
     7
370
    50
100
AcDbLine
 10
128.858831
 20
232.404071
 30
0.0
 11
128.54572
 21
232.580948
 31
0.0
  0
LINE
  5
5E
330
1F
100
AcDbEntity
  8
LC-002-100-D00-0
 62
     7
370
    50
100
AcDbLine
 10
124.313216
 20
229.713934
 30
0.0
 11
124.545727
 21
229.583505
 31
0.0
  0
LINE
  5
5F
330
1F
100
AcDbEntity
  8
LC-002-100-D00-0
 62
     7
370
    50
100
AcDbLine
 10
128.858831
 20
235.404062
 30
0.0
 11
128.54572
 21
235.580954
 31
0.0
  0
LINE
  5
60
330
1F
100
AcDbEntity
  8
LC-002-100-D00-0
 62
     7
370
    50
100
AcDbLine
 10
128.858831
 20
229.404065
 30
0.0
 11
128.54572
 21
229.580957
 31
0.0
  0
LINE
  5
61
330
1F
100
AcDbEntity
  8
LC-002-100-D00-0
 62
     7
370
    50
100
AcDbLine
 10
306.545723
 20
369.210067
 30
0.0
 11
306.545723
 21
369.710061
 31
0.0
  0
LINE
  5
62
330
1F
100
AcDbEntity
  8
LC-002-100-D00-0
 62
     7
370
    50
100
AcDbLine
 10
86.545724
 20
369.710061
 30
0.0
 11
86.545724
 21
369.210067
 31
0.0
  0
LINE
  5
63
330
1F
100
AcDbEntity
  8
LC-002-100-D00-0
 62
     7
370
    50
100
AcDbLine
 10
256.545722
 20
369.210067
 30
0.0
 11
256.545722
 21
369.710061
 31
0.0
  0
LINE
  5
64
330
1F
100
AcDbEntity
  8
LC-002-100-D00-0
 62
     7
370
    50
100
AcDbLine
 10
136.545725
 20
369.710061
 30
0.0
 11
136.545725
 21
369.210067
 31
0.0
  0
LINE
  5
65
330
1F
100
AcDbEntity
  8
LC-002-100-D00-0
 62
     7
370
    50
100
AcDbLine
 10
86.545724
 20
369.710061
 30
0.0
 11
136.545725
 21
369.710061
 31
0.0
  0
LINE
  5
66
330
1F
100
AcDbEntity
  8
LC-002-100-D00-0
 62
     7
370
    50
100
AcDbLine
 10
86.545724
 20
369.210067
 30
0.0
 11
136.545725
 21
369.210067
 31
0.0
  0
LINE
  5
67
330
1F
100
AcDbEntity
  8
LC-002-100-D00-0
 62
     7
370
    50
100
AcDbLine
 10
256.545722
 20
369.710061
 30
0.0
 11
306.545723
 21
369.710061
 31
0.0
  0
LINE
  5
68
330
1F
100
AcDbEntity
  8
LC-002-100-D00-0
 62
     7
370
    50
100
AcDbLine
 10
256.545722
 20
369.210067
 30
0.0
 11
306.545723
 21
369.210067
 31
0.0
  0
ARC
  5
69
330
1F
100
AcDbEntity
  8
LC-002-100-D00-0
 62
     7
370
    50
100
AcDbCircle
 10
325.545725
 20
368.205924
 30
0.0
 40
1.000000000000114
100
AcDbArc
 50
270.0
 51
0.0
  0
ARC
  5
6A
330
1F
100
AcDbEntity
  8
LC-002-100-D00-0
 62
     7
370
    50
100
AcDbCircle
 10
67.545724
 20
368.210072
 30
0.0
 40
1.000000000000114
100
AcDbArc
 50
180.0
 51
270.0
  0
LINE
  5
6B
330
1F
100
AcDbEntity
  8
LC-002-100-D00-0
 62
     7
370
    50
100
AcDbLine
 10
326.54572
 20
369.705913
 30
0.0
 11
326.54572
 21
368.205932
 31
0.0
  0
LINE
  5
6C
330
1F
100
AcDbEntity
  8
LC-002-100-D00-0
 62
     7
370
    50
100
AcDbLine
 10
66.545728
 20
368.21008
 30
0.0
 11
66.545728
 21
369.710061
 31
0.0
  0
LINE
  5
6D
330
1F
100
AcDbEntity
  8
LC-002-100-D00-0
 62
     7
370
    50
100
AcDbLine
 10
141.545724
 20
346.210065
 30
0.0
 11
132.045727
 21
367.210063
 31
0.0
  0
LINE
  5
6E
330
1F
100
AcDbEntity
  8
LC-002-100-D00-0
 62
     7
370
    50
100
AcDbLine
 10
261.04572
 20
367.210063
 30
0.0
 11
251.545723
 21
346.210065
 31
0.0
  0
LINE
  5
6F
330
1F
100
AcDbEntity
  8
LC-002-100-D00-0
 62
     7
370
    50
100
AcDbLine
 10
256.295722
 20
364.710066
 30
0.0
 11
256.295722
 21
369.210067
 31
0.0
  0
LINE
  5
70
330
1F
100
AcDbEntity
  8
LC-002-100-D00-0
 62
     7
370
    50
100
AcDbLine
 10
136.795725
 20
364.710066
 30
0.0
 11
140.545722
 21
364.710066
 31
0.0
  0
LINE
  5
71
330
1F
100
AcDbEntity
  8
LC-002-100-D00-0
 62
     7
370
    50
100
AcDbLine
 10
252.545725
 20
364.710066
 30
0.0
 11
256.295722
 21
364.710066
 31
0.0
  0
LINE
  5
72
330
1F
100
AcDbEntity
  8
LC-002-100-D00-0
 62
     7
370
    50
100
AcDbLine
 10
136.795725
 20
369.210067
 30
0.0
 11
136.795725
 21
364.710066
 31
0.0
  0
LINE
  5
73
330
1F
100
AcDbEntity
  8
LC-002-100-D00-0
 62
     7
370
    50
100
AcDbLine
 10
256.295722
 20
369.210067
 30
0.0
 11
252.545725
 21
369.210067
 31
0.0
  0
LINE
  5
74
330
1F
100
AcDbEntity
  8
LC-002-100-D00-0
 62
     7
370
    50
100
AcDbLine
 10
140.545722
 20
369.210067
 30
0.0
 11
136.795725
 21
369.210067
 31
0.0
  0
LINE
  5
75
330
1F
100
AcDbEntity
  8
LC-002-100-D00-0
 62
     7
370
    50
100
AcDbLine
 10
136.795725
 20
364.710066
 30
0.0
 11
141.295723
 21
354.710075
 31
0.0
  0
LINE
  5
76
330
1F
100
AcDbEntity
  8
LC-002-100-D00-0
 62
     7
370
    50
100
AcDbLine
 10
251.795724
 20
354.710075
 30
0.0
 11
256.295722
 21
364.710066
 31
0.0
  0
LINE
  5
77
330
1F
100
AcDbEntity
  8
LC-002-100-D00-0
 62
     7
370
    50
100
AcDbLine
 10
141.295723
 20
354.710075
 30
0.0
 11
147.545725
 21
354.710075
 31
0.0
  0
LINE
  5
78
330
1F
100
AcDbEntity
  8
LC-002-100-D00-0
 62
     7
370
    50
100
AcDbLine
 10
245.545722
 20
354.710075
 30
0.0
 11
251.795724
 21
354.710075
 31
0.0
  0
LINE
  5
79
330
1F
100
AcDbEntity
  8
LC-002-100-D00-0
 62
     7
370
    50
100
AcDbLine
 10
251.795724
 20
352.210077
 30
0.0
 11
251.795724
 21
354.710075
 31
0.0
  0
LINE
  5
7A
330
1F
100
AcDbEntity
  8
LC-002-100-D00-0
 62
     7
370
    50
100
AcDbLine
 10
141.295723
 20
354.710075
 30
0.0
 11
141.295723
 21
352.210077
 31
0.0
  0
LINE
  5
7B
330
1F
100
AcDbEntity
  8
LC-002-100-D00-0
 62
     7
370
    50
100
AcDbLine
 10
142.751496
 20
218.710075
 30
0.0
 11
141.545724
 21
223.210069
 31
0.0
  0
LINE
  5
7C
330
1F
100
AcDbEntity
  8
LC-002-100-D00-0
 62
     7
370
    50
100
AcDbLine
 10
251.545723
 20
223.210069
 30
0.0
 11
250.339951
 21
218.710075
 31
0.0
  0
LINE
  5
7D
330
1F
100
AcDbEntity
  8
LC-002-100-D00-0
 62
     7
370
    50
100
AcDbLine
 10
251.545723
 20
346.210065
 30
0.0
 11
251.545723
 21
223.210069
 31
0.0
  0
LINE
  5
7E
330
1F
100
AcDbEntity
  8
LC-002-100-D00-0
 62
     7
370
    50
100
AcDbLine
 10
141.545724
 20
223.210069
 30
0.0
 11
141.545724
 21
346.210065
 31
0.0
  0
LINE
  5
7F
330
1F
100
AcDbEntity
  8
LC-002-100-D00-0
 62
     7
370
    50
100
AcDbLine
 10
143.165722
 20
352.210077
 30
0.0
 11
144.245725
 21
349.810067
 31
0.0
  0
LINE
  5
80
330
1F
100
AcDbEntity
  8
LC-002-100-D00-0
 62
     7
370
    50
100
AcDbLine
 10
248.845722
 20
349.810067
 30
0.0
 11
249.925725
 21
352.210077
 31
0.0
  0
LINE
  5
81
330
1F
100
AcDbEntity
  8
LC-002-100-D00-0
 62
     7
370
    50
100
AcDbLine
 10
143.165722
 20
352.210077
 30
0.0
 11
147.545725
 21
352.210077
 31
0.0
  0
LINE
  5
82
330
1F
100
AcDbEntity
  8
LC-002-100-D00-0
 62
     7
370
    50
100
AcDbLine
 10
245.545722
 20
352.210077
 30
0.0
 11
249.925725
 21
352.210077
 31
0.0
  0
LINE
  5
83
330
1F
100
AcDbEntity
  8
LC-002-100-D00-0
 62
     7
370
    50
100
AcDbLine
 10
248.845722
 20
218.710075
 30
0.0
 11
248.845722
 21
349.810067
 31
0.0
  0
LINE
  5
84
330
1F
100
AcDbEntity
  8
LC-002-100-D00-0
 62
     7
370
    50
100
AcDbLine
 10
144.245725
 20
349.810067
 30
0.0
 11
144.245725
 21
218.710075
 31
0.0
  0
LINE
  5
85
330
1F
100
AcDbEntity
  8
LC-002-100-D00-0
 62
     7
370
    50
100
AcDbLine
 10
144.510735
 20
218.710075
 30
0.0
 11
150.640532
 21
218.710075
 31
0.0
  0
LINE
  5
86
330
1F
100
AcDbEntity
  8
LC-002-100-D00-0
 62
     7
370
    50
100
AcDbLine
 10
152.107101
 20
218.710075
 30
0.0
 11
169.445697
 21
218.710075
 31
0.0
  0
LINE
  5
87
330
1F
100
AcDbEntity
  8
LC-002-100-D00-0
 62
     7
370
    50
100
AcDbLine
 10
171.610761
 20
218.710075
 30
0.0
 11
191.545724
 21
218.710075
 31
0.0
  0
LINE
  5
88
330
1F
100
AcDbEntity
  8
LC-002-100-D00-0
 62
     7
370
    50
100
AcDbLine
 10
201.545724
 20
218.710075
 30
0.0
 11
221.480686
 21
218.710075
 31
0.0
  0
LINE
  5
89
330
1F
100
AcDbEntity
  8
LC-002-100-D00-0
 62
     7
370
    50
100
AcDbLine
 10
223.64575
 20
218.710075
 30
0.0
 11
240.984347
 21
218.710075
 31
0.0
  0
LINE
  5
8A
330
1F
100
AcDbEntity
  8
LC-002-100-D00-0
 62
     7
370
    50
100
AcDbLine
 10
242.234345
 20
218.710075
 30
0.0
 11
248.580713
 21
218.710075
 31
0.0
  0
LINE
  5
8B
330
1F
100
AcDbEntity
  8
LC-002-100-D00-0
 62
     7
370
    50
100
AcDbLine
 10
308.45565
 20
367.210063
 30
0.0
 11
307.545725
 21
369.710061
 31
0.0
  0
LINE
  5
8C
330
1F
100
AcDbEntity
  8
LC-002-100-D00-0
 62
     7
370
    50
100
AcDbLine
 10
250.339951
 20
218.710075
 30
0.0
 11
248.845722
 21
218.710075
 31
0.0
  0
LINE
  5
8D
330
1F
100
AcDbEntity
  8
LC-002-100-D00-0
 62
     7
370
    50
100
AcDbLine
 10
249.925725
 20
352.210077
 30
0.0
 11
251.795724
 21
352.210077
 31
0.0
  0
LINE
  5
8E
330
1F
100
AcDbEntity
  8
LC-002-100-D00-0
 62
     7
370
    50
100
AcDbLine
 10
256.295722
 20
369.210067
 30
0.0
 11
306.545723
 21
369.210067
 31
0.0
  0
LINE
  5
8F
330
1F
100
AcDbEntity
  8
LC-002-100-D00-0
 62
     7
370
    50
100
AcDbLine
 10
308.45565
 20
367.210063
 30
0.0
 11
261.04572
 21
367.210063
 31
0.0
  0
LINE
  5
90
330
1F
100
AcDbEntity
  8
LC-002-100-D00-0
 62
     7
370
    50
100
AcDbLine
 10
306.545723
 20
369.710061
 30
0.0
 11
307.545725
 21
369.710061
 31
0.0
  0
LINE
  5
91
330
1F
100
AcDbEntity
  8
LC-002-100-D00-0
 62
     7
370
    50
100
AcDbLine
 10
85.545722
 20
369.710061
 30
0.0
 11
84.635798
 21
367.210063
 31
0.0
  0
LINE
  5
92
330
1F
100
AcDbEntity
  8
LC-002-100-D00-0
 62
     7
370
    50
100
AcDbLine
 10
144.245725
 20
218.710075
 30
0.0
 11
142.751496
 21
218.710075
 31
0.0
  0
LINE
  5
93
330
1F
100
AcDbEntity
  8
LC-002-100-D00-0
 62
     7
370
    50
100
AcDbLine
 10
141.295723
 20
352.210077
 30
0.0
 11
143.165722
 21
352.210077
 31
0.0
  0
LINE
  5
94
330
1F
100
AcDbEntity
  8
LC-002-100-D00-0
 62
     7
370
    50
100
AcDbLine
 10
86.545724
 20
369.210067
 30
0.0
 11
136.795725
 21
369.210067
 31
0.0
  0
LINE
  5
95
330
1F
100
AcDbEntity
  8
LC-002-100-D00-0
 62
     7
370
    50
100
AcDbLine
 10
132.045727
 20
367.210063
 30
0.0
 11
84.635798
 21
367.210063
 31
0.0
  0
LINE
  5
96
330
1F
100
AcDbEntity
  8
LC-002-100-D00-0
 62
     7
370
    50
100
AcDbLine
 10
85.545722
 20
369.710061
 30
0.0
 11
86.545724
 21
369.710061
 31
0.0
  0
LINE
  5
97
330
1F
100
AcDbEntity
  8
LC-002-100-D00-0
 62
     7
370
    50
100
AcDbLine
 10
321.545725
 20
369.705913
 30
0.0
 11
320.6358
 21
367.205915
 31
0.0
  0
LINE
  5
98
330
1F
100
AcDbEntity
  8
LC-002-100-D00-0
 62
     7
370
    50
100
AcDbLine
 10
325.545718
 20
367.205915
 30
0.0
 11
320.6358
 21
367.205915
 31
0.0
  0
LINE
  5
99
330
1F
100
AcDbEntity
  8
LC-002-100-D00-0
 62
     7
370
    50
100
AcDbLine
 10
321.545725
 20
369.705913
 30
0.0
 11
326.54572
 21
369.705913
 31
0.0
  0
LINE
  5
9A
330
1F
100
AcDbEntity
  8
LC-002-100-D00-0
 62
     7
370
    50
100
AcDbLine
 10
72.455648
 20
367.210063
 30
0.0
 11
71.545724
 21
369.710061
 31
0.0
  0
LINE
  5
9B
330
1F
100
AcDbEntity
  8
LC-002-100-D00-0
 62
     7
370
    50
100
AcDbLine
 10
72.455648
 20
367.210063
 30
0.0
 11
67.54573
 21
367.210063
 31
0.0
  0
LINE
  5
9C
330
1F
100
AcDbEntity
  8
LC-002-100-D00-0
 62
     7
370
    50
100
AcDbLine
 10
66.545728
 20
369.710061
 30
0.0
 11
71.545724
 21
369.710061
 31
0.0
  0
LINE
  5
9D
330
1F
100
AcDbEntity
  8
LC-002-100-D00-0
 62
     7
370
    50
100
AcDbLine
 10
84.635798
 20
367.210063
 30
0.0
 11
72.516959
 21
367.210063
 31
0.0
  0
LINE
  5
9E
330
1F
100
AcDbEntity
  8
LC-002-100-D00-0
 62
     7
370
    50
100
AcDbLine
 10
320.6358
 20
367.205915
 30
0.0
 11
319.961969
 21
367.205915
 31
0.0
  0
LINE
  5
9F
330
1F
100
AcDbEntity
  8
LC-002-100-D00-0
 62
     7
370
    50
100
AcDbLine
 10
72.516959
 20
367.210063
 30
0.0
 11
72.455648
 21
367.210063
 31
0.0
  0
LINE
  5
A0
330
1F
100
AcDbEntity
  8
LC-002-100-D00-0
 62
     7
370
    50
100
AcDbLine
 10
319.961969
 20
367.210063
 30
0.0
 11
308.45565
 21
367.210063
 31
0.0
  0
LINE
  5
A1
330
1F
100
AcDbEntity
  8
LC-002-100-D00-0
 62
     7
370
    50
100
AcDbLine
 10
77.253711
 20
354.205933
 30
0.0
 11
85.931753
 21
354.205933
 31
0.0
  0
LINE
  5
A2
330
1F
100
AcDbEntity
  8
LC-002-100-D00-0
 62
     7
370
    50
100
AcDbLine
 10
85.931753
 20
354.205933
 30
0.0
 11
85.616749
 21
352.705923
 31
0.0
  0
LINE
  5
A3
330
1F
100
AcDbEntity
  8
LC-002-100-D00-0
 62
     7
370
    50
100
AcDbLine
 10
85.594688
 20
352.532265
 30
0.0
 11
85.616749
 21
352.705923
 31
0.0
  0
LINE
  5
A4
330
1F
100
AcDbEntity
  8
LC-002-100-D00-0
 62
     7
370
    50
100
AcDbLine
 10
85.893791
 20
354.210082
 30
0.0
 11
88.453207
 21
367.210063
 31
0.0
  0
INSERT
  5
B8
330
1F
100
AcDbEntity
  8
LC-002-100-D00-0
 62
     7
370
    50
100
AcDbBlockReference
  2
POLY3
 10
0.0
 20
0.0
 30
0.0
  0
LINE
  5
B9
330
1F
100
AcDbEntity
  8
LC-002-100-D00-0
 62
     7
370
    50
100
AcDbLine
 10
85.33882
 20
351.705936
 30
0.0
 11
78.533624
 21
351.705936
 31
0.0
  0
INSERT
  5
C7
330
1F
100
AcDbEntity
  8
LC-002-100-D00-0
 62
     7
370
    50
100
AcDbBlockReference
  2
POLY4
 10
0.0
 20
0.0
 30
0.0
  0
LINE
  5
C8
330
1F
100
AcDbEntity
  8
LC-002-100-D00-0
 62
     7
370
    50
100
AcDbLine
 10
87.966946
 20
351.705936
 30
0.0
 11
85.33882
 21
351.705936
 31
0.0
  0
ARC
  5
C9
330
1F
100
AcDbEntity
  8
LC-002-100-D00-0
 62
     7
370
    50
100
AcDbCircle
 10
88.929629
 20
352.61521
 30
0.0
 40
0.9988845525643105
100
AcDbArc
 50
270.032387
 51
350.187707
  0
INSERT
  5
D7
330
1F
100
AcDbEntity
  8
LC-002-100-D00-0
 62
     7
370
    50
100
AcDbBlockReference
  2
POLY5
 10
0.0
 20
0.0
 30
0.0
  0
LINE
  5
D8
330
1F
100
AcDbEntity
  8
LC-002-100-D00-0
 62
     7
370
    50
100
AcDbLine
 10
262.571093
 20
367.210063
 30
0.0
 11
264.087017
 21
354.210082
 31
0.0
  0
LINE
  5
D9
330
1F
100
AcDbEntity
  8
LC-002-100-D00-0
 62
     7
370
    50
100
AcDbLine
 10
264.251109
 20
352.710071
 30
0.0
 11
264.064532
 21
354.210082
 31
0.0
  0
INSERT
  5
E7
330
1F
100
AcDbEntity
  8
LC-002-100-D00-0
 62
     7
370
    50
100
AcDbBlockReference
  2
POLY6
 10
0.0
 20
0.0
 30
0.0
  0
INSERT
  5
FB
330
1F
100
AcDbEntity
  8
LC-002-100-D00-0
 62
     7
370
    50
100
AcDbBlockReference
  2
POLY7
 10
0.0
 20
0.0
 30
0.0
  0
LINE
  5
FC
330
1F
100
AcDbEntity
  8
LC-002-100-D00-0
 62
     7
370
    50
100
AcDbLine
 10
264.251109
 20
352.710071
 30
0.0
 11
264.254037
 21
352.536413
 31
0.0
  0
LINE
  5
FD
330
1F
100
AcDbEntity
  8
LC-002-100-D00-0
 62
     7
370
    50
100
AcDbLine
 10
263.748143
 20
351.710084
 30
0.0
 11
262.191523
 21
351.710084
 31
0.0
  0
LINE
  5
FE
330
1F
100
AcDbEntity
  8
LC-002-100-D00-0
 62
     7
370
    50
100
AcDbLine
 10
264.064532
 20
354.210082
 30
0.0
 11
265.74965
 21
354.210082
 31
0.0
  0
LINE
  5
FF
330
1F
100
AcDbEntity
  8
LC-002-100-D00-0
 62
     7
370
    50
100
AcDbLine
 10
265.74965
 20
351.710084
 30
0.0
 11
263.748143
 21
351.710084
 31
0.0
  0
LINE
  5
100
330
1F
100
AcDbEntity
  8
LC-002-100-D00-0
 62
     7
370
    50
100
AcDbLine
 10
124.545727
 20
226.975071
 30
0.0
 11
124.045726
 21
227.47508
 31
0.0
  0
LINE
  5
101
330
1F
100
AcDbEntity
  8
LC-002-100-D00-0
 62
     7
370
    50
100
AcDbLine
 10
124.045726
 20
227.47508
 30
0.0
 11
124.545727
 21
227.47508
 31
0.0
  0
LINE
  5
102
330
1F
100
AcDbEntity
  8
LC-002-100-D00-0
 62
     7
370
    50
100
AcDbLine
 10
128.54572
 20
227.47508
 30
0.0
 11
129.045721
 21
227.47508
 31
0.0
  0
LINE
  5
103
330
1F
100
AcDbEntity
  8
LC-002-100-D00-0
 62
     7
370
    50
100
AcDbLine
 10
129.045721
 20
227.47508
 30
0.0
 11
128.54572
 21
226.975071
 31
0.0
  0
LINE
  5
104
330
1F
100
AcDbEntity
  8
LC-002-100-D00-0
 62
     7
370
    50
100
AcDbLine
 10
124.045726
 20
227.47508
 30
0.0
 11
124.045726
 21
239.975083
 31
0.0
  0
LINE
  5
105
330
1F
100
AcDbEntity
  8
LC-002-100-D00-0
 62
     7
370
    50
100
AcDbLine
 10
129.045721
 20
239.975083
 30
0.0
 11
128.54572
 21
239.975083
 31
0.0
  0
LINE
  5
106
330
1F
100
AcDbEntity
  8
LC-002-100-D00-0
 62
     7
370
    50
100
AcDbLine
 10
124.545727
 20
239.975083
 30
0.0
 11
124.045726
 21
239.975083
 31
0.0
  0
LINE
  5
107
330
1F
100
AcDbEntity
  8
LC-002-100-D00-0
 62
     7
370
    50
100
AcDbLine
 10
129.045721
 20
239.975083
 30
0.0
 11
129.045721
 21
227.47508
 31
0.0
  0
LINE
  5
108
330
1F
100
AcDbEntity
  8
LC-002-100-D00-0
 62
     7
370
    50
100
AcDbLine
 10
121.545721
 20
240.475076
 30
0.0
 11
121.545721
 21
239.975083
 31
0.0
  0
INSERT
  5
114
330
1F
100
AcDbEntity
  8
LC-002-100-D00-0
 62
     7
370
    50
100
AcDbBlockReference
  2
POLY8
 10
0.0
 20
0.0
 30
0.0
  0
ARC
  5
115
330
1F
100
AcDbEntity
  8
LC-002-100-D00-0
 62
     7
370
    50
100
AcDbCircle
 10
266.545724
 20
228.710072
 30
0.0
 40
5.000000000000004
100
AcDbArc
 50
234.578322
 51
305.421678
  0
LINE
  5
116
330
1F
100
AcDbEntity
  8
LC-002-100-D00-0
 62
     7
370
    50
100
AcDbLine
 10
218.545724
 20
156.210071
 30
0.0
 11
218.545724
 21
95.710072
 31
0.0
  0
LINE
  5
117
330
1F
100
AcDbEntity
  8
LC-002-100-D00-0
 62
     7
370
    50
100
AcDbLine
 10
174.545724
 20
95.710072
 30
0.0
 11
218.545724
 21
95.710072
 31
0.0
  0
LINE
  5
118
330
1F
100
AcDbEntity
  8
LC-002-100-D00-0
 62
     7
370
    50
100
AcDbLine
 10
174.545724
 20
95.710072
 30
0.0
 11
174.545724
 21
156.210071
 31
0.0
  0
LINE
  5
119
330
1F
100
AcDbEntity
  8
LC-002-100-D00-0
 62
     7
370
    50
100
AcDbLine
 10
174.545724
 20
156.210071
 30
0.0
 11
218.545724
 21
156.210071
 31
0.0
  0
LINE
  5
11A
330
1F
100
AcDbEntity
  8
LC-002-100-D00-0
 62
     7
370
    50
100
AcDbLine
 10
271.834399
 20
239.975083
 30
0.0
 11
271.545727
 21
240.475076
 31
0.0
  0
LINE
  5
11B
330
1F
100
AcDbEntity
  8
LC-002-100-D00-0
 62
     7
370
    50
100
AcDbLine
 10
121.545721
 20
240.475076
 30
0.0
 11
121.257048
 21
239.975083
 31
0.0
  0
ARC
  5
11C
330
1F
100
AcDbEntity
  8
LC-002-100-D00-0
 62
     7
370
    50
100
AcDbCircle
 10
245.305865
 20
156.710072
 30
0.0
 40
3.0
100
AcDbArc
 50
270.0
 51
344.999892
  0
ARC
  5
11D
330
1F
100
AcDbEntity
  8
LC-002-100-D00-0
 62
     7
370
    50
100
AcDbCircle
 10
147.785583
 20
156.710072
 30
0.0
 40
3.000000000000007
100
AcDbArc
 50
195.000108
 51
270.0
  0
LINE
  5
11E
330
1F
100
AcDbEntity
  8
LC-002-100-D00-0
 62
     7
370
    50
100
AcDbLine
 10
141.545724
 20
168.40634
 30
0.0
 11
144.887809
 21
155.93361
 31
0.0
  0
LINE
  5
11F
330
1F
100
AcDbEntity
  8
LC-002-100-D00-0
 62
     7
370
    50
100
AcDbLine
 10
248.203639
 20
155.93361
 30
0.0
 11
251.545723
 21
168.40634
 31
0.0
  0
LINE
  5
120
330
1F
100
AcDbEntity
  8
LC-002-100-D00-0
 62
     7
370
    50
100
AcDbLine
 10
251.545723
 20
168.40634
 30
0.0
 11
251.545723
 21
210.710074
 31
0.0
  0
LINE
  5
121
330
1F
100
AcDbEntity
  8
LC-002-100-D00-0
 62
     7
370
    50
100
AcDbLine
 10
141.545724
 20
210.710074
 30
0.0
 11
141.545724
 21
168.40634
 31
0.0
  0
ARC
  5
122
330
1F
100
AcDbEntity
  8
LC-002-100-D00-0
 62
     7
370
    50
100
AcDbCircle
 10
136.545724
 20
213.710072
 30
0.0
 40
3.000000000000057
100
AcDbArc
 50
180.0
 51
270.0
  0
ARC
  5
123
330
1F
100
AcDbEntity
  8
LC-002-100-D00-0
 62
     7
370
    50
100
AcDbCircle
 10
256.545724
 20
213.710072
 30
0.0
 40
3.0
100
AcDbArc
 50
270.0
 51
0.0
  0
ARC
  5
124
330
1F
100
AcDbEntity
  8
LC-002-100-D00-0
 62
     7
370
    50
100
AcDbCircle
 10
247.045724
 20
168.603821
 30
0.0
 40
1.50000000000004
100
AcDbArc
 50
344.999691
 51
0.0
  0
ARC
  5
125
330
1F
100
AcDbEntity
  8
LC-002-100-D00-0
 62
     7
370
    50
100
AcDbCircle
 10
146.045724
 20
168.603821
 30
0.0
 40
1.500000000000057
100
AcDbArc
 50
180.0
 51
195.000309
  0
INSERT
  5
139
330
1F
100
AcDbEntity
  8
LC-002-100-D00-0
 62
     7
370
    50
100
AcDbBlockReference
  2
POLY9
 10
0.0
 20
0.0
 30
0.0
  0
LINE
  5
13A
330
1F
100
AcDbEntity
  8
LC-002-100-D00-0
 62
     7
370
    50
100
AcDbLine
 10
271.545727
 20
239.975083
 30
0.0
 11
271.545727
 21
240.475076
 31
0.0
  0
LINE
  5
13B
330
1F
100
AcDbEntity
  8
LC-002-100-D00-0
 62
     7
370
    50
100
AcDbLine
 10
131.834503
 20
239.975083
 30
0.0
 11
131.54583
 21
240.475076
 31
0.0
  0
LINE
  5
13C
330
1F
100
AcDbEntity
  8
LC-002-100-D00-0
 62
     7
370
    50
100
AcDbLine
 10
261.545617
 20
240.475076
 30
0.0
 11
261.256944
 21
239.975083
 31
0.0
  0
LINE
  5
13D
330
1F
100
AcDbEntity
  8
LC-002-100-D00-0
 62
     7
370
    50
100
AcDbLine
 10
172.483546
 20
95.710072
 30
0.0
 11
171.545723
 21
99.210072
 31
0.0
  0
LINE
  5
13E
330
1F
100
AcDbEntity
  8
LC-002-100-D00-0
 62
     7
370
    50
100
AcDbLine
 10
221.545724
 20
99.210072
 30
0.0
 11
220.607901
 21
95.710072
 31
0.0
  0
LINE
  5
13F
330
1F
100
AcDbEntity
  8
LC-002-100-D00-0
 62
     7
370
    50
100
AcDbLine
 10
221.545724
 20
99.210072
 30
0.0
 11
221.545724
 21
153.71007
 31
0.0
  0
LINE
  5
140
330
1F
100
AcDbEntity
  8
LC-002-100-D00-0
 62
     7
370
    50
100
AcDbLine
 10
171.545723
 20
153.71007
 30
0.0
 11
171.545723
 21
99.210072
 31
0.0
  0
LINE
  5
141
330
1F
100
AcDbEntity
  8
LC-002-100-D00-0
 62
     7
370
    50
100
AcDbLine
 10
113.545727
 20
239.975083
 30
0.0
 11
120.545726
 21
239.975083
 31
0.0
  0
LINE
  5
142
330
1F
100
AcDbEntity
  8
LC-002-100-D00-0
 62
     7
370
    50
100
AcDbLine
 10
272.545721
 20
239.975083
 30
0.0
 11
279.54572
 21
239.975083
 31
0.0
  0
LINE
  5
143
330
1F
100
AcDbEntity
  8
LC-002-100-D00-0
 62
     7
370
    50
100
AcDbLine
 10
279.54572
 20
239.975083
 30
0.0
 11
279.54572
 21
236.475083
 31
0.0
  0
LINE
  5
144
330
1F
100
AcDbEntity
  8
LC-002-100-D00-0
 62
     7
370
    50
100
AcDbLine
 10
113.545727
 20
236.475083
 30
0.0
 11
113.545727
 21
239.975083
 31
0.0
  0
LINE
  5
145
330
1F
100
AcDbEntity
  8
LC-002-100-D00-0
 62
     7
370
    50
100
AcDbLine
 10
272.545721
 20
236.475083
 30
0.0
 11
272.545721
 21
239.975083
 31
0.0
  0
LINE
  5
146
330
1F
100
AcDbEntity
  8
LC-002-100-D00-0
 62
     7
370
    50
100
AcDbLine
 10
120.545726
 20
239.975083
 30
0.0
 11
120.545726
 21
236.475083
 31
0.0
  0
LINE
  5
147
330
1F
100
AcDbEntity
  8
LC-002-100-D00-0
 62
     7
370
    50
100
AcDbLine
 10
259.545725
 20
224.635529
 30
0.0
 11
259.545725
 21
213.710072
 31
0.0
  0
LINE
  5
148
330
1F
100
AcDbEntity
  8
LC-002-100-D00-0
 62
     7
370
    50
100
AcDbLine
 10
133.545723
 20
213.710072
 30
0.0
 11
133.545723
 21
224.635529
 31
0.0
  0
LINE
  5
149
330
1F
100
AcDbEntity
  8
LC-002-100-D00-0
 62
     7
370
    50
100
AcDbLine
 10
272.545721
 20
224.635529
 30
0.0
 11
272.545721
 21
234.135526
 31
0.0
  0
LINE
  5
14A
330
1F
100
AcDbEntity
  8
LC-002-100-D00-0
 62
     7
370
    50
100
AcDbLine
 10
113.572854
 20
234.135526
 30
0.0
 11
110.894453
 21
236.514273
 31
0.0
  0
LINE
  5
14B
330
1F
100
AcDbEntity
  8
LC-002-100-D00-0
 62
     7
370
    50
100
AcDbLine
 10
282.196995
 20
236.514273
 30
0.0
 11
279.518593
 21
234.135526
 31
0.0
  0
LINE
  5
14C
330
1F
100
AcDbEntity
  8
LC-002-100-D00-0
 62
     7
370
    50
100
AcDbLine
 10
110.894453
 20
236.514273
 30
0.0
 11
91.027755
 21
242.588121
 31
0.0
  0
LINE
  5
14D
330
1F
100
AcDbEntity
  8
LC-002-100-D00-0
 62
     7
370
    50
100
AcDbLine
 10
302.063692
 20
242.588121
 30
0.0
 11
282.196995
 21
236.514273
 31
0.0
  0
LINE
  5
14E
330
1F
100
AcDbEntity
  8
LC-002-100-D00-0
 62
     7
370
    50
100
AcDbLine
 10
91.027755
 20
242.588121
 30
0.0
 11
82.045723
 21
242.897618
 31
0.0
  0
LINE
  5
14F
330
1F
100
AcDbEntity
  8
LC-002-100-D00-0
 62
     7
370
    50
100
AcDbLine
 10
311.045725
 20
242.897618
 30
0.0
 11
302.063692
 21
242.588121
 31
0.0
  0
LINE
  5
150
330
1F
100
AcDbEntity
  8
LC-002-100-D00-0
 62
     7
370
    50
100
AcDbLine
 10
311.045725
 20
242.897618
 30
0.0
 11
311.045725
 21
244.380581
 31
0.0
  0
LINE
  5
151
330
1F
100
AcDbEntity
  8
LC-002-100-D00-0
 62
     7
370
    50
100
AcDbLine
 10
82.045723
 20
244.380581
 30
0.0
 11
82.045723
 21
242.897618
 31
0.0
  0
ARC
  5
152
330
1F
100
AcDbEntity
  8
LC-002-100-D00-0
 62
     7
370
    50
100
AcDbCircle
 10
309.045724
 20
244.380586
 30
0.0
 40
2.0
100
AcDbArc
 50
0.0
 51
91.898363
  0
LINE
  5
153
330
1F
100
AcDbEntity
  8
LC-002-100-D00-0
 62
     7
370
    50
100
AcDbLine
 10
84.111977
 20
246.379483
 30
0.0
 11
122.553076
 21
246.379483
 31
0.0
  0
LINE
  5
154
330
1F
100
AcDbEntity
  8
LC-002-100-D00-0
 62
     7
370
    50
100
AcDbLine
 10
130.53837
 20
246.379483
 30
0.0
 11
135.545723
 21
246.379483
 31
0.0
  0
LINE
  5
155
330
1F
100
AcDbEntity
  8
LC-002-100-D00-0
 62
     7
370
    50
100
AcDbLine
 10
257.545724
 20
246.379483
 30
0.0
 11
308.97947
 21
246.379483
 31
0.0
  0
ARC
  5
156
330
1F
100
AcDbEntity
  8
LC-002-100-D00-0
 62
     7
370
    50
100
AcDbCircle
 10
84.045724
 20
244.380586
 30
0.0
 40
1.999999999999988
100
AcDbArc
 50
88.101637
 51
180.0
  0
LINE
  5
157
330
1F
100
AcDbEntity
  8
LC-002-100-D00-0
 62
     7
370
    50
100
AcDbLine
 10
91.386478
 20
246.138382
 30
0.0
 11
122.238811
 21
246.138382
 31
0.0
  0
LINE
  5
158
330
1F
100
AcDbEntity
  8
LC-002-100-D00-0
 62
     7
370
    50
100
AcDbLine
 10
130.852636
 20
246.138382
 30
0.0
 11
135.545723
 21
246.138382
 31
0.0
  0
LINE
  5
159
330
1F
100
AcDbEntity
  8
LC-002-100-D00-0
 62
     7
370
    50
100
AcDbLine
 10
257.545724
 20
246.138382
 30
0.0
 11
301.704969
 21
246.138382
 31
0.0
  0
LINE
  5
15A
330
1F
100
AcDbEntity
  8
LC-002-100-D00-0
 62
     7
370
    50
100
AcDbLine
 10
91.386478
 20
246.138382
 30
0.0
 11
84.111977
 21
246.379483
 31
0.0
  0
LINE
  5
15B
330
1F
100
AcDbEntity
  8
LC-002-100-D00-0
 62
     7
370
    50
100
AcDbLine
 10
308.97947
 20
246.379483
 30
0.0
 11
301.704969
 21
246.138382
 31
0.0
  0
LINE
  5
15C
330
1F
100
AcDbEntity
  8
LC-002-100-D00-0
 62
     7
370
    50
100
AcDbLine
 10
264.545727
 20
226.975071
 30
0.0
 11
264.045726
 21
227.47508
 31
0.0
  0
LINE
  5
15D
330
1F
100
AcDbEntity
  8
LC-002-100-D00-0
 62
     7
370
    50
100
AcDbLine
 10
264.045726
 20
227.47508
 30
0.0
 11
269.045722
 21
227.47508
 31
0.0
  0
LINE
  5
15E
330
1F
100
AcDbEntity
  8
LC-002-100-D00-0
 62
     7
370
    50
100
AcDbLine
 10
269.045722
 20
227.47508
 30
0.0
 11
268.545721
 21
226.975071
 31
0.0
  0
LINE
  5
15F
330
1F
100
AcDbEntity
  8
LC-002-100-D00-0
 62
     7
370
    50
100
AcDbLine
 10
264.045726
 20
227.47508
 30
0.0
 11
264.045726
 21
239.975083
 31
0.0
  0
LINE
  5
160
330
1F
100
AcDbEntity
  8
LC-002-100-D00-0
 62
     7
370
    50
100
AcDbLine
 10
269.045722
 20
239.975083
 30
0.0
 11
269.045722
 21
227.47508
 31
0.0
  0
LINE
  5
161
330
1F
100
AcDbEntity
  8
LC-002-100-D00-0
 62
     7
370
    50
100
AcDbLine
 10
269.045722
 20
239.975083
 30
0.0
 11
264.045726
 21
239.975083
 31
0.0
  0
LINE
  5
162
330
1F
100
AcDbEntity
  8
LC-002-100-D00-0
 62
     7
370
    50
100
AcDbLine
 10
261.545721
 20
240.474883
 30
0.0
 11
261.545721
 21
239.975083
 31
0.0
  0
INSERT
  5
16E
330
1F
100
AcDbEntity
  8
LC-002-100-D00-0
 62
     7
370
    50
100
AcDbBlockReference
  2
POLY10
 10
0.0
 20
0.0
 30
0.0
  0
INSERT
  5
17E
330
1F
100
AcDbEntity
  8
LC-002-100-D00-0
 62
     7
370
    50
100
AcDbBlockReference
  2
POLY11
 10
0.0
 20
0.0
 30
0.0
  0
LINE
  5
17F
330
1F
100
AcDbEntity
  8
LC-002-100-D00-0
 62
     7
370
    50
100
AcDbLine
 10
131.545726
 20
239.975083
 30
0.0
 11
131.545726
 21
240.474883
 31
0.0
  0
LINE
  5
180
330
1F
100
AcDbEntity
  8
LC-002-100-D00-0
 62
     7
370
    50
100
AcDbLine
 10
260.545727
 20
239.975083
 30
0.0
 11
260.545727
 21
241.475153
 31
0.0
  0
LINE
  5
181
330
1F
100
AcDbEntity
  8
LC-002-100-D00-0
 62
     7
370
    50
100
AcDbLine
 10
132.545721
 20
241.475153
 30
0.0
 11
132.545721
 21
239.975083
 31
0.0
  0
LINE
  5
182
330
1F
100
AcDbEntity
  8
LC-002-100-D00-0
 62
     7
370
    50
100
AcDbLine
 10
111.545723
 20
239.975083
 30
0.0
 11
91.386478
 21
246.138382
 31
0.0
  0
LINE
  5
183
330
1F
100
AcDbEntity
  8
LC-002-100-D00-0
 62
     7
370
    50
100
AcDbLine
 10
301.704969
 20
246.138382
 30
0.0
 11
281.545725
 21
239.975083
 31
0.0
  0
LINE
  5
184
330
1F
100
AcDbEntity
  8
LC-002-100-D00-0
 62
     7
370
    50
100
AcDbLine
 10
144.545723
 20
213.710072
 30
0.0
 11
144.545723
 21
168.603818
 31
0.0
  0
LINE
  5
185
330
1F
100
AcDbEntity
  8
LC-002-100-D00-0
 62
     7
370
    50
100
AcDbLine
 10
144.596837
 20
168.215583
 30
0.0
 11
147.21797
 21
158.433597
 31
0.0
  0
ARC
  5
186
330
1F
100
AcDbEntity
  8
LC-002-100-D00-0
 62
     7
370
    50
100
AcDbCircle
 10
150.115742
 20
159.210072
 30
0.0
 40
3.00000000000001
100
AcDbArc
 50
195.000309
 51
270.0
  0
ARC
  5
187
330
1F
100
AcDbEntity
  8
LC-002-100-D00-0
 62
     7
370
    50
100
AcDbCircle
 10
126.545724
 20
228.710072
 30
0.0
 40
5.000000000000004
100
AcDbArc
 50
234.578322
 51
305.421678
  0
LINE
  5
188
330
1F
100
AcDbEntity
  8
LC-002-100-D00-0
 62
     7
370
    50
100
AcDbLine
 10
120.545726
 20
234.135526
 30
0.0
 11
120.545726
 21
224.635529
 31
0.0
  0
LINE
  5
189
330
1F
100
AcDbEntity
  8
LC-002-100-D00-0
 62
     7
370
    50
100
AcDbLine
 10
131.54583
 20
240.475076
 30
0.0
 11
131.545726
 21
240.474883
 31
0.0
  0
LINE
  5
18A
330
1F
100
AcDbEntity
  8
LC-002-100-D00-0
 62
     7
370
    50
100
AcDbLine
 10
133.545723
 20
244.475144
 30
0.0
 11
133.545723
 21
241.475153
 31
0.0
  0
LINE
  5
18B
330
1F
100
AcDbEntity
  8
LC-002-100-D00-0
 62
     7
370
    50
100
AcDbLine
 10
133.545723
 20
244.475144
 30
0.0
 11
135.545723
 21
244.475144
 31
0.0
  0
LINE
  5
18C
330
1F
100
AcDbEntity
  8
LC-002-100-D00-0
 62
     7
370
    50
100
AcDbLine
 10
135.545723
 20
241.475153
 30
0.0
 11
135.545723
 21
244.475144
 31
0.0
  0
LINE
  5
18D
330
1F
100
AcDbEntity
  8
LC-002-100-D00-0
 62
     7
370
    50
100
AcDbLine
 10
135.545619
 20
241.475153
 30
0.0
 11
135.545723
 21
241.475153
 31
0.0
  0
LINE
  5
18E
330
1F
100
AcDbEntity
  8
LC-002-100-D00-0
 62
     7
370
    50
100
AcDbLine
 10
136.545725
 20
240.475076
 30
0.0
 11
135.545619
 21
241.475153
 31
0.0
  0
LINE
  5
18F
330
1F
100
AcDbEntity
  8
LC-002-100-D00-0
 62
     7
370
    50
100
AcDbLine
 10
136.545725
 20
213.710072
 30
0.0
 11
136.545725
 21
240.475076
 31
0.0
  0
LINE
  5
190
330
1F
100
AcDbEntity
  8
LC-002-100-D00-0
 62
     7
370
    50
100
AcDbLine
 10
144.545723
 20
213.710072
 30
0.0
 11
136.545725
 21
213.710072
 31
0.0
  0
LINE
  5
191
330
1F
100
AcDbEntity
  8
LC-002-100-D00-0
 62
     7
370
    50
100
AcDbLine
 10
123.647775
 20
224.635529
 30
0.0
 11
120.545726
 21
224.635529
 31
0.0
  0
LINE
  5
192
330
1F
100
AcDbEntity
  8
LC-002-100-D00-0
 62
     7
370
    50
100
AcDbLine
 10
133.545723
 20
224.635529
 30
0.0
 11
129.443671
 21
224.635529
 31
0.0
  0
LINE
  5
193
330
1F
100
AcDbEntity
  8
LC-002-100-D00-0
 62
     7
370
    50
100
AcDbLine
 10
132.545721
 20
241.475153
 30
0.0
 11
133.545723
 21
241.475153
 31
0.0
  0
LINE
  5
194
330
1F
100
AcDbEntity
  8
LC-002-100-D00-0
 62
     7
370
    50
100
AcDbLine
 10
113.545727
 20
239.975083
 30
0.0
 11
111.545723
 21
239.975083
 31
0.0
  0
LINE
  5
195
330
1F
100
AcDbEntity
  8
LC-002-100-D00-0
 62
     7
370
    50
100
AcDbLine
 10
132.545721
 20
239.975083
 30
0.0
 11
131.834503
 21
239.975083
 31
0.0
  0
LINE
  5
196
330
1F
100
AcDbEntity
  8
LC-002-100-D00-0
 62
     7
370
    50
100
AcDbLine
 10
120.545726
 20
234.135526
 30
0.0
 11
113.572854
 21
234.135526
 31
0.0
  0
LINE
  5
197
330
1F
100
AcDbEntity
  8
LC-002-100-D00-0
 62
     7
370
    50
100
AcDbLine
 10
120.545726
 20
236.475083
 30
0.0
 11
113.545727
 21
236.475083
 31
0.0
  0
LINE
  5
198
330
1F
100
AcDbEntity
  8
LC-002-100-D00-0
 62
     7
370
    50
100
AcDbLine
 10
147.785581
 20
153.71007
 30
0.0
 11
171.545723
 21
153.71007
 31
0.0
  0
LINE
  5
199
330
1F
100
AcDbEntity
  8
LC-002-100-D00-0
 62
     7
370
    50
100
AcDbLine
 10
174.545724
 20
95.710072
 30
0.0
 11
172.483546
 21
95.710072
 31
0.0
  0
LINE
  5
19A
330
1F
100
AcDbEntity
  8
LC-002-100-D00-0
 62
     7
370
    50
100
AcDbLine
 10
131.545726
 20
239.975083
 30
0.0
 11
129.045721
 21
239.975083
 31
0.0
  0
LINE
  5
19B
330
1F
100
AcDbEntity
  8
LC-002-100-D00-0
 62
     7
370
    50
100
AcDbLine
 10
124.045726
 20
239.975083
 30
0.0
 11
121.545721
 21
239.975083
 31
0.0
  0
LINE
  5
19C
330
1F
100
AcDbEntity
  8
LC-002-100-D00-0
 62
     7
370
    50
100
AcDbLine
 10
136.545725
 20
210.710074
 30
0.0
 11
141.545724
 21
210.710074
 31
0.0
  0
LINE
  5
19D
330
1F
100
AcDbEntity
  8
LC-002-100-D00-0
 62
     7
370
    50
100
AcDbLine
 10
150.115743
 20
156.210071
 30
0.0
 11
174.545724
 21
156.210071
 31
0.0
  0
LINE
  5
19E
330
1F
100
AcDbEntity
  8
LC-002-100-D00-0
 62
     7
370
    50
100
AcDbLine
 10
121.257048
 20
239.975083
 30
0.0
 11
120.545726
 21
239.975083
 31
0.0
  0
LINE
  5
19F
330
1F
100
AcDbEntity
  8
LC-002-100-D00-0
 62
     7
370
    50
100
AcDbLine
 10
124.545727
 20
226.975071
 30
0.0
 11
128.54572
 21
226.975071
 31
0.0
  0
LINE
  5
1A0
330
1F
100
AcDbEntity
  8
LC-002-100-D00-0
 62
     7
370
    50
100
AcDbLine
 10
261.545721
 20
240.474883
 30
0.0
 11
261.545617
 21
240.475076
 31
0.0
  0
LINE
  5
1A1
330
1F
100
AcDbEntity
  8
LC-002-100-D00-0
 62
     7
370
    50
100
AcDbLine
 10
248.545725
 20
168.603818
 30
0.0
 11
248.545725
 21
213.710072
 31
0.0
  0
LINE
  5
1A2
330
1F
100
AcDbEntity
  8
LC-002-100-D00-0
 62
     7
370
    50
100
AcDbLine
 10
144.545723
 20
213.710072
 30
0.0
 11
248.545725
 21
213.710072
 31
0.0
  0
LINE
  5
1A3
330
1F
100
AcDbEntity
  8
LC-002-100-D00-0
 62
     7
370
    50
100
AcDbLine
 10
245.873477
 20
158.433597
 30
0.0
 11
246.147526
 21
159.456337
 31
0.0
  0
LINE
  5
1A4
330
1F
100
AcDbEntity
  8
LC-002-100-D00-0
 62
     7
370
    50
100
AcDbLine
 10
248.084437
 20
166.684829
 30
0.0
 11
248.49461
 21
168.215583
 31
0.0
  0
ARC
  5
1A5
330
1F
100
AcDbEntity
  8
LC-002-100-D00-0
 62
     7
370
    50
100
AcDbCircle
 10
242.975705
 20
159.210072
 30
0.0
 40
3.0
100
AcDbArc
 50
270.0
 51
344.999691
  0
LINE
  5
1A6
330
1F
100
AcDbEntity
  8
LC-002-100-D00-0
 62
     7
370
    50
100
AcDbLine
 10
257.545829
 20
241.475153
 30
0.0
 11
256.545722
 21
240.475076
 31
0.0
  0
LINE
  5
1A7
330
1F
100
AcDbEntity
  8
LC-002-100-D00-0
 62
     7
370
    50
100
AcDbLine
 10
256.545722
 20
213.710072
 30
0.0
 11
248.545725
 21
213.710072
 31
0.0
  0
LINE
  5
1A8
330
1F
100
AcDbEntity
  8
LC-002-100-D00-0
 62
     7
370
    50
100
AcDbLine
 10
256.545722
 20
240.475076
 30
0.0
 11
256.545722
 21
213.710072
 31
0.0
  0
LINE
  5
1A9
330
1F
100
AcDbEntity
  8
LC-002-100-D00-0
 62
     7
370
    50
100
AcDbLine
 10
263.647776
 20
224.635529
 30
0.0
 11
259.545725
 21
224.635529
 31
0.0
  0
LINE
  5
1AA
330
1F
100
AcDbEntity
  8
LC-002-100-D00-0
 62
     7
370
    50
100
AcDbLine
 10
272.545721
 20
224.635529
 30
0.0
 11
269.443672
 21
224.635529
 31
0.0
  0
LINE
  5
1AB
330
1F
100
AcDbEntity
  8
LC-002-100-D00-0
 62
     7
370
    50
100
AcDbLine
 10
257.545829
 20
241.475153
 30
0.0
 11
260.545727
 21
241.475153
 31
0.0
  0
LINE
  5
1AC
330
1F
100
AcDbEntity
  8
LC-002-100-D00-0
 62
     7
370
    50
100
AcDbLine
 10
281.545725
 20
239.975083
 30
0.0
 11
279.54572
 21
239.975083
 31
0.0
  0
LINE
  5
1AD
330
1F
100
AcDbEntity
  8
LC-002-100-D00-0
 62
     7
370
    50
100
AcDbLine
 10
261.256944
 20
239.975083
 30
0.0
 11
260.545727
 21
239.975083
 31
0.0
  0
LINE
  5
1AE
330
1F
100
AcDbEntity
  8
LC-002-100-D00-0
 62
     7
370
    50
100
AcDbLine
 10
279.518593
 20
234.135526
 30
0.0
 11
272.545721
 21
234.135526
 31
0.0
  0
LINE
  5
1AF
330
1F
100
AcDbEntity
  8
LC-002-100-D00-0
 62
     7
370
    50
100
AcDbLine
 10
279.54572
 20
236.475083
 30
0.0
 11
272.545721
 21
236.475083
 31
0.0
  0
LINE
  5
1B0
330
1F
100
AcDbEntity
  8
LC-002-100-D00-0
 62
     7
370
    50
100
AcDbLine
 10
221.545724
 20
153.71007
 30
0.0
 11
245.305866
 21
153.71007
 31
0.0
  0
LINE
  5
1B1
330
1F
100
AcDbEntity
  8
LC-002-100-D00-0
 62
     7
370
    50
100
AcDbLine
 10
220.607901
 20
95.710072
 30
0.0
 11
218.545724
 21
95.710072
 31
0.0
  0
LINE
  5
1B2
330
1F
100
AcDbEntity
  8
LC-002-100-D00-0
 62
     7
370
    50
100
AcDbLine
 10
264.045726
 20
239.975083
 30
0.0
 11
261.545721
 21
239.975083
 31
0.0
  0
LINE
  5
1B3
330
1F
100
AcDbEntity
  8
LC-002-100-D00-0
 62
     7
370
    50
100
AcDbLine
 10
271.545727
 20
239.975083
 30
0.0
 11
269.045722
 21
239.975083
 31
0.0
  0
LINE
  5
1B4
330
1F
100
AcDbEntity
  8
LC-002-100-D00-0
 62
     7
370
    50
100
AcDbLine
 10
251.545723
 20
210.710074
 30
0.0
 11
256.545722
 21
210.710074
 31
0.0
  0
LINE
  5
1B5
330
1F
100
AcDbEntity
  8
LC-002-100-D00-0
 62
     7
370
    50
100
AcDbLine
 10
264.545727
 20
226.975071
 30
0.0
 11
268.545721
 21
226.975071
 31
0.0
  0
LINE
  5
1B6
330
1F
100
AcDbEntity
  8
LC-002-100-D00-0
 62
     7
370
    50
100
AcDbLine
 10
218.545724
 20
156.210071
 30
0.0
 11
242.975704
 21
156.210071
 31
0.0
  0
LINE
  5
1B7
330
1F
100
AcDbEntity
  8
LC-002-100-D00-0
 62
     7
370
    50
100
AcDbLine
 10
272.545721
 20
239.975083
 30
0.0
 11
271.834399
 21
239.975083
 31
0.0
  0
LINE
  5
1B8
330
1F
100
AcDbEntity
  8
LC-002-100-D00-0
 62
     7
370
    50
100
AcDbLine
 10
135.612391
 20
244.475144
 30
0.0
 11
135.612391
 21
241.475153
 31
0.0
  0
LINE
  5
1B9
330
1F
100
AcDbEntity
  8
LC-002-100-D00-0
 62
     7
370
    50
100
AcDbLine
 10
135.545723
 20
241.475153
 30
0.0
 11
135.612391
 21
241.475153
 31
0.0
  0
LINE
  5
1BA
330
1F
100
AcDbEntity
  8
LC-002-100-D00-0
 62
     7
370
    50
100
AcDbLine
 10
135.545723
 20
244.475144
 30
0.0
 11
135.612391
 21
244.475144
 31
0.0
  0
LINE
  5
1BB
330
1F
100
AcDbEntity
  8
LC-002-100-D00-0
 62
     7
370
    50
100
AcDbLine
 10
256.545722
 20
241.475153
 30
0.0
 11
257.545829
 21
241.475153
 31
0.0
  0
LINE
  5
1BC
330
1F
100
AcDbEntity
  8
LC-002-100-D00-0
 62
     7
370
    50
100
AcDbLine
 10
135.612283
 20
241.475153
 30
0.0
 11
136.545725
 21
241.475153
 31
0.0
  0
INSERT
  5
1C6
330
1F
100
AcDbEntity
  8
LC-002-100-D00-0
 62
     7
370
    50
100
AcDbBlockReference
  2
POLY12
 10
0.0
 20
0.0
 30
0.0
  0
INSERT
  5
1D0
330
1F
100
AcDbEntity
  8
LC-002-100-D00-0
 62
     7
370
    50
100
AcDbBlockReference
  2
POLY13
 10
0.0
 20
0.0
 30
0.0
  0
INSERT
  5
1DA
330
1F
100
AcDbEntity
  8
LC-002-100-D00-0
 62
     7
370
    50
100
AcDbBlockReference
  2
POLY14
 10
0.0
 20
0.0
 30
0.0
  0
INSERT
  5
1E4
330
1F
100
AcDbEntity
  8
LC-002-100-D00-0
 62
     7
370
    50
100
AcDbBlockReference
  2
POLY15
 10
0.0
 20
0.0
 30
0.0
  0
INSERT
  5
1EE
330
1F
100
AcDbEntity
  8
LC-002-100-D00-0
 62
     7
370
    50
100
AcDbBlockReference
  2
POLY16
 10
0.0
 20
0.0
 30
0.0
  0
INSERT
  5
1F8
330
1F
100
AcDbEntity
  8
LC-002-100-D00-0
 62
     7
370
    50
100
AcDbBlockReference
  2
POLY17
 10
0.0
 20
0.0
 30
0.0
  0
INSERT
  5
202
330
1F
100
AcDbEntity
  8
LC-002-100-D00-0
 62
     7
370
    50
100
AcDbBlockReference
  2
POLY18
 10
0.0
 20
0.0
 30
0.0
  0
INSERT
  5
20C
330
1F
100
AcDbEntity
  8
LC-002-100-D00-0
 62
     7
370
    50
100
AcDbBlockReference
  2
POLY19
 10
0.0
 20
0.0
 30
0.0
  0
INSERT
  5
216
330
1F
100
AcDbEntity
  8
LC-002-100-D00-0
 62
     7
370
    50
100
AcDbBlockReference
  2
POLY20
 10
0.0
 20
0.0
 30
0.0
  0
INSERT
  5
220
330
1F
100
AcDbEntity
  8
LC-002-100-D00-0
 62
     7
370
    50
100
AcDbBlockReference
  2
POLY21
 10
0.0
 20
0.0
 30
0.0
  0
INSERT
  5
22A
330
1F
100
AcDbEntity
  8
LC-002-100-D00-0
 62
     7
370
    50
100
AcDbBlockReference
  2
POLY22
 10
0.0
 20
0.0
 30
0.0
  0
INSERT
  5
234
330
1F
100
AcDbEntity
  8
LC-002-100-D00-0
 62
     7
370
    50
100
AcDbBlockReference
  2
POLY23
 10
0.0
 20
0.0
 30
0.0
  0
LINE
  5
235
330
1F
100
AcDbEntity
  8
LC-002-100-D00-0
 62
     7
370
    50
100
AcDbLine
 10
237.045724
 20
365.310076
 30
0.0
 11
237.045724
 21
362.810078
 31
0.0
  0
LINE
  5
236
330
1F
100
AcDbEntity
  8
LC-002-100-D00-0
 62
     7
370
    50
100
AcDbLine
 10
237.045724
 20
362.810078
 30
0.0
 11
238.345723
 21
362.810078
 31
0.0
  0
LINE
  5
237
330
1F
100
AcDbEntity
  8
LC-002-100-D00-0
 62
     7
370
    50
100
AcDbLine
 10
238.345723
 20
362.810078
 30
0.0
 11
238.345723
 21
361.010077
 31
0.0
  0
LINE
  5
238
330
1F
100
AcDbEntity
  8
LC-002-100-D00-0
 62
     7
370
    50
100
AcDbLine
 10
238.345723
 20
361.010077
 30
0.0
 11
235.045723
 21
361.010077
 31
0.0
  0
LINE
  5
239
330
1F
100
AcDbEntity
  8
LC-002-100-D00-0
 62
     7
370
    50
100
AcDbLine
 10
235.045723
 20
361.010077
 30
0.0
 11
235.045723
 21
353.975448
 31
0.0
  0
ARC
  5
23A
330
1F
100
AcDbEntity
  8
LC-002-100-D00-0
 62
     7
370
    50
100
AcDbCircle
 10
229.545724
 20
343.310072
 30
0.0
 40
12.0
100
AcDbArc
 50
62.720388
 51
180.0
  0
LINE
  5
23B
330
1F
100
AcDbEntity
  8
LC-002-100-D00-0
 62
     7
370
    50
100
AcDbLine
 10
217.545723
 20
343.310076
 30
0.0
 11
217.545723
 21
292.510065
 31
0.0
  0
LINE
  5
23C
330
1F
100
AcDbEntity
  8
LC-002-100-D00-0
 62
     7
370
    50
100
AcDbLine
 10
217.545724
 20
292.505917
 30
0.0
 11
216.545724
 21
292.505917
 31
0.0
  0
LINE
  5
23D
330
1F
100
AcDbEntity
  8
LC-002-100-D00-0
 62
     7
370
    50
100
AcDbLine
 10
216.545723
 20
292.510065
 30
0.0
 11
216.545723
 21
343.510079
 31
0.0
  0
ARC
  5
23E
330
1F
100
AcDbEntity
  8
LC-002-100-D00-0
 62
     7
370
    50
100
AcDbCircle
 10
229.545724
 20
343.510073
 30
0.0
 40
13.0
100
AcDbArc
 50
90.0
 51
180.0
  0
LINE
  5
23F
330
1F
100
AcDbEntity
  8
LC-002-100-D00-0
 62
     7
370
    50
100
AcDbLine
 10
229.545723
 20
356.510076
 30
0.0
 11
231.795724
 21
356.510076
 31
0.0
  0
ARC
  5
240
330
1F
100
AcDbEntity
  8
LC-002-100-D00-0
 62
     7
370
    50
100
AcDbCircle
 10
231.795724
 20
357.510073
 30
0.0
 40
1.0
100
AcDbArc
 50
270.0
 51
0.0
  0
LINE
  5
241
330
1F
100
AcDbEntity
  8
LC-002-100-D00-0
 62
     7
370
    50
100
AcDbLine
 10
232.795723
 20
357.510063
 30
0.0
 11
232.795723
 21
365.510079
 31
0.0
  0
ARC
  5
242
330
1F
100
AcDbEntity
  8
LC-002-100-D00-0
 62
     7
370
    50
100
AcDbCircle
 10
234.795724
 20
365.510072
 30
0.0
 40
2.0
100
AcDbArc
 50
90.0
 51
180.0
  0
LINE
  5
243
330
1F
100
AcDbEntity
  8
LC-002-100-D00-0
 62
     7
370
    50
100
AcDbLine
 10
234.795723
 20
367.510083
 30
0.0
 11
239.045724
 21
367.510083
 31
0.0
  0
LINE
  5
244
330
1F
100
AcDbEntity
  8
LC-002-100-D00-0
 62
     7
370
    50
100
AcDbLine
 10
239.045724
 20
367.510083
 30
0.0
 11
239.045724
 21
365.310076
 31
0.0
  0
LINE
  5
245
330
1F
100
AcDbEntity
  8
LC-002-100-D00-0
 62
     7
370
    50
100
AcDbLine
 10
239.045724
 20
365.310076
 30
0.0
 11
237.045724
 21
365.310076
 31
0.0
  0
LINE
  5
246
330
1F
100
AcDbEntity
  8
LC-002-100-D00-0
 62
     7
370
    50
100
AcDbLine
 10
154.045723
 20
365.310076
 30
0.0
 11
154.045723
 21
367.510083
 31
0.0
  0
ARC
  5
247
330
1F
100
AcDbEntity
  8
LC-002-100-D00-0
 62
     7
370
    50
100
AcDbCircle
 10
158.295724
 20
365.510072
 30
0.0
 40
2.0
100
AcDbArc
 50
0.0
 51
90.0
  0
LINE
  5
248
330
1F
100
AcDbEntity
  8
LC-002-100-D00-0
 62
     7
370
    50
100
AcDbLine
 10
234.795723
 20
367.510083
 30
0.0
 11
158.295724
 21
367.510083
 31
0.0
  0
LINE
  5
249
330
1F
100
AcDbEntity
  8
LC-002-100-D00-0
 62
     7
370
    50
100
AcDbLine
 10
160.295725
 20
365.510079
 30
0.0
 11
160.295725
 21
357.510063
 31
0.0
  0
ARC
  5
24A
330
1F
100
AcDbEntity
  8
LC-002-100-D00-0
 62
     7
370
    50
100
AcDbCircle
 10
161.295724
 20
357.510073
 30
0.0
 40
1.0
100
AcDbArc
 50
180.0
 51
270.0
  0
ARC
  5
24B
330
1F
100
AcDbEntity
  8
LC-002-100-D00-0
 62
     7
370
    50
100
AcDbCircle
 10
163.545723
 20
343.510073
 30
0.0
 40
13.0
100
AcDbArc
 50
0.0
 51
90.0
  0
LINE
  5
24C
330
1F
100
AcDbEntity
  8
LC-002-100-D00-0
 62
     7
370
    50
100
AcDbLine
 10
229.545723
 20
356.510076
 30
0.0
 11
163.545724
 21
356.510076
 31
0.0
  0
LINE
  5
24D
330
1F
100
AcDbEntity
  8
LC-002-100-D00-0
 62
     7
370
    50
100
AcDbLine
 10
176.545724
 20
343.510079
 30
0.0
 11
176.545724
 21
292.510065
 31
0.0
  0
LINE
  5
24E
330
1F
100
AcDbEntity
  8
LC-002-100-D00-0
 62
     7
370
    50
100
AcDbLine
 10
216.545724
 20
292.505917
 30
0.0
 11
176.545725
 21
292.505917
 31
0.0
  0
LINE
  5
24F
330
1F
100
AcDbEntity
  8
LC-002-100-D00-0
 62
     7
370
    50
100
AcDbLine
 10
175.545724
 20
292.510065
 30
0.0
 11
175.545724
 21
343.310076
 31
0.0
  0
ARC
  5
250
330
1F
100
AcDbEntity
  8
LC-002-100-D00-0
 62
     7
370
    50
100
AcDbCircle
 10
163.545723
 20
343.310072
 30
0.0
 40
12.0
100
AcDbArc
 50
0.0
 51
117.279612
  0
LINE
  5
251
330
1F
100
AcDbEntity
  8
LC-002-100-D00-0
 62
     7
370
    50
100
AcDbLine
 10
235.045723
 20
353.975448
 30
0.0
 11
224.045723
 21
353.975448
 31
0.0
  0
LINE
  5
252
330
1F
100
AcDbEntity
  8
LC-002-100-D00-0
 62
     7
370
    50
100
AcDbLine
 10
169.045724
 20
353.975448
 30
0.0
 11
158.045724
 21
353.975448
 31
0.0
  0
LINE
  5
253
330
1F
100
AcDbEntity
  8
LC-002-100-D00-0
 62
     7
370
    50
100
AcDbLine
 10
158.045724
 20
353.975448
 30
0.0
 11
158.045724
 21
361.010077
 31
0.0
  0
LINE
  5
254
330
1F
100
AcDbEntity
  8
LC-002-100-D00-0
 62
     7
370
    50
100
AcDbLine
 10
154.745724
 20
361.010077
 30
0.0
 11
154.745724
 21
362.810078
 31
0.0
  0
LINE
  5
255
330
1F
100
AcDbEntity
  8
LC-002-100-D00-0
 62
     7
370
    50
100
AcDbLine
 10
156.045724
 20
362.810078
 30
0.0
 11
156.045724
 21
365.310076
 31
0.0
  0
LINE
  5
256
330
1F
100
AcDbEntity
  8
LC-002-100-D00-0
 62
     7
370
    50
100
AcDbLine
 10
156.045724
 20
365.310076
 30
0.0
 11
154.045723
 21
365.310076
 31
0.0
  0
LINE
  5
257
330
1F
100
AcDbEntity
  8
LC-002-100-D00-0
 62
     7
370
    50
100
AcDbLine
 10
154.745724
 20
362.810078
 30
0.0
 11
156.045724
 21
362.810078
 31
0.0
  0
LINE
  5
258
330
1F
100
AcDbEntity
  8
LC-002-100-D00-0
 62
     7
370
    50
100
AcDbLine
 10
158.045724
 20
361.010077
 30
0.0
 11
154.745724
 21
361.010077
 31
0.0
  0
LINE
  5
259
330
1F
100
AcDbEntity
  8
LC-002-100-D00-0
 62
     7
370
    50
100
AcDbLine
 10
176.545725
 20
292.505917
 30
0.0
 11
175.545725
 21
292.505917
 31
0.0
  0
LINE
  5
25A
330
1F
100
AcDbEntity
  8
LC-002-100-D00-0
 62
     7
370
    50
100
AcDbLine
 10
161.295723
 20
356.510076
 30
0.0
 11
163.545724
 21
356.510076
 31
0.0
  0
LINE
  5
25B
330
1F
100
AcDbEntity
  8
LC-002-100-D00-0
 62
     7
370
    50
100
AcDbLine
 10
154.045723
 20
367.510083
 30
0.0
 11
158.295724
 21
367.510083
 31
0.0
  0
CIRCLE
  5
25C
330
1F
100
AcDbEntity
  8
LC-002-100-D00-0
 62
     7
370
    50
100
AcDbCircle
 10
157.295724
 20
364.060072
 30
0.0
 40
1.249999999999943
  0
CIRCLE
  5
25D
330
1F
100
AcDbEntity
  8
LC-002-100-D00-0
 62
     7
370
    50
100
AcDbCircle
 10
235.795724
 20
364.060072
 30
0.0
 40
1.250000000000057
  0
ARC
  5
25E
330
1F
100
AcDbEntity
  8
LC-002-100-D00-0
 62
     7
370
    50
100
AcDbCircle
 10
219.045725
 20
290.005924
 30
0.0
 40
8.5
100
AcDbArc
 50
270.0
 51
0.0
  0
ARC
  5
25F
330
1F
100
AcDbEntity
  8
LC-002-100-D00-0
 62
     7
370
    50
100
AcDbCircle
 10
174.045725
 20
290.005924
 30
0.0
 40
8.5
100
AcDbArc
 50
180.0
 51
270.0
  0
LINE
  5
260
330
1F
100
AcDbEntity
  8
LC-002-100-D00-0
 62
     7
370
    50
100
AcDbLine
 10
156.280741
 20
353.403958
 30
0.0
 11
164.045725
 21
341.218906
 31
0.0
  0
LINE
  5
261
330
1F
100
AcDbEntity
  8
LC-002-100-D00-0
 62
     7
370
    50
100
AcDbLine
 10
237.045724
 20
354.210082
 30
0.0
 11
237.045724
 21
359.510067
 31
0.0
  0
LINE
  5
262
330
1F
100
AcDbEntity
  8
LC-002-100-D00-0
 62
     7
370
    50
100
AcDbLine
 10
156.045724
 20
359.510067
 30
0.0
 11
156.045724
 21
354.210082
 31
0.0
  0
LINE
  5
263
330
1F
100
AcDbEntity
  8
LC-002-100-D00-0
 62
     7
370
    50
100
AcDbLine
 10
239.045724
 20
359.510067
 30
0.0
 11
239.045724
 21
361.010077
 31
0.0
  0
LINE
  5
264
330
1F
100
AcDbEntity
  8
LC-002-100-D00-0
 62
     7
370
    50
100
AcDbLine
 10
154.045723
 20
361.010077
 30
0.0
 11
154.045723
 21
359.510067
 31
0.0
  0
LINE
  5
265
330
1F
100
AcDbEntity
  8
LC-002-100-D00-0
 62
     7
370
    50
100
AcDbLine
 10
235.545724
 20
361.010077
 30
0.0
 11
235.545724
 21
354.210082
 31
0.0
  0
LINE
  5
266
330
1F
100
AcDbEntity
  8
LC-002-100-D00-0
 62
     7
370
    50
100
AcDbLine
 10
235.43017
 20
354.210082
 30
0.0
 11
235.545724
 21
354.210082
 31
0.0
  0
LINE
  5
267
330
1F
100
AcDbEntity
  8
LC-002-100-D00-0
 62
     7
370
    50
100
AcDbLine
 10
235.43017
 20
354.510072
 30
0.0
 11
235.43017
 21
354.210082
 31
0.0
  0
LINE
  5
268
330
1F
100
AcDbEntity
  8
LC-002-100-D00-0
 62
     7
370
    50
100
AcDbLine
 10
235.43017
 20
354.510072
 30
0.0
 11
235.045723
 21
354.510072
 31
0.0
  0
LINE
  5
269
330
1F
100
AcDbEntity
  8
LC-002-100-D00-0
 62
     7
370
    50
100
AcDbLine
 10
158.045724
 20
354.510072
 30
0.0
 11
157.661278
 21
354.510072
 31
0.0
  0
LINE
  5
26A
330
1F
100
AcDbEntity
  8
LC-002-100-D00-0
 62
     7
370
    50
100
AcDbLine
 10
157.661278
 20
354.210082
 30
0.0
 11
157.661278
 21
354.510072
 31
0.0
  0
LINE
  5
26B
330
1F
100
AcDbEntity
  8
LC-002-100-D00-0
 62
     7
370
    50
100
AcDbLine
 10
157.545723
 20
354.210082
 30
0.0
 11
157.661278
 21
354.210082
 31
0.0
  0
LINE
  5
26C
330
1F
100
AcDbEntity
  8
LC-002-100-D00-0
 62
     7
370
    50
100
AcDbLine
 10
157.545723
 20
354.210082
 30
0.0
 11
157.545723
 21
361.010077
 31
0.0
  0
ARC
  5
26D
330
1F
100
AcDbEntity
  8
LC-002-100-D00-0
 62
     7
370
    50
100
AcDbCircle
 10
235.545724
 20
354.210072
 30
0.0
 40
1.500000000000047
100
AcDbArc
 50
327.492476
 51
0.0
  0
LINE
  5
26E
330
1F
100
AcDbEntity
  8
LC-002-100-D00-0
 62
     7
370
    50
100
AcDbLine
 10
229.045722
 20
341.218906
 30
0.0
 11
236.810706
 21
353.403958
 31
0.0
  0
LINE
  5
26F
330
1F
100
AcDbEntity
  8
LC-002-100-D00-0
 62
     7
370
    50
100
AcDbLine
 10
229.045722
 20
290.010068
 30
0.0
 11
229.045722
 21
341.218906
 31
0.0
  0
ARC
  5
270
330
1F
100
AcDbEntity
  8
LC-002-100-D00-0
 62
     7
370
    50
100
AcDbCircle
 10
219.045725
 20
290.005924
 30
0.0
 40
10.0
100
AcDbArc
 50
270.0
 51
0.0
  0
LINE
  5
271
330
1F
100
AcDbEntity
  8
LC-002-100-D00-0
 62
     7
370
    50
100
AcDbLine
 10
174.045724
 20
280.005929
 30
0.0
 11
219.045725
 21
280.005929
 31
0.0
  0
ARC
  5
272
330
1F
100
AcDbEntity
  8
LC-002-100-D00-0
 62
     7
370
    50
100
AcDbCircle
 10
174.045725
 20
290.005924
 30
0.0
 40
10.0
100
AcDbArc
 50
180.0
 51
270.0
  0
LINE
  5
273
330
1F
100
AcDbEntity
  8
LC-002-100-D00-0
 62
     7
370
    50
100
AcDbLine
 10
164.045725
 20
341.218906
 30
0.0
 11
164.045725
 21
290.010068
 31
0.0
  0
ARC
  5
274
330
1F
100
AcDbEntity
  8
LC-002-100-D00-0
 62
     7
370
    50
100
AcDbCircle
 10
157.545724
 20
354.210072
 30
0.0
 40
1.500000000000057
100
AcDbArc
 50
180.0
 51
212.507524
  0
LINE
  5
275
330
1F
100
AcDbEntity
  8
LC-002-100-D00-0
 62
     7
370
    50
100
AcDbLine
 10
164.045725
 20
344.010073
 30
0.0
 11
157.545723
 21
354.210082
 31
0.0
  0
LINE
  5
276
330
1F
100
AcDbEntity
  8
LC-002-100-D00-0
 62
     7
370
    50
100
AcDbLine
 10
165.545724
 20
344.010073
 30
0.0
 11
164.045725
 21
344.010073
 31
0.0
  0
LINE
  5
277
330
1F
100
AcDbEntity
  8
LC-002-100-D00-0
 62
     7
370
    50
100
AcDbLine
 10
165.545724
 20
290.010068
 30
0.0
 11
165.545724
 21
344.010073
 31
0.0
  0
LINE
  5
278
330
1F
100
AcDbEntity
  8
LC-002-100-D00-0
 62
     7
370
    50
100
AcDbLine
 10
219.045725
 20
281.505925
 30
0.0
 11
174.045724
 21
281.505925
 31
0.0
  0
LINE
  5
279
330
1F
100
AcDbEntity
  8
LC-002-100-D00-0
 62
     7
370
    50
100
AcDbLine
 10
227.545723
 20
344.010073
 30
0.0
 11
227.545723
 21
290.010068
 31
0.0
  0
LINE
  5
27A
330
1F
100
AcDbEntity
  8
LC-002-100-D00-0
 62
     7
370
    50
100
AcDbLine
 10
229.045722
 20
344.010073
 30
0.0
 11
227.545723
 21
344.010073
 31
0.0
  0
LINE
  5
27B
330
1F
100
AcDbEntity
  8
LC-002-100-D00-0
 62
     7
370
    50
100
AcDbLine
 10
235.545724
 20
354.210082
 30
0.0
 11
229.045722
 21
344.010073
 31
0.0
  0
LINE
  5
27C
330
1F
100
AcDbEntity
  8
LC-002-100-D00-0
 62
     7
370
    50
100
AcDbLine
 10
157.545723
 20
361.010077
 30
0.0
 11
154.045723
 21
361.010077
 31
0.0
  0
LINE
  5
27D
330
1F
100
AcDbEntity
  8
LC-002-100-D00-0
 62
     7
370
    50
100
AcDbLine
 10
239.045724
 20
361.010077
 30
0.0
 11
235.545724
 21
361.010077
 31
0.0
  0
LINE
  5
27E
330
1F
100
AcDbEntity
  8
LC-002-100-D00-0
 62
     7
370
    50
100
AcDbLine
 10
237.045724
 20
359.510067
 30
0.0
 11
239.045724
 21
359.510067
 31
0.0
  0
LINE
  5
27F
330
1F
100
AcDbEntity
  8
LC-002-100-D00-0
 62
     7
370
    50
100
AcDbLine
 10
154.045723
 20
359.510067
 30
0.0
 11
156.045724
 21
359.510067
 31
0.0
  0
LINE
  5
280
330
1F
100
AcDbEntity
  8
LC-002-100-D00-0
 62
     7
370
    50
100
AcDbLine
 10
165.545724
 20
344.010073
 30
0.0
 11
175.525289
 21
344.010073
 31
0.0
  0
LINE
  5
281
330
1F
100
AcDbEntity
  8
LC-002-100-D00-0
 62
     7
370
    50
100
AcDbLine
 10
217.566158
 20
344.010073
 30
0.0
 11
227.545723
 21
344.010073
 31
0.0
  0
INSERT
  5
28D
330
1F
100
AcDbEntity
  8
LC-002-100-D00-0
 62
     7
370
    50
100
AcDbBlockReference
  2
POLY24
 10
0.0
 20
0.0
 30
0.0
  0
INSERT
  5
299
330
1F
100
AcDbEntity
  8
LC-002-100-D00-0
 62
     7
370
    50
100
AcDbBlockReference
  2
POLY25
 10
0.0
 20
0.0
 30
0.0
  0
LINE
  5
29A
330
1F
100
AcDbEntity
  8
LC-002-100-D00-0
 62
     7
370
    50
100
AcDbLine
 10
152.245723
 20
363.912317
 30
0.0
 11
141.544502
 21
370.090666
 31
0.0
  0
LINE
  5
29B
330
1F
100
AcDbEntity
  8
LC-002-100-D00-0
 62
     7
370
    50
100
AcDbLine
 10
251.546945
 20
370.090666
 30
0.0
 11
240.845725
 21
363.912317
 31
0.0
  0
ARC
  5
29C
330
1F
100
AcDbEntity
  8
LC-002-100-D00-0
 62
     7
370
    50
100
AcDbCircle
 10
141.9438
 20
370.114362
 30
0.0
 40
0.4000000000000931
100
AcDbArc
 50
80.000039
 51
183.397295
  0
ARC
  5
29D
330
1F
100
AcDbEntity
  8
LC-002-100-D00-0
 62
     7
370
    50
100
AcDbCircle
 10
251.147648
 20
370.114362
 30
0.0
 40
0.4000000000000562
100
AcDbArc
 50
356.602705
 51
99.999961
  0
LINE
  5
29E
330
1F
100
AcDbEntity
  8
LC-002-100-D00-0
 62
     7
370
    50
100
AcDbLine
 10
251.078188
 20
370.508286
 30
0.0
 11
142.013259
 21
370.508286
 31
0.0
  0
LINE
  5
29F
330
1F
100
AcDbEntity
  8
LC-002-100-D00-0
 62
     7
370
    50
100
AcDbLine
 10
152.245723
 20
333.010065
 30
0.0
 11
152.245723
 21
363.912317
 31
0.0
  0
LINE
  5
2A0
330
1F
100
AcDbEntity
  8
LC-002-100-D00-0
 62
     7
370
    50
100
AcDbLine
 10
240.845725
 20
363.912317
 30
0.0
 11
240.845725
 21
333.010065
 31
0.0
  0
LINE
  5
2A1
330
1F
100
AcDbEntity
  8
LC-002-100-D00-0
 62
     7
370
    50
100
AcDbLine
 10
155.445725
 20
341.510075
 30
0.0
 11
155.445725
 21
332.510072
 31
0.0
  0
LINE
  5
2A2
330
1F
100
AcDbEntity
  8
LC-002-100-D00-0
 62
     7
370
    50
100
AcDbLine
 10
155.445725
 20
359.510067
 30
0.0
 11
155.445725
 21
353.318903
 31
0.0
  0
LINE
  5
2A3
330
1F
100
AcDbEntity
  8
LC-002-100-D00-0
 62
     7
370
    50
100
AcDbLine
 10
237.645723
 20
353.318903
 30
0.0
 11
237.645723
 21
359.510067
 31
0.0
  0
LINE
  5
2A4
330
1F
100
AcDbEntity
  8
LC-002-100-D00-0
 62
     7
370
    50
100
AcDbLine
 10
237.645723
 20
332.510072
 30
0.0
 11
237.645723
 21
341.510075
 31
0.0
  0
LINE
  5
2A5
330
1F
100
AcDbEntity
  8
LC-002-100-D00-0
 62
     7
370
    50
100
AcDbLine
 10
237.645723
 20
332.510072
 30
0.0
 11
229.045722
 21
332.510072
 31
0.0
  0
LINE
  5
2A6
330
1F
100
AcDbEntity
  8
LC-002-100-D00-0
 62
     7
370
    50
100
AcDbLine
 10
164.045725
 20
332.510072
 30
0.0
 11
155.445725
 21
332.510072
 31
0.0
  0
LINE
  5
2A7
330
1F
100
AcDbEntity
  8
LC-002-100-D00-0
 62
     7
370
    50
100
AcDbLine
 10
142.013259
 20
370.508286
 30
0.0
 11
153.532546
 21
368.477139
 31
0.0
  0
LINE
  5
2A8
330
1F
100
AcDbEntity
  8
LC-002-100-D00-0
 62
     7
370
    50
100
AcDbLine
 10
239.558901
 20
368.477139
 30
0.0
 11
251.078188
 21
370.508286
 31
0.0
  0
LINE
  5
2A9
330
1F
100
AcDbEntity
  8
LC-002-100-D00-0
 62
     7
370
    50
100
AcDbLine
 10
239.558901
 20
368.477139
 30
0.0
 11
153.532546
 21
368.477139
 31
0.0
  0
LINE
  5
2AA
330
1F
100
AcDbEntity
  8
LC-002-100-D00-0
 62
     7
370
    50
100
AcDbLine
 10
239.145722
 20
359.510067
 30
0.0
 11
239.145722
 21
367.984715
 31
0.0
  0
ARC
  5
2AB
330
1F
100
AcDbEntity
  8
LC-002-100-D00-0
 62
     7
370
    50
100
AcDbCircle
 10
239.645724
 20
367.98472
 30
0.0
 40
0.5000000000000492
100
AcDbArc
 50
99.99999
 51
180.000012
  0
LINE
  5
2AC
330
1F
100
AcDbEntity
  8
LC-002-100-D00-0
 62
     7
370
    50
100
AcDbLine
 10
240.845725
 20
333.010065
 30
0.0
 11
240.345724
 21
332.510072
 31
0.0
  0
LINE
  5
2AD
330
1F
100
AcDbEntity
  8
LC-002-100-D00-0
 62
     7
370
    50
100
AcDbLine
 10
240.345724
 20
332.510072
 30
0.0
 11
237.645723
 21
332.510072
 31
0.0
  0
LINE
  5
2AE
330
1F
100
AcDbEntity
  8
LC-002-100-D00-0
 62
     7
370
    50
100
AcDbLine
 10
233.345724
 20
341.510075
 30
0.0
 11
233.345724
 21
345.010075
 31
0.0
  0
LINE
  5
2AF
330
1F
100
AcDbEntity
  8
LC-002-100-D00-0
 62
     7
370
    50
100
AcDbLine
 10
233.345724
 20
345.010075
 30
0.0
 11
237.645723
 21
353.318903
 31
0.0
  0
LINE
  5
2B0
330
1F
100
AcDbEntity
  8
LC-002-100-D00-0
 62
     7
370
    50
100
AcDbLine
 10
237.645723
 20
359.510067
 30
0.0
 11
239.145722
 21
359.510067
 31
0.0
  0
LINE
  5
2B1
330
1F
100
AcDbEntity
  8
LC-002-100-D00-0
 62
     7
370
    50
100
AcDbLine
 10
237.645723
 20
341.510075
 30
0.0
 11
233.345724
 21
341.510075
 31
0.0
  0
LINE
  5
2B2
330
1F
100
AcDbEntity
  8
LC-002-100-D00-0
 62
     7
370
    50
100
AcDbLine
 10
159.745723
 20
341.510075
 30
0.0
 11
159.745723
 21
345.010075
 31
0.0
  0
LINE
  5
2B3
330
1F
100
AcDbEntity
  8
LC-002-100-D00-0
 62
     7
370
    50
100
AcDbLine
 10
155.445725
 20
341.510075
 30
0.0
 11
159.745723
 21
341.510075
 31
0.0
  0
LINE
  5
2B4
330
1F
100
AcDbEntity
  8
LC-002-100-D00-0
 62
     7
370
    50
100
AcDbLine
 10
155.445725
 20
332.510072
 30
0.0
 11
152.745724
 21
332.510072
 31
0.0
  0
LINE
  5
2B5
330
1F
100
AcDbEntity
  8
LC-002-100-D00-0
 62
     7
370
    50
100
AcDbLine
 10
152.745724
 20
332.510072
 30
0.0
 11
152.245723
 21
333.010065
 31
0.0
  0
ARC
  5
2B6
330
1F
100
AcDbEntity
  8
LC-002-100-D00-0
 62
     7
370
    50
100
AcDbCircle
 10
153.445724
 20
367.98472
 30
0.0
 40
0.4999999999999547
100
AcDbArc
 50
359.999988
 51
80.00001
  0
LINE
  5
2B7
330
1F
100
AcDbEntity
  8
LC-002-100-D00-0
 62
     7
370
    50
100
AcDbLine
 10
153.945725
 20
367.984715
 30
0.0
 11
153.945725
 21
359.510067
 31
0.0
  0
LINE
  5
2B8
330
1F
100
AcDbEntity
  8
LC-002-100-D00-0
 62
     7
370
    50
100
AcDbLine
 10
153.945725
 20
359.510067
 30
0.0
 11
155.445725
 21
359.510067
 31
0.0
  0
LINE
  5
2B9
330
1F
100
AcDbEntity
  8
LC-002-100-D00-0
 62
     7
370
    50
100
AcDbLine
 10
159.745723
 20
345.010075
 30
0.0
 11
155.445725
 21
353.318903
 31
0.0
  0
LINE
  5
2BA
330
1F
100
AcDbEntity
  8
LC-002-100-D00-0
 62
     7
370
    50
100
AcDbLine
 10
252.545725
 20
360.667291
 30
0.0
 11
252.545725
 21
370.667311
 31
0.0
  0
LINE
  5
2BB
330
1F
100
AcDbEntity
  8
LC-002-100-D00-0
 62
     7
370
    50
100
AcDbLine
 10
140.545722
 20
370.667311
 30
0.0
 11
140.545722
 21
360.667291
 31
0.0
  0
LINE
  5
2BC
330
1F
100
AcDbEntity
  8
LC-002-100-D00-0
 62
     7
370
    50
100
AcDbLine
 10
145.045724
 20
366.16731
 30
0.0
 11
140.545722
 21
370.667311
 31
0.0
  0
LINE
  5
2BD
330
1F
100
AcDbEntity
  8
LC-002-100-D00-0
 62
     7
370
    50
100
AcDbLine
 10
252.545725
 20
370.667311
 30
0.0
 11
248.045724
 21
366.16731
 31
0.0
  0
LINE
  5
2BE
330
1F
100
AcDbEntity
  8
LC-002-100-D00-0
 62
     7
370
    50
100
AcDbLine
 10
140.545722
 20
360.667291
 30
0.0
 11
141.545724
 21
359.667304
 31
0.0
  0
LINE
  5
2BF
330
1F
100
AcDbEntity
  8
LC-002-100-D00-0
 62
     7
370
    50
100
AcDbLine
 10
251.545723
 20
359.667304
 30
0.0
 11
252.545725
 21
360.667291
 31
0.0
  0
ARC
  5
2C0
330
1F
100
AcDbEntity
  8
LC-002-100-D00-0
 62
     7
370
    50
100
AcDbCircle
 10
250.866176
 20
319.717304
 30
0.0
 40
0.4500000000000253
100
AcDbArc
 50
280.5
 51
90.0
  0
ARC
  5
2C1
330
1F
100
AcDbEntity
  8
LC-002-100-D00-0
 62
     7
370
    50
100
AcDbCircle
 10
142.225271
 20
319.717304
 30
0.0
 40
0.4500000000000455
100
AcDbArc
 50
90.0
 51
259.5
  0
ARC
  5
2C2
330
1F
100
AcDbEntity
  8
LC-002-100-D00-0
 62
     7
370
    50
100
AcDbCircle
 10
250.864883
 20
327.217304
 30
0.0
 40
0.4500000000002335
100
AcDbArc
 50
280.532554
 51
90.0
  0
ARC
  5
2C3
330
1F
100
AcDbEntity
  8
LC-002-100-D00-0
 62
     7
370
    50
100
AcDbCircle
 10
142.226565
 20
327.217304
 30
0.0
 40
0.4500000000001592
100
AcDbArc
 50
90.0
 51
259.467446
  0
ARC
  5
2C4
330
1F
100
AcDbEntity
  8
LC-002-100-D00-0
 62
     7
370
    50
100
AcDbCircle
 10
250.864883
 20
349.717304
 30
0.0
 40
0.4500000000000332
100
AcDbArc
 50
280.532554
 51
90.0
  0
ARC
  5
2C5
330
1F
100
AcDbEntity
  8
LC-002-100-D00-0
 62
     7
370
    50
100
AcDbCircle
 10
142.226565
 20
349.717304
 30
0.0
 40
0.4500000000000455
100
AcDbArc
 50
90.0
 51
259.467446
  0
ARC
  5
2C6
330
1F
100
AcDbEntity
  8
LC-002-100-D00-0
 62
     7
370
    50
100
AcDbCircle
 10
250.864883
 20
334.717304
 30
0.0
 40
0.4500000000000436
100
AcDbArc
 50
280.532554
 51
90.0
  0
ARC
  5
2C7
330
1F
100
AcDbEntity
  8
LC-002-100-D00-0
 62
     7
370
    50
100
AcDbCircle
 10
142.226565
 20
334.717304
 30
0.0
 40
0.4500000000000455
100
AcDbArc
 50
90.0
 51
259.467446
  0
ARC
  5
2C8
330
1F
100
AcDbEntity
  8
LC-002-100-D00-0
 62
     7
370
    50
100
AcDbCircle
 10
250.864883
 20
342.217304
 30
0.0
 40
0.4500000000000332
100
AcDbArc
 50
280.532554
 51
90.0
  0
ARC
  5
2C9
330
1F
100
AcDbEntity
  8
LC-002-100-D00-0
 62
     7
370
    50
100
AcDbCircle
 10
142.226565
 20
342.217304
 30
0.0
 40
0.4500000000000455
100
AcDbArc
 50
90.0
 51
259.467446
  0
LINE
  5
2CA
330
1F
100
AcDbEntity
  8
LC-002-100-D00-0
 62
     7
370
    50
100
AcDbLine
 10
142.143264
 20
319.274846
 30
0.0
 11
146.72796
 21
318.425122
 31
0.0
  0
LINE
  5
2CB
330
1F
100
AcDbEntity
  8
LC-002-100-D00-0
 62
     7
370
    50
100
AcDbLine
 10
246.363487
 20
318.425122
 30
0.0
 11
250.948183
 21
319.274846
 31
0.0
  0
LINE
  5
2CC
330
1F
100
AcDbEntity
  8
LC-002-100-D00-0
 62
     7
370
    50
100
AcDbLine
 10
142.144307
 20
349.274877
 30
0.0
 11
146.728519
 21
348.42256
 31
0.0
  0
LINE
  5
2CD
330
1F
100
AcDbEntity
  8
LC-002-100-D00-0
 62
     7
370
    50
100
AcDbLine
 10
246.362928
 20
348.42256
 30
0.0
 11
250.94714
 21
349.274877
 31
0.0
  0
LINE
  5
2CE
330
1F
100
AcDbEntity
  8
LC-002-100-D00-0
 62
     7
370
    50
100
AcDbLine
 10
142.144307
 20
341.774884
 30
0.0
 11
146.728519
 21
340.922552
 31
0.0
  0
LINE
  5
2CF
330
1F
100
AcDbEntity
  8
LC-002-100-D00-0
 62
     7
370
    50
100
AcDbLine
 10
246.362928
 20
340.922552
 30
0.0
 11
250.94714
 21
341.774884
 31
0.0
  0
LINE
  5
2D0
330
1F
100
AcDbEntity
  8
LC-002-100-D00-0
 62
     7
370
    50
100
AcDbLine
 10
142.144307
 20
334.274891
 30
0.0
 11
146.728519
 21
333.422559
 31
0.0
  0
LINE
  5
2D1
330
1F
100
AcDbEntity
  8
LC-002-100-D00-0
 62
     7
370
    50
100
AcDbLine
 10
246.362928
 20
333.422559
 30
0.0
 11
250.94714
 21
334.274891
 31
0.0
  0
LINE
  5
2D2
330
1F
100
AcDbEntity
  8
LC-002-100-D00-0
 62
     7
370
    50
100
AcDbLine
 10
142.144307
 20
326.774883
 30
0.0
 11
146.728519
 21
325.922552
 31
0.0
  0
LINE
  5
2D3
330
1F
100
AcDbEntity
  8
LC-002-100-D00-0
 62
     7
370
    50
100
AcDbLine
 10
246.362928
 20
325.922552
 30
0.0
 11
250.94714
 21
326.774883
 31
0.0
  0
ARC
  5
2D4
330
1F
100
AcDbEntity
  8
LC-002-100-D00-0
 62
     7
370
    50
100
AcDbCircle
 10
249.295724
 20
361.667304
 30
0.0
 40
1.0
100
AcDbArc
 50
270.0
 51
0.0
  0
ARC
  5
2D5
330
1F
100
AcDbEntity
  8
LC-002-100-D00-0
 62
     7
370
    50
100
AcDbCircle
 10
143.795724
 20
361.667304
 30
0.0
 40
1.0
100
AcDbArc
 50
180.0
 51
270.0
  0
LINE
  5
2D6
330
1F
100
AcDbEntity
  8
LC-002-100-D00-0
 62
     7
370
    50
100
AcDbLine
 10
250.295725
 20
363.667312
 30
0.0
 11
250.295725
 21
361.667308
 31
0.0
  0
LINE
  5
2D7
330
1F
100
AcDbEntity
  8
LC-002-100-D00-0
 62
     7
370
    50
100
AcDbLine
 10
142.795723
 20
361.667308
 30
0.0
 11
142.795723
 21
363.667312
 31
0.0
  0
LINE
  5
2D8
330
1F
100
AcDbEntity
  8
LC-002-100-D00-0
 62
     7
370
    50
100
AcDbLine
 10
247.009825
 20
366.16731
 30
0.0
 11
246.432476
 21
367.167297
 31
0.0
  0
LINE
  5
2D9
330
1F
100
AcDbEntity
  8
LC-002-100-D00-0
 62
     7
370
    50
100
AcDbLine
 10
146.658972
 20
367.167297
 30
0.0
 11
146.081623
 21
366.16731
 31
0.0
  0
LINE
  5
2DA
330
1F
100
AcDbEntity
  8
LC-002-100-D00-0
 62
     7
370
    50
100
AcDbLine
 10
147.236321
 20
366.16731
 30
0.0
 11
146.658972
 21
367.167297
 31
0.0
  0
LINE
  5
2DB
330
1F
100
AcDbEntity
  8
LC-002-100-D00-0
 62
     7
370
    50
100
AcDbLine
 10
246.432476
 20
367.167297
 30
0.0
 11
245.855126
 21
366.16731
 31
0.0
  0
ARC
  5
2DC
330
1F
100
AcDbEntity
  8
LC-002-100-D00-0
 62
     7
370
    50
100
AcDbCircle
 10
246.545724
 20
317.441861
 30
0.0
 40
1.000000000000106
100
AcDbArc
 50
100.5
 51
180.0
  0
ARC
  5
2DD
330
1F
100
AcDbEntity
  8
LC-002-100-D00-0
 62
     7
370
    50
100
AcDbCircle
 10
146.545724
 20
317.441861
 30
0.0
 40
1.000000000000114
100
AcDbArc
 50
0.0
 51
79.5
  0
ARC
  5
2DE
330
1F
100
AcDbEntity
  8
LC-002-100-D00-0
 62
     7
370
    50
100
AcDbCircle
 10
246.545724
 20
324.939407
 30
0.0
 40
1.00000000000003
100
AcDbArc
 50
100.532554
 51
180.0
  0
ARC
  5
2DF
330
1F
100
AcDbEntity
  8
LC-002-100-D00-0
 62
     7
370
    50
100
AcDbCircle
 10
146.545724
 20
324.939407
 30
0.0
 40
1.0
100
AcDbArc
 50
0.0
 51
79.467446
  0
ARC
  5
2E0
330
1F
100
AcDbEntity
  8
LC-002-100-D00-0
 62
     7
370
    50
100
AcDbCircle
 10
246.545724
 20
339.939407
 30
0.0
 40
1.00000000000003
100
AcDbArc
 50
100.532554
 51
180.0
  0
ARC
  5
2E1
330
1F
100
AcDbEntity
  8
LC-002-100-D00-0
 62
     7
370
    50
100
AcDbCircle
 10
146.545724
 20
339.939407
 30
0.0
 40
1.0
100
AcDbArc
 50
0.0
 51
79.467446
  0
ARC
  5
2E2
330
1F
100
AcDbEntity
  8
LC-002-100-D00-0
 62
     7
370
    50
100
AcDbCircle
 10
246.545724
 20
332.439407
 30
0.0
 40
1.00000000000004
100
AcDbArc
 50
100.532554
 51
180.0
  0
ARC
  5
2E3
330
1F
100
AcDbEntity
  8
LC-002-100-D00-0
 62
     7
370
    50
100
AcDbCircle
 10
146.545724
 20
332.439407
 30
0.0
 40
1.000000000000057
100
AcDbArc
 50
0.0
 51
79.467446
  0
ARC
  5
2E4
330
1F
100
AcDbEntity
  8
LC-002-100-D00-0
 62
     7
370
    50
100
AcDbCircle
 10
246.545724
 20
347.439407
 30
0.0
 40
1.00000000000003
100
AcDbArc
 50
100.532554
 51
180.0
  0
ARC
  5
2E5
330
1F
100
AcDbEntity
  8
LC-002-100-D00-0
 62
     7
370
    50
100
AcDbCircle
 10
146.545724
 20
347.439407
 30
0.0
 40
1.0
100
AcDbArc
 50
0.0
 51
79.467446
  0
ARC
  5
2E6
330
1F
100
AcDbEntity
  8
LC-002-100-D00-0
 62
     7
370
    50
100
AcDbCircle
 10
246.045724
 20
328.167304
 30
0.0
 40
0.5
100
AcDbArc
 50
180.0
 51
270.0
  0
ARC
  5
2E7
330
1F
100
AcDbEntity
  8
LC-002-100-D00-0
 62
     7
370
    50
100
AcDbCircle
 10
147.045724
 20
328.167304
 30
0.0
 40
0.5
100
AcDbArc
 50
270.0
 51
0.0
  0
ARC
  5
2E8
330
1F
100
AcDbEntity
  8
LC-002-100-D00-0
 62
     7
370
    50
100
AcDbCircle
 10
246.045724
 20
320.667304
 30
0.0
 40
0.5
100
AcDbArc
 50
180.0
 51
270.0
  0
ARC
  5
2E9
330
1F
100
AcDbEntity
  8
LC-002-100-D00-0
 62
     7
370
    50
100
AcDbCircle
 10
147.045724
 20
320.667304
 30
0.0
 40
0.5
100
AcDbArc
 50
270.0
 51
0.0
  0
ARC
  5
2EA
330
1F
100
AcDbEntity
  8
LC-002-100-D00-0
 62
     7
370
    50
100
AcDbCircle
 10
246.045724
 20
335.667304
 30
0.0
 40
0.5
100
AcDbArc
 50
180.0
 51
270.0
  0
ARC
  5
2EB
330
1F
100
AcDbEntity
  8
LC-002-100-D00-0
 62
     7
370
    50
100
AcDbCircle
 10
147.045724
 20
335.667304
 30
0.0
 40
0.5
100
AcDbArc
 50
270.0
 51
0.0
  0
ARC
  5
2EC
330
1F
100
AcDbEntity
  8
LC-002-100-D00-0
 62
     7
370
    50
100
AcDbCircle
 10
246.045724
 20
350.667304
 30
0.0
 40
0.5000000000001137
100
AcDbArc
 50
180.0
 51
270.0
  0
ARC
  5
2ED
330
1F
100
AcDbEntity
  8
LC-002-100-D00-0
 62
     7
370
    50
100
AcDbCircle
 10
147.045724
 20
350.667304
 30
0.0
 40
0.5000000000001137
100
AcDbArc
 50
270.0
 51
0.0
  0
ARC
  5
2EE
330
1F
100
AcDbEntity
  8
LC-002-100-D00-0
 62
     7
370
    50
100
AcDbCircle
 10
246.045724
 20
343.167304
 30
0.0
 40
0.5
100
AcDbArc
 50
180.0
 51
270.0
  0
ARC
  5
2EF
330
1F
100
AcDbEntity
  8
LC-002-100-D00-0
 62
     7
370
    50
100
AcDbCircle
 10
147.045724
 20
343.167304
 30
0.0
 40
0.5
100
AcDbArc
 50
270.0
 51
0.0
  0
LINE
  5
2F0
330
1F
100
AcDbEntity
  8
LC-002-100-D00-0
 62
     7
370
    50
100
AcDbLine
 10
245.855126
 20
366.16731
 30
0.0
 11
245.277773
 21
367.167297
 31
0.0
  0
LINE
  5
2F1
330
1F
100
AcDbEntity
  8
LC-002-100-D00-0
 62
     7
370
    50
100
AcDbLine
 10
147.813674
 20
367.167297
 30
0.0
 11
147.236321
 21
366.16731
 31
0.0
  0
LINE
  5
2F2
330
1F
100
AcDbEntity
  8
LC-002-100-D00-0
 62
     7
370
    50
100
AcDbLine
 10
245.545722
 20
328.167307
 30
0.0
 11
245.545722
 21
332.43941
 31
0.0
  0
LINE
  5
2F3
330
1F
100
AcDbEntity
  8
LC-002-100-D00-0
 62
     7
370
    50
100
AcDbLine
 10
147.545725
 20
332.43941
 30
0.0
 11
147.545725
 21
328.167307
 31
0.0
  0
LINE
  5
2F4
330
1F
100
AcDbEntity
  8
LC-002-100-D00-0
 62
     7
370
    50
100
AcDbLine
 10
245.545722
 20
316.667306
 30
0.0
 11
245.545722
 21
317.441869
 31
0.0
  0
LINE
  5
2F5
330
1F
100
AcDbEntity
  8
LC-002-100-D00-0
 62
     7
370
    50
100
AcDbLine
 10
147.545725
 20
317.441869
 30
0.0
 11
147.545725
 21
316.667306
 31
0.0
  0
LINE
  5
2F6
330
1F
100
AcDbEntity
  8
LC-002-100-D00-0
 62
     7
370
    50
100
AcDbLine
 10
245.545722
 20
335.6673
 30
0.0
 11
245.545722
 21
339.939403
 31
0.0
  0
LINE
  5
2F7
330
1F
100
AcDbEntity
  8
LC-002-100-D00-0
 62
     7
370
    50
100
AcDbLine
 10
147.545725
 20
339.939403
 30
0.0
 11
147.545725
 21
335.6673
 31
0.0
  0
LINE
  5
2F8
330
1F
100
AcDbEntity
  8
LC-002-100-D00-0
 62
     7
370
    50
100
AcDbLine
 10
245.545722
 20
350.667301
 30
0.0
 11
245.545722
 21
359.667304
 31
0.0
  0
LINE
  5
2F9
330
1F
100
AcDbEntity
  8
LC-002-100-D00-0
 62
     7
370
    50
100
AcDbLine
 10
147.545725
 20
359.667304
 30
0.0
 11
147.545725
 21
350.667301
 31
0.0
  0
LINE
  5
2FA
330
1F
100
AcDbEntity
  8
LC-002-100-D00-0
 62
     7
370
    50
100
AcDbLine
 10
245.545722
 20
320.667299
 30
0.0
 11
245.545722
 21
324.939403
 31
0.0
  0
LINE
  5
2FB
330
1F
100
AcDbEntity
  8
LC-002-100-D00-0
 62
     7
370
    50
100
AcDbLine
 10
147.545725
 20
324.939403
 30
0.0
 11
147.545725
 21
320.667299
 31
0.0
  0
ARC
  5
2FC
330
1F
100
AcDbEntity
  8
LC-002-100-D00-0
 62
     7
370
    50
100
AcDbCircle
 10
148.545724
 20
316.667304
 30
0.0
 40
1.0
100
AcDbArc
 50
180.0
 51
270.0
  0
ARC
  5
2FD
330
1F
100
AcDbEntity
  8
LC-002-100-D00-0
 62
     7
370
    50
100
AcDbCircle
 10
244.545724
 20
316.667304
 30
0.0
 40
1.0
100
AcDbArc
 50
270.0
 51
0.0
  0
LINE
  5
2FE
330
1F
100
AcDbEntity
  8
LC-002-100-D00-0
 62
     7
370
    50
100
AcDbLine
 10
245.545722
 20
343.167308
 30
0.0
 11
245.545722
 21
347.439411
 31
0.0
  0
LINE
  5
2FF
330
1F
100
AcDbEntity
  8
LC-002-100-D00-0
 62
     7
370
    50
100
AcDbLine
 10
147.545725
 20
347.439411
 30
0.0
 11
147.545725
 21
343.167308
 31
0.0
  0
LINE
  5
300
330
1F
100
AcDbEntity
  8
LC-002-100-D00-0
 62
     7
370
    50
100
AcDbLine
 10
148.391023
 20
366.16731
 30
0.0
 11
147.813674
 21
367.167297
 31
0.0
  0
LINE
  5
301
330
1F
100
AcDbEntity
  8
LC-002-100-D00-0
 62
     7
370
    50
100
AcDbLine
 10
245.277773
 20
367.167297
 30
0.0
 11
244.700424
 21
366.16731
 31
0.0
  0
LINE
  5
302
330
1F
100
AcDbEntity
  8
LC-002-100-D00-0
 62
     7
370
    50
100
AcDbLine
 10
244.700424
 20
366.16731
 30
0.0
 11
244.123075
 21
367.167297
 31
0.0
  0
LINE
  5
303
330
1F
100
AcDbEntity
  8
LC-002-100-D00-0
 62
     7
370
    50
100
AcDbLine
 10
148.968372
 20
367.167297
 30
0.0
 11
148.391023
 21
366.16731
 31
0.0
  0
LINE
  5
304
330
1F
100
AcDbEntity
  8
LC-002-100-D00-0
 62
     7
370
    50
100
AcDbLine
 10
149.545725
 20
366.16731
 30
0.0
 11
148.968372
 21
367.167297
 31
0.0
  0
LINE
  5
305
330
1F
100
AcDbEntity
  8
LC-002-100-D00-0
 62
     7
370
    50
100
AcDbLine
 10
244.123075
 20
367.167297
 30
0.0
 11
243.545722
 21
366.16731
 31
0.0
  0
ARC
  5
306
330
1F
100
AcDbEntity
  8
LC-002-100-D00-0
 62
     7
370
    50
100
AcDbCircle
 10
243.047732
 20
316.667304
 30
0.0
 40
0.9999999994220161
100
AcDbArc
 50
270.0
 51
0.0
  0
ARC
  5
307
330
1F
100
AcDbEntity
  8
LC-002-100-D00-0
 62
     7
370
    50
100
AcDbCircle
 10
150.043715
 20
316.667304
 30
0.0
 40
0.9999999994220161
100
AcDbArc
 50
180.0
 51
270.0
  0
LINE
  5
308
330
1F
100
AcDbEntity
  8
LC-002-100-D00-0
 62
     7
370
    50
100
AcDbLine
 10
150.043715
 20
315.667304
 30
0.0
 11
150.045723
 21
315.667304
 31
0.0
  0
LINE
  5
309
330
1F
100
AcDbEntity
  8
LC-002-100-D00-0
 62
     7
370
    50
100
AcDbLine
 10
243.045725
 20
315.667304
 30
0.0
 11
243.047733
 21
315.667304
 31
0.0
  0
LINE
  5
30A
330
1F
100
AcDbEntity
  8
LC-002-100-D00-0
 62
     7
370
    50
100
AcDbLine
 10
149.043716
 20
316.667306
 30
0.0
 11
149.045724
 21
316.659528
 31
0.0
  0
LINE
  5
30B
330
1F
100
AcDbEntity
  8
LC-002-100-D00-0
 62
     7
370
    50
100
AcDbLine
 10
244.045723
 20
316.659528
 30
0.0
 11
244.047731
 21
316.667306
 31
0.0
  0
LINE
  5
30C
330
1F
100
AcDbEntity
  8
LC-002-100-D00-0
 62
     7
370
    50
100
AcDbLine
 10
244.045723
 20
360.667291
 30
0.0
 11
244.045723
 21
316.659528
 31
0.0
  0
LINE
  5
30D
330
1F
100
AcDbEntity
  8
LC-002-100-D00-0
 62
     7
370
    50
100
AcDbLine
 10
149.045724
 20
316.659528
 30
0.0
 11
149.045724
 21
360.667291
 31
0.0
  0
LINE
  5
30E
330
1F
100
AcDbEntity
  8
LC-002-100-D00-0
 62
     7
370
    50
100
AcDbLine
 10
243.545722
 20
366.16731
 30
0.0
 11
243.545722
 21
363.667312
 31
0.0
  0
LINE
  5
30F
330
1F
100
AcDbEntity
  8
LC-002-100-D00-0
 62
     7
370
    50
100
AcDbLine
 10
149.545725
 20
363.667312
 30
0.0
 11
149.545725
 21
366.16731
 31
0.0
  0
LINE
  5
310
330
1F
100
AcDbEntity
  8
LC-002-100-D00-0
 62
     7
370
    50
100
AcDbLine
 10
148.545723
 20
315.667304
 30
0.0
 11
150.043715
 21
315.667304
 31
0.0
  0
LINE
  5
311
330
1F
100
AcDbEntity
  8
LC-002-100-D00-0
 62
     7
370
    50
100
AcDbLine
 10
146.081623
 20
366.16731
 30
0.0
 11
145.045724
 21
366.16731
 31
0.0
  0
LINE
  5
312
330
1F
100
AcDbEntity
  8
LC-002-100-D00-0
 62
     7
370
    50
100
AcDbLine
 10
149.045724
 20
360.667291
 30
0.0
 11
143.795725
 21
360.667291
 31
0.0
  0
LINE
  5
313
330
1F
100
AcDbEntity
  8
LC-002-100-D00-0
 62
     7
370
    50
100
AcDbLine
 10
142.795723
 20
363.667312
 30
0.0
 11
149.545725
 21
363.667312
 31
0.0
  0
LINE
  5
314
330
1F
100
AcDbEntity
  8
LC-002-100-D00-0
 62
     7
370
    50
100
AcDbLine
 10
147.045724
 20
335.167306
 30
0.0
 11
142.226565
 21
335.167306
 31
0.0
  0
LINE
  5
315
330
1F
100
AcDbEntity
  8
LC-002-100-D00-0
 62
     7
370
    50
100
AcDbLine
 10
147.045724
 20
327.667299
 30
0.0
 11
142.226565
 21
327.667299
 31
0.0
  0
LINE
  5
316
330
1F
100
AcDbEntity
  8
LC-002-100-D00-0
 62
     7
370
    50
100
AcDbLine
 10
147.045724
 20
350.167307
 30
0.0
 11
142.226565
 21
350.167307
 31
0.0
  0
LINE
  5
317
330
1F
100
AcDbEntity
  8
LC-002-100-D00-0
 62
     7
370
    50
100
AcDbLine
 10
147.045724
 20
342.667299
 30
0.0
 11
142.226565
 21
342.667299
 31
0.0
  0
LINE
  5
318
330
1F
100
AcDbEntity
  8
LC-002-100-D00-0
 62
     7
370
    50
100
AcDbLine
 10
147.045724
 20
320.167306
 30
0.0
 11
142.225273
 21
320.167306
 31
0.0
  0
LINE
  5
319
330
1F
100
AcDbEntity
  8
LC-002-100-D00-0
 62
     7
370
    50
100
AcDbLine
 10
141.545724
 20
359.667304
 30
0.0
 11
147.545725
 21
359.667304
 31
0.0
  0
LINE
  5
31A
330
1F
100
AcDbEntity
  8
LC-002-100-D00-0
 62
     7
370
    50
100
AcDbLine
 10
243.047733
 20
315.667304
 30
0.0
 11
244.545724
 21
315.667304
 31
0.0
  0
LINE
  5
31B
330
1F
100
AcDbEntity
  8
LC-002-100-D00-0
 62
     7
370
    50
100
AcDbLine
 10
248.045724
 20
366.16731
 30
0.0
 11
247.009825
 21
366.16731
 31
0.0
  0
LINE
  5
31C
330
1F
100
AcDbEntity
  8
LC-002-100-D00-0
 62
     7
370
    50
100
AcDbLine
 10
249.295723
 20
360.667291
 30
0.0
 11
244.045723
 21
360.667291
 31
0.0
  0
LINE
  5
31D
330
1F
100
AcDbEntity
  8
LC-002-100-D00-0
 62
     7
370
    50
100
AcDbLine
 10
243.545722
 20
363.667312
 30
0.0
 11
250.295725
 21
363.667312
 31
0.0
  0
LINE
  5
31E
330
1F
100
AcDbEntity
  8
LC-002-100-D00-0
 62
     7
370
    50
100
AcDbLine
 10
250.864882
 20
335.167306
 30
0.0
 11
246.045723
 21
335.167306
 31
0.0
  0
LINE
  5
31F
330
1F
100
AcDbEntity
  8
LC-002-100-D00-0
 62
     7
370
    50
100
AcDbLine
 10
250.864882
 20
327.667299
 30
0.0
 11
246.045723
 21
327.667299
 31
0.0
  0
LINE
  5
320
330
1F
100
AcDbEntity
  8
LC-002-100-D00-0
 62
     7
370
    50
100
AcDbLine
 10
250.864882
 20
350.167307
 30
0.0
 11
246.045723
 21
350.167307
 31
0.0
  0
LINE
  5
321
330
1F
100
AcDbEntity
  8
LC-002-100-D00-0
 62
     7
370
    50
100
AcDbLine
 10
250.864882
 20
342.667299
 30
0.0
 11
246.045723
 21
342.667299
 31
0.0
  0
LINE
  5
322
330
1F
100
AcDbEntity
  8
LC-002-100-D00-0
 62
     7
370
    50
100
AcDbLine
 10
250.866175
 20
320.167306
 30
0.0
 11
246.045723
 21
320.167306
 31
0.0
  0
LINE
  5
323
330
1F
100
AcDbEntity
  8
LC-002-100-D00-0
 62
     7
370
    50
100
AcDbLine
 10
245.545722
 20
359.667304
 30
0.0
 11
251.545723
 21
359.667304
 31
0.0
  0
LINE
  5
324
330
1F
100
AcDbEntity
  8
LC-002-100-D00-0
 62
     7
370
    50
100
AcDbLine
 10
244.045723
 20
316.667306
 30
0.0
 11
244.045723
 21
360.667291
 31
0.0
  0
LINE
  5
325
330
1F
100
AcDbEntity
  8
LC-002-100-D00-0
 62
     7
370
    50
100
AcDbLine
 10
149.045724
 20
360.667291
 30
0.0
 11
149.045724
 21
316.667306
 31
0.0
  0
ARC
  5
326
330
1F
100
AcDbEntity
  8
LC-002-100-D00-0
 62
     7
370
    50
100
AcDbCircle
 10
150.045724
 20
316.667304
 30
0.0
 40
1.0
100
AcDbArc
 50
180.0
 51
270.0
  0
ARC
  5
327
330
1F
100
AcDbEntity
  8
LC-002-100-D00-0
 62
     7
370
    50
100
AcDbCircle
 10
243.045724
 20
316.667304
 30
0.0
 40
1.0
100
AcDbArc
 50
270.0
 51
0.0
  0
ARC
  5
328
330
1F
100
AcDbEntity
  8
LC-002-100-D00-0
 62
     7
370
    50
100
AcDbCircle
 10
242.795724
 20
362.667304
 30
0.0
 40
1.0
100
AcDbArc
 50
90.0
 51
180.0
  0
ARC
  5
329
330
1F
100
AcDbEntity
  8
LC-002-100-D00-0
 62
     7
370
    50
100
AcDbCircle
 10
150.295724
 20
362.667304
 30
0.0
 40
1.0
100
AcDbArc
 50
0.0
 51
90.0
  0
LINE
  5
32A
330
1F
100
AcDbEntity
  8
LC-002-100-D00-0
 62
     7
370
    50
100
AcDbLine
 10
150.295723
 20
363.667312
 30
0.0
 11
152.245723
 21
363.667312
 31
0.0
  0
LINE
  5
32B
330
1F
100
AcDbEntity
  8
LC-002-100-D00-0
 62
     7
370
    50
100
AcDbLine
 10
240.845725
 20
363.667312
 30
0.0
 11
242.795724
 21
363.667312
 31
0.0
  0
LINE
  5
32C
330
1F
100
AcDbEntity
  8
LC-002-100-D00-0
 62
     7
370
    50
100
AcDbLine
 10
242.045723
 20
336.667302
 30
0.0
 11
242.045723
 21
315.667304
 31
0.0
  0
LINE
  5
32D
330
1F
100
AcDbEntity
  8
LC-002-100-D00-0
 62
     7
370
    50
100
AcDbLine
 10
151.045725
 20
315.667304
 30
0.0
 11
151.045725
 21
336.667302
 31
0.0
  0
LINE
  5
32E
330
1F
100
AcDbEntity
  8
LC-002-100-D00-0
 62
     7
370
    50
100
AcDbLine
 10
151.045725
 20
315.667304
 30
0.0
 11
164.045725
 21
315.667304
 31
0.0
  0
LINE
  5
32F
330
1F
100
AcDbEntity
  8
LC-002-100-D00-0
 62
     7
370
    50
100
AcDbLine
 10
229.045722
 20
315.667304
 30
0.0
 11
242.045723
 21
315.667304
 31
0.0
  0
LINE
  5
330
330
1F
100
AcDbEntity
  8
LC-002-100-D00-0
 62
     7
370
    50
100
AcDbLine
 10
241.795722
 20
362.667295
 30
0.0
 11
241.795722
 21
357.6673
 31
0.0
  0
LINE
  5
331
330
1F
100
AcDbEntity
  8
LC-002-100-D00-0
 62
     7
370
    50
100
AcDbLine
 10
151.295725
 20
357.6673
 30
0.0
 11
151.295725
 21
362.667295
 31
0.0
  0
LINE
  5
332
330
1F
100
AcDbEntity
  8
LC-002-100-D00-0
 62
     7
370
    50
100
AcDbLine
 10
240.020722
 20
337.967309
 30
0.0
 11
241.320725
 21
336.667302
 31
0.0
  0
LINE
  5
333
330
1F
100
AcDbEntity
  8
LC-002-100-D00-0
 62
     7
370
    50
100
AcDbLine
 10
151.770722
 20
336.667302
 30
0.0
 11
153.070725
 21
337.967309
 31
0.0
  0
LINE
  5
334
330
1F
100
AcDbEntity
  8
LC-002-100-D00-0
 62
     7
370
    50
100
AcDbLine
 10
151.770722
 20
336.667302
 30
0.0
 11
152.245723
 21
336.667302
 31
0.0
  0
LINE
  5
335
330
1F
100
AcDbEntity
  8
LC-002-100-D00-0
 62
     7
370
    50
100
AcDbLine
 10
240.845725
 20
336.667302
 30
0.0
 11
241.320725
 21
336.667302
 31
0.0
  0
LINE
  5
336
330
1F
100
AcDbEntity
  8
LC-002-100-D00-0
 62
     7
370
    50
100
AcDbLine
 10
153.070725
 20
356.367293
 30
0.0
 11
151.770722
 21
357.6673
 31
0.0
  0
LINE
  5
337
330
1F
100
AcDbEntity
  8
LC-002-100-D00-0
 62
     7
370
    50
100
AcDbLine
 10
241.320725
 20
357.6673
 30
0.0
 11
240.020722
 21
356.367293
 31
0.0
  0
LINE
  5
338
330
1F
100
AcDbEntity
  8
LC-002-100-D00-0
 62
     7
370
    50
100
AcDbLine
 10
151.770722
 20
357.6673
 30
0.0
 11
152.245723
 21
357.6673
 31
0.0
  0
LINE
  5
339
330
1F
100
AcDbEntity
  8
LC-002-100-D00-0
 62
     7
370
    50
100
AcDbLine
 10
240.845725
 20
357.6673
 30
0.0
 11
241.320725
 21
357.6673
 31
0.0
  0
LINE
  5
33A
330
1F
100
AcDbEntity
  8
LC-002-100-D00-0
 62
     7
370
    50
100
AcDbLine
 10
240.020722
 20
356.367293
 30
0.0
 11
240.020722
 21
337.967309
 31
0.0
  0
LINE
  5
33B
330
1F
100
AcDbEntity
  8
LC-002-100-D00-0
 62
     7
370
    50
100
AcDbLine
 10
153.070725
 20
337.967309
 30
0.0
 11
153.070725
 21
356.367293
 31
0.0
  0
LINE
  5
33C
330
1F
100
AcDbEntity
  8
LC-002-100-D00-0
 62
     7
370
    50
100
AcDbLine
 10
151.770722
 20
357.6673
 30
0.0
 11
151.295725
 21
357.6673
 31
0.0
  0
LINE
  5
33D
330
1F
100
AcDbEntity
  8
LC-002-100-D00-0
 62
     7
370
    50
100
AcDbLine
 10
151.045725
 20
336.667302
 30
0.0
 11
151.770722
 21
336.667302
 31
0.0
  0
LINE
  5
33E
330
1F
100
AcDbEntity
  8
LC-002-100-D00-0
 62
     7
370
    50
100
AcDbLine
 10
150.045723
 20
315.667304
 30
0.0
 11
151.045725
 21
315.667304
 31
0.0
  0
LINE
  5
33F
330
1F
100
AcDbEntity
  8
LC-002-100-D00-0
 62
     7
370
    50
100
AcDbLine
 10
150.295723
 20
363.667312
 30
0.0
 11
142.795723
 21
363.667312
 31
0.0
  0
LINE
  5
340
330
1F
100
AcDbEntity
  8
LC-002-100-D00-0
 62
     7
370
    50
100
AcDbLine
 10
241.795722
 20
357.6673
 30
0.0
 11
241.320725
 21
357.6673
 31
0.0
  0
LINE
  5
341
330
1F
100
AcDbEntity
  8
LC-002-100-D00-0
 62
     7
370
    50
100
AcDbLine
 10
241.320725
 20
336.667302
 30
0.0
 11
242.045723
 21
336.667302
 31
0.0
  0
LINE
  5
342
330
1F
100
AcDbEntity
  8
LC-002-100-D00-0
 62
     7
370
    50
100
AcDbLine
 10
242.045723
 20
315.667304
 30
0.0
 11
243.045725
 21
315.667304
 31
0.0
  0
LINE
  5
343
330
1F
100
AcDbEntity
  8
LC-002-100-D00-0
 62
     7
370
    50
100
AcDbLine
 10
250.295725
 20
363.667312
 30
0.0
 11
242.795724
 21
363.667312
 31
0.0
  0
LINE
  5
344
330
1F
100
AcDbEntity
  8
LC-002-100-D00-0
 62
     7
370
    50
100
AcDbLine
 10
322.545727
 20
371.205923
 30
0.0
 11
322.545727
 21
369.705913
 31
0.0
  0
LINE
  5
345
330
1F
100
AcDbEntity
  8
LC-002-100-D00-0
 62
     7
370
    50
100
AcDbLine
 10
70.545722
 20
369.710061
 30
0.0
 11
70.545722
 21
371.210071
 31
0.0
  0
ARC
  5
346
330
1F
100
AcDbEntity
  8
LC-002-100-D00-0
 62
     7
370
    50
100
AcDbCircle
 10
302.545724
 20
371.210072
 30
0.0
 40
2.999999999999951
100
AcDbArc
 50
210.0
 51
330.0
  0
ARC
  5
347
330
1F
100
AcDbEntity
  8
LC-002-100-D00-0
 62
     7
370
    50
100
AcDbCircle
 10
90.545724
 20
371.210072
 30
0.0
 40
2.999999999999951
100
AcDbArc
 50
210.0
 51
330.0
  0
ARC
  5
348
330
1F
100
AcDbEntity
  8
LC-002-100-D00-0
 62
     7
370
    50
100
AcDbCircle
 10
302.545724
 20
371.210072
 30
0.0
 40
1.500000000000057
100
AcDbArc
 50
180.0
 51
0.0
  0
ARC
  5
349
330
1F
100
AcDbEntity
  8
LC-002-100-D00-0
 62
     7
370
    50
100
AcDbCircle
 10
90.545724
 20
371.210072
 30
0.0
 40
1.5
100
AcDbArc
 50
180.0
 51
0.0
  0
LINE
  5
34A
330
1F
100
AcDbEntity
  8
LC-002-100-D00-0
 62
     7
370
    50
100
AcDbLine
 10
89.045722
 20
371.210071
 30
0.0
 11
92.04572
 21
371.210071
 31
0.0
  0
LINE
  5
34B
330
1F
100
AcDbEntity
  8
LC-002-100-D00-0
 62
     7
370
    50
100
AcDbLine
 10
301.045727
 20
371.210071
 30
0.0
 11
304.045725
 21
371.210071
 31
0.0
  0
ARC
  5
34C
330
1F
100
AcDbEntity
  8
LC-002-100-D00-0
 62
     7
370
    50
100
AcDbCircle
 10
253.070337
 20
368.210072
 30
0.0
 40
3.0
100
AcDbArc
 50
90.0
 51
120.0
  0
ARC
  5
34D
330
1F
100
AcDbEntity
  8
LC-002-100-D00-0
 62
     7
370
    50
100
AcDbCircle
 10
140.02111
 20
368.210072
 30
0.0
 40
3.000000000000049
100
AcDbArc
 50
60.0
 51
90.0
  0
LINE
  5
34E
330
1F
100
AcDbEntity
  8
LC-002-100-D00-0
 62
     7
370
    50
100
AcDbLine
 10
140.021112
 20
371.210071
 30
0.0
 11
253.070336
 21
371.210071
 31
0.0
  0
ARC
  5
34F
330
1F
100
AcDbEntity
  8
LC-002-100-D00-0
 62
     7
370
    50
100
AcDbCircle
 10
253.070337
 20
368.210072
 30
0.0
 40
1.5
100
AcDbArc
 50
90.0
 51
120.0
  0
ARC
  5
350
330
1F
100
AcDbEntity
  8
LC-002-100-D00-0
 62
     7
370
    50
100
AcDbCircle
 10
140.02111
 20
368.210072
 30
0.0
 40
1.500000000000025
100
AcDbArc
 50
60.0
 51
90.0
  0
LINE
  5
351
330
1F
100
AcDbEntity
  8
LC-002-100-D00-0
 62
     7
370
    50
100
AcDbLine
 10
150.295723
 20
364.010069
 30
0.0
 11
140.771109
 21
369.509104
 31
0.0
  0
LINE
  5
352
330
1F
100
AcDbEntity
  8
LC-002-100-D00-0
 62
     7
370
    50
100
AcDbLine
 10
150.295723
 20
364.010069
 30
0.0
 11
152.076386
 21
364.010069
 31
0.0
  0
LINE
  5
353
330
1F
100
AcDbEntity
  8
LC-002-100-D00-0
 62
     7
370
    50
100
AcDbLine
 10
241.015062
 20
364.010069
 30
0.0
 11
242.795724
 21
364.010069
 31
0.0
  0
LINE
  5
354
330
1F
100
AcDbEntity
  8
LC-002-100-D00-0
 62
     7
370
    50
100
AcDbLine
 10
252.320338
 20
369.509104
 30
0.0
 11
242.795724
 21
364.010069
 31
0.0
  0
LINE
  5
355
330
1F
100
AcDbEntity
  8
LC-002-100-D00-0
 62
     7
370
    50
100
AcDbLine
 10
141.521111
 20
370.808157
 30
0.0
 11
151.045725
 21
365.309122
 31
0.0
  0
LINE
  5
356
330
1F
100
AcDbEntity
  8
LC-002-100-D00-0
 62
     7
370
    50
100
AcDbLine
 10
242.045723
 20
365.309122
 30
0.0
 11
251.570336
 21
370.808157
 31
0.0
  0
LINE
  5
357
330
1F
100
AcDbEntity
  8
LC-002-100-D00-0
 62
     7
370
    50
100
AcDbLine
 10
242.795724
 20
364.010069
 30
0.0
 11
242.045723
 21
365.309122
 31
0.0
  0
LINE
  5
358
330
1F
100
AcDbEntity
  8
LC-002-100-D00-0
 62
     7
370
    50
100
AcDbLine
 10
151.045725
 20
365.309122
 30
0.0
 11
150.295723
 21
364.010069
 31
0.0
  0
LINE
  5
359
330
1F
100
AcDbEntity
  8
LC-002-100-D00-0
 62
     7
370
    50
100
AcDbLine
 10
140.021112
 20
369.710061
 30
0.0
 11
93.143802
 21
369.710061
 31
0.0
  0
LINE
  5
35A
330
1F
100
AcDbEntity
  8
LC-002-100-D00-0
 62
     7
370
    50
100
AcDbLine
 10
92.04572
 20
371.210071
 30
0.0
 11
140.021112
 21
371.210071
 31
0.0
  0
LINE
  5
35B
330
1F
100
AcDbEntity
  8
LC-002-100-D00-0
 62
     7
370
    50
100
AcDbLine
 10
87.947648
 20
369.710061
 30
0.0
 11
70.545722
 21
369.710061
 31
0.0
  0
LINE
  5
35C
330
1F
100
AcDbEntity
  8
LC-002-100-D00-0
 62
     7
370
    50
100
AcDbLine
 10
70.545722
 20
371.210071
 30
0.0
 11
89.045722
 21
371.210071
 31
0.0
  0
LINE
  5
35D
330
1F
100
AcDbEntity
  8
LC-002-100-D00-0
 62
     7
370
    50
100
AcDbLine
 10
299.947645
 20
369.710061
 30
0.0
 11
253.070336
 21
369.710061
 31
0.0
  0
LINE
  5
35E
330
1F
100
AcDbEntity
  8
LC-002-100-D00-0
 62
     7
370
    50
100
AcDbLine
 10
253.070336
 20
371.210071
 30
0.0
 11
301.045727
 21
371.210071
 31
0.0
  0
LINE
  5
35F
330
1F
100
AcDbEntity
  8
LC-002-100-D00-0
 62
     7
370
    50
100
AcDbLine
 10
322.545726
 20
369.710061
 30
0.0
 11
305.143799
 21
369.710061
 31
0.0
  0
LINE
  5
360
330
1F
100
AcDbEntity
  8
LC-002-100-D00-0
 62
     7
370
    50
100
AcDbLine
 10
304.045725
 20
371.210071
 30
0.0
 11
322.545726
 21
371.210071
 31
0.0
  0
LINE
  5
361
330
1F
100
AcDbEntity
  8
LC-002-100-D00-0
 62
     7
370
    50
100
AcDbLine
 10
144.495725
 20
218.710075
 30
0.0
 11
144.495725
 21
213.710072
 31
0.0
  0
LINE
  5
362
330
1F
100
AcDbEntity
  8
LC-002-100-D00-0
 62
     7
370
    50
100
AcDbLine
 10
144.495725
 20
213.710072
 30
0.0
 11
137.295723
 21
213.710072
 31
0.0
  0
LINE
  5
363
330
1F
100
AcDbEntity
  8
LC-002-100-D00-0
 62
     7
370
    50
100
AcDbLine
 10
137.295723
 20
213.710072
 30
0.0
 11
137.295723
 21
218.710075
 31
0.0
  0
LINE
  5
364
330
1F
100
AcDbEntity
  8
LC-002-100-D00-0
 62
     7
370
    50
100
AcDbLine
 10
137.295723
 20
218.710075
 30
0.0
 11
144.495725
 21
218.710075
 31
0.0
  0
LINE
  5
365
330
1F
100
AcDbEntity
  8
LC-002-100-D00-0
 62
     7
370
    50
100
AcDbLine
 10
255.795725
 20
218.710075
 30
0.0
 11
255.795725
 21
213.710072
 31
0.0
  0
LINE
  5
366
330
1F
100
AcDbEntity
  8
LC-002-100-D00-0
 62
     7
370
    50
100
AcDbLine
 10
255.795725
 20
213.710072
 30
0.0
 11
248.595722
 21
213.710072
 31
0.0
  0
LINE
  5
367
330
1F
100
AcDbEntity
  8
LC-002-100-D00-0
 62
     7
370
    50
100
AcDbLine
 10
248.595722
 20
213.710072
 30
0.0
 11
248.595722
 21
218.710075
 31
0.0
  0
LINE
  5
368
330
1F
100
AcDbEntity
  8
LC-002-100-D00-0
 62
     7
370
    50
100
AcDbLine
 10
248.595722
 20
218.710075
 30
0.0
 11
255.795725
 21
218.710075
 31
0.0
  0
LINE
  5
369
330
1F
100
AcDbEntity
  8
LC-002-100-D00-0
 62
     7
370
    50
100
AcDbLine
 10
144.510735
 20
213.710072
 30
0.0
 11
144.510735
 21
218.710075
 31
0.0
  0
LINE
  5
36A
330
1F
100
AcDbEntity
  8
LC-002-100-D00-0
 62
     7
370
    50
100
AcDbLine
 10
144.495725
 20
218.710075
 30
0.0
 11
144.510735
 21
218.710075
 31
0.0
  0
LINE
  5
36B
330
1F
100
AcDbEntity
  8
LC-002-100-D00-0
 62
     7
370
    50
100
AcDbLine
 10
248.580713
 20
213.710072
 30
0.0
 11
248.580713
 21
218.710075
 31
0.0
  0
LINE
  5
36C
330
1F
100
AcDbEntity
  8
LC-002-100-D00-0
 62
     7
370
    50
100
AcDbLine
 10
248.580713
 20
218.710075
 30
0.0
 11
248.595722
 21
218.710075
 31
0.0
  0
LINE
  5
36D
330
1F
100
AcDbEntity
  8
LC-002-100-D00-0
 62
     7
370
    50
100
AcDbLine
 10
247.171975
 20
213.710072
 30
0.0
 11
247.171975
 21
218.710075
 31
0.0
  0
LINE
  5
36E
330
1F
100
AcDbEntity
  8
LC-002-100-D00-0
 62
     7
370
    50
100
AcDbLine
 10
145.919472
 20
213.710072
 30
0.0
 11
145.919472
 21
218.710075
 31
0.0
  0
INSERT
  5
38C
330
1F
100
AcDbEntity
  8
LC-002-100-D00-0
 62
     7
370
    50
100
AcDbBlockReference
  2
POLY26
 10
0.0
 20
0.0
 30
0.0
  0
LINE
  5
38D
330
1F
100
AcDbEntity
  8
LC-002-100-D00-0
 62
     7
370
    50
100
AcDbLine
 10
242.234345
 20
213.710072
 30
0.0
 11
242.234345
 21
218.710075
 31
0.0
  0
LINE
  5
38E
330
1F
100
AcDbEntity
  8
LC-002-100-D00-0
 62
     7
370
    50
100
AcDbLine
 10
240.984347
 20
213.710072
 30
0.0
 11
240.984347
 21
218.710075
 31
0.0
  0
LINE
  5
38F
330
1F
100
AcDbEntity
  8
LC-002-100-D00-0
 62
     7
370
    50
100
AcDbLine
 10
240.984347
 20
218.710075
 30
0.0
 11
242.234345
 21
218.710075
 31
0.0
  0
LINE
  5
390
330
1F
100
AcDbEntity
  8
LC-002-100-D00-0
 62
     7
370
    50
100
AcDbLine
 10
150.857102
 20
213.710072
 30
0.0
 11
150.857102
 21
218.710075
 31
0.0
  0
LINE
  5
391
330
1F
100
AcDbEntity
  8
LC-002-100-D00-0
 62
     7
370
    50
100
AcDbLine
 10
150.640532
 20
218.710075
 30
0.0
 11
150.857102
 21
218.710075
 31
0.0
  0
LINE
  5
392
330
1F
100
AcDbEntity
  8
LC-002-100-D00-0
 62
     7
370
    50
100
AcDbLine
 10
152.107101
 20
213.710072
 30
0.0
 11
152.107101
 21
218.710075
 31
0.0
  0
LINE
  5
393
330
1F
100
AcDbEntity
  8
LC-002-100-D00-0
 62
     7
370
    50
100
AcDbLine
 10
150.857102
 20
218.710075
 30
0.0
 11
152.107101
 21
218.710075
 31
0.0
  0
LINE
  5
394
330
1F
100
AcDbEntity
  8
LC-002-100-D00-0
 62
     7
370
    50
100
AcDbLine
 10
226.496491
 20
213.710072
 30
0.0
 11
226.496491
 21
218.710075
 31
0.0
  0
LINE
  5
395
330
1F
100
AcDbEntity
  8
LC-002-100-D00-0
 62
     7
370
    50
100
AcDbLine
 10
166.594956
 20
213.710072
 30
0.0
 11
166.594956
 21
218.710075
 31
0.0
  0
LINE
  5
396
330
1F
100
AcDbEntity
  8
LC-002-100-D00-0
 62
     7
370
    50
100
AcDbLine
 10
201.545724
 20
216.710071
 30
0.0
 11
191.545724
 21
216.710071
 31
0.0
  0
LINE
  5
397
330
1F
100
AcDbEntity
  8
LC-002-100-D00-0
 62
     7
370
    50
100
AcDbLine
 10
191.545724
 20
226.710069
 30
0.0
 11
191.545724
 21
216.710071
 31
0.0
  0
LINE
  5
398
330
1F
100
AcDbEntity
  8
LC-002-100-D00-0
 62
     7
370
    50
100
AcDbLine
 10
201.545724
 20
226.710069
 30
0.0
 11
201.545724
 21
216.710071
 31
0.0
  0
LINE
  5
399
330
1F
100
AcDbEntity
  8
LC-002-100-D00-0
 62
     7
370
    50
100
AcDbLine
 10
223.64575
 20
213.710072
 30
0.0
 11
223.64575
 21
218.710075
 31
0.0
  0
LINE
  5
39A
330
1F
100
AcDbEntity
  8
LC-002-100-D00-0
 62
     7
370
    50
100
AcDbLine
 10
221.480686
 20
213.710072
 30
0.0
 11
221.480686
 21
218.710075
 31
0.0
  0
LINE
  5
39B
330
1F
100
AcDbEntity
  8
LC-002-100-D00-0
 62
     7
370
    50
100
AcDbLine
 10
221.480686
 20
218.710075
 30
0.0
 11
223.64575
 21
218.710075
 31
0.0
  0
LINE
  5
39C
330
1F
100
AcDbEntity
  8
LC-002-100-D00-0
 62
     7
370
    50
100
AcDbLine
 10
169.445697
 20
213.710072
 30
0.0
 11
169.445697
 21
218.710075
 31
0.0
  0
LINE
  5
39D
330
1F
100
AcDbEntity
  8
LC-002-100-D00-0
 62
     7
370
    50
100
AcDbLine
 10
169.320661
 20
218.710075
 30
0.0
 11
169.445697
 21
218.710075
 31
0.0
  0
LINE
  5
39E
330
1F
100
AcDbEntity
  8
LC-002-100-D00-0
 62
     7
370
    50
100
AcDbLine
 10
171.610761
 20
213.710072
 30
0.0
 11
171.610761
 21
218.710075
 31
0.0
  0
LINE
  5
39F
330
1F
100
AcDbEntity
  8
LC-002-100-D00-0
 62
     7
370
    50
100
AcDbLine
 10
169.445697
 20
218.710075
 30
0.0
 11
171.610761
 21
218.710075
 31
0.0
  0
LINE
  5
3A0
330
1F
100
AcDbEntity
  8
LC-002-100-D00-0
 62
     7
370
    50
100
AcDbLine
 10
191.545724
 20
216.710071
 30
0.0
 11
188.107367
 21
216.710071
 31
0.0
  0
LINE
  5
3A1
330
1F
100
AcDbEntity
  8
LC-002-100-D00-0
 62
     7
370
    50
100
AcDbLine
 10
204.98408
 20
216.710071
 30
0.0
 11
201.545724
 21
216.710071
 31
0.0
  0
LINE
  5
3A2
330
1F
100
AcDbEntity
  8
LC-002-100-D00-0
 62
     7
370
    50
100
AcDbLine
 10
126.545723
 20
225.975069
 30
0.0
 11
124.545727
 21
227.375495
 31
0.0
  0
LINE
  5
3A3
330
1F
100
AcDbEntity
  8
LC-002-100-D00-0
 62
     7
370
    50
100
AcDbLine
 10
128.54572
 20
227.375495
 30
0.0
 11
126.545723
 21
225.975069
 31
0.0
  0
LINE
  5
3A4
330
1F
100
AcDbEntity
  8
LC-002-100-D00-0
 62
     7
370
    50
100
AcDbLine
 10
131.045725
 20
245.97508
 30
0.0
 11
131.595727
 21
245.97508
 31
0.0
  0
ARC
  5
3A5
330
1F
100
AcDbEntity
  8
LC-002-100-D00-0
 62
     7
370
    50
100
AcDbCircle
 10
131.595724
 20
245.775076
 30
0.0
 40
0.1999999999999886
100
AcDbArc
 50
0.0
 51
90.0
  0
LINE
  5
3A6
330
1F
100
AcDbEntity
  8
LC-002-100-D00-0
 62
     7
370
    50
100
AcDbLine
 10
131.795723
 20
245.775077
 30
0.0
 11
131.795723
 21
242.975074
 31
0.0
  0
LINE
  5
3A7
330
1F
100
AcDbEntity
  8
LC-002-100-D00-0
 62
     7
370
    50
100
AcDbLine
 10
131.795723
 20
242.975074
 30
0.0
 11
128.54572
 21
242.975074
 31
0.0
  0
LINE
  5
3A8
330
1F
100
AcDbEntity
  8
LC-002-100-D00-0
 62
     7
370
    50
100
AcDbLine
 10
128.54572
 20
242.975074
 30
0.0
 11
128.54572
 21
241.470668
 31
0.0
  0
INSERT
  5
3AF
330
1F
100
AcDbEntity
  8
LC-002-100-D00-0
 62
     7
370
    50
100
AcDbBlockReference
  2
KLON1
 10
0.0
 20
0.0
 30
0.0
  0
INSERT
  5
3B6
330
1F
100
AcDbEntity
  8
LC-002-100-D00-0
 62
     7
370
    50
100
AcDbBlockReference
  2
KLON2
 10
0.0
 20
0.0
 30
0.0
  0
LINE
  5
3B7
330
1F
100
AcDbEntity
  8
LC-002-100-D00-0
 62
     7
370
    50
100
AcDbLine
 10
128.54572
 20
240.169245
 30
0.0
 11
128.54572
 21
238.470661
 31
0.0
  0
INSERT
  5
3BE
330
1F
100
AcDbEntity
  8
LC-002-100-D00-0
 62
     7
370
    50
100
AcDbBlockReference
  2
KLON3
 10
0.0
 20
0.0
 30
0.0
  0
INSERT
  5
3C5
330
1F
100
AcDbEntity
  8
LC-002-100-D00-0
 62
     7
370
    50
100
AcDbBlockReference
  2
KLON4
 10
0.0
 20
0.0
 30
0.0
  0
LINE
  5
3C6
330
1F
100
AcDbEntity
  8
LC-002-100-D00-0
 62
     7
370
    50
100
AcDbLine
 10
128.54572
 20
237.169254
 30
0.0
 11
128.54572
 21
235.47067
 31
0.0
  0
INSERT
  5
3CD
330
1F
100
AcDbEntity
  8
LC-002-100-D00-0
 62
     7
370
    50
100
AcDbBlockReference
  2
KLON5
 10
0.0
 20
0.0
 30
0.0
  0
INSERT
  5
3D4
330
1F
100
AcDbEntity
  8
LC-002-100-D00-0
 62
     7
370
    50
100
AcDbBlockReference
  2
KLON6
 10
0.0
 20
0.0
 30
0.0
  0
LINE
  5
3D5
330
1F
100
AcDbEntity
  8
LC-002-100-D00-0
 62
     7
370
    50
100
AcDbLine
 10
128.54572
 20
234.169248
 30
0.0
 11
128.54572
 21
232.470664
 31
0.0
  0
INSERT
  5
3DC
330
1F
100
AcDbEntity
  8
LC-002-100-D00-0
 62
     7
370
    50
100
AcDbBlockReference
  2
KLON7
 10
0.0
 20
0.0
 30
0.0
  0
INSERT
  5
3E3
330
1F
100
AcDbEntity
  8
LC-002-100-D00-0
 62
     7
370
    50
100
AcDbBlockReference
  2
KLON8
 10
0.0
 20
0.0
 30
0.0
  0
LINE
  5
3E4
330
1F
100
AcDbEntity
  8
LC-002-100-D00-0
 62
     7
370
    50
100
AcDbLine
 10
128.54572
 20
231.169256
 30
0.0
 11
128.54572
 21
229.470673
 31
0.0
  0
INSERT
  5
3EB
330
1F
100
AcDbEntity
  8
LC-002-100-D00-0
 62
     7
370
    50
100
AcDbBlockReference
  2
KLON9
 10
0.0
 20
0.0
 30
0.0
  0
INSERT
  5
3F2
330
1F
100
AcDbEntity
  8
LC-002-100-D00-0
 62
     7
370
    50
100
AcDbBlockReference
  2
KLON10
 10
0.0
 20
0.0
 30
0.0
  0
LINE
  5
3F3
330
1F
100
AcDbEntity
  8
LC-002-100-D00-0
 62
     7
370
    50
100
AcDbLine
 10
128.54572
 20
228.16925
 30
0.0
 11
128.54572
 21
227.375495
 31
0.0
  0
LINE
  5
3F4
330
1F
100
AcDbEntity
  8
LC-002-100-D00-0
 62
     7
370
    50
100
AcDbLine
 10
124.545727
 20
227.375495
 30
0.0
 11
124.545727
 21
229.669246
 31
0.0
  0
INSERT
  5
3FB
330
1F
100
AcDbEntity
  8
LC-002-100-D00-0
 62
     7
370
    50
100
AcDbBlockReference
  2
KLON11
 10
0.0
 20
0.0
 30
0.0
  0
INSERT
  5
402
330
1F
100
AcDbEntity
  8
LC-002-100-D00-0
 62
     7
370
    50
100
AcDbBlockReference
  2
KLON12
 10
0.0
 20
0.0
 30
0.0
  0
LINE
  5
403
330
1F
100
AcDbEntity
  8
LC-002-100-D00-0
 62
     7
370
    50
100
AcDbLine
 10
124.545727
 20
230.970669
 30
0.0
 11
124.545727
 21
232.669252
 31
0.0
  0
INSERT
  5
40A
330
1F
100
AcDbEntity
  8
LC-002-100-D00-0
 62
     7
370
    50
100
AcDbBlockReference
  2
KLON13
 10
0.0
 20
0.0
 30
0.0
  0
INSERT
  5
411
330
1F
100
AcDbEntity
  8
LC-002-100-D00-0
 62
     7
370
    50
100
AcDbBlockReference
  2
KLON14
 10
0.0
 20
0.0
 30
0.0
  0
LINE
  5
412
330
1F
100
AcDbEntity
  8
LC-002-100-D00-0
 62
     7
370
    50
100
AcDbLine
 10
124.545727
 20
233.97066
 30
0.0
 11
124.545727
 21
235.669243
 31
0.0
  0
INSERT
  5
419
330
1F
100
AcDbEntity
  8
LC-002-100-D00-0
 62
     7
370
    50
100
AcDbBlockReference
  2
KLON15
 10
0.0
 20
0.0
 30
0.0
  0
INSERT
  5
420
330
1F
100
AcDbEntity
  8
LC-002-100-D00-0
 62
     7
370
    50
100
AcDbBlockReference
  2
KLON16
 10
0.0
 20
0.0
 30
0.0
  0
LINE
  5
421
330
1F
100
AcDbEntity
  8
LC-002-100-D00-0
 62
     7
370
    50
100
AcDbLine
 10
124.545727
 20
236.970666
 30
0.0
 11
124.545727
 21
238.669249
 31
0.0
  0
INSERT
  5
428
330
1F
100
AcDbEntity
  8
LC-002-100-D00-0
 62
     7
370
    50
100
AcDbBlockReference
  2
KLON17
 10
0.0
 20
0.0
 30
0.0
  0
INSERT
  5
42F
330
1F
100
AcDbEntity
  8
LC-002-100-D00-0
 62
     7
370
    50
100
AcDbBlockReference
  2
KLON18
 10
0.0
 20
0.0
 30
0.0
  0
LINE
  5
430
330
1F
100
AcDbEntity
  8
LC-002-100-D00-0
 62
     7
370
    50
100
AcDbLine
 10
124.545727
 20
239.970672
 30
0.0
 11
124.545727
 21
241.669255
 31
0.0
  0
INSERT
  5
437
330
1F
100
AcDbEntity
  8
LC-002-100-D00-0
 62
     7
370
    50
100
AcDbBlockReference
  2
KLON19
 10
0.0
 20
0.0
 30
0.0
  0
INSERT
  5
43E
330
1F
100
AcDbEntity
  8
LC-002-100-D00-0
 62
     7
370
    50
100
AcDbBlockReference
  2
KLON20
 10
0.0
 20
0.0
 30
0.0
  0
LINE
  5
43F
330
1F
100
AcDbEntity
  8
LC-002-100-D00-0
 62
     7
370
    50
100
AcDbLine
 10
124.545727
 20
242.970663
 30
0.0
 11
124.545727
 21
242.975074
 31
0.0
  0
LINE
  5
440
330
1F
100
AcDbEntity
  8
LC-002-100-D00-0
 62
     7
370
    50
100
AcDbLine
 10
124.545727
 20
242.975074
 30
0.0
 11
121.295724
 21
242.975074
 31
0.0
  0
LINE
  5
441
330
1F
100
AcDbEntity
  8
LC-002-100-D00-0
 62
     7
370
    50
100
AcDbLine
 10
121.295724
 20
242.975074
 30
0.0
 11
121.295724
 21
245.775077
 31
0.0
  0
ARC
  5
442
330
1F
100
AcDbEntity
  8
LC-002-100-D00-0
 62
     7
370
    50
100
AcDbCircle
 10
121.495724
 20
245.775076
 30
0.0
 40
0.2000000000000455
100
AcDbArc
 50
90.0
 51
180.0
  0
LINE
  5
443
330
1F
100
AcDbEntity
  8
LC-002-100-D00-0
 62
     7
370
    50
100
AcDbLine
 10
121.495727
 20
245.97508
 30
0.0
 11
122.045722
 21
245.97508
 31
0.0
  0
ARC
  5
444
330
1F
100
AcDbEntity
  8
LC-002-100-D00-0
 62
     7
370
    50
100
AcDbCircle
 10
126.545724
 20
240.850076
 30
0.0
 40
6.820236432852042
100
AcDbArc
 50
123.355647
 51
131.284711
  0
LINE
  5
445
330
1F
100
AcDbEntity
  8
LC-002-100-D00-0
 62
     7
370
    50
100
AcDbLine
 10
122.795727
 20
245.475071
 30
0.0
 11
122.795727
 21
246.546837
 31
0.0
  0
LINE
  5
446
330
1F
100
AcDbEntity
  8
LC-002-100-D00-0
 62
     7
370
    50
100
AcDbLine
 10
122.795727
 20
245.475071
 30
0.0
 11
124.772291
 21
245.475071
 31
0.0
  0
LINE
  5
447
330
1F
100
AcDbEntity
  8
LC-002-100-D00-0
 62
     7
370
    50
100
AcDbLine
 10
124.772291
 20
245.475071
 30
0.0
 11
124.772291
 21
244.975078
 31
0.0
  0
LINE
  5
448
330
1F
100
AcDbEntity
  8
LC-002-100-D00-0
 62
     7
370
    50
100
AcDbLine
 10
124.772291
 20
244.975078
 30
0.0
 11
128.319155
 21
244.975078
 31
0.0
  0
LINE
  5
449
330
1F
100
AcDbEntity
  8
LC-002-100-D00-0
 62
     7
370
    50
100
AcDbLine
 10
128.319155
 20
245.475071
 30
0.0
 11
128.319155
 21
244.975078
 31
0.0
  0
LINE
  5
44A
330
1F
100
AcDbEntity
  8
LC-002-100-D00-0
 62
     7
370
    50
100
AcDbLine
 10
128.319155
 20
245.475071
 30
0.0
 11
130.295727
 21
245.475071
 31
0.0
  0
LINE
  5
44B
330
1F
100
AcDbEntity
  8
LC-002-100-D00-0
 62
     7
370
    50
100
AcDbLine
 10
130.295727
 20
246.546837
 30
0.0
 11
130.295727
 21
245.475071
 31
0.0
  0
ARC
  5
44C
330
1F
100
AcDbEntity
  8
LC-002-100-D00-0
 62
     7
370
    50
100
AcDbCircle
 10
126.545724
 20
240.850076
 30
0.0
 40
6.82023643285209
100
AcDbArc
 50
48.715289
 51
56.644353
  0
INSERT
  5
458
330
1F
100
AcDbEntity
  8
LC-002-100-D00-0
 62
     7
370
    50
100
AcDbBlockReference
  2
POLY27
 10
0.0
 20
0.0
 30
0.0
  0
LINE
  5
459
330
1F
100
AcDbEntity
  8
LC-002-100-D00-0
 62
     7
370
    50
100
AcDbLine
 10
129.584145
 20
240.984338
 30
0.0
 11
129.795726
 21
240.819964
 31
0.0
  0
ARC
  5
45A
330
1F
100
AcDbEntity
  8
LC-002-100-D00-0
 62
     7
370
    50
100
AcDbCircle
 10
126.545724
 20
240.850076
 30
0.0
 40
6.801883930206413
100
AcDbArc
 50
56.54253
 51
63.818118
  0
ARC
  5
45B
330
1F
100
AcDbEntity
  8
LC-002-100-D00-0
 62
     7
370
    50
100
AcDbCircle
 10
126.545724
 20
240.850076
 30
0.0
 40
6.801883930206587
100
AcDbArc
 50
116.181882
 51
123.45747
  0
INSERT
  5
467
330
1F
100
AcDbEntity
  8
LC-002-100-D00-0
 62
     7
370
    50
100
AcDbBlockReference
  2
POLY28
 10
0.0
 20
0.0
 30
0.0
  0
INSERT
  5
473
330
1F
100
AcDbEntity
  8
LC-002-100-D00-0
 62
     7
370
    50
100
AcDbBlockReference
  2
POLY29
 10
0.0
 20
0.0
 30
0.0
  0
LINE
  5
474
330
1F
100
AcDbEntity
  8
LC-002-100-D00-0
 62
     7
370
    50
100
AcDbLine
 10
129.456375
 20
246.975082
 30
0.0
 11
128.319155
 21
246.975082
 31
0.0
  0
LINE
  5
475
330
1F
100
AcDbEntity
  8
LC-002-100-D00-0
 62
     7
370
    50
100
AcDbLine
 10
128.319155
 20
246.975082
 30
0.0
 11
128.319155
 21
245.475071
 31
0.0
  0
LINE
  5
476
330
1F
100
AcDbEntity
  8
LC-002-100-D00-0
 62
     7
370
    50
100
AcDbLine
 10
124.772291
 20
246.975082
 30
0.0
 11
123.635072
 21
246.975082
 31
0.0
  0
LINE
  5
477
330
1F
100
AcDbEntity
  8
LC-002-100-D00-0
 62
     7
370
    50
100
AcDbLine
 10
124.772291
 20
246.975082
 30
0.0
 11
124.772291
 21
245.475071
 31
0.0
  0
LINE
  5
478
330
1F
100
AcDbEntity
  8
LC-002-100-D00-0
 62
     7
370
    50
100
AcDbLine
 10
125.876177
 20
246.975082
 30
0.0
 11
127.21527
 21
246.975082
 31
0.0
  0
LINE
  5
479
330
1F
100
AcDbEntity
  8
LC-002-100-D00-0
 62
     7
370
    50
100
AcDbLine
 10
127.518389
 20
246.975082
 30
0.0
 11
127.21527
 21
246.975082
 31
0.0
  0
LINE
  5
47A
330
1F
100
AcDbEntity
  8
LC-002-100-D00-0
 62
     7
370
    50
100
AcDbLine
 10
125.573065
 20
246.975082
 30
0.0
 11
125.876177
 21
246.975082
 31
0.0
  0
LINE
  5
47B
330
1F
100
AcDbEntity
  8
LC-002-100-D00-0
 62
     7
370
    50
100
AcDbLine
 10
127.518389
 20
246.975082
 30
0.0
 11
128.319155
 21
246.975082
 31
0.0
  0
LINE
  5
47C
330
1F
100
AcDbEntity
  8
LC-002-100-D00-0
 62
     7
370
    50
100
AcDbLine
 10
125.573065
 20
246.975082
 30
0.0
 11
124.772291
 21
246.975082
 31
0.0
  0
ARC
  5
47D
330
1F
100
AcDbEntity
  8
LC-002-100-D00-0
 62
     7
370
    50
100
AcDbCircle
 10
254.545924
 20
251.475076
 30
0.0
 40
3.000000000000022
100
AcDbArc
 50
0.661376
 51
90.003817
  0
ARC
  5
47E
330
1F
100
AcDbEntity
  8
LC-002-100-D00-0
 62
     7
370
    50
100
AcDbCircle
 10
138.545524
 20
251.475076
 30
0.0
 40
3.000000000000028
100
AcDbArc
 50
89.996183
 51
179.338624
  0
LINE
  5
47F
330
1F
100
AcDbEntity
  8
LC-002-100-D00-0
 62
     7
370
    50
100
AcDbLine
 10
257.545724
 20
245.97508
 30
0.0
 11
257.545724
 21
251.509699
 31
0.0
  0
LINE
  5
480
330
1F
100
AcDbEntity
  8
LC-002-100-D00-0
 62
     7
370
    50
100
AcDbLine
 10
135.545723
 20
251.509699
 30
0.0
 11
135.545723
 21
245.97508
 31
0.0
  0
LINE
  5
481
330
1F
100
AcDbEntity
  8
LC-002-100-D00-0
 62
     7
370
    50
100
AcDbLine
 10
257.545724
 20
235.475081
 30
0.0
 11
257.545724
 21
237.479704
 31
0.0
  0
LINE
  5
482
330
1F
100
AcDbEntity
  8
LC-002-100-D00-0
 62
     7
370
    50
100
AcDbLine
 10
135.545723
 20
237.479704
 30
0.0
 11
135.545723
 21
235.475081
 31
0.0
  0
LINE
  5
483
330
1F
100
AcDbEntity
  8
LC-002-100-D00-0
 62
     7
370
    50
100
AcDbLine
 10
257.545724
 20
237.479704
 30
0.0
 11
256.545722
 21
238.479706
 31
0.0
  0
LINE
  5
484
330
1F
100
AcDbEntity
  8
LC-002-100-D00-0
 62
     7
370
    50
100
AcDbLine
 10
136.545725
 20
238.479706
 30
0.0
 11
135.545723
 21
237.479704
 31
0.0
  0
LINE
  5
485
330
1F
100
AcDbEntity
  8
LC-002-100-D00-0
 62
     7
370
    50
100
AcDbLine
 10
135.545723
 20
235.475081
 30
0.0
 11
136.545725
 21
234.475079
 31
0.0
  0
LINE
  5
486
330
1F
100
AcDbEntity
  8
LC-002-100-D00-0
 62
     7
370
    50
100
AcDbLine
 10
256.545722
 20
234.475079
 30
0.0
 11
257.545724
 21
235.475081
 31
0.0
  0
LINE
  5
487
330
1F
100
AcDbEntity
  8
LC-002-100-D00-0
 62
     7
370
    50
100
AcDbLine
 10
256.545722
 20
238.479706
 30
0.0
 11
256.545722
 21
242.975074
 31
0.0
  0
LINE
  5
488
330
1F
100
AcDbEntity
  8
LC-002-100-D00-0
 62
     7
370
    50
100
AcDbLine
 10
136.545725
 20
242.975074
 30
0.0
 11
136.545725
 21
238.479706
 31
0.0
  0
LINE
  5
489
330
1F
100
AcDbEntity
  8
LC-002-100-D00-0
 62
     7
370
    50
100
AcDbLine
 10
137.545723
 20
241.975072
 30
0.0
 11
137.045722
 21
242.975074
 31
0.0
  0
LINE
  5
48A
330
1F
100
AcDbEntity
  8
LC-002-100-D00-0
 62
     7
370
    50
100
AcDbLine
 10
256.045725
 20
242.975074
 30
0.0
 11
255.545724
 21
241.975072
 31
0.0
  0
LINE
  5
48B
330
1F
100
AcDbEntity
  8
LC-002-100-D00-0
 62
     7
370
    50
100
AcDbLine
 10
137.045722
 20
242.975074
 30
0.0
 11
137.148753
 21
242.975074
 31
0.0
  0
LINE
  5
48C
330
1F
100
AcDbEntity
  8
LC-002-100-D00-0
 62
     7
370
    50
100
AcDbLine
 10
255.942695
 20
242.975074
 30
0.0
 11
256.045725
 21
242.975074
 31
0.0
  0
LINE
  5
48D
330
1F
100
AcDbEntity
  8
LC-002-100-D00-0
 62
     7
370
    50
100
AcDbLine
 10
255.045723
 20
241.975072
 30
0.0
 11
255.045723
 21
243.97521
 31
0.0
  0
LINE
  5
48E
330
1F
100
AcDbEntity
  8
LC-002-100-D00-0
 62
     7
370
    50
100
AcDbLine
 10
138.045724
 20
243.97521
 30
0.0
 11
138.045724
 21
241.975072
 31
0.0
  0
ARC
  5
48F
330
1F
100
AcDbEntity
  8
LC-002-100-D00-0
 62
     7
370
    50
100
AcDbCircle
 10
254.545724
 20
244.975208
 30
0.0
 40
1.000000000000032
100
AcDbArc
 50
90.929722
 51
270.0
  0
ARC
  5
490
330
1F
100
AcDbEntity
  8
LC-002-100-D00-0
 62
     7
370
    50
100
AcDbCircle
 10
138.545724
 20
244.975208
 30
0.0
 40
1.000000000000057
100
AcDbArc
 50
270.0
 51
89.070278
  0
LINE
  5
491
330
1F
100
AcDbEntity
  8
LC-002-100-D00-0
 62
     7
370
    50
100
AcDbLine
 10
140.545722
 20
240.979704
 30
0.0
 11
141.545724
 21
240.979704
 31
0.0
  0
LINE
  5
492
330
1F
100
AcDbEntity
  8
LC-002-100-D00-0
 62
     7
370
    50
100
AcDbLine
 10
251.545723
 20
240.979704
 30
0.0
 11
252.545725
 21
240.979704
 31
0.0
  0
ARC
  5
493
330
1F
100
AcDbEntity
  8
LC-002-100-D00-0
 62
     7
370
    50
100
AcDbCircle
 10
254.042633
 20
238.977391
 30
0.0
 40
2.500000000000061
100
AcDbArc
 50
126.781403
 51
233.218597
  0
LINE
  5
494
330
1F
100
AcDbEntity
  8
LC-002-100-D00-0
 62
     7
370
    50
100
AcDbLine
 10
140.545722
 20
236.975077
 30
0.0
 11
141.545724
 21
236.975077
 31
0.0
  0
LINE
  5
495
330
1F
100
AcDbEntity
  8
LC-002-100-D00-0
 62
     7
370
    50
100
AcDbLine
 10
251.545723
 20
236.975077
 30
0.0
 11
252.545725
 21
236.975077
 31
0.0
  0
ARC
  5
496
330
1F
100
AcDbEntity
  8
LC-002-100-D00-0
 62
     7
370
    50
100
AcDbCircle
 10
139.048814
 20
238.977391
 30
0.0
 40
2.500000000000061
100
AcDbArc
 50
306.781403
 51
53.218597
  0
LINE
  5
497
330
1F
100
AcDbEntity
  8
LC-002-100-D00-0
 62
     7
370
    50
100
AcDbLine
 10
252.545725
 20
236.975077
 30
0.0
 11
252.545725
 21
234.475079
 31
0.0
  0
LINE
  5
498
330
1F
100
AcDbEntity
  8
LC-002-100-D00-0
 62
     7
370
    50
100
AcDbLine
 10
140.545722
 20
234.475079
 30
0.0
 11
140.545722
 21
236.975077
 31
0.0
  0
LINE
  5
499
330
1F
100
AcDbEntity
  8
LC-002-100-D00-0
 62
     7
370
    50
100
AcDbLine
 10
140.545722
 20
234.475079
 30
0.0
 11
141.545724
 21
234.475079
 31
0.0
  0
LINE
  5
49A
330
1F
100
AcDbEntity
  8
LC-002-100-D00-0
 62
     7
370
    50
100
AcDbLine
 10
251.545723
 20
234.475079
 30
0.0
 11
252.545725
 21
234.475079
 31
0.0
  0
LINE
  5
49B
330
1F
100
AcDbEntity
  8
LC-002-100-D00-0
 62
     7
370
    50
100
AcDbLine
 10
140.545722
 20
250.664401
 30
0.0
 11
141.545724
 21
250.664401
 31
0.0
  0
LINE
  5
49C
330
1F
100
AcDbEntity
  8
LC-002-100-D00-0
 62
     7
370
    50
100
AcDbLine
 10
251.545723
 20
250.664401
 30
0.0
 11
252.545725
 21
250.664401
 31
0.0
  0
LINE
  5
49D
330
1F
100
AcDbEntity
  8
LC-002-100-D00-0
 62
     7
370
    50
100
AcDbLine
 10
252.545725
 20
250.664401
 30
0.0
 11
252.545725
 21
240.979704
 31
0.0
  0
LINE
  5
49E
330
1F
100
AcDbEntity
  8
LC-002-100-D00-0
 62
     7
370
    50
100
AcDbLine
 10
140.545722
 20
240.979704
 30
0.0
 11
140.545722
 21
250.664401
 31
0.0
  0
ARC
  5
49F
330
1F
100
AcDbEntity
  8
LC-002-100-D00-0
 62
     7
370
    50
100
AcDbCircle
 10
252.046878
 20
250.630446
 30
0.0
 40
0.5000000000000291
100
AcDbArc
 50
3.8945
 51
120.152867
  0
ARC
  5
4A0
330
1F
100
AcDbEntity
  8
LC-002-100-D00-0
 62
     7
370
    50
100
AcDbCircle
 10
141.044569
 20
250.630446
 30
0.0
 40
0.50000000000004
100
AcDbArc
 50
59.847133
 51
176.1055
  0
ARC
  5
4A1
330
1F
100
AcDbEntity
  8
LC-002-100-D00-0
 62
     7
370
    50
100
AcDbCircle
 10
252.22115
 20
253.975076
 30
0.0
 40
0.4999999999999432
100
AcDbArc
 50
90.0
 51
150.000028
  0
ARC
  5
4A2
330
1F
100
AcDbEntity
  8
LC-002-100-D00-0
 62
     7
370
    50
100
AcDbCircle
 10
140.870298
 20
253.975076
 30
0.0
 40
0.499999999999958
100
AcDbArc
 50
29.999972
 51
90.0
  0
LINE
  5
4A3
330
1F
100
AcDbEntity
  8
LC-002-100-D00-0
 62
     7
370
    50
100
AcDbLine
 10
140.870299
 20
254.475075
 30
0.0
 11
141.545724
 21
254.475075
 31
0.0
  0
LINE
  5
4A4
330
1F
100
AcDbEntity
  8
LC-002-100-D00-0
 62
     7
370
    50
100
AcDbLine
 10
251.545723
 20
254.475075
 30
0.0
 11
252.221148
 21
254.475075
 31
0.0
  0
LINE
  5
4A5
330
1F
100
AcDbEntity
  8
LC-002-100-D00-0
 62
     7
370
    50
100
AcDbLine
 10
141.295723
 20
251.062783
 30
0.0
 11
144.045725
 21
249.47508
 31
0.0
  0
LINE
  5
4A6
330
1F
100
AcDbEntity
  8
LC-002-100-D00-0
 62
     7
370
    50
100
AcDbLine
 10
249.045722
 20
249.47508
 30
0.0
 11
251.795724
 21
251.062783
 31
0.0
  0
LINE
  5
4A7
330
1F
100
AcDbEntity
  8
LC-002-100-D00-0
 62
     7
370
    50
100
AcDbLine
 10
144.045725
 20
249.47508
 30
0.0
 11
141.303312
 21
254.225078
 31
0.0
  0
LINE
  5
4A8
330
1F
100
AcDbEntity
  8
LC-002-100-D00-0
 62
     7
370
    50
100
AcDbLine
 10
251.788135
 20
254.225078
 30
0.0
 11
249.045722
 21
249.47508
 31
0.0
  0
LINE
  5
4A9
330
1F
100
AcDbEntity
  8
LC-002-100-D00-0
 62
     7
370
    50
100
AcDbLine
 10
254.545722
 20
254.475075
 30
0.0
 11
252.221148
 21
254.475075
 31
0.0
  0
LINE
  5
4AA
330
1F
100
AcDbEntity
  8
LC-002-100-D00-0
 62
     7
370
    50
100
AcDbLine
 10
255.045723
 20
243.97521
 30
0.0
 11
254.545722
 21
243.97521
 31
0.0
  0
LINE
  5
4AB
330
1F
100
AcDbEntity
  8
LC-002-100-D00-0
 62
     7
370
    50
100
AcDbLine
 10
255.545724
 20
241.975072
 30
0.0
 11
255.045723
 21
241.975072
 31
0.0
  0
LINE
  5
4AC
330
1F
100
AcDbEntity
  8
LC-002-100-D00-0
 62
     7
370
    50
100
AcDbLine
 10
252.545725
 20
234.475079
 30
0.0
 11
256.545722
 21
234.475079
 31
0.0
  0
LINE
  5
4AD
330
1F
100
AcDbEntity
  8
LC-002-100-D00-0
 62
     7
370
    50
100
AcDbLine
 10
256.545722
 20
242.975074
 30
0.0
 11
256.045725
 21
242.975074
 31
0.0
  0
LINE
  5
4AE
330
1F
100
AcDbEntity
  8
LC-002-100-D00-0
 62
     7
370
    50
100
AcDbLine
 10
254.529498
 20
245.97508
 30
0.0
 11
257.545724
 21
245.97508
 31
0.0
  0
LINE
  5
4AF
330
1F
100
AcDbEntity
  8
LC-002-100-D00-0
 62
     7
370
    50
100
AcDbLine
 10
140.870299
 20
254.475075
 30
0.0
 11
138.545725
 21
254.475075
 31
0.0
  0
LINE
  5
4B0
330
1F
100
AcDbEntity
  8
LC-002-100-D00-0
 62
     7
370
    50
100
AcDbLine
 10
138.545725
 20
243.97521
 30
0.0
 11
138.045724
 21
243.97521
 31
0.0
  0
LINE
  5
4B1
330
1F
100
AcDbEntity
  8
LC-002-100-D00-0
 62
     7
370
    50
100
AcDbLine
 10
138.045724
 20
241.975072
 30
0.0
 11
137.545723
 21
241.975072
 31
0.0
  0
LINE
  5
4B2
330
1F
100
AcDbEntity
  8
LC-002-100-D00-0
 62
     7
370
    50
100
AcDbLine
 10
136.545725
 20
234.475079
 30
0.0
 11
140.545722
 21
234.475079
 31
0.0
  0
LINE
  5
4B3
330
1F
100
AcDbEntity
  8
LC-002-100-D00-0
 62
     7
370
    50
100
AcDbLine
 10
137.045722
 20
242.975074
 30
0.0
 11
136.545725
 21
242.975074
 31
0.0
  0
LINE
  5
4B4
330
1F
100
AcDbEntity
  8
LC-002-100-D00-0
 62
     7
370
    50
100
AcDbLine
 10
135.545723
 20
245.97508
 30
0.0
 11
138.561949
 21
245.97508
 31
0.0
  0
ARC
  5
4B5
330
1F
100
AcDbEntity
  8
LC-002-100-D00-0
 62
     7
370
    50
100
AcDbCircle
 10
300.345781
 20
245.721586
 30
0.0
 40
0.2000000000001201
100
AcDbArc
 50
281.529571
 51
358.633347
  0
ARC
  5
4B6
330
1F
100
AcDbEntity
  8
LC-002-100-D00-0
 62
     7
370
    50
100
AcDbCircle
 10
92.745667
 20
245.721586
 30
0.0
 40
0.2000000000001
100
AcDbArc
 50
181.366653
 51
258.470429
  0
LINE
  5
4B7
330
1F
100
AcDbEntity
  8
LC-002-100-D00-0
 62
     7
370
    50
100
AcDbLine
 10
300.545726
 20
245.97508
 30
0.0
 11
300.545726
 21
245.716813
 31
0.0
  0
LINE
  5
4B8
330
1F
100
AcDbEntity
  8
LC-002-100-D00-0
 62
     7
370
    50
100
AcDbLine
 10
92.545721
 20
245.716813
 30
0.0
 11
92.545721
 21
245.97508
 31
0.0
  0
LINE
  5
4B9
330
1F
100
AcDbEntity
  8
LC-002-100-D00-0
 62
     7
370
    50
100
AcDbLine
 10
101.28795
 20
242.90176
 30
0.0
 11
92.705693
 21
245.525616
 31
0.0
  0
LINE
  5
4BA
330
1F
100
AcDbEntity
  8
LC-002-100-D00-0
 62
     7
370
    50
100
AcDbLine
 10
300.385754
 20
245.525616
 30
0.0
 11
291.803498
 21
242.90176
 31
0.0
  0
LINE
  5
4BB
330
1F
100
AcDbEntity
  8
LC-002-100-D00-0
 62
     7
370
    50
100
AcDbLine
 10
115.789253
 20
240.475076
 30
0.0
 11
101.28795
 21
242.90176
 31
0.0
  0
LINE
  5
4BC
330
1F
100
AcDbEntity
  8
LC-002-100-D00-0
 62
     7
370
    50
100
AcDbLine
 10
291.803498
 20
242.90176
 30
0.0
 11
277.302194
 21
240.475076
 31
0.0
  0
LINE
  5
4BD
330
1F
100
AcDbEntity
  8
LC-002-100-D00-0
 62
     7
370
    50
100
AcDbLine
 10
260.045726
 20
245.97508
 30
0.0
 11
260.045726
 21
240.475076
 31
0.0
  0
LINE
  5
4BE
330
1F
100
AcDbEntity
  8
LC-002-100-D00-0
 62
     7
370
    50
100
AcDbLine
 10
277.302194
 20
240.475076
 30
0.0
 11
260.045726
 21
240.475076
 31
0.0
  0
LINE
  5
4BF
330
1F
100
AcDbEntity
  8
LC-002-100-D00-0
 62
     7
370
    50
100
AcDbLine
 10
260.045726
 20
245.97508
 30
0.0
 11
300.545726
 21
245.97508
 31
0.0
  0
LINE
  5
4C0
330
1F
100
AcDbEntity
  8
LC-002-100-D00-0
 62
     7
370
    50
100
AcDbLine
 10
120.295722
 20
242.975074
 30
0.0
 11
120.295722
 21
245.97508
 31
0.0
  0
LINE
  5
4C1
330
1F
100
AcDbEntity
  8
LC-002-100-D00-0
 62
     7
370
    50
100
AcDbLine
 10
120.295722
 20
242.975074
 30
0.0
 11
123.045724
 21
242.975074
 31
0.0
  0
LINE
  5
4C2
330
1F
100
AcDbEntity
  8
LC-002-100-D00-0
 62
     7
370
    50
100
AcDbLine
 10
123.045724
 20
240.475076
 30
0.0
 11
123.045724
 21
242.975074
 31
0.0
  0
LINE
  5
4C3
330
1F
100
AcDbEntity
  8
LC-002-100-D00-0
 62
     7
370
    50
100
AcDbLine
 10
123.045724
 20
240.475076
 30
0.0
 11
115.789253
 21
240.475076
 31
0.0
  0
LINE
  5
4C4
330
1F
100
AcDbEntity
  8
LC-002-100-D00-0
 62
     7
370
    50
100
AcDbLine
 10
92.545721
 20
245.97508
 30
0.0
 11
120.295722
 21
245.97508
 31
0.0
  0
LINE
  5
4C5
330
1F
100
AcDbEntity
  8
LC-002-100-D00-0
 62
     7
370
    50
100
AcDbLine
 10
132.795725
 20
245.97508
 30
0.0
 11
132.795725
 21
242.975074
 31
0.0
  0
LINE
  5
4C6
330
1F
100
AcDbEntity
  8
LC-002-100-D00-0
 62
     7
370
    50
100
AcDbLine
 10
132.795725
 20
245.97508
 30
0.0
 11
131.595727
 21
245.97508
 31
0.0
  0
LINE
  5
4C7
330
1F
100
AcDbEntity
  8
LC-002-100-D00-0
 62
     7
370
    50
100
AcDbLine
 10
121.495727
 20
245.97508
 30
0.0
 11
120.295722
 21
245.97508
 31
0.0
  0
LINE
  5
4C8
330
1F
100
AcDbEntity
  8
LC-002-100-D00-0
 62
     7
370
    50
100
AcDbLine
 10
130.045723
 20
242.975074
 30
0.0
 11
130.045723
 21
240.475076
 31
0.0
  0
LINE
  5
4C9
330
1F
100
AcDbEntity
  8
LC-002-100-D00-0
 62
     7
370
    50
100
AcDbLine
 10
130.045723
 20
240.475076
 30
0.0
 11
129.168186
 21
240.475076
 31
0.0
  0
LINE
  5
4CA
330
1F
100
AcDbEntity
  8
LC-002-100-D00-0
 62
     7
370
    50
100
AcDbLine
 10
124.545727
 20
240.475076
 30
0.0
 11
123.045724
 21
240.475076
 31
0.0
  0
LINE
  5
4CB
330
1F
100
AcDbEntity
  8
LC-002-100-D00-0
 62
     7
370
    50
100
AcDbLine
 10
133.045722
 20
240.475076
 30
0.0
 11
133.045722
 21
245.97508
 31
0.0
  0
LINE
  5
4CC
330
1F
100
AcDbEntity
  8
LC-002-100-D00-0
 62
     7
370
    50
100
AcDbLine
 10
130.045723
 20
242.975074
 30
0.0
 11
132.795725
 21
242.975074
 31
0.0
  0
LINE
  5
4CD
330
1F
100
AcDbEntity
  8
LC-002-100-D00-0
 62
     7
370
    50
100
AcDbLine
 10
133.045722
 20
240.475076
 30
0.0
 11
130.045723
 21
240.475076
 31
0.0
  0
LINE
  5
4CE
330
1F
100
AcDbEntity
  8
LC-002-100-D00-0
 62
     7
370
    50
100
AcDbLine
 10
132.795725
 20
245.97508
 30
0.0
 11
133.045722
 21
245.97508
 31
0.0
  0
LINE
  5
4CF
330
1F
100
AcDbEntity
  8
LC-002-100-D00-0
 62
     7
370
    50
100
AcDbLine
 10
257.962391
 20
242.975074
 30
0.0
 11
257.962391
 21
241.475153
 31
0.0
  0
LINE
  5
4D0
330
1F
100
AcDbEntity
  8
LC-002-100-D00-0
 62
     7
370
    50
100
AcDbLine
 10
256.545722
 20
242.975074
 30
0.0
 11
257.962391
 21
242.975074
 31
0.0
  0
LINE
  5
4D1
330
1F
100
AcDbEntity
  8
LC-002-100-D00-0
 62
     7
370
    50
100
AcDbLine
 10
260.045726
 20
245.97508
 30
0.0
 11
257.545724
 21
245.97508
 31
0.0
  0
LINE
  5
4D2
330
1F
100
AcDbEntity
  8
LC-002-100-D00-0
 62
     7
370
    50
100
AcDbLine
 10
135.612391
 20
242.975074
 30
0.0
 11
136.545725
 21
242.975074
 31
0.0
  0
LINE
  5
4D3
330
1F
100
AcDbEntity
  8
LC-002-100-D00-0
 62
     7
370
    50
100
AcDbLine
 10
135.545723
 20
245.97508
 30
0.0
 11
133.045722
 21
245.97508
 31
0.0
  0
LINE
  5
4D4
330
1F
100
AcDbEntity
  8
LC-002-100-D00-0
 62
     7
370
    50
100
AcDbLine
 10
137.148753
 20
242.975074
 30
0.0
 11
137.649629
 21
241.975072
 31
0.0
  0
LINE
  5
4D5
330
1F
100
AcDbEntity
  8
LC-002-100-D00-0
 62
     7
370
    50
100
AcDbLine
 10
255.441818
 20
241.975072
 30
0.0
 11
255.942695
 21
242.975074
 31
0.0
  0
INSERT
  5
4DD
330
1F
100
AcDbEntity
  8
LC-002-100-D00-0
 62
     7
370
    25
100
AcDbBlockReference
  2
KLON21
 10
0.0
 20
0.0
 30
0.0
  0
LINE
  5
4DE
330
1F
100
AcDbEntity
  8
LC-002-100-D00-0
 62
     7
370
    50
100
AcDbLine
 10
132.475389
 20
240.475076
 30
0.0
 11
133.045724
 21
241.045411
 31
0.0
  0
INSERT
  5
4E7
330
1F
100
AcDbEntity
  8
LC-002-100-D00-0
 62
     7
370
    25
100
AcDbBlockReference
  2
KLON22
 10
0.0
 20
0.0
 30
0.0
  0
INSERT
  5
4EF
330
1F
100
AcDbEntity
  8
LC-002-100-D00-0
 62
     7
370
    25
100
AcDbBlockReference
  2
KLON23
 10
0.0
 20
0.0
 30
0.0
  0
INSERT
  5
4F7
330
1F
100
AcDbEntity
  8
LC-002-100-D00-0
 62
     7
370
    25
100
AcDbBlockReference
  2
KLON24
 10
0.0
 20
0.0
 30
0.0
  0
INSERT
  5
4FF
330
1F
100
AcDbEntity
  8
LC-002-100-D00-0
 62
     7
370
    25
100
AcDbBlockReference
  2
KLON25
 10
0.0
 20
0.0
 30
0.0
  0
INSERT
  5
505
330
1F
100
AcDbEntity
  8
LC-002-100-D00-0
 62
     7
370
    50
100
AcDbBlockReference
  2
KLON26
 10
0.0
 20
0.0
 30
0.0
  0
LINE
  5
506
330
1F
100
AcDbEntity
  8
LC-002-100-D00-0
 62
     7
370
    50
100
AcDbLine
 10
249.394482
 20
213.710072
 30
0.0
 11
254.394482
 21
218.710072
 31
0.0
  0
INSERT
  5
512
330
1F
100
AcDbEntity
  8
LC-002-100-D00-0
 62
     7
370
    25
100
AcDbBlockReference
  2
KLON27
 10
0.0
 20
0.0
 30
0.0
  0
INSERT
  5
521
330
1F
100
AcDbEntity
  8
LC-002-100-D00-0
 62
     7
370
    25
100
AcDbBlockReference
  2
KLON28
 10
0.0
 20
0.0
 30
0.0
  0
INSERT
  5
52B
330
1F
100
AcDbEntity
  8
LC-002-100-D00-0
 62
     7
370
    25
100
AcDbBlockReference
  2
KLON29
 10
0.0
 20
0.0
 30
0.0
  0
INSERT
  5
534
330
1F
100
AcDbEntity
  8
LC-002-100-D00-0
 62
     7
370
    25
100
AcDbBlockReference
  2
KLON30
 10
0.0
 20
0.0
 30
0.0
  0
INSERT
  5
543
330
1F
100
AcDbEntity
  8
LC-002-100-D00-0
 62
     7
370
    25
100
AcDbBlockReference
  2
KLON31
 10
0.0
 20
0.0
 30
0.0
  0
INSERT
  5
54F
330
1F
100
AcDbEntity
  8
LC-002-100-D00-0
 62
     7
370
    25
100
AcDbBlockReference
  2
KLON32
 10
0.0
 20
0.0
 30
0.0
  0
INSERT
  5
557
330
1F
100
AcDbEntity
  8
LC-002-100-D00-0
 62
     7
370
    25
100
AcDbBlockReference
  2
KLON33
 10
0.0
 20
0.0
 30
0.0
  0
INSERT
  5
561
330
1F
100
AcDbEntity
  8
LC-002-100-D00-0
 62
     7
370
    25
100
AcDbBlockReference
  2
KLON34
 10
0.0
 20
0.0
 30
0.0
  0
INSERT
  5
57D
330
1F
100
AcDbEntity
  8
LC-002-100-D00-0
 62
     7
370
    25
100
AcDbBlockReference
  2
KLON35
 10
0.0
 20
0.0
 30
0.0
  0
LINE
  5
57E
330
1F
100
AcDbEntity
  8
LC-002-100-D00-0
 62
     7
370
    50
100
AcDbLine
 10
156.40281
 20
363.185311
 30
0.0
 11
158.170484
 21
364.952985
 31
0.0
  0
INSERT
  5
586
330
1F
100
AcDbEntity
  8
LC-002-100-D00-0
 62
     7
370
    25
100
AcDbBlockReference
  2
KLON36
 10
0.0
 20
0.0
 30
0.0
  0
INSERT
  5
592
330
1F
100
AcDbEntity
  8
LC-002-100-D00-0
 62
     7
370
    25
100
AcDbBlockReference
  2
KLON37
 10
0.0
 20
0.0
 30
0.0
  0
INSERT
  5
5B0
330
1F
100
AcDbEntity
  8
LC-002-100-D00-0
 62
     7
370
    25
100
AcDbBlockReference
  2
KLON38
 10
0.0
 20
0.0
 30
0.0
  0
INSERT
  5
5D4
330
1F
100
AcDbEntity
  8
LC-002-100-D00-0
 62
     7
370
    25
100
AcDbBlockReference
  2
KLON39
 10
0.0
 20
0.0
 30
0.0
  0
INSERT
  5
5EE
330
1F
100
AcDbEntity
  8
LC-002-100-D00-0
 62
     7
370
    25
100
AcDbBlockReference
  2
KLON40
 10
0.0
 20
0.0
 30
0.0
  0
INSERT
  5
609
330
1F
100
AcDbEntity
  8
LC-002-100-D00-0
 62
     7
370
    25
100
AcDbBlockReference
  2
KLON41
 10
0.0
 20
0.0
 30
0.0
  0
LINE
  5
60A
330
1F
100
AcDbEntity
  8
LC-002-100-D00-0
 62
     7
370
    25
100
AcDbLine
 10
322.072178
 20
367.205924
 30
0.0
 11
324.572178
 21
369.705924
 31
0.0
  0
LINE
  5
60B
330
1F
100
AcDbEntity
  8
LC-002-100-D00-0
 62
     7
370
    25
100
AcDbLine
 10
70.625006
 20
367.210072
 30
0.0
 11
71.967149
 21
368.552215
 31
0.0
  0
INSERT
  5
615
330
1F
100
AcDbEntity
  8
LC-002-100-D00-0
 62
     7
370
    50
100
AcDbBlockReference
  2
KLON42
 10
0.0
 20
0.0
 30
0.0
  0
INSERT
  5
61F
330
1F
100
AcDbEntity
  8
LC-002-100-D00-0
 62
     7
370
    50
100
AcDbBlockReference
  2
KLON43
 10
0.0
 20
0.0
 30
0.0
  0
DIMENSION
  5
623
330
1F
100
AcDbEntity
  8
LC-003-003-----0
 62
     7
370
    25
100
AcDbDimension
  2
*D73
 10
53.472099
 20
351.710072
 30
0.0
 11
22.672099
 21
309.398337
 31
0.0
 70
   160
 71
     5
 42
17.999989
 53
90.0
  3
LC-DIM-L-0140-02-02
100
AcDbAlignedDimension
 13
66.545728
 23
369.710061
 33
0.0
 14
78.533624
 24
351.710072
 34
0.0
 50
90.0
100
AcDbRotatedDimension
  0
DIMENSION
  5
632
330
1F
100
AcDbEntity
  8
LC-003-003-----0
 62
     7
370
    25
100
AcDbDimension
  2
*D74
 10
4.716011
 20
346.210065
 30
0.0
 11
-26.083989
 21
301.082337
 31
0.0
 70
   160
 71
     5
 42
23.499995
 53
90.0
  3
LC-DIM-L-0140-02-02
100
AcDbAlignedDimension
 13
66.545728
 23
369.710061
 33
0.0
 14
141.545724
 24
346.210065
 34
0.0
 50
90.0
100
AcDbRotatedDimension
  0
DIMENSION
  5
640
330
1F
100
AcDbEntity
  8
LC-003-003-----0
 62
     7
370
    25
100
AcDbDimension
  2
*D75
 10
67.695358
 20
95.710072
 30
0.0
 11
36.895358
 21
108.032337
 31
0.0
 70
   160
 71
     5
 42
57.999998
 53
90.0
  3
LC-DIM-L-0140-02-02
100
AcDbAlignedDimension
 13
147.785581
 23
153.71007
 33
0.0
 14
172.483546
 24
95.710072
 34
0.0
 50
90.0
100
AcDbRotatedDimension
  0
DIMENSION
  5
64F
330
1F
100
AcDbEntity
  8
LC-003-003-----0
 62
     7
370
    25
100
AcDbDimension
  2
*D76
 10
345.628791
 20
246.380586
 30
0.0
 11
314.828791
 21
190.598337
 31
0.0
 70
   160
  1
27,5
 71
     5
 42
27.670514
 53
90.0
  3
LC-DIM-L-0140-02-02
100
AcDbAlignedDimension
 13
254.394482
 23
218.710072
 33
0.0
 14
309.045724
 24
246.380586
 34
0.0
 50
90.0
100
AcDbRotatedDimension
  0
DIMENSION
  5
65D
330
1F
100
AcDbEntity
  8
LC-003-003-----0
 62
     7
370
    25
100
AcDbDimension
  2
*D77
 10
31.48947
 20
153.710072
 30
0.0
 11
0.68947
 21
195.350337
 31
0.0
 70
   160
  1
93
 71
     5
 42
92.657024
 53
90.0
  3
LC-DIM-L-0140-02-02
100
AcDbAlignedDimension
 13
84.485871
 23
246.367096
 33
0.0
 14
153.473458
 24
153.710072
 34
0.0
 50
90.0
100
AcDbRotatedDimension
  0
DIMENSION
  5
66A
330
1F
100
AcDbEntity
  8
LC-003-003-----0
 62
     7
370
    25
100
AcDbDimension
  2
*D78
 10
221.545724
 20
70.016337
 30
0.0
 11
260.438467
 21
100.816337
 31
0.0
 70
   160
  1
DN50
 71
     5
 42
50.000001
  3
LC-DIM-L-0140-02-02
100
AcDbAlignedDimension
 13
171.545723
 23
99.210072
 33
0.0
 14
221.545724
 24
99.210072
 34
0.0
100
AcDbRotatedDimension
  0
DIMENSION
  5
678
330
1F
100
AcDbEntity
  8
LC-003-003-----0
 62
     7
370
    25
100
AcDbDimension
  2
*D79
 10
393.548349
 20
369.710061
 30
0.0
 11
362.748349
 21
304.646337
 31
0.0
 70
   160
  1
30-124
 71
     5
 42
123.329475
 53
90.0
  3
LC-DIM-L-0140-02-02
100
AcDbAlignedDimension
 13
309.045724
 23
246.380586
 33
0.0
 14
326.545719
 24
369.710061
 34
0.0
 50
90.0
100
AcDbRotatedDimension
  0
DIMENSION
  5
685
330
1F
100
AcDbEntity
  8
LC-003-003-----0
 62
     7
370
    25
100
AcDbDimension
  2
*D80
 10
326.545719
 20
384.640338
 30
0.0
 11
195.480845
 21
415.440338
 31
0.0
 70
   160
  1
%%c<>
 71
     5
 42
259.99999
  3
LC-DIM-L-0140-02-02
100
AcDbAlignedDimension
 13
66.545728
 23
369.710061
 33
0.0
 14
326.545719
 24
369.710061
 34
0.0
100
AcDbRotatedDimension
  0
DIMENSION
  5
692
330
1F
100
AcDbEntity
  8
LC-003-003-----0
 62
     7
370
    25
100
AcDbDimension
  2
*D81
 10
311.045725
 20
165.056337
 30
0.0
 11
191.221328
 21
195.856337
 31
0.0
 70
   160
  1
%%c230
 71
     5
 42
229.000002
  3
LC-DIM-L-0140-02-02
100
AcDbAlignedDimension
 13
82.045723
 23
242.897618
 33
0.0
 14
311.045725
 24
242.897618
 34
0.0
100
AcDbRotatedDimension
  0
DIMENSION
  5
69F
330
1F
100
AcDbEntity
  8
LC-003-003-----0
 62
     7
370
    25
100
AcDbDimension
  2
*D82
 10
251.545724
 20
6.458337
 30
0.0
 11
189.09157
 21
37.258337
 31
0.0
 70
   160
  1
%%c<>
 71
     5
 42
110.0
  3
LC-DIM-L-0140-02-02
100
AcDbAlignedDimension
 13
141.545724
 23
168.723106
 33
0.0
 14
251.545724
 24
170.960033
 34
0.0
100
AcDbRotatedDimension
  0
DIMENSION
  5
6AC
330
1F
100
AcDbEntity
  8
LC-003-003-----0
 62
     7
370
    25
100
AcDbDimension
  2
*D83
 10
259.545724
 20
-49.377663
 30
0.0
 11
190.156449
 21
-18.577663
 31
0.0
 70
   160
  1
%%c<>
 71
     5
 42
126.000001
  3
LC-DIM-L-0140-02-02
100
AcDbAlignedDimension
 13
133.545723
 23
213.710072
 33
0.0
 14
259.545724
 24
214.881057
 34
0.0
100
AcDbRotatedDimension
  0
DIMENSION
  5
6B9
330
1F
100
AcDbEntity
  8
LC-003-003-----0
 62
     7
370
    25
100
AcDbDimension
  2
*D84
 10
310.54965
 20
344.010073
 30
0.0
 11
279.74965
 21
305.240337
 31
0.0
 70
   160
  1
50
 71
     5
 42
51.500008
 53
90.0
  3
LC-DIM-L-0140-02-02
100
AcDbAlignedDimension
 13
217.545723
 23
292.510065
 33
0.0
 14
227.545723
 24
344.010073
 34
0.0
 50
90.0
100
AcDbRotatedDimension
  0
ENDSEC
  0
SECTION
  2
OBJECTS
  0
DICTIONARY
  5
C
330
0
100
AcDbDictionary
281
     1
  3
ACAD_GROUP
350
D
  3
ACAD_LAYOUT
350
1A
  3
ACAD_MLINESTYLE
350
17
  3
ACAD_PLOTSETTINGS
350
19
  3
ACAD_PLOTSTYLENAME
350
E
  0
DICTIONARY
  5
D
102
{ACAD_REACTORS
330
C
102
}
330
C
100
AcDbDictionary
281
     1
  0
DICTIONARY
  5
1A
102
{ACAD_REACTORS
330
C
102
}
330
C
100
AcDbDictionary
281
     1
  3
Layout1
350
1E
  3
Layout2
350
26
  3
Model
350
22
  0
DICTIONARY
  5
17
102
{ACAD_REACTORS
330
C
102
}
330
C
100
AcDbDictionary
281
     1
  3
Standard
350
18
  0
DICTIONARY
  5
19
102
{ACAD_REACTORS
330
C
102
}
330
C
100
AcDbDictionary
281
     1
  0
ACDBDICTIONARYWDFLT
  5
E
102
{ACAD_REACTORS
330
C
102
}
330
C
100
AcDbDictionary
281
     1
  3
Normal
350
F
100
AcDbDictionaryWithDefault
340
F
  0
LAYOUT
  5
1E
102
{ACAD_REACTORS
330
1A
102
}
330
1A
100
AcDbPlotSettings
  1

  2

  4

  6

 40
0.0
 41
0.0
 42
0.0
 43
0.0
 44
0.0
 45
0.0
 46
0.0
 47
0.0
 48
0.0
 49
0.0
140
0.0
141
0.0
142
1.0
143
1.0
 70
   688
 72
     0
 73
     0
 74
     5
  7

 75
    16
147
1.0
148
0.0
149
0.0
100
AcDbLayout
  1
Layout1
 70
     1
 71
     1
 10
-220.259639
 20
-163.425663
 11
619.740361
 21
430.574337
 12
0.0
 22
0.0
 32
0.0
 14
-220.259639
 24
-163.425663
 34
0.0
 15
619.740361
 25
430.574337
 35
0.0
146
0.0
 13
0.0
 23
0.0
 33
0.0
 16
1.0
 26
0.0
 36
0.0
 17
0.0
 27
1.0
 37
0.0
 76
     0
330
1B
  0
LAYOUT
  5
26
102
{ACAD_REACTORS
330
1A
102
}
330
1A
100
AcDbPlotSettings
  1

  2

  4

  6

 40
0.0
 41
0.0
 42
0.0
 43
0.0
 44
0.0
 45
0.0
 46
0.0
 47
0.0
 48
0.0
 49
0.0
140
0.0
141
0.0
142
1.0
143
1.0
 70
   688
 72
     0
 73
     0
 74
     5
  7

 75
    16
147
1.0
148
0.0
149
0.0
100
AcDbLayout
  1
Layout2
 70
     1
 71
     2
 10
0.0
 20
0.0
 11
0.0
 21
0.0
 12
0.0
 22
0.0
 32
0.0
 14
0.0
 24
0.0
 34
0.0
 15
0.0
 25
0.0
 35
0.0
146
0.0
 13
0.0
 23
0.0
 33
0.0
 16
1.0
 26
0.0
 36
0.0
 17
0.0
 27
1.0
 37
0.0
 76
     0
330
23
  0
LAYOUT
  5
22
102
{ACAD_REACTORS
330
1A
102
}
330
1A
100
AcDbPlotSettings
  1

  2

  4

  6

 40
0.0
 41
0.0
 42
0.0
 43
0.0
 44
0.0
 45
0.0
 46
0.0
 47
0.0
 48
0.0
 49
0.0
140
0.0
141
0.0
142
1.0
143
1.0
 70
  1776
 72
     0
 73
     0
 74
     0
  7

 75
     0
147
1.0
148
0.0
149
0.0
100
AcDbLayout
  1
Model
 70
     1
 71
     0
 10
-220.259639
 20
-163.425663
 11
619.740361
 21
430.574337
 12
0.0
 22
0.0
 32
0.0
 14
-220.259639
 24
-163.425663
 34
0.0
 15
619.740361
 25
430.574337
 35
0.0
146
0.0
 13
0.0
 23
0.0
 33
0.0
 16
1.0
 26
0.0
 36
0.0
 17
0.0
 27
1.0
 37
0.0
 76
     0
330
1F
  0
MLINESTYLE
  5
18
102
{ACAD_REACTORS
330
17
102
}
330
17
100
AcDbMlineStyle
  2
Standard
 70
     0
  3

 62
   256
 51
90.0
 52
90.0
 71
     2
 49
0.5
 62
   256
  6
BYLAYER
 49
-0.5
 62
   256
  6
BYLAYER
  0
ACDBPLACEHOLDER
  5
F
102
{ACAD_REACTORS
330
E
102
}
330
E
  0
ENDSEC
  0
EOF
