  0
SECTION
  2
HEADER
  9
$ACADVER
  1
AC1015
  9
$ACADMAINTVER
 70
     6
  9
$DWGCODEPAGE
  3
ANSI_1252
  9
$INSBASE
 10
0.0
 20
0.0
 30
0.0
  9
$EXTMIN
 10
-210.0
 20
-148.5
 30
0.0
  9
$EXTMAX
 10
630.0
 20
445.5
 30
0.0
  9
$LIMMIN
 10
-210.0
 20
-148.5
  9
$LIMMAX
 10
630.0
 20
445.5
  9
$ORTHOMODE
 70
     0
  9
$REGENMODE
 70
     1
  9
$FILLMODE
 70
     1
  9
$QTEXTMODE
 70
     0
  9
$MIRRTEXT
 70
     1
  9
$LTSCALE
 40
2.0
  9
$ATTMODE
 70
     1
  9
$TEXTSIZE
 40
2.5
  9
$TRACEWID
 40
1.0
  9
$TEXTSTYLE
  7
Standard
  9
$CLAYER
  8
0
  9
$CELTYPE
  6
ByLayer
  9
$CECOLOR
 62
     7
  9
$CELTSCALE
 40
1.0
  9
$DISPSILH
 70
     0
  9
$DIMSCALE
 40
2.0
  9
$DIMASZ
 40
3.5
  9
$DIMEXO
 40
0.625
  9
$DIMDLI
 40
3.75
  9
$DIMRND
 40
0.0
  9
$DIMDLE
 40
0.0
  9
$DIMEXE
 40
1.25
  9
$DIMTP
 40
0.0
  9
$DIMTM
 40
0.0
  9
$DIMTXT
 40
3.5
  9
$DIMCEN
 40
2.5
  9
$DIMTSZ
 40
0.0
  9
$DIMTOL
 70
     0
  9
$DIMLIM
 70
     0
  9
$DIMTIH
 70
     0
  9
$DIMTOH
 70
     0
  9
$DIMSE1
 70
     0
  9
$DIMSE2
 70
     0
  9
$DIMTAD
 70
     1
  9
$DIMZIN
 70
     8
  9
$DIMBLK
  1

  9
$DIMASO
 70
     1
  9
$DIMSHO
 70
     1
  9
$DIMPOST
  1

  9
$DIMAPOST
  1

  9
$DIMALT
 70
     0
  9
$DIMALTD
 70
     3
  9
$DIMALTF
 40
0.03937
  9
$DIMLFAC
 40
1.0
  9
$DIMTOFL
 70
     1
  9
$DIMTVP
 40
0.0
  9
$DIMTIX
 70
     0
  9
$DIMSOXD
 70
     0
  9
$DIMSAH
 70
     0
  9
$DIMBLK1
  1

  9
$DIMBLK2
  1

  9
$DIMSTYLE
  2
ISO-25
  9
$DIMCLRD
 70
     0
  9
$DIMCLRE
 70
     0
  9
$DIMCLRT
 70
     0
  9
$DIMTFAC
 40
1.0
  9
$DIMGAP
 40
0.625
  9
$DIMJUST
 70
     0
  9
$DIMSD1
 70
     0
  9
$DIMSD2
 70
     0
  9
$DIMTOLJ
 70
     0
  9
$DIMTZIN
 70
     8
  9
$DIMALTZ
 70
     0
  9
$DIMALTTZ
 70
     0
  9
$DIMUPT
 70
     0
  9
$DIMDEC
 70
     2
  9
$DIMTDEC
 70
     2
  9
$DIMALTU
 70
     2
  9
$DIMALTTD
 70
     3
  9
$DIMTXSTY
  7
Standard
  9
$DIMAUNIT
 70
     0
  9
$DIMADEC
 70
     0
  9
$DIMALTRND
 40
0.0
  9
$DIMAZIN
 70
     0
  9
$DIMDSEP
 70
    44
  9
$DIMATFIT
 70
     3
  9
$DIMFRAC
 70
     0
  9
$DIMLDRBLK
  1

  9
$DIMLUNIT
 70
     2
  9
$DIMLWD
 70
    -2
  9
$DIMLWE
 70
    -2
  9
$DIMTMOVE
 70
     0
  9
$LUNITS
 70
     2
  9
$LUPREC
 70
     4
  9
$SKETCHINC
 40
1.0
  9
$FILLETRAD
 40
10.0
  9
$AUNITS
 70
     0
  9
$AUPREC
 70
     0
  9
$MENU
  1
.
  9
$ELEVATION
 40
0.0
  9
$PELEVATION
 40
0.0
  9
$THICKNESS
 40
0.0
  9
$LIMCHECK
 70
     0
  9
$CHAMFERA
 40
10.0
  9
$CHAMFERB
 40
10.0
  9
$CHAMFERC
 40
20.0
  9
$CHAMFERD
 40
0.0
  9
$SKPOLY
 70
     0
  9
$TDCREATE
 40
2455404.364755509
  9
$TDUCREATE
 40
2455404.281422176
  9
$TDUPDATE
 40
2455404.364755521
  9
$TDUUPDATE
 40
2455404.281422188
  9
$TDINDWG
 40
0.0000000116
  9
$TDUSRTIMER
 40
0.0000000116
  9
$USRTIMER
 70
     1
  9
$ANGBASE
 50
0.0
  9
$ANGDIR
 70
     0
  9
$PDMODE
 70
     0
  9
$PDSIZE
 40
0.0
  9
$PLINEWID
 40
0.0
  9
$SPLFRAME
 70
     0
  9
$SPLINETYPE
 70
     6
  9
$SPLINESEGS
 70
     8
  9
$HANDSEED
  5
14A
  9
$SURFTAB1
 70
     6
  9
$SURFTAB2
 70
     6
  9
$SURFTYPE
 70
     6
  9
$SURFU
 70
     6
  9
$SURFV
 70
     6
  9
$UCSBASE
  2

  9
$UCSNAME
  2

  9
$UCSORG
 10
0.0
 20
0.0
 30
0.0
  9
$UCSXDIR
 10
1.0
 20
0.0
 30
0.0
  9
$UCSYDIR
 10
0.0
 20
1.0
 30
0.0
  9
$UCSORTHOREF
  2

  9
$UCSORTHOVIEW
 70
     0
  9
$UCSORGTOP
 10
0.0
 20
0.0
 30
0.0
  9
$UCSORGBOTTOM
 10
0.0
 20
0.0
 30
0.0
  9
$UCSORGLEFT
 10
0.0
 20
0.0
 30
0.0
  9
$UCSORGRIGHT
 10
0.0
 20
0.0
 30
0.0
  9
$UCSORGFRONT
 10
0.0
 20
0.0
 30
0.0
  9
$UCSORGBACK
 10
0.0
 20
0.0
 30
0.0
  9
$PUCSBASE
  2

  9
$PUCSNAME
  2

  9
$PUCSORG
 10
0.0
 20
0.0
 30
0.0
  9
$PUCSXDIR
 10
1.0
 20
0.0
 30
0.0
  9
$PUCSYDIR
 10
0.0
 20
1.0
 30
0.0
  9
$PUCSORTHOREF
  2

  9
$PUCSORTHOVIEW
 70
     0
  9
$PUCSORGTOP
 10
0.0
 20
0.0
 30
0.0
  9
$PUCSORGBOTTOM
 10
0.0
 20
0.0
 30
0.0
  9
$PUCSORGLEFT
 10
0.0
 20
0.0
 30
0.0
  9
$PUCSORGRIGHT
 10
0.0
 20
0.0
 30
0.0
  9
$PUCSORGFRONT
 10
0.0
 20
0.0
 30
0.0
  9
$PUCSORGBACK
 10
0.0
 20
0.0
 30
0.0
  9
$USERI1
 70
     0
  9
$USERI2
 70
     0
  9
$USERI3
 70
     0
  9
$USERI4
 70
     0
  9
$USERI5
 70
     0
  9
$USERR1
 40
0.0
  9
$USERR2
 40
0.0
  9
$USERR3
 40
0.0
  9
$USERR4
 40
0.0
  9
$USERR5
 40
0.0
  9
$WORLDVIEW
 70
     1
  9
$SHADEDGE
 70
     3
  9
$SHADEDIF
 70
    70
  9
$TILEMODE
 70
     1
  9
$MAXACTVP
 70
    64
  9
$PINSBASE
 10
0.0
 20
0.0
 30
0.0
  9
$PLIMCHECK
 70
     0
  9
$PEXTMIN
 10
-210.0
 20
-148.5
 30
0.0
  9
$PEXTMAX
 10
630.0
 20
445.5
 30
0.0
  9
$PLIMMIN
 10
-210.0
 20
-148.5
  9
$PLIMMAX
 10
630.0
 20
445.5
  9
$UNITMODE
 70
     0
  9
$VISRETAIN
 70
     1
  9
$PLINEGEN
 70
     0
  9
$PSLTSCALE
 70
     1
  9
$TREEDEPTH
 70
  3020
  9
$CMLSTYLE
  2
Standard
  9
$CMLJUST
 70
     0
  9
$CMLSCALE
 40
20.0
  9
$PROXYGRAPHICS
 70
     1
  9
$MEASUREMENT
 70
     1
  9
$CELWEIGHT
370
    -1
  9
$ENDCAPS
280
     0
  9
$JOINSTYLE
280
     0
  9
$LWDISPLAY
290
     0
  9
$INSUNITS
 70
     4
  9
$HYPERLINKBASE
  1

  9
$STYLESHEET
  1

  9
$XEDIT
290
     1
  9
$CEPSNTYPE
380
     0
  9
$PSTYLEMODE
290
     1
  9
$FINGERPRINTGUID
  2
{FAEB1C30-E019-11D5-929B-00C0DF256EC4}
  9
$VERSIONGUID
  2
{FAEB1C32-E019-11D5-929B-00C0DF256EC4}
  9
$EXTNAMES
290
     1
  9
$PSVPSCALE
 40
0.0
  9
$OLESTARTUP
290
     0
  0
ENDSEC
  0
SECTION
  2
CLASSES
  0
CLASS
  1
ACDBDICTIONARYWDFLT
  2
AcDbDictionaryWithDefault
  3
ObjectDBX Classes
 90
        0
280
     0
281
     0
  0
CLASS
  1
ACDBPLACEHOLDER
  2
AcDbPlaceHolder
  3
ObjectDBX Classes
 90
        0
280
     0
281
     0
  0
CLASS
  1
LAYOUT
  2
AcDbLayout
  3
ObjectDBX Classes
 90
        0
280
     0
281
     0
  0
ENDSEC
  0
SECTION
  2
TABLES
  0
TABLE
  2
VPORT
  5
8
330
0
100
AcDbSymbolTable
 70
     2
  0
VPORT
  5
29
330
8
100
AcDbSymbolTableRecord
100
AcDbViewportTableRecord
  2
*ACTIVE
 70
     0
 10
0.0
 20
0.0
 11
1.0
 21
1.0
 12
210.0
 22
148.5
 13
0.0
 23
0.0
 14
1.0
 24
1.0
 15
0.0
 25
0.0
 16
0.0
 26
0.0
 36
1.0
 17
0.0
 27
0.0
 37
0.0
 40
594.0
 41
1.414141
 42
50.0
 43
0.0
 44
0.0
 50
0.0
 51
0.0
 71
    16
 72
   100
 73
     1
 74
     0
 75
     0
 76
     0
 77
     0
 78
     0
281
     0
 65
     0
110
0.0
120
0.0
130
0.0
111
1.0
121
0.0
131
0.0
112
0.0
122
1.0
132
0.0
 79
     0
146
0.0
  0
ENDTAB
  0
TABLE
  2
LTYPE
  5
5
330
0
100
AcDbSymbolTable
 70
     3
  0
LTYPE
  5
14
330
5
100
AcDbSymbolTableRecord
100
AcDbLinetypeTableRecord
  2
ByBlock
 70
     0
  3

 72
    65
 73
     0
 40
0.0
  0
LTYPE
  5
15
330
5
100
AcDbSymbolTableRecord
100
AcDbLinetypeTableRecord
  2
ByLayer
 70
     0
  3

 72
    65
 73
     0
 40
0.0
  0
LTYPE
  5
16
330
5
100
AcDbSymbolTableRecord
100
AcDbLinetypeTableRecord
  2
Continuous
 70
     0
  3
Solid line
 72
    65
 73
     0
 40
0.0
  0
LTYPE
  5
2A
330
5
100
AcDbSymbolTableRecord
100
AcDbLinetypeTableRecord
  2
DASHED
 70
     0
  3
__ __ __ __ __
 72
    65
 73
     2
 40
6.25
 49
5.0
 74
     4
 75
     0
340
0
 46
1.0
 50
0.0
 44
0.0
 45
0.0
 49
-1.25
 74
     4
 75
     0
340
0
 46
1.0
 50
0.0
 44
0.0
 45
0.0
  0
LTYPE
  5
4D
330
5
100
AcDbSymbolTableRecord
100
AcDbLinetypeTableRecord
  2
CENTER
 70
     0
  3
__ . __ . __ . __ . __
 72
    65
 73
     4
 40
7.5
 49
5.0
 74
     4
 75
     0
340
0
 46
1.0
 50
0.0
 44
0.0
 45
0.0
 49
-1.25
 74
     4
 75
     0
340
0
 46
1.0
 50
0.0
 44
0.0
 45
0.0
 49
0.0
 74
     4
 75
     0
340
0
 46
1.0
 50
0.0
 44
0.0
 45
0.0
 49
-1.25
 74
     4
 75
     0
340
0
 46
1.0
 50
0.0
 44
0.0
 45
0.0
  0
ENDTAB
  0
TABLE
  2
LAYER
  5
2
330
0
100
AcDbSymbolTable
 70
    13
  0
LAYER
  5
10
330
2
100
AcDbSymbolTableRecord
100
AcDbLayerTableRecord
  2
0
 70
     0
 62
     7
  6
Continuous
370
    -3
390
F
  0
LAYER
  5
2B
330
2
100
AcDbSymbolTableRecord
100
AcDbLayerTableRecord
  2
LC-INFO-1-2-mm-A3-0
 70
     1
 62
     7
  6
ByBlock
370
    -3
390
F
  0
LAYER
  5
2C
330
2
100
AcDbSymbolTableRecord
100
AcDbLayerTableRecord
  2
LC-CUT-HIDDEN
 70
     0
 62
     7
  6
DASHED
370
    -3
390
F
  0
LAYER
  5
2D
330
2
100
AcDbSymbolTableRecord
100
AcDbLayerTableRecord
  2
LC-VIEWPORT
 70
     0
 62
     7
  6
ByBlock
370
    -3
390
F
  0
LAYER
  5
2E
330
2
100
AcDbSymbolTableRecord
100
AcDbLayerTableRecord
  2
LC-3D-HIDDEN
 70
     0
 62
     9
  6
DASHED
370
    -3
390
F
  0
LAYER
  5
33
330
2
100
AcDbSymbolTableRecord
100
AcDbLayerTableRecord
  2
LC-001-005-----0
 70
     0
 62
     2
  6
ByBlock
370
    -3
390
F
  0
LAYER
  5
4E
330
2
100
AcDbSymbolTableRecord
100
AcDbLayerTableRecord
  2
LC-002-006-MLN-0
 70
     0
 62
     2
  6
CENTER
370
    -3
390
F
  0
LAYER
  5
50
330
2
100
AcDbSymbolTableRecord
100
AcDbLayerTableRecord
  2
LC-003-002-----0
 70
     0
 62
     1
  6
ByBlock
370
    -3
390
F
  0
LAYER
  5
53
330
2
100
AcDbSymbolTableRecord
100
AcDbLayerTableRecord
  2
LC-004-101-RND-0
 70
     0
 62
     1
  6
ByBlock
370
    -3
390
F
  0
LAYER
  5
55
330
2
100
AcDbSymbolTableRecord
100
AcDbLayerTableRecord
  2
LC-005-101-----0
 70
     0
 62
     1
  6
ByBlock
370
    -3
390
F
  0
LAYER
  5
AB
330
2
100
AcDbSymbolTableRecord
100
AcDbLayerTableRecord
  2
LC-006-003-----0
 70
     0
 62
     2
  6
ByBlock
370
    -3
390
F
  0
LAYER
  5
B2
330
2
100
AcDbSymbolTableRecord
100
AcDbLayerTableRecord
  2
Defpoints
 70
     0
 62
     7
  6
Continuous
290
     0
370
    -3
390
F
  0
LAYER
  5
12A
330
2
100
AcDbSymbolTableRecord
100
AcDbLayerTableRecord
  2
LC-007-103-D10-0
 70
     0
 62
     1
  6
ByBlock
370
    -3
390
F
  0
ENDTAB
  0
TABLE
  2
STYLE
  5
3
330
0
100
AcDbSymbolTable
 70
     3
  0
STYLE
  5
11
330
3
100
AcDbSymbolTableRecord
100
AcDbTextStyleTableRecord
  2
Standard
 70
     0
 40
0.0
 41
1.0
 50
0.0
 71
     0
 42
2.5
  3
txt
  4

  0
STYLE
  5
2F
330
3
100
AcDbSymbolTableRecord
100
AcDbTextStyleTableRecord
  2
LCTX15-400-0-0-Arial
 70
     0
 40
0.0
 41
0.9
 50
0.0
 71
     0
 42
3.5
  3

  4

1001
ACAD
1000
Arial
1071
 16777218
  0
STYLE
  5
AF
330
3
100
AcDbSymbolTableRecord
100
AcDbTextStyleTableRecord
  2
LCTX15-400-0-0pDIN-Schrift
 70
     0
 40
2.5
 41
0.8
 50
15.0
 71
     0
 42
3.5
  3
STANDARD
  4

  0
ENDTAB
  0
TABLE
  2
VIEW
  5
6
330
0
100
AcDbSymbolTable
 70
     0
  0
ENDTAB
  0
TABLE
  2
UCS
  5
7
330
0
100
AcDbSymbolTable
 70
     0
  0
ENDTAB
  0
TABLE
  2
APPID
  5
9
330
0
100
AcDbSymbolTable
 70
     1
  0
APPID
  5
12
330
9
100
AcDbSymbolTableRecord
100
AcDbRegAppTableRecord
  2
ACAD
 70
     0
  0
ENDTAB
  0
TABLE
  2
DIMSTYLE
  5
A
330
0
100
AcDbSymbolTable
 70
     2
100
AcDbDimStyleTable
  0
DIMSTYLE
105
27
330
A
100
AcDbSymbolTableRecord
100
AcDbDimStyleTableRecord
  2
ISO-25
 70
     0
 41
2.5
 42
0.625
 43
3.75
 44
1.25
 73
     0
 74
     0
 77
     1
 78
     8
140
2.5
141
2.5
143
0.03937
147
0.625
171
     3
172
     1
271
     2
272
     2
274
     3
278
    44
283
     0
284
     8
340
11
  0
DIMSTYLE
105
B0
102
{ACAD_REACTORS
330
B1
330
12E
330
13B
102
}
330
A
100
AcDbSymbolTableRecord
100
AcDbDimStyleTableRecord
  2
LC-DIM-L-0140-02-02
 70
     0
 40
2.0
 41
14.0
 42
0.0
 43
7.5
 44
1.8
 73
     0
 74
     0
 77
     1
 78
     8
 79
     2
140
14.0
141
0.0
146
0.71
147
1.5
176
     2
177
     2
178
     2
179
     2
271
     2
278
    44
289
     1
340
AF
  0
ENDTAB
  0
TABLE
  2
BLOCK_RECORD
  5
1
330
0
100
AcDbSymbolTable
 70
     7
  0
BLOCK_RECORD
  5
1F
330
1
100
AcDbSymbolTableRecord
100
AcDbBlockTableRecord
  2
*Model_Space
340
22
  0
BLOCK_RECORD
  5
1B
330
1
100
AcDbSymbolTableRecord
100
AcDbBlockTableRecord
  2
*Paper_Space
340
1E
  0
BLOCK_RECORD
  5
23
330
1
100
AcDbSymbolTableRecord
100
AcDbBlockTableRecord
  2
*Paper_Space0
340
26
  0
BLOCK_RECORD
  5
30
330
1
100
AcDbSymbolTableRecord
100
AcDbBlockTableRecord
  2
*X11
340
0
102
{BLKREFS
331
4C
102
}
  0
BLOCK_RECORD
  5
6C
330
1
100
AcDbSymbolTableRecord
100
AcDbBlockTableRecord
  2
*X22
340
0
102
{BLKREFS
331
92
102
}
  0
BLOCK_RECORD
  5
B3
330
1
100
AcDbSymbolTableRecord
100
AcDbBlockTableRecord
  2
*D3
340
0
  0
BLOCK_RECORD
  5
C4
330
1
100
AcDbSymbolTableRecord
100
AcDbBlockTableRecord
  2
*X34
340
0
102
{BLKREFS
331
10E
102
}
  0
BLOCK_RECORD
  5
12F
330
1
100
AcDbSymbolTableRecord
100
AcDbBlockTableRecord
  2
*D5
340
0
  0
BLOCK_RECORD
  5
13C
330
1
100
AcDbSymbolTableRecord
100
AcDbBlockTableRecord
  2
*D6
340
0
  0
ENDTAB
  0
ENDSEC
  0
SECTION
  2
BLOCKS
  0
BLOCK
  5
20
330
1F
100
AcDbEntity
  8
0
100
AcDbBlockBegin
  2
*Model_Space
 70
     0
 71
     0
 10
0.0
 20
0.0
 30
0.0
  3
*Model_Space
  1

  0
ENDBLK
  5
21
330
1F
100
AcDbEntity
  8
0
100
AcDbBlockEnd
  0
BLOCK
  5
1C
330
1B
100
AcDbEntity
 67
     1
  8
0
100
AcDbBlockBegin
  2
*Paper_Space
 70
     0
 71
     0
 10
0.0
 20
0.0
 30
0.0
  3
*Paper_Space
  1

  0
ENDBLK
  5
1D
330
1B
100
AcDbEntity
 67
     1
  8
0
100
AcDbBlockEnd
  0
BLOCK
  5
24
330
23
100
AcDbEntity
  8
0
100
AcDbBlockBegin
  2
*Paper_Space0
 70
     0
 71
     0
 10
0.0
 20
0.0
 30
0.0
  3
*Paper_Space0
  1

  0
ENDBLK
  5
25
330
23
100
AcDbEntity
  8
0
100
AcDbBlockEnd
  0
BLOCK
  5
31
330
30
100
AcDbEntity
  8
0
100
AcDbBlockBegin
  2
*X11
 70
     1
 71
     0
 10
0.0
 20
0.0
 30
0.0
  3
*X11
  1

  4
*X1
  0
LINE
  5
34
330
30
100
AcDbEntity
  8
LC-001-005-----0
 62
     7
370
    25
100
AcDbLine
 10
257.804309
 20
200.400885
 30
0.0
 11
258.804309
 21
199.400885
 31
0.0
  0
LINE
  5
35
330
30
100
AcDbEntity
  8
LC-001-005-----0
 62
     7
370
    25
100
AcDbLine
 10
257.804309
 20
203.229313
 30
0.0
 11
258.804309
 21
202.229313
 31
0.0
  0
LINE
  5
36
330
30
100
AcDbEntity
  8
LC-001-005-----0
 62
     7
370
    25
100
AcDbLine
 10
257.804309
 20
206.05774
 30
0.0
 11
258.804309
 21
205.05774
 31
0.0
  0
LINE
  5
37
330
30
100
AcDbEntity
  8
LC-001-005-----0
 62
     7
370
    25
100
AcDbLine
 10
257.804309
 20
208.886167
 30
0.0
 11
258.804309
 21
207.886167
 31
0.0
  0
LINE
  5
38
330
30
100
AcDbEntity
  8
LC-001-005-----0
 62
     7
370
    25
100
AcDbLine
 10
257.804309
 20
211.714594
 30
0.0
 11
258.804309
 21
210.714594
 31
0.0
  0
LINE
  5
39
330
30
100
AcDbEntity
  8
LC-001-005-----0
 62
     7
370
    25
100
AcDbLine
 10
257.804309
 20
214.543021
 30
0.0
 11
258.804309
 21
213.543021
 31
0.0
  0
LINE
  5
3A
330
30
100
AcDbEntity
  8
LC-001-005-----0
 62
     7
370
    25
100
AcDbLine
 10
257.804309
 20
217.371448
 30
0.0
 11
258.804309
 21
216.371448
 31
0.0
  0
LINE
  5
3B
330
30
100
AcDbEntity
  8
LC-001-005-----0
 62
     7
370
    25
100
AcDbLine
 10
257.804309
 20
220.199875
 30
0.0
 11
258.804309
 21
219.199875
 31
0.0
  0
LINE
  5
3C
330
30
100
AcDbEntity
  8
LC-001-005-----0
 62
     7
370
    25
100
AcDbLine
 10
257.804309
 20
223.028303
 30
0.0
 11
258.804309
 21
222.028303
 31
0.0
  0
LINE
  5
3D
330
30
100
AcDbEntity
  8
LC-001-005-----0
 62
     7
370
    25
100
AcDbLine
 10
257.804309
 20
225.85673
 30
0.0
 11
258.804309
 21
224.85673
 31
0.0
  0
LINE
  5
3E
330
30
100
AcDbEntity
  8
LC-001-005-----0
 62
     7
370
    25
100
AcDbLine
 10
257.804309
 20
228.685157
 30
0.0
 11
258.804309
 21
227.685157
 31
0.0
  0
LINE
  5
3F
330
30
100
AcDbEntity
  8
LC-001-005-----0
 62
     7
370
    25
100
AcDbLine
 10
257.804309
 20
231.513584
 30
0.0
 11
258.804309
 21
230.513584
 31
0.0
  0
LINE
  5
40
330
30
100
AcDbEntity
  8
LC-001-005-----0
 62
     7
370
    25
100
AcDbLine
 10
257.804309
 20
234.342011
 30
0.0
 11
258.804309
 21
233.342011
 31
0.0
  0
LINE
  5
41
330
30
100
AcDbEntity
  8
LC-001-005-----0
 62
     7
370
    25
100
AcDbLine
 10
257.804309
 20
237.170438
 30
0.0
 11
258.804309
 21
236.170438
 31
0.0
  0
LINE
  5
42
330
30
100
AcDbEntity
  8
LC-001-005-----0
 62
     7
370
    25
100
AcDbLine
 10
257.804309
 20
239.998865
 30
0.0
 11
258.804309
 21
238.998865
 31
0.0
  0
LINE
  5
43
330
30
100
AcDbEntity
  8
LC-001-005-----0
 62
     7
370
    25
100
AcDbLine
 10
241.7941
 20
258.837501
 30
0.0
 11
242.106634
 21
258.524967
 31
0.0
  0
LINE
  5
44
330
30
100
AcDbEntity
  8
LC-001-005-----0
 62
     7
370
    25
100
AcDbLine
 10
257.804309
 20
242.827293
 30
0.0
 11
258.804309
 21
241.827293
 31
0.0
  0
LINE
  5
45
330
30
100
AcDbEntity
  8
LC-001-005-----0
 62
     7
370
    25
100
AcDbLine
 10
240.758824
 20
262.701205
 30
0.0
 11
244.935061
 21
258.524967
 31
0.0
  0
LINE
  5
46
330
30
100
AcDbEntity
  8
LC-001-005-----0
 62
     7
370
    25
100
AcDbLine
 10
257.804309
 20
245.65572
 30
0.0
 11
258.804309
 21
244.65572
 31
0.0
  0
LINE
  5
47
330
30
100
AcDbEntity
  8
LC-001-005-----0
 62
     7
370
    25
100
AcDbLine
 10
233.554308
 20
272.734147
 30
0.0
 11
234.724951
 21
271.563505
 31
0.0
  0
LINE
  5
48
330
30
100
AcDbEntity
  8
LC-001-005-----0
 62
     7
370
    25
100
AcDbLine
 10
238.304308
 20
267.984147
 30
0.0
 11
242.112624
 21
264.175831
 31
0.0
  0
LINE
  5
49
330
30
100
AcDbEntity
  8
LC-001-005-----0
 62
     7
370
    25
100
AcDbLine
 10
246.263488
 20
260.024967
 30
0.0
 11
247.763488
 21
258.524967
 31
0.0
  0
LINE
  5
4A
330
30
100
AcDbEntity
  8
LC-001-005-----0
 62
     7
370
    25
100
AcDbLine
 10
257.633299
 20
248.655156
 30
0.0
 11
258.804309
 21
247.484147
 31
0.0
  0
LINE
  5
4B
330
30
100
AcDbEntity
  8
LC-001-005-----0
 62
     7
370
    25
100
AcDbLine
 10
234.814041
 20
274.302842
 30
0.0
 11
241.077348
 21
268.039535
 31
0.0
  0
ENDBLK
  5
32
330
30
100
AcDbEntity
  8
0
100
AcDbBlockEnd
  0
BLOCK
  5
6D
330
6C
100
AcDbEntity
  8
0
100
AcDbBlockBegin
  2
*X22
 70
     1
 71
     0
 10
0.0
 20
0.0
 30
0.0
  3
*X22
  1

  4
*X2
  0
LINE
  5
6F
330
6C
100
AcDbEntity
  8
LC-001-005-----0
 62
     7
370
    25
100
AcDbLine
 10
298.804309
 20
201.827292
 30
0.0
 11
299.804309
 21
200.827292
 31
0.0
  0
LINE
  5
70
330
6C
100
AcDbEntity
  8
LC-001-005-----0
 62
     7
370
    25
100
AcDbLine
 10
298.804309
 20
204.65572
 30
0.0
 11
299.804309
 21
203.65572
 31
0.0
  0
LINE
  5
71
330
6C
100
AcDbEntity
  8
LC-001-005-----0
 62
     7
370
    25
100
AcDbLine
 10
298.804309
 20
207.484147
 30
0.0
 11
299.804309
 21
206.484147
 31
0.0
  0
LINE
  5
72
330
6C
100
AcDbEntity
  8
LC-001-005-----0
 62
     7
370
    25
100
AcDbLine
 10
298.804309
 20
210.312574
 30
0.0
 11
299.804309
 21
209.312574
 31
0.0
  0
LINE
  5
73
330
6C
100
AcDbEntity
  8
LC-001-005-----0
 62
     7
370
    25
100
AcDbLine
 10
298.804309
 20
213.141001
 30
0.0
 11
299.804309
 21
212.141001
 31
0.0
  0
LINE
  5
74
330
6C
100
AcDbEntity
  8
LC-001-005-----0
 62
     7
370
    25
100
AcDbLine
 10
298.804309
 20
215.969428
 30
0.0
 11
299.804309
 21
214.969428
 31
0.0
  0
LINE
  5
75
330
6C
100
AcDbEntity
  8
LC-001-005-----0
 62
     7
370
    25
100
AcDbLine
 10
298.804308
 20
218.797855
 30
0.0
 11
299.804308
 21
217.797855
 31
0.0
  0
LINE
  5
76
330
6C
100
AcDbEntity
  8
LC-001-005-----0
 62
     7
370
    25
100
AcDbLine
 10
298.804308
 20
221.626282
 30
0.0
 11
299.804308
 21
220.626282
 31
0.0
  0
LINE
  5
77
330
6C
100
AcDbEntity
  8
LC-001-005-----0
 62
     7
370
    25
100
AcDbLine
 10
298.804308
 20
224.45471
 30
0.0
 11
299.804308
 21
223.45471
 31
0.0
  0
LINE
  5
78
330
6C
100
AcDbEntity
  8
LC-001-005-----0
 62
     7
370
    25
100
AcDbLine
 10
298.804308
 20
227.283137
 30
0.0
 11
299.804308
 21
226.283137
 31
0.0
  0
LINE
  5
79
330
6C
100
AcDbEntity
  8
LC-001-005-----0
 62
     7
370
    25
100
AcDbLine
 10
298.804308
 20
230.111564
 30
0.0
 11
299.804308
 21
229.111564
 31
0.0
  0
LINE
  5
7A
330
6C
100
AcDbEntity
  8
LC-001-005-----0
 62
     7
370
    25
100
AcDbLine
 10
298.804308
 20
232.939991
 30
0.0
 11
299.804308
 21
231.939991
 31
0.0
  0
LINE
  5
7B
330
6C
100
AcDbEntity
  8
LC-001-005-----0
 62
     7
370
    25
100
AcDbLine
 10
298.804308
 20
235.768418
 30
0.0
 11
299.804308
 21
234.768418
 31
0.0
  0
LINE
  5
7C
330
6C
100
AcDbEntity
  8
LC-001-005-----0
 62
     7
370
    25
100
AcDbLine
 10
298.804308
 20
238.596845
 30
0.0
 11
299.804308
 21
237.596845
 31
0.0
  0
LINE
  5
7D
330
6C
100
AcDbEntity
  8
LC-001-005-----0
 62
     7
370
    25
100
AcDbLine
 10
298.804308
 20
241.425273
 30
0.0
 11
299.804308
 21
240.425273
 31
0.0
  0
LINE
  5
7E
330
6C
100
AcDbEntity
  8
LC-001-005-----0
 62
     7
370
    25
100
AcDbLine
 10
298.804308
 20
244.2537
 30
0.0
 11
299.804308
 21
243.2537
 31
0.0
  0
LINE
  5
7F
330
6C
100
AcDbEntity
  8
LC-001-005-----0
 62
     7
370
    25
100
AcDbLine
 10
298.804308
 20
247.082127
 30
0.0
 11
299.804308
 21
246.082127
 31
0.0
  0
LINE
  5
80
330
6C
100
AcDbEntity
  8
LC-001-005-----0
 62
     7
370
    25
100
AcDbLine
 10
298.804308
 20
249.910554
 30
0.0
 11
299.997897
 21
248.716966
 31
0.0
  0
LINE
  5
81
330
6C
100
AcDbEntity
  8
LC-001-005-----0
 62
     7
370
    25
100
AcDbLine
 10
300.163153
 20
251.380136
 30
0.0
 11
301.223971
 21
250.319318
 31
0.0
  0
LINE
  5
82
330
6C
100
AcDbEntity
  8
LC-001-005-----0
 62
     7
370
    25
100
AcDbLine
 10
301.577066
 20
252.79465
 30
0.0
 11
302.63784
 21
251.733876
 31
0.0
  0
LINE
  5
83
330
6C
100
AcDbEntity
  8
LC-001-005-----0
 62
     7
370
    25
100
AcDbLine
 10
302.990979
 20
254.209165
 30
0.0
 11
304.05171
 21
253.148434
 31
0.0
  0
LINE
  5
84
330
6C
100
AcDbEntity
  8
LC-001-005-----0
 62
     7
370
    25
100
AcDbLine
 10
304.404892
 20
255.623679
 30
0.0
 11
305.465579
 21
254.562991
 31
0.0
  0
LINE
  5
85
330
6C
100
AcDbEntity
  8
LC-001-005-----0
 62
     7
370
    25
100
AcDbLine
 10
305.818804
 20
257.038193
 30
0.0
 11
306.879449
 21
255.977549
 31
0.0
  0
LINE
  5
86
330
6C
100
AcDbEntity
  8
LC-001-005-----0
 62
     7
370
    25
100
AcDbLine
 10
307.232717
 20
258.452708
 30
0.0
 11
308.293318
 21
257.392106
 31
0.0
  0
LINE
  5
87
330
6C
100
AcDbEntity
  8
LC-001-005-----0
 62
     7
370
    25
100
AcDbLine
 10
308.64663
 20
259.867222
 30
0.0
 11
309.988885
 21
258.524967
 31
0.0
  0
LINE
  5
88
330
6C
100
AcDbEntity
  8
LC-001-005-----0
 62
     7
370
    25
100
AcDbLine
 10
311.317312
 20
260.024967
 30
0.0
 11
312.817312
 21
258.524967
 31
0.0
  0
LINE
  5
89
330
6C
100
AcDbEntity
  8
LC-001-005-----0
 62
     7
370
    25
100
AcDbLine
 10
314.047882
 20
260.122824
 30
0.0
 11
315.645739
 21
258.524967
 31
0.0
  0
LINE
  5
8A
330
6C
100
AcDbEntity
  8
LC-001-005-----0
 62
     7
370
    25
100
AcDbLine
 10
314.931186
 20
262.067947
 30
0.0
 11
316.31052
 21
260.688613
 31
0.0
  0
LINE
  5
8B
330
6C
100
AcDbEntity
  8
LC-001-005-----0
 62
     7
370
    25
100
AcDbLine
 10
315.528903
 20
264.298657
 30
0.0
 11
316.908237
 21
262.919323
 31
0.0
  0
LINE
  5
8C
330
6C
100
AcDbEntity
  8
LC-001-005-----0
 62
     7
370
    25
100
AcDbLine
 10
316.12662
 20
266.529367
 30
0.0
 11
317.505954
 21
265.150033
 31
0.0
  0
LINE
  5
8D
330
6C
100
AcDbEntity
  8
LC-001-005-----0
 62
     7
370
    25
100
AcDbLine
 10
316.724337
 20
268.760078
 30
0.0
 11
319.220909
 21
266.263506
 31
0.0
  0
LINE
  5
8E
330
6C
100
AcDbEntity
  8
LC-001-005-----0
 62
     7
370
    25
100
AcDbLine
 10
317.352828
 20
270.960014
 30
0.0
 11
319.304308
 21
269.008534
 31
0.0
  0
LINE
  5
8F
330
6C
100
AcDbEntity
  8
LC-001-005-----0
 62
     7
370
    25
100
AcDbLine
 10
318.487109
 20
272.65416
 30
0.0
 11
320.804308
 21
270.336961
 31
0.0
  0
LINE
  5
90
330
6C
100
AcDbEntity
  8
LC-001-005-----0
 62
     7
370
    25
100
AcDbLine
 10
320.211821
 20
273.757875
 30
0.0
 11
322.406191
 21
271.563506
 31
0.0
  0
LINE
  5
91
330
6C
100
AcDbEntity
  8
LC-001-005-----0
 62
     7
370
    25
100
AcDbLine
 10
322.540144
 20
274.257979
 30
0.0
 11
324.054308
 21
272.743815
 31
0.0
  0
ENDBLK
  5
6E
330
6C
100
AcDbEntity
  8
0
100
AcDbBlockEnd
  0
BLOCK
  5
BD
330
B3
100
AcDbEntity
  8
0
100
AcDbBlockBegin
  2
*D3
 70
     1
 71
     0
 10
0.0
 20
0.0
 30
0.0
  3
*D3
  1

  0
LINE
  5
B4
330
B3
100
AcDbEntity
  8
LC-006-003-----0
 62
     2
370
    -2
100
AcDbLine
 10
324.054308
 20
274.524967
 30
0.0
 11
324.054308
 21
313.715165
 31
0.0
  0
LINE
  5
B5
330
B3
100
AcDbEntity
  8
LC-006-003-----0
 62
     2
370
    -2
100
AcDbLine
 10
233.554308
 20
274.524967
 30
0.0
 11
233.554308
 21
313.715165
 31
0.0
  0
LINE
  5
B6
330
B3
100
AcDbEntity
  8
LC-006-003-----0
 62
     2
370
    -2
100
AcDbLine
 10
296.054308
 20
310.115165
 30
0.0
 11
261.554308
 21
310.115165
 31
0.0
  0
SOLID
  5
B7
330
B3
100
AcDbEntity
  8
LC-006-003-----0
 62
     2
100
AcDbTrace
 10
296.054308
 20
305.448498
 30
0.0
 11
296.054308
 21
314.781832
 31
0.0
 12
324.054308
 22
310.115165
 32
0.0
 13
324.054308
 23
310.115165
 33
0.0
  0
SOLID
  5
B8
330
B3
100
AcDbEntity
  8
LC-006-003-----0
 62
     2
100
AcDbTrace
 10
261.554308
 20
314.781832
 30
0.0
 11
261.554308
 21
305.448498
 31
0.0
 12
233.554308
 22
310.115165
 32
0.0
 13
233.554308
 23
310.115165
 33
0.0
  0
MTEXT
  5
B9
330
B3
100
AcDbEntity
  8
LC-006-003-----0
 62
     2
100
AcDbMText
 10
278.804308
 20
340.915165
 30
0.0
 40
28.0
 41
0.0
 71
     5
 72
     1
  1
%%c\A1;90,5
  7
LCTX15-400-0-0pDIN-Schrift
 73
     1
 44
1.0
  0
POINT
  5
BA
330
B3
100
AcDbEntity
  8
Defpoints
 62
     0
100
AcDbPoint
 10
324.054308
 20
274.524967
 30
0.0
  0
POINT
  5
BB
330
B3
100
AcDbEntity
  8
Defpoints
 62
     0
100
AcDbPoint
 10
233.554308
 20
274.524967
 30
0.0
  0
POINT
  5
BC
330
B3
100
AcDbEntity
  8
Defpoints
 62
     0
100
AcDbPoint
 10
233.554308
 20
310.115165
 30
0.0
  0
ENDBLK
  5
BE
330
B3
100
AcDbEntity
  8
0
100
AcDbBlockEnd
  0
BLOCK
  5
C5
330
C4
100
AcDbEntity
  8
0
100
AcDbBlockBegin
  2
*X34
 70
     1
 71
     0
 10
0.0
 20
0.0
 30
0.0
  3
*X34
  1

  4
*X3
  0
LINE
  5
C7
330
C4
100
AcDbEntity
  8
LC-001-005-----0
 62
     7
370
    25
100
AcDbLine
 10
304.624836
 20
185.830897
 30
0.0
 11
310.736917
 21
191.942978
 31
0.0
  0
LINE
  5
C8
330
C4
100
AcDbEntity
  8
LC-001-005-----0
 62
     7
370
    25
100
AcDbLine
 10
301.229017
 20
185.263505
 30
0.0
 11
302.875492
 21
186.90998
 31
0.0
  0
LINE
  5
C9
330
C4
100
AcDbEntity
  8
LC-001-005-----0
 62
     7
370
    25
100
AcDbLine
 10
309.657834
 20
193.692322
 30
0.0
 11
311.304309
 21
195.338797
 31
0.0
  0
LINE
  5
CA
330
C4
100
AcDbEntity
  8
LC-001-005-----0
 62
     7
370
    25
100
AcDbLine
 10
298.40059
 20
185.263505
 30
0.0
 11
299.90059
 21
186.763505
 31
0.0
  0
LINE
  5
CB
330
C4
100
AcDbEntity
  8
LC-001-005-----0
 62
     7
370
    25
100
AcDbLine
 10
309.804309
 20
196.667224
 30
0.0
 11
311.304309
 21
198.167224
 31
0.0
  0
LINE
  5
CC
330
C4
100
AcDbEntity
  8
LC-001-005-----0
 62
     7
370
    25
100
AcDbLine
 10
295.572163
 20
185.263505
 30
0.0
 11
297.072163
 21
186.763505
 31
0.0
  0
LINE
  5
CD
330
C4
100
AcDbEntity
  8
LC-001-005-----0
 62
     7
370
    25
100
AcDbLine
 10
309.804309
 20
199.495651
 30
0.0
 11
311.304309
 21
200.995651
 31
0.0
  0
LINE
  5
CE
330
C4
100
AcDbEntity
  8
LC-001-005-----0
 62
     7
370
    25
100
AcDbLine
 10
292.743736
 20
185.263505
 30
0.0
 11
294.243736
 21
186.763505
 31
0.0
  0
LINE
  5
CF
330
C4
100
AcDbEntity
  8
LC-001-005-----0
 62
     7
370
    25
100
AcDbLine
 10
309.804309
 20
202.324078
 30
0.0
 11
311.304309
 21
203.824078
 31
0.0
  0
LINE
  5
D0
330
C4
100
AcDbEntity
  8
LC-001-005-----0
 62
     7
370
    25
100
AcDbLine
 10
289.915309
 20
185.263505
 30
0.0
 11
291.415309
 21
186.763505
 31
0.0
  0
LINE
  5
D1
330
C4
100
AcDbEntity
  8
LC-001-005-----0
 62
     7
370
    25
100
AcDbLine
 10
309.804309
 20
205.152505
 30
0.0
 11
311.304309
 21
206.652505
 31
0.0
  0
LINE
  5
D2
330
C4
100
AcDbEntity
  8
LC-001-005-----0
 62
     7
370
    25
100
AcDbLine
 10
287.086882
 20
185.263505
 30
0.0
 11
288.586882
 21
186.763505
 31
0.0
  0
LINE
  5
D3
330
C4
100
AcDbEntity
  8
LC-001-005-----0
 62
     7
370
    25
100
AcDbLine
 10
309.804309
 20
207.980932
 30
0.0
 11
311.304309
 21
209.480932
 31
0.0
  0
LINE
  5
D4
330
C4
100
AcDbEntity
  8
LC-001-005-----0
 62
     7
370
    25
100
AcDbLine
 10
284.258455
 20
185.263505
 30
0.0
 11
285.758455
 21
186.763505
 31
0.0
  0
LINE
  5
D5
330
C4
100
AcDbEntity
  8
LC-001-005-----0
 62
     7
370
    25
100
AcDbLine
 10
309.804309
 20
210.809359
 30
0.0
 11
311.304309
 21
212.309359
 31
0.0
  0
LINE
  5
D6
330
C4
100
AcDbEntity
  8
LC-001-005-----0
 62
     7
370
    25
100
AcDbLine
 10
281.430027
 20
185.263505
 30
0.0
 11
282.930027
 21
186.763505
 31
0.0
  0
LINE
  5
D7
330
C4
100
AcDbEntity
  8
LC-001-005-----0
 62
     7
370
    25
100
AcDbLine
 10
309.804309
 20
213.637786
 30
0.0
 11
311.304309
 21
215.137786
 31
0.0
  0
LINE
  5
D8
330
C4
100
AcDbEntity
  8
LC-001-005-----0
 62
     7
370
    25
100
AcDbLine
 10
278.6016
 20
185.263505
 30
0.0
 11
280.1016
 21
186.763505
 31
0.0
  0
LINE
  5
D9
330
C4
100
AcDbEntity
  8
LC-001-005-----0
 62
     7
370
    25
100
AcDbLine
 10
309.804309
 20
216.466213
 30
0.0
 11
311.304309
 21
217.966213
 31
0.0
  0
LINE
  5
DA
330
C4
100
AcDbEntity
  8
LC-001-005-----0
 62
     7
370
    25
100
AcDbLine
 10
275.773173
 20
185.263505
 30
0.0
 11
277.273173
 21
186.763505
 31
0.0
  0
LINE
  5
DB
330
C4
100
AcDbEntity
  8
LC-001-005-----0
 62
     7
370
    25
100
AcDbLine
 10
309.804309
 20
219.294641
 30
0.0
 11
311.304309
 21
220.794641
 31
0.0
  0
LINE
  5
DC
330
C4
100
AcDbEntity
  8
LC-001-005-----0
 62
     7
370
    25
100
AcDbLine
 10
272.944746
 20
185.263505
 30
0.0
 11
274.444746
 21
186.763505
 31
0.0
  0
LINE
  5
DD
330
C4
100
AcDbEntity
  8
LC-001-005-----0
 62
     7
370
    25
100
AcDbLine
 10
309.804308
 20
222.123068
 30
0.0
 11
311.304308
 21
223.623068
 31
0.0
  0
LINE
  5
DE
330
C4
100
AcDbEntity
  8
LC-001-005-----0
 62
     7
370
    25
100
AcDbLine
 10
270.116319
 20
185.263505
 30
0.0
 11
271.616319
 21
186.763505
 31
0.0
  0
LINE
  5
DF
330
C4
100
AcDbEntity
  8
LC-001-005-----0
 62
     7
370
    25
100
AcDbLine
 10
309.804308
 20
224.951495
 30
0.0
 11
311.304308
 21
226.451495
 31
0.0
  0
LINE
  5
E0
330
C4
100
AcDbEntity
  8
LC-001-005-----0
 62
     7
370
    25
100
AcDbLine
 10
267.287892
 20
185.263505
 30
0.0
 11
268.787892
 21
186.763505
 31
0.0
  0
LINE
  5
E1
330
C4
100
AcDbEntity
  8
LC-001-005-----0
 62
     7
370
    25
100
AcDbLine
 10
309.804308
 20
227.779922
 30
0.0
 11
311.304308
 21
229.279922
 31
0.0
  0
LINE
  5
E2
330
C4
100
AcDbEntity
  8
LC-001-005-----0
 62
     7
370
    25
100
AcDbLine
 10
264.459465
 20
185.263505
 30
0.0
 11
265.959465
 21
186.763505
 31
0.0
  0
LINE
  5
E3
330
C4
100
AcDbEntity
  8
LC-001-005-----0
 62
     7
370
    25
100
AcDbLine
 10
309.804308
 20
230.608349
 30
0.0
 11
311.304308
 21
232.108349
 31
0.0
  0
LINE
  5
E4
330
C4
100
AcDbEntity
  8
LC-001-005-----0
 62
     7
370
    25
100
AcDbLine
 10
261.631038
 20
185.263505
 30
0.0
 11
263.131038
 21
186.763505
 31
0.0
  0
LINE
  5
E5
330
C4
100
AcDbEntity
  8
LC-001-005-----0
 62
     7
370
    25
100
AcDbLine
 10
309.804308
 20
233.436776
 30
0.0
 11
311.304308
 21
234.936776
 31
0.0
  0
LINE
  5
E6
330
C4
100
AcDbEntity
  8
LC-001-005-----0
 62
     7
370
    25
100
AcDbLine
 10
258.80261
 20
185.263505
 30
0.0
 11
260.30261
 21
186.763505
 31
0.0
  0
LINE
  5
E7
330
C4
100
AcDbEntity
  8
LC-001-005-----0
 62
     7
370
    25
100
AcDbLine
 10
309.804308
 20
236.265203
 30
0.0
 11
311.304308
 21
237.765203
 31
0.0
  0
LINE
  5
E8
330
C4
100
AcDbEntity
  8
LC-001-005-----0
 62
     7
370
    25
100
AcDbLine
 10
255.979461
 20
185.268783
 30
0.0
 11
257.474183
 21
186.763505
 31
0.0
  0
LINE
  5
E9
330
C4
100
AcDbEntity
  8
LC-001-005-----0
 62
     7
370
    25
100
AcDbLine
 10
309.804308
 20
239.09363
 30
0.0
 11
311.304308
 21
240.59363
 31
0.0
  0
LINE
  5
EA
330
C4
100
AcDbEntity
  8
LC-001-005-----0
 62
     7
370
    25
100
AcDbLine
 10
253.536442
 20
185.654191
 30
0.0
 11
254.783004
 21
186.900753
 31
0.0
  0
LINE
  5
EB
330
C4
100
AcDbEntity
  8
LC-001-005-----0
 62
     7
370
    25
100
AcDbLine
 10
309.804308
 20
241.922057
 30
0.0
 11
311.520894
 21
243.638643
 31
0.0
  0
LINE
  5
EC
330
C4
100
AcDbEntity
  8
LC-001-005-----0
 62
     7
370
    25
100
AcDbLine
 10
251.530412
 20
186.476588
 30
0.0
 11
252.645228
 21
187.591404
 31
0.0
  0
LINE
  5
ED
330
C4
100
AcDbEntity
  8
LC-001-005-----0
 62
     7
370
    25
100
AcDbLine
 10
309.804308
 20
244.750484
 30
0.0
 11
315.384598
 21
250.330774
 31
0.0
  0
LINE
  5
EE
330
C4
100
AcDbEntity
  8
LC-001-005-----0
 62
     7
370
    25
100
AcDbLine
 10
249.850388
 20
187.624991
 30
0.0
 11
250.915453
 21
188.690056
 31
0.0
  0
LINE
  5
EF
330
C4
100
AcDbEntity
  8
LC-001-005-----0
 62
     7
370
    25
100
AcDbLine
 10
311.052148
 20
248.826752
 30
0.0
 11
319.248301
 21
257.022904
 31
0.0
  0
LINE
  5
F0
330
C4
100
AcDbEntity
  8
LC-001-005-----0
 62
     7
370
    25
100
AcDbLine
 10
248.459255
 20
189.062285
 30
0.0
 11
249.528448
 21
190.131478
 31
0.0
  0
LINE
  5
F1
330
C4
100
AcDbEntity
  8
LC-001-005-----0
 62
     7
370
    25
100
AcDbLine
 10
314.915852
 20
255.518882
 30
0.0
 11
319.304308
 21
259.907339
 31
0.0
  0
LINE
  5
F2
330
C4
100
AcDbEntity
  8
LC-001-005-----0
 62
     7
370
    25
100
AcDbLine
 10
247.359995
 20
190.791453
 30
0.0
 11
248.489225
 21
191.920682
 31
0.0
  0
LINE
  5
F3
330
C4
100
AcDbEntity
  8
LC-001-005-----0
 62
     7
370
    25
100
AcDbLine
 10
317.804308
 20
261.235766
 30
0.0
 11
319.304308
 21
262.735766
 31
0.0
  0
LINE
  5
F4
330
C4
100
AcDbEntity
  8
LC-001-005-----0
 62
     7
370
    25
100
AcDbLine
 10
246.597977
 20
192.857862
 30
0.0
 11
247.879031
 21
194.138916
 31
0.0
  0
LINE
  5
F5
330
C4
100
AcDbEntity
  8
LC-001-005-----0
 62
     7
370
    25
100
AcDbLine
 10
317.804308
 20
264.064193
 30
0.0
 11
320.003621
 21
266.263505
 31
0.0
  0
LINE
  5
F6
330
C4
100
AcDbEntity
  8
LC-001-005-----0
 62
     7
370
    25
100
AcDbLine
 10
246.304309
 20
195.392621
 30
0.0
 11
247.804309
 21
196.892621
 31
0.0
  0
LINE
  5
F7
330
C4
100
AcDbEntity
  8
LC-001-005-----0
 62
     7
370
    25
100
AcDbLine
 10
246.304309
 20
198.221048
 30
0.0
 11
247.804309
 21
199.721048
 31
0.0
  0
LINE
  5
F8
330
C4
100
AcDbEntity
  8
LC-001-005-----0
 62
     7
370
    25
100
AcDbLine
 10
246.304309
 20
201.049475
 30
0.0
 11
247.804309
 21
202.549475
 31
0.0
  0
LINE
  5
F9
330
C4
100
AcDbEntity
  8
LC-001-005-----0
 62
     7
370
    25
100
AcDbLine
 10
246.304309
 20
203.877902
 30
0.0
 11
247.804309
 21
205.377902
 31
0.0
  0
LINE
  5
FA
330
C4
100
AcDbEntity
  8
LC-001-005-----0
 62
     7
370
    25
100
AcDbLine
 10
246.304309
 20
206.706329
 30
0.0
 11
247.804309
 21
208.206329
 31
0.0
  0
LINE
  5
FB
330
C4
100
AcDbEntity
  8
LC-001-005-----0
 62
     7
370
    25
100
AcDbLine
 10
246.304309
 20
209.534756
 30
0.0
 11
247.804309
 21
211.034756
 31
0.0
  0
LINE
  5
FC
330
C4
100
AcDbEntity
  8
LC-001-005-----0
 62
     7
370
    25
100
AcDbLine
 10
246.304309
 20
212.363183
 30
0.0
 11
247.804309
 21
213.863183
 31
0.0
  0
LINE
  5
FD
330
C4
100
AcDbEntity
  8
LC-001-005-----0
 62
     7
370
    25
100
AcDbLine
 10
246.304309
 20
215.19161
 30
0.0
 11
247.804309
 21
216.69161
 31
0.0
  0
LINE
  5
FE
330
C4
100
AcDbEntity
  8
LC-001-005-----0
 62
     7
370
    25
100
AcDbLine
 10
246.304309
 20
218.020037
 30
0.0
 11
247.804309
 21
219.520037
 31
0.0
  0
LINE
  5
FF
330
C4
100
AcDbEntity
  8
LC-001-005-----0
 62
     7
370
    25
100
AcDbLine
 10
246.304309
 20
220.848464
 30
0.0
 11
247.804308
 21
222.348464
 31
0.0
  0
LINE
  5
100
330
C4
100
AcDbEntity
  8
LC-001-005-----0
 62
     7
370
    25
100
AcDbLine
 10
246.304308
 20
223.676891
 30
0.0
 11
247.804308
 21
225.176891
 31
0.0
  0
LINE
  5
101
330
C4
100
AcDbEntity
  8
LC-001-005-----0
 62
     7
370
    25
100
AcDbLine
 10
246.304308
 20
226.505319
 30
0.0
 11
247.804308
 21
228.005319
 31
0.0
  0
LINE
  5
102
330
C4
100
AcDbEntity
  8
LC-001-005-----0
 62
     7
370
    25
100
AcDbLine
 10
246.304308
 20
229.333746
 30
0.0
 11
247.804308
 21
230.833746
 31
0.0
  0
LINE
  5
103
330
C4
100
AcDbEntity
  8
LC-001-005-----0
 62
     7
370
    25
100
AcDbLine
 10
246.304308
 20
232.162173
 30
0.0
 11
247.804308
 21
233.662173
 31
0.0
  0
LINE
  5
104
330
C4
100
AcDbEntity
  8
LC-001-005-----0
 62
     7
370
    25
100
AcDbLine
 10
246.304308
 20
234.9906
 30
0.0
 11
247.804308
 21
236.4906
 31
0.0
  0
LINE
  5
105
330
C4
100
AcDbEntity
  8
LC-001-005-----0
 62
     7
370
    25
100
AcDbLine
 10
246.304308
 20
237.819027
 30
0.0
 11
247.804308
 21
239.319027
 31
0.0
  0
LINE
  5
106
330
C4
100
AcDbEntity
  8
LC-001-005-----0
 62
     7
370
    25
100
AcDbLine
 10
246.304308
 20
240.647454
 30
0.0
 11
247.804308
 21
242.147454
 31
0.0
  0
LINE
  5
107
330
C4
100
AcDbEntity
  8
LC-001-005-----0
 62
     7
370
    25
100
AcDbLine
 10
246.304308
 20
243.475881
 30
0.0
 11
247.804308
 21
244.975881
 31
0.0
  0
LINE
  5
108
330
C4
100
AcDbEntity
  8
LC-001-005-----0
 62
     7
370
    25
100
AcDbLine
 10
246.304308
 20
246.304308
 30
0.0
 11
247.387449
 21
247.387449
 31
0.0
  0
LINE
  5
109
330
C4
100
AcDbEntity
  8
LC-001-005-----0
 62
     7
370
    25
100
AcDbLine
 10
246.304308
 20
249.132735
 30
0.0
 11
246.352173
 21
249.1806
 31
0.0
  0
LINE
  5
10A
330
C4
100
AcDbEntity
  8
LC-001-005-----0
 62
     7
370
    25
100
AcDbLine
 10
239.601185
 20
259.400175
 30
0.0
 11
239.804308
 21
259.603298
 31
0.0
  0
LINE
  5
10B
330
C4
100
AcDbEntity
  8
LC-001-005-----0
 62
     7
370
    25
100
AcDbLine
 10
238.304308
 20
260.931725
 30
0.0
 11
239.804308
 21
262.431725
 31
0.0
  0
LINE
  5
10C
330
C4
100
AcDbEntity
  8
LC-001-005-----0
 62
     7
370
    25
100
AcDbLine
 10
238.304308
 20
263.760152
 30
0.0
 11
239.804308
 21
265.260152
 31
0.0
  0
LINE
  5
10D
330
C4
100
AcDbEntity
  8
LC-001-005-----0
 62
     7
370
    25
100
AcDbLine
 10
236.479234
 20
264.763505
 30
0.0
 11
237.979234
 21
266.263505
 31
0.0
  0
ENDBLK
  5
C6
330
C4
100
AcDbEntity
  8
0
100
AcDbBlockEnd
  0
BLOCK
  5
139
330
12F
100
AcDbEntity
  8
0
100
AcDbBlockBegin
  2
*D5
 70
     1
 71
     0
 10
0.0
 20
0.0
 30
0.0
  3
*D5
  1

  0
LINE
  5
130
330
12F
100
AcDbEntity
  8
LC-006-003-----0
 62
     2
370
    -2
100
AcDbLine
 10
246.304309
 20
195.263505
 30
0.0
 11
246.304309
 21
158.4616
 31
0.0
  0
LINE
  5
131
330
12F
100
AcDbEntity
  8
LC-006-003-----0
 62
     2
370
    -2
100
AcDbLine
 10
311.304309
 20
195.263505
 30
0.0
 11
311.304309
 21
158.4616
 31
0.0
  0
LINE
  5
132
330
12F
100
AcDbEntity
  8
LC-006-003-----0
 62
     2
370
    -2
100
AcDbLine
 10
274.304309
 20
162.0616
 30
0.0
 11
283.304309
 21
162.0616
 31
0.0
  0
SOLID
  5
133
330
12F
100
AcDbEntity
  8
LC-006-003-----0
 62
     2
100
AcDbTrace
 10
274.304309
 20
166.728267
 30
0.0
 11
274.304309
 21
157.394934
 31
0.0
 12
246.304309
 22
162.0616
 32
0.0
 13
246.304309
 23
162.0616
 33
0.0
  0
SOLID
  5
134
330
12F
100
AcDbEntity
  8
LC-006-003-----0
 62
     2
100
AcDbTrace
 10
283.304309
 20
157.394934
 30
0.0
 11
283.304309
 21
166.728267
 31
0.0
 12
311.304309
 22
162.0616
 32
0.0
 13
311.304309
 23
162.0616
 33
0.0
  0
MTEXT
  5
135
330
12F
100
AcDbEntity
  8
LC-006-003-----0
 62
     2
100
AcDbMText
 10
278.804309
 20
192.8616
 30
0.0
 40
28.0
 41
0.0
 71
     5
 72
     1
  1
%%c\A1;65
  7
LCTX15-400-0-0pDIN-Schrift
 73
     1
 44
1.0
  0
POINT
  5
136
330
12F
100
AcDbEntity
  8
Defpoints
 62
     0
100
AcDbPoint
 10
246.304309
 20
195.263505
 30
0.0
  0
POINT
  5
137
330
12F
100
AcDbEntity
  8
Defpoints
 62
     0
100
AcDbPoint
 10
311.304309
 20
195.263505
 30
0.0
  0
POINT
  5
138
330
12F
100
AcDbEntity
  8
Defpoints
 62
     0
100
AcDbPoint
 10
311.304309
 20
162.0616
 30
0.0
  0
ENDBLK
  5
13A
330
12F
100
AcDbEntity
  8
0
100
AcDbBlockEnd
  0
BLOCK
  5
146
330
13C
100
AcDbEntity
  8
0
100
AcDbBlockBegin
  2
*D6
 70
     1
 71
     0
 10
0.0
 20
0.0
 30
0.0
  3
*D6
  1

  0
LINE
  5
13D
330
13C
100
AcDbEntity
  8
LC-006-003-----0
 62
     2
370
    -2
100
AcDbLine
 10
233.554308
 20
274.524967
 30
0.0
 11
197.074517
 21
274.524967
 31
0.0
  0
LINE
  5
13E
330
13C
100
AcDbEntity
  8
LC-006-003-----0
 62
     2
370
    -2
100
AcDbLine
 10
256.304309
 20
185.263505
 30
0.0
 11
197.074517
 21
185.263505
 31
0.0
  0
LINE
  5
13F
330
13C
100
AcDbEntity
  8
LC-006-003-----0
 62
     2
370
    -2
100
AcDbLine
 10
200.674517
 20
246.524967
 30
0.0
 11
200.674517
 21
213.263505
 31
0.0
  0
SOLID
  5
140
330
13C
100
AcDbEntity
  8
LC-006-003-----0
 62
     2
100
AcDbTrace
 10
205.341183
 20
246.524967
 30
0.0
 11
196.00785
 21
246.524967
 31
0.0
 12
200.674517
 22
274.524967
 32
0.0
 13
200.674517
 23
274.524967
 33
0.0
  0
SOLID
  5
141
330
13C
100
AcDbEntity
  8
LC-006-003-----0
 62
     2
100
AcDbTrace
 10
196.00785
 20
213.263505
 30
0.0
 11
205.341183
 21
213.263505
 31
0.0
 12
200.674517
 22
185.263505
 32
0.0
 13
200.674517
 23
185.263505
 33
0.0
  0
MTEXT
  5
142
330
13C
100
AcDbEntity
  8
LC-006-003-----0
 62
     2
100
AcDbMText
 10
169.874517
 20
229.894236
 30
0.0
 40
28.0
 41
0.0
 71
     5
 72
     1
  1
\A1;89
  7
LCTX15-400-0-0pDIN-Schrift
 11
6.123031769111886E-17
 21
1.0
 31
0.0
 73
     1
 44
1.0
  0
POINT
  5
143
330
13C
100
AcDbEntity
  8
Defpoints
 62
     0
100
AcDbPoint
 10
233.554308
 20
274.524967
 30
0.0
  0
POINT
  5
144
330
13C
100
AcDbEntity
  8
Defpoints
 62
     0
100
AcDbPoint
 10
256.304309
 20
185.263505
 30
0.0
  0
POINT
  5
145
330
13C
100
AcDbEntity
  8
Defpoints
 62
     0
100
AcDbPoint
 10
200.674517
 20
185.263505
 30
0.0
  0
ENDBLK
  5
147
330
13C
100
AcDbEntity
  8
0
100
AcDbBlockEnd
  0
ENDSEC
  0
SECTION
  2
ENTITIES
  0
INSERT
  5
4C
102
{ACAD_REACTORS
330
148
102
}
330
1F
100
AcDbEntity
  8
LC-001-005-----0
 62
     7
370
    25
100
AcDbBlockReference
  2
*X11
 10
0.0
 20
0.0
 30
0.0
  0
LINE
  5
4F
102
{ACAD_REACTORS
330
148
102
}
330
1F
100
AcDbEntity
  8
LC-002-006-MLN-0
 62
     7
370
    25
100
AcDbLine
 10
278.804308
 20
276.263505
 30
0.0
 11
278.804309
 21
189.023506
 31
0.0
  0
LINE
  5
51
102
{ACAD_REACTORS
330
148
102
}
330
1F
100
AcDbEntity
  8
LC-003-002-----0
 62
     7
370
    50
100
AcDbLine
 10
256.925629
 20
249.778071
 30
0.0
 11
248.182988
 21
258.524967
 31
0.0
  0
LINE
  5
52
102
{ACAD_REACTORS
330
148
102
}
330
1F
100
AcDbEntity
  8
LC-003-002-----0
 62
     7
370
    50
100
AcDbLine
 10
258.804309
 20
250.020712
 30
0.0
 11
248.804308
 21
260.024967
 31
0.0
  0
ARC
  5
54
102
{ACAD_REACTORS
330
148
102
}
330
1F
100
AcDbEntity
  8
LC-004-101-RND-0
 62
     7
370
    50
100
AcDbCircle
 10
254.804309
 20
247.656751
 30
0.0
 40
3.000000000000114
100
AcDbArc
 50
0.000001
 51
45.000001
  0
LINE
  5
56
102
{ACAD_REACTORS
330
148
102
}
330
1F
100
AcDbEntity
  8
LC-005-101-----0
 62
     7
370
    50
100
AcDbLine
 10
278.804308
 20
250.020713
 30
0.0
 11
258.804309
 21
250.020712
 31
0.0
  0
LINE
  5
57
102
{ACAD_REACTORS
330
148
102
}
330
1F
100
AcDbEntity
  8
LC-005-101-----0
 62
     7
370
    50
100
AcDbLine
 10
257.804309
 20
199.023505
 30
0.0
 11
257.804309
 21
247.656751
 31
0.0
  0
LINE
  5
58
102
{ACAD_REACTORS
330
148
102
}
330
1F
100
AcDbEntity
  8
LC-005-101-----0
 62
     7
370
    50
100
AcDbLine
 10
248.182988
 20
258.524967
 30
0.0
 11
241.877843
 21
258.524967
 31
0.0
  0
LINE
  5
59
102
{ACAD_REACTORS
330
148
102
}
330
1F
100
AcDbEntity
  8
LC-005-101-----0
 62
     7
370
    50
100
AcDbLine
 10
258.804309
 20
199.023505
 30
0.0
 11
258.804309
 21
250.020712
 31
0.0
  0
LINE
  5
5A
102
{ACAD_REACTORS
330
148
102
}
330
1F
100
AcDbEntity
  8
LC-005-101-----0
 62
     7
370
    50
100
AcDbLine
 10
278.804308
 20
260.024967
 30
0.0
 11
243.992172
 21
260.024967
 31
0.0
  0
LINE
  5
5B
102
{ACAD_REACTORS
330
148
102
}
330
1F
100
AcDbEntity
  8
LC-005-101-----0
 62
     7
370
    50
100
AcDbLine
 10
233.554308
 20
271.563505
 30
0.0
 11
236.804308
 21
271.563505
 31
0.0
  0
LINE
  5
5C
102
{ACAD_REACTORS
330
148
102
}
330
1F
100
AcDbEntity
  8
LC-005-101-----0
 62
     7
370
    50
100
AcDbLine
 10
233.554308
 20
274.524967
 30
0.0
 11
233.554308
 21
272.163505
 31
0.0
  0
LINE
  5
5D
102
{ACAD_REACTORS
330
148
102
}
330
1F
100
AcDbEntity
  8
LC-005-101-----0
 62
     7
370
    50
100
AcDbLine
 10
278.804309
 20
199.023506
 30
0.0
 11
257.804309
 21
199.023505
 31
0.0
  0
ARC
  5
5E
102
{ACAD_REACTORS
330
148
102
}
330
1F
100
AcDbEntity
  8
LC-004-101-RND-0
 62
     7
370
    50
100
AcDbCircle
 10
243.992172
 20
261.024967
 30
0.0
 40
0.9999999999999654
100
AcDbArc
 50
195.0
 51
270.000001
  0
LINE
  5
5F
102
{ACAD_REACTORS
330
148
102
}
330
1F
100
AcDbEntity
  8
LC-005-101-----0
 62
     7
370
    50
100
AcDbLine
 10
241.877843
 20
258.524967
 30
0.0
 11
239.804308
 21
266.263505
 31
0.0
  0
LINE
  5
60
102
{ACAD_REACTORS
330
148
102
}
330
1F
100
AcDbEntity
  8
LC-005-101-----0
 62
     7
370
    50
100
AcDbLine
 10
237.304308
 20
266.263505
 30
0.0
 11
239.804308
 21
266.263505
 31
0.0
  0
LINE
  5
61
102
{ACAD_REACTORS
330
148
102
}
330
1F
100
AcDbEntity
  8
LC-005-101-----0
 62
     7
370
    50
100
AcDbLine
 10
237.304308
 20
266.263505
 30
0.0
 11
237.304308
 21
266.263505
 31
0.0
  0
LINE
  5
62
102
{ACAD_REACTORS
330
148
102
}
330
1F
100
AcDbEntity
  8
LC-005-101-----0
 62
     7
370
    50
100
AcDbLine
 10
237.304308
 20
266.263505
 30
0.0
 11
238.304308
 21
267.763505
 31
0.0
  0
LINE
  5
63
102
{ACAD_REACTORS
330
148
102
}
330
1F
100
AcDbEntity
  8
LC-005-101-----0
 62
     7
370
    50
100
AcDbLine
 10
236.804308
 20
270.063505
 30
0.0
 11
238.304308
 21
270.063505
 31
0.0
  0
LINE
  5
64
102
{ACAD_REACTORS
330
148
102
}
330
1F
100
AcDbEntity
  8
LC-005-101-----0
 62
     7
370
    50
100
AcDbLine
 10
243.026246
 20
260.766148
 30
0.0
 11
240.45079
 21
270.37788
 31
0.0
  0
LINE
  5
65
102
{ACAD_REACTORS
330
148
102
}
330
1F
100
AcDbEntity
  8
LC-005-101-----0
 62
     7
370
    50
100
AcDbLine
 10
233.554308
 20
274.524967
 30
0.0
 11
236.550619
 21
273.996636
 31
0.0
  0
ARC
  5
66
102
{ACAD_REACTORS
330
148
102
}
330
1F
100
AcDbEntity
  8
LC-005-101-----0
 62
     7
370
    50
100
AcDbCircle
 10
235.621161
 20
269.083784
 30
0.0
 40
4.9999999999999
100
AcDbArc
 50
15.000001
 51
79.286878
  0
LINE
  5
67
102
{ACAD_REACTORS
330
148
102
}
330
1F
100
AcDbEntity
  8
LC-005-101-----0
 62
     7
370
    50
100
AcDbLine
 10
236.804308
 20
271.563505
 30
0.0
 11
236.804308
 21
270.063505
 31
0.0
  0
LINE
  5
68
102
{ACAD_REACTORS
330
148
102
}
330
1F
100
AcDbEntity
  8
LC-005-101-----0
 62
     7
370
    50
100
AcDbLine
 10
238.304308
 20
270.063505
 30
0.0
 11
238.304308
 21
267.763505
 31
0.0
  0
LINE
  5
69
102
{ACAD_REACTORS
330
148
102
}
330
1F
100
AcDbEntity
  8
LC-003-002-----0
 62
     7
370
    50
100
AcDbLine
 10
233.554308
 20
274.524967
 30
0.0
 11
278.804308
 21
274.524967
 31
0.0
  0
LINE
  5
6A
102
{ACAD_REACTORS
330
148
102
}
330
1F
100
AcDbEntity
  8
LC-003-002-----0
 62
     7
370
    25
100
AcDbLine
 10
245.157448
 20
272.025606
 30
0.0
 11
278.804308
 21
272.025606
 31
0.0
  0
ARC
  5
6B
102
{ACAD_REACTORS
330
148
102
}
330
1F
100
AcDbEntity
  8
LC-003-002-----0
 62
     7
370
    50
100
AcDbCircle
 10
233.554308
 20
271.863505
 30
0.0
 40
0.2999999999997272
100
AcDbArc
 50
90.000001
 51
270.000001
  0
INSERT
  5
92
102
{ACAD_REACTORS
330
148
102
}
330
1F
100
AcDbEntity
  8
LC-001-005-----0
 62
     7
370
    25
100
AcDbBlockReference
  2
*X22
 10
0.0
 20
0.0
 30
0.0
  0
ARC
  5
93
102
{ACAD_REACTORS
330
148
102
}
330
1F
100
AcDbEntity
  8
LC-003-002-----0
 62
     7
370
    50
100
AcDbCircle
 10
324.054308
 20
271.863506
 30
0.0
 40
0.2999999999997272
100
AcDbArc
 50
270.0
 51
90.0
  0
LINE
  5
94
102
{ACAD_REACTORS
330
148
102
}
330
1F
100
AcDbEntity
  8
LC-003-002-----0
 62
     7
370
    50
100
AcDbLine
 10
298.804308
 20
250.020713
 30
0.0
 11
308.804308
 21
260.024967
 31
0.0
  0
ARC
  5
95
102
{ACAD_REACTORS
330
148
102
}
330
1F
100
AcDbEntity
  8
LC-004-101-RND-0
 62
     7
370
    50
100
AcDbCircle
 10
302.804308
 20
247.656751
 30
0.0
 40
3.000000000000145
100
AcDbArc
 50
135.0
 51
180.0
  0
LINE
  5
96
102
{ACAD_REACTORS
330
148
102
}
330
1F
100
AcDbEntity
  8
LC-005-101-----0
 62
     7
370
    50
100
AcDbLine
 10
278.804308
 20
250.020713
 30
0.0
 11
298.804308
 21
250.020713
 31
0.0
  0
LINE
  5
97
102
{ACAD_REACTORS
330
148
102
}
330
1F
100
AcDbEntity
  8
LC-003-002-----0
 62
     7
370
    50
100
AcDbLine
 10
300.682472
 20
249.777556
 30
0.0
 11
309.425628
 21
258.524967
 31
0.0
  0
LINE
  5
98
102
{ACAD_REACTORS
330
148
102
}
330
1F
100
AcDbEntity
  8
LC-005-101-----0
 62
     7
370
    50
100
AcDbLine
 10
309.425628
 20
258.524967
 30
0.0
 11
315.730773
 21
258.524967
 31
0.0
  0
LINE
  5
99
102
{ACAD_REACTORS
330
148
102
}
330
1F
100
AcDbEntity
  8
LC-005-101-----0
 62
     7
370
    50
100
AcDbLine
 10
298.804309
 20
199.023506
 30
0.0
 11
298.804308
 21
250.020713
 31
0.0
  0
LINE
  5
9A
102
{ACAD_REACTORS
330
148
102
}
330
1F
100
AcDbEntity
  8
LC-005-101-----0
 62
     7
370
    50
100
AcDbLine
 10
278.804308
 20
260.024967
 30
0.0
 11
313.616445
 21
260.024967
 31
0.0
  0
LINE
  5
9B
102
{ACAD_REACTORS
330
148
102
}
330
1F
100
AcDbEntity
  8
LC-005-101-----0
 62
     7
370
    50
100
AcDbLine
 10
324.054308
 20
271.563506
 30
0.0
 11
320.804308
 21
271.563506
 31
0.0
  0
LINE
  5
9C
102
{ACAD_REACTORS
330
148
102
}
330
1F
100
AcDbEntity
  8
LC-005-101-----0
 62
     7
370
    50
100
AcDbLine
 10
324.054308
 20
274.524967
 30
0.0
 11
324.054308
 21
272.163506
 31
0.0
  0
LINE
  5
9D
102
{ACAD_REACTORS
330
148
102
}
330
1F
100
AcDbEntity
  8
LC-005-101-----0
 62
     7
370
    50
100
AcDbLine
 10
278.804309
 20
199.023506
 30
0.0
 11
299.804309
 21
199.023506
 31
0.0
  0
ARC
  5
9E
102
{ACAD_REACTORS
330
148
102
}
330
1F
100
AcDbEntity
  8
LC-004-101-RND-0
 62
     7
370
    50
100
AcDbCircle
 10
313.616445
 20
261.024967
 30
0.0
 40
1.0
100
AcDbArc
 50
270.0
 51
345.000001
  0
LINE
  5
9F
102
{ACAD_REACTORS
330
148
102
}
330
1F
100
AcDbEntity
  8
LC-005-101-----0
 62
     7
370
    50
100
AcDbLine
 10
315.730773
 20
258.524967
 30
0.0
 11
317.804308
 21
266.263506
 31
0.0
  0
LINE
  5
A0
102
{ACAD_REACTORS
330
148
102
}
330
1F
100
AcDbEntity
  8
LC-005-101-----0
 62
     7
370
    50
100
AcDbLine
 10
320.304308
 20
266.263506
 30
0.0
 11
317.804308
 21
266.263506
 31
0.0
  0
LINE
  5
A1
102
{ACAD_REACTORS
330
148
102
}
330
1F
100
AcDbEntity
  8
LC-005-101-----0
 62
     7
370
    50
100
AcDbLine
 10
320.304308
 20
266.263506
 30
0.0
 11
320.304308
 21
266.263506
 31
0.0
  0
LINE
  5
A2
102
{ACAD_REACTORS
330
148
102
}
330
1F
100
AcDbEntity
  8
LC-005-101-----0
 62
     7
370
    50
100
AcDbLine
 10
320.304308
 20
266.263506
 30
0.0
 11
319.304308
 21
267.763506
 31
0.0
  0
LINE
  5
A3
102
{ACAD_REACTORS
330
148
102
}
330
1F
100
AcDbEntity
  8
LC-005-101-----0
 62
     7
370
    50
100
AcDbLine
 10
320.804308
 20
270.063506
 30
0.0
 11
319.304308
 21
270.063506
 31
0.0
  0
LINE
  5
A4
102
{ACAD_REACTORS
330
148
102
}
330
1F
100
AcDbEntity
  8
LC-005-101-----0
 62
     7
370
    50
100
AcDbLine
 10
314.58237
 20
260.766148
 30
0.0
 11
317.157826
 21
270.377881
 31
0.0
  0
LINE
  5
A5
102
{ACAD_REACTORS
330
148
102
}
330
1F
100
AcDbEntity
  8
LC-005-101-----0
 62
     7
370
    50
100
AcDbLine
 10
324.054308
 20
274.524967
 30
0.0
 11
321.057997
 21
273.996637
 31
0.0
  0
ARC
  5
A6
102
{ACAD_REACTORS
330
148
102
}
330
1F
100
AcDbEntity
  8
LC-005-101-----0
 62
     7
370
    50
100
AcDbCircle
 10
321.987455
 20
269.083785
 30
0.0
 40
4.999999999999986
100
AcDbArc
 50
100.713123
 51
165.0
  0
LINE
  5
A7
102
{ACAD_REACTORS
330
148
102
}
330
1F
100
AcDbEntity
  8
LC-005-101-----0
 62
     7
370
    50
100
AcDbLine
 10
320.804308
 20
271.563506
 30
0.0
 11
320.804308
 21
270.063506
 31
0.0
  0
LINE
  5
A8
102
{ACAD_REACTORS
330
148
102
}
330
1F
100
AcDbEntity
  8
LC-005-101-----0
 62
     7
370
    50
100
AcDbLine
 10
319.304308
 20
270.063506
 30
0.0
 11
319.304308
 21
267.763506
 31
0.0
  0
LINE
  5
A9
102
{ACAD_REACTORS
330
148
102
}
330
1F
100
AcDbEntity
  8
LC-003-002-----0
 62
     7
370
    50
100
AcDbLine
 10
324.054308
 20
274.524967
 30
0.0
 11
278.804308
 21
274.524967
 31
0.0
  0
LINE
  5
AA
102
{ACAD_REACTORS
330
148
102
}
330
1F
100
AcDbEntity
  8
LC-003-002-----0
 62
     7
370
    25
100
AcDbLine
 10
312.451168
 20
272.025607
 30
0.0
 11
278.804308
 21
272.025606
 31
0.0
  0
LINE
  5
AC
102
{ACAD_REACTORS
330
148
102
}
330
1F
100
AcDbEntity
  8
LC-006-003-----0
 62
     7
370
    25
100
AcDbLine
 10
299.804308
 20
247.656751
 30
0.0
 11
299.804308
 21
248.898965
 31
0.0
  0
LINE
  5
AD
330
1F
100
AcDbEntity
  8
LC-003-002-----0
 62
     7
370
    50
100
AcDbLine
 10
246.304308
 20
249.263505
 30
0.0
 11
257.337753
 21
249.263505
 31
0.0
  0
LINE
  5
AE
330
1F
100
AcDbEntity
  8
LC-003-002-----0
 62
     7
370
    50
100
AcDbLine
 10
309.804308
 20
246.665429
 30
0.0
 11
299.804308
 21
246.665429
 31
0.0
  0
DIMENSION
  5
B1
330
1F
100
AcDbEntity
  8
LC-006-003-----0
 62
     7
370
    25
100
AcDbDimension
  2
*D3
 10
233.554308
 20
310.115165
 30
0.0
 11
278.804308
 21
340.915165
 31
0.0
 70
   160
  1
%%c<>
 71
     5
 42
90.5
  3
LC-DIM-L-0140-02-02
100
AcDbAlignedDimension
 13
324.054308
 23
274.524967
 33
0.0
 14
233.554308
 24
274.524967
 34
0.0
100
AcDbRotatedDimension
  0
LINE
  5
BF
330
1F
100
AcDbEntity
  8
LC-003-002-----0
 62
     7
370
    50
100
AcDbLine
 10
247.804308
 20
246.665429
 30
0.0
 11
257.804309
 21
246.665429
 31
0.0
  0
LINE
  5
C0
102
{ACAD_REACTORS
330
148
102
}
330
1F
100
AcDbEntity
  8
LC-005-101-----0
 62
     7
370
    50
100
AcDbLine
 10
299.804309
 20
199.023506
 30
0.0
 11
299.804308
 21
247.656751
 31
0.0
  0
LINE
  5
C1
102
{ACAD_REACTORS
330
148
102
}
330
1F
100
AcDbEntity
  8
LC-006-003-----0
 62
     7
370
    25
100
AcDbLine
 10
299.804308
 20
248.898965
 30
0.0
 11
300.682472
 21
249.777556
 31
0.0
  0
LINE
  5
C2
102
{ACAD_REACTORS
330
149
102
}
330
1F
100
AcDbEntity
  8
LC-003-002-----0
 62
     7
370
    50
100
AcDbLine
 10
309.804308
 20
246.665429
 30
0.0
 11
311.304308
 21
249.263505
 31
0.0
  0
LINE
  5
C3
102
{ACAD_REACTORS
330
149
102
}
330
1F
100
AcDbEntity
  8
LC-003-002-----0
 62
     7
370
    50
100
AcDbLine
 10
311.304308
 20
249.263505
 30
0.0
 11
317.804308
 21
260.521835
 31
0.0
  0
INSERT
  5
10E
102
{ACAD_REACTORS
330
149
102
}
330
1F
100
AcDbEntity
  8
LC-001-005-----0
 62
     7
370
    25
100
AcDbBlockReference
  2
*X34
 10
0.0
 20
0.0
 30
0.0
  0
LINE
  5
10F
102
{ACAD_REACTORS
330
149
102
}
330
1F
100
AcDbEntity
  8
LC-003-002-----0
 62
     7
370
    50
100
AcDbLine
 10
246.304308
 20
249.263505
 30
0.0
 11
239.804308
 21
260.521835
 31
0.0
  0
LINE
  5
110
102
{ACAD_REACTORS
330
149
102
}
330
1F
100
AcDbEntity
  8
LC-003-002-----0
 62
     7
370
    50
100
AcDbLine
 10
246.304308
 20
243.263505
 30
0.0
 11
238.304308
 21
257.119911
 31
0.0
  0
LINE
  5
111
102
{ACAD_REACTORS
330
149
102
}
330
1F
100
AcDbEntity
  8
LC-003-002-----0
 62
     7
370
    50
100
AcDbLine
 10
236.304336
 20
264.763505
 30
0.0
 11
236.304336
 21
266.263505
 31
0.0
  0
LINE
  5
112
102
{ACAD_REACTORS
330
149
102
}
330
1F
100
AcDbEntity
  8
LC-005-101-----0
 62
     7
370
    50
100
AcDbLine
 10
247.804308
 20
246.665429
 30
0.0
 11
247.804309
 21
195.263505
 31
0.0
  0
ARC
  5
113
102
{ACAD_REACTORS
330
149
102
}
330
1F
100
AcDbEntity
  8
LC-005-101-----0
 62
     7
370
    50
100
AcDbCircle
 10
301.304309
 20
195.263505
 30
0.0
 40
8.5
100
AcDbArc
 50
270.0
 51
0.0
  0
ARC
  5
114
102
{ACAD_REACTORS
330
149
102
}
330
1F
100
AcDbEntity
  8
LC-005-101-----0
 62
     7
370
    50
100
AcDbCircle
 10
301.304309
 20
195.263505
 30
0.0
 40
10.0
100
AcDbArc
 50
270.0
 51
0.0
  0
LINE
  5
115
102
{ACAD_REACTORS
330
149
102
}
330
1F
100
AcDbEntity
  8
LC-005-101-----0
 62
     7
370
    50
100
AcDbLine
 10
236.304336
 20
264.763505
 30
0.0
 11
238.304308
 21
264.763505
 31
0.0
  0
ARC
  5
116
102
{ACAD_REACTORS
330
149
102
}
330
1F
100
AcDbEntity
  8
LC-005-101-----0
 62
     7
370
    50
100
AcDbCircle
 10
256.304309
 20
195.263505
 30
0.0
 40
8.5
100
AcDbArc
 50
180.0
 51
270.0
  0
LINE
  5
117
102
{ACAD_REACTORS
330
149
102
}
330
1F
100
AcDbEntity
  8
LC-005-101-----0
 62
     7
370
    50
100
AcDbLine
 10
256.304309
 20
186.763505
 30
0.0
 11
301.304309
 21
186.763505
 31
0.0
  0
ARC
  5
118
102
{ACAD_REACTORS
330
149
102
}
330
1F
100
AcDbEntity
  8
LC-005-101-----0
 62
     7
370
    50
100
AcDbCircle
 10
256.304309
 20
195.263505
 30
0.0
 40
10.0
100
AcDbArc
 50
180.0
 51
270.0
  0
LINE
  5
119
102
{ACAD_REACTORS
330
149
102
}
330
1F
100
AcDbEntity
  8
LC-005-101-----0
 62
     7
370
    50
100
AcDbLine
 10
256.304309
 20
185.263505
 30
0.0
 11
301.304309
 21
185.263505
 31
0.0
  0
LINE
  5
11A
102
{ACAD_REACTORS
330
149
102
}
330
1F
100
AcDbEntity
  8
LC-005-101-----0
 62
     7
370
    50
100
AcDbLine
 10
239.804308
 20
265.19129
 30
0.0
 11
239.804308
 21
266.263505
 31
0.0
  0
LINE
  5
11B
102
{ACAD_REACTORS
330
149
102
}
330
1F
100
AcDbEntity
  8
LC-005-101-----0
 62
     7
370
    50
100
AcDbLine
 10
319.304308
 20
257.119912
 30
0.0
 11
319.304308
 21
264.763505
 31
0.0
  0
LINE
  5
11C
102
{ACAD_REACTORS
330
149
102
}
330
1F
100
AcDbEntity
  8
LC-005-101-----0
 62
     7
370
    50
100
AcDbLine
 10
238.304308
 20
257.119911
 30
0.0
 11
238.304308
 21
264.763505
 31
0.0
  0
LINE
  5
11D
102
{ACAD_REACTORS
330
149
102
}
330
1F
100
AcDbEntity
  8
LC-005-101-----0
 62
     7
370
    50
100
AcDbLine
 10
317.804308
 20
265.19129
 30
0.0
 11
317.804308
 21
266.263505
 31
0.0
  0
LINE
  5
11E
102
{ACAD_REACTORS
330
149
102
}
330
1F
100
AcDbEntity
  8
LC-005-101-----0
 62
     7
370
    50
100
AcDbLine
 10
317.804308
 20
260.521835
 30
0.0
 11
317.804308
 21
265.19129
 31
0.0
  0
LINE
  5
11F
102
{ACAD_REACTORS
330
149
102
}
330
1F
100
AcDbEntity
  8
LC-005-101-----0
 62
     7
370
    50
100
AcDbLine
 10
321.304281
 20
266.263505
 30
0.0
 11
317.804308
 21
266.263505
 31
0.0
  0
LINE
  5
120
102
{ACAD_REACTORS
330
149
102
}
330
1F
100
AcDbEntity
  8
LC-005-101-----0
 62
     7
370
    50
100
AcDbLine
 10
321.304281
 20
264.763505
 30
0.0
 11
319.304308
 21
264.763505
 31
0.0
  0
LINE
  5
121
102
{ACAD_REACTORS
330
149
102
}
330
1F
100
AcDbEntity
  8
LC-005-101-----0
 62
     7
370
    50
100
AcDbLine
 10
236.304336
 20
266.263505
 30
0.0
 11
239.804308
 21
266.263505
 31
0.0
  0
LINE
  5
122
102
{ACAD_REACTORS
330
149
102
}
330
1F
100
AcDbEntity
  8
LC-005-101-----0
 62
     7
370
    50
100
AcDbLine
 10
239.804308
 20
259.400175
 30
0.0
 11
239.804308
 21
265.19129
 31
0.0
  0
LINE
  5
123
102
{ACAD_REACTORS
330
149
102
}
330
1F
100
AcDbEntity
  8
LC-005-101-----0
 62
     7
370
    50
100
AcDbLine
 10
309.804308
 20
246.665429
 30
0.0
 11
309.804309
 21
195.263505
 31
0.0
  0
LINE
  5
124
102
{ACAD_REACTORS
330
149
102
}
330
1F
100
AcDbEntity
  8
LC-005-101-----0
 62
     7
370
    50
100
AcDbLine
 10
311.304308
 20
243.263505
 30
0.0
 11
311.304309
 21
195.263505
 31
0.0
  0
LINE
  5
125
102
{ACAD_REACTORS
330
149
102
}
330
1F
100
AcDbEntity
  8
LC-005-101-----0
 62
     7
370
    50
100
AcDbLine
 10
321.304289
 20
266.263505
 30
0.0
 11
321.304287
 21
264.763505
 31
0.0
  0
LINE
  5
126
102
{ACAD_REACTORS
330
149
102
}
330
1F
100
AcDbEntity
  8
LC-005-101-----0
 62
     7
370
    50
100
AcDbLine
 10
246.304308
 20
249.263505
 30
0.0
 11
246.304309
 21
195.263505
 31
0.0
  0
LINE
  5
127
102
{ACAD_REACTORS
330
149
102
}
330
1F
100
AcDbEntity
  8
LC-005-101-----0
 62
     7
370
    50
100
AcDbLine
 10
246.304308
 20
249.263505
 30
0.0
 11
247.804308
 21
246.665429
 31
0.0
  0
LINE
  5
128
102
{ACAD_REACTORS
330
149
102
}
330
1F
100
AcDbEntity
  8
LC-003-002-----0
 62
     7
370
    50
100
AcDbLine
 10
238.304308
 20
259.400175
 30
0.0
 11
239.804308
 21
259.400175
 31
0.0
  0
LINE
  5
129
102
{ACAD_REACTORS
330
149
102
}
330
1F
100
AcDbEntity
  8
LC-003-002-----0
 62
     7
370
    50
100
AcDbLine
 10
311.304308
 20
243.263505
 30
0.0
 11
319.304308
 21
257.119912
 31
0.0
  0
CIRCLE
  5
12B
330
1F
100
AcDbEntity
  8
LC-007-103-D10-0
 62
     7
370
    50
100
AcDbCircle
 10
237.317528
 20
269.013505
 30
0.0
 40
1.049999937406028
  0
CIRCLE
  5
12C
330
1F
100
AcDbEntity
  8
LC-007-103-D10-0
 62
     7
370
    50
100
AcDbCircle
 10
320.291088
 20
269.013505
 30
0.0
 40
1.049999937406028
  0
LINE
  5
12D
330
1F
100
AcDbEntity
  8
LC-003-002-----0
 62
     7
370
    50
100
AcDbLine
 10
300.270863
 20
249.263505
 30
0.0
 11
311.304308
 21
249.263505
 31
0.0
  0
DIMENSION
  5
12E
330
1F
100
AcDbEntity
  8
LC-006-003-----0
 62
     7
370
    25
100
AcDbDimension
  2
*D5
 10
311.304309
 20
162.0616
 30
0.0
 11
278.804309
 21
192.8616
 31
0.0
 70
   160
  1
%%c<>
 71
     5
 42
65.0
  3
LC-DIM-L-0140-02-02
100
AcDbAlignedDimension
 13
246.304309
 23
195.263505
 33
0.0
 14
311.304309
 24
195.263505
 34
0.0
100
AcDbRotatedDimension
  0
DIMENSION
  5
13B
330
1F
100
AcDbEntity
  8
LC-006-003-----0
 62
     7
370
    25
100
AcDbDimension
  2
*D6
 10
200.674517
 20
185.263505
 30
0.0
 11
169.874517
 21
229.894236
 31
0.0
 70
   160
  1
89
 71
     5
 42
89.261462
 53
90.0
  3
LC-DIM-L-0140-02-02
100
AcDbAlignedDimension
 13
233.554308
 23
274.524967
 33
0.0
 14
256.304309
 24
185.263505
 34
0.0
 50
90.0
100
AcDbRotatedDimension
  0
ENDSEC
  0
SECTION
  2
OBJECTS
  0
DICTIONARY
  5
C
330
0
100
AcDbDictionary
281
     1
  3
ACAD_GROUP
350
D
  3
ACAD_LAYOUT
350
1A
  3
ACAD_MLINESTYLE
350
17
  3
ACAD_PLOTSETTINGS
350
19
  3
ACAD_PLOTSTYLENAME
350
E
  0
DICTIONARY
  5
D
102
{ACAD_REACTORS
330
C
102
}
330
C
100
AcDbDictionary
281
     1
  3
LCGROUP177
350
149
  3
LCGROUP97
350
148
  0
DICTIONARY
  5
1A
102
{ACAD_REACTORS
330
C
102
}
330
C
100
AcDbDictionary
281
     1
  3
Layout1
350
1E
  3
Layout2
350
26
  3
Model
350
22
  0
DICTIONARY
  5
17
102
{ACAD_REACTORS
330
C
102
}
330
C
100
AcDbDictionary
281
     1
  3
Standard
350
18
  0
DICTIONARY
  5
19
102
{ACAD_REACTORS
330
C
102
}
330
C
100
AcDbDictionary
281
     1
  0
ACDBDICTIONARYWDFLT
  5
E
102
{ACAD_REACTORS
330
C
102
}
330
C
100
AcDbDictionary
281
     1
  3
Normal
350
F
100
AcDbDictionaryWithDefault
340
F
  0
GROUP
  5
149
102
{ACAD_REACTORS
330
D
102
}
330
D
100
AcDbGroup
300
topf
 70
     1
 71
     1
340
C2
340
C3
340
10E
340
10F
340
110
340
111
340
112
340
113
340
114
340
115
340
116
340
117
340
118
340
119
340
11A
340
11B
340
11C
340
11D
340
11E
340
11F
340
120
340
121
340
122
340
123
340
124
340
125
340
126
340
127
340
128
340
129
  0
GROUP
  5
148
102
{ACAD_REACTORS
330
D
102
}
330
D
100
AcDbGroup
300
GRP97
 70
     1
 71
     1
340
4C
340
4F
340
51
340
52
340
54
340
56
340
57
340
58
340
59
340
5A
340
5B
340
5C
340
5D
340
5E
340
5F
340
60
340
61
340
62
340
63
340
64
340
65
340
66
340
67
340
68
340
69
340
6A
340
6B
340
92
340
93
340
94
340
95
340
96
340
97
340
98
340
99
340
9A
340
9B
340
9C
340
9D
340
9E
340
9F
340
A0
340
A1
340
A2
340
A3
340
A4
340
A5
340
A6
340
A7
340
A8
340
A9
340
AA
340
AC
340
C0
340
C1
  0
LAYOUT
  5
1E
102
{ACAD_REACTORS
330
1A
102
}
330
1A
100
AcDbPlotSettings
  1

  2

  4

  6

 40
0.0
 41
0.0
 42
0.0
 43
0.0
 44
0.0
 45
0.0
 46
0.0
 47
0.0
 48
0.0
 49
0.0
140
0.0
141
0.0
142
1.0
143
1.0
 70
   688
 72
     0
 73
     0
 74
     5
  7

 75
    16
147
1.0
148
0.0
149
0.0
100
AcDbLayout
  1
Layout1
 70
     1
 71
     1
 10
-210.0
 20
-148.5
 11
630.0
 21
445.5
 12
0.0
 22
0.0
 32
0.0
 14
-210.0
 24
-148.5
 34
0.0
 15
630.0
 25
445.5
 35
0.0
146
0.0
 13
0.0
 23
0.0
 33
0.0
 16
1.0
 26
0.0
 36
0.0
 17
0.0
 27
1.0
 37
0.0
 76
     0
330
1B
  0
LAYOUT
  5
26
102
{ACAD_REACTORS
330
1A
102
}
330
1A
100
AcDbPlotSettings
  1

  2

  4

  6

 40
0.0
 41
0.0
 42
0.0
 43
0.0
 44
0.0
 45
0.0
 46
0.0
 47
0.0
 48
0.0
 49
0.0
140
0.0
141
0.0
142
1.0
143
1.0
 70
   688
 72
     0
 73
     0
 74
     5
  7

 75
    16
147
1.0
148
0.0
149
0.0
100
AcDbLayout
  1
Layout2
 70
     1
 71
     2
 10
0.0
 20
0.0
 11
0.0
 21
0.0
 12
0.0
 22
0.0
 32
0.0
 14
0.0
 24
0.0
 34
0.0
 15
0.0
 25
0.0
 35
0.0
146
0.0
 13
0.0
 23
0.0
 33
0.0
 16
1.0
 26
0.0
 36
0.0
 17
0.0
 27
1.0
 37
0.0
 76
     0
330
23
  0
LAYOUT
  5
22
102
{ACAD_REACTORS
330
1A
102
}
330
1A
100
AcDbPlotSettings
  1

  2

  4

  6

 40
0.0
 41
0.0
 42
0.0
 43
0.0
 44
0.0
 45
0.0
 46
0.0
 47
0.0
 48
0.0
 49
0.0
140
0.0
141
0.0
142
1.0
143
1.0
 70
  1776
 72
     0
 73
     0
 74
     0
  7

 75
     0
147
1.0
148
0.0
149
0.0
100
AcDbLayout
  1
Model
 70
     1
 71
     0
 10
-210.0
 20
-148.5
 11
630.0
 21
445.5
 12
0.0
 22
0.0
 32
0.0
 14
-210.0
 24
-148.5
 34
0.0
 15
630.0
 25
445.5
 35
0.0
146
0.0
 13
0.0
 23
0.0
 33
0.0
 16
1.0
 26
0.0
 36
0.0
 17
0.0
 27
1.0
 37
0.0
 76
     0
330
1F
  0
MLINESTYLE
  5
18
102
{ACAD_REACTORS
330
17
102
}
330
17
100
AcDbMlineStyle
  2
Standard
 70
     0
  3

 62
   256
 51
90.0
 52
90.0
 71
     2
 49
0.5
 62
   256
  6
BYLAYER
 49
-0.5
 62
   256
  6
BYLAYER
  0
ACDBPLACEHOLDER
  5
F
102
{ACAD_REACTORS
330
E
102
}
330
E
  0
ENDSEC
  0
EOF
