  0
SECTION
  2
HEADER
  9
$ACADVER
  1
AC1015
  9
$ACADMAINTVER
 70
     6
  9
$DWGCODEPAGE
  3
ANSI_1252
  9
$INSBASE
 10
0.0
 20
0.0
 30
0.0
  9
$EXTMIN
 10
-286.857764
 20
-190.305205
 30
0.0
  9
$EXTMAX
 10
553.142236
 20
403.694795
 30
0.0
  9
$LIMMIN
 10
-286.857764
 20
-190.305205
  9
$LIMMAX
 10
553.142236
 20
403.694795
  9
$ORTHOMODE
 70
     0
  9
$REGENMODE
 70
     1
  9
$FILLMODE
 70
     1
  9
$QTEXTMODE
 70
     0
  9
$MIRRTEXT
 70
     1
  9
$LTSCALE
 40
2.0
  9
$ATTMODE
 70
     1
  9
$TEXTSIZE
 40
2.5
  9
$TRACEWID
 40
1.0
  9
$TEXTSTYLE
  7
Standard
  9
$CLAYER
  8
0
  9
$CELTYPE
  6
ByLayer
  9
$CECOLOR
 62
     7
  9
$CELTSCALE
 40
1.0
  9
$DISPSILH
 70
     0
  9
$DIMSCALE
 40
2.0
  9
$DIMASZ
 40
3.5
  9
$DIMEXO
 40
0.625
  9
$DIMDLI
 40
3.75
  9
$DIMRND
 40
0.0
  9
$DIMDLE
 40
0.0
  9
$DIMEXE
 40
1.25
  9
$DIMTP
 40
0.0
  9
$DIMTM
 40
0.0
  9
$DIMTXT
 40
3.5
  9
$DIMCEN
 40
2.5
  9
$DIMTSZ
 40
0.0
  9
$DIMTOL
 70
     0
  9
$DIMLIM
 70
     0
  9
$DIMTIH
 70
     0
  9
$DIMTOH
 70
     0
  9
$DIMSE1
 70
     0
  9
$DIMSE2
 70
     0
  9
$DIMTAD
 70
     1
  9
$DIMZIN
 70
     8
  9
$DIMBLK
  1

  9
$DIMASO
 70
     1
  9
$DIMSHO
 70
     1
  9
$DIMPOST
  1

  9
$DIMAPOST
  1

  9
$DIMALT
 70
     0
  9
$DIMALTD
 70
     3
  9
$DIMALTF
 40
0.03937
  9
$DIMLFAC
 40
1.0
  9
$DIMTOFL
 70
     1
  9
$DIMTVP
 40
0.0
  9
$DIMTIX
 70
     0
  9
$DIMSOXD
 70
     0
  9
$DIMSAH
 70
     0
  9
$DIMBLK1
  1

  9
$DIMBLK2
  1

  9
$DIMSTYLE
  2
ISO-25
  9
$DIMCLRD
 70
     0
  9
$DIMCLRE
 70
     0
  9
$DIMCLRT
 70
     0
  9
$DIMTFAC
 40
1.0
  9
$DIMGAP
 40
0.625
  9
$DIMJUST
 70
     0
  9
$DIMSD1
 70
     0
  9
$DIMSD2
 70
     0
  9
$DIMTOLJ
 70
     0
  9
$DIMTZIN
 70
     8
  9
$DIMALTZ
 70
     0
  9
$DIMALTTZ
 70
     0
  9
$DIMUPT
 70
     0
  9
$DIMDEC
 70
     2
  9
$DIMTDEC
 70
     2
  9
$DIMALTU
 70
     2
  9
$DIMALTTD
 70
     3
  9
$DIMTXSTY
  7
Standard
  9
$DIMAUNIT
 70
     0
  9
$DIMADEC
 70
     0
  9
$DIMALTRND
 40
0.0
  9
$DIMAZIN
 70
     0
  9
$DIMDSEP
 70
    44
  9
$DIMATFIT
 70
     3
  9
$DIMFRAC
 70
     0
  9
$DIMLDRBLK
  1

  9
$DIMLUNIT
 70
     2
  9
$DIMLWD
 70
    -2
  9
$DIMLWE
 70
    -2
  9
$DIMTMOVE
 70
     0
  9
$LUNITS
 70
     2
  9
$LUPREC
 70
     4
  9
$SKETCHINC
 40
1.0
  9
$FILLETRAD
 40
10.0
  9
$AUNITS
 70
     0
  9
$AUPREC
 70
     0
  9
$MENU
  1
.
  9
$ELEVATION
 40
0.0
  9
$PELEVATION
 40
0.0
  9
$THICKNESS
 40
0.0
  9
$LIMCHECK
 70
     0
  9
$CHAMFERA
 40
10.0
  9
$CHAMFERB
 40
10.0
  9
$CHAMFERC
 40
20.0
  9
$CHAMFERD
 40
0.0
  9
$SKPOLY
 70
     0
  9
$TDCREATE
 40
2455537.323094757
  9
$TDUCREATE
 40
2455537.28142809
  9
$TDUPDATE
 40
2455537.323094768
  9
$TDUUPDATE
 40
2455537.281428102
  9
$TDINDWG
 40
0.0000000116
  9
$TDUSRTIMER
 40
0.0000000116
  9
$USRTIMER
 70
     1
  9
$ANGBASE
 50
0.0
  9
$ANGDIR
 70
     0
  9
$PDMODE
 70
     0
  9
$PDSIZE
 40
0.0
  9
$PLINEWID
 40
0.0
  9
$SPLFRAME
 70
     0
  9
$SPLINETYPE
 70
     6
  9
$SPLINESEGS
 70
     8
  9
$HANDSEED
  5
152
  9
$SURFTAB1
 70
     6
  9
$SURFTAB2
 70
     6
  9
$SURFTYPE
 70
     6
  9
$SURFU
 70
     6
  9
$SURFV
 70
     6
  9
$UCSBASE
  2

  9
$UCSNAME
  2

  9
$UCSORG
 10
0.0
 20
0.0
 30
0.0
  9
$UCSXDIR
 10
1.0
 20
0.0
 30
0.0
  9
$UCSYDIR
 10
0.0
 20
1.0
 30
0.0
  9
$UCSORTHOREF
  2

  9
$UCSORTHOVIEW
 70
     0
  9
$UCSORGTOP
 10
0.0
 20
0.0
 30
0.0
  9
$UCSORGBOTTOM
 10
0.0
 20
0.0
 30
0.0
  9
$UCSORGLEFT
 10
0.0
 20
0.0
 30
0.0
  9
$UCSORGRIGHT
 10
0.0
 20
0.0
 30
0.0
  9
$UCSORGFRONT
 10
0.0
 20
0.0
 30
0.0
  9
$UCSORGBACK
 10
0.0
 20
0.0
 30
0.0
  9
$PUCSBASE
  2

  9
$PUCSNAME
  2

  9
$PUCSORG
 10
0.0
 20
0.0
 30
0.0
  9
$PUCSXDIR
 10
1.0
 20
0.0
 30
0.0
  9
$PUCSYDIR
 10
0.0
 20
1.0
 30
0.0
  9
$PUCSORTHOREF
  2

  9
$PUCSORTHOVIEW
 70
     0
  9
$PUCSORGTOP
 10
0.0
 20
0.0
 30
0.0
  9
$PUCSORGBOTTOM
 10
0.0
 20
0.0
 30
0.0
  9
$PUCSORGLEFT
 10
0.0
 20
0.0
 30
0.0
  9
$PUCSORGRIGHT
 10
0.0
 20
0.0
 30
0.0
  9
$PUCSORGFRONT
 10
0.0
 20
0.0
 30
0.0
  9
$PUCSORGBACK
 10
0.0
 20
0.0
 30
0.0
  9
$USERI1
 70
     0
  9
$USERI2
 70
     0
  9
$USERI3
 70
     0
  9
$USERI4
 70
     0
  9
$USERI5
 70
     0
  9
$USERR1
 40
0.0
  9
$USERR2
 40
0.0
  9
$USERR3
 40
0.0
  9
$USERR4
 40
0.0
  9
$USERR5
 40
0.0
  9
$WORLDVIEW
 70
     1
  9
$SHADEDGE
 70
     3
  9
$SHADEDIF
 70
    70
  9
$TILEMODE
 70
     1
  9
$MAXACTVP
 70
    64
  9
$PINSBASE
 10
0.0
 20
0.0
 30
0.0
  9
$PLIMCHECK
 70
     0
  9
$PEXTMIN
 10
-286.857764
 20
-190.305205
 30
0.0
  9
$PEXTMAX
 10
553.142236
 20
403.694795
 30
0.0
  9
$PLIMMIN
 10
-286.857764
 20
-190.305205
  9
$PLIMMAX
 10
553.142236
 20
403.694795
  9
$UNITMODE
 70
     0
  9
$VISRETAIN
 70
     1
  9
$PLINEGEN
 70
     0
  9
$PSLTSCALE
 70
     1
  9
$TREEDEPTH
 70
  3020
  9
$CMLSTYLE
  2
Standard
  9
$CMLJUST
 70
     0
  9
$CMLSCALE
 40
20.0
  9
$PROXYGRAPHICS
 70
     1
  9
$MEASUREMENT
 70
     1
  9
$CELWEIGHT
370
    -1
  9
$ENDCAPS
280
     0
  9
$JOINSTYLE
280
     0
  9
$LWDISPLAY
290
     0
  9
$INSUNITS
 70
     4
  9
$HYPERLINKBASE
  1

  9
$STYLESHEET
  1

  9
$XEDIT
290
     1
  9
$CEPSNTYPE
380
     0
  9
$PSTYLEMODE
290
     1
  9
$FINGERPRINTGUID
  2
{FAEB1C30-E019-11D5-929B-00C0DF256EC4}
  9
$VERSIONGUID
  2
{FAEB1C32-E019-11D5-929B-00C0DF256EC4}
  9
$EXTNAMES
290
     1
  9
$PSVPSCALE
 40
0.0
  9
$OLESTARTUP
290
     0
  0
ENDSEC
  0
SECTION
  2
CLASSES
  0
CLASS
  1
ACDBDICTIONARYWDFLT
  2
AcDbDictionaryWithDefault
  3
ObjectDBX Classes
 90
        0
280
     0
281
     0
  0
CLASS
  1
ACDBPLACEHOLDER
  2
AcDbPlaceHolder
  3
ObjectDBX Classes
 90
        0
280
     0
281
     0
  0
CLASS
  1
LAYOUT
  2
AcDbLayout
  3
ObjectDBX Classes
 90
        0
280
     0
281
     0
  0
ENDSEC
  0
SECTION
  2
TABLES
  0
TABLE
  2
VPORT
  5
8
330
0
100
AcDbSymbolTable
 70
     2
  0
VPORT
  5
29
330
8
100
AcDbSymbolTableRecord
100
AcDbViewportTableRecord
  2
*ACTIVE
 70
     0
 10
0.0
 20
0.0
 11
1.0
 21
1.0
 12
133.142236
 22
106.694795
 13
0.0
 23
0.0
 14
1.0
 24
1.0
 15
0.0
 25
0.0
 16
0.0
 26
0.0
 36
1.0
 17
0.0
 27
0.0
 37
0.0
 40
594.0
 41
1.414141
 42
50.0
 43
0.0
 44
0.0
 50
0.0
 51
0.0
 71
    16
 72
   100
 73
     1
 74
     0
 75
     0
 76
     0
 77
     0
 78
     0
281
     0
 65
     0
110
0.0
120
0.0
130
0.0
111
1.0
121
0.0
131
0.0
112
0.0
122
1.0
132
0.0
 79
     0
146
0.0
  0
ENDTAB
  0
TABLE
  2
LTYPE
  5
5
330
0
100
AcDbSymbolTable
 70
     3
  0
LTYPE
  5
14
330
5
100
AcDbSymbolTableRecord
100
AcDbLinetypeTableRecord
  2
ByBlock
 70
     0
  3

 72
    65
 73
     0
 40
0.0
  0
LTYPE
  5
15
330
5
100
AcDbSymbolTableRecord
100
AcDbLinetypeTableRecord
  2
ByLayer
 70
     0
  3

 72
    65
 73
     0
 40
0.0
  0
LTYPE
  5
16
330
5
100
AcDbSymbolTableRecord
100
AcDbLinetypeTableRecord
  2
Continuous
 70
     0
  3
Solid line
 72
    65
 73
     0
 40
0.0
  0
LTYPE
  5
2A
330
5
100
AcDbSymbolTableRecord
100
AcDbLinetypeTableRecord
  2
DASHED
 70
     0
  3
__ __ __ __ __
 72
    65
 73
     2
 40
6.25
 49
5.0
 74
     4
 75
     0
340
0
 46
1.0
 50
0.0
 44
0.0
 45
0.0
 49
-1.25
 74
     4
 75
     0
340
0
 46
1.0
 50
0.0
 44
0.0
 45
0.0
  0
LTYPE
  5
150
330
5
100
AcDbSymbolTableRecord
100
AcDbLinetypeTableRecord
  2
DASHDOT
 70
     0
  3
__ . __ . __ . __ . __
 72
    65
 73
     4
 40
7.5
 49
5.0
 74
     4
 75
     0
340
0
 46
1.0
 50
0.0
 44
0.0
 45
0.0
 49
-1.25
 74
     4
 75
     0
340
0
 46
1.0
 50
0.0
 44
0.0
 45
0.0
 49
0.0
 74
     4
 75
     0
340
0
 46
1.0
 50
0.0
 44
0.0
 45
0.0
 49
-1.25
 74
     4
 75
     0
340
0
 46
1.0
 50
0.0
 44
0.0
 45
0.0
  0
ENDTAB
  0
TABLE
  2
LAYER
  5
2
330
0
100
AcDbSymbolTable
 70
     7
  0
LAYER
  5
10
330
2
100
AcDbSymbolTableRecord
100
AcDbLayerTableRecord
  2
0
 70
     0
 62
     7
  6
Continuous
370
    -3
390
F
  0
LAYER
  5
2B
330
2
100
AcDbSymbolTableRecord
100
AcDbLayerTableRecord
  2
LC-INFO-1-2-mm-A3-0
 70
     1
 62
     7
  6
ByBlock
370
    -3
390
F
  0
LAYER
  5
2C
330
2
100
AcDbSymbolTableRecord
100
AcDbLayerTableRecord
  2
LC-CUT-HIDDEN
 70
     0
 62
     7
  6
DASHED
370
    -3
390
F
  0
LAYER
  5
2D
330
2
100
AcDbSymbolTableRecord
100
AcDbLayerTableRecord
  2
LC-VIEWPORT
 70
     0
 62
     7
  6
ByBlock
370
    -3
390
F
  0
LAYER
  5
2E
330
2
100
AcDbSymbolTableRecord
100
AcDbLayerTableRecord
  2
LC-3D-HIDDEN
 70
     0
 62
     9
  6
DASHED
370
    -3
390
F
  0
LAYER
  5
30
330
2
100
AcDbSymbolTableRecord
100
AcDbLayerTableRecord
  2
LC-001-100-D00-0
 70
     0
 62
     1
  6
ByBlock
370
    -3
390
F
  0
LAYER
  5
10A
330
2
100
AcDbSymbolTableRecord
100
AcDbLayerTableRecord
  2
Defpoints
 70
     0
 62
     7
  6
Continuous
290
     0
370
    -3
390
F
  0
ENDTAB
  0
TABLE
  2
STYLE
  5
3
330
0
100
AcDbSymbolTable
 70
     3
  0
STYLE
  5
11
330
3
100
AcDbSymbolTableRecord
100
AcDbTextStyleTableRecord
  2
Standard
 70
     0
 40
0.0
 41
1.0
 50
0.0
 71
     0
 42
2.5
  3
txt
  4

  0
STYLE
  5
2F
330
3
100
AcDbSymbolTableRecord
100
AcDbTextStyleTableRecord
  2
LCTX15-400-0-0-Arial
 70
     0
 40
0.0
 41
0.8
 50
0.0
 71
     0
 42
3.5
  3

  4

1001
ACAD
1000
Arial
1071
 16777218
  0
STYLE
  5
107
330
3
100
AcDbSymbolTableRecord
100
AcDbTextStyleTableRecord
  2
LCTX15-400-0-0pDIN-Schrift
 70
     0
 40
2.5
 41
0.8
 50
15.0
 71
     0
 42
3.5
  3
STANDARD
  4

  0
ENDTAB
  0
TABLE
  2
VIEW
  5
6
330
0
100
AcDbSymbolTable
 70
     0
  0
ENDTAB
  0
TABLE
  2
UCS
  5
7
330
0
100
AcDbSymbolTable
 70
     0
  0
ENDTAB
  0
TABLE
  2
APPID
  5
9
330
0
100
AcDbSymbolTable
 70
     1
  0
APPID
  5
12
330
9
100
AcDbSymbolTableRecord
100
AcDbRegAppTableRecord
  2
ACAD
 70
     0
  0
ENDTAB
  0
TABLE
  2
DIMSTYLE
  5
A
330
0
100
AcDbSymbolTable
 70
     2
100
AcDbDimStyleTable
  0
DIMSTYLE
105
27
330
A
100
AcDbSymbolTableRecord
100
AcDbDimStyleTableRecord
  2
ISO-25
 70
     0
 41
2.5
 42
0.625
 43
3.75
 44
1.25
 73
     0
 74
     0
 77
     1
 78
     8
140
2.5
141
2.5
143
0.03937
147
0.625
171
     3
172
     1
271
     2
272
     2
274
     3
278
    44
283
     0
284
     8
340
11
  0
DIMSTYLE
105
108
102
{ACAD_REACTORS
330
109
330
117
330
124
330
133
330
141
102
}
330
A
100
AcDbSymbolTableRecord
100
AcDbDimStyleTableRecord
  2
LC-DIM-L-0140-02-02
 70
     0
 40
2.0
 41
14.0
 42
0.0
 43
7.5
 44
1.8
 73
     0
 74
     0
 77
     1
 78
     8
 79
     2
140
14.0
141
0.0
146
0.71
147
1.5
176
     2
177
     2
178
     2
179
     2
271
     2
278
    44
289
     1
340
107
  0
ENDTAB
  0
TABLE
  2
BLOCK_RECORD
  5
1
330
0
100
AcDbSymbolTable
 70
    10
  0
BLOCK_RECORD
  5
1F
330
1
100
AcDbSymbolTableRecord
100
AcDbBlockTableRecord
  2
*Model_Space
340
22
  0
BLOCK_RECORD
  5
1B
330
1
100
AcDbSymbolTableRecord
100
AcDbBlockTableRecord
  2
*Paper_Space
340
1E
  0
BLOCK_RECORD
  5
23
330
1
100
AcDbSymbolTableRecord
100
AcDbBlockTableRecord
  2
*Paper_Space0
340
26
  0
BLOCK_RECORD
  5
BB
330
1
100
AcDbSymbolTableRecord
100
AcDbBlockTableRecord
  2
KLON1
340
0
102
{BLKREFS
331
D4
102
}
  0
BLOCK_RECORD
  5
D5
330
1
100
AcDbSymbolTableRecord
100
AcDbBlockTableRecord
  2
KLON2
340
0
102
{BLKREFS
331
E8
102
}
  0
BLOCK_RECORD
  5
E9
330
1
100
AcDbSymbolTableRecord
100
AcDbBlockTableRecord
  2
KLON3
340
0
102
{BLKREFS
331
F9
102
}
  0
BLOCK_RECORD
  5
FA
330
1
100
AcDbSymbolTableRecord
100
AcDbBlockTableRecord
  2
KLON4
340
0
102
{BLKREFS
331
105
102
}
  0
BLOCK_RECORD
  5
10B
330
1
100
AcDbSymbolTableRecord
100
AcDbBlockTableRecord
  2
*D5
340
0
  0
BLOCK_RECORD
  5
118
330
1
100
AcDbSymbolTableRecord
100
AcDbBlockTableRecord
  2
*D6
340
0
  0
BLOCK_RECORD
  5
125
330
1
100
AcDbSymbolTableRecord
100
AcDbBlockTableRecord
  2
*D7
340
0
  0
BLOCK_RECORD
  5
134
330
1
100
AcDbSymbolTableRecord
100
AcDbBlockTableRecord
  2
*D8
340
0
  0
BLOCK_RECORD
  5
142
330
1
100
AcDbSymbolTableRecord
100
AcDbBlockTableRecord
  2
*D9
340
0
  0
ENDTAB
  0
ENDSEC
  0
SECTION
  2
BLOCKS
  0
BLOCK
  5
20
330
1F
100
AcDbEntity
  8
0
100
AcDbBlockBegin
  2
*Model_Space
 70
     0
 71
     0
 10
0.0
 20
0.0
 30
0.0
  3
*Model_Space
  1

  0
ENDBLK
  5
21
330
1F
100
AcDbEntity
  8
0
100
AcDbBlockEnd
  0
BLOCK
  5
1C
330
1B
100
AcDbEntity
 67
     1
  8
0
100
AcDbBlockBegin
  2
*Paper_Space
 70
     0
 71
     0
 10
0.0
 20
0.0
 30
0.0
  3
*Paper_Space
  1

  0
ENDBLK
  5
1D
330
1B
100
AcDbEntity
 67
     1
  8
0
100
AcDbBlockEnd
  0
BLOCK
  5
24
330
23
100
AcDbEntity
  8
0
100
AcDbBlockBegin
  2
*Paper_Space0
 70
     0
 71
     0
 10
0.0
 20
0.0
 30
0.0
  3
*Paper_Space0
  1

  0
ENDBLK
  5
25
330
23
100
AcDbEntity
  8
0
100
AcDbBlockEnd
  0
BLOCK
  5
BC
330
BB
100
AcDbEntity
  8
0
100
AcDbBlockBegin
  2
KLON1
 70
     0
 71
     0
 10
0.0
 20
0.0
 30
0.0
  3
KLON1
  1

  4
KLON1
  0
LINE
  5
BE
330
BB
100
AcDbEntity
  8
LC-001-100-D00-0
 62
     7
370
    25
100
AcDbLine
 10
112.87309
 20
158.353547
 30
0.0
 11
123.022801
 21
168.503257
 31
0.0
  0
LINE
  5
BF
330
BB
100
AcDbEntity
  8
LC-001-100-D00-0
 62
     7
370
    25
100
AcDbLine
 10
108.022801
 20
162.483514
 30
0.0
 11
123.022801
 21
177.483514
 31
0.0
  0
LINE
  5
C0
330
BB
100
AcDbEntity
  8
LC-001-100-D00-0
 62
     7
370
    25
100
AcDbLine
 10
108.022801
 20
171.46377
 30
0.0
 11
121.766028
 21
185.206997
 31
0.0
  0
LINE
  5
C1
330
BB
100
AcDbEntity
  8
LC-001-100-D00-0
 62
     7
370
    25
100
AcDbLine
 10
108.022801
 20
180.444026
 30
0.0
 11
117.074663
 21
189.495888
 31
0.0
  0
LINE
  5
C2
330
BB
100
AcDbEntity
  8
LC-001-100-D00-0
 62
     7
370
    25
100
AcDbLine
 10
106.952066
 20
188.353547
 30
0.0
 11
108.952066
 21
190.353547
 31
0.0
  0
LINE
  5
C3
330
BB
100
AcDbEntity
  8
LC-001-100-D00-0
 62
     7
370
    25
100
AcDbLine
 10
97.971809
 20
188.353547
 30
0.0
 11
99.971809
 21
190.353547
 31
0.0
  0
LINE
  5
C4
330
BB
100
AcDbEntity
  8
LC-001-100-D00-0
 62
     7
370
    25
100
AcDbLine
 10
88.991553
 20
188.353547
 30
0.0
 11
90.991553
 21
190.353547
 31
0.0
  0
LINE
  5
C5
330
BB
100
AcDbEntity
  8
LC-001-100-D00-0
 62
     7
370
    25
100
AcDbLine
 10
50.011297
 20
158.353547
 30
0.0
 11
58.022801
 21
166.36505
 31
0.0
  0
LINE
  5
C6
330
BB
100
AcDbEntity
  8
LC-001-100-D00-0
 62
     7
370
    25
100
AcDbLine
 10
80.011297
 20
188.353547
 30
0.0
 11
82.011297
 21
190.353547
 31
0.0
  0
LINE
  5
C7
330
BB
100
AcDbEntity
  8
LC-001-100-D00-0
 62
     7
370
    25
100
AcDbLine
 10
43.634544
 20
160.957049
 30
0.0
 11
58.022801
 21
175.345306
 31
0.0
  0
LINE
  5
C8
330
BB
100
AcDbEntity
  8
LC-001-100-D00-0
 62
     7
370
    25
100
AcDbLine
 10
71.031041
 20
188.353547
 30
0.0
 11
73.031041
 21
190.353547
 31
0.0
  0
LINE
  5
C9
330
BB
100
AcDbEntity
  8
LC-001-100-D00-0
 62
     7
370
    25
100
AcDbLine
 10
43.022801
 20
169.325562
 30
0.0
 11
58.022801
 21
184.325562
 31
0.0
  0
LINE
  5
CA
330
BB
100
AcDbEntity
  8
LC-001-100-D00-0
 62
     7
370
    25
100
AcDbLine
 10
62.050785
 20
188.353547
 30
0.0
 11
64.050785
 21
190.353547
 31
0.0
  0
LINE
  5
CB
330
BB
100
AcDbEntity
  8
LC-001-100-D00-0
 62
     7
370
    25
100
AcDbLine
 10
43.022801
 20
178.305819
 30
0.0
 11
55.070529
 21
190.353547
 31
0.0
  0
LINE
  5
CC
330
BB
100
AcDbEntity
  8
LC-001-100-D00-0
 62
     7
370
    25
100
AcDbLine
 10
52.011297
 20
160.353547
 30
0.0
 11
56.022801
 21
164.36505
 31
0.0
  0
LINE
  5
CD
330
BB
100
AcDbEntity
  8
LC-001-100-D00-0
 62
     7
370
    25
100
AcDbLine
 10
45.153896
 20
162.476401
 30
0.0
 11
56.022801
 21
173.345306
 31
0.0
  0
LINE
  5
CE
330
BB
100
AcDbEntity
  8
LC-001-100-D00-0
 62
     7
370
    25
100
AcDbLine
 10
45.022801
 20
171.325562
 30
0.0
 11
56.022801
 21
182.325562
 31
0.0
  0
LINE
  5
CF
330
BB
100
AcDbEntity
  8
LC-001-100-D00-0
 62
     7
370
    25
100
AcDbLine
 10
45.022801
 20
180.305819
 30
0.0
 11
53.070529
 21
188.353547
 31
0.0
  0
LINE
  5
D0
330
BB
100
AcDbEntity
  8
LC-001-100-D00-0
 62
     7
370
    25
100
AcDbLine
 10
114.87309
 20
160.353547
 30
0.0
 11
121.022801
 21
166.503257
 31
0.0
  0
LINE
  5
D1
330
BB
100
AcDbEntity
  8
LC-001-100-D00-0
 62
     7
370
    25
100
AcDbLine
 10
110.022801
 20
164.483514
 30
0.0
 11
121.022801
 21
175.483514
 31
0.0
  0
LINE
  5
D2
330
BB
100
AcDbEntity
  8
LC-001-100-D00-0
 62
     7
370
    25
100
AcDbLine
 10
110.022801
 20
173.46377
 30
0.0
 11
120.279695
 21
183.720664
 31
0.0
  0
LINE
  5
D3
330
BB
100
AcDbEntity
  8
LC-001-100-D00-0
 62
     7
370
    25
100
AcDbLine
 10
110.022801
 20
182.444026
 30
0.0
 11
115.529467
 21
187.950692
 31
0.0
  0
ENDBLK
  5
BD
330
BB
100
AcDbEntity
  8
0
100
AcDbBlockEnd
  0
BLOCK
  5
D6
330
D5
100
AcDbEntity
  8
0
100
AcDbBlockBegin
  2
KLON2
 70
     0
 71
     0
 10
0.0
 20
0.0
 30
0.0
  3
KLON2
  1

  4
KLON2
  0
LINE
  5
D8
330
D5
100
AcDbEntity
  8
LC-001-100-D00-0
 62
     7
370
    25
100
AcDbLine
 10
62.622801
 20
144.024282
 30
0.0
 11
64.122801
 21
145.524282
 31
0.0
  0
LINE
  5
D9
330
D5
100
AcDbEntity
  8
LC-001-100-D00-0
 62
     7
370
    25
100
AcDbLine
 10
58.922801
 20
149.304538
 30
0.0
 11
60.422801
 21
150.804538
 31
0.0
  0
LINE
  5
DA
330
D5
100
AcDbEntity
  8
LC-001-100-D00-0
 62
     7
370
    25
100
AcDbLine
 10
61.971809
 20
152.353547
 30
0.0
 11
63.471809
 21
153.853547
 31
0.0
  0
LINE
  5
DB
330
D5
100
AcDbEntity
  8
LC-001-100-D00-0
 62
     7
370
    25
100
AcDbLine
 10
65.272801
 20
155.654538
 30
0.0
 11
69.272801
 21
159.654538
 31
0.0
  0
LINE
  5
DC
330
D5
100
AcDbEntity
  8
LC-001-100-D00-0
 62
     7
370
    25
100
AcDbLine
 10
52.991553
 20
152.353547
 30
0.0
 11
54.491553
 21
153.853547
 31
0.0
  0
LINE
  5
DD
330
D5
100
AcDbEntity
  8
LC-001-100-D00-0
 62
     7
370
    25
100
AcDbLine
 10
65.272801
 20
164.634794
 30
0.0
 11
69.272801
 21
168.634794
 31
0.0
  0
LINE
  5
DE
330
D5
100
AcDbEntity
  8
LC-001-100-D00-0
 62
     7
370
    25
100
AcDbLine
 10
44.530663
 20
152.872912
 30
0.0
 11
45.758377
 21
154.100626
 31
0.0
  0
LINE
  5
DF
330
D5
100
AcDbEntity
  8
LC-001-100-D00-0
 62
     7
370
    25
100
AcDbLine
 10
65.272801
 20
173.61505
 30
0.0
 11
69.272801
 21
177.61505
 31
0.0
  0
LINE
  5
E0
330
D5
100
AcDbEntity
  8
LC-001-100-D00-0
 62
     7
370
    25
100
AcDbLine
 10
39.056142
 20
156.378647
 30
0.0
 11
42.272801
 21
159.595306
 31
0.0
  0
LINE
  5
E1
330
D5
100
AcDbEntity
  8
LC-001-100-D00-0
 62
     7
370
    25
100
AcDbLine
 10
65.272801
 20
182.595306
 30
0.0
 11
68.587736
 21
185.910242
 31
0.0
  0
LINE
  5
E2
330
D5
100
AcDbEntity
  8
LC-001-100-D00-0
 62
     7
370
    25
100
AcDbLine
 10
36.170955
 20
162.473717
 30
0.0
 11
42.272801
 21
168.575562
 31
0.0
  0
LINE
  5
E3
330
D5
100
AcDbEntity
  8
LC-001-100-D00-0
 62
     7
370
    25
100
AcDbLine
 10
36.022801
 20
171.305819
 30
0.0
 11
42.272801
 21
177.555819
 31
0.0
  0
LINE
  5
E4
330
D5
100
AcDbEntity
  8
LC-001-100-D00-0
 62
     7
370
    25
100
AcDbLine
 10
35.022801
 20
179.286075
 30
0.0
 11
42.272801
 21
186.536075
 31
0.0
  0
LINE
  5
E5
330
D5
100
AcDbEntity
  8
LC-001-100-D00-0
 62
     7
370
    25
100
AcDbLine
 10
33.322801
 20
186.566331
 30
0.0
 11
34.714976
 21
187.958506
 31
0.0
  0
LINE
  5
E6
330
D5
100
AcDbEntity
  8
LC-001-100-D00-0
 62
     7
370
    25
100
AcDbLine
 10
36.372801
 20
189.616331
 30
0.0
 11
41.771016
 21
195.014546
 31
0.0
  0
LINE
  5
E7
330
D5
100
AcDbEntity
  8
LC-001-100-D00-0
 62
     7
370
    25
100
AcDbLine
 10
33.322801
 20
195.546587
 30
0.0
 11
37.12976
 21
199.353547
 31
0.0
  0
ENDBLK
  5
D7
330
D5
100
AcDbEntity
  8
0
100
AcDbBlockEnd
  0
BLOCK
  5
EA
330
E9
100
AcDbEntity
  8
0
100
AcDbBlockBegin
  2
KLON3
 70
     0
 71
     0
 10
0.0
 20
0.0
 30
0.0
  3
KLON3
  1

  4
KLON3
  0
LINE
  5
EC
330
E9
100
AcDbEntity
  8
LC-001-100-D00-0
 62
     7
370
    25
100
AcDbLine
 10
115.853346
 20
152.353547
 30
0.0
 11
117.353346
 21
153.853547
 31
0.0
  0
LINE
  5
ED
330
E9
100
AcDbEntity
  8
LC-001-100-D00-0
 62
     7
370
    25
100
AcDbLine
 10
123.772801
 20
160.273001
 30
0.0
 11
130.022801
 21
166.523001
 31
0.0
  0
LINE
  5
EE
330
E9
100
AcDbEntity
  8
LC-001-100-D00-0
 62
     7
370
    25
100
AcDbLine
 10
101.922801
 20
147.403257
 30
0.0
 11
103.422801
 21
148.903257
 31
0.0
  0
LINE
  5
EF
330
E9
100
AcDbEntity
  8
LC-001-100-D00-0
 62
     7
370
    25
100
AcDbLine
 10
105.622801
 20
151.103257
 30
0.0
 11
108.37309
 21
153.853547
 31
0.0
  0
LINE
  5
F0
330
E9
100
AcDbEntity
  8
LC-001-100-D00-0
 62
     7
370
    25
100
AcDbLine
 10
123.772801
 20
169.253257
 30
0.0
 11
130.022801
 21
175.503257
 31
0.0
  0
LINE
  5
F1
330
E9
100
AcDbEntity
  8
LC-001-100-D00-0
 62
     7
370
    25
100
AcDbLine
 10
97.892834
 20
152.353547
 30
0.0
 11
100.772801
 21
155.233514
 31
0.0
  0
LINE
  5
F2
330
E9
100
AcDbEntity
  8
LC-001-100-D00-0
 62
     7
370
    25
100
AcDbLine
 10
123.772801
 20
178.233514
 30
0.0
 11
130.022801
 21
184.483514
 31
0.0
  0
LINE
  5
F3
330
E9
100
AcDbEntity
  8
LC-001-100-D00-0
 62
     7
370
    25
100
AcDbLine
 10
130.892834
 20
185.353547
 30
0.0
 11
132.722801
 21
187.183514
 31
0.0
  0
LINE
  5
F4
330
E9
100
AcDbEntity
  8
LC-001-100-D00-0
 62
     7
370
    25
100
AcDbLine
 10
96.772801
 20
160.21377
 30
0.0
 11
100.772801
 21
164.21377
 31
0.0
  0
LINE
  5
F5
330
E9
100
AcDbEntity
  8
LC-001-100-D00-0
 62
     7
370
    25
100
AcDbLine
 10
123.772801
 20
187.21377
 30
0.0
 11
132.722801
 21
196.16377
 31
0.0
  0
LINE
  5
F6
330
E9
100
AcDbEntity
  8
LC-001-100-D00-0
 62
     7
370
    25
100
AcDbLine
 10
133.912578
 20
197.353547
 30
0.0
 11
134.984909
 21
198.425878
 31
0.0
  0
LINE
  5
F7
330
E9
100
AcDbEntity
  8
LC-001-100-D00-0
 62
     7
370
    25
100
AcDbLine
 10
96.772801
 20
169.194026
 30
0.0
 11
100.772801
 21
173.194026
 31
0.0
  0
LINE
  5
F8
330
E9
100
AcDbEntity
  8
LC-001-100-D00-0
 62
     7
370
    25
100
AcDbLine
 10
96.772801
 20
178.174282
 30
0.0
 11
100.772801
 21
182.174282
 31
0.0
  0
ENDBLK
  5
EB
330
E9
100
AcDbEntity
  8
0
100
AcDbBlockEnd
  0
BLOCK
  5
FB
330
FA
100
AcDbEntity
  8
0
100
AcDbBlockBegin
  2
KLON4
 70
     0
 71
     0
 10
0.0
 20
0.0
 30
0.0
  3
KLON4
  1

  4
KLON4
  0
LINE
  5
FD
330
FA
100
AcDbEntity
  8
LC-001-100-D00-0
 62
     7
370
    25
100
AcDbLine
 10
105.253346
 20
141.753547
 30
0.0
 11
105.897801
 21
142.398001
 31
0.0
  0
LINE
  5
FE
330
FA
100
AcDbEntity
  8
LC-001-100-D00-0
 62
     7
370
    25
100
AcDbLine
 10
96.27309
 20
141.753547
 30
0.0
 11
97.87309
 21
143.353547
 31
0.0
  0
LINE
  5
FF
330
FA
100
AcDbEntity
  8
LC-001-100-D00-0
 62
     7
370
    25
100
AcDbLine
 10
102.690013
 20
148.17047
 30
0.0
 11
105.469929
 21
150.950386
 31
0.0
  0
LINE
  5
100
330
FA
100
AcDbEntity
  8
LC-001-100-D00-0
 62
     7
370
    25
100
AcDbLine
 10
87.292834
 20
141.753547
 30
0.0
 11
88.892834
 21
143.353547
 31
0.0
  0
LINE
  5
101
330
FA
100
AcDbEntity
  8
LC-001-100-D00-0
 62
     7
370
    25
100
AcDbLine
 10
78.312578
 20
141.753547
 30
0.0
 11
79.912578
 21
143.353547
 31
0.0
  0
LINE
  5
102
330
FA
100
AcDbEntity
  8
LC-001-100-D00-0
 62
     7
370
    25
100
AcDbLine
 10
69.332322
 20
141.753547
 30
0.0
 11
70.932322
 21
143.353547
 31
0.0
  0
LINE
  5
103
330
FA
100
AcDbEntity
  8
LC-001-100-D00-0
 62
     7
370
    25
100
AcDbLine
 10
60.352066
 20
141.753547
 30
0.0
 11
63.355589
 21
144.75707
 31
0.0
  0
LINE
  5
104
330
FA
100
AcDbEntity
  8
LC-001-100-D00-0
 62
     7
370
    25
100
AcDbLine
 10
60.578244
 20
150.959981
 30
0.0
 11
61.971809
 21
152.353547
 31
0.0
  0
ENDBLK
  5
FC
330
FA
100
AcDbEntity
  8
0
100
AcDbBlockEnd
  0
BLOCK
  5
115
330
10B
100
AcDbEntity
  8
0
100
AcDbBlockBegin
  2
*D5
 70
     1
 71
     0
 10
0.0
 20
0.0
 30
0.0
  3
*D5
  1

  0
LINE
  5
10C
330
10B
100
AcDbEntity
  8
LC-001-100-D00-0
 62
     2
370
    -2
100
AcDbLine
 10
30.522801
 20
197.353547
 30
0.0
 11
30.522801
 21
224.936795
 31
0.0
  0
LINE
  5
10D
330
10B
100
AcDbEntity
  8
LC-001-100-D00-0
 62
     2
370
    -2
100
AcDbLine
 10
135.522801
 20
197.353547
 30
0.0
 11
135.522801
 21
224.936795
 31
0.0
  0
LINE
  5
10E
330
10B
100
AcDbEntity
  8
LC-001-100-D00-0
 62
     2
370
    -2
100
AcDbLine
 10
58.522801
 20
221.336795
 30
0.0
 11
107.522801
 21
221.336795
 31
0.0
  0
SOLID
  5
10F
330
10B
100
AcDbEntity
  8
LC-001-100-D00-0
 62
     2
100
AcDbTrace
 10
58.522801
 20
226.003461
 30
0.0
 11
58.522801
 21
216.670128
 31
0.0
 12
30.522801
 22
221.336795
 32
0.0
 13
30.522801
 23
221.336795
 33
0.0
  0
SOLID
  5
110
330
10B
100
AcDbEntity
  8
LC-001-100-D00-0
 62
     2
100
AcDbTrace
 10
107.522801
 20
216.670128
 30
0.0
 11
107.522801
 21
226.003461
 31
0.0
 12
135.522801
 22
221.336795
 32
0.0
 13
135.522801
 23
221.336795
 33
0.0
  0
MTEXT
  5
111
330
10B
100
AcDbEntity
  8
LC-001-100-D00-0
 62
     2
100
AcDbMText
 10
75.418804
 20
252.136795
 30
0.0
 40
28.0
 41
0.0
 71
     5
 72
     1
  1
\A1;%%c105
  7
LCTX15-400-0-0pDIN-Schrift
 73
     1
 44
1.0
  0
POINT
  5
112
330
10B
100
AcDbEntity
  8
Defpoints
 62
     0
100
AcDbPoint
 10
30.522801
 20
197.353547
 30
0.0
  0
POINT
  5
113
330
10B
100
AcDbEntity
  8
Defpoints
 62
     0
100
AcDbPoint
 10
135.522801
 20
197.353547
 30
0.0
  0
POINT
  5
114
330
10B
100
AcDbEntity
  8
Defpoints
 62
     0
100
AcDbPoint
 10
135.522801
 20
221.336795
 30
0.0
  0
ENDBLK
  5
116
330
10B
100
AcDbEntity
  8
0
100
AcDbBlockEnd
  0
BLOCK
  5
122
330
118
100
AcDbEntity
  8
0
100
AcDbBlockBegin
  2
*D6
 70
     1
 71
     0
 10
0.0
 20
0.0
 30
0.0
  3
*D6
  1

  0
LINE
  5
119
330
118
100
AcDbEntity
  8
LC-001-100-D00-0
 62
     2
370
    -2
100
AcDbLine
 10
36.022801
 20
164.353547
 30
0.0
 11
36.022801
 21
87.056795
 31
0.0
  0
LINE
  5
11A
330
118
100
AcDbEntity
  8
LC-001-100-D00-0
 62
     2
370
    -2
100
AcDbLine
 10
130.022801
 20
164.353547
 30
0.0
 11
130.022801
 21
87.056795
 31
0.0
  0
LINE
  5
11B
330
118
100
AcDbEntity
  8
LC-001-100-D00-0
 62
     2
370
    -2
100
AcDbLine
 10
64.022801
 20
90.656795
 30
0.0
 11
102.022801
 21
90.656795
 31
0.0
  0
SOLID
  5
11C
330
118
100
AcDbEntity
  8
LC-001-100-D00-0
 62
     2
100
AcDbTrace
 10
64.022801
 20
95.323461
 30
0.0
 11
64.022801
 21
85.990128
 31
0.0
 12
36.022801
 22
90.656795
 32
0.0
 13
36.022801
 23
90.656795
 33
0.0
  0
SOLID
  5
11D
330
118
100
AcDbEntity
  8
LC-001-100-D00-0
 62
     2
100
AcDbTrace
 10
102.022801
 20
85.990128
 30
0.0
 11
102.022801
 21
95.323461
 31
0.0
 12
130.022801
 22
90.656795
 32
0.0
 13
130.022801
 23
90.656795
 33
0.0
  0
MTEXT
  5
11E
330
118
100
AcDbEntity
  8
LC-001-100-D00-0
 62
     2
100
AcDbMText
 10
78.625661
 20
121.456795
 30
0.0
 40
28.0
 41
0.0
 71
     5
 72
     1
  1
\A1;%%c94
  7
LCTX15-400-0-0pDIN-Schrift
 73
     1
 44
1.0
  0
POINT
  5
11F
330
118
100
AcDbEntity
  8
Defpoints
 62
     0
100
AcDbPoint
 10
36.022801
 20
164.353547
 30
0.0
  0
POINT
  5
120
330
118
100
AcDbEntity
  8
Defpoints
 62
     0
100
AcDbPoint
 10
130.022801
 20
164.353547
 30
0.0
  0
POINT
  5
121
330
118
100
AcDbEntity
  8
Defpoints
 62
     0
100
AcDbPoint
 10
130.022801
 20
90.656795
 30
0.0
  0
ENDBLK
  5
123
330
118
100
AcDbEntity
  8
0
100
AcDbBlockEnd
  0
BLOCK
  5
131
330
125
100
AcDbEntity
  8
0
100
AcDbBlockBegin
  2
*D7
 70
     1
 71
     0
 10
0.0
 20
0.0
 30
0.0
  3
*D7
  1

  0
LINE
  5
126
330
125
100
AcDbEntity
  8
LC-001-100-D00-0
 62
     2
370
    -2
100
AcDbLine
 10
48.022801
 20
158.353547
 30
0.0
 11
13.585778
 21
158.353547
 31
0.0
  0
LINE
  5
127
330
125
100
AcDbEntity
  8
LC-001-100-D00-0
 62
     2
370
    -2
100
AcDbLine
 10
59.022801
 20
188.353547
 30
0.0
 11
13.585778
 21
188.353547
 31
0.0
  0
LINE
  5
128
330
125
100
AcDbEntity
  8
LC-001-100-D00-0
 62
     2
370
    -2
100
AcDbLine
 10
17.185778
 20
130.353547
 30
0.0
 11
17.185778
 21
102.353547
 31
0.0
  0
LINE
  5
129
330
125
100
AcDbEntity
  8
LC-001-100-D00-0
 62
     2
370
    -2
100
AcDbLine
 10
17.185778
 20
216.353547
 30
0.0
 11
17.185778
 21
244.353547
 31
0.0
  0
LINE
  5
12A
330
125
100
AcDbEntity
  8
LC-001-100-D00-0
 62
     2
370
    -2
100
AcDbLine
 10
17.185778
 20
158.353547
 30
0.0
 11
17.185778
 21
188.353547
 31
0.0
  0
SOLID
  5
12B
330
125
100
AcDbEntity
  8
LC-001-100-D00-0
 62
     2
100
AcDbTrace
 10
21.852444
 20
130.353547
 30
0.0
 11
12.519111
 21
130.353547
 31
0.0
 12
17.185778
 22
158.353547
 32
0.0
 13
17.185778
 23
158.353547
 33
0.0
  0
SOLID
  5
12C
330
125
100
AcDbEntity
  8
LC-001-100-D00-0
 62
     2
100
AcDbTrace
 10
12.519111
 20
216.353547
 30
0.0
 11
21.852444
 21
216.353547
 31
0.0
 12
17.185778
 22
188.353547
 32
0.0
 13
17.185778
 23
188.353547
 33
0.0
  0
MTEXT
  5
12D
330
125
100
AcDbEntity
  8
LC-001-100-D00-0
 62
     2
100
AcDbMText
 10
-13.614222
 20
174.096472
 30
0.0
 40
28.0
 41
0.0
 71
     5
 72
     1
  1
\A1;30
  7
LCTX15-400-0-0pDIN-Schrift
 11
6.123031769111886E-17
 21
1.0
 31
0.0
 73
     1
 44
1.0
  0
POINT
  5
12E
330
125
100
AcDbEntity
  8
Defpoints
 62
     0
100
AcDbPoint
 10
48.022801
 20
158.353547
 30
0.0
  0
POINT
  5
12F
330
125
100
AcDbEntity
  8
Defpoints
 62
     0
100
AcDbPoint
 10
59.022801
 20
188.353547
 30
0.0
  0
POINT
  5
130
330
125
100
AcDbEntity
  8
Defpoints
 62
     0
100
AcDbPoint
 10
17.185778
 20
188.353547
 30
0.0
  0
ENDBLK
  5
132
330
125
100
AcDbEntity
  8
0
100
AcDbBlockEnd
  0
BLOCK
  5
13F
330
134
100
AcDbEntity
  8
0
100
AcDbBlockBegin
  2
*D8
 70
     1
 71
     0
 10
0.0
 20
0.0
 30
0.0
  3
*D8
  1

  0
LINE
  5
135
330
134
100
AcDbEntity
  8
LC-001-100-D00-0
 62
     2
370
    -2
100
AcDbLine
 10
34.522801
 20
199.353547
 30
0.0
 11
-25.455869
 21
199.353547
 31
0.0
  0
LINE
  5
136
330
134
100
AcDbEntity
  8
LC-001-100-D00-0
 62
     2
370
    -2
100
AcDbLine
 10
48.022801
 20
152.353547
 30
0.0
 11
-25.455869
 21
152.353547
 31
0.0
  0
LINE
  5
137
330
134
100
AcDbEntity
  8
LC-001-100-D00-0
 62
     2
370
    -2
100
AcDbLine
 10
-21.855869
 20
124.353547
 30
0.0
 11
-21.855869
 21
96.353547
 31
0.0
  0
LINE
  5
138
330
134
100
AcDbEntity
  8
LC-001-100-D00-0
 62
     2
370
    -2
100
AcDbLine
 10
-21.855869
 20
227.353547
 30
0.0
 11
-21.855869
 21
234.872987
 31
0.0
  0
SOLID
  5
139
330
134
100
AcDbEntity
  8
LC-001-100-D00-0
 62
     2
100
AcDbTrace
 10
-26.522536
 20
227.353547
 30
0.0
 11
-17.189203
 21
227.353547
 31
0.0
 12
-21.855869
 22
199.353547
 32
0.0
 13
-21.855869
 23
199.353547
 33
0.0
  0
SOLID
  5
13A
330
134
100
AcDbEntity
  8
LC-001-100-D00-0
 62
     2
100
AcDbTrace
 10
-17.189203
 20
124.353547
 30
0.0
 11
-26.522536
 21
124.353547
 31
0.0
 12
-21.855869
 22
152.353547
 32
0.0
 13
-21.855869
 23
152.353547
 33
0.0
  0
MTEXT
  5
13B
330
134
100
AcDbEntity
  8
LC-001-100-D00-0
 62
     2
100
AcDbMText
 10
-52.655869
 20
211.238795
 30
0.0
 40
28.0
 41
0.0
 71
     5
 72
     1
  1
\A1;47
  7
LCTX15-400-0-0pDIN-Schrift
 11
6.123031769111886E-17
 21
1.0
 31
0.0
 73
     1
 44
1.0
  0
POINT
  5
13C
330
134
100
AcDbEntity
  8
Defpoints
 62
     0
100
AcDbPoint
 10
34.522801
 20
199.353547
 30
0.0
  0
POINT
  5
13D
330
134
100
AcDbEntity
  8
Defpoints
 62
     0
100
AcDbPoint
 10
48.022801
 20
152.353547
 30
0.0
  0
POINT
  5
13E
330
134
100
AcDbEntity
  8
Defpoints
 62
     0
100
AcDbPoint
 10
-21.855869
 20
152.353547
 30
0.0
  0
ENDBLK
  5
140
330
134
100
AcDbEntity
  8
0
100
AcDbBlockEnd
  0
BLOCK
  5
14E
330
142
100
AcDbEntity
  8
0
100
AcDbBlockBegin
  2
*D9
 70
     1
 71
     0
 10
0.0
 20
0.0
 30
0.0
  3
*D9
  1

  0
LINE
  5
143
330
142
100
AcDbEntity
  8
LC-001-100-D00-0
 62
     2
370
    -2
100
AcDbLine
 10
34.522801
 20
199.353547
 30
0.0
 11
-67.145015
 21
199.353547
 31
0.0
  0
LINE
  5
144
330
142
100
AcDbEntity
  8
LC-001-100-D00-0
 62
     2
370
    -2
100
AcDbLine
 10
60.147801
 20
141.753547
 30
0.0
 11
-67.145015
 21
141.753547
 31
0.0
  0
LINE
  5
145
330
142
100
AcDbEntity
  8
LC-001-100-D00-0
 62
     2
370
    -2
100
AcDbLine
 10
-63.545015
 20
227.353547
 30
0.0
 11
-63.545015
 21
255.353547
 31
0.0
  0
LINE
  5
146
330
142
100
AcDbEntity
  8
LC-001-100-D00-0
 62
     2
370
    -2
100
AcDbLine
 10
-63.545015
 20
113.753547
 30
0.0
 11
-63.545015
 21
85.753547
 31
0.0
  0
LINE
  5
147
330
142
100
AcDbEntity
  8
LC-001-100-D00-0
 62
     2
370
    -2
100
AcDbLine
 10
-63.545015
 20
199.353547
 30
0.0
 11
-63.545015
 21
141.753547
 31
0.0
  0
SOLID
  5
148
330
142
100
AcDbEntity
  8
LC-001-100-D00-0
 62
     2
100
AcDbTrace
 10
-68.211682
 20
227.353547
 30
0.0
 11
-58.878348
 21
227.353547
 31
0.0
 12
-63.545015
 22
199.353547
 32
0.0
 13
-63.545015
 23
199.353547
 33
0.0
  0
SOLID
  5
149
330
142
100
AcDbEntity
  8
LC-001-100-D00-0
 62
     2
100
AcDbTrace
 10
-58.878348
 20
113.753547
 30
0.0
 11
-68.211682
 21
113.753547
 31
0.0
 12
-63.545015
 22
141.753547
 32
0.0
 13
-63.545015
 23
141.753547
 33
0.0
  0
MTEXT
  5
14A
330
142
100
AcDbEntity
  8
LC-001-100-D00-0
 62
     2
100
AcDbMText
 10
-94.345015
 20
189.854795
 30
0.0
 40
28.0
 41
0.0
 71
     5
 72
     1
  1
\A1;57,6
  7
LCTX15-400-0-0pDIN-Schrift
 11
6.123031769111886E-17
 21
1.0
 31
0.0
 73
     1
 44
1.0
  0
POINT
  5
14B
330
142
100
AcDbEntity
  8
Defpoints
 62
     0
100
AcDbPoint
 10
34.522801
 20
199.353547
 30
0.0
  0
POINT
  5
14C
330
142
100
AcDbEntity
  8
Defpoints
 62
     0
100
AcDbPoint
 10
60.147801
 20
141.753547
 30
0.0
  0
POINT
  5
14D
330
142
100
AcDbEntity
  8
Defpoints
 62
     0
100
AcDbPoint
 10
-63.545015
 20
141.753547
 30
0.0
  0
ENDBLK
  5
14F
330
142
100
AcDbEntity
  8
0
100
AcDbBlockEnd
  0
ENDSEC
  0
SECTION
  2
ENTITIES
  0
CIRCLE
  5
31
330
1F
100
AcDbEntity
  8
LC-001-100-D00-0
 62
     7
370
    50
100
AcDbCircle
 10
34.022801
 20
190.353547
 30
0.0
 40
2.5
  0
CIRCLE
  5
32
330
1F
100
AcDbEntity
  8
LC-001-100-D00-0
 62
     7
370
    50
100
AcDbCircle
 10
132.022801
 20
190.353547
 30
0.0
 40
2.500000000000057
  0
LINE
  5
33
330
1F
100
AcDbEntity
  8
LC-001-100-D00-0
 62
     7
370
    50
100
AcDbLine
 10
102.690013
 20
143.353547
 30
0.0
 11
63.355589
 21
143.353547
 31
0.0
  0
LINE
  5
34
330
1F
100
AcDbEntity
  8
LC-001-100-D00-0
 62
     7
370
    50
100
AcDbLine
 10
102.690013
 20
149.353547
 30
0.0
 11
102.690013
 21
143.353547
 31
0.0
  0
LINE
  5
35
330
1F
100
AcDbEntity
  8
LC-001-100-D00-0
 62
     7
370
    50
100
AcDbLine
 10
103.493861
 20
152.353547
 30
0.0
 11
102.690013
 21
149.353547
 31
0.0
  0
LINE
  5
36
330
1F
100
AcDbEntity
  8
LC-001-100-D00-0
 62
     7
370
    50
100
AcDbLine
 10
105.093953
 20
152.353547
 30
0.0
 11
103.493861
 21
152.353547
 31
0.0
  0
LINE
  5
37
330
1F
100
AcDbEntity
  8
LC-001-100-D00-0
 62
     7
370
    50
100
AcDbLine
 10
105.897801
 20
149.353547
 30
0.0
 11
105.093953
 21
152.353547
 31
0.0
  0
LINE
  5
38
330
1F
100
AcDbEntity
  8
LC-001-100-D00-0
 62
     7
370
    50
100
AcDbLine
 10
105.897801
 20
149.353547
 30
0.0
 11
105.897801
 21
141.753547
 31
0.0
  0
LINE
  5
39
330
1F
100
AcDbEntity
  8
LC-001-100-D00-0
 62
     7
370
    50
100
AcDbLine
 10
105.897801
 20
141.753547
 30
0.0
 11
60.147801
 21
141.753547
 31
0.0
  0
LINE
  5
3A
330
1F
100
AcDbEntity
  8
LC-001-100-D00-0
 62
     7
370
    50
100
AcDbLine
 10
60.147801
 20
141.753547
 30
0.0
 11
60.147801
 21
149.353547
 31
0.0
  0
LINE
  5
3B
330
1F
100
AcDbEntity
  8
LC-001-100-D00-0
 62
     7
370
    50
100
AcDbLine
 10
60.951648
 20
152.353547
 30
0.0
 11
60.147801
 21
149.353547
 31
0.0
  0
LINE
  5
3C
330
1F
100
AcDbEntity
  8
LC-001-100-D00-0
 62
     7
370
    50
100
AcDbLine
 10
62.551741
 20
152.353547
 30
0.0
 11
60.951648
 21
152.353547
 31
0.0
  0
LINE
  5
3D
330
1F
100
AcDbEntity
  8
LC-001-100-D00-0
 62
     7
370
    50
100
AcDbLine
 10
63.355589
 20
149.353547
 30
0.0
 11
62.551741
 21
152.353547
 31
0.0
  0
LINE
  5
3E
330
1F
100
AcDbEntity
  8
LC-001-100-D00-0
 62
     7
370
    50
100
AcDbLine
 10
63.355589
 20
149.353547
 30
0.0
 11
63.355589
 21
143.353547
 31
0.0
  0
ARC
  5
3F
330
1F
100
AcDbEntity
  8
LC-001-100-D00-0
 62
     7
370
    50
100
AcDbCircle
 10
118.022801
 20
164.353547
 30
0.0
 40
10.5
100
AcDbArc
 50
270.0
 51
303.203823
  0
ARC
  5
40
330
1F
100
AcDbEntity
  8
LC-001-100-D00-0
 62
     7
370
    50
100
AcDbCircle
 10
48.022801
 20
164.353547
 30
0.0
 40
10.50000000000002
100
AcDbArc
 50
236.796177
 51
270.0
  0
LINE
  5
41
330
1F
100
AcDbEntity
  8
LC-001-100-D00-0
 62
     7
370
    50
100
AcDbLine
 10
36.372801
 20
188.103547
 30
0.0
 11
33.322801
 21
187.836706
 31
0.0
  0
LINE
  5
42
330
1F
100
AcDbEntity
  8
LC-001-100-D00-0
 62
     7
370
    50
100
AcDbLine
 10
36.372801
 20
192.603547
 30
0.0
 11
36.372801
 21
188.103547
 31
0.0
  0
LINE
  5
43
330
1F
100
AcDbEntity
  8
LC-001-100-D00-0
 62
     7
370
    50
100
AcDbLine
 10
33.322801
 20
192.870387
 30
0.0
 11
36.372801
 21
192.603547
 31
0.0
  0
LINE
  5
44
330
1F
100
AcDbEntity
  8
LC-001-100-D00-0
 62
     7
370
    50
100
AcDbLine
 10
33.322801
 20
197.353547
 30
0.0
 11
33.322801
 21
192.870387
 31
0.0
  0
LINE
  5
45
330
1F
100
AcDbEntity
  8
LC-001-100-D00-0
 62
     7
370
    50
100
AcDbLine
 10
33.322801
 20
197.353547
 30
0.0
 11
30.522801
 21
197.353547
 31
0.0
  0
LINE
  5
46
330
1F
100
AcDbEntity
  8
LC-001-100-D00-0
 62
     7
370
    50
100
AcDbLine
 10
30.522801
 20
197.353547
 30
0.0
 11
30.522801
 21
198.28175
 31
0.0
  0
LINE
  5
47
330
1F
100
AcDbEntity
  8
LC-001-100-D00-0
 62
     7
370
    50
100
AcDbLine
 10
34.522801
 20
199.353547
 30
0.0
 11
30.522801
 21
198.28175
 31
0.0
  0
LINE
  5
48
330
1F
100
AcDbEntity
  8
LC-001-100-D00-0
 62
     7
370
    50
100
AcDbLine
 10
37.522801
 20
199.353547
 30
0.0
 11
34.522801
 21
199.353547
 31
0.0
  0
LINE
  5
49
330
1F
100
AcDbEntity
  8
LC-001-100-D00-0
 62
     7
370
    50
100
AcDbLine
 10
37.522801
 20
196.353547
 30
0.0
 11
37.522801
 21
199.353547
 31
0.0
  0
LINE
  5
4A
330
1F
100
AcDbEntity
  8
LC-001-100-D00-0
 62
     7
370
    50
100
AcDbLine
 10
37.522801
 20
196.353547
 30
0.0
 11
39.272801
 21
196.353547
 31
0.0
  0
ARC
  5
4B
330
1F
100
AcDbEntity
  8
LC-001-100-D00-0
 62
     7
370
    50
100
AcDbCircle
 10
39.272801
 20
193.353547
 30
0.0
 40
3.0
100
AcDbArc
 50
0.0
 51
90.0
  0
LINE
  5
4C
330
1F
100
AcDbEntity
  8
LC-001-100-D00-0
 62
     7
370
    50
100
AcDbLine
 10
42.272801
 20
193.353547
 30
0.0
 11
42.272801
 21
155.567905
 31
0.0
  0
LINE
  5
4D
330
1F
100
AcDbEntity
  8
LC-001-100-D00-0
 62
     7
370
    50
100
AcDbLine
 10
65.272801
 20
153.853547
 30
0.0
 11
48.022801
 21
153.853547
 31
0.0
  0
LINE
  5
4E
330
1F
100
AcDbEntity
  8
LC-001-100-D00-0
 62
     7
370
    50
100
AcDbLine
 10
65.272801
 20
188.353547
 30
0.0
 11
65.272801
 21
153.853547
 31
0.0
  0
LINE
  5
4F
330
1F
100
AcDbEntity
  8
LC-001-100-D00-0
 62
     7
370
    50
100
AcDbLine
 10
67.933055
 20
188.353547
 30
0.0
 11
65.272801
 21
188.353547
 31
0.0
  0
LINE
  5
50
330
1F
100
AcDbEntity
  8
LC-001-100-D00-0
 62
     7
370
    50
100
AcDbLine
 10
69.272801
 20
183.353547
 30
0.0
 11
67.933055
 21
188.353547
 31
0.0
  0
LINE
  5
51
330
1F
100
AcDbEntity
  8
LC-001-100-D00-0
 62
     7
370
    50
100
AcDbLine
 10
69.272801
 20
152.353547
 30
0.0
 11
69.272801
 21
183.353547
 31
0.0
  0
LINE
  5
52
330
1F
100
AcDbEntity
  8
LC-001-100-D00-0
 62
     7
370
    50
100
AcDbLine
 10
64.122801
 20
152.353547
 30
0.0
 11
69.272801
 21
152.353547
 31
0.0
  0
LINE
  5
53
330
1F
100
AcDbEntity
  8
LC-001-100-D00-0
 62
     7
370
    50
100
AcDbLine
 10
64.122801
 20
152.353547
 30
0.0
 11
64.122801
 21
143.853547
 31
0.0
  0
LINE
  5
54
330
1F
100
AcDbEntity
  8
LC-001-100-D00-0
 62
     7
370
    50
100
AcDbLine
 10
64.122801
 20
143.853547
 30
0.0
 11
62.622801
 21
143.853547
 31
0.0
  0
LINE
  5
55
330
1F
100
AcDbEntity
  8
LC-001-100-D00-0
 62
     7
370
    50
100
AcDbLine
 10
62.622801
 20
152.353547
 30
0.0
 11
62.622801
 21
143.853547
 31
0.0
  0
LINE
  5
56
330
1F
100
AcDbEntity
  8
LC-001-100-D00-0
 62
     7
370
    50
100
AcDbLine
 10
60.422801
 20
152.353547
 30
0.0
 11
62.622801
 21
152.353547
 31
0.0
  0
LINE
  5
57
330
1F
100
AcDbEntity
  8
LC-001-100-D00-0
 62
     7
370
    50
100
AcDbLine
 10
60.422801
 20
143.853547
 30
0.0
 11
60.422801
 21
152.353547
 31
0.0
  0
LINE
  5
58
330
1F
100
AcDbEntity
  8
LC-001-100-D00-0
 62
     7
370
    50
100
AcDbLine
 10
60.422801
 20
143.853547
 30
0.0
 11
58.922801
 21
143.853547
 31
0.0
  0
LINE
  5
59
330
1F
100
AcDbEntity
  8
LC-001-100-D00-0
 62
     7
370
    50
100
AcDbLine
 10
58.922801
 20
143.853547
 30
0.0
 11
58.922801
 21
152.353547
 31
0.0
  0
LINE
  5
5A
330
1F
100
AcDbEntity
  8
LC-001-100-D00-0
 62
     7
370
    50
100
AcDbLine
 10
48.022801
 20
152.353547
 30
0.0
 11
58.922801
 21
152.353547
 31
0.0
  0
ARC
  5
5B
330
1F
100
AcDbEntity
  8
LC-001-100-D00-0
 62
     7
370
    50
100
AcDbCircle
 10
48.022801
 20
164.353547
 30
0.0
 40
12.00000000000003
100
AcDbArc
 50
180.0
 51
270.0
  0
LINE
  5
5C
330
1F
100
AcDbEntity
  8
LC-001-100-D00-0
 62
     7
370
    50
100
AcDbLine
 10
36.022801
 20
177.799032
 30
0.0
 11
36.022801
 21
164.353547
 31
0.0
  0
LINE
  5
5D
330
1F
100
AcDbEntity
  8
LC-001-100-D00-0
 62
     7
370
    50
100
AcDbLine
 10
35.022801
 20
178.799032
 30
0.0
 11
36.022801
 21
177.799032
 31
0.0
  0
LINE
  5
5E
330
1F
100
AcDbEntity
  8
LC-001-100-D00-0
 62
     7
370
    50
100
AcDbLine
 10
35.022801
 20
181.401099
 30
0.0
 11
35.022801
 21
178.799032
 31
0.0
  0
LINE
  5
5F
330
1F
100
AcDbEntity
  8
LC-001-100-D00-0
 62
     7
370
    50
100
AcDbLine
 10
35.522801
 20
181.401099
 30
0.0
 11
35.022801
 21
181.401099
 31
0.0
  0
ARC
  5
60
330
1F
100
AcDbEntity
  8
LC-001-100-D00-0
 62
     7
370
    50
100
AcDbCircle
 10
35.522801
 20
181.901099
 30
0.0
 40
0.5
100
AcDbArc
 50
270.0
 51
0.0
  0
LINE
  5
61
330
1F
100
AcDbEntity
  8
LC-001-100-D00-0
 62
     7
370
    50
100
AcDbLine
 10
36.022801
 20
185.353547
 30
0.0
 11
36.022801
 21
181.901099
 31
0.0
  0
LINE
  5
62
330
1F
100
AcDbEntity
  8
LC-001-100-D00-0
 62
     7
370
    50
100
AcDbLine
 10
33.322801
 20
185.353547
 30
0.0
 11
36.022801
 21
185.353547
 31
0.0
  0
LINE
  5
63
330
1F
100
AcDbEntity
  8
LC-001-100-D00-0
 62
     7
370
    50
100
AcDbLine
 10
33.322801
 20
187.836706
 30
0.0
 11
33.322801
 21
185.353547
 31
0.0
  0
LINE
  5
64
330
1F
100
AcDbEntity
  8
LC-001-100-D00-0
 62
     7
370
    50
100
AcDbLine
 10
131.022801
 20
178.799032
 30
0.0
 11
131.022801
 21
181.401099
 31
0.0
  0
LINE
  5
65
330
1F
100
AcDbEntity
  8
LC-001-100-D00-0
 62
     7
370
    50
100
AcDbLine
 10
130.022801
 20
177.799032
 30
0.0
 11
131.022801
 21
178.799032
 31
0.0
  0
LINE
  5
66
330
1F
100
AcDbEntity
  8
LC-001-100-D00-0
 62
     7
370
    50
100
AcDbLine
 10
100.772801
 20
153.853547
 30
0.0
 11
100.772801
 21
188.353547
 31
0.0
  0
ARC
  5
67
330
1F
100
AcDbEntity
  8
LC-001-100-D00-0
 62
     7
370
    50
100
AcDbCircle
 10
130.522801
 20
181.901099
 30
0.0
 40
0.5
100
AcDbArc
 50
180.0
 51
270.0
  0
LINE
  5
68
330
1F
100
AcDbEntity
  8
LC-001-100-D00-0
 62
     7
370
    50
100
AcDbLine
 10
132.722801
 20
185.353547
 30
0.0
 11
132.722801
 21
187.836706
 31
0.0
  0
LINE
  5
69
330
1F
100
AcDbEntity
  8
LC-001-100-D00-0
 62
     7
370
    50
100
AcDbLine
 10
132.722801
 20
192.870387
 30
0.0
 11
132.722801
 21
197.353547
 31
0.0
  0
LINE
  5
6A
330
1F
100
AcDbEntity
  8
LC-001-100-D00-0
 62
     7
370
    50
100
AcDbLine
 10
129.672801
 20
192.603547
 30
0.0
 11
132.722801
 21
192.870387
 31
0.0
  0
LINE
  5
6B
330
1F
100
AcDbEntity
  8
LC-001-100-D00-0
 62
     7
370
    50
100
AcDbLine
 10
37.522801
 20
199.353547
 30
0.0
 11
37.92014
 21
199.353547
 31
0.0
  0
ELLIPSE
  5
6C
330
1F
100
AcDbEntity
  8
LC-001-100-D00-0
 62
     7
370
    50
100
AcDbEllipse
 10
83.022801
 20
200.961242
 30
0.0
 11
45.49999999998729
 21
0.0
 31
0.0
210
0.0
220
0.0
230
1.0
 40
0.267949
 41
3.273845987711369
 42
3.363181829707155
  0
LINE
  5
6D
330
1F
100
AcDbEntity
  8
LC-001-100-D00-0
 62
     7
370
    50
100
AcDbLine
 10
38.635303
 20
198.28175
 30
0.0
 11
38.635303
 21
197.353547
 31
0.0
  0
LINE
  5
6E
330
1F
100
AcDbEntity
  8
LC-001-100-D00-0
 62
     7
370
    50
100
AcDbLine
 10
73.022801
 20
197.353547
 30
0.0
 11
38.635303
 21
197.353547
 31
0.0
  0
LINE
  5
6F
330
1F
100
AcDbEntity
  8
LC-001-100-D00-0
 62
     7
370
    50
100
AcDbLine
 10
73.022801
 20
198.28175
 30
0.0
 11
73.022801
 21
197.353547
 31
0.0
  0
LINE
  5
70
330
1F
100
AcDbEntity
  8
LC-001-100-D00-0
 62
     7
370
    50
100
AcDbLine
 10
77.022801
 20
199.353547
 30
0.0
 11
73.022801
 21
198.28175
 31
0.0
  0
LINE
  5
71
330
1F
100
AcDbEntity
  8
LC-001-100-D00-0
 62
     7
370
    50
100
AcDbLine
 10
77.022801
 20
199.353547
 30
0.0
 11
89.022801
 21
199.353547
 31
0.0
  0
LINE
  5
72
330
1F
100
AcDbEntity
  8
LC-001-100-D00-0
 62
     7
370
    50
100
AcDbLine
 10
93.022801
 20
198.28175
 30
0.0
 11
89.022801
 21
199.353547
 31
0.0
  0
LINE
  5
73
330
1F
100
AcDbEntity
  8
LC-001-100-D00-0
 62
     7
370
    50
100
AcDbLine
 10
93.022801
 20
198.28175
 30
0.0
 11
93.022801
 21
197.353547
 31
0.0
  0
LINE
  5
74
330
1F
100
AcDbEntity
  8
LC-001-100-D00-0
 62
     7
370
    50
100
AcDbLine
 10
127.410299
 20
197.353547
 30
0.0
 11
93.022801
 21
197.353547
 31
0.0
  0
LINE
  5
75
330
1F
100
AcDbEntity
  8
LC-001-100-D00-0
 62
     7
370
    50
100
AcDbLine
 10
127.410299
 20
198.28175
 30
0.0
 11
127.410299
 21
197.353547
 31
0.0
  0
ELLIPSE
  5
76
330
1F
100
AcDbEntity
  8
LC-001-100-D00-0
 62
     7
370
    50
100
AcDbEllipse
 10
83.022801
 20
200.961242
 30
0.0
 11
45.49999999998729
 21
0.0
 31
0.0
210
0.0
220
0.0
230
1.0
 40
0.267949
 41
6.061596131062315
 42
6.150931973058114
  0
LINE
  5
77
330
1F
100
AcDbEntity
  8
LC-001-100-D00-0
 62
     7
370
    50
100
AcDbLine
 10
128.125461
 20
199.353547
 30
0.0
 11
128.522801
 21
199.353547
 31
0.0
  0
LINE
  5
78
330
1F
100
AcDbEntity
  8
LC-001-100-D00-0
 62
     7
370
    50
100
AcDbLine
 10
128.522801
 20
199.353547
 30
0.0
 11
128.522801
 21
196.353547
 31
0.0
  0
LINE
  5
79
330
1F
100
AcDbEntity
  8
LC-001-100-D00-0
 62
     7
370
    50
100
AcDbLine
 10
130.022801
 20
164.353547
 30
0.0
 11
130.022801
 21
177.799032
 31
0.0
  0
ARC
  5
7A
330
1F
100
AcDbEntity
  8
LC-001-100-D00-0
 62
     7
370
    50
100
AcDbCircle
 10
118.022801
 20
164.353547
 30
0.0
 40
12.0
100
AcDbArc
 50
270.0
 51
0.0
  0
LINE
  5
7B
330
1F
100
AcDbEntity
  8
LC-001-100-D00-0
 62
     7
370
    50
100
AcDbLine
 10
107.122801
 20
143.853547
 30
0.0
 11
107.122801
 21
152.353547
 31
0.0
  0
LINE
  5
7C
330
1F
100
AcDbEntity
  8
LC-001-100-D00-0
 62
     7
370
    50
100
AcDbLine
 10
107.122801
 20
143.853547
 30
0.0
 11
105.622801
 21
143.853547
 31
0.0
  0
LINE
  5
7D
330
1F
100
AcDbEntity
  8
LC-001-100-D00-0
 62
     7
370
    50
100
AcDbLine
 10
105.622801
 20
143.853547
 30
0.0
 11
105.622801
 21
152.353547
 31
0.0
  0
LINE
  5
7E
330
1F
100
AcDbEntity
  8
LC-001-100-D00-0
 62
     7
370
    50
100
AcDbLine
 10
103.422801
 20
152.353547
 30
0.0
 11
105.622801
 21
152.353547
 31
0.0
  0
LINE
  5
7F
330
1F
100
AcDbEntity
  8
LC-001-100-D00-0
 62
     7
370
    50
100
AcDbLine
 10
103.422801
 20
152.353547
 30
0.0
 11
103.422801
 21
143.853547
 31
0.0
  0
LINE
  5
80
330
1F
100
AcDbEntity
  8
LC-001-100-D00-0
 62
     7
370
    50
100
AcDbLine
 10
103.422801
 20
143.853547
 30
0.0
 11
101.922801
 21
143.853547
 31
0.0
  0
LINE
  5
81
330
1F
100
AcDbEntity
  8
LC-001-100-D00-0
 62
     7
370
    50
100
AcDbLine
 10
101.922801
 20
152.353547
 30
0.0
 11
101.922801
 21
143.853547
 31
0.0
  0
LINE
  5
82
330
1F
100
AcDbEntity
  8
LC-001-100-D00-0
 62
     7
370
    50
100
AcDbLine
 10
96.772801
 20
183.353547
 30
0.0
 11
96.772801
 21
152.353547
 31
0.0
  0
LINE
  5
83
330
1F
100
AcDbEntity
  8
LC-001-100-D00-0
 62
     7
370
    50
100
AcDbLine
 10
98.112547
 20
188.353547
 30
0.0
 11
96.772801
 21
183.353547
 31
0.0
  0
LINE
  5
84
330
1F
100
AcDbEntity
  8
LC-001-100-D00-0
 62
     7
370
    50
100
AcDbLine
 10
100.772801
 20
188.353547
 30
0.0
 11
98.112547
 21
188.353547
 31
0.0
  0
LINE
  5
85
330
1F
100
AcDbEntity
  8
LC-001-100-D00-0
 62
     7
370
    50
100
AcDbLine
 10
123.772801
 20
155.567905
 30
0.0
 11
123.772801
 21
193.353547
 31
0.0
  0
ARC
  5
86
330
1F
100
AcDbEntity
  8
LC-001-100-D00-0
 62
     7
370
    50
100
AcDbCircle
 10
126.772801
 20
193.353547
 30
0.0
 40
3.000000000000057
100
AcDbArc
 50
90.0
 51
180.0
  0
LINE
  5
87
330
1F
100
AcDbEntity
  8
LC-001-100-D00-0
 62
     7
370
    50
100
AcDbLine
 10
126.772801
 20
196.353547
 30
0.0
 11
128.522801
 21
196.353547
 31
0.0
  0
LINE
  5
88
330
1F
100
AcDbEntity
  8
LC-001-100-D00-0
 62
     7
370
    50
100
AcDbLine
 10
131.522801
 20
199.353547
 30
0.0
 11
128.522801
 21
199.353547
 31
0.0
  0
LINE
  5
89
330
1F
100
AcDbEntity
  8
LC-001-100-D00-0
 62
     7
370
    50
100
AcDbLine
 10
135.522801
 20
198.28175
 30
0.0
 11
131.522801
 21
199.353547
 31
0.0
  0
LINE
  5
8A
330
1F
100
AcDbEntity
  8
LC-001-100-D00-0
 62
     7
370
    50
100
AcDbLine
 10
135.522801
 20
198.28175
 30
0.0
 11
135.522801
 21
197.353547
 31
0.0
  0
LINE
  5
8B
330
1F
100
AcDbEntity
  8
LC-001-100-D00-0
 62
     7
370
    50
100
AcDbLine
 10
135.522801
 20
197.353547
 30
0.0
 11
132.722801
 21
197.353547
 31
0.0
  0
LINE
  5
8C
330
1F
100
AcDbEntity
  8
LC-001-100-D00-0
 62
     7
370
    50
100
AcDbLine
 10
129.672801
 20
188.103547
 30
0.0
 11
129.672801
 21
192.603547
 31
0.0
  0
LINE
  5
8D
330
1F
100
AcDbEntity
  8
LC-001-100-D00-0
 62
     7
370
    50
100
AcDbLine
 10
132.722801
 20
187.836706
 30
0.0
 11
129.672801
 21
188.103547
 31
0.0
  0
LINE
  5
8E
330
1F
100
AcDbEntity
  8
LC-001-100-D00-0
 62
     7
370
    50
100
AcDbLine
 10
130.022801
 20
181.901099
 30
0.0
 11
130.022801
 21
185.353547
 31
0.0
  0
LINE
  5
8F
330
1F
100
AcDbEntity
  8
LC-001-100-D00-0
 62
     7
370
    50
100
AcDbLine
 10
130.022801
 20
185.353547
 30
0.0
 11
132.722801
 21
185.353547
 31
0.0
  0
LINE
  5
90
330
1F
100
AcDbEntity
  8
LC-001-100-D00-0
 62
     7
370
    50
100
AcDbLine
 10
131.022801
 20
181.401099
 30
0.0
 11
130.522801
 21
181.401099
 31
0.0
  0
LINE
  5
91
330
1F
100
AcDbEntity
  8
LC-001-100-D00-0
 62
     7
370
    50
100
AcDbLine
 10
118.022801
 20
153.853547
 30
0.0
 11
100.772801
 21
153.853547
 31
0.0
  0
LINE
  5
92
330
1F
100
AcDbEntity
  8
LC-001-100-D00-0
 62
     7
370
    50
100
AcDbLine
 10
96.772801
 20
152.353547
 30
0.0
 11
101.922801
 21
152.353547
 31
0.0
  0
LINE
  5
93
330
1F
100
AcDbEntity
  8
LC-001-100-D00-0
 62
     7
370
    50
100
AcDbLine
 10
107.122801
 20
152.353547
 30
0.0
 11
118.022801
 21
152.353547
 31
0.0
  0
LINE
  5
94
330
1F
100
AcDbEntity
  8
LC-001-100-D00-0
 62
     7
370
    50
100
AcDbLine
 10
96.772801
 20
183.353547
 30
0.0
 11
69.272801
 21
183.353547
 31
0.0
  0
LINE
  5
95
330
1F
100
AcDbEntity
  8
LC-001-100-D00-0
 62
     7
370
    50
100
AcDbLine
 10
96.772801
 20
152.353547
 30
0.0
 11
69.272801
 21
152.353547
 31
0.0
  0
LINE
  5
96
330
1F
100
AcDbEntity
  8
LC-001-100-D00-0
 62
     7
370
    50
100
AcDbLine
 10
107.122801
 20
149.353547
 30
0.0
 11
110.122801
 21
152.353547
 31
0.0
  0
LINE
  5
97
330
1F
100
AcDbEntity
  8
LC-001-100-D00-0
 62
     7
370
    50
100
AcDbLine
 10
55.922801
 20
152.353547
 30
0.0
 11
58.922801
 21
149.353547
 31
0.0
  0
LINE
  5
98
330
1F
100
AcDbEntity
  8
LC-001-100-D00-0
 62
     7
370
    50
100
AcDbLine
 10
84.022801
 20
190.353547
 30
0.0
 11
84.022801
 21
193.353547
 31
0.0
  0
LINE
  5
99
330
1F
100
AcDbEntity
  8
LC-001-100-D00-0
 62
     7
370
    50
100
AcDbLine
 10
82.022801
 20
190.353547
 30
0.0
 11
82.022801
 21
193.353547
 31
0.0
  0
LINE
  5
9A
330
1F
100
AcDbEntity
  8
LC-001-100-D00-0
 62
     7
370
    50
100
AcDbLine
 10
82.022801
 20
196.353547
 30
0.0
 11
84.022801
 21
196.353547
 31
0.0
  0
LINE
  5
9B
330
1F
100
AcDbEntity
  8
LC-001-100-D00-0
 62
     7
370
    50
100
AcDbLine
 10
84.022801
 20
193.353547
 30
0.0
 11
84.022801
 21
196.353547
 31
0.0
  0
LINE
  5
9C
330
1F
100
AcDbEntity
  8
LC-001-100-D00-0
 62
     7
370
    50
100
AcDbLine
 10
82.022801
 20
193.353547
 30
0.0
 11
82.022801
 21
196.353547
 31
0.0
  0
ARC
  5
9D
330
1F
100
AcDbEntity
  8
LC-001-100-D00-0
 62
     7
370
    50
100
AcDbCircle
 10
48.022801
 20
163.353547
 30
0.0
 40
5.000000000000028
100
AcDbArc
 50
180.0
 51
270.0
  0
ARC
  5
9E
330
1F
100
AcDbEntity
  8
LC-001-100-D00-0
 62
     7
370
    50
100
AcDbCircle
 10
118.022801
 20
163.353547
 30
0.0
 40
5.0
100
AcDbArc
 50
270.0
 51
0.0
  0
LINE
  5
9F
330
1F
100
AcDbEntity
  8
LC-001-100-D00-0
 62
     7
370
    50
100
AcDbLine
 10
43.022801
 20
163.353547
 30
0.0
 11
43.022801
 21
180.353547
 31
0.0
  0
ARC
  5
A0
330
1F
100
AcDbEntity
  8
LC-001-100-D00-0
 62
     7
370
    50
100
AcDbCircle
 10
53.022801
 20
180.353547
 30
0.0
 40
10.0
100
AcDbArc
 50
90.0
 51
180.0
  0
LINE
  5
A1
330
1F
100
AcDbEntity
  8
LC-001-100-D00-0
 62
     7
370
    50
100
AcDbLine
 10
53.022801
 20
190.353547
 30
0.0
 11
113.022801
 21
190.353547
 31
0.0
  0
ARC
  5
A2
330
1F
100
AcDbEntity
  8
LC-001-100-D00-0
 62
     7
370
    50
100
AcDbCircle
 10
113.022801
 20
180.353547
 30
0.0
 40
10.0
100
AcDbArc
 50
0.0
 51
90.0
  0
LINE
  5
A3
330
1F
100
AcDbEntity
  8
LC-001-100-D00-0
 62
     7
370
    50
100
AcDbLine
 10
123.022801
 20
180.353547
 30
0.0
 11
123.022801
 21
163.353547
 31
0.0
  0
LINE
  5
A4
330
1F
100
AcDbEntity
  8
LC-001-100-D00-0
 62
     7
370
    50
100
AcDbLine
 10
118.022801
 20
158.353547
 30
0.0
 11
109.022801
 21
158.353547
 31
0.0
  0
ARC
  5
A5
330
1F
100
AcDbEntity
  8
LC-001-100-D00-0
 62
     7
370
    50
100
AcDbCircle
 10
109.022801
 20
159.353547
 30
0.0
 40
1.0
100
AcDbArc
 50
180.0
 51
270.0
  0
LINE
  5
A6
330
1F
100
AcDbEntity
  8
LC-001-100-D00-0
 62
     7
370
    50
100
AcDbLine
 10
108.022801
 20
159.353547
 30
0.0
 11
108.022801
 21
187.353547
 31
0.0
  0
ARC
  5
A7
330
1F
100
AcDbEntity
  8
LC-001-100-D00-0
 62
     7
370
    50
100
AcDbCircle
 10
107.022801
 20
187.353547
 30
0.0
 40
1.0
100
AcDbArc
 50
0.0
 51
90.0
  0
LINE
  5
A8
330
1F
100
AcDbEntity
  8
LC-001-100-D00-0
 62
     7
370
    50
100
AcDbLine
 10
107.022801
 20
188.353547
 30
0.0
 11
59.022801
 21
188.353547
 31
0.0
  0
ARC
  5
A9
330
1F
100
AcDbEntity
  8
LC-001-100-D00-0
 62
     7
370
    50
100
AcDbCircle
 10
59.022801
 20
187.353547
 30
0.0
 40
1.0
100
AcDbArc
 50
90.0
 51
180.0
  0
LINE
  5
AA
330
1F
100
AcDbEntity
  8
LC-001-100-D00-0
 62
     7
370
    50
100
AcDbLine
 10
58.022801
 20
187.353547
 30
0.0
 11
58.022801
 21
159.353547
 31
0.0
  0
ARC
  5
AB
330
1F
100
AcDbEntity
  8
LC-001-100-D00-0
 62
     7
370
    50
100
AcDbCircle
 10
57.022801
 20
159.353547
 30
0.0
 40
1.0
100
AcDbArc
 50
270.0
 51
0.0
  0
LINE
  5
AC
330
1F
100
AcDbEntity
  8
LC-001-100-D00-0
 62
     7
370
    50
100
AcDbLine
 10
57.022801
 20
158.353547
 30
0.0
 11
48.022801
 21
158.353547
 31
0.0
  0
ARC
  5
AD
330
1F
100
AcDbEntity
  8
LC-001-100-D00-0
 62
     7
370
    50
100
AcDbCircle
 10
118.022801
 20
163.353547
 30
0.0
 40
3.0
100
AcDbArc
 50
270.0
 51
0.0
  0
LINE
  5
AE
330
1F
100
AcDbEntity
  8
LC-001-100-D00-0
 62
     7
370
    50
100
AcDbLine
 10
121.022801
 20
180.353547
 30
0.0
 11
121.022801
 21
163.353547
 31
0.0
  0
ARC
  5
AF
330
1F
100
AcDbEntity
  8
LC-001-100-D00-0
 62
     7
370
    50
100
AcDbCircle
 10
113.022801
 20
180.353547
 30
0.0
 40
8.0
100
AcDbArc
 50
0.0
 51
90.0
  0
LINE
  5
B0
330
1F
100
AcDbEntity
  8
LC-001-100-D00-0
 62
     7
370
    50
100
AcDbLine
 10
110.022801
 20
188.353547
 30
0.0
 11
113.022801
 21
188.353547
 31
0.0
  0
LINE
  5
B1
330
1F
100
AcDbEntity
  8
LC-001-100-D00-0
 62
     7
370
    50
100
AcDbLine
 10
110.022801
 20
160.353547
 30
0.0
 11
110.022801
 21
188.353547
 31
0.0
  0
LINE
  5
B2
330
1F
100
AcDbEntity
  8
LC-001-100-D00-0
 62
     7
370
    50
100
AcDbLine
 10
118.022801
 20
160.353547
 30
0.0
 11
110.022801
 21
160.353547
 31
0.0
  0
ARC
  5
B3
330
1F
100
AcDbEntity
  8
LC-001-100-D00-0
 62
     7
370
    50
100
AcDbCircle
 10
53.022801
 20
180.353547
 30
0.0
 40
8.000000000000057
100
AcDbArc
 50
90.0
 51
180.0
  0
LINE
  5
B4
330
1F
100
AcDbEntity
  8
LC-001-100-D00-0
 62
     7
370
    50
100
AcDbLine
 10
45.022801
 20
163.353547
 30
0.0
 11
45.022801
 21
180.353547
 31
0.0
  0
ARC
  5
B5
330
1F
100
AcDbEntity
  8
LC-001-100-D00-0
 62
     7
370
    50
100
AcDbCircle
 10
48.022801
 20
163.353547
 30
0.0
 40
3.0
100
AcDbArc
 50
180.0
 51
270.0
  0
LINE
  5
B6
330
1F
100
AcDbEntity
  8
LC-001-100-D00-0
 62
     7
370
    50
100
AcDbLine
 10
56.022801
 20
160.353547
 30
0.0
 11
48.022801
 21
160.353547
 31
0.0
  0
LINE
  5
B7
330
1F
100
AcDbEntity
  8
LC-001-100-D00-0
 62
     7
370
    50
100
AcDbLine
 10
56.022801
 20
188.353547
 30
0.0
 11
56.022801
 21
160.353547
 31
0.0
  0
LINE
  5
B8
330
1F
100
AcDbEntity
  8
LC-001-100-D00-0
 62
     7
370
    50
100
AcDbLine
 10
53.022801
 20
188.353547
 30
0.0
 11
56.022801
 21
188.353547
 31
0.0
  0
LINE
  5
B9
330
1F
100
AcDbEntity
  8
LC-001-100-D00-0
 62
     7
370
    50
100
AcDbLine
 10
109.022801
 20
158.353547
 30
0.0
 11
100.772801
 21
158.353547
 31
0.0
  0
LINE
  5
BA
330
1F
100
AcDbEntity
  8
LC-001-100-D00-0
 62
     7
370
    50
100
AcDbLine
 10
65.272801
 20
158.353547
 30
0.0
 11
57.022801
 21
158.353547
 31
0.0
  0
INSERT
  5
D4
330
1F
100
AcDbEntity
  8
LC-001-100-D00-0
 62
     7
370
    25
100
AcDbBlockReference
  2
KLON1
 10
0.0
 20
0.0
 30
0.0
  0
INSERT
  5
E8
330
1F
100
AcDbEntity
  8
LC-001-100-D00-0
 62
     7
370
    25
100
AcDbBlockReference
  2
KLON2
 10
0.0
 20
0.0
 30
0.0
  0
INSERT
  5
F9
330
1F
100
AcDbEntity
  8
LC-001-100-D00-0
 62
     7
370
    25
100
AcDbBlockReference
  2
KLON3
 10
0.0
 20
0.0
 30
0.0
  0
INSERT
  5
105
330
1F
100
AcDbEntity
  8
LC-001-100-D00-0
 62
     7
370
    25
100
AcDbBlockReference
  2
KLON4
 10
0.0
 20
0.0
 30
0.0
  0
LINE
  5
106
330
1F
100
AcDbEntity
  8
LC-001-100-D00-0
 62
     7
370
    50
100
AcDbLine
 10
34.704855
 20
187.948385
 30
0.0
 11
36.427962
 21
189.671492
 31
0.0
  0
DIMENSION
  5
109
330
1F
100
AcDbEntity
  8
LC-001-100-D00-0
 62
     7
370
    25
100
AcDbDimension
  2
*D5
 10
135.522801
 20
221.336795
 30
0.0
 11
75.418804
 21
252.136795
 31
0.0
 70
   160
  1
%%c105
 71
     5
 42
105.0
  3
LC-DIM-L-0140-02-02
100
AcDbAlignedDimension
 13
30.522801
 23
197.353547
 33
0.0
 14
135.522801
 24
197.353547
 34
0.0
100
AcDbRotatedDimension
  0
DIMENSION
  5
117
330
1F
100
AcDbEntity
  8
LC-001-100-D00-0
 62
     7
370
    25
100
AcDbDimension
  2
*D6
 10
130.022801
 20
90.656795
 30
0.0
 11
78.625661
 21
121.456795
 31
0.0
 70
   160
  1
%%c94
 71
     5
 42
94.0
  3
LC-DIM-L-0140-02-02
100
AcDbAlignedDimension
 13
36.022801
 23
164.353547
 33
0.0
 14
130.022801
 24
164.353547
 34
0.0
100
AcDbRotatedDimension
  0
DIMENSION
  5
124
330
1F
100
AcDbEntity
  8
LC-001-100-D00-0
 62
     7
370
    25
100
AcDbDimension
  2
*D7
 10
17.185778
 20
188.353547
 30
0.0
 11
-13.614222
 21
174.096472
 31
0.0
 70
   160
  1
30
 71
     5
 42
30.0
 53
90.0
  3
LC-DIM-L-0140-02-02
100
AcDbAlignedDimension
 13
48.022801
 23
158.353547
 33
0.0
 14
59.022801
 24
188.353547
 34
0.0
 50
90.0
100
AcDbRotatedDimension
  0
DIMENSION
  5
133
330
1F
100
AcDbEntity
  8
LC-001-100-D00-0
 62
     7
370
    25
100
AcDbDimension
  2
*D8
 10
-21.855869
 20
152.353547
 30
0.0
 11
-52.655869
 21
211.238795
 31
0.0
 70
   160
  1
47
 71
     5
 42
47.0
 53
90.0
  3
LC-DIM-L-0140-02-02
100
AcDbAlignedDimension
 13
34.522801
 23
199.353547
 33
0.0
 14
48.022801
 24
152.353547
 34
0.0
 50
90.0
100
AcDbRotatedDimension
  0
DIMENSION
  5
141
330
1F
100
AcDbEntity
  8
LC-001-100-D00-0
 62
     7
370
    25
100
AcDbDimension
  2
*D9
 10
-63.545015
 20
141.753547
 30
0.0
 11
-94.345015
 21
189.854795
 31
0.0
 70
   160
  1
57,6
 71
     5
 42
57.6
 53
90.0
  3
LC-DIM-L-0140-02-02
100
AcDbAlignedDimension
 13
34.522801
 23
199.353547
 33
0.0
 14
60.147801
 24
141.753547
 34
0.0
 50
90.0
100
AcDbRotatedDimension
  0
LINE
  5
151
330
1F
100
AcDbEntity
  8
LC-001-100-D00-0
  6
DASHDOT
 62
     7
370
    25
100
AcDbLine
 10
83.022801
 20
187.353547
 30
0.0
 11
83.022801
 21
148.353547
 31
0.0
  0
ENDSEC
  0
SECTION
  2
OBJECTS
  0
DICTIONARY
  5
C
330
0
100
AcDbDictionary
281
     1
  3
ACAD_GROUP
350
D
  3
ACAD_LAYOUT
350
1A
  3
ACAD_MLINESTYLE
350
17
  3
ACAD_PLOTSETTINGS
350
19
  3
ACAD_PLOTSTYLENAME
350
E
  0
DICTIONARY
  5
D
102
{ACAD_REACTORS
330
C
102
}
330
C
100
AcDbDictionary
281
     1
  0
DICTIONARY
  5
1A
102
{ACAD_REACTORS
330
C
102
}
330
C
100
AcDbDictionary
281
     1
  3
Layout1
350
1E
  3
Layout2
350
26
  3
Model
350
22
  0
DICTIONARY
  5
17
102
{ACAD_REACTORS
330
C
102
}
330
C
100
AcDbDictionary
281
     1
  3
Standard
350
18
  0
DICTIONARY
  5
19
102
{ACAD_REACTORS
330
C
102
}
330
C
100
AcDbDictionary
281
     1
  0
ACDBDICTIONARYWDFLT
  5
E
102
{ACAD_REACTORS
330
C
102
}
330
C
100
AcDbDictionary
281
     1
  3
Normal
350
F
100
AcDbDictionaryWithDefault
340
F
  0
LAYOUT
  5
1E
102
{ACAD_REACTORS
330
1A
102
}
330
1A
100
AcDbPlotSettings
  1

  2

  4

  6

 40
0.0
 41
0.0
 42
0.0
 43
0.0
 44
0.0
 45
0.0
 46
0.0
 47
0.0
 48
0.0
 49
0.0
140
0.0
141
0.0
142
1.0
143
1.0
 70
   688
 72
     0
 73
     0
 74
     5
  7

 75
    16
147
1.0
148
0.0
149
0.0
100
AcDbLayout
  1
Layout1
 70
     1
 71
     1
 10
-286.857764
 20
-190.305205
 11
553.142236
 21
403.694795
 12
0.0
 22
0.0
 32
0.0
 14
-286.857764
 24
-190.305205
 34
0.0
 15
553.142236
 25
403.694795
 35
0.0
146
0.0
 13
0.0
 23
0.0
 33
0.0
 16
1.0
 26
0.0
 36
0.0
 17
0.0
 27
1.0
 37
0.0
 76
     0
330
1B
  0
LAYOUT
  5
26
102
{ACAD_REACTORS
330
1A
102
}
330
1A
100
AcDbPlotSettings
  1

  2

  4

  6

 40
0.0
 41
0.0
 42
0.0
 43
0.0
 44
0.0
 45
0.0
 46
0.0
 47
0.0
 48
0.0
 49
0.0
140
0.0
141
0.0
142
1.0
143
1.0
 70
   688
 72
     0
 73
     0
 74
     5
  7

 75
    16
147
1.0
148
0.0
149
0.0
100
AcDbLayout
  1
Layout2
 70
     1
 71
     2
 10
0.0
 20
0.0
 11
0.0
 21
0.0
 12
0.0
 22
0.0
 32
0.0
 14
0.0
 24
0.0
 34
0.0
 15
0.0
 25
0.0
 35
0.0
146
0.0
 13
0.0
 23
0.0
 33
0.0
 16
1.0
 26
0.0
 36
0.0
 17
0.0
 27
1.0
 37
0.0
 76
     0
330
23
  0
LAYOUT
  5
22
102
{ACAD_REACTORS
330
1A
102
}
330
1A
100
AcDbPlotSettings
  1

  2

  4

  6

 40
0.0
 41
0.0
 42
0.0
 43
0.0
 44
0.0
 45
0.0
 46
0.0
 47
0.0
 48
0.0
 49
0.0
140
0.0
141
0.0
142
1.0
143
1.0
 70
  1776
 72
     0
 73
     0
 74
     0
  7

 75
     0
147
1.0
148
0.0
149
0.0
100
AcDbLayout
  1
Model
 70
     1
 71
     0
 10
-286.857764
 20
-190.305205
 11
553.142236
 21
403.694795
 12
0.0
 22
0.0
 32
0.0
 14
-286.857764
 24
-190.305205
 34
0.0
 15
553.142236
 25
403.694795
 35
0.0
146
0.0
 13
0.0
 23
0.0
 33
0.0
 16
1.0
 26
0.0
 36
0.0
 17
0.0
 27
1.0
 37
0.0
 76
     0
330
1F
  0
MLINESTYLE
  5
18
102
{ACAD_REACTORS
330
17
102
}
330
17
100
AcDbMlineStyle
  2
Standard
 70
     0
  3

 62
   256
 51
90.0
 52
90.0
 71
     2
 49
0.5
 62
   256
  6
BYLAYER
 49
-0.5
 62
   256
  6
BYLAYER
  0
ACDBPLACEHOLDER
  5
F
102
{ACAD_REACTORS
330
E
102
}
330
E
  0
ENDSEC
  0
EOF
