  0
SECTION
  2
HEADER
  9
$ACADVER
  1
AC1009
  9
$INSBASE
 10
0.0
 20
0.0
 30
0.0
  9
$EXTMIN
 10
-210.0
 20
-148.5
 30
0.0
  9
$EXTMAX
 10
630.0
 20
445.5
 30
0.0
  9
$LIMMIN
 10
-210.0
 20
-148.5
  9
$LIMMAX
 10
630.0
 20
445.5
  9
$ORTHOMODE
 70
     0
  9
$REGENMODE
 70
     1
  9
$FILLMODE
 70
     1
  9
$QTEXTMODE
 70
     0
  9
$MIRRTEXT
 70
     1
  9
$DRAGMODE
 70
     2
  9
$LTSCALE
 40
2.0
  9
$OSMODE
 70
     0
  9
$ATTMODE
 70
     1
  9
$TEXTSIZE
 40
0.2
  9
$TRACEWID
 40
0.05
  9
$TEXTSTYLE
  7
STANDARD
  9
$CLAYER
  8
0
  9
$CELTYPE
  6
BYLAYER
  9
$CECOLOR
 62
     7
  9
$DIMSCALE
 40
2.0
  9
$DIMASZ
 40
3.5
  9
$DIMEXO
 40
0.0625
  9
$DIMDLI
 40
0.38
  9
$DIMRND
 40
0.0
  9
$DIMDLE
 40
0.0
  9
$DIMEXE
 40
0.18
  9
$DIMTP
 40
0.0
  9
$DIMTM
 40
0.0
  9
$DIMTXT
 40
3.5
  9
$DIMCEN
 40
0.09
  9
$DIMTSZ
 40
0.0
  9
$DIMTOL
 70
     0
  9
$DIMLIM
 70
     0
  9
$DIMTIH
 70
     1
  9
$DIMTOH
 70
     1
  9
$DIMSE1
 70
     0
  9
$DIMSE2
 70
     0
  9
$DIMTAD
 70
     1
  9
$DIMZIN
 70
     0
  9
$DIMBLK
  1

  9
$DIMASO
 70
     1
  9
$DIMSHO
 70
     1
  9
$DIMPOST
  1

  9
$DIMAPOST
  1

  9
$DIMALT
 70
     0
  9
$DIMALTD
 70
     2
  9
$DIMALTF
 40
25.4
  9
$DIMLFAC
 40
1.0
  9
$DIMTOFL
 70
     0
  9
$DIMTVP
 40
0.0
  9
$DIMTIX
 70
     0
  9
$DIMSOXD
 70
     0
  9
$DIMSAH
 70
     0
  9
$DIMBLK1
  1

  9
$DIMBLK2
  1

  9
$DIMSTYLE
  2
STANDARD
  9
$DIMCLRD
 70
     0
  9
$DIMCLRE
 70
     0
  9
$DIMCLRT
 70
     0
  9
$DIMTFAC
 40
1.0
  9
$DIMGAP
 40
0.09
  9
$LUNITS
 70
     2
  9
$LUPREC
 70
     2
  9
$AXISMODE
 70
     0
  9
$AXISUNIT
 10
0.0
 20
0.0
  9
$SKETCHINC
 40
0.1
  9
$FILLETRAD
 40
0.0
  9
$AUNITS
 70
     0
  9
$AUPREC
 70
     0
  9
$MENU
  1
acad
  9
$ELEVATION
 40
0.0
  9
$PELEVATION
 40
0.0
  9
$THICKNESS
 40
0.0
  9
$LIMCHECK
 70
     0
  9
$BLIPMODE
 70
     1
  9
$CHAMFERA
 40
0.0
  9
$CHAMFERB
 40
0.0
  9
$SKPOLY
 70
     0
  9
$TDCREATE
 40
0.000000000
  9
$TDUPDATE
 40
0.000000000
  9
$TDINDWG
 40
0.0000000000
  9
$TDUSRTIMER
 40
0.0000000000
  9
$USRTIMER
 70
     1
  9
$ANGBASE
 50
0.0
  9
$ANGDIR
 70
     0
  9
$PDMODE
 70
     0
  9
$PDSIZE
 40
0.0
  9
$PLINEWID
 40
0.0
  9
$COORDS
 70
     0
  9
$SPLFRAME
 70
     0
  9
$SPLINETYPE
 70
     6
  9
$SPLINESEGS
 70
     8
  9
$ATTDIA
 70
     0
  9
$ATTREQ
 70
     1
  9
$HANDLING
 70
     1
  9
$HANDSEED
  5
134
  9
$SURFTAB1
 70
     6
  9
$SURFTAB2
 70
     6
  9
$SURFTYPE
 70
     6
  9
$SURFU
 70
     6
  9
$SURFV
 70
     6
  9
$UCSNAME
  2

  9
$UCSORG
 10
0.0
 20
0.0
 30
0.0
  9
$UCSXDIR
 10
1.0
 20
0.0
 30
0.0
  9
$UCSYDIR
 10
0.0
 20
1.0
 30
0.0
  9
$PUCSNAME
  2

  9
$PUCSORG
 10
0.0
 20
0.0
 30
0.0
  9
$PUCSXDIR
 10
1.0
 20
0.0
 30
0.0
  9
$PUCSYDIR
 10
0.0
 20
1.0
 30
0.0
  9
$USERI1
 70
     0
  9
$USERI2
 70
     0
  9
$USERI3
 70
     0
  9
$USERI4
 70
     0
  9
$USERI5
 70
     0
  9
$USERR1
 40
0.0
  9
$USERR2
 40
0.0
  9
$USERR3
 40
0.0
  9
$USERR4
 40
0.0
  9
$USERR5
 40
0.0
  9
$WORLDVIEW
 70
     1
  9
$SHADEDGE
 70
     3
  9
$SHADEDIF
 70
    70
  9
$TILEMODE
 70
     1
  9
$MAXACTVP
 70
    16
  9
$PINSBASE
 10
0.0
 20
0.0
 30
0.0
  9
$PLIMCHECK
 70
     0
  9
$PEXTMIN
 10
1.000000E+20
 20
1.000000E+20
 30
1.000000E+20
  9
$PEXTMAX
 10
-1.000000E+20
 20
-1.000000E+20
 30
-1.000000E+20
  9
$PLIMMIN
 10
-210.0
 20
-148.5
  9
$PLIMMAX
 10
630.0
 20
445.5
  9
$UNITMODE
 70
     0
  9
$VISRETAIN
 70
     0
  9
$PLINEGEN
 70
     1
  9
$PSLTSCALE
 70
     0
  9
$TREEDEPTH
 70
  3020
  9
$DWGCODEPAGE
  3
dos850
  0
ENDSEC
  0
SECTION
  2
TABLES
  0
TABLE
  2
VPORT
 70
     1
  0
VPORT
  2
*ACTIVE
 70
     0
 10
0.0
 20
0.0
 11
1.0
 21
1.0
 12
420.0
 22
297.0
 13
0.0
 23
0.0
 14
1.0
 24
1.0
 15
0.0
 25
0.0
 16
0.0
 26
0.0
 36
1.0
 17
-210.0
 27
-148.5
 37
0.0
 40
594.0
 41
1.604229
 42
50.0
 43
0.0
 44
0.0
 50
0.0
 51
0.0
 71
     0
 72
   100
 73
     1
 74
     1
 75
     0
 76
     0
 77
     0
 78
     0
  0
ENDTAB
  0
TABLE
  2
LTYPE
 70
     4
  0
LTYPE
  2
CONTINUOUS
 70
    64
  3
Solid line
 72
    65
 73
     0
 40
0.0
  0
LTYPE
  2
DASHED
 70
    64
  3
__ __ __ __ __
 72
    65
 73
     2
 40
6.25
 49
5.0
 49
-1.25
  0
LTYPE
  2
DASHDOT
 70
    64
  3
__ . __ . __ . __ . __
 72
    65
 73
     4
 40
7.5
 49
5.0
 49
-1.25
 49
0.0
 49
-1.25
  0
LTYPE
  2
CENTER
 70
    64
  3
__ . __ . __ . __ . __
 72
    65
 73
     4
 40
7.5
 49
5.0
 49
-1.25
 49
0.0
 49
-1.25
  0
ENDTAB
  0
TABLE
  2
LAYER
 70
    12
  0
LAYER
  2
0
 70
     0
 62
     7
  6
CONTINUOUS
  0
LAYER
  2
LC-INFO-1-2-MM-A3-0
 70
     1
 62
    -1
  6
CONTINUOUS
  0
LAYER
  2
LC-002-003-MTH-0
 70
     0
 62
     2
  6
CONTINUOUS
  0
LAYER
  2
LC-001-003-----0
 70
     0
 62
     2
  6
CONTINUOUS
  0
LAYER
  2
LC-003-003-MTG-0
 70
     0
 62
     2
  6
CONTINUOUS
  0
LAYER
  2
LC-004-005-----0
 70
     0
 62
     2
  6
CONTINUOUS
  0
LAYER
  2
LC-006-000-----0
 70
     0
 62
     7
  6
CONTINUOUS
  0
LAYER
  2
LC-005-002-----0
 70
     0
 62
     1
  6
DASHED
  0
LAYER
  2
LC-007-002-RND-0
 70
     0
 62
     1
  6
CONTINUOUS
  0
LAYER
  2
LC-008-006-MLN-0
 70
     0
 62
     2
  6
CENTER
  0
LAYER
  2
LC-009-004-----0
 70
     0
 62
     3
  6
CONTINUOUS
  0
LAYER
  2
LC-000
 70
     0
 62
     7
  6
CONTINUOUS
  0
ENDTAB
  0
TABLE
  2
STYLE
 70
     6
  0
STYLE
  2
STANDARD
 70
     0
 40
0.0
 41
1.0
 50
0.0
 71
     0
 42
0.0
  3
txt
  4

  0
STYLE
  2
LC-STANDARD
 70
    64
 40
0.0
 41
1.0
 50
0.0
 71
     0
 42
3.5
  3
MONOTXT
  4

  0
STYLE
  2
LC-TXTSTYLE-150-400-0-0-A2
 70
    64
 40
0.0
 41
1.0
 50
15.0
 71
     0
 42
3.5
  3
MONOTXT
  4

  0
STYLE
  2
LC-TXTSTYLE-0-400-0-0-DIN3
 70
    64
 40
0.0
 41
1.0
 50
0.0
 71
     0
 42
3.5
  3
MONOTXT
  4

  0
STYLE
  2
LC-TXTSTYLE-150-400-0-0-D4
 70
    64
 40
0.0
 41
1.0
 50
15.0
 71
     0
 42
3.5
  3
LC-STANDARD
  4

  0
STYLE
  2
LC-TXTSTYLE-0-400-0-0-DIN5
 70
    64
 40
0.0
 41
1.0
 50
0.0
 71
     0
 42
3.5
  3
LC-STANDARD
  4

  0
ENDTAB
  0
TABLE
  2
VIEW
 70
     0
  0
ENDTAB
  0
TABLE
  2
UCS
 70
     0
  0
ENDTAB
  0
TABLE
  2
APPID
 70
     1
  0
APPID
  2
ACAD
 70
     0
  0
ENDTAB
  0
TABLE
  2
DIMSTYLE
 70
     4
  0
DIMSTYLE
  2
STANDARD
 70
     0
  3

  4

  5

  6

  7

 40
1.0
 41
0.18
 42
0.0625
 43
0.38
 44
0.18
 45
0.0
 46
0.0
 47
0.0
 48
0.0
 71
     0
 72
     0
 73
     1
 74
     1
 75
     0
 76
     0
 77
     0
 78
     0
140
0.18
141
0.09
142
0.0
143
25.4
144
1.0
145
0.0
146
1.0
147
0.09
170
     0
171
     2
172
     0
173
     0
174
     0
175
     0
176
     0
177
     0
178
     0
  0
DIMSTYLE
  2
LC-STANDARD
 70
     0
  3

  4

  5

  6

  7

 40
1.0
 41
3.5
 42
0.0
 43
7.5
 44
1.8
 45
0.0
 46
0.0
 47
0.0
 48
0.0
 71
     0
 72
     0
 73
     0
 74
     0
 75
     0
 76
     0
 77
     1
 78
     8
140
3.5
141
0.0
142
0.0
143
25.4
144
1.0
145
0.0
146
0.71
147
1.5
170
     0
171
     2
172
     1
173
     0
174
     0
175
     0
176
     0
177
     0
178
     3
  0
DIMSTYLE
  2
LC-DIM-L-0140-02-02
 70
     0
  3

  4

  5

  6

  7

 40
2.0
 41
3.5
 42
0.0
 43
7.5
 44
1.8
 45
0.0
 46
0.0
 47
0.0
 48
0.0
 71
     0
 72
     0
 73
     0
 74
     0
 75
     0
 76
     0
 77
     1
 78
     8
140
14.0
141
0.0
142
0.0
143
25.4
144
1.0
145
0.0
146
0.71
147
1.5
170
     0
171
     2
172
     0
173
     0
174
     0
175
     0
176
     2
177
     2
178
     8
  0
DIMSTYLE
  2
LC-DIM-L-0140-01-02
 70
     0
  3

  4

  5

  6

  7

 40
2.0
 41
3.5
 42
0.0
 43
7.5
 44
1.8
 45
0.0
 46
0.0
 47
0.0
 48
0.0
 71
     0
 72
     0
 73
     0
 74
     0
 75
     0
 76
     0
 77
     1
 78
     8
140
14.0
141
0.0
142
0.0
143
25.4
144
1.0
145
0.0
146
0.71
147
1.5
170
     0
171
     2
172
     0
173
     0
174
     0
175
     0
176
     2
177
     2
178
     8
  0
ENDTAB
  0
ENDSEC
  0
SECTION
  2
BLOCKS
  0
BLOCK
  8
0
  5
25
  2
*D0
 70
    65
 10
0.0
 20
0.0
 30
0.0
  3
*D0
  0
LINE
  8
LC-002-003-MTH-0
  6
CONTINUOUS
  5
27
 10
195.434737
 20
288.002443
 30
0.0
 11
140.000688
 21
288.002576
 31
0.0
  0
LINE
  8
LC-002-003-MTH-0
  6
CONTINUOUS
  5
28
 10
224.214797
 20
313.001614
 30
0.0
 11
140.000747
 21
313.001815
 31
0.0
  0
LINE
  8
LC-001-003-----0
  6
CONTINUOUS
  5
2A
 10
160.455355
 20
260.242071
 30
0.0
 11
156.800688
 21
288.002535
 31
0.0
  0
LINE
  8
LC-001-003-----0
  6
CONTINUOUS
  5
2B
 10
156.800688
 20
288.002535
 30
0.0
 11
153.145888
 21
260.242088
 31
0.0
  0
LINE
  8
LC-001-003-----0
  6
CONTINUOUS
  5
2C
 10
153.145888
 20
260.242088
 30
0.0
 11
160.455355
 21
260.242071
 31
0.0
  0
LINE
  8
LC-001-003-----0
  6
CONTINUOUS
  5
2D
 10
159.505124
 20
260.179791
 30
0.0
 11
156.80067
 21
280.722535
 31
0.0
  0
LINE
  8
LC-001-003-----0
  6
CONTINUOUS
  5
2E
 10
156.80067
 20
280.722535
 30
0.0
 11
154.096119
 21
260.179804
 31
0.0
  0
LINE
  8
LC-001-003-----0
  6
CONTINUOUS
  5
2F
 10
158.554893
 20
260.117512
 30
0.0
 11
156.800653
 21
273.442535
 31
0.0
  0
LINE
  8
LC-001-003-----0
  6
CONTINUOUS
  5
30
 10
156.800653
 20
273.442535
 30
0.0
 11
155.046349
 21
260.117521
 31
0.0
  0
LINE
  8
LC-001-003-----0
  6
CONTINUOUS
  5
31
 10
157.604662
 20
260.055233
 30
0.0
 11
156.800636
 21
266.162535
 31
0.0
  0
LINE
  8
LC-001-003-----0
  6
CONTINUOUS
  5
32
 10
156.800636
 20
266.162535
 30
0.0
 11
155.99658
 21
260.055237
 31
0.0
  0
LINE
  8
LC-001-003-----0
  6
CONTINUOUS
  5
33
 10
153.14608
 20
340.76224
 30
0.0
 11
156.800747
 21
313.001775
 31
0.0
  0
LINE
  8
LC-001-003-----0
  6
CONTINUOUS
  5
34
 10
156.800747
 20
313.001775
 30
0.0
 11
160.455547
 21
340.762222
 31
0.0
  0
LINE
  8
LC-001-003-----0
  6
CONTINUOUS
  5
35
 10
160.455547
 20
340.762222
 30
0.0
 11
153.14608
 21
340.76224
 31
0.0
  0
LINE
  8
LC-001-003-----0
  6
CONTINUOUS
  5
36
 10
154.096311
 20
340.824519
 30
0.0
 11
156.800765
 21
320.281775
 31
0.0
  0
LINE
  8
LC-001-003-----0
  6
CONTINUOUS
  5
37
 10
156.800765
 20
320.281775
 30
0.0
 11
159.505317
 21
340.824506
 31
0.0
  0
LINE
  8
LC-001-003-----0
  6
CONTINUOUS
  5
38
 10
155.046542
 20
340.886798
 30
0.0
 11
156.800782
 21
327.561775
 31
0.0
  0
LINE
  8
LC-001-003-----0
  6
CONTINUOUS
  5
39
 10
156.800782
 20
327.561775
 30
0.0
 11
158.555086
 21
340.88679
 31
0.0
  0
LINE
  8
LC-001-003-----0
  6
CONTINUOUS
  5
3A
 10
155.996773
 20
340.949077
 30
0.0
 11
156.8008
 21
334.841775
 31
0.0
  0
LINE
  8
LC-001-003-----0
  6
CONTINUOUS
  5
3B
 10
156.8008
 20
334.841775
 30
0.0
 11
157.604856
 21
340.949073
 31
0.0
  0
LINE
  8
LC-003-003-MTG-0
  6
CONTINUOUS
  5
3D
 10
156.800594
 20
248.802535
 30
0.0
 11
156.800947
 21
396.366175
 31
0.0
  0
TEXT
  8
LC-001-003-----0
  6
CONTINUOUS
 62
     8
  5
3F
 10
148.97326
 20
355.429915
 30
0.0
 40
28.0
  1
25
 50
90.0
 41
0.9
 51
15.0
  7
LC-TXTSTYLE-150-400-0-0-D0
  0
ENDBLK
  8
0
  5
40
  0
BLOCK
  8
0
  5
42
  2
*X1
 70
    65
 10
272.934748
 20
290.25192
 30
0.0
  3
*X1
  0
LINE
  8
LC-004-005-----0
  6
CONTINUOUS
  5
44
 10
276.863223
 20
292.782
 30
0.0
 11
275.464828
 21
294.180395
 31
0.0
  0
LINE
  8
LC-004-005-----0
  6
DASHED
  5
46
 10
276.847198
 20
291.666654
 30
0.0
 11
274.349483
 21
294.164369
 31
0.0
  0
LINE
  8
LC-004-005-----0
  6
DASHED
  5
47
 10
276.677493
 20
291.270674
 30
0.0
 11
273.953503
 21
293.994664
 31
0.0
  0
LINE
  8
LC-004-005-----0
  6
CONTINUOUS
  5
48
 10
276.151882
 20
290.664914
 30
0.0
 11
273.347743
 21
293.469053
 31
0.0
  0
LINE
  8
LC-004-005-----0
  6
CONTINUOUS
  5
49
 10
275.801579
 20
290.449531
 30
0.0
 11
273.13236
 21
293.118751
 31
0.0
  0
LINE
  8
LC-004-005-----0
  6
DASHED
  5
4A
 10
274.866661
 20
290.253079
 30
0.0
 11
272.935908
 21
292.183832
 31
0.0
  0
LINE
  8
LC-004-005-----0
  6
DASHED
  5
4B
 10
274.135487
 20
290.418567
 30
0.0
 11
273.101396
 21
291.452658
 31
0.0
  0
ENDBLK
  8
0
  5
4C
  0
BLOCK
  8
0
  5
4E
  2
*X2
 70
    65
 10
193.934747
 20
290.252108
 30
0.0
  3
*X2
  0
LINE
  8
LC-004-005-----0
  6
CONTINUOUS
  5
4F
 10
197.370521
 20
293.644427
 30
0.0
 11
197.327066
 21
293.687882
 31
0.0
  0
LINE
  8
LC-004-005-----0
  6
DASHED
  5
50
 10
197.914604
 20
291.968974
 30
0.0
 11
195.651612
 21
294.231966
 31
0.0
  0
LINE
  8
LC-004-005-----0
  6
DASHED
  5
51
 10
197.796487
 20
291.521406
 30
0.0
 11
195.204045
 21
294.113848
 31
0.0
  0
LINE
  8
LC-004-005-----0
  6
CONTINUOUS
  5
52
 10
197.348794
 20
290.837728
 30
0.0
 11
194.520367
 21
293.666155
 31
0.0
  0
LINE
  8
LC-004-005-----0
  6
CONTINUOUS
  5
53
 10
197.037344
 20
290.583492
 30
0.0
 11
194.266131
 21
293.354705
 31
0.0
  0
LINE
  8
LC-004-005-----0
  6
DASHED
  5
54
 10
196.217298
 20
290.272168
 30
0.0
 11
193.954807
 21
292.534659
 31
0.0
  0
LINE
  8
LC-004-005-----0
  6
DASHED
  5
55
 10
195.651515
 20
290.272265
 30
0.0
 11
193.954904
 21
291.968876
 31
0.0
  0
ENDBLK
  8
0
  5
56
  0
BLOCK
  8
0
  5
58
  2
BLK1
 70
    64
 10
0.0
 20
0.0
 30
0.0
  3
BLK1
  0
ENDBLK
  8
0
  5
59
  0
BLOCK
  8
0
  5
5B
  2
*X4
 70
    65
 10
194.934754
 20
288.002252
 30
0.0
  3
*X4
  0
LINE
  8
LC-004-005-----0
  6
CONTINUOUS
  5
5C
 10
273.86012
 20
288.002256
 30
0.0
 11
275.360117
 21
289.502252
 31
0.0
  0
LINE
  8
LC-004-005-----0
  6
CONTINUOUS
  5
5D
 10
271.423667
 20
288.39423
 30
0.0
 11
272.934743
 21
289.905306
 31
0.0
  0
LINE
  8
LC-004-005-----0
  6
CONTINUOUS
  5
5E
 10
270.934745
 20
290.733735
 30
0.0
 11
272.93475
 21
292.733739
 31
0.0
  0
LINE
  8
LC-004-005-----0
  6
CONTINUOUS
  5
5F
 10
275.202596
 20
295.001585
 30
0.0
 11
275.934756
 21
295.733746
 31
0.0
  0
LINE
  8
LC-004-005-----0
  6
CONTINUOUS
  5
60
 10
270.934752
 20
293.562169
 30
0.0
 11
274.374786
 21
297.002203
 31
0.0
  0
LINE
  8
LC-004-005-----0
  6
CONTINUOUS
  5
61
 10
269.545749
 20
295.001593
 30
0.0
 11
271.546273
 21
297.002117
 31
0.0
  0
LINE
  8
LC-004-005-----0
  6
CONTINUOUS
  5
62
 10
266.717318
 20
295.001589
 30
0.0
 11
268.71776
 21
297.002031
 31
0.0
  0
LINE
  8
LC-004-005-----0
  6
CONTINUOUS
  5
63
 10
263.888886
 20
295.001584
 30
0.0
 11
265.889247
 21
297.001945
 31
0.0
  0
LINE
  8
LC-004-005-----0
  6
CONTINUOUS
  5
64
 10
261.060454
 20
295.00158
 30
0.0
 11
263.060733
 21
297.001859
 31
0.0
  0
LINE
  8
LC-004-005-----0
  6
CONTINUOUS
  5
65
 10
258.232022
 20
295.001575
 30
0.0
 11
260.23222
 21
297.001773
 31
0.0
  0
LINE
  8
LC-004-005-----0
  6
CONTINUOUS
  5
66
 10
255.403591
 20
295.00157
 30
0.0
 11
257.403707
 21
297.001686
 31
0.0
  0
LINE
  8
LC-004-005-----0
  6
CONTINUOUS
  5
67
 10
247.07595
 20
289.502357
 30
0.0
 11
247.434742
 21
289.861149
 31
0.0
  0
LINE
  8
LC-004-005-----0
  6
CONTINUOUS
  5
68
 10
252.575159
 20
295.001566
 30
0.0
 11
254.575193
 21
297.0016
 31
0.0
  0
LINE
  8
LC-004-005-----0
  6
CONTINUOUS
  5
69
 10
245.434744
 20
290.689578
 30
0.0
 11
247.434749
 21
292.689583
 31
0.0
  0
LINE
  8
LC-004-005-----0
  6
CONTINUOUS
  5
6A
 10
249.746727
 20
295.001561
 30
0.0
 11
251.74668
 21
297.001514
 31
0.0
  0
LINE
  8
LC-004-005-----0
  6
CONTINUOUS
  5
6B
 10
245.434751
 20
293.518012
 30
0.0
 11
246.918296
 21
295.001557
 31
0.0
  0
LINE
  8
LC-004-005-----0
  6
CONTINUOUS
  5
6C
 10
246.918345
 20
295.001606
 30
0.0
 11
248.918167
 21
297.001428
 31
0.0
  0
LINE
  8
LC-004-005-----0
  6
CONTINUOUS
  5
6D
 10
245.434758
 20
296.346446
 30
0.0
 11
248.654765
 21
299.566454
 31
0.0
  0
LINE
  8
LC-004-005-----0
  6
CONTINUOUS
  5
6E
 10
245.434764
 20
299.17488
 30
0.0
 11
248.654772
 21
302.394887
 31
0.0
  0
LINE
  8
LC-004-005-----0
  6
CONTINUOUS
  5
6F
 10
245.434771
 20
302.003314
 30
0.0
 11
248.654779
 21
305.223321
 31
0.0
  0
LINE
  8
LC-004-005-----0
  6
CONTINUOUS
  5
70
 10
245.434778
 20
304.831747
 30
0.0
 11
248.654786
 21
308.051755
 31
0.0
  0
LINE
  8
LC-004-005-----0
  6
CONTINUOUS
  5
71
 10
245.434785
 20
307.660181
 30
0.0
 11
248.465488
 21
310.690885
 31
0.0
  0
LINE
  8
LC-004-005-----0
  6
CONTINUOUS
  5
72
 10
224.44855
 20
289.502374
 30
0.0
 11
225.434744
 21
290.488567
 31
0.0
  0
LINE
  8
LC-004-005-----0
  6
CONTINUOUS
  5
73
 10
245.434791
 20
310.488615
 30
0.0
 11
246.947751
 21
312.001575
 31
0.0
  0
LINE
  8
LC-004-005-----0
  6
CONTINUOUS
  5
74
 10
223.434746
 20
291.316997
 30
0.0
 11
225.43475
 21
293.317001
 31
0.0
  0
LINE
  8
LC-004-005-----0
  6
CONTINUOUS
  5
75
 10
244.119305
 20
312.001556
 30
0.0
 11
245.119314
 21
313.001565
 31
0.0
  0
LINE
  8
LC-004-005-----0
  6
CONTINUOUS
  5
76
 10
223.434752
 20
294.14543
 30
0.0
 11
225.434757
 21
296.145435
 31
0.0
  0
LINE
  8
LC-004-005-----0
  6
CONTINUOUS
  5
77
 10
241.290882
 20
312.00156
 30
0.0
 11
242.290893
 21
313.001572
 31
0.0
  0
LINE
  8
LC-004-005-----0
  6
CONTINUOUS
  5
78
 10
221.462473
 20
295.001578
 30
0.0
 11
225.434764
 21
298.973869
 31
0.0
  0
LINE
  8
LC-004-005-----0
  6
CONTINUOUS
  5
79
 10
238.462458
 20
312.001564
 30
0.0
 11
239.462473
 21
313.001578
 31
0.0
  0
LINE
  8
LC-004-005-----0
  6
CONTINUOUS
  5
7A
 10
218.634043
 20
295.001576
 30
0.0
 11
220.633275
 21
297.000807
 31
0.0
  0
LINE
  8
LC-004-005-----0
  6
CONTINUOUS
  5
7B
 10
222.214763
 20
298.582295
 30
0.0
 11
225.434771
 21
301.802303
 31
0.0
  0
LINE
  8
LC-004-005-----0
  6
CONTINUOUS
  5
7C
 10
235.634035
 20
312.001567
 30
0.0
 11
236.634052
 21
313.001585
 31
0.0
  0
LINE
  8
LC-004-005-----0
  6
CONTINUOUS
  5
7D
 10
215.805614
 20
295.001573
 30
0.0
 11
217.804762
 21
297.000721
 31
0.0
  0
LINE
  8
LC-004-005-----0
  6
CONTINUOUS
  5
7E
 10
222.21477
 20
301.410729
 30
0.0
 11
225.434777
 21
304.630737
 31
0.0
  0
LINE
  8
LC-004-005-----0
  6
CONTINUOUS
  5
7F
 10
232.805612
 20
312.001571
 30
0.0
 11
233.805632
 21
313.001591
 31
0.0
  0
LINE
  8
LC-004-005-----0
  6
CONTINUOUS
  5
80
 10
212.977185
 20
295.001571
 30
0.0
 11
214.976248
 21
297.000635
 31
0.0
  0
LINE
  8
LC-004-005-----0
  6
CONTINUOUS
  5
81
 10
222.214776
 20
304.239163
 30
0.0
 11
225.434784
 21
307.459171
 31
0.0
  0
LINE
  8
LC-004-005-----0
  6
CONTINUOUS
  5
82
 10
229.977188
 20
312.001575
 30
0.0
 11
230.977211
 21
313.001598
 31
0.0
  0
LINE
  8
LC-004-005-----0
  6
CONTINUOUS
  5
83
 10
210.148755
 20
295.001569
 30
0.0
 11
212.147735
 21
297.000549
 31
0.0
  0
LINE
  8
LC-004-005-----0
  6
CONTINUOUS
  5
84
 10
222.214783
 20
307.067597
 30
0.0
 11
225.434791
 21
310.287605
 31
0.0
  0
LINE
  8
LC-004-005-----0
  6
CONTINUOUS
  5
85
 10
227.148765
 20
312.001579
 30
0.0
 11
228.148791
 21
313.001605
 31
0.0
  0
LINE
  8
LC-004-005-----0
  6
CONTINUOUS
  5
86
 10
207.320326
 20
295.001567
 30
0.0
 11
209.319222
 21
297.000463
 31
0.0
  0
LINE
  8
LC-004-005-----0
  6
CONTINUOUS
  5
87
 10
222.21479
 20
309.896031
 30
0.0
 11
225.32037
 21
313.001611
 31
0.0
  0
LINE
  8
LC-004-005-----0
  6
CONTINUOUS
  5
88
 10
197.49277
 20
288.002438
 30
0.0
 11
199.934743
 21
290.444411
 31
0.0
  0
LINE
  8
LC-004-005-----0
  6
CONTINUOUS
  5
89
 10
204.491896
 20
295.001564
 30
0.0
 11
206.490708
 21
297.000376
 31
0.0
  0
LINE
  8
LC-004-005-----0
  6
CONTINUOUS
  5
8A
 10
195.434739
 20
288.772834
 30
0.0
 11
196.164346
 21
289.502441
 31
0.0
  0
LINE
  8
LC-004-005-----0
  6
CONTINUOUS
  5
8B
 10
197.934745
 20
291.27284
 30
0.0
 11
199.93475
 21
293.272845
 31
0.0
  0
LINE
  8
LC-004-005-----0
  6
CONTINUOUS
  5
8C
 10
201.663467
 20
295.001562
 30
0.0
 11
203.662195
 21
297.00029
 31
0.0
  0
LINE
  8
LC-004-005-----0
  6
CONTINUOUS
  5
8D
 10
197.934752
 20
294.101274
 30
0.0
 11
200.833682
 21
297.000204
 31
0.0
  0
LINE
  8
LC-004-005-----0
  6
CONTINUOUS
  5
8E
 10
196.006617
 20
295.001567
 30
0.0
 11
198.005169
 21
297.000118
 31
0.0
  0
LINE
  8
LC-004-005-----0
  6
CONTINUOUS
  5
8F
 10
194.934759
 20
296.758135
 30
0.0
 11
195.176655
 21
297.000032
 31
0.0
  0
ENDBLK
  8
0
  5
90
  0
BLOCK
  8
0
  5
92
  2
BLK2
 70
    64
 10
0.0
 20
0.0
 30
0.0
  3
BLK2
  0
ENDBLK
  8
0
  5
93
  0
BLOCK
  8
0
  5
95
  2
*D6
 70
    65
 10
0.0
 20
0.0
 30
0.0
  3
*D6
  0
LINE
  8
LC-002-003-MTH-0
  6
CONTINUOUS
  5
96
 10
195.434737
 20
288.002443
 30
0.0
 11
195.434571
 21
218.399533
 31
0.0
  0
LINE
  8
LC-002-003-MTH-0
  6
CONTINUOUS
  5
97
 10
275.434738
 20
288.002252
 30
0.0
 11
275.434572
 21
218.399342
 31
0.0
  0
LINE
  8
LC-003-003-MTG-0
  6
CONTINUOUS
  5
98
 10
195.434611
 20
235.199533
 30
0.0
 11
275.434612
 21
235.199342
 31
0.0
  0
LINE
  8
LC-001-003-----0
  6
CONTINUOUS
  5
99
 10
223.195076
 20
238.8542
 30
0.0
 11
195.434611
 21
235.199533
 31
0.0
  0
LINE
  8
LC-001-003-----0
  6
CONTINUOUS
  5
9A
 10
195.434611
 20
235.199533
 30
0.0
 11
223.195058
 21
231.544734
 31
0.0
  0
LINE
  8
LC-001-003-----0
  6
CONTINUOUS
  5
9B
 10
223.195058
 20
231.544734
 30
0.0
 11
223.195076
 21
238.8542
 31
0.0
  0
LINE
  8
LC-001-003-----0
  6
CONTINUOUS
  5
9C
 10
223.257355
 20
237.90397
 30
0.0
 11
202.714611
 21
235.199516
 31
0.0
  0
LINE
  8
LC-001-003-----0
  6
CONTINUOUS
  5
9D
 10
202.714611
 20
235.199516
 30
0.0
 11
223.257342
 21
232.494964
 31
0.0
  0
LINE
  8
LC-001-003-----0
  6
CONTINUOUS
  5
9E
 10
223.319634
 20
236.953739
 30
0.0
 11
209.994611
 21
235.199499
 31
0.0
  0
LINE
  8
LC-001-003-----0
  6
CONTINUOUS
  5
9F
 10
209.994611
 20
235.199499
 30
0.0
 11
223.319626
 21
233.445195
 31
0.0
  0
LINE
  8
LC-001-003-----0
  6
CONTINUOUS
  5
A0
 10
223.381913
 20
236.003508
 30
0.0
 11
217.274611
 21
235.199481
 31
0.0
  0
LINE
  8
LC-001-003-----0
  6
CONTINUOUS
  5
A1
 10
217.274611
 20
235.199481
 30
0.0
 11
223.381909
 21
234.395425
 31
0.0
  0
LINE
  8
LC-001-003-----0
  6
CONTINUOUS
  5
A2
 10
247.674147
 20
231.544675
 30
0.0
 11
275.434612
 21
235.199342
 31
0.0
  0
LINE
  8
LC-001-003-----0
  6
CONTINUOUS
  5
A3
 10
275.434612
 20
235.199342
 30
0.0
 11
247.674165
 21
238.854142
 31
0.0
  0
LINE
  8
LC-001-003-----0
  6
CONTINUOUS
  5
A4
 10
247.674165
 20
238.854142
 30
0.0
 11
247.674147
 21
231.544675
 31
0.0
  0
LINE
  8
LC-001-003-----0
  6
CONTINUOUS
  5
A5
 10
247.611868
 20
232.494906
 30
0.0
 11
268.154612
 21
235.19936
 31
0.0
  0
LINE
  8
LC-001-003-----0
  6
CONTINUOUS
  5
A6
 10
268.154612
 20
235.19936
 30
0.0
 11
247.611881
 21
237.903911
 31
0.0
  0
LINE
  8
LC-001-003-----0
  6
CONTINUOUS
  5
A7
 10
247.549589
 20
233.445137
 30
0.0
 11
260.874612
 21
235.199377
 31
0.0
  0
LINE
  8
LC-001-003-----0
  6
CONTINUOUS
  5
A8
 10
260.874612
 20
235.199377
 30
0.0
 11
247.549597
 21
236.953681
 31
0.0
  0
LINE
  8
LC-001-003-----0
  6
CONTINUOUS
  5
A9
 10
247.48731
 20
234.395368
 30
0.0
 11
253.594612
 21
235.199394
 31
0.0
  0
LINE
  8
LC-001-003-----0
  6
CONTINUOUS
  5
AA
 10
253.594612
 20
235.199394
 30
0.0
 11
247.487314
 21
236.00345
 31
0.0
  0
TEXT
  8
LC-001-003-----0
  6
CONTINUOUS
 62
     8
  5
AB
 10
212.99535
 20
243.026992
 30
0.0
 40
28.0
  1
Ø80
 50
360.0
 51
15.0
  7
LC-TXTSTYLE-150-400-0-0-D0
 72
     1
 11
239.782751
 21
243.026992
 31
0.0
  0
ENDBLK
  8
0
  5
AC
  0
BLOCK
  8
0
  5
AE
  2
BLK3
 70
    64
 10
0.0
 20
0.0
 30
0.0
  3
BLK3
  0
ENDBLK
  8
0
  5
AF
  0
BLOCK
  8
0
  5
B1
  2
*D8
 70
    65
 10
0.0
 20
0.0
 30
0.0
  3
*D8
  0
LINE
  8
LC-002-003-MTH-0
  6
CONTINUOUS
  5
B2
 10
222.214791
 20
310.501575
 30
0.0
 11
222.214933
 21
369.599469
 31
0.0
  0
LINE
  8
LC-002-003-MTH-0
  6
CONTINUOUS
  5
B3
 10
248.654791
 20
310.501581
 30
0.0
 11
248.654933
 21
369.599406
 31
0.0
  0
LINE
  8
LC-001-003-----0
  6
CONTINUOUS
  5
B4
 10
194.454428
 20
349.144802
 30
0.0
 11
222.214892
 21
352.799469
 31
0.0
  0
LINE
  8
LC-001-003-----0
  6
CONTINUOUS
  5
B5
 10
222.214892
 20
352.799469
 30
0.0
 11
194.454445
 21
356.454269
 31
0.0
  0
LINE
  8
LC-001-003-----0
  6
CONTINUOUS
  5
B6
 10
194.454445
 20
356.454269
 30
0.0
 11
194.454428
 21
349.144802
 31
0.0
  0
LINE
  8
LC-001-003-----0
  6
CONTINUOUS
  5
B7
 10
194.392148
 20
350.095033
 30
0.0
 11
214.934892
 21
352.799487
 31
0.0
  0
LINE
  8
LC-001-003-----0
  6
CONTINUOUS
  5
B8
 10
214.934892
 20
352.799487
 30
0.0
 11
194.392161
 21
355.504038
 31
0.0
  0
LINE
  8
LC-001-003-----0
  6
CONTINUOUS
  5
B9
 10
194.329869
 20
351.045264
 30
0.0
 11
207.654892
 21
352.799504
 31
0.0
  0
LINE
  8
LC-001-003-----0
  6
CONTINUOUS
  5
BA
 10
207.654892
 20
352.799504
 30
0.0
 11
194.329878
 21
354.553808
 31
0.0
  0
LINE
  8
LC-001-003-----0
  6
CONTINUOUS
  5
BB
 10
194.26759
 20
351.995495
 30
0.0
 11
200.374892
 21
352.799521
 31
0.0
  0
LINE
  8
LC-001-003-----0
  6
CONTINUOUS
  5
BC
 10
200.374892
 20
352.799521
 30
0.0
 11
194.267594
 21
353.603577
 31
0.0
  0
LINE
  8
LC-001-003-----0
  6
CONTINUOUS
  5
BD
 10
276.415357
 20
356.454073
 30
0.0
 11
248.654892
 21
352.799406
 31
0.0
  0
LINE
  8
LC-001-003-----0
  6
CONTINUOUS
  5
BE
 10
248.654892
 20
352.799406
 30
0.0
 11
276.41534
 21
349.144607
 31
0.0
  0
LINE
  8
LC-001-003-----0
  6
CONTINUOUS
  5
BF
 10
276.41534
 20
349.144607
 30
0.0
 11
276.415357
 21
356.454073
 31
0.0
  0
LINE
  8
LC-001-003-----0
  6
CONTINUOUS
  5
C0
 10
276.477636
 20
355.503842
 30
0.0
 11
255.934892
 21
352.799389
 31
0.0
  0
LINE
  8
LC-001-003-----0
  6
CONTINUOUS
  5
C1
 10
255.934892
 20
352.799389
 30
0.0
 11
276.477623
 21
350.094837
 31
0.0
  0
LINE
  8
LC-001-003-----0
  6
CONTINUOUS
  5
C2
 10
276.539916
 20
354.553612
 30
0.0
 11
263.214892
 21
352.799371
 31
0.0
  0
LINE
  8
LC-001-003-----0
  6
CONTINUOUS
  5
C3
 10
263.214892
 20
352.799371
 30
0.0
 11
276.539907
 21
351.045068
 31
0.0
  0
LINE
  8
LC-001-003-----0
  6
CONTINUOUS
  5
C4
 10
276.602195
 20
353.603381
 30
0.0
 11
270.494892
 21
352.799354
 31
0.0
  0
LINE
  8
LC-001-003-----0
  6
CONTINUOUS
  5
C5
 10
270.494892
 20
352.799354
 30
0.0
 11
276.602191
 21
351.995298
 31
0.0
  0
LINE
  8
LC-003-003-MTG-0
  6
CONTINUOUS
  5
C6
 10
183.014892
 20
352.799563
 30
0.0
 11
376.558192
 21
352.799101
 31
0.0
  0
TEXT
  8
LC-001-003-----0
  6
CONTINUOUS
 62
     8
  5
C7
 10
291.083032
 20
360.626893
 30
0.0
 40
28.0
  1
G3/4"
 51
15.0
  7
LC-TXTSTYLE-150-400-0-0-D0
  0
ENDBLK
  8
0
  5
C8
  0
ENDSEC
  0
SECTION
  2
ENTITIES
  0
VIEWPORT
  8
LC-000
  5
12D
 67
     1
 68
     1
 10
420.0
 20
297.0
 30
0.0
 40
840.0
 41
594.0
 69
     1
1001
ACAD
1000
MVIEW
1002
{
1070
    16
1010
0.0
1020
0.0
1030
0.0
1010
0.0
1020
0.0
1030
1.0
1040
0.0
1040
594.0
1040
420.0
1040
297.0
1040
50.0
1040
0.0
1040
0.0
1070
     0
1070
   100
1070
     1
1070
     1
1070
     0
1070
     0
1070
     0
1070
     0
1040
0.0
1040
0.0
1040
0.0
1040
1.0
1040
1.0
1040
0.0
1040
0.0
1070
     0
1002
{
1002
}
1002
}
  0
VIEWPORT
  8
0
  5
12E
 67
     1
 68
     1
 10
0.0
 20
0.0
 30
0.0
 40
0.0
 41
0.0
 69
     1
1001
ACAD
1000
MVIEW
1002
{
1070
    16
1010
0.0
1020
0.0
1030
0.0
1010
0.0
1020
0.0
1030
1.0
1040
0.0
1040
594.0
1040
0.0
1040
0.0
1040
50.0
1040
0.0
1040
0.0
1070
     0
1070
   100
1070
     0
1070
     1
1070
     0
1070
     0
1070
     0
1070
     0
1040
0.0
1040
0.0
1040
0.0
1040
0.5
1040
0.5
1040
0.5
1040
0.5
1070
     0
1002
{
1002
}
1002
}
  0
DIMENSION
  8
0
  5
C9
  2
*D0
 10
156.800718
 20
300.502155
 30
0.0
 11
156.800718
 21
300.502155
 31
0.0
 13
224.214797
 23
313.001614
 33
0.0
 14
195.434737
 24
288.002443
 34
0.0
 50
89.999863
  3
LC-DIM-L-0140-02-02
  0
INSERT
  8
0
  5
CA
  2
*X1
 10
272.934748
 20
290.25192
 30
0.0
  0
INSERT
  8
0
  5
CB
  2
*X2
 10
193.934747
 20
290.252108
 30
0.0
  0
INSERT
  8
0
  5
CD
  2
BLK1
 10
0.0
 20
0.0
 30
0.0
  0
INSERT
  8
0
  5
CE
  2
*X4
 10
194.934754
 20
288.002252
 30
0.0
  0
INSERT
  8
0
  5
CF
  2
BLK2
 10
0.0
 20
0.0
 30
0.0
  0
DIMENSION
  8
0
  5
D0
  2
*D6
 10
235.434612
 20
235.199438
 30
0.0
 11
235.434612
 21
235.199438
 31
0.0
 70
     1
  1
%%c<>
 13
195.434737
 23
288.002443
 33
0.0
 14
275.434738
 24
288.002252
 34
0.0
  3
LC-DIM-L-0140-01-02
  0
INSERT
  8
0
  5
D1
  2
BLK3
 10
0.0
 20
0.0
 30
0.0
  0
DIMENSION
  8
0
  5
D2
  2
*D8
 10
235.434892
 20
352.799438
 30
0.0
 11
235.434892
 21
352.799438
 31
0.0
  1
G3/4"
 13
222.214791
 23
310.501575
 33
0.0
 14
248.654791
 24
310.501581
 34
0.0
 50
-0.000137
  3
LC-DIM-L-0140-01-02
  0
ARC
  8
LC-005-002-----0
  5
D4
 10
274.934748
 20
292.25192
 30
0.0
 40
2.0
 50
89.999863
 51
269.999863
  0
ARC
  8
LC-005-002-----0
  6
CONTINUOUS
  5
D5
 10
274.934748
 20
292.25192
 30
0.0
 40
2.0
 50
269.999863
 51
89.999863
  0
ARC
  8
LC-005-002-----0
  6
CONTINUOUS
  5
D6
 10
195.934747
 20
292.252108
 30
0.0
 40
2.0
 50
89.999863
 51
269.999863
  0
ARC
  8
LC-005-002-----0
  5
D7
 10
195.934747
 20
292.252108
 30
0.0
 40
2.0
 50
269.999863
 51
359.999863
  0
ARC
  8
LC-005-002-----0
  5
D8
 10
195.934747
 20
292.252108
 30
0.0
 40
2.0
 50
0.0
 51
89.999863
  0
CIRCLE
  8
LC-005-002-----0
  6
CONTINUOUS
  5
D9
 10
235.43477
 20
173.75422
 30
0.0
 40
40.5
  0
LINE
  8
LC-005-002-----0
  6
CONTINUOUS
  5
DA
 10
272.434738
 20
288.002259
 30
0.0
 11
275.434738
 21
288.002252
 31
0.0
  0
LINE
  8
LC-005-002-----0
  6
CONTINUOUS
  5
DB
 10
225.434795
 20
312.001581
 30
0.0
 11
225.434741
 21
289.502372
 31
0.0
  0
LINE
  8
LC-005-002-----0
  6
CONTINUOUS
  5
DC
 10
199.934754
 20
295.001561
 30
0.0
 11
199.934741
 21
289.502432
 31
0.0
  0
LINE
  8
LC-005-002-----0
  6
CONTINUOUS
  5
DD
 10
270.934755
 20
295.001596
 30
0.0
 11
270.934742
 21
289.502263
 31
0.0
  0
LINE
  8
LC-005-002-----0
  6
CONTINUOUS
  5
DE
 10
197.934753
 20
294.504107
 30
0.0
 11
197.934741
 21
289.502437
 31
0.0
  0
LINE
  8
LC-005-002-----0
  6
CONTINUOUS
  5
DF
 10
194.934754
 20
295.001569
 30
0.0
 11
197.485133
 21
295.001563
 31
0.0
  0
LINE
  8
LC-005-002-----0
  6
CONTINUOUS
  5
E0
 10
194.934754
 20
295.001569
 30
0.0
 11
194.934759
 21
297.000024
 31
0.0
  0
LINE
  8
LC-005-002-----0
  6
CONTINUOUS
  5
E1
 10
270.934755
 20
295.001596
 30
0.0
 11
247.434754
 21
295.001624
 31
0.0
  0
LINE
  8
LC-005-002-----0
  6
CONTINUOUS
  5
E2
 10
272.934754
 20
294.504182
 30
0.0
 11
272.934742
 21
289.502258
 31
0.0
  0
LINE
  8
LC-005-002-----0
  6
CONTINUOUS
 62
     2
  5
E3
 10
223.714763
 20
298.501419
 30
0.0
 11
222.214759
 21
297.001414
 31
0.0
  0
LINE
  8
LC-005-002-----0
  6
CONTINUOUS
  5
E4
 10
222.214759
 20
297.000856
 30
0.0
 11
194.934759
 21
297.000024
 31
0.0
  0
LINE
  8
LC-005-002-----0
  6
CONTINUOUS
  5
E5
 10
275.434738
 20
288.002252
 30
0.0
 11
275.434742
 21
289.502252
 31
0.0
  0
LINE
  8
LC-005-002-----0
  6
CONTINUOUS
  5
E6
 10
275.434742
 20
289.502252
 30
0.0
 11
272.934742
 21
289.502258
 31
0.0
  0
LINE
  8
LC-005-002-----0
  6
CONTINUOUS
  5
E7
 10
198.434737
 20
288.002436
 30
0.0
 11
195.434737
 21
288.002443
 31
0.0
  0
LINE
  8
LC-005-002-----0
  6
CONTINUOUS
  5
E8
 10
195.434737
 20
288.002443
 30
0.0
 11
195.434741
 21
289.502443
 31
0.0
  0
LINE
  8
LC-005-002-----0
  6
CONTINUOUS
  5
E9
 10
195.434741
 20
289.502443
 30
0.0
 11
197.934741
 21
289.502437
 31
0.0
  0
ARC
  8
LC-007-002-RND-0
  6
CONTINUOUS
  5
EB
 10
198.434741
 20
289.502436
 30
0.0
 40
1.5
 50
269.999863
 51
359.999863
  0
ARC
  8
LC-007-002-RND-0
  6
CONTINUOUS
  5
EC
 10
197.434753
 20
294.504108
 30
0.0
 40
0.5
 50
359.999863
 51
84.216988
  0
LINE
  8
LC-005-002-----0
  6
CONTINUOUS
  5
ED
 10
275.934754
 20
295.001584
 30
0.0
 11
273.383917
 21
295.00159
 31
0.0
  0
LINE
  8
LC-005-002-----0
  6
CONTINUOUS
  5
EE
 10
275.934754
 20
295.001584
 30
0.0
 11
275.934759
 21
297.002251
 31
0.0
  0
ARC
  8
LC-007-002-RND-0
  6
CONTINUOUS
  5
EF
 10
273.434754
 20
294.504181
 30
0.0
 40
0.5
 50
95.835508
 51
179.999863
  0
LINE
  8
LC-005-002-----0
  6
CONTINUOUS
  5
F0
 10
275.934759
 20
297.002251
 30
0.0
 11
248.654759
 21
297.00142
 31
0.0
  0
LINE
  8
LC-005-002-----0
  6
CONTINUOUS
  5
F1
 10
224.214795
 20
312.001581
 30
0.0
 11
224.214797
 21
313.001614
 31
0.0
  0
LINE
  8
LC-005-002-----0
  6
CONTINUOUS
  5
F2
 10
245.434795
 20
312.001554
 30
0.0
 11
225.434795
 21
312.001581
 31
0.0
  0
LINE
  8
LC-005-002-----0
  6
CONTINUOUS
  5
F3
 10
246.654795
 20
312.001576
 30
0.0
 11
247.154795
 21
312.001575
 31
0.0
  0
LINE
  8
LC-008-006-MLN-0
  6
DASHDOT
  5
F7
 10
235.434714
 20
278.002348
 30
0.0
 11
235.434819
 21
322.001578
 31
0.0
  0
LINE
  8
LC-005-002-----0
  6
CONTINUOUS
  5
F8
 10
247.154795
 20
312.001576
 30
0.0
 11
248.654791
 21
310.501581
 31
0.0
  0
LINE
  8
LC-005-002-----0
  6
CONTINUOUS
  5
F9
 10
223.714795
 20
312.00158
 30
0.0
 11
222.214791
 21
310.501575
 31
0.0
  0
LINE
  8
LC-005-002-----0
  6
CONTINUOUS
  5
FA
 10
224.214795
 20
312.001581
 30
0.0
 11
223.714795
 21
312.001582
 31
0.0
  0
LINE
  8
LC-005-002-----0
  6
CONTINUOUS
  5
FB
 10
248.654791
 20
310.501581
 30
0.0
 11
248.654759
 21
297.00142
 31
0.0
  0
LINE
  8
LC-005-002-----0
  6
CONTINUOUS
  5
FC
 10
246.654795
 20
312.001576
 30
0.0
 11
246.654797
 21
313.001561
 31
0.0
  0
LINE
  8
LC-005-002-----0
  6
CONTINUOUS
  5
FD
 10
222.214791
 20
310.501575
 30
0.0
 11
222.214759
 21
297.000856
 31
0.0
  0
LINE
  8
LC-005-002-----0
  6
CONTINUOUS
  5
FE
 10
245.434741
 20
289.502302
 30
0.0
 11
245.434795
 21
312.001554
 31
0.0
  0
LINE
  8
LC-005-002-----0
  6
CONTINUOUS
  5
FF
 10
246.654797
 20
313.001561
 30
0.0
 11
224.214797
 21
313.001614
 31
0.0
  0
LINE
  8
LC-005-002-----0
  6
CONTINUOUS
 62
     2
  5
100
 10
247.154763
 20
298.501415
 30
0.0
 11
248.654759
 21
297.00142
 31
0.0
  0
LINE
  8
LC-005-002-----0
  6
CONTINUOUS
 62
     2
  5
101
 10
247.154795
 20
312.001576
 30
0.0
 11
247.154763
 21
298.501415
 31
0.0
  0
LINE
  8
LC-005-002-----0
  6
CONTINUOUS
 62
     2
  5
102
 10
223.714795
 20
312.00158
 30
0.0
 11
223.714763
 21
298.501419
 31
0.0
  0
LINE
  8
LC-005-002-----0
  6
CONTINUOUS
  5
103
 10
230.434738
 20
288.00236
 30
0.0
 11
230.434741
 21
289.50236
 31
0.0
  0
LINE
  8
LC-005-002-----0
  6
CONTINUOUS
  5
104
 10
240.434738
 20
288.002336
 30
0.0
 11
230.434738
 21
288.00236
 31
0.0
  0
LINE
  8
LC-005-002-----0
  6
CONTINUOUS
  5
105
 10
240.434738
 20
288.002336
 30
0.0
 11
240.434741
 21
289.502336
 31
0.0
  0
LINE
  8
LC-005-002-----0
  6
CONTINUOUS
  5
106
 10
270.934742
 20
289.502263
 30
0.0
 11
240.434741
 21
289.502336
 31
0.0
  0
LINE
  8
LC-005-002-----0
  6
CONTINUOUS
  5
107
 10
230.434741
 20
289.50236
 30
0.0
 11
199.934741
 21
289.502432
 31
0.0
  0
ARC
  8
LC-007-002-RND-0
  6
CONTINUOUS
  5
108
 10
272.434742
 20
289.502259
 30
0.0
 40
1.5
 50
179.999863
 51
269.999863
  0
ARC
  8
LC-005-002-----0
  6
CONTINUOUS
  5
109
 10
235.43477
 20
173.75422
 30
0.0
 40
28.941343
 50
66.070414
 51
113.9296
  0
TEXT
  8
LC-009-004-----0
  6
CONTINUOUS
  5
10C
 10
247.072999
 20
197.159329
 30
0.0
 40
7.0
  1
AUF
 50
320.8
 41
0.8
  7
LC-TXTSTYLE-0-400-0-0-DIN0
 72
     1
 11
252.18153
 21
192.992912
 31
0.0
  0
TEXT
  8
LC-009-004-----0
  6
CONTINUOUS
  5
10D
 10
216.792264
 20
192.257621
 30
0.0
 40
7.0
  1
ZU
 50
31.6
  7
LC-TXTSTYLE-0-400-0-0-DIN0
 72
     1
 11
220.285015
 21
194.406376
 31
0.0
  0
LINE
  8
LC-005-002-----0
  6
CONTINUOUS
  5
10E
 10
247.173773
 20
200.207899
 30
0.0
 11
243.134546
 21
202.309014
 31
0.0
  0
LINE
  8
LC-005-002-----0
  6
CONTINUOUS
  5
10F
 10
223.69576
 20
200.207896
 30
0.0
 11
228.158723
 21
201.109003
 31
0.0
  0
LINE
  8
LC-005-002-----0
  6
CONTINUOUS
  5
110
 10
247.173773
 20
200.207899
 30
0.0
 11
242.710809
 21
201.109005
 31
0.0
  0
LINE
  8
LC-005-002-----0
  6
CONTINUOUS
  5
111
 10
223.434754
 20
295.001582
 30
0.0
 11
199.934754
 21
295.001561
 31
0.0
  0
LINE
  8
LC-005-002-----0
  6
CONTINUOUS
  5
112
 10
223.434754
 20
295.001582
 30
0.0
 11
223.434741
 21
289.502375
 31
0.0
  0
LINE
  8
LC-005-002-----0
  6
CONTINUOUS
  5
113
 10
247.434754
 20
295.001575
 30
0.0
 11
247.434741
 21
289.502369
 31
0.0
  0
LINE
  8
LC-005-002-----0
  6
CONTINUOUS
  5
114
 10
243.134546
 20
202.309014
 30
0.0
 11
242.710809
 21
201.109005
 31
0.0
  0
LINE
  8
LC-005-002-----0
  6
CONTINUOUS
  5
115
 10
223.69576
 20
200.207896
 30
0.0
 11
227.734986
 21
202.309012
 31
0.0
  0
LINE
  8
LC-005-002-----0
  6
CONTINUOUS
  5
116
 10
227.734986
 20
202.309012
 30
0.0
 11
228.158723
 21
201.109003
 31
0.0
  0
LINE
  8
LC-005-002-----0
  6
CONTINUOUS
  5
117
 10
199.934769
 20
174.754215
 30
0.0
 11
199.934769
 21
172.754215
 31
0.0
  0
LINE
  8
LC-005-002-----0
  6
CONTINUOUS
  5
118
 10
199.934769
 20
172.754215
 30
0.0
 11
214.934769
 21
172.754215
 31
0.0
  0
LINE
  8
LC-005-002-----0
  6
CONTINUOUS
  5
119
 10
214.934769
 20
172.754215
 30
0.0
 11
214.934769
 21
174.754215
 31
0.0
  0
CIRCLE
  8
LC-005-002-----0
  6
CONTINUOUS
  5
11A
 10
235.43477
 20
173.75422
 30
0.0
 40
13.220015
  0
LINE
  8
LC-005-002-----0
  6
CONTINUOUS
  5
11B
 10
214.934769
 20
174.754215
 30
0.0
 11
199.942693
 21
174.754215
 31
0.0
  0
LINE
  8
LC-005-002-----0
  6
CONTINUOUS
  5
11C
 10
270.934771
 20
172.754224
 30
0.0
 11
255.934771
 21
172.754221
 31
0.0
  0
LINE
  8
LC-005-002-----0
  6
CONTINUOUS
  5
11D
 10
255.93477
 20
174.754221
 30
0.0
 11
270.926847
 21
174.754224
 31
0.0
  0
LINE
  8
LC-005-002-----0
  6
CONTINUOUS
  5
11E
 10
255.934771
 20
172.754221
 30
0.0
 11
255.93477
 21
174.754221
 31
0.0
  0
LINE
  8
LC-005-002-----0
  6
CONTINUOUS
  5
11F
 10
270.93477
 20
174.754224
 30
0.0
 11
270.93477
 21
172.754224
 31
0.0
  0
CIRCLE
  8
LC-005-002-----0
  6
CONTINUOUS
  5
120
 10
235.43477
 20
173.75422
 30
0.0
 40
11.220015
  0
LINE
  8
LC-005-002-----0
  6
CONTINUOUS
  5
121
 10
199.94888
 20
305.000201
 30
0.0
 11
199.948861
 21
297.000162
 31
0.0
  0
LINE
  8
LC-005-002-----0
  6
CONTINUOUS
  5
122
 10
268.934793
 20
307.000238
 30
0.0
 11
257.934793
 21
307.000231
 31
0.0
  0
LINE
  8
LC-005-002-----0
  6
CONTINUOUS
  5
123
 10
214.934793
 20
305.000198
 30
0.0
 11
214.934774
 21
297.000574
 31
0.0
  0
LINE
  8
LC-005-002-----0
  6
CONTINUOUS
  5
124
 10
255.934794
 20
305.000236
 30
0.0
 11
255.934775
 21
297.001701
 31
0.0
  0
LINE
  8
LC-005-002-----0
  6
CONTINUOUS
  5
125
 10
270.934794
 20
305.000233
 30
0.0
 11
270.934775
 21
297.002114
 31
0.0
  0
LINE
  8
LC-005-002-----0
  6
CONTINUOUS
  5
126
 10
212.934792
 20
307.000203
 30
0.0
 11
201.948879
 21
307.000196
 31
0.0
  0
ARC
  8
LC-007-002-RND-0
  6
CONTINUOUS
  5
127
 10
201.94888
 20
305.000196
 30
0.0
 40
2.0
 50
90.000036
 51
179.999863
  0
ARC
  8
LC-007-002-RND-0
  6
CONTINUOUS
  5
128
 10
212.934793
 20
305.000203
 30
0.0
 40
2.0
 50
359.999863
 51
90.000036
  0
ARC
  8
LC-007-002-RND-0
  6
CONTINUOUS
  5
129
 10
257.934794
 20
305.000231
 30
0.0
 40
2.0
 50
90.000036
 51
179.999863
  0
ARC
  8
LC-007-002-RND-0
  6
CONTINUOUS
  5
12A
 10
268.934794
 20
305.000238
 30
0.0
 40
2.0
 50
359.999863
 51
90.000036
  0
ARC
  8
LC-007-002-RND-0
  6
CONTINUOUS
  5
12B
 10
212.934793
 20
305.000203
 30
0.0
 40
2.0
 50
359.999863
 51
90.000036
  0
ENDSEC
  0
EOF
