  0
SECTION
  2
HEADER
  9
$ACADVER
  1
AC1015
  9
$ACADMAINTVER
 70
     6
  9
$DWGCODEPAGE
  3
ANSI_1252
  9
$INSBASE
 10
0.0
 20
0.0
 30
0.0
  9
$EXTMIN
 10
-209.760318
 20
-147.978432
 30
0.0
  9
$EXTMAX
 10
630.239682
 20
446.021568
 30
0.0
  9
$LIMMIN
 10
-209.760318
 20
-147.978432
  9
$LIMMAX
 10
630.239682
 20
446.021568
  9
$ORTHOMODE
 70
     0
  9
$REGENMODE
 70
     1
  9
$FILLMODE
 70
     1
  9
$QTEXTMODE
 70
     0
  9
$MIRRTEXT
 70
     1
  9
$LTSCALE
 40
2.0
  9
$ATTMODE
 70
     1
  9
$TEXTSIZE
 40
2.5
  9
$TRACEWID
 40
1.0
  9
$TEXTSTYLE
  7
Standard
  9
$CLAYER
  8
0
  9
$CELTYPE
  6
ByLayer
  9
$CECOLOR
 62
     7
  9
$CELTSCALE
 40
1.0
  9
$DISPSILH
 70
     0
  9
$DIMSCALE
 40
2.0
  9
$DIMASZ
 40
3.5
  9
$DIMEXO
 40
0.625
  9
$DIMDLI
 40
3.75
  9
$DIMRND
 40
0.0
  9
$DIMDLE
 40
0.0
  9
$DIMEXE
 40
1.25
  9
$DIMTP
 40
0.0
  9
$DIMTM
 40
0.0
  9
$DIMTXT
 40
3.5
  9
$DIMCEN
 40
2.5
  9
$DIMTSZ
 40
0.0
  9
$DIMTOL
 70
     0
  9
$DIMLIM
 70
     0
  9
$DIMTIH
 70
     0
  9
$DIMTOH
 70
     0
  9
$DIMSE1
 70
     0
  9
$DIMSE2
 70
     0
  9
$DIMTAD
 70
     1
  9
$DIMZIN
 70
     8
  9
$DIMBLK
  1

  9
$DIMASO
 70
     1
  9
$DIMSHO
 70
     1
  9
$DIMPOST
  1

  9
$DIMAPOST
  1

  9
$DIMALT
 70
     0
  9
$DIMALTD
 70
     3
  9
$DIMALTF
 40
0.03937
  9
$DIMLFAC
 40
1.0
  9
$DIMTOFL
 70
     1
  9
$DIMTVP
 40
0.0
  9
$DIMTIX
 70
     0
  9
$DIMSOXD
 70
     0
  9
$DIMSAH
 70
     0
  9
$DIMBLK1
  1

  9
$DIMBLK2
  1

  9
$DIMSTYLE
  2
ISO-25
  9
$DIMCLRD
 70
     0
  9
$DIMCLRE
 70
     0
  9
$DIMCLRT
 70
     0
  9
$DIMTFAC
 40
1.0
  9
$DIMGAP
 40
0.625
  9
$DIMJUST
 70
     0
  9
$DIMSD1
 70
     0
  9
$DIMSD2
 70
     0
  9
$DIMTOLJ
 70
     0
  9
$DIMTZIN
 70
     8
  9
$DIMALTZ
 70
     0
  9
$DIMALTTZ
 70
     0
  9
$DIMUPT
 70
     0
  9
$DIMDEC
 70
     2
  9
$DIMTDEC
 70
     2
  9
$DIMALTU
 70
     2
  9
$DIMALTTD
 70
     3
  9
$DIMTXSTY
  7
Standard
  9
$DIMAUNIT
 70
     0
  9
$DIMADEC
 70
     0
  9
$DIMALTRND
 40
0.0
  9
$DIMAZIN
 70
     0
  9
$DIMDSEP
 70
    44
  9
$DIMATFIT
 70
     3
  9
$DIMFRAC
 70
     0
  9
$DIMLDRBLK
  1

  9
$DIMLUNIT
 70
     2
  9
$DIMLWD
 70
    -2
  9
$DIMLWE
 70
    -2
  9
$DIMTMOVE
 70
     0
  9
$LUNITS
 70
     2
  9
$LUPREC
 70
     4
  9
$SKETCHINC
 40
1.0
  9
$FILLETRAD
 40
10.0
  9
$AUNITS
 70
     0
  9
$AUPREC
 70
     0
  9
$MENU
  1
.
  9
$ELEVATION
 40
0.0
  9
$PELEVATION
 40
0.0
  9
$THICKNESS
 40
0.0
  9
$LIMCHECK
 70
     0
  9
$CHAMFERA
 40
10.0
  9
$CHAMFERB
 40
10.0
  9
$CHAMFERC
 40
20.0
  9
$CHAMFERD
 40
0.0
  9
$SKPOLY
 70
     0
  9
$TDCREATE
 40
2455657.336418171
  9
$TDUCREATE
 40
2455657.253084838
  9
$TDUPDATE
 40
2455657.336418183
  9
$TDUUPDATE
 40
2455657.25308485
  9
$TDINDWG
 40
0.0000000116
  9
$TDUSRTIMER
 40
0.0000000116
  9
$USRTIMER
 70
     1
  9
$ANGBASE
 50
0.0
  9
$ANGDIR
 70
     0
  9
$PDMODE
 70
     0
  9
$PDSIZE
 40
0.0
  9
$PLINEWID
 40
0.0
  9
$SPLFRAME
 70
     0
  9
$SPLINETYPE
 70
     6
  9
$SPLINESEGS
 70
     8
  9
$HANDSEED
  5
181
  9
$SURFTAB1
 70
     6
  9
$SURFTAB2
 70
     6
  9
$SURFTYPE
 70
     6
  9
$SURFU
 70
     6
  9
$SURFV
 70
     6
  9
$UCSBASE
  2

  9
$UCSNAME
  2

  9
$UCSORG
 10
0.0
 20
0.0
 30
0.0
  9
$UCSXDIR
 10
1.0
 20
0.0
 30
0.0
  9
$UCSYDIR
 10
0.0
 20
1.0
 30
0.0
  9
$UCSORTHOREF
  2

  9
$UCSORTHOVIEW
 70
     0
  9
$UCSORGTOP
 10
0.0
 20
0.0
 30
0.0
  9
$UCSORGBOTTOM
 10
0.0
 20
0.0
 30
0.0
  9
$UCSORGLEFT
 10
0.0
 20
0.0
 30
0.0
  9
$UCSORGRIGHT
 10
0.0
 20
0.0
 30
0.0
  9
$UCSORGFRONT
 10
0.0
 20
0.0
 30
0.0
  9
$UCSORGBACK
 10
0.0
 20
0.0
 30
0.0
  9
$PUCSBASE
  2

  9
$PUCSNAME
  2

  9
$PUCSORG
 10
0.0
 20
0.0
 30
0.0
  9
$PUCSXDIR
 10
1.0
 20
0.0
 30
0.0
  9
$PUCSYDIR
 10
0.0
 20
1.0
 30
0.0
  9
$PUCSORTHOREF
  2

  9
$PUCSORTHOVIEW
 70
     0
  9
$PUCSORGTOP
 10
0.0
 20
0.0
 30
0.0
  9
$PUCSORGBOTTOM
 10
0.0
 20
0.0
 30
0.0
  9
$PUCSORGLEFT
 10
0.0
 20
0.0
 30
0.0
  9
$PUCSORGRIGHT
 10
0.0
 20
0.0
 30
0.0
  9
$PUCSORGFRONT
 10
0.0
 20
0.0
 30
0.0
  9
$PUCSORGBACK
 10
0.0
 20
0.0
 30
0.0
  9
$USERI1
 70
     0
  9
$USERI2
 70
     0
  9
$USERI3
 70
     0
  9
$USERI4
 70
     0
  9
$USERI5
 70
     0
  9
$USERR1
 40
0.0
  9
$USERR2
 40
0.0
  9
$USERR3
 40
0.0
  9
$USERR4
 40
0.0
  9
$USERR5
 40
0.0
  9
$WORLDVIEW
 70
     1
  9
$SHADEDGE
 70
     3
  9
$SHADEDIF
 70
    70
  9
$TILEMODE
 70
     1
  9
$MAXACTVP
 70
    64
  9
$PINSBASE
 10
0.0
 20
0.0
 30
0.0
  9
$PLIMCHECK
 70
     0
  9
$PEXTMIN
 10
-209.760318
 20
-147.978432
 30
0.0
  9
$PEXTMAX
 10
630.239682
 20
446.021568
 30
0.0
  9
$PLIMMIN
 10
-209.760318
 20
-147.978432
  9
$PLIMMAX
 10
630.239682
 20
446.021568
  9
$UNITMODE
 70
     0
  9
$VISRETAIN
 70
     1
  9
$PLINEGEN
 70
     0
  9
$PSLTSCALE
 70
     1
  9
$TREEDEPTH
 70
  3020
  9
$CMLSTYLE
  2
Standard
  9
$CMLJUST
 70
     0
  9
$CMLSCALE
 40
20.0
  9
$PROXYGRAPHICS
 70
     1
  9
$MEASUREMENT
 70
     1
  9
$CELWEIGHT
370
    -1
  9
$ENDCAPS
280
     0
  9
$JOINSTYLE
280
     0
  9
$LWDISPLAY
290
     0
  9
$INSUNITS
 70
     4
  9
$HYPERLINKBASE
  1

  9
$STYLESHEET
  1

  9
$XEDIT
290
     1
  9
$CEPSNTYPE
380
     0
  9
$PSTYLEMODE
290
     1
  9
$FINGERPRINTGUID
  2
{FAEB1C30-E019-11D5-929B-00C0DF256EC4}
  9
$VERSIONGUID
  2
{FAEB1C32-E019-11D5-929B-00C0DF256EC4}
  9
$EXTNAMES
290
     1
  9
$PSVPSCALE
 40
0.0
  9
$OLESTARTUP
290
     0
  0
ENDSEC
  0
SECTION
  2
CLASSES
  0
CLASS
  1
ACDBDICTIONARYWDFLT
  2
AcDbDictionaryWithDefault
  3
ObjectDBX Classes
 90
        0
280
     0
281
     0
  0
CLASS
  1
ACDBPLACEHOLDER
  2
AcDbPlaceHolder
  3
ObjectDBX Classes
 90
        0
280
     0
281
     0
  0
CLASS
  1
LAYOUT
  2
AcDbLayout
  3
ObjectDBX Classes
 90
        0
280
     0
281
     0
  0
ENDSEC
  0
SECTION
  2
TABLES
  0
TABLE
  2
VPORT
  5
8
330
0
100
AcDbSymbolTable
 70
     2
  0
VPORT
  5
29
330
8
100
AcDbSymbolTableRecord
100
AcDbViewportTableRecord
  2
*ACTIVE
 70
     0
 10
0.0
 20
0.0
 11
1.0
 21
1.0
 12
210.239682
 22
149.021568
 13
0.0
 23
0.0
 14
1.0
 24
1.0
 15
0.0
 25
0.0
 16
0.0
 26
0.0
 36
1.0
 17
0.0
 27
0.0
 37
0.0
 40
594.0
 41
1.414141
 42
50.0
 43
0.0
 44
0.0
 50
0.0
 51
0.0
 71
    16
 72
   100
 73
     1
 74
     0
 75
     0
 76
     0
 77
     0
 78
     0
281
     0
 65
     0
110
0.0
120
0.0
130
0.0
111
1.0
121
0.0
131
0.0
112
0.0
122
1.0
132
0.0
 79
     0
146
0.0
  0
ENDTAB
  0
TABLE
  2
LTYPE
  5
5
330
0
100
AcDbSymbolTable
 70
     2
  0
LTYPE
  5
14
330
5
100
AcDbSymbolTableRecord
100
AcDbLinetypeTableRecord
  2
ByBlock
 70
     0
  3

 72
    65
 73
     0
 40
0.0
  0
LTYPE
  5
15
330
5
100
AcDbSymbolTableRecord
100
AcDbLinetypeTableRecord
  2
ByLayer
 70
     0
  3

 72
    65
 73
     0
 40
0.0
  0
LTYPE
  5
16
330
5
100
AcDbSymbolTableRecord
100
AcDbLinetypeTableRecord
  2
Continuous
 70
     0
  3
Solid line
 72
    65
 73
     0
 40
0.0
  0
LTYPE
  5
2A
330
5
100
AcDbSymbolTableRecord
100
AcDbLinetypeTableRecord
  2
DASHED
 70
     0
  3
__ __ __ __ __
 72
    65
 73
     2
 40
6.25
 49
5.0
 74
     4
 75
     0
340
0
 46
1.0
 50
0.0
 44
0.0
 45
0.0
 49
-1.25
 74
     4
 75
     0
340
0
 46
1.0
 50
0.0
 44
0.0
 45
0.0
  0
ENDTAB
  0
TABLE
  2
LAYER
  5
2
330
0
100
AcDbSymbolTable
 70
     8
  0
LAYER
  5
10
330
2
100
AcDbSymbolTableRecord
100
AcDbLayerTableRecord
  2
0
 70
     0
 62
     7
  6
Continuous
370
    -3
390
F
  0
LAYER
  5
2B
330
2
100
AcDbSymbolTableRecord
100
AcDbLayerTableRecord
  2
LC-INFO-1-2-mm-A3-0
 70
     1
 62
     7
  6
ByBlock
370
    -3
390
F
  0
LAYER
  5
2C
330
2
100
AcDbSymbolTableRecord
100
AcDbLayerTableRecord
  2
LC-CUT-HIDDEN
 70
     0
 62
     7
  6
DASHED
370
    -3
390
F
  0
LAYER
  5
2D
330
2
100
AcDbSymbolTableRecord
100
AcDbLayerTableRecord
  2
LC-VIEWPORT
 70
     0
 62
     7
  6
ByBlock
370
    -3
390
F
  0
LAYER
  5
2E
330
2
100
AcDbSymbolTableRecord
100
AcDbLayerTableRecord
  2
LC-3D-HIDDEN
 70
     0
 62
     9
  6
DASHED
370
    -3
390
F
  0
LAYER
  5
31
330
2
100
AcDbSymbolTableRecord
100
AcDbLayerTableRecord
  2
LC-001-100-D00-0
 70
     0
 62
     2
  6
ByBlock
370
    -3
390
F
  0
LAYER
  5
172
330
2
100
AcDbSymbolTableRecord
100
AcDbLayerTableRecord
  2
LC-002-003-----0
 70
     0
 62
     2
  6
ByBlock
370
    -3
390
F
  0
LAYER
  5
174
330
2
100
AcDbSymbolTableRecord
100
AcDbLayerTableRecord
  2
Defpoints
 70
     0
 62
     7
  6
Continuous
290
     0
370
    -3
390
F
  0
ENDTAB
  0
TABLE
  2
STYLE
  5
3
330
0
100
AcDbSymbolTable
 70
     4
  0
STYLE
  5
11
330
3
100
AcDbSymbolTableRecord
100
AcDbTextStyleTableRecord
  2
Standard
 70
     0
 40
0.0
 41
1.0
 50
0.0
 71
     0
 42
2.5
  3
txt
  4

  0
STYLE
  5
2F
330
3
100
AcDbSymbolTableRecord
100
AcDbTextStyleTableRecord
  2
LCTX0-400-0-0pDIN-Schrift
 70
     0
 40
0.0
 41
0.75
 50
0.0
 71
     0
 42
3.5
  3
TXT
  4

  0
STYLE
  5
30
330
3
100
AcDbSymbolTableRecord
100
AcDbTextStyleTableRecord
  2
LCTX15-400-0-0-Arial
 70
     0
 40
0.0
 41
0.8
 50
0.0
 71
     0
 42
3.5
  3

  4

1001
ACAD
1000
Arial
1071
 16777218
  0
STYLE
  5
170
330
3
100
AcDbSymbolTableRecord
100
AcDbTextStyleTableRecord
  2
LCTX15-400-0-0pDIN-Schrift
 70
     0
 40
2.5
 41
0.8
 50
15.0
 71
     0
 42
3.5
  3
STANDARD
  4

  0
ENDTAB
  0
TABLE
  2
VIEW
  5
6
330
0
100
AcDbSymbolTable
 70
     0
  0
ENDTAB
  0
TABLE
  2
UCS
  5
7
330
0
100
AcDbSymbolTable
 70
     0
  0
ENDTAB
  0
TABLE
  2
APPID
  5
9
330
0
100
AcDbSymbolTable
 70
     1
  0
APPID
  5
12
330
9
100
AcDbSymbolTableRecord
100
AcDbRegAppTableRecord
  2
ACAD
 70
     0
  0
ENDTAB
  0
TABLE
  2
DIMSTYLE
  5
A
330
0
100
AcDbSymbolTable
 70
     2
100
AcDbDimStyleTable
  0
DIMSTYLE
105
27
330
A
100
AcDbSymbolTableRecord
100
AcDbDimStyleTableRecord
  2
ISO-25
 70
     0
 41
2.5
 42
0.625
 43
3.75
 44
1.25
 73
     0
 74
     0
 77
     1
 78
     8
140
2.5
141
2.5
143
0.03937
147
0.625
171
     3
172
     1
271
     2
272
     2
274
     3
278
    44
283
     0
284
     8
340
11
  0
DIMSTYLE
105
171
102
{ACAD_REACTORS
330
173
102
}
330
A
100
AcDbSymbolTableRecord
100
AcDbDimStyleTableRecord
  2
LC-DIM-L-0140-02-02
 70
     0
 40
2.0
 41
14.0
 42
0.0
 43
7.5
 44
1.8
 73
     0
 74
     0
 77
     1
 78
     8
 79
     2
140
14.0
141
0.0
146
0.71
147
1.5
176
     2
177
     2
178
     2
179
     2
271
     2
278
    44
289
     1
340
170
  0
ENDTAB
  0
TABLE
  2
BLOCK_RECORD
  5
1
330
0
100
AcDbSymbolTable
 70
     2
  0
BLOCK_RECORD
  5
1F
330
1
100
AcDbSymbolTableRecord
100
AcDbBlockTableRecord
  2
*Model_Space
340
22
  0
BLOCK_RECORD
  5
1B
330
1
100
AcDbSymbolTableRecord
100
AcDbBlockTableRecord
  2
*Paper_Space
340
1E
  0
BLOCK_RECORD
  5
23
330
1
100
AcDbSymbolTableRecord
100
AcDbBlockTableRecord
  2
*Paper_Space0
340
26
  0
BLOCK_RECORD
  5
175
330
1
100
AcDbSymbolTableRecord
100
AcDbBlockTableRecord
  2
*D1
340
0
  0
ENDTAB
  0
ENDSEC
  0
SECTION
  2
BLOCKS
  0
BLOCK
  5
20
330
1F
100
AcDbEntity
  8
0
100
AcDbBlockBegin
  2
*Model_Space
 70
     0
 71
     0
 10
0.0
 20
0.0
 30
0.0
  3
*Model_Space
  1

  0
ENDBLK
  5
21
330
1F
100
AcDbEntity
  8
0
100
AcDbBlockEnd
  0
BLOCK
  5
1C
330
1B
100
AcDbEntity
 67
     1
  8
0
100
AcDbBlockBegin
  2
*Paper_Space
 70
     0
 71
     0
 10
0.0
 20
0.0
 30
0.0
  3
*Paper_Space
  1

  0
ENDBLK
  5
1D
330
1B
100
AcDbEntity
 67
     1
  8
0
100
AcDbBlockEnd
  0
BLOCK
  5
24
330
23
100
AcDbEntity
  8
0
100
AcDbBlockBegin
  2
*Paper_Space0
 70
     0
 71
     0
 10
0.0
 20
0.0
 30
0.0
  3
*Paper_Space0
  1

  0
ENDBLK
  5
25
330
23
100
AcDbEntity
  8
0
100
AcDbBlockEnd
  0
BLOCK
  5
17F
330
175
100
AcDbEntity
  8
0
100
AcDbBlockBegin
  2
*D1
 70
     1
 71
     0
 10
0.0
 20
0.0
 30
0.0
  3
*D1
  1

  0
LINE
  5
176
330
175
100
AcDbEntity
  8
LC-002-003-----0
 62
     2
370
    -2
100
AcDbLine
 10
160.316239
 20
196.53409
 30
0.0
 11
160.316239
 21
220.931568
 31
0.0
  0
LINE
  5
177
330
175
100
AcDbEntity
  8
LC-002-003-----0
 62
     2
370
    -2
100
AcDbLine
 10
251.316239
 20
196.53409
 30
0.0
 11
251.316239
 21
220.931568
 31
0.0
  0
LINE
  5
178
330
175
100
AcDbEntity
  8
LC-002-003-----0
 62
     2
370
    -2
100
AcDbLine
 10
188.316239
 20
217.331568
 30
0.0
 11
223.316239
 21
217.331568
 31
0.0
  0
SOLID
  5
179
330
175
100
AcDbEntity
  8
LC-002-003-----0
 62
     2
100
AcDbTrace
 10
188.316239
 20
221.998235
 30
0.0
 11
188.316239
 21
212.664902
 31
0.0
 12
160.316239
 22
217.331568
 32
0.0
 13
160.316239
 23
217.331568
 33
0.0
  0
SOLID
  5
17A
330
175
100
AcDbEntity
  8
LC-002-003-----0
 62
     2
100
AcDbTrace
 10
223.316239
 20
212.664902
 30
0.0
 11
223.316239
 21
221.998235
 31
0.0
 12
251.316239
 22
217.331568
 32
0.0
 13
251.316239
 23
217.331568
 33
0.0
  0
MTEXT
  5
17B
330
175
100
AcDbEntity
  8
LC-002-003-----0
 62
     2
100
AcDbMText
 10
201.395771
 20
248.131568
 30
0.0
 40
28.0
 41
0.0
 71
     5
 72
     1
  1
\A1;90
  7
LCTX15-400-0-0pDIN-Schrift
 73
     1
 44
1.0
  0
POINT
  5
17C
330
175
100
AcDbEntity
  8
Defpoints
 62
     0
100
AcDbPoint
 10
160.316239
 20
196.53409
 30
0.0
  0
POINT
  5
17D
330
175
100
AcDbEntity
  8
Defpoints
 62
     0
100
AcDbPoint
 10
251.316239
 20
196.53409
 30
0.0
  0
POINT
  5
17E
330
175
100
AcDbEntity
  8
Defpoints
 62
     0
100
AcDbPoint
 10
251.316239
 20
217.331568
 30
0.0
  0
ENDBLK
  5
180
330
175
100
AcDbEntity
  8
0
100
AcDbBlockEnd
  0
ENDSEC
  0
SECTION
  2
ENTITIES
  0
LINE
  5
32
330
1F
100
AcDbEntity
  8
LC-001-100-D00-0
 62
     7
370
    25
100
AcDbLine
 10
236.207792
 20
116.109339
 30
0.0
 11
237.092241
 21
116.109339
 31
0.0
  0
LINE
  5
33
330
1F
100
AcDbEntity
  8
LC-001-100-D00-0
 62
     7
370
    25
100
AcDbLine
 10
236.207792
 20
115.209715
 30
0.0
 11
236.207792
 21
116.109339
 31
0.0
  0
LINE
  5
34
330
1F
100
AcDbEntity
  8
LC-001-100-D00-0
 62
     7
370
    25
100
AcDbLine
 10
237.092241
 20
115.209715
 30
0.0
 11
236.207792
 21
115.209715
 31
0.0
  0
ARC
  5
35
330
1F
100
AcDbEntity
  8
LC-001-100-D00-0
 62
     7
370
    25
100
AcDbCircle
 10
237.092242
 20
115.628665
 30
0.0
 40
0.4189499999999953
100
AcDbArc
 50
270.0
 51
0.0
  0
LINE
  5
36
330
1F
100
AcDbEntity
  8
LC-001-100-D00-0
 62
     7
370
    25
100
AcDbLine
 10
237.511191
 20
115.690389
 30
0.0
 11
237.511191
 21
115.628664
 31
0.0
  0
ARC
  5
37
330
1F
100
AcDbEntity
  8
LC-001-100-D00-0
 62
     7
370
    25
100
AcDbCircle
 10
237.092242
 20
115.69039
 30
0.0
 40
0.418950000000109
100
AcDbArc
 50
0.0
 51
90.0
  0
LINE
  5
38
330
1F
100
AcDbEntity
  8
LC-001-100-D00-0
 62
     7
370
    25
100
AcDbLine
 10
236.207792
 20
114.651115
 30
0.0
 11
237.092241
 21
114.651115
 31
0.0
  0
LINE
  5
39
330
1F
100
AcDbEntity
  8
LC-001-100-D00-0
 62
     7
370
    25
100
AcDbLine
 10
236.207792
 20
113.720116
 30
0.0
 11
236.207792
 21
114.651115
 31
0.0
  0
LINE
  5
3A
330
1F
100
AcDbEntity
  8
LC-001-100-D00-0
 62
     7
370
    25
100
AcDbLine
 10
235.649192
 20
113.720116
 30
0.0
 11
236.207792
 21
113.720116
 31
0.0
  0
LINE
  5
3B
330
1F
100
AcDbEntity
  8
LC-001-100-D00-0
 62
     7
370
    25
100
AcDbLine
 10
235.649192
 20
116.667938
 30
0.0
 11
235.649192
 21
113.720116
 31
0.0
  0
LINE
  5
3C
330
1F
100
AcDbEntity
  8
LC-001-100-D00-0
 62
     7
370
    25
100
AcDbLine
 10
237.604294
 20
116.667938
 30
0.0
 11
235.649192
 21
116.667938
 31
0.0
  0
ARC
  5
3D
330
1F
100
AcDbEntity
  8
LC-001-100-D00-0
 62
     7
370
    25
100
AcDbCircle
 10
237.604292
 20
116.20244
 30
0.0
 40
0.4654999999999632
100
AcDbArc
 50
0.0
 51
90.0
  0
LINE
  5
3E
330
1F
100
AcDbEntity
  8
LC-001-100-D00-0
 62
     7
370
    25
100
AcDbLine
 10
238.069791
 20
115.386509
 30
0.0
 11
238.069791
 21
116.202441
 31
0.0
  0
ARC
  5
3F
330
1F
100
AcDbEntity
  8
LC-001-100-D00-0
 62
     7
370
    25
100
AcDbCircle
 10
237.604292
 20
115.38651
 30
0.0
 40
0.4654999999999906
100
AcDbArc
 50
281.536959
 51
0.0
  0
ARC
  5
40
330
1F
100
AcDbEntity
  8
LC-001-100-D00-0
 62
     7
370
    25
100
AcDbCircle
 10
237.604292
 20
114.47432
 30
0.0
 40
0.4655000000001341
100
AcDbArc
 50
359.999998
 51
78.463041
  0
LINE
  5
41
330
1F
100
AcDbEntity
  8
LC-001-100-D00-0
 62
     7
370
    25
100
AcDbLine
 10
238.069791
 20
113.720116
 30
0.0
 11
238.069791
 21
114.47432
 31
0.0
  0
LINE
  5
42
330
1F
100
AcDbEntity
  8
LC-001-100-D00-0
 62
     7
370
    25
100
AcDbLine
 10
237.511191
 20
113.720116
 30
0.0
 11
238.069791
 21
113.720116
 31
0.0
  0
LINE
  5
43
330
1F
100
AcDbEntity
  8
LC-001-100-D00-0
 62
     7
370
    25
100
AcDbLine
 10
237.511191
 20
114.232165
 30
0.0
 11
237.511191
 21
113.720116
 31
0.0
  0
ARC
  5
44
330
1F
100
AcDbEntity
  8
LC-001-100-D00-0
 62
     7
370
    25
100
AcDbCircle
 10
237.092242
 20
114.232165
 30
0.0
 40
0.418950000000109
100
AcDbArc
 50
0.0
 51
90.0
  0
LINE
  5
45
330
1F
100
AcDbEntity
  8
LC-001-100-D00-0
 62
     7
370
    25
100
AcDbLine
 10
235.462991
 20
116.85414
 30
0.0
 11
237.604294
 21
116.85414
 31
0.0
  0
LINE
  5
46
330
1F
100
AcDbEntity
  8
LC-001-100-D00-0
 62
     7
370
    25
100
AcDbLine
 10
235.462991
 20
116.85414
 30
0.0
 11
235.462991
 21
113.533915
 31
0.0
  0
LINE
  5
47
330
1F
100
AcDbEntity
  8
LC-001-100-D00-0
 62
     7
370
    25
100
AcDbLine
 10
235.462991
 20
113.533915
 30
0.0
 11
236.393992
 21
113.533915
 31
0.0
  0
LINE
  5
48
330
1F
100
AcDbEntity
  8
LC-001-100-D00-0
 62
     7
370
    25
100
AcDbLine
 10
236.393992
 20
114.464914
 30
0.0
 11
236.393992
 21
113.533915
 31
0.0
  0
LINE
  5
49
330
1F
100
AcDbEntity
  8
LC-001-100-D00-0
 62
     7
370
    25
100
AcDbLine
 10
236.393992
 20
114.464914
 30
0.0
 11
237.092241
 21
114.464914
 31
0.0
  0
ARC
  5
4A
330
1F
100
AcDbEntity
  8
LC-001-100-D00-0
 62
     7
370
    25
100
AcDbCircle
 10
237.092242
 20
114.232165
 30
0.0
 40
0.2327500000001237
100
AcDbArc
 50
0.0
 51
90.0
  0
LINE
  5
4B
330
1F
100
AcDbEntity
  8
LC-001-100-D00-0
 62
     7
370
    25
100
AcDbLine
 10
237.324994
 20
114.232165
 30
0.0
 11
237.324994
 21
113.533915
 31
0.0
  0
LINE
  5
4C
330
1F
100
AcDbEntity
  8
LC-001-100-D00-0
 62
     7
370
    25
100
AcDbLine
 10
237.324994
 20
113.533915
 30
0.0
 11
238.255992
 21
113.533915
 31
0.0
  0
LINE
  5
4D
330
1F
100
AcDbEntity
  8
LC-001-100-D00-0
 62
     7
370
    25
100
AcDbLine
 10
238.255992
 20
114.47432
 30
0.0
 11
238.255992
 21
113.533915
 31
0.0
  0
ARC
  5
4E
330
1F
100
AcDbEntity
  8
LC-001-100-D00-0
 62
     7
370
    25
100
AcDbCircle
 10
237.604292
 20
114.47432
 30
0.0
 40
0.6516999977470167
100
AcDbArc
 50
359.999998
 51
44.415309
  0
ARC
  5
4F
330
1F
100
AcDbEntity
  8
LC-001-100-D00-0
 62
     7
370
    25
100
AcDbCircle
 10
237.604292
 20
115.38651
 30
0.0
 40
0.6517000000458879
100
AcDbArc
 50
315.584691
 51
0.0
  0
LINE
  5
50
330
1F
100
AcDbEntity
  8
LC-001-100-D00-0
 62
     7
370
    25
100
AcDbLine
 10
238.255992
 20
116.202441
 30
0.0
 11
238.255992
 21
115.386509
 31
0.0
  0
ARC
  5
51
330
1F
100
AcDbEntity
  8
LC-001-100-D00-0
 62
     7
370
    25
100
AcDbCircle
 10
237.604292
 20
116.20244
 30
0.0
 40
0.6517000000457642
100
AcDbArc
 50
0.0
 51
90.0
  0
LINE
  5
52
330
1F
100
AcDbEntity
  8
LC-001-100-D00-0
 62
     7
370
    25
100
AcDbLine
 10
230.565836
 20
116.85414
 30
0.0
 11
231.552792
 21
116.85414
 31
0.0
  0
ARC
  5
53
330
1F
100
AcDbEntity
  8
LC-001-100-D00-0
 62
     7
370
    25
100
AcDbCircle
 10
230.565837
 20
116.20244
 30
0.0
 40
0.6516999954938857
100
AcDbArc
 50
89.999998
 51
134.415309
  0
ARC
  5
54
330
1F
100
AcDbEntity
  8
LC-001-100-D00-0
 62
     7
370
    25
100
AcDbCircle
 10
229.653647
 20
116.20244
 30
0.0
 40
0.6516999999998321
100
AcDbArc
 50
45.584691
 51
90.0
  0
LINE
  5
55
330
1F
100
AcDbEntity
  8
LC-001-100-D00-0
 62
     7
370
    25
100
AcDbLine
 10
228.666693
 20
116.85414
 30
0.0
 11
229.653647
 21
116.85414
 31
0.0
  0
ARC
  5
56
330
1F
100
AcDbEntity
  8
LC-001-100-D00-0
 62
     7
370
    25
100
AcDbCircle
 10
228.666692
 20
116.20244
 30
0.0
 40
0.6517000000000053
100
AcDbArc
 50
90.0
 51
180.0
  0
LINE
  5
57
330
1F
100
AcDbEntity
  8
LC-001-100-D00-0
 62
     7
370
    25
100
AcDbLine
 10
228.014992
 20
116.202441
 30
0.0
 11
228.014992
 21
113.533915
 31
0.0
  0
LINE
  5
58
330
1F
100
AcDbEntity
  8
LC-001-100-D00-0
 62
     7
370
    25
100
AcDbLine
 10
228.014992
 20
113.533915
 30
0.0
 11
228.945993
 21
113.533915
 31
0.0
  0
LINE
  5
59
330
1F
100
AcDbEntity
  8
LC-001-100-D00-0
 62
     7
370
    25
100
AcDbLine
 10
228.945993
 20
115.690389
 30
0.0
 11
228.945993
 21
113.533915
 31
0.0
  0
ARC
  5
5A
330
1F
100
AcDbEntity
  8
LC-001-100-D00-0
 62
     7
370
    25
100
AcDbCircle
 10
229.178742
 20
115.69039
 30
0.0
 40
0.2327500000000669
100
AcDbArc
 50
90.0
 51
180.0
  0
LINE
  5
5B
330
1F
100
AcDbEntity
  8
LC-001-100-D00-0
 62
     7
370
    25
100
AcDbLine
 10
229.178741
 20
115.923141
 30
0.0
 11
229.411492
 21
115.923141
 31
0.0
  0
ARC
  5
5C
330
1F
100
AcDbEntity
  8
LC-001-100-D00-0
 62
     7
370
    25
100
AcDbCircle
 10
229.411492
 20
115.69039
 30
0.0
 40
0.23275000000001
100
AcDbArc
 50
0.0
 51
90.0
  0
LINE
  5
5D
330
1F
100
AcDbEntity
  8
LC-001-100-D00-0
 62
     7
370
    25
100
AcDbLine
 10
229.644242
 20
115.690389
 30
0.0
 11
229.644242
 21
113.533915
 31
0.0
  0
LINE
  5
5E
330
1F
100
AcDbEntity
  8
LC-001-100-D00-0
 62
     7
370
    25
100
AcDbLine
 10
229.644242
 20
113.533915
 30
0.0
 11
230.575243
 21
113.533915
 31
0.0
  0
LINE
  5
5F
330
1F
100
AcDbEntity
  8
LC-001-100-D00-0
 62
     7
370
    25
100
AcDbLine
 10
230.575243
 20
115.690389
 30
0.0
 11
230.575243
 21
113.533915
 31
0.0
  0
ARC
  5
60
330
1F
100
AcDbEntity
  8
LC-001-100-D00-0
 62
     7
370
    25
100
AcDbCircle
 10
230.807992
 20
115.69039
 30
0.0
 40
0.2327499999999816
100
AcDbArc
 50
90.0
 51
180.0
  0
LINE
  5
61
330
1F
100
AcDbEntity
  8
LC-001-100-D00-0
 62
     7
370
    25
100
AcDbLine
 10
230.807991
 20
115.923141
 30
0.0
 11
231.040742
 21
115.923141
 31
0.0
  0
ARC
  5
62
330
1F
100
AcDbEntity
  8
LC-001-100-D00-0
 62
     7
370
    25
100
AcDbCircle
 10
231.040742
 20
115.69039
 30
0.0
 40
0.23275000000001
100
AcDbArc
 50
0.0
 51
90.0
  0
LINE
  5
63
330
1F
100
AcDbEntity
  8
LC-001-100-D00-0
 62
     7
370
    25
100
AcDbLine
 10
231.273493
 20
115.690389
 30
0.0
 11
231.273493
 21
113.533915
 31
0.0
  0
LINE
  5
64
330
1F
100
AcDbEntity
  8
LC-001-100-D00-0
 62
     7
370
    25
100
AcDbLine
 10
231.273493
 20
113.533915
 30
0.0
 11
232.204493
 21
113.533915
 31
0.0
  0
LINE
  5
65
330
1F
100
AcDbEntity
  8
LC-001-100-D00-0
 62
     7
370
    25
100
AcDbLine
 10
232.204493
 20
116.202441
 30
0.0
 11
232.204493
 21
113.533915
 31
0.0
  0
ARC
  5
66
330
1F
100
AcDbEntity
  8
LC-001-100-D00-0
 62
     7
370
    25
100
AcDbCircle
 10
231.552792
 20
116.20244
 30
0.0
 40
0.6516999954940275
100
AcDbArc
 50
360.0
 51
90.0
  0
LINE
  5
67
330
1F
100
AcDbEntity
  8
LC-001-100-D00-0
 62
     7
370
    25
100
AcDbLine
 10
223.359993
 20
113.533915
 30
0.0
 11
225.221991
 21
113.533915
 31
0.0
  0
LINE
  5
68
330
1F
100
AcDbEntity
  8
LC-001-100-D00-0
 62
     7
370
    25
100
AcDbLine
 10
225.221991
 20
114.464914
 30
0.0
 11
225.221991
 21
113.533915
 31
0.0
  0
LINE
  5
69
330
1F
100
AcDbEntity
  8
LC-001-100-D00-0
 62
     7
370
    25
100
AcDbLine
 10
224.290993
 20
114.464914
 30
0.0
 11
225.221991
 21
114.464914
 31
0.0
  0
LINE
  5
6A
330
1F
100
AcDbEntity
  8
LC-001-100-D00-0
 62
     7
370
    25
100
AcDbLine
 10
224.290993
 20
116.85414
 30
0.0
 11
224.290993
 21
114.464914
 31
0.0
  0
LINE
  5
6B
330
1F
100
AcDbEntity
  8
LC-001-100-D00-0
 62
     7
370
    25
100
AcDbLine
 10
223.359993
 20
116.85414
 30
0.0
 11
224.290993
 21
116.85414
 31
0.0
  0
LINE
  5
6C
330
1F
100
AcDbEntity
  8
LC-001-100-D00-0
 62
     7
370
    25
100
AcDbLine
 10
223.359993
 20
116.85414
 30
0.0
 11
223.359993
 21
113.533915
 31
0.0
  0
LINE
  5
6D
330
1F
100
AcDbEntity
  8
LC-001-100-D00-0
 62
     7
370
    25
100
AcDbLine
 10
212.392374
 20
114.600548
 30
0.0
 11
213.029216
 21
112.850838
 31
0.0
  0
LINE
  5
6E
330
1F
100
AcDbEntity
  8
LC-001-100-D00-0
 62
     7
370
    25
100
AcDbLine
 10
214.778923
 20
113.48768
 30
0.0
 11
213.029216
 21
112.850838
 31
0.0
  0
LINE
  5
6F
330
1F
100
AcDbEntity
  8
LC-001-100-D00-0
 62
     7
370
    25
100
AcDbLine
 10
214.778923
 20
113.48768
 30
0.0
 11
216.528632
 21
114.124523
 31
0.0
  0
LINE
  5
70
330
1F
100
AcDbEntity
  8
LC-001-100-D00-0
 62
     7
370
    25
100
AcDbLine
 10
215.891789
 20
115.874228
 30
0.0
 11
216.528632
 21
114.124523
 31
0.0
  0
LINE
  5
71
330
1F
100
AcDbEntity
  8
LC-001-100-D00-0
 62
     7
370
    25
100
AcDbLine
 10
215.891789
 20
115.874228
 30
0.0
 11
215.254948
 21
117.623937
 31
0.0
  0
LINE
  5
72
330
1F
100
AcDbEntity
  8
LC-001-100-D00-0
 62
     7
370
    25
100
AcDbLine
 10
213.50524
 20
116.987095
 30
0.0
 11
215.254948
 21
117.623937
 31
0.0
  0
LINE
  5
73
330
1F
100
AcDbEntity
  8
LC-001-100-D00-0
 62
     7
370
    25
100
AcDbLine
 10
213.50524
 20
116.987095
 30
0.0
 11
211.755533
 21
116.350253
 31
0.0
  0
LINE
  5
74
330
1F
100
AcDbEntity
  8
LC-001-100-D00-0
 62
     7
370
    25
100
AcDbLine
 10
212.392374
 20
114.600548
 30
0.0
 11
211.755533
 21
116.350253
 31
0.0
  0
ARC
  5
75
330
1F
100
AcDbEntity
  8
LC-001-100-D00-0
 62
     7
370
    50
100
AcDbCircle
 10
184.209996
 20
175.330874
 30
0.0
 40
12.00000000000004
100
AcDbArc
 50
346.810403
 51
143.736485
  0
ARC
  5
76
330
1F
100
AcDbEntity
  8
LC-001-100-D00-0
 62
     7
370
    50
100
AcDbCircle
 10
176.146945
 20
181.245873
 30
0.0
 40
1.999999999999976
100
AcDbArc
 50
143.736485
 51
323.736485
  0
ARC
  5
77
330
1F
100
AcDbEntity
  8
LC-001-100-D00-0
 62
     7
370
    50
100
AcDbCircle
 10
184.209996
 20
175.330874
 30
0.0
 40
8.000000000000103
100
AcDbArc
 50
346.810403
 51
143.736485
  0
ARC
  5
78
330
1F
100
AcDbEntity
  8
LC-001-100-D00-0
 62
     7
370
    50
100
AcDbCircle
 10
193.946199
 20
173.049133
 30
0.0
 40
2.000000000000022
100
AcDbArc
 50
166.810403
 51
346.810403
  0
ARC
  5
79
330
1F
100
AcDbEntity
  8
LC-001-100-D00-0
 62
     7
370
    50
100
AcDbCircle
 10
202.003297
 20
159.149414
 30
0.0
 40
12.00000000000009
100
AcDbArc
 50
11.536959
 51
168.463041
  0
ARC
  5
7A
330
1F
100
AcDbEntity
  8
LC-001-100-D00-0
 62
     7
370
    50
100
AcDbCircle
 10
192.205385
 20
161.149647
 30
0.0
 40
1.999999999999994
100
AcDbArc
 50
168.469855
 51
348.456227
  0
ARC
  5
7B
330
1F
100
AcDbEntity
  8
LC-001-100-D00-0
 62
     7
370
    50
100
AcDbCircle
 10
202.003297
 20
159.149414
 30
0.0
 40
8.000000028284058
100
AcDbArc
 50
11.536959
 51
168.463041
  0
ARC
  5
7C
330
1F
100
AcDbEntity
  8
LC-001-100-D00-0
 62
     7
370
    50
100
AcDbCircle
 10
211.801256
 20
161.149414
 30
0.0
 40
1.99999998585803
100
AcDbArc
 50
191.536959
 51
11.536959
  0
ARC
  5
7D
330
1F
100
AcDbEntity
  8
LC-001-100-D00-0
 62
     7
370
    50
100
AcDbCircle
 10
210.486354
 20
184.718434
 30
0.0
 40
11.99999944720727
100
AcDbArc
 50
176.494801
 51
333.420882
  0
ARC
  5
7E
330
1F
100
AcDbEntity
  8
LC-001-100-D00-0
 62
     7
370
    50
100
AcDbCircle
 10
219.429527
 20
180.244102
 30
0.0
 40
1.999999723603573
100
AcDbArc
 50
333.420879
 51
153.420879
  0
ARC
  5
7F
330
1F
100
AcDbEntity
  8
LC-001-100-D00-0
 62
     7
370
    50
100
AcDbCircle
 10
210.486354
 20
184.718434
 30
0.0
 40
8.000000000000092
100
AcDbArc
 50
176.494802
 51
333.420883
  0
ARC
  5
80
330
1F
100
AcDbEntity
  8
LC-001-100-D00-0
 62
     7
370
    50
100
AcDbCircle
 10
200.505126
 20
185.330874
 30
0.0
 40
2.000000000000022
100
AcDbArc
 50
356.464678
 51
176.524923
  0
ARC
  5
81
330
1F
100
AcDbEntity
  8
LC-001-100-D00-0
 62
     7
370
    50
100
AcDbCircle
 10
220.983335
 20
144.137955
 30
0.0
 40
1.999999999999965
100
AcDbArc
 50
63.420883
 51
243.420883
  0
ARC
  5
82
330
1F
100
AcDbEntity
  8
LC-001-100-D00-0
 62
     7
370
    50
100
AcDbCircle
 10
216.509002
 20
135.194782
 30
0.0
 40
8.0000000000001
100
AcDbArc
 50
266.494811
 51
63.420877
  0
ARC
  5
83
330
1F
100
AcDbEntity
  8
LC-001-100-D00-0
 62
     7
370
    50
100
AcDbCircle
 10
215.897613
 20
125.213489
 30
0.0
 40
2.000000000000024
100
AcDbArc
 50
86.494802
 51
266.494802
  0
ARC
  5
84
330
1F
100
AcDbEntity
  8
LC-001-100-D00-0
 62
     7
370
    50
100
AcDbCircle
 10
216.509002
 20
135.194782
 30
0.0
 40
12.00000000000003
100
AcDbArc
 50
266.494808
 51
63.420879
  0
ARC
  5
85
330
1F
100
AcDbEntity
  8
LC-001-100-D00-0
 62
     7
370
    50
100
AcDbCircle
 10
194.10451
 20
122.737306
 30
0.0
 40
2.000000000000022
100
AcDbArc
 50
191.536959
 51
11.536959
  0
ARC
  5
86
330
1F
100
AcDbEntity
  8
LC-001-100-D00-0
 62
     7
370
    50
100
AcDbCircle
 10
184.306551
 20
120.737306
 30
0.0
 40
12.00000000000008
100
AcDbArc
 50
11.536958
 51
168.463042
  0
ARC
  5
87
330
1F
100
AcDbEntity
  8
LC-001-100-D00-0
 62
     7
370
    50
100
AcDbCircle
 10
174.508592
 20
122.737306
 30
0.0
 40
2.000000000000022
100
AcDbArc
 50
168.463041
 51
348.463041
  0
ARC
  5
88
330
1F
100
AcDbEntity
  8
LC-001-100-D00-0
 62
     7
370
    50
100
AcDbCircle
 10
184.306551
 20
120.737306
 30
0.0
 40
8.000000000000027
100
AcDbArc
 50
11.536958
 51
168.463042
  0
ARC
  5
89
330
1F
100
AcDbEntity
  8
LC-001-100-D00-0
 62
     7
370
    50
100
AcDbCircle
 10
237.116239
 20
185.312167
 30
0.0
 40
2.000000000000024
100
AcDbArc
 50
266.494802
 51
86.494802
  0
ARC
  5
8A
330
1F
100
AcDbEntity
  8
LC-001-100-D00-0
 62
     7
370
    50
100
AcDbCircle
 10
236.504848
 20
175.330874
 30
0.0
 40
12.00000000000008
100
AcDbArc
 50
86.494802
 51
243.420883
  0
ARC
  5
8B
330
1F
100
AcDbEntity
  8
LC-001-100-D00-0
 62
     7
370
    50
100
AcDbCircle
 10
232.030516
 20
166.387701
 30
0.0
 40
2.000000000000041
100
AcDbArc
 50
243.420883
 51
63.420883
  0
ARC
  5
8C
330
1F
100
AcDbEntity
  8
LC-001-100-D00-0
 62
     7
370
    50
100
AcDbCircle
 10
236.504848
 20
175.330874
 30
0.0
 40
8.000000000000034
100
AcDbArc
 50
86.494802
 51
243.420883
  0
ARC
  5
8D
330
1F
100
AcDbEntity
  8
LC-001-100-D00-0
 62
     7
370
    50
100
AcDbCircle
 10
185.12763
 20
170.311059
 30
0.0
 40
1.999999977295961
100
AcDbArc
 50
266.4948
 51
86.4948
  0
ARC
  5
8E
330
1F
100
AcDbEntity
  8
LC-001-100-D00-0
 62
     7
370
    50
100
AcDbCircle
 10
184.516239
 20
160.329766
 30
0.0
 40
11.99999995459196
100
AcDbArc
 50
86.494801
 51
243.420886
  0
ARC
  5
8F
330
1F
100
AcDbEntity
  8
LC-001-100-D00-0
 62
     7
370
    50
100
AcDbCircle
 10
180.041908
 20
151.386592
 30
0.0
 40
1.99999997729599
100
AcDbArc
 50
243.420882
 51
63.420902
  0
ARC
  5
90
330
1F
100
AcDbEntity
  8
LC-001-100-D00-0
 62
     7
370
    50
100
AcDbCircle
 10
184.516239
 20
160.329766
 30
0.0
 40
8.000000000000062
100
AcDbArc
 50
86.494802
 51
243.420883
  0
ARC
  5
91
330
1F
100
AcDbEntity
  8
LC-001-100-D00-0
 62
     7
370
    50
100
AcDbCircle
 10
210.470572
 20
182.130365
 30
0.0
 40
2.000000000000022
100
AcDbArc
 50
168.463041
 51
348.463041
  0
ARC
  5
92
330
1F
100
AcDbEntity
  8
LC-001-100-D00-0
 62
     7
370
    50
100
AcDbCircle
 10
220.268531
 20
180.130365
 30
0.0
 40
7.999999999999996
100
AcDbArc
 50
115.833568
 51
168.463041
  0
LINE
  5
93
330
1F
100
AcDbEntity
  8
LC-001-100-D00-0
 62
     7
370
    50
100
AcDbLine
 10
216.782463
 20
187.330873
 30
0.0
 11
210.668913
 21
187.330873
 31
0.0
  0
ARC
  5
94
330
1F
100
AcDbEntity
  8
LC-001-100-D00-0
 62
     7
370
    50
100
AcDbCircle
 10
220.268531
 20
180.130365
 30
0.0
 40
11.99999999999997
100
AcDbArc
 50
143.127064
 51
168.463041
  0
LINE
  5
95
330
1F
100
AcDbEntity
  8
LC-001-100-D00-0
 62
     7
370
    50
100
AcDbLine
 10
239.11763
 20
120.721397
 30
0.0
 11
239.11763
 21
125.347906
 31
0.0
  0
ARC
  5
96
330
1F
100
AcDbEntity
  8
LC-001-100-D00-0
 62
     7
370
    50
100
AcDbCircle
 10
244.006239
 20
131.68048
 30
0.0
 40
7.999999999999998
100
AcDbArc
 50
127.667355
 51
232.332645
  0
LINE
  5
97
330
1F
100
AcDbEntity
  8
LC-001-100-D00-0
 62
     7
370
    50
100
AcDbLine
 10
239.11763
 20
138.013055
 30
0.0
 11
239.11763
 21
142.639563
 31
0.0
  0
ARC
  5
98
330
1F
100
AcDbEntity
  8
LC-001-100-D00-0
 62
     7
370
    50
100
AcDbCircle
 10
244.006239
 20
131.68048
 30
0.0
 40
11.99999999999995
100
AcDbArc
 50
114.040613
 51
245.959387
  0
ARC
  5
99
330
1F
100
AcDbEntity
  8
LC-001-100-D00-0
 62
     7
370
    50
100
AcDbCircle
 10
224.437767
 20
148.959028
 30
0.0
 40
11.99999999999997
100
AcDbArc
 50
11.536959
 51
168.463041
  0
ARC
  5
9A
330
1F
100
AcDbEntity
  8
LC-001-100-D00-0
 62
     7
370
    50
100
AcDbCircle
 10
214.639808
 20
150.959028
 30
0.0
 40
2.000000000000022
100
AcDbArc
 50
168.463041
 51
348.463041
  0
ARC
  5
9B
330
1F
100
AcDbEntity
  8
LC-001-100-D00-0
 62
     7
370
    50
100
AcDbCircle
 10
224.437767
 20
148.959028
 30
0.0
 40
7.999999999999983
100
AcDbArc
 50
11.536959
 51
168.463041
  0
ARC
  5
9C
330
1F
100
AcDbEntity
  8
LC-001-100-D00-0
 62
     7
370
    50
100
AcDbCircle
 10
234.235726
 20
150.959028
 30
0.0
 40
2.000000000000022
100
AcDbArc
 50
191.536959
 51
11.536959
  0
ARC
  5
9D
330
1F
100
AcDbEntity
  8
LC-001-100-D00-0
 62
     7
370
    50
100
AcDbCircle
 10
202.866029
 20
125.113193
 30
0.0
 40
1.999999999999983
100
AcDbArc
 50
205.941962
 51
25.941962
  0
ARC
  5
9E
330
1F
100
AcDbEntity
  8
LC-001-100-D00-0
 62
     7
370
    50
100
AcDbCircle
 10
211.858405
 20
129.487799
 30
0.0
 40
8.000000000000027
100
AcDbArc
 50
49.015868
 51
205.941972
  0
ARC
  5
9F
330
1F
100
AcDbEntity
  8
LC-001-100-D00-0
 62
     7
370
    50
100
AcDbCircle
 10
218.416904
 20
137.036712
 30
0.0
 40
2.000000000000075
100
AcDbArc
 50
229.015885
 51
49.015885
  0
ARC
  5
A0
330
1F
100
AcDbEntity
  8
LC-001-100-D00-0
 62
     7
370
    50
100
AcDbCircle
 10
211.858405
 20
129.487799
 30
0.0
 40
11.99999999999996
100
AcDbArc
 50
49.015874
 51
205.941969
  0
ARC
  5
A1
330
1F
100
AcDbEntity
  8
LC-001-100-D00-0
 62
     7
370
    50
100
AcDbCircle
 10
194.959166
 20
150.232231
 30
0.0
 40
12.00000000000004
100
AcDbArc
 50
256.810403
 51
53.736485
  0
ARC
  5
A2
330
1F
100
AcDbEntity
  8
LC-001-100-D00-0
 62
     7
370
    50
100
AcDbCircle
 10
200.874164
 20
158.295282
 30
0.0
 40
1.999999999999993
100
AcDbArc
 50
53.736485
 51
233.736485
  0
ARC
  5
A3
330
1F
100
AcDbEntity
  8
LC-001-100-D00-0
 62
     7
370
    50
100
AcDbCircle
 10
194.959166
 20
150.232231
 30
0.0
 40
8.00000000000013
100
AcDbArc
 50
256.810403
 51
53.736485
  0
ARC
  5
A4
330
1F
100
AcDbEntity
  8
LC-001-100-D00-0
 62
     7
370
    50
100
AcDbCircle
 10
192.677425
 20
140.496028
 30
0.0
 40
1.999999999999961
100
AcDbArc
 50
76.810403
 51
256.810403
  0
ARC
  5
A5
330
1F
100
AcDbEntity
  8
LC-001-100-D00-0
 62
     7
370
    50
100
AcDbCircle
 10
180.175313
 20
150.101543
 30
0.0
 40
12.0000000000001
100
AcDbArc
 50
236.536959
 51
33.463041
  0
ARC
  5
A6
330
1F
100
AcDbEntity
  8
LC-001-100-D00-0
 62
     7
370
    50
100
AcDbCircle
 10
188.51773
 20
155.615533
 30
0.0
 40
2.000000000000042
100
AcDbArc
 50
33.463041
 51
213.463041
  0
ARC
  5
A7
330
1F
100
AcDbEntity
  8
LC-001-100-D00-0
 62
     7
370
    50
100
AcDbCircle
 10
180.175313
 20
150.101543
 30
0.0
 40
8.000000000000066
100
AcDbArc
 50
236.536959
 51
33.463041
  0
ARC
  5
A8
330
1F
100
AcDbEntity
  8
LC-001-100-D00-0
 62
     7
370
    50
100
AcDbCircle
 10
174.662319
 20
141.758468
 30
0.0
 40
2.000000356099495
100
AcDbArc
 50
56.57115
 51
236.502768
  0
ARC
  5
A9
330
1F
100
AcDbEntity
  8
LC-001-100-D00-0
 62
     7
370
    50
100
AcDbCircle
 10
163.316239
 20
111.53409
 30
0.0
 40
3.000000000000028
100
AcDbArc
 50
180.0
 51
270.0
  0
LINE
  5
AA
330
1F
100
AcDbEntity
  8
LC-001-100-D00-0
 62
     7
370
    50
100
AcDbLine
 10
160.31624
 20
196.534091
 30
0.0
 11
160.31624
 21
111.53409
 31
0.0
  0
ARC
  5
AB
330
1F
100
AcDbEntity
  8
LC-001-100-D00-0
 62
     7
370
    50
100
AcDbCircle
 10
163.316239
 20
196.53409
 30
0.0
 40
3.0
100
AcDbArc
 50
90.0
 51
180.0
  0
LINE
  5
AC
330
1F
100
AcDbEntity
  8
LC-001-100-D00-0
 62
     7
370
    50
100
AcDbLine
 10
248.316239
 20
199.534089
 30
0.0
 11
163.316238
 21
199.534089
 31
0.0
  0
ARC
  5
AD
330
1F
100
AcDbEntity
  8
LC-001-100-D00-0
 62
     7
370
    50
100
AcDbCircle
 10
248.316239
 20
196.53409
 30
0.0
 40
3.0
100
AcDbArc
 50
0.0
 51
90.0
  0
LINE
  5
AE
330
1F
100
AcDbEntity
  8
LC-001-100-D00-0
 62
     7
370
    50
100
AcDbLine
 10
251.316238
 20
111.53409
 30
0.0
 11
251.316238
 21
196.534091
 31
0.0
  0
ARC
  5
AF
330
1F
100
AcDbEntity
  8
LC-001-100-D00-0
 62
     7
370
    50
100
AcDbCircle
 10
248.316239
 20
111.53409
 30
0.0
 40
3.000000000000028
100
AcDbArc
 50
270.0
 51
0.0
  0
LINE
  5
B0
330
1F
100
AcDbEntity
  8
LC-001-100-D00-0
 62
     7
370
    50
100
AcDbLine
 10
163.316238
 20
108.534091
 30
0.0
 11
248.316239
 21
108.534091
 31
0.0
  0
ARC
  5
B1
330
1F
100
AcDbEntity
  8
LC-001-100-D00-0
 62
     7
370
    25
100
AcDbCircle
 10
218.984292
 20
114.24734
 30
0.0
 40
0.6517000000000621
100
AcDbArc
 50
270.0
 51
0.0
  0
LINE
  5
B2
330
1F
100
AcDbEntity
  8
LC-001-100-D00-0
 62
     7
370
    25
100
AcDbLine
 10
219.635992
 20
116.202441
 30
0.0
 11
219.635992
 21
114.247338
 31
0.0
  0
ARC
  5
B3
330
1F
100
AcDbEntity
  8
LC-001-100-D00-0
 62
     7
370
    25
100
AcDbCircle
 10
218.984292
 20
116.20244
 30
0.0
 40
0.6517000000002895
100
AcDbArc
 50
0.0
 51
90.0
  0
LINE
  5
B4
330
1F
100
AcDbEntity
  8
LC-001-100-D00-0
 62
     7
370
    25
100
AcDbLine
 10
217.308492
 20
116.85414
 30
0.0
 11
218.984293
 21
116.85414
 31
0.0
  0
LINE
  5
B5
330
1F
100
AcDbEntity
  8
LC-001-100-D00-0
 62
     7
370
    25
100
AcDbLine
 10
217.308492
 20
116.85414
 30
0.0
 11
217.308492
 21
113.595639
 31
0.0
  0
LINE
  5
B6
330
1F
100
AcDbEntity
  8
LC-001-100-D00-0
 62
     7
370
    25
100
AcDbLine
 10
217.308492
 20
113.595639
 30
0.0
 11
218.984293
 21
113.595639
 31
0.0
  0
LINE
  5
B7
330
1F
100
AcDbEntity
  8
LC-001-100-D00-0
 62
     7
370
    25
100
AcDbLine
 10
220.101492
 20
116.202441
 30
0.0
 11
220.101492
 21
113.533915
 31
0.0
  0
LINE
  5
B8
330
1F
100
AcDbEntity
  8
LC-001-100-D00-0
 62
     7
370
    25
100
AcDbLine
 10
220.101492
 20
113.533915
 30
0.0
 11
221.032493
 21
113.533915
 31
0.0
  0
LINE
  5
B9
330
1F
100
AcDbEntity
  8
LC-001-100-D00-0
 62
     7
370
    25
100
AcDbLine
 10
221.032493
 20
114.464914
 30
0.0
 11
221.032493
 21
113.533915
 31
0.0
  0
LINE
  5
BA
330
1F
100
AcDbEntity
  8
LC-001-100-D00-0
 62
     7
370
    25
100
AcDbLine
 10
221.032493
 20
114.464914
 30
0.0
 11
221.963493
 21
114.464914
 31
0.0
  0
LINE
  5
BB
330
1F
100
AcDbEntity
  8
LC-001-100-D00-0
 62
     7
370
    25
100
AcDbLine
 10
221.963493
 20
114.464914
 30
0.0
 11
221.963493
 21
113.533915
 31
0.0
  0
LINE
  5
BC
330
1F
100
AcDbEntity
  8
LC-001-100-D00-0
 62
     7
370
    25
100
AcDbLine
 10
221.963493
 20
113.533915
 30
0.0
 11
222.894491
 21
113.533915
 31
0.0
  0
LINE
  5
BD
330
1F
100
AcDbEntity
  8
LC-001-100-D00-0
 62
     7
370
    25
100
AcDbLine
 10
222.894491
 20
116.202441
 30
0.0
 11
222.894491
 21
113.533915
 31
0.0
  0
ARC
  5
BE
330
1F
100
AcDbEntity
  8
LC-001-100-D00-0
 62
     7
370
    25
100
AcDbCircle
 10
222.242792
 20
116.20244
 30
0.0
 40
0.6517000000000053
100
AcDbArc
 50
0.0
 51
90.0
  0
LINE
  5
BF
330
1F
100
AcDbEntity
  8
LC-001-100-D00-0
 62
     7
370
    25
100
AcDbLine
 10
220.753192
 20
116.85414
 30
0.0
 11
222.242793
 21
116.85414
 31
0.0
  0
ARC
  5
C0
330
1F
100
AcDbEntity
  8
LC-001-100-D00-0
 62
     7
370
    25
100
AcDbCircle
 10
220.753192
 20
116.20244
 30
0.0
 40
0.6517000000000053
100
AcDbArc
 50
90.0
 51
180.0
  0
LINE
  5
C1
330
1F
100
AcDbEntity
  8
LC-001-100-D00-0
 62
     7
370
    25
100
AcDbLine
 10
225.687492
 20
113.533915
 30
0.0
 11
227.549491
 21
113.533915
 31
0.0
  0
LINE
  5
C2
330
1F
100
AcDbEntity
  8
LC-001-100-D00-0
 62
     7
370
    25
100
AcDbLine
 10
227.549491
 20
114.464914
 30
0.0
 11
227.549491
 21
113.533915
 31
0.0
  0
LINE
  5
C3
330
1F
100
AcDbEntity
  8
LC-001-100-D00-0
 62
     7
370
    25
100
AcDbLine
 10
226.618493
 20
114.464914
 30
0.0
 11
227.549491
 21
114.464914
 31
0.0
  0
LINE
  5
C4
330
1F
100
AcDbEntity
  8
LC-001-100-D00-0
 62
     7
370
    25
100
AcDbLine
 10
226.618493
 20
116.85414
 30
0.0
 11
226.618493
 21
114.464914
 31
0.0
  0
LINE
  5
C5
330
1F
100
AcDbEntity
  8
LC-001-100-D00-0
 62
     7
370
    25
100
AcDbLine
 10
225.687492
 20
116.85414
 30
0.0
 11
226.618493
 21
116.85414
 31
0.0
  0
LINE
  5
C6
330
1F
100
AcDbEntity
  8
LC-001-100-D00-0
 62
     7
370
    25
100
AcDbLine
 10
225.687492
 20
116.85414
 30
0.0
 11
225.687492
 21
113.533915
 31
0.0
  0
LINE
  5
C7
330
1F
100
AcDbEntity
  8
LC-001-100-D00-0
 62
     7
370
    25
100
AcDbLine
 10
232.669992
 20
113.533915
 30
0.0
 11
234.997492
 21
113.533915
 31
0.0
  0
LINE
  5
C8
330
1F
100
AcDbEntity
  8
LC-001-100-D00-0
 62
     7
370
    25
100
AcDbLine
 10
234.997492
 20
114.278716
 30
0.0
 11
234.997492
 21
113.533915
 31
0.0
  0
LINE
  5
C9
330
1F
100
AcDbEntity
  8
LC-001-100-D00-0
 62
     7
370
    25
100
AcDbLine
 10
233.600992
 20
114.278716
 30
0.0
 11
234.997492
 21
114.278716
 31
0.0
  0
LINE
  5
CA
330
1F
100
AcDbEntity
  8
LC-001-100-D00-0
 62
     7
370
    25
100
AcDbLine
 10
233.600992
 20
114.821629
 30
0.0
 11
233.600992
 21
114.278716
 31
0.0
  0
LINE
  5
CB
330
1F
100
AcDbEntity
  8
LC-001-100-D00-0
 62
     7
370
    25
100
AcDbLine
 10
234.997492
 20
115.566426
 30
0.0
 11
234.997492
 21
114.821629
 31
0.0
  0
LINE
  5
CC
330
1F
100
AcDbEntity
  8
LC-001-100-D00-0
 62
     7
370
    25
100
AcDbLine
 10
234.997492
 20
115.566426
 30
0.0
 11
233.600992
 21
115.566426
 31
0.0
  0
LINE
  5
CD
330
1F
100
AcDbEntity
  8
LC-001-100-D00-0
 62
     7
370
    25
100
AcDbLine
 10
233.600992
 20
116.109339
 30
0.0
 11
233.600992
 21
115.566426
 31
0.0
  0
LINE
  5
CE
330
1F
100
AcDbEntity
  8
LC-001-100-D00-0
 62
     7
370
    25
100
AcDbLine
 10
233.600992
 20
116.109339
 30
0.0
 11
234.997492
 21
116.109339
 31
0.0
  0
LINE
  5
CF
330
1F
100
AcDbEntity
  8
LC-001-100-D00-0
 62
     7
370
    25
100
AcDbLine
 10
234.997492
 20
116.85414
 30
0.0
 11
234.997492
 21
116.109339
 31
0.0
  0
LINE
  5
D0
330
1F
100
AcDbEntity
  8
LC-001-100-D00-0
 62
     7
370
    25
100
AcDbLine
 10
232.669992
 20
116.85414
 30
0.0
 11
234.997492
 21
116.85414
 31
0.0
  0
LINE
  5
D1
330
1F
100
AcDbEntity
  8
LC-001-100-D00-0
 62
     7
370
    25
100
AcDbLine
 10
232.669992
 20
116.85414
 30
0.0
 11
232.669992
 21
113.533915
 31
0.0
  0
LINE
  5
D2
330
1F
100
AcDbEntity
  8
LC-001-100-D00-0
 62
     7
370
    25
100
AcDbLine
 10
234.997492
 20
114.821629
 30
0.0
 11
233.600992
 21
114.821629
 31
0.0
  0
LINE
  5
D3
330
1F
100
AcDbEntity
  8
LC-001-100-D00-0
 62
     7
370
    25
100
AcDbLine
 10
220.846292
 20
115.209715
 30
0.0
 11
220.846292
 21
115.690389
 31
0.0
  0
LINE
  5
D4
330
1F
100
AcDbEntity
  8
LC-001-100-D00-0
 62
     7
370
    25
100
AcDbLine
 10
222.149692
 20
115.209715
 30
0.0
 11
220.846292
 21
115.209715
 31
0.0
  0
LINE
  5
D5
330
1F
100
AcDbEntity
  8
LC-001-100-D00-0
 62
     7
370
    25
100
AcDbLine
 10
222.149692
 20
115.690389
 30
0.0
 11
222.149692
 21
115.209715
 31
0.0
  0
ARC
  5
D6
330
1F
100
AcDbEntity
  8
LC-001-100-D00-0
 62
     7
370
    25
100
AcDbCircle
 10
221.730742
 20
115.69039
 30
0.0
 40
0.4189499999999953
100
AcDbArc
 50
0.0
 51
90.0
  0
LINE
  5
D7
330
1F
100
AcDbEntity
  8
LC-001-100-D00-0
 62
     7
370
    25
100
AcDbLine
 10
221.265242
 20
116.109339
 30
0.0
 11
221.730742
 21
116.109339
 31
0.0
  0
ARC
  5
D8
330
1F
100
AcDbEntity
  8
LC-001-100-D00-0
 62
     7
370
    25
100
AcDbCircle
 10
221.265242
 20
115.69039
 30
0.0
 40
0.4189499999999953
100
AcDbArc
 50
90.0
 51
180.0
  0
LINE
  5
D9
330
1F
100
AcDbEntity
  8
LC-001-100-D00-0
 62
     7
370
    25
100
AcDbLine
 10
222.149692
 20
113.720116
 30
0.0
 11
222.708292
 21
113.720116
 31
0.0
  0
LINE
  5
DA
330
1F
100
AcDbEntity
  8
LC-001-100-D00-0
 62
     7
370
    25
100
AcDbLine
 10
222.149692
 20
114.651115
 30
0.0
 11
222.149692
 21
113.720116
 31
0.0
  0
LINE
  5
DB
330
1F
100
AcDbEntity
  8
LC-001-100-D00-0
 62
     7
370
    25
100
AcDbLine
 10
220.846292
 20
114.651115
 30
0.0
 11
222.149692
 21
114.651115
 31
0.0
  0
LINE
  5
DC
330
1F
100
AcDbEntity
  8
LC-001-100-D00-0
 62
     7
370
    25
100
AcDbLine
 10
220.846292
 20
113.720116
 30
0.0
 11
220.846292
 21
114.651115
 31
0.0
  0
LINE
  5
DD
330
1F
100
AcDbEntity
  8
LC-001-100-D00-0
 62
     7
370
    25
100
AcDbLine
 10
220.287693
 20
113.720116
 30
0.0
 11
220.846292
 21
113.720116
 31
0.0
  0
LINE
  5
DE
330
1F
100
AcDbEntity
  8
LC-001-100-D00-0
 62
     7
370
    25
100
AcDbLine
 10
220.287693
 20
116.202441
 30
0.0
 11
220.287693
 21
113.720116
 31
0.0
  0
ARC
  5
DF
330
1F
100
AcDbEntity
  8
LC-001-100-D00-0
 62
     7
370
    25
100
AcDbCircle
 10
220.753192
 20
116.20244
 30
0.0
 40
0.46550000000002
100
AcDbArc
 50
90.0
 51
180.0
  0
LINE
  5
E0
330
1F
100
AcDbEntity
  8
LC-001-100-D00-0
 62
     7
370
    25
100
AcDbLine
 10
222.242793
 20
116.667938
 30
0.0
 11
220.753192
 21
116.667938
 31
0.0
  0
ARC
  5
E1
330
1F
100
AcDbEntity
  8
LC-001-100-D00-0
 62
     7
370
    25
100
AcDbCircle
 10
222.242792
 20
116.20244
 30
0.0
 40
0.4655000000000769
100
AcDbArc
 50
360.0
 51
90.0
  0
LINE
  5
E2
330
1F
100
AcDbEntity
  8
LC-001-100-D00-0
 62
     7
370
    25
100
AcDbLine
 10
222.708292
 20
113.720116
 30
0.0
 11
222.708292
 21
116.202441
 31
0.0
  0
LINE
  5
E3
330
1F
100
AcDbEntity
  8
LC-001-100-D00-0
 62
     7
370
    25
100
AcDbLine
 10
215.22391
 20
114.987155
 30
0.0
 11
214.809962
 21
116.124463
 31
0.0
  0
ARC
  5
E4
330
1F
100
AcDbEntity
  8
LC-001-100-D00-0
 62
     7
370
    25
100
AcDbCircle
 10
215.311395
 20
115.018997
 30
0.0
 40
0.0931000000000587
100
AcDbArc
 50
200.0
 51
20.0
  0
LINE
  5
E5
330
1F
100
AcDbEntity
  8
LC-001-100-D00-0
 62
     7
370
    25
100
AcDbLine
 10
215.191906
 20
115.619493
 30
0.0
 11
215.39888
 21
115.050838
 31
0.0
  0
LINE
  5
E6
330
1F
100
AcDbEntity
  8
LC-001-100-D00-0
 62
     7
370
    25
100
AcDbLine
 10
215.191906
 20
115.619493
 30
0.0
 11
214.984934
 21
116.188147
 31
0.0
  0
ARC
  5
E7
330
1F
100
AcDbEntity
  8
LC-001-100-D00-0
 62
     7
370
    25
100
AcDbCircle
 10
214.897448
 20
116.156307
 30
0.0
 40
0.0931000000000587
100
AcDbArc
 50
20.0
 51
200.0
  0
LINE
  5
E8
330
1F
100
AcDbEntity
  8
LC-001-100-D00-0
 62
     7
370
    25
100
AcDbLine
 10
214.666994
 20
115.428441
 30
0.0
 11
214.60331
 21
115.603411
 31
0.0
  0
LINE
  5
E9
330
1F
100
AcDbEntity
  8
LC-001-100-D00-0
 62
     7
370
    25
100
AcDbLine
 10
214.666994
 20
115.428441
 30
0.0
 11
214.730679
 21
115.253472
 31
0.0
  0
ARC
  5
EA
330
1F
100
AcDbEntity
  8
LC-001-100-D00-0
 62
     7
370
    25
100
AcDbCircle
 10
214.818164
 20
115.285313
 30
0.0
 40
0.0931000000000587
100
AcDbArc
 50
200.0
 51
20.0
  0
LINE
  5
EB
330
1F
100
AcDbEntity
  8
LC-001-100-D00-0
 62
     7
370
    25
100
AcDbLine
 10
214.778281
 20
115.667095
 30
0.0
 11
214.905649
 21
115.317156
 31
0.0
  0
ARC
  5
EC
330
1F
100
AcDbEntity
  8
LC-001-100-D00-0
 62
     7
370
    25
100
AcDbCircle
 10
214.690795
 20
115.635254
 30
0.0
 40
0.0931000000001218
100
AcDbArc
 50
20.0
 51
200.0
  0
LINE
  5
ED
330
1F
100
AcDbEntity
  8
LC-001-100-D00-0
 62
     7
370
    25
100
AcDbLine
 10
213.887345
 20
115.937271
 30
0.0
 11
214.062316
 21
116.000955
 31
0.0
  0
LINE
  5
EE
330
1F
100
AcDbEntity
  8
LC-001-100-D00-0
 62
     7
370
    25
100
AcDbLine
 10
213.887345
 20
115.937271
 30
0.0
 11
213.712375
 21
115.873587
 31
0.0
  0
ARC
  5
EF
330
1F
100
AcDbEntity
  8
LC-001-100-D00-0
 62
     7
370
    25
100
AcDbCircle
 10
213.744217
 20
115.786102
 30
0.0
 40
0.0930999999999956
100
AcDbArc
 50
110.0
 51
290.0
  0
LINE
  5
F0
330
1F
100
AcDbEntity
  8
LC-001-100-D00-0
 62
     7
370
    25
100
AcDbLine
 10
214.126
 20
115.825986
 30
0.0
 11
213.776059
 21
115.698618
 31
0.0
  0
ARC
  5
F1
330
1F
100
AcDbEntity
  8
LC-001-100-D00-0
 62
     7
370
    25
100
AcDbCircle
 10
214.094158
 20
115.913471
 30
0.0
 40
0.0930999999999956
100
AcDbArc
 50
290.0
 51
110.0
  0
LINE
  5
F2
330
1F
100
AcDbEntity
  8
LC-001-100-D00-0
 62
     7
370
    25
100
AcDbLine
 10
214.158164
 20
114.64879
 30
0.0
 11
214.508105
 21
114.776162
 31
0.0
  0
ARC
  5
F3
330
1F
100
AcDbEntity
  8
LC-001-100-D00-0
 62
     7
370
    25
100
AcDbCircle
 10
214.190006
 20
114.561307
 30
0.0
 40
0.0931000000000223
100
AcDbArc
 50
110.0
 51
290.0
  0
LINE
  5
F4
330
1F
100
AcDbEntity
  8
LC-001-100-D00-0
 62
     7
370
    25
100
AcDbLine
 10
214.396818
 20
114.537505
 30
0.0
 11
214.221848
 21
114.473821
 31
0.0
  0
LINE
  5
F5
330
1F
100
AcDbEntity
  8
LC-001-100-D00-0
 62
     7
370
    25
100
AcDbLine
 10
214.396818
 20
114.537505
 30
0.0
 11
214.57179
 21
114.601188
 31
0.0
  0
ARC
  5
F6
330
1F
100
AcDbEntity
  8
LC-001-100-D00-0
 62
     7
370
    25
100
AcDbCircle
 10
214.539947
 20
114.688675
 30
0.0
 40
0.0930999999999689
100
AcDbArc
 50
290.0
 51
110.0
  0
ARC
  5
F7
330
1F
100
AcDbEntity
  8
LC-001-100-D00-0
 62
     7
370
    25
100
AcDbCircle
 10
213.593368
 20
114.839523
 30
0.0
 40
0.0931000000000587
100
AcDbArc
 50
200.0
 51
20.0
  0
LINE
  5
F8
330
1F
100
AcDbEntity
  8
LC-001-100-D00-0
 62
     7
370
    25
100
AcDbLine
 10
213.61717
 20
115.046334
 30
0.0
 11
213.680854
 21
114.871365
 31
0.0
  0
LINE
  5
F9
330
1F
100
AcDbEntity
  8
LC-001-100-D00-0
 62
     7
370
    25
100
AcDbLine
 10
213.61717
 20
115.046334
 30
0.0
 11
213.553486
 21
115.221308
 31
0.0
  0
ARC
  5
FA
330
1F
100
AcDbEntity
  8
LC-001-100-D00-0
 62
     7
370
    25
100
AcDbCircle
 10
213.466
 20
115.189465
 30
0.0
 40
0.0931000000000587
100
AcDbArc
 50
20.0
 51
200.0
  0
LINE
  5
FB
330
1F
100
AcDbEntity
  8
LC-001-100-D00-0
 62
     7
370
    25
100
AcDbLine
 10
213.442199
 20
114.982651
 30
0.0
 11
213.378515
 21
115.157624
 31
0.0
  0
LINE
  5
FC
330
1F
100
AcDbEntity
  8
LC-001-100-D00-0
 62
     7
370
    25
100
AcDbLine
 10
213.442199
 20
114.982651
 30
0.0
 11
213.505883
 21
114.807681
 31
0.0
  0
ARC
  5
FD
330
1F
100
AcDbEntity
  8
LC-001-100-D00-0
 62
     7
370
    25
100
AcDbCircle
 10
215.061
 20
114.482023
 30
0.0
 40
0.0931000000000417
100
AcDbArc
 50
290.0
 51
110.0
  0
LINE
  5
FE
330
1F
100
AcDbEntity
  8
LC-001-100-D00-0
 62
     7
370
    25
100
AcDbLine
 10
213.891848
 20
114.155562
 30
0.0
 11
215.029158
 21
114.569509
 31
0.0
  0
ARC
  5
FF
330
1F
100
AcDbEntity
  8
LC-001-100-D00-0
 62
     7
370
    25
100
AcDbCircle
 10
213.92369
 20
114.068076
 30
0.0
 40
0.0931000000000368
100
AcDbArc
 50
110.0
 51
290.0
  0
LINE
  5
100
330
1F
100
AcDbEntity
  8
LC-001-100-D00-0
 62
     7
370
    25
100
AcDbLine
 10
213.955533
 20
113.980589
 30
0.0
 11
215.092842
 21
114.394535
 31
0.0
  0
ARC
  5
101
330
1F
100
AcDbEntity
  8
LC-001-100-D00-0
 62
     7
370
    25
100
AcDbCircle
 10
215.582052
 20
114.275371
 30
0.0
 40
0.0930999999999956
100
AcDbArc
 50
290.0
 51
110.0
  0
LINE
  5
102
330
1F
100
AcDbEntity
  8
LC-001-100-D00-0
 62
     7
370
    25
100
AcDbLine
 10
214.587871
 20
114.012593
 30
0.0
 11
215.55021
 21
114.362855
 31
0.0
  0
LINE
  5
103
330
1F
100
AcDbEntity
  8
LC-001-100-D00-0
 62
     7
370
    25
100
AcDbLine
 10
214.587871
 20
114.012593
 30
0.0
 11
213.625532
 21
113.66233
 31
0.0
  0
ARC
  5
104
330
1F
100
AcDbEntity
  8
LC-001-100-D00-0
 62
     7
370
    25
100
AcDbCircle
 10
213.657374
 20
113.574845
 30
0.0
 40
0.0931000000000951
100
AcDbArc
 50
110.0
 51
290.0
  0
LINE
  5
105
330
1F
100
AcDbEntity
  8
LC-001-100-D00-0
 62
     7
370
    25
100
AcDbLine
 10
214.651556
 20
113.837623
 30
0.0
 11
213.689216
 21
113.48736
 31
0.0
  0
LINE
  5
106
330
1F
100
AcDbEntity
  8
LC-001-100-D00-0
 62
     7
370
    25
100
AcDbLine
 10
214.651556
 20
113.837623
 30
0.0
 11
215.613894
 21
114.187886
 31
0.0
  0
ARC
  5
107
330
1F
100
AcDbEntity
  8
LC-001-100-D00-0
 62
     7
370
    25
100
AcDbCircle
 10
213.386716
 20
114.318471
 30
0.0
 40
0.0931000000001218
100
AcDbArc
 50
200.0
 51
20.0
  0
LINE
  5
108
330
1F
100
AcDbEntity
  8
LC-001-100-D00-0
 62
     7
370
    25
100
AcDbLine
 10
213.060254
 20
115.487621
 30
0.0
 11
213.474202
 21
114.350312
 31
0.0
  0
ARC
  5
109
330
1F
100
AcDbEntity
  8
LC-001-100-D00-0
 62
     7
370
    25
100
AcDbCircle
 10
212.972769
 20
115.455781
 30
0.0
 40
0.0931000000001218
100
AcDbArc
 50
20.0
 51
200.0
  0
LINE
  5
10A
330
1F
100
AcDbEntity
  8
LC-001-100-D00-0
 62
     7
370
    25
100
AcDbLine
 10
212.885284
 20
115.423937
 30
0.0
 11
213.299231
 21
114.286629
 31
0.0
  0
LINE
  5
10B
330
1F
100
AcDbEntity
  8
LC-001-100-D00-0
 62
     7
370
    25
100
AcDbLine
 10
212.567024
 20
115.753938
 30
0.0
 11
213.26755
 21
113.82926
 31
0.0
  0
ARC
  5
10C
330
1F
100
AcDbEntity
  8
LC-001-100-D00-0
 62
     7
370
    25
100
AcDbCircle
 10
212.479538
 20
115.722097
 30
0.0
 40
0.0930999999999956
100
AcDbArc
 50
20.0
 51
200.0
  0
LINE
  5
10D
330
1F
100
AcDbEntity
  8
LC-001-100-D00-0
 62
     7
370
    25
100
AcDbLine
 10
212.742316
 20
114.727915
 30
0.0
 11
212.392053
 21
115.690255
 31
0.0
  0
LINE
  5
10E
330
1F
100
AcDbEntity
  8
LC-001-100-D00-0
 62
     7
370
    25
100
AcDbLine
 10
212.742316
 20
114.727915
 30
0.0
 11
213.092579
 21
113.765576
 31
0.0
  0
ARC
  5
10F
330
1F
100
AcDbEntity
  8
LC-001-100-D00-0
 62
     7
370
    25
100
AcDbCircle
 10
213.180064
 20
113.797418
 30
0.0
 40
0.0931000000000587
100
AcDbArc
 50
200.0
 51
20.0
  0
LINE
  5
110
330
1F
100
AcDbEntity
  8
LC-001-100-D00-0
 62
     7
370
    25
100
AcDbLine
 10
213.568924
 20
116.812126
 30
0.0
 11
215.143661
 21
117.385284
 31
0.0
  0
LINE
  5
111
330
1F
100
AcDbEntity
  8
LC-001-100-D00-0
 62
     7
370
    25
100
AcDbLine
 10
215.716819
 20
115.810544
 30
0.0
 11
215.143661
 21
117.385284
 31
0.0
  0
LINE
  5
112
330
1F
100
AcDbEntity
  8
LC-001-100-D00-0
 62
     7
370
    25
100
AcDbLine
 10
215.716819
 20
115.810544
 30
0.0
 11
216.289976
 21
114.235808
 31
0.0
  0
LINE
  5
113
330
1F
100
AcDbEntity
  8
LC-001-100-D00-0
 62
     7
370
    25
100
AcDbLine
 10
213.140502
 20
113.089495
 30
0.0
 11
216.289976
 21
114.235808
 31
0.0
  0
LINE
  5
114
330
1F
100
AcDbEntity
  8
LC-001-100-D00-0
 62
     7
370
    25
100
AcDbLine
 10
211.994188
 20
116.238968
 30
0.0
 11
213.140502
 21
113.089495
 31
0.0
  0
LINE
  5
115
330
1F
100
AcDbEntity
  8
LC-001-100-D00-0
 62
     7
370
    25
100
AcDbLine
 10
213.568924
 20
116.812126
 30
0.0
 11
211.994188
 21
116.238968
 31
0.0
  0
ARC
  5
116
330
1F
100
AcDbEntity
  8
LC-001-100-D00-0
 62
     7
370
    25
100
AcDbCircle
 10
214.360474
 20
116.406701
 30
0.0
 40
0.0931000000000684
100
AcDbArc
 50
290.0
 51
110.0
  0
LINE
  5
117
330
1F
100
AcDbEntity
  8
LC-001-100-D00-0
 62
     7
370
    25
100
AcDbLine
 10
213.759977
 20
116.287214
 30
0.0
 11
214.328632
 21
116.494187
 31
0.0
  0
LINE
  5
118
330
1F
100
AcDbEntity
  8
LC-001-100-D00-0
 62
     7
370
    25
100
AcDbLine
 10
213.759977
 20
116.287214
 30
0.0
 11
213.191322
 21
116.08024
 31
0.0
  0
ARC
  5
119
330
1F
100
AcDbEntity
  8
LC-001-100-D00-0
 62
     7
370
    25
100
AcDbCircle
 10
213.223164
 20
115.992755
 30
0.0
 40
0.0931000000001486
100
AcDbArc
 50
110.0
 51
290.0
  0
LINE
  5
11A
330
1F
100
AcDbEntity
  8
LC-001-100-D00-0
 62
     7
370
    25
100
AcDbLine
 10
213.823661
 20
116.112244
 30
0.0
 11
213.255006
 21
115.905271
 31
0.0
  0
LINE
  5
11B
330
1F
100
AcDbEntity
  8
LC-001-100-D00-0
 62
     7
370
    25
100
AcDbLine
 10
213.823661
 20
116.112244
 30
0.0
 11
214.392316
 21
116.319214
 31
0.0
  0
LINE
  5
11C
330
1F
100
AcDbEntity
  8
LC-001-100-D00-0
 62
     7
370
    25
100
AcDbLine
 10
212.670269
 20
116.286893
 30
0.0
 11
214.594948
 21
116.987416
 31
0.0
  0
ARC
  5
11D
330
1F
100
AcDbEntity
  8
LC-001-100-D00-0
 62
     7
370
    25
100
AcDbCircle
 10
212.702111
 20
116.199407
 30
0.0
 40
0.0931000000000223
100
AcDbArc
 50
110.0
 51
290.0
  0
LINE
  5
11E
330
1F
100
AcDbEntity
  8
LC-001-100-D00-0
 62
     7
370
    25
100
AcDbLine
 10
213.696293
 20
116.462183
 30
0.0
 11
212.733953
 21
116.11192
 31
0.0
  0
LINE
  5
11F
330
1F
100
AcDbEntity
  8
LC-001-100-D00-0
 62
     7
370
    25
100
AcDbLine
 10
213.696293
 20
116.462183
 30
0.0
 11
214.658633
 21
116.812446
 31
0.0
  0
ARC
  5
120
330
1F
100
AcDbEntity
  8
LC-001-100-D00-0
 62
     7
370
    25
100
AcDbCircle
 10
214.62679
 20
116.899932
 30
0.0
 40
0.0930999999999956
100
AcDbArc
 50
290.0
 51
110.0
  0
ARC
  5
121
330
1F
100
AcDbEntity
  8
LC-001-100-D00-0
 62
     7
370
    25
100
AcDbCircle
 10
215.1041
 20
116.677359
 30
0.0
 40
0.0931000000000053
100
AcDbArc
 50
20.0
 51
200.0
  0
LINE
  5
122
330
1F
100
AcDbEntity
  8
LC-001-100-D00-0
 62
     7
370
    25
100
AcDbLine
 10
215.717139
 20
114.720837
 30
0.0
 11
215.016614
 21
116.645516
 31
0.0
  0
ARC
  5
123
330
1F
100
AcDbEntity
  8
LC-001-100-D00-0
 62
     7
370
    25
100
AcDbCircle
 10
215.804625
 20
114.752681
 30
0.0
 40
0.093100000000185
100
AcDbArc
 50
200.0
 51
20.0
  0
LINE
  5
124
330
1F
100
AcDbEntity
  8
LC-001-100-D00-0
 62
     7
370
    25
100
AcDbLine
 10
215.892111
 20
114.784521
 30
0.0
 11
215.191586
 21
116.7092
 31
0.0
  0
LINE
  5
125
330
1F
100
AcDbEntity
  8
LC-001-100-D00-0
 62
     7
370
    25
100
AcDbLine
 10
234.811293
 20
116.29554
 30
0.0
 11
234.811293
 21
116.667938
 31
0.0
  0
LINE
  5
126
330
1F
100
AcDbEntity
  8
LC-001-100-D00-0
 62
     7
370
    25
100
AcDbLine
 10
233.414791
 20
115.380229
 30
0.0
 11
233.414791
 21
116.29554
 31
0.0
  0
LINE
  5
127
330
1F
100
AcDbEntity
  8
LC-001-100-D00-0
 62
     7
370
    25
100
AcDbLine
 10
234.811293
 20
115.380229
 30
0.0
 11
233.414791
 21
115.380229
 31
0.0
  0
LINE
  5
128
330
1F
100
AcDbEntity
  8
LC-001-100-D00-0
 62
     7
370
    25
100
AcDbLine
 10
234.811293
 20
115.007826
 30
0.0
 11
234.811293
 21
115.380229
 31
0.0
  0
LINE
  5
129
330
1F
100
AcDbEntity
  8
LC-001-100-D00-0
 62
     7
370
    25
100
AcDbLine
 10
233.414791
 20
115.007826
 30
0.0
 11
234.811293
 21
115.007826
 31
0.0
  0
LINE
  5
12A
330
1F
100
AcDbEntity
  8
LC-001-100-D00-0
 62
     7
370
    25
100
AcDbLine
 10
234.811293
 20
114.092515
 30
0.0
 11
233.414791
 21
114.092515
 31
0.0
  0
LINE
  5
12B
330
1F
100
AcDbEntity
  8
LC-001-100-D00-0
 62
     7
370
    25
100
AcDbLine
 10
234.811293
 20
113.720116
 30
0.0
 11
234.811293
 21
114.092515
 31
0.0
  0
LINE
  5
12C
330
1F
100
AcDbEntity
  8
LC-001-100-D00-0
 62
     7
370
    25
100
AcDbLine
 10
232.856191
 20
113.720116
 30
0.0
 11
234.811293
 21
113.720116
 31
0.0
  0
LINE
  5
12D
330
1F
100
AcDbEntity
  8
LC-001-100-D00-0
 62
     7
370
    25
100
AcDbLine
 10
232.856191
 20
116.667938
 30
0.0
 11
232.856191
 21
113.720116
 31
0.0
  0
LINE
  5
12E
330
1F
100
AcDbEntity
  8
LC-001-100-D00-0
 62
     7
370
    25
100
AcDbLine
 10
234.811293
 20
116.667938
 30
0.0
 11
232.856191
 21
116.667938
 31
0.0
  0
LINE
  5
12F
330
1F
100
AcDbEntity
  8
LC-001-100-D00-0
 62
     7
370
    25
100
AcDbLine
 10
233.414791
 20
116.29554
 30
0.0
 11
234.811293
 21
116.29554
 31
0.0
  0
LINE
  5
130
330
1F
100
AcDbEntity
  8
LC-001-100-D00-0
 62
     7
370
    25
100
AcDbLine
 10
233.414791
 20
114.092515
 30
0.0
 11
233.414791
 21
115.007826
 31
0.0
  0
ARC
  5
131
330
1F
100
AcDbEntity
  8
LC-001-100-D00-0
 62
     7
370
    25
100
AcDbCircle
 10
218.472242
 20
114.75939
 30
0.0
 40
0.23275000000001
100
AcDbArc
 50
270.0
 51
0.0
  0
LINE
  5
132
330
1F
100
AcDbEntity
  8
LC-001-100-D00-0
 62
     7
370
    25
100
AcDbLine
 10
218.239493
 20
114.526638
 30
0.0
 11
218.472242
 21
114.526638
 31
0.0
  0
LINE
  5
133
330
1F
100
AcDbEntity
  8
LC-001-100-D00-0
 62
     7
370
    25
100
AcDbLine
 10
218.239493
 20
115.923141
 30
0.0
 11
218.239493
 21
114.526638
 31
0.0
  0
LINE
  5
134
330
1F
100
AcDbEntity
  8
LC-001-100-D00-0
 62
     7
370
    25
100
AcDbLine
 10
218.239493
 20
115.923141
 30
0.0
 11
218.472242
 21
115.923141
 31
0.0
  0
ARC
  5
135
330
1F
100
AcDbEntity
  8
LC-001-100-D00-0
 62
     7
370
    25
100
AcDbCircle
 10
218.472242
 20
115.69039
 30
0.0
 40
0.23275000000001
100
AcDbArc
 50
0.0
 51
90.0
  0
LINE
  5
136
330
1F
100
AcDbEntity
  8
LC-001-100-D00-0
 62
     7
370
    25
100
AcDbLine
 10
218.704992
 20
115.690389
 30
0.0
 11
218.704992
 21
114.75939
 31
0.0
  0
ARC
  5
137
330
1F
100
AcDbEntity
  8
LC-001-100-D00-0
 62
     7
370
    25
100
AcDbCircle
 10
218.472242
 20
115.69039
 30
0.0
 40
0.4189499999999953
100
AcDbArc
 50
0.0
 51
90.0
  0
LINE
  5
138
330
1F
100
AcDbEntity
  8
LC-001-100-D00-0
 62
     7
370
    25
100
AcDbLine
 10
218.891192
 20
115.690389
 30
0.0
 11
218.891192
 21
114.75939
 31
0.0
  0
ARC
  5
139
330
1F
100
AcDbEntity
  8
LC-001-100-D00-0
 62
     7
370
    25
100
AcDbCircle
 10
218.472242
 20
114.75939
 30
0.0
 40
0.4189500000000237
100
AcDbArc
 50
270.0
 51
0.0
  0
LINE
  5
13A
330
1F
100
AcDbEntity
  8
LC-001-100-D00-0
 62
     7
370
    25
100
AcDbLine
 10
218.472242
 20
114.34044
 30
0.0
 11
218.053292
 21
114.34044
 31
0.0
  0
LINE
  5
13B
330
1F
100
AcDbEntity
  8
LC-001-100-D00-0
 62
     7
370
    25
100
AcDbLine
 10
218.053292
 20
114.34044
 30
0.0
 11
218.053292
 21
116.109339
 31
0.0
  0
LINE
  5
13C
330
1F
100
AcDbEntity
  8
LC-001-100-D00-0
 62
     7
370
    25
100
AcDbLine
 10
218.053292
 20
116.109339
 30
0.0
 11
218.472242
 21
116.109339
 31
0.0
  0
LINE
  5
13D
330
1F
100
AcDbEntity
  8
LC-001-100-D00-0
 62
     7
370
    25
100
AcDbLine
 10
217.494692
 20
113.781841
 30
0.0
 11
218.984293
 21
113.781841
 31
0.0
  0
LINE
  5
13E
330
1F
100
AcDbEntity
  8
LC-001-100-D00-0
 62
     7
370
    25
100
AcDbLine
 10
217.494692
 20
116.667938
 30
0.0
 11
217.494692
 21
113.781841
 31
0.0
  0
LINE
  5
13F
330
1F
100
AcDbEntity
  8
LC-001-100-D00-0
 62
     7
370
    25
100
AcDbLine
 10
218.984293
 20
116.667938
 30
0.0
 11
217.494692
 21
116.667938
 31
0.0
  0
ARC
  5
140
330
1F
100
AcDbEntity
  8
LC-001-100-D00-0
 62
     7
370
    25
100
AcDbCircle
 10
218.984292
 20
116.20244
 30
0.0
 40
0.4655000000002474
100
AcDbArc
 50
0.0
 51
90.0
  0
LINE
  5
141
330
1F
100
AcDbEntity
  8
LC-001-100-D00-0
 62
     7
370
    25
100
AcDbLine
 10
219.449792
 20
114.247338
 30
0.0
 11
219.449792
 21
116.202441
 31
0.0
  0
ARC
  5
142
330
1F
100
AcDbEntity
  8
LC-001-100-D00-0
 62
     7
370
    25
100
AcDbCircle
 10
218.984292
 20
114.24734
 30
0.0
 40
0.4655000000000484
100
AcDbArc
 50
270.0
 51
0.0
  0
LINE
  5
143
330
1F
100
AcDbEntity
  8
LC-001-100-D00-0
 62
     7
370
    25
100
AcDbLine
 10
221.963493
 20
115.690389
 30
0.0
 11
221.963493
 21
115.395916
 31
0.0
  0
LINE
  5
144
330
1F
100
AcDbEntity
  8
LC-001-100-D00-0
 62
     7
370
    25
100
AcDbLine
 10
221.032493
 20
115.395916
 30
0.0
 11
221.963493
 21
115.395916
 31
0.0
  0
LINE
  5
145
330
1F
100
AcDbEntity
  8
LC-001-100-D00-0
 62
     7
370
    25
100
AcDbLine
 10
221.032493
 20
115.690389
 30
0.0
 11
221.032493
 21
115.395916
 31
0.0
  0
ARC
  5
146
330
1F
100
AcDbEntity
  8
LC-001-100-D00-0
 62
     7
370
    25
100
AcDbCircle
 10
221.265242
 20
115.69039
 30
0.0
 40
0.23275000000001
100
AcDbArc
 50
90.0
 51
180.0
  0
LINE
  5
147
330
1F
100
AcDbEntity
  8
LC-001-100-D00-0
 62
     7
370
    25
100
AcDbLine
 10
221.265242
 20
115.923141
 30
0.0
 11
221.730742
 21
115.923141
 31
0.0
  0
ARC
  5
148
330
1F
100
AcDbEntity
  8
LC-001-100-D00-0
 62
     7
370
    25
100
AcDbCircle
 10
221.730742
 20
115.69039
 30
0.0
 40
0.23275000000001
100
AcDbArc
 50
0.0
 51
90.0
  0
LINE
  5
149
330
1F
100
AcDbEntity
  8
LC-001-100-D00-0
 62
     7
370
    25
100
AcDbLine
 10
224.104792
 20
116.667938
 30
0.0
 11
223.546192
 21
116.667938
 31
0.0
  0
LINE
  5
14A
330
1F
100
AcDbEntity
  8
LC-001-100-D00-0
 62
     7
370
    25
100
AcDbLine
 10
224.104792
 20
114.278716
 30
0.0
 11
224.104792
 21
116.667938
 31
0.0
  0
LINE
  5
14B
330
1F
100
AcDbEntity
  8
LC-001-100-D00-0
 62
     7
370
    25
100
AcDbLine
 10
225.035792
 20
114.278716
 30
0.0
 11
224.104792
 21
114.278716
 31
0.0
  0
LINE
  5
14C
330
1F
100
AcDbEntity
  8
LC-001-100-D00-0
 62
     7
370
    25
100
AcDbLine
 10
225.035792
 20
113.720116
 30
0.0
 11
225.035792
 21
114.278716
 31
0.0
  0
LINE
  5
14D
330
1F
100
AcDbEntity
  8
LC-001-100-D00-0
 62
     7
370
    25
100
AcDbLine
 10
223.546192
 20
113.720116
 30
0.0
 11
225.035792
 21
113.720116
 31
0.0
  0
LINE
  5
14E
330
1F
100
AcDbEntity
  8
LC-001-100-D00-0
 62
     7
370
    25
100
AcDbLine
 10
223.546192
 20
116.667938
 30
0.0
 11
223.546192
 21
113.720116
 31
0.0
  0
LINE
  5
14F
330
1F
100
AcDbEntity
  8
LC-001-100-D00-0
 62
     7
370
    25
100
AcDbLine
 10
225.873692
 20
116.667938
 30
0.0
 11
225.873692
 21
113.720116
 31
0.0
  0
LINE
  5
150
330
1F
100
AcDbEntity
  8
LC-001-100-D00-0
 62
     7
370
    25
100
AcDbLine
 10
226.432292
 20
116.667938
 30
0.0
 11
225.873692
 21
116.667938
 31
0.0
  0
LINE
  5
151
330
1F
100
AcDbEntity
  8
LC-001-100-D00-0
 62
     7
370
    25
100
AcDbLine
 10
226.432292
 20
114.278716
 30
0.0
 11
226.432292
 21
116.667938
 31
0.0
  0
LINE
  5
152
330
1F
100
AcDbEntity
  8
LC-001-100-D00-0
 62
     7
370
    25
100
AcDbLine
 10
227.363292
 20
114.278716
 30
0.0
 11
226.432292
 21
114.278716
 31
0.0
  0
LINE
  5
153
330
1F
100
AcDbEntity
  8
LC-001-100-D00-0
 62
     7
370
    25
100
AcDbLine
 10
227.363292
 20
113.720116
 30
0.0
 11
227.363292
 21
114.278716
 31
0.0
  0
LINE
  5
154
330
1F
100
AcDbEntity
  8
LC-001-100-D00-0
 62
     7
370
    25
100
AcDbLine
 10
225.873692
 20
113.720116
 30
0.0
 11
227.363292
 21
113.720116
 31
0.0
  0
ARC
  5
155
330
1F
100
AcDbEntity
  8
LC-001-100-D00-0
 62
     7
370
    25
100
AcDbCircle
 10
237.092242
 20
115.628665
 30
0.0
 40
0.23275000000001
100
AcDbArc
 50
270.0
 51
0.0
  0
LINE
  5
156
330
1F
100
AcDbEntity
  8
LC-001-100-D00-0
 62
     7
370
    25
100
AcDbLine
 10
236.393992
 20
115.395916
 30
0.0
 11
237.092241
 21
115.395916
 31
0.0
  0
LINE
  5
157
330
1F
100
AcDbEntity
  8
LC-001-100-D00-0
 62
     7
370
    25
100
AcDbLine
 10
236.393992
 20
115.923141
 30
0.0
 11
236.393992
 21
115.395916
 31
0.0
  0
LINE
  5
158
330
1F
100
AcDbEntity
  8
LC-001-100-D00-0
 62
     7
370
    25
100
AcDbLine
 10
236.393992
 20
115.923141
 30
0.0
 11
237.092241
 21
115.923141
 31
0.0
  0
ARC
  5
159
330
1F
100
AcDbEntity
  8
LC-001-100-D00-0
 62
     7
370
    25
100
AcDbCircle
 10
237.092242
 20
115.69039
 30
0.0
 40
0.2327500000000669
100
AcDbArc
 50
0.0
 51
90.0
  0
LINE
  5
15A
330
1F
100
AcDbEntity
  8
LC-001-100-D00-0
 62
     7
370
    25
100
AcDbLine
 10
237.324994
 20
115.690389
 30
0.0
 11
237.324994
 21
115.628664
 31
0.0
  0
LINE
  5
15B
330
1F
100
AcDbEntity
  8
LC-001-100-D00-0
 62
     7
370
    25
100
AcDbLine
 10
228.759791
 20
113.720116
 30
0.0
 11
228.759791
 21
115.690389
 31
0.0
  0
LINE
  5
15C
330
1F
100
AcDbEntity
  8
LC-001-100-D00-0
 62
     7
370
    25
100
AcDbLine
 10
228.201192
 20
113.720116
 30
0.0
 11
228.759791
 21
113.720116
 31
0.0
  0
LINE
  5
15D
330
1F
100
AcDbEntity
  8
LC-001-100-D00-0
 62
     7
370
    25
100
AcDbLine
 10
228.201192
 20
116.202441
 30
0.0
 11
228.201192
 21
113.720116
 31
0.0
  0
ARC
  5
15E
330
1F
100
AcDbEntity
  8
LC-001-100-D00-0
 62
     7
370
    25
100
AcDbCircle
 10
228.666692
 20
116.20244
 30
0.0
 40
0.46550000000002
100
AcDbArc
 50
90.0
 51
180.0
  0
ARC
  5
15F
330
1F
100
AcDbEntity
  8
LC-001-100-D00-0
 62
     7
370
    25
100
AcDbCircle
 10
229.653647
 20
116.20244
 30
0.0
 40
0.4655000000000663
100
AcDbArc
 50
11.536959
 51
90.0
  0
ARC
  5
160
330
1F
100
AcDbEntity
  8
LC-001-100-D00-0
 62
     7
370
    25
100
AcDbCircle
 10
230.565837
 20
116.20244
 30
0.0
 40
0.4655000000000773
100
AcDbArc
 50
89.999998
 51
168.463041
  0
ARC
  5
161
330
1F
100
AcDbEntity
  8
LC-001-100-D00-0
 62
     7
370
    25
100
AcDbCircle
 10
231.552792
 20
116.20244
 30
0.0
 40
0.4655000000001337
100
AcDbArc
 50
0.0
 51
90.0
  0
LINE
  5
162
330
1F
100
AcDbEntity
  8
LC-001-100-D00-0
 62
     7
370
    25
100
AcDbLine
 10
231.459692
 20
113.720116
 30
0.0
 11
232.018292
 21
113.720116
 31
0.0
  0
LINE
  5
163
330
1F
100
AcDbEntity
  8
LC-001-100-D00-0
 62
     7
370
    25
100
AcDbLine
 10
231.459692
 20
115.690389
 30
0.0
 11
231.459692
 21
113.720116
 31
0.0
  0
ARC
  5
164
330
1F
100
AcDbEntity
  8
LC-001-100-D00-0
 62
     7
370
    25
100
AcDbCircle
 10
231.040742
 20
115.69039
 30
0.0
 40
0.4189500000000521
100
AcDbArc
 50
0.0
 51
90.0
  0
LINE
  5
165
330
1F
100
AcDbEntity
  8
LC-001-100-D00-0
 62
     7
370
    25
100
AcDbLine
 10
230.807991
 20
116.109339
 30
0.0
 11
231.040742
 21
116.109339
 31
0.0
  0
LINE
  5
166
330
1F
100
AcDbEntity
  8
LC-001-100-D00-0
 62
     7
370
    25
100
AcDbLine
 10
230.389042
 20
113.720116
 30
0.0
 11
230.389042
 21
115.690389
 31
0.0
  0
LINE
  5
167
330
1F
100
AcDbEntity
  8
LC-001-100-D00-0
 62
     7
370
    25
100
AcDbLine
 10
229.830442
 20
113.720116
 30
0.0
 11
230.389042
 21
113.720116
 31
0.0
  0
LINE
  5
168
330
1F
100
AcDbEntity
  8
LC-001-100-D00-0
 62
     7
370
    25
100
AcDbLine
 10
229.830442
 20
115.690389
 30
0.0
 11
229.830442
 21
113.720116
 31
0.0
  0
ARC
  5
169
330
1F
100
AcDbEntity
  8
LC-001-100-D00-0
 62
     7
370
    25
100
AcDbCircle
 10
229.411492
 20
115.69039
 30
0.0
 40
0.418950000000109
100
AcDbArc
 50
0.0
 51
90.0
  0
LINE
  5
16A
330
1F
100
AcDbEntity
  8
LC-001-100-D00-0
 62
     7
370
    25
100
AcDbLine
 10
231.552792
 20
116.667938
 30
0.0
 11
230.565836
 21
116.667938
 31
0.0
  0
ARC
  5
16B
330
1F
100
AcDbEntity
  8
LC-001-100-D00-0
 62
     7
370
    25
100
AcDbCircle
 10
229.178742
 20
115.69039
 30
0.0
 40
0.4189499999999953
100
AcDbArc
 50
90.0
 51
180.0
  0
LINE
  5
16C
330
1F
100
AcDbEntity
  8
LC-001-100-D00-0
 62
     7
370
    25
100
AcDbLine
 10
229.653647
 20
116.667938
 30
0.0
 11
228.666693
 21
116.667938
 31
0.0
  0
LINE
  5
16D
330
1F
100
AcDbEntity
  8
LC-001-100-D00-0
 62
     7
370
    25
100
AcDbLine
 10
232.018292
 20
113.720116
 30
0.0
 11
232.018292
 21
116.202441
 31
0.0
  0
ARC
  5
16E
330
1F
100
AcDbEntity
  8
LC-001-100-D00-0
 62
     7
370
    25
100
AcDbCircle
 10
230.807992
 20
115.69039
 30
0.0
 40
0.4189499999999953
100
AcDbArc
 50
90.0
 51
180.0
  0
LINE
  5
16F
330
1F
100
AcDbEntity
  8
LC-001-100-D00-0
 62
     7
370
    25
100
AcDbLine
 10
229.178741
 20
116.109339
 30
0.0
 11
229.411492
 21
116.109339
 31
0.0
  0
DIMENSION
  5
173
330
1F
100
AcDbEntity
  8
LC-002-003-----0
 62
     7
370
    25
100
AcDbDimension
  2
*D1
 10
251.316239
 20
217.331568
 30
0.0
 11
201.395771
 21
248.131568
 31
0.0
 70
   160
  1
90
 71
     5
 42
91.0
  3
LC-DIM-L-0140-02-02
100
AcDbAlignedDimension
 13
160.316239
 23
196.53409
 33
0.0
 14
251.316239
 24
196.53409
 34
0.0
100
AcDbRotatedDimension
  0
ENDSEC
  0
SECTION
  2
OBJECTS
  0
DICTIONARY
  5
C
330
0
100
AcDbDictionary
281
     1
  3
ACAD_GROUP
350
D
  3
ACAD_LAYOUT
350
1A
  3
ACAD_MLINESTYLE
350
17
  3
ACAD_PLOTSETTINGS
350
19
  3
ACAD_PLOTSTYLENAME
350
E
  0
DICTIONARY
  5
D
102
{ACAD_REACTORS
330
C
102
}
330
C
100
AcDbDictionary
281
     1
  0
DICTIONARY
  5
1A
102
{ACAD_REACTORS
330
C
102
}
330
C
100
AcDbDictionary
281
     1
  3
Layout1
350
1E
  3
Layout2
350
26
  3
Model
350
22
  0
DICTIONARY
  5
17
102
{ACAD_REACTORS
330
C
102
}
330
C
100
AcDbDictionary
281
     1
  3
Standard
350
18
  0
DICTIONARY
  5
19
102
{ACAD_REACTORS
330
C
102
}
330
C
100
AcDbDictionary
281
     1
  0
ACDBDICTIONARYWDFLT
  5
E
102
{ACAD_REACTORS
330
C
102
}
330
C
100
AcDbDictionary
281
     1
  3
Normal
350
F
100
AcDbDictionaryWithDefault
340
F
  0
LAYOUT
  5
1E
102
{ACAD_REACTORS
330
1A
102
}
330
1A
100
AcDbPlotSettings
  1

  2

  4

  6

 40
0.0
 41
0.0
 42
0.0
 43
0.0
 44
0.0
 45
0.0
 46
0.0
 47
0.0
 48
0.0
 49
0.0
140
0.0
141
0.0
142
1.0
143
1.0
 70
   688
 72
     0
 73
     0
 74
     5
  7

 75
    16
147
1.0
148
0.0
149
0.0
100
AcDbLayout
  1
Layout1
 70
     1
 71
     1
 10
-209.760318
 20
-147.978432
 11
630.239682
 21
446.021568
 12
0.0
 22
0.0
 32
0.0
 14
-209.760318
 24
-147.978432
 34
0.0
 15
630.239682
 25
446.021568
 35
0.0
146
0.0
 13
0.0
 23
0.0
 33
0.0
 16
1.0
 26
0.0
 36
0.0
 17
0.0
 27
1.0
 37
0.0
 76
     0
330
1B
  0
LAYOUT
  5
26
102
{ACAD_REACTORS
330
1A
102
}
330
1A
100
AcDbPlotSettings
  1

  2

  4

  6

 40
0.0
 41
0.0
 42
0.0
 43
0.0
 44
0.0
 45
0.0
 46
0.0
 47
0.0
 48
0.0
 49
0.0
140
0.0
141
0.0
142
1.0
143
1.0
 70
   688
 72
     0
 73
     0
 74
     5
  7

 75
    16
147
1.0
148
0.0
149
0.0
100
AcDbLayout
  1
Layout2
 70
     1
 71
     2
 10
0.0
 20
0.0
 11
0.0
 21
0.0
 12
0.0
 22
0.0
 32
0.0
 14
0.0
 24
0.0
 34
0.0
 15
0.0
 25
0.0
 35
0.0
146
0.0
 13
0.0
 23
0.0
 33
0.0
 16
1.0
 26
0.0
 36
0.0
 17
0.0
 27
1.0
 37
0.0
 76
     0
330
23
  0
LAYOUT
  5
22
102
{ACAD_REACTORS
330
1A
102
}
330
1A
100
AcDbPlotSettings
  1

  2

  4

  6

 40
0.0
 41
0.0
 42
0.0
 43
0.0
 44
0.0
 45
0.0
 46
0.0
 47
0.0
 48
0.0
 49
0.0
140
0.0
141
0.0
142
1.0
143
1.0
 70
  1776
 72
     0
 73
     0
 74
     0
  7

 75
     0
147
1.0
148
0.0
149
0.0
100
AcDbLayout
  1
Model
 70
     1
 71
     0
 10
-209.760318
 20
-147.978432
 11
630.239682
 21
446.021568
 12
0.0
 22
0.0
 32
0.0
 14
-209.760318
 24
-147.978432
 34
0.0
 15
630.239682
 25
446.021568
 35
0.0
146
0.0
 13
0.0
 23
0.0
 33
0.0
 16
1.0
 26
0.0
 36
0.0
 17
0.0
 27
1.0
 37
0.0
 76
     0
330
1F
  0
MLINESTYLE
  5
18
102
{ACAD_REACTORS
330
17
102
}
330
17
100
AcDbMlineStyle
  2
Standard
 70
     0
  3

 62
   256
 51
90.0
 52
90.0
 71
     2
 49
0.5
 62
   256
  6
BYLAYER
 49
-0.5
 62
   256
  6
BYLAYER
  0
ACDBPLACEHOLDER
  5
F
102
{ACAD_REACTORS
330
E
102
}
330
E
  0
ENDSEC
  0
EOF
