  0
SECTION
  2
HEADER
  9
$ACADVER
  1
AC1015
  9
$ACADMAINTVER
 70
     6
  9
$DWGCODEPAGE
  3
DOS850
  9
$INSBASE
 10
0.0
 20
0.0
 30
0.0
  9
$EXTMIN
 10
-210.0
 20
-148.5
 30
0.0
  9
$EXTMAX
 10
630.0
 20
445.5
 30
0.0
  9
$LIMMIN
 10
-210.0
 20
-148.5
  9
$LIMMAX
 10
630.0
 20
445.5
  9
$ORTHOMODE
 70
     0
  9
$REGENMODE
 70
     1
  9
$FILLMODE
 70
     1
  9
$QTEXTMODE
 70
     0
  9
$MIRRTEXT
 70
     1
  9
$LTSCALE
 40
2.0
  9
$ATTMODE
 70
     1
  9
$TEXTSIZE
 40
2.5
  9
$TRACEWID
 40
1.0
  9
$TEXTSTYLE
  7
Standard
  9
$CLAYER
  8
0
  9
$CELTYPE
  6
ByLayer
  9
$CECOLOR
 62
     7
  9
$CELTSCALE
 40
1.0
  9
$DISPSILH
 70
     0
  9
$DIMSCALE
 40
2.0
  9
$DIMASZ
 40
3.5
  9
$DIMEXO
 40
0.625
  9
$DIMDLI
 40
3.75
  9
$DIMRND
 40
0.0
  9
$DIMDLE
 40
0.0
  9
$DIMEXE
 40
1.25
  9
$DIMTP
 40
0.0
  9
$DIMTM
 40
0.0
  9
$DIMTXT
 40
3.5
  9
$DIMCEN
 40
2.5
  9
$DIMTSZ
 40
0.0
  9
$DIMTOL
 70
     0
  9
$DIMLIM
 70
     0
  9
$DIMTIH
 70
     0
  9
$DIMTOH
 70
     0
  9
$DIMSE1
 70
     0
  9
$DIMSE2
 70
     0
  9
$DIMTAD
 70
     1
  9
$DIMZIN
 70
     8
  9
$DIMBLK
  1

  9
$DIMASO
 70
     1
  9
$DIMSHO
 70
     1
  9
$DIMPOST
  1

  9
$DIMAPOST
  1

  9
$DIMALT
 70
     0
  9
$DIMALTD
 70
     3
  9
$DIMALTF
 40
0.03937
  9
$DIMLFAC
 40
1.0
  9
$DIMTOFL
 70
     1
  9
$DIMTVP
 40
0.0
  9
$DIMTIX
 70
     0
  9
$DIMSOXD
 70
     0
  9
$DIMSAH
 70
     0
  9
$DIMBLK1
  1

  9
$DIMBLK2
  1

  9
$DIMSTYLE
  2
ISO-25
  9
$DIMCLRD
 70
     0
  9
$DIMCLRE
 70
     0
  9
$DIMCLRT
 70
     0
  9
$DIMTFAC
 40
1.0
  9
$DIMGAP
 40
0.625
  9
$DIMJUST
 70
     0
  9
$DIMSD1
 70
     0
  9
$DIMSD2
 70
     0
  9
$DIMTOLJ
 70
     0
  9
$DIMTZIN
 70
     8
  9
$DIMALTZ
 70
     0
  9
$DIMALTTZ
 70
     0
  9
$DIMUPT
 70
     0
  9
$DIMDEC
 70
     2
  9
$DIMTDEC
 70
     2
  9
$DIMALTU
 70
     2
  9
$DIMALTTD
 70
     3
  9
$DIMTXSTY
  7
Standard
  9
$DIMAUNIT
 70
     0
  9
$DIMADEC
 70
     0
  9
$DIMALTRND
 40
0.0
  9
$DIMAZIN
 70
     0
  9
$DIMDSEP
 70
    44
  9
$DIMATFIT
 70
     3
  9
$DIMFRAC
 70
     0
  9
$DIMLDRBLK
  1

  9
$DIMLUNIT
 70
     2
  9
$DIMLWD
 70
    -2
  9
$DIMLWE
 70
    -2
  9
$DIMTMOVE
 70
     0
  9
$LUNITS
 70
     2
  9
$LUPREC
 70
     4
  9
$SKETCHINC
 40
1.0
  9
$FILLETRAD
 40
10.0
  9
$AUNITS
 70
     0
  9
$AUPREC
 70
     0
  9
$MENU
  1
.
  9
$ELEVATION
 40
0.0
  9
$PELEVATION
 40
0.0
  9
$THICKNESS
 40
0.0
  9
$LIMCHECK
 70
     0
  9
$CHAMFERA
 40
10.0
  9
$CHAMFERB
 40
10.0
  9
$CHAMFERC
 40
20.0
  9
$CHAMFERD
 40
0.0
  9
$SKPOLY
 70
     0
  9
$TDCREATE
 40
2453896.244818449
  9
$TDUCREATE
 40
2453896.161485116
  9
$TDUPDATE
 40
2453896.244818461
  9
$TDUUPDATE
 40
2453896.161485127
  9
$TDINDWG
 40
0.0000000116
  9
$TDUSRTIMER
 40
0.0000000116
  9
$USRTIMER
 70
     1
  9
$ANGBASE
 50
0.0
  9
$ANGDIR
 70
     0
  9
$PDMODE
 70
     0
  9
$PDSIZE
 40
0.0
  9
$PLINEWID
 40
0.0
  9
$SPLFRAME
 70
     0
  9
$SPLINETYPE
 70
     6
  9
$SPLINESEGS
 70
     8
  9
$HANDSEED
  5
2AF
  9
$SURFTAB1
 70
     6
  9
$SURFTAB2
 70
     6
  9
$SURFTYPE
 70
     6
  9
$SURFU
 70
     6
  9
$SURFV
 70
     6
  9
$UCSBASE
  2

  9
$UCSNAME
  2

  9
$UCSORG
 10
0.0
 20
0.0
 30
0.0
  9
$UCSXDIR
 10
1.0
 20
0.0
 30
0.0
  9
$UCSYDIR
 10
0.0
 20
1.0
 30
0.0
  9
$UCSORTHOREF
  2

  9
$UCSORTHOVIEW
 70
     0
  9
$UCSORGTOP
 10
0.0
 20
0.0
 30
0.0
  9
$UCSORGBOTTOM
 10
0.0
 20
0.0
 30
0.0
  9
$UCSORGLEFT
 10
0.0
 20
0.0
 30
0.0
  9
$UCSORGRIGHT
 10
0.0
 20
0.0
 30
0.0
  9
$UCSORGFRONT
 10
0.0
 20
0.0
 30
0.0
  9
$UCSORGBACK
 10
0.0
 20
0.0
 30
0.0
  9
$PUCSBASE
  2

  9
$PUCSNAME
  2

  9
$PUCSORG
 10
0.0
 20
0.0
 30
0.0
  9
$PUCSXDIR
 10
1.0
 20
0.0
 30
0.0
  9
$PUCSYDIR
 10
0.0
 20
1.0
 30
0.0
  9
$PUCSORTHOREF
  2

  9
$PUCSORTHOVIEW
 70
     0
  9
$PUCSORGTOP
 10
0.0
 20
0.0
 30
0.0
  9
$PUCSORGBOTTOM
 10
0.0
 20
0.0
 30
0.0
  9
$PUCSORGLEFT
 10
0.0
 20
0.0
 30
0.0
  9
$PUCSORGRIGHT
 10
0.0
 20
0.0
 30
0.0
  9
$PUCSORGFRONT
 10
0.0
 20
0.0
 30
0.0
  9
$PUCSORGBACK
 10
0.0
 20
0.0
 30
0.0
  9
$USERI1
 70
     0
  9
$USERI2
 70
     0
  9
$USERI3
 70
     0
  9
$USERI4
 70
     0
  9
$USERI5
 70
     0
  9
$USERR1
 40
0.0
  9
$USERR2
 40
0.0
  9
$USERR3
 40
0.0
  9
$USERR4
 40
0.0
  9
$USERR5
 40
0.0
  9
$WORLDVIEW
 70
     1
  9
$SHADEDGE
 70
     3
  9
$SHADEDIF
 70
    70
  9
$TILEMODE
 70
     1
  9
$MAXACTVP
 70
    64
  9
$PINSBASE
 10
0.0
 20
0.0
 30
0.0
  9
$PLIMCHECK
 70
     0
  9
$PEXTMIN
 10
-210.0
 20
-148.5
 30
0.0
  9
$PEXTMAX
 10
630.0
 20
445.5
 30
0.0
  9
$PLIMMIN
 10
-210.0
 20
-148.5
  9
$PLIMMAX
 10
630.0
 20
445.5
  9
$UNITMODE
 70
     0
  9
$VISRETAIN
 70
     1
  9
$PLINEGEN
 70
     0
  9
$PSLTSCALE
 70
     1
  9
$TREEDEPTH
 70
  3020
  9
$CMLSTYLE
  2
Standard
  9
$CMLJUST
 70
     0
  9
$CMLSCALE
 40
20.0
  9
$PROXYGRAPHICS
 70
     1
  9
$MEASUREMENT
 70
     1
  9
$CELWEIGHT
370
    -1
  9
$ENDCAPS
280
     0
  9
$JOINSTYLE
280
     0
  9
$LWDISPLAY
290
     0
  9
$INSUNITS
 70
     4
  9
$HYPERLINKBASE
  1

  9
$STYLESHEET
  1

  9
$XEDIT
290
     1
  9
$CEPSNTYPE
380
     0
  9
$PSTYLEMODE
290
     1
  9
$FINGERPRINTGUID
  2
{FAEB1C30-E019-11D5-929B-00C0DF256EC4}
  9
$VERSIONGUID
  2
{FAEB1C32-E019-11D5-929B-00C0DF256EC4}
  9
$EXTNAMES
290
     1
  9
$PSVPSCALE
 40
0.0
  9
$OLESTARTUP
290
     0
  0
ENDSEC
  0
SECTION
  2
CLASSES
  0
CLASS
  1
ACDBDICTIONARYWDFLT
  2
AcDbDictionaryWithDefault
  3
ObjectDBX Classes
 90
        0
280
     0
281
     0
  0
CLASS
  1
ACDBPLACEHOLDER
  2
AcDbPlaceHolder
  3
ObjectDBX Classes
 90
        0
280
     0
281
     0
  0
CLASS
  1
LAYOUT
  2
AcDbLayout
  3
ObjectDBX Classes
 90
        0
280
     0
281
     0
  0
ENDSEC
  0
SECTION
  2
TABLES
  0
TABLE
  2
VPORT
  5
8
330
0
100
AcDbSymbolTable
 70
     2
  0
VPORT
  5
29
330
8
100
AcDbSymbolTableRecord
100
AcDbViewportTableRecord
  2
*ACTIVE
 70
     0
 10
0.0
 20
0.0
 11
1.0
 21
1.0
 12
210.0
 22
148.5
 13
0.0
 23
0.0
 14
1.0
 24
1.0
 15
0.0
 25
0.0
 16
0.0
 26
0.0
 36
1.0
 17
0.0
 27
0.0
 37
0.0
 40
594.0
 41
1.414141
 42
50.0
 43
0.0
 44
0.0
 50
0.0
 51
0.0
 71
    16
 72
   100
 73
     1
 74
     0
 75
     0
 76
     0
 77
     0
 78
     0
281
     0
 65
     0
110
0.0
120
0.0
130
0.0
111
1.0
121
0.0
131
0.0
112
0.0
122
1.0
132
0.0
 79
     0
146
0.0
  0
ENDTAB
  0
TABLE
  2
LTYPE
  5
5
330
0
100
AcDbSymbolTable
 70
     3
  0
LTYPE
  5
14
330
5
100
AcDbSymbolTableRecord
100
AcDbLinetypeTableRecord
  2
ByBlock
 70
     0
  3

 72
    65
 73
     0
 40
0.0
  0
LTYPE
  5
15
330
5
100
AcDbSymbolTableRecord
100
AcDbLinetypeTableRecord
  2
ByLayer
 70
     0
  3

 72
    65
 73
     0
 40
0.0
  0
LTYPE
  5
16
330
5
100
AcDbSymbolTableRecord
100
AcDbLinetypeTableRecord
  2
Continuous
 70
     0
  3
Solid line
 72
    65
 73
     0
 40
0.0
  0
LTYPE
  5
2A
330
5
100
AcDbSymbolTableRecord
100
AcDbLinetypeTableRecord
  2
DASHED
 70
     0
  3
__ __ __ __ __
 72
    65
 73
     2
 40
6.25
 49
5.0
 74
     4
 75
     0
340
0
 46
1.0
 50
0.0
 44
0.0
 45
0.0
 49
-1.25
 74
     4
 75
     0
340
0
 46
1.0
 50
0.0
 44
0.0
 45
0.0
  0
LTYPE
  5
249
330
5
100
AcDbSymbolTableRecord
100
AcDbLinetypeTableRecord
  2
DASHDOT
 70
     0
  3
__ . __ . __ . __ . __
 72
    65
 73
     4
 40
7.5
 49
5.0
 74
     4
 75
     0
340
0
 46
1.0
 50
0.0
 44
0.0
 45
0.0
 49
-1.25
 74
     4
 75
     0
340
0
 46
1.0
 50
0.0
 44
0.0
 45
0.0
 49
0.0
 74
     4
 75
     0
340
0
 46
1.0
 50
0.0
 44
0.0
 45
0.0
 49
-1.25
 74
     4
 75
     0
340
0
 46
1.0
 50
0.0
 44
0.0
 45
0.0
  0
ENDTAB
  0
TABLE
  2
LAYER
  5
2
330
0
100
AcDbSymbolTable
 70
    11
  0
LAYER
  5
10
330
2
100
AcDbSymbolTableRecord
100
AcDbLayerTableRecord
  2
0
 70
     0
 62
     7
  6
Continuous
370
    -3
390
F
  0
LAYER
  5
2B
330
2
100
AcDbSymbolTableRecord
100
AcDbLayerTableRecord
  2
LC-INFO-1-2-mm-A3-0
 70
     1
 62
     7
  6
ByBlock
370
    -3
390
F
  0
LAYER
  5
2C
330
2
100
AcDbSymbolTableRecord
100
AcDbLayerTableRecord
  2
LC-CUT-HIDDEN
 70
     0
 62
     7
  6
DASHED
370
    -3
390
F
  0
LAYER
  5
2D
330
2
100
AcDbSymbolTableRecord
100
AcDbLayerTableRecord
  2
LC-VIEWPORT
 70
     0
 62
     7
  6
ByBlock
370
    -3
390
F
  0
LAYER
  5
2E
330
2
100
AcDbSymbolTableRecord
100
AcDbLayerTableRecord
  2
LC-3D-HIDDEN
 70
     0
 62
     9
  6
DASHED
370
    -3
390
F
  0
LAYER
  5
31
330
2
100
AcDbSymbolTableRecord
100
AcDbLayerTableRecord
  2
LC-001-002-----0
 70
     0
 62
     1
  6
ByBlock
370
    -3
390
F
  0
LAYER
  5
3B
330
2
100
AcDbSymbolTableRecord
100
AcDbLayerTableRecord
  2
LC-002-001-----0
 70
     0
 62
     1
  6
ByBlock
370
    -3
390
F
  0
LAYER
  5
41
330
2
100
AcDbSymbolTableRecord
100
AcDbLayerTableRecord
  2
LC-003-005-----0
 70
     0
 62
     2
  6
ByBlock
370
    -3
390
F
  0
LAYER
  5
8A
330
2
100
AcDbSymbolTableRecord
100
AcDbLayerTableRecord
  2
LC-004-002-RND-0
 70
     0
 62
     1
  6
ByBlock
370
    -3
390
F
  0
LAYER
  5
14E
330
2
100
AcDbSymbolTableRecord
100
AcDbLayerTableRecord
  2
LC-005-003-----0
 70
     0
 62
     2
  6
ByBlock
370
    -3
390
F
  0
LAYER
  5
150
330
2
100
AcDbSymbolTableRecord
100
AcDbLayerTableRecord
  2
Defpoints
 70
     0
 62
     7
  6
Continuous
290
     0
370
    -3
390
F
  0
ENDTAB
  0
TABLE
  2
STYLE
  5
3
330
0
100
AcDbSymbolTable
 70
     4
  0
STYLE
  5
11
330
3
100
AcDbSymbolTableRecord
100
AcDbTextStyleTableRecord
  2
Standard
 70
     0
 40
0.0
 41
1.0
 50
0.0
 71
     0
 42
2.5
  3
txt
  4

  0
STYLE
  5
2F
330
3
100
AcDbSymbolTableRecord
100
AcDbTextStyleTableRecord
  2
LCTX15-400-0-0-Arial
 70
     0
 40
0.0
 41
0.9
 50
0.0
 71
     0
 42
3.5
  3

  4

1001
ACAD
1000
Arial
1071
 16777218
  0
STYLE
  5
30
330
3
100
AcDbSymbolTableRecord
100
AcDbTextStyleTableRecord
  2
LCTX0-400-0-0-DIN-Schrift
 70
     0
 40
0.0
 41
0.8
 50
0.0
 71
     0
 42
3.5
  3
MONOTXT
  4

  0
STYLE
  5
14C
330
3
100
AcDbSymbolTableRecord
100
AcDbTextStyleTableRecord
  2
LCTX15-400-0-0pDIN-Schrift
 70
     0
 40
2.5
 41
0.8
 50
15.0
 71
     0
 42
3.5
  3
STANDARD
  4

  0
ENDTAB
  0
TABLE
  2
VIEW
  5
6
330
0
100
AcDbSymbolTable
 70
     0
  0
ENDTAB
  0
TABLE
  2
UCS
  5
7
330
0
100
AcDbSymbolTable
 70
     0
  0
ENDTAB
  0
TABLE
  2
APPID
  5
9
330
0
100
AcDbSymbolTable
 70
     1
  0
APPID
  5
12
330
9
100
AcDbSymbolTableRecord
100
AcDbRegAppTableRecord
  2
ACAD
 70
     0
  0
ENDTAB
  0
TABLE
  2
DIMSTYLE
  5
A
330
0
100
AcDbSymbolTable
 70
     2
100
AcDbDimStyleTable
  0
DIMSTYLE
105
27
330
A
100
AcDbSymbolTableRecord
100
AcDbDimStyleTableRecord
  2
ISO-25
 70
     0
 41
2.5
 42
0.625
 43
3.75
 44
1.25
 73
     0
 74
     0
 77
     1
 78
     8
140
2.5
141
2.5
143
0.03937
147
0.625
171
     3
172
     1
271
     2
272
     2
274
     3
278
    44
283
     0
284
     8
340
11
  0
DIMSTYLE
105
14D
102
{ACAD_REACTORS
330
14F
330
166
330
18D
330
283
330
291
102
}
330
A
100
AcDbSymbolTableRecord
100
AcDbDimStyleTableRecord
  2
LC-DIM-L-0140-02-02
 70
     0
 40
2.0
 41
14.0
 42
0.0
 43
7.5
 44
1.8
 73
     0
 74
     0
 77
     1
 78
     8
 79
     2
140
14.0
141
0.0
146
0.71
147
1.5
176
     2
177
     2
178
     2
179
     2
271
     2
278
    44
289
     1
340
14C
  0
ENDTAB
  0
TABLE
  2
BLOCK_RECORD
  5
1
330
0
100
AcDbSymbolTable
 70
    21
  0
BLOCK_RECORD
  5
1F
330
1
100
AcDbSymbolTableRecord
100
AcDbBlockTableRecord
  2
*Model_Space
340
22
  0
BLOCK_RECORD
  5
1B
330
1
100
AcDbSymbolTableRecord
100
AcDbBlockTableRecord
  2
*Paper_Space
340
1E
  0
BLOCK_RECORD
  5
23
330
1
100
AcDbSymbolTableRecord
100
AcDbBlockTableRecord
  2
*Paper_Space0
340
26
  0
BLOCK_RECORD
  5
3E
330
1
100
AcDbSymbolTableRecord
100
AcDbBlockTableRecord
  2
*X11
340
0
102
{BLKREFS
331
4A
102
}
  0
BLOCK_RECORD
  5
4F
330
1
100
AcDbSymbolTableRecord
100
AcDbBlockTableRecord
  2
*X22
340
0
102
{BLKREFS
331
55
102
}
  0
BLOCK_RECORD
  5
56
330
1
100
AcDbSymbolTableRecord
100
AcDbBlockTableRecord
  2
*X33
340
0
102
{BLKREFS
331
5D
102
}
  0
BLOCK_RECORD
  5
5E
330
1
100
AcDbSymbolTableRecord
100
AcDbBlockTableRecord
  2
*X44
340
0
102
{BLKREFS
331
65
102
}
  0
BLOCK_RECORD
  5
67
330
1
100
AcDbSymbolTableRecord
100
AcDbBlockTableRecord
  2
*X55
340
0
102
{BLKREFS
331
6E
102
}
  0
BLOCK_RECORD
  5
71
330
1
100
AcDbSymbolTableRecord
100
AcDbBlockTableRecord
  2
*X66
340
0
102
{BLKREFS
331
77
102
}
  0
BLOCK_RECORD
  5
7A
330
1
100
AcDbSymbolTableRecord
100
AcDbBlockTableRecord
  2
*X77
340
0
102
{BLKREFS
331
81
102
}
  0
BLOCK_RECORD
  5
9C
330
1
100
AcDbSymbolTableRecord
100
AcDbBlockTableRecord
  2
*X88
340
0
102
{BLKREFS
331
C9
102
}
  0
BLOCK_RECORD
  5
13A
330
1
100
AcDbSymbolTableRecord
100
AcDbBlockTableRecord
  2
*X99
340
0
102
{BLKREFS
331
149
102
}
  0
BLOCK_RECORD
  5
151
330
1
100
AcDbSymbolTableRecord
100
AcDbBlockTableRecord
  2
*D10
340
0
  0
BLOCK_RECORD
  5
167
330
1
100
AcDbSymbolTableRecord
100
AcDbBlockTableRecord
  2
*D11
340
0
  0
BLOCK_RECORD
  5
18E
330
1
100
AcDbSymbolTableRecord
100
AcDbBlockTableRecord
  2
*D12
340
0
  0
BLOCK_RECORD
  5
1B0
330
1
100
AcDbSymbolTableRecord
100
AcDbBlockTableRecord
  2
*X1013
340
0
102
{BLKREFS
331
1BE
102
}
  0
BLOCK_RECORD
  5
1C7
330
1
100
AcDbSymbolTableRecord
100
AcDbBlockTableRecord
  2
*X1114
340
0
102
{BLKREFS
331
1F7
102
}
  0
BLOCK_RECORD
  5
214
330
1
100
AcDbSymbolTableRecord
100
AcDbBlockTableRecord
  2
*X1215
340
0
102
{BLKREFS
331
221
102
}
  0
BLOCK_RECORD
  5
232
330
1
100
AcDbSymbolTableRecord
100
AcDbBlockTableRecord
  2
*X1316
340
0
102
{BLKREFS
331
23E
102
}
  0
BLOCK_RECORD
  5
24C
330
1
100
AcDbSymbolTableRecord
100
AcDbBlockTableRecord
  2
*X1417
340
0
102
{BLKREFS
331
266
102
}
  0
BLOCK_RECORD
  5
267
330
1
100
AcDbSymbolTableRecord
100
AcDbBlockTableRecord
  2
*X1518
340
0
102
{BLKREFS
331
282
102
}
  0
BLOCK_RECORD
  5
284
330
1
100
AcDbSymbolTableRecord
100
AcDbBlockTableRecord
  2
*D19
340
0
  0
BLOCK_RECORD
  5
292
330
1
100
AcDbSymbolTableRecord
100
AcDbBlockTableRecord
  2
*D20
340
0
  0
ENDTAB
  0
ENDSEC
  0
SECTION
  2
BLOCKS
  0
BLOCK
  5
20
330
1F
100
AcDbEntity
  8
0
100
AcDbBlockBegin
  2
*Model_Space
 70
     0
 71
     0
 10
0.0
 20
0.0
 30
0.0
  3
*Model_Space
  1

  0
ENDBLK
  5
21
330
1F
100
AcDbEntity
  8
0
100
AcDbBlockEnd
  0
BLOCK
  5
1C
330
1B
100
AcDbEntity
 67
     1
  8
0
100
AcDbBlockBegin
  2
*Paper_Space
 70
     0
 71
     0
 10
0.0
 20
0.0
 30
0.0
  3
*Paper_Space
  1

  0
ENDBLK
  5
1D
330
1B
100
AcDbEntity
 67
     1
  8
0
100
AcDbBlockEnd
  0
BLOCK
  5
24
330
23
100
AcDbEntity
  8
0
100
AcDbBlockBegin
  2
*Paper_Space0
 70
     0
 71
     0
 10
0.0
 20
0.0
 30
0.0
  3
*Paper_Space0
  1

  0
ENDBLK
  5
25
330
23
100
AcDbEntity
  8
0
100
AcDbBlockEnd
  0
BLOCK
  5
3F
330
3E
100
AcDbEntity
  8
0
100
AcDbBlockBegin
  2
*X11
 70
     1
 71
     0
 10
0.0
 20
0.0
 30
0.0
  3
*X11
  1

  4
*X1
  0
LINE
  5
42
330
3E
100
AcDbEntity
  8
LC-003-005-----0
 62
     7
370
    25
100
AcDbLine
 10
99.63373
 20
212.770815
 30
0.0
 11
101.003911
 21
214.140996
 31
0.0
  0
LINE
  5
43
330
3E
100
AcDbEntity
  8
LC-003-005-----0
 62
     7
370
    25
100
AcDbLine
 10
96.805303
 20
212.770815
 30
0.0
 11
101.003911
 21
216.969423
 31
0.0
  0
LINE
  5
44
330
3E
100
AcDbEntity
  8
LC-003-005-----0
 62
     7
370
    25
100
AcDbLine
 10
93.976875
 20
212.770815
 30
0.0
 11
98.976875
 21
217.770815
 31
0.0
  0
LINE
  5
45
330
3E
100
AcDbEntity
  8
LC-003-005-----0
 62
     7
370
    25
100
AcDbLine
 10
91.148448
 20
212.770815
 30
0.0
 11
96.148448
 21
217.770815
 31
0.0
  0
LINE
  5
46
330
3E
100
AcDbEntity
  8
LC-003-005-----0
 62
     7
370
    25
100
AcDbLine
 10
88.320021
 20
212.770815
 30
0.0
 11
93.320021
 21
217.770815
 31
0.0
  0
LINE
  5
47
330
3E
100
AcDbEntity
  8
LC-003-005-----0
 62
     7
370
    25
100
AcDbLine
 10
85.491594
 20
212.770815
 30
0.0
 11
90.491594
 21
217.770815
 31
0.0
  0
LINE
  5
48
330
3E
100
AcDbEntity
  8
LC-003-005-----0
 62
     7
370
    25
100
AcDbLine
 10
83.003911
 20
213.111559
 30
0.0
 11
87.663167
 21
217.770815
 31
0.0
  0
LINE
  5
49
330
3E
100
AcDbEntity
  8
LC-003-005-----0
 62
     7
370
    25
100
AcDbLine
 10
83.003911
 20
215.939986
 30
0.0
 11
84.83474
 21
217.770815
 31
0.0
  0
ENDBLK
  5
40
330
3E
100
AcDbEntity
  8
0
100
AcDbBlockEnd
  0
BLOCK
  5
50
330
4F
100
AcDbEntity
  8
0
100
AcDbBlockBegin
  2
*X22
 70
     1
 71
     0
 10
0.0
 20
0.0
 30
0.0
  3
*X22
  1

  4
*X2
  0
LINE
  5
52
330
4F
100
AcDbEntity
  8
LC-003-005-----0
 62
     7
370
    25
100
AcDbLine
 10
74.177886
 20
212.770815
 30
0.0
 11
77.003911
 21
215.59684
 31
0.0
  0
LINE
  5
53
330
4F
100
AcDbEntity
  8
LC-003-005-----0
 62
     7
370
    25
100
AcDbLine
 10
71.349458
 20
212.770815
 30
0.0
 11
76.349458
 21
217.770815
 31
0.0
  0
LINE
  5
54
330
4F
100
AcDbEntity
  8
LC-003-005-----0
 62
     7
370
    25
100
AcDbLine
 10
71.003911
 20
215.253695
 30
0.0
 11
73.521031
 21
217.770815
 31
0.0
  0
ENDBLK
  5
51
330
4F
100
AcDbEntity
  8
0
100
AcDbBlockEnd
  0
BLOCK
  5
57
330
56
100
AcDbEntity
  8
0
100
AcDbBlockBegin
  2
*X33
 70
     1
 71
     0
 10
0.0
 20
0.0
 30
0.0
  3
*X33
  1

  4
*X3
  0
LINE
  5
59
330
56
100
AcDbEntity
  8
LC-003-005-----0
 62
     7
370
    25
100
AcDbLine
 10
62.864177
 20
212.770815
 30
0.0
 11
65.003911
 21
214.910549
 31
0.0
  0
LINE
  5
5A
330
56
100
AcDbEntity
  8
LC-003-005-----0
 62
     7
370
    25
100
AcDbLine
 10
60.03575
 20
212.770815
 30
0.0
 11
65.003911
 21
217.738976
 31
0.0
  0
LINE
  5
5B
330
56
100
AcDbEntity
  8
LC-003-005-----0
 62
     7
370
    25
100
AcDbLine
 10
59.003911
 20
214.567403
 30
0.0
 11
62.207323
 21
217.770815
 31
0.0
  0
LINE
  5
5C
330
56
100
AcDbEntity
  8
LC-003-005-----0
 62
     7
370
    25
100
AcDbLine
 10
59.003911
 20
217.39583
 30
0.0
 11
59.378896
 21
217.770815
 31
0.0
  0
ENDBLK
  5
58
330
56
100
AcDbEntity
  8
0
100
AcDbBlockEnd
  0
BLOCK
  5
5F
330
5E
100
AcDbEntity
  8
0
100
AcDbBlockBegin
  2
*X44
 70
     1
 71
     0
 10
0.0
 20
0.0
 30
0.0
  3
*X44
  1

  4
*X4
  0
LINE
  5
61
330
5E
100
AcDbEntity
  8
LC-003-005-----0
 62
     7
370
    25
100
AcDbLine
 10
51.550469
 20
212.770815
 30
0.0
 11
53.003911
 21
214.224257
 31
0.0
  0
LINE
  5
62
330
5E
100
AcDbEntity
  8
LC-003-005-----0
 62
     7
370
    25
100
AcDbLine
 10
48.722042
 20
212.770815
 30
0.0
 11
53.003911
 21
217.052684
 31
0.0
  0
LINE
  5
63
330
5E
100
AcDbEntity
  8
LC-003-005-----0
 62
     7
370
    25
100
AcDbLine
 10
47.003911
 20
213.881112
 30
0.0
 11
50.893614
 21
217.770815
 31
0.0
  0
LINE
  5
64
330
5E
100
AcDbEntity
  8
LC-003-005-----0
 62
     7
370
    25
100
AcDbLine
 10
47.003911
 20
216.709539
 30
0.0
 11
48.065187
 21
217.770815
 31
0.0
  0
ENDBLK
  5
60
330
5E
100
AcDbEntity
  8
0
100
AcDbBlockEnd
  0
BLOCK
  5
68
330
67
100
AcDbEntity
  8
0
100
AcDbBlockBegin
  2
*X55
 70
     1
 71
     0
 10
0.0
 20
0.0
 30
0.0
  3
*X55
  1

  4
*X5
  0
LINE
  5
6A
330
67
100
AcDbEntity
  8
LC-003-005-----0
 62
     7
370
    25
100
AcDbLine
 10
110.947438
 20
212.770815
 30
0.0
 11
113.003911
 21
214.827288
 31
0.0
  0
LINE
  5
6B
330
67
100
AcDbEntity
  8
LC-003-005-----0
 62
     7
370
    25
100
AcDbLine
 10
108.119011
 20
212.770815
 30
0.0
 11
113.003911
 21
217.655715
 31
0.0
  0
LINE
  5
6C
330
67
100
AcDbEntity
  8
LC-003-005-----0
 62
     7
370
    25
100
AcDbLine
 10
107.003911
 20
214.484142
 30
0.0
 11
110.290584
 21
217.770815
 31
0.0
  0
LINE
  5
6D
330
67
100
AcDbEntity
  8
LC-003-005-----0
 62
     7
370
    25
100
AcDbLine
 10
107.003911
 20
217.312569
 30
0.0
 11
107.462157
 21
217.770815
 31
0.0
  0
ENDBLK
  5
69
330
67
100
AcDbEntity
  8
0
100
AcDbBlockEnd
  0
BLOCK
  5
72
330
71
100
AcDbEntity
  8
0
100
AcDbBlockBegin
  2
*X66
 70
     1
 71
     0
 10
0.0
 20
0.0
 30
0.0
  3
*X66
  1

  4
*X6
  0
LINE
  5
74
330
71
100
AcDbEntity
  8
LC-003-005-----0
 62
     7
370
    25
100
AcDbLine
 10
122.261147
 20
212.770815
 30
0.0
 11
125.003911
 21
215.513579
 31
0.0
  0
LINE
  5
75
330
71
100
AcDbEntity
  8
LC-003-005-----0
 62
     7
370
    25
100
AcDbLine
 10
119.43272
 20
212.770815
 30
0.0
 11
124.43272
 21
217.770815
 31
0.0
  0
LINE
  5
76
330
71
100
AcDbEntity
  8
LC-003-005-----0
 62
     7
370
    25
100
AcDbLine
 10
119.003911
 20
215.170433
 30
0.0
 11
121.604292
 21
217.770815
 31
0.0
  0
ENDBLK
  5
73
330
71
100
AcDbEntity
  8
0
100
AcDbBlockEnd
  0
BLOCK
  5
7B
330
7A
100
AcDbEntity
  8
0
100
AcDbBlockBegin
  2
*X77
 70
     1
 71
     0
 10
0.0
 20
0.0
 30
0.0
  3
*X77
  1

  4
*X7
  0
LINE
  5
7D
330
7A
100
AcDbEntity
  8
LC-003-005-----0
 62
     7
370
    25
100
AcDbLine
 10
136.403282
 20
212.770815
 30
0.0
 11
137.003911
 21
213.371444
 31
0.0
  0
LINE
  5
7E
330
7A
100
AcDbEntity
  8
LC-003-005-----0
 62
     7
370
    25
100
AcDbLine
 10
133.574855
 20
212.770815
 30
0.0
 11
137.003911
 21
216.199871
 31
0.0
  0
LINE
  5
7F
330
7A
100
AcDbEntity
  8
LC-003-005-----0
 62
     7
370
    25
100
AcDbLine
 10
131.003911
 20
213.028298
 30
0.0
 11
135.746428
 21
217.770815
 31
0.0
  0
LINE
  5
80
330
7A
100
AcDbEntity
  8
LC-003-005-----0
 62
     7
370
    25
100
AcDbLine
 10
131.003911
 20
215.856725
 30
0.0
 11
132.918001
 21
217.770815
 31
0.0
  0
ENDBLK
  5
7C
330
7A
100
AcDbEntity
  8
0
100
AcDbBlockEnd
  0
BLOCK
  5
9D
330
9C
100
AcDbEntity
  8
0
100
AcDbBlockBegin
  2
*X88
 70
     1
 71
     0
 10
0.0
 20
0.0
 30
0.0
  3
*X88
  1

  4
*X8
  0
LINE
  5
9F
330
9C
100
AcDbEntity
  8
LC-003-005-----0
 62
     7
370
    25
100
AcDbLine
 10
145.162342
 20
199.905767
 30
0.0
 11
138.097294
 21
206.970815
 31
0.0
  0
LINE
  5
A0
330
9C
100
AcDbEntity
  8
LC-003-005-----0
 62
     7
370
    25
100
AcDbLine
 10
145.162254
 20
197.077428
 30
0.0
 11
144.003911
 21
198.235771
 31
0.0
  0
LINE
  5
A1
330
9C
100
AcDbEntity
  8
LC-003-005-----0
 62
     7
370
    25
100
AcDbLine
 10
138.928564
 20
203.311118
 30
0.0
 11
135.658171
 21
206.581511
 31
0.0
  0
LINE
  5
A2
330
9C
100
AcDbEntity
  8
LC-003-005-----0
 62
     7
370
    25
100
AcDbLine
 10
145.162165
 20
194.24909
 30
0.0
 11
144.003911
 21
195.407344
 31
0.0
  0
LINE
  5
A3
330
9C
100
AcDbEntity
  8
LC-003-005-----0
 62
     7
370
    25
100
AcDbLine
 10
138.003911
 20
201.407344
 30
0.0
 11
135.003911
 21
204.407344
 31
0.0
  0
LINE
  5
A4
330
9C
100
AcDbEntity
  8
LC-003-005-----0
 62
     7
370
    25
100
AcDbLine
 10
145.162077
 20
191.420751
 30
0.0
 11
144.003911
 21
192.578917
 31
0.0
  0
LINE
  5
A5
330
9C
100
AcDbEntity
  8
LC-003-005-----0
 62
     7
370
    25
100
AcDbLine
 10
138.003911
 20
198.578917
 30
0.0
 11
136.003911
 21
200.578917
 31
0.0
  0
LINE
  5
A6
330
9C
100
AcDbEntity
  8
LC-003-005-----0
 62
     7
370
    25
100
AcDbLine
 10
145.161988
 20
188.592412
 30
0.0
 11
144.003911
 21
189.75049
 31
0.0
  0
LINE
  5
A7
330
9C
100
AcDbEntity
  8
LC-003-005-----0
 62
     7
370
    25
100
AcDbLine
 10
137.783586
 20
195.970815
 30
0.0
 11
136.003911
 21
197.75049
 31
0.0
  0
LINE
  5
A8
330
9C
100
AcDbEntity
  8
LC-003-005-----0
 62
     7
370
    25
100
AcDbLine
 10
145.1619
 20
185.764074
 30
0.0
 11
144.003911
 21
186.922062
 31
0.0
  0
LINE
  5
A9
330
9C
100
AcDbEntity
  8
LC-003-005-----0
 62
     7
370
    25
100
AcDbLine
 10
145.161811
 20
182.935735
 30
0.0
 11
144.003911
 21
184.093635
 31
0.0
  0
LINE
  5
AA
330
9C
100
AcDbEntity
  8
LC-003-005-----0
 62
     7
370
    25
100
AcDbLine
 10
145.161723
 20
180.107396
 30
0.0
 11
144.003911
 21
181.265208
 31
0.0
  0
LINE
  5
AB
330
9C
100
AcDbEntity
  8
LC-003-005-----0
 62
     7
370
    25
100
AcDbLine
 10
145.161634
 20
177.279058
 30
0.0
 11
144.003911
 21
178.436781
 31
0.0
  0
LINE
  5
AC
330
9C
100
AcDbEntity
  8
LC-003-005-----0
 62
     7
370
    25
100
AcDbLine
 10
145.161546
 20
174.450719
 30
0.0
 11
144.003911
 21
175.608354
 31
0.0
  0
LINE
  5
AD
330
9C
100
AcDbEntity
  8
LC-003-005-----0
 62
     7
370
    25
100
AcDbLine
 10
145.161457
 20
171.622381
 30
0.0
 11
144.003911
 21
172.779927
 31
0.0
  0
LINE
  5
AE
330
9C
100
AcDbEntity
  8
LC-003-005-----0
 62
     7
370
    25
100
AcDbLine
 10
145.161369
 20
168.794042
 30
0.0
 11
144.003911
 21
169.9515
 31
0.0
  0
LINE
  5
AF
330
9C
100
AcDbEntity
  8
LC-003-005-----0
 62
     7
370
    25
100
AcDbLine
 10
145.16128
 20
165.965703
 30
0.0
 11
144.003911
 21
167.123073
 31
0.0
  0
LINE
  5
B0
330
9C
100
AcDbEntity
  8
LC-003-005-----0
 62
     7
370
    25
100
AcDbLine
 10
145.161192
 20
163.137365
 30
0.0
 11
144.003911
 21
164.294645
 31
0.0
  0
LINE
  5
B1
330
9C
100
AcDbEntity
  8
LC-003-005-----0
 62
     7
370
    25
100
AcDbLine
 10
145.161103
 20
160.309026
 30
0.0
 11
144.003911
 21
161.466218
 31
0.0
  0
LINE
  5
B2
330
9C
100
AcDbEntity
  8
LC-003-005-----0
 62
     7
370
    25
100
AcDbLine
 10
145.161015
 20
157.480687
 30
0.0
 11
144.003911
 21
158.637791
 31
0.0
  0
LINE
  5
B3
330
9C
100
AcDbEntity
  8
LC-003-005-----0
 62
     7
370
    25
100
AcDbLine
 10
145.160926
 20
154.652349
 30
0.0
 11
144.003911
 21
155.809364
 31
0.0
  0
LINE
  5
B4
330
9C
100
AcDbEntity
  8
LC-003-005-----0
 62
     7
370
    25
100
AcDbLine
 10
145.160838
 20
151.82401
 30
0.0
 11
144.003911
 21
152.980937
 31
0.0
  0
LINE
  5
B5
330
9C
100
AcDbEntity
  8
LC-003-005-----0
 62
     7
370
    25
100
AcDbLine
 10
145.160749
 20
148.995672
 30
0.0
 11
144.003911
 21
150.15251
 31
0.0
  0
LINE
  5
B6
330
9C
100
AcDbEntity
  8
LC-003-005-----0
 62
     7
370
    25
100
AcDbLine
 10
145.160661
 20
146.167333
 30
0.0
 11
144.003911
 21
147.324083
 31
0.0
  0
LINE
  5
B7
330
9C
100
AcDbEntity
  8
LC-003-005-----0
 62
     7
370
    25
100
AcDbLine
 10
147.003911
 20
141.495656
 30
0.0
 11
145.405328
 21
143.094239
 31
0.0
  0
LINE
  5
B8
330
9C
100
AcDbEntity
  8
LC-003-005-----0
 62
     7
370
    25
100
AcDbLine
 10
145.160572
 20
143.338994
 30
0.0
 11
144.003911
 21
144.495656
 31
0.0
  0
LINE
  5
B9
330
9C
100
AcDbEntity
  8
LC-003-005-----0
 62
     7
370
    25
100
AcDbLine
 10
147.003911
 20
138.667228
 30
0.0
 11
144.003911
 21
141.667228
 31
0.0
  0
LINE
  5
BA
330
9C
100
AcDbEntity
  8
LC-003-005-----0
 62
     7
370
    25
100
AcDbLine
 10
147.003911
 20
135.838801
 30
0.0
 11
144.003911
 21
138.838801
 31
0.0
  0
LINE
  5
BB
330
9C
100
AcDbEntity
  8
LC-003-005-----0
 62
     7
370
    25
100
AcDbLine
 10
147.003911
 20
133.010374
 30
0.0
 11
144.003911
 21
136.010374
 31
0.0
  0
LINE
  5
BC
330
9C
100
AcDbEntity
  8
LC-003-005-----0
 62
     7
370
    25
100
AcDbLine
 10
147.003911
 20
130.181947
 30
0.0
 11
144.003911
 21
133.181947
 31
0.0
  0
LINE
  5
BD
330
9C
100
AcDbEntity
  8
LC-003-005-----0
 62
     7
370
    25
100
AcDbLine
 10
147.003911
 20
127.35352
 30
0.0
 11
144.003911
 21
130.35352
 31
0.0
  0
LINE
  5
BE
330
9C
100
AcDbEntity
  8
LC-003-005-----0
 62
     7
370
    25
100
AcDbLine
 10
147.003911
 20
124.525093
 30
0.0
 11
144.003911
 21
127.525093
 31
0.0
  0
LINE
  5
BF
330
9C
100
AcDbEntity
  8
LC-003-005-----0
 62
     7
370
    25
100
AcDbLine
 10
147.003911
 20
121.696666
 30
0.0
 11
144.003911
 21
124.696666
 31
0.0
  0
LINE
  5
C0
330
9C
100
AcDbEntity
  8
LC-003-005-----0
 62
     7
370
    25
100
AcDbLine
 10
147.003911
 20
118.868239
 30
0.0
 11
144.003911
 21
121.868239
 31
0.0
  0
LINE
  5
C1
330
9C
100
AcDbEntity
  8
LC-003-005-----0
 62
     7
370
    25
100
AcDbLine
 10
147.003911
 20
116.039811
 30
0.0
 11
144.003911
 21
119.039811
 31
0.0
  0
LINE
  5
C2
330
9C
100
AcDbEntity
  8
LC-003-005-----0
 62
     7
370
    25
100
AcDbLine
 10
147.003911
 20
113.211384
 30
0.0
 11
144.003911
 21
116.211384
 31
0.0
  0
LINE
  5
C3
330
9C
100
AcDbEntity
  8
LC-003-005-----0
 62
     7
370
    25
100
AcDbLine
 10
147.003911
 20
110.382957
 30
0.0
 11
144.003911
 21
113.382957
 31
0.0
  0
LINE
  5
C4
330
9C
100
AcDbEntity
  8
LC-003-005-----0
 62
     7
370
    25
100
AcDbLine
 10
147.003911
 20
107.55453
 30
0.0
 11
144.003911
 21
110.55453
 31
0.0
  0
LINE
  5
C5
330
9C
100
AcDbEntity
  8
LC-003-005-----0
 62
     7
370
    25
100
AcDbLine
 10
147.003911
 20
104.726103
 30
0.0
 11
144.003911
 21
107.726103
 31
0.0
  0
LINE
  5
C6
330
9C
100
AcDbEntity
  8
LC-003-005-----0
 62
     7
370
    25
100
AcDbLine
 10
147.003911
 20
101.897676
 30
0.0
 11
144.003911
 21
104.897676
 31
0.0
  0
LINE
  5
C7
330
9C
100
AcDbEntity
  8
LC-003-005-----0
 62
     7
370
    25
100
AcDbLine
 10
147.003911
 20
99.069249
 30
0.0
 11
144.003911
 21
102.069249
 31
0.0
  0
LINE
  5
C8
330
9C
100
AcDbEntity
  8
LC-003-005-----0
 62
     7
370
    25
100
AcDbLine
 10
145.773918
 20
97.470815
 30
0.0
 11
144.003911
 21
99.240822
 31
0.0
  0
ENDBLK
  5
9E
330
9C
100
AcDbEntity
  8
0
100
AcDbBlockEnd
  0
BLOCK
  5
13B
330
13A
100
AcDbEntity
  8
0
100
AcDbBlockBegin
  2
*X99
 70
     1
 71
     0
 10
0.0
 20
0.0
 30
0.0
  3
*X99
  1

  4
*X9
  0
LINE
  5
13D
330
13A
100
AcDbEntity
  8
LC-003-005-----0
 62
     7
370
    25
100
AcDbLine
 10
48.854588
 20
198.761225
 30
0.0
 11
49.400732
 21
199.30737
 31
0.0
  0
LINE
  5
13E
330
13A
100
AcDbEntity
  8
LC-003-005-----0
 62
     7
370
    25
100
AcDbLine
 10
48.099833
 20
200.834898
 30
0.0
 11
49.503911
 21
202.238976
 31
0.0
  0
LINE
  5
13F
330
13A
100
AcDbEntity
  8
LC-003-005-----0
 62
     7
370
    25
100
AcDbLine
 10
48.803911
 20
204.367403
 30
0.0
 11
49.503911
 21
205.067403
 31
0.0
  0
LINE
  5
140
330
13A
100
AcDbEntity
  8
LC-003-005-----0
 62
     7
370
    25
100
AcDbLine
 10
48.526578
 20
206.918497
 30
0.0
 11
49.03244
 21
207.424359
 31
0.0
  0
LINE
  5
141
330
13A
100
AcDbEntity
  8
LC-003-005-----0
 62
     7
370
    25
100
AcDbLine
 10
46.006584
 20
207.22693
 30
0.0
 11
46.525025
 21
207.745371
 31
0.0
  0
LINE
  5
142
330
13A
100
AcDbEntity
  8
LC-003-005-----0
 62
     7
370
    25
100
AcDbLine
 10
45.203911
 20
209.252684
 30
0.0
 11
45.903911
 21
209.952684
 31
0.0
  0
LINE
  5
143
330
13A
100
AcDbEntity
  8
LC-003-005-----0
 62
     7
370
    25
100
AcDbLine
 10
45.203911
 20
212.081112
 30
0.0
 11
45.903911
 21
212.781112
 31
0.0
  0
LINE
  5
144
330
13A
100
AcDbEntity
  8
LC-003-005-----0
 62
     7
370
    25
100
AcDbLine
 10
41.642069
 20
211.347697
 30
0.0
 11
42.386621
 21
212.092248
 31
0.0
  0
LINE
  5
145
330
13A
100
AcDbEntity
  8
LC-003-005-----0
 62
     7
370
    25
100
AcDbLine
 10
45.203911
 20
214.909539
 30
0.0
 11
45.903911
 21
215.609539
 31
0.0
  0
LINE
  5
146
330
13A
100
AcDbEntity
  8
LC-003-005-----0
 62
     7
370
    25
100
AcDbLine
 10
42.003911
 20
214.537966
 30
0.0
 11
42.703911
 21
215.237966
 31
0.0
  0
LINE
  5
147
330
13A
100
AcDbEntity
  8
LC-003-005-----0
 62
     7
370
    25
100
AcDbLine
 10
44.927252
 20
217.461306
 30
0.0
 11
45.422305
 21
217.95636
 31
0.0
  0
LINE
  5
148
330
13A
100
AcDbEntity
  8
LC-003-005-----0
 62
     7
370
    25
100
AcDbLine
 10
42.198938
 20
217.56142
 30
0.0
 11
42.913306
 21
218.275788
 31
0.0
  0
ENDBLK
  5
13C
330
13A
100
AcDbEntity
  8
0
100
AcDbBlockEnd
  0
BLOCK
  5
15C
330
151
100
AcDbEntity
  8
0
100
AcDbBlockBegin
  2
*D10
 70
     1
 71
     0
 10
0.0
 20
0.0
 30
0.0
  3
*D10
  1

  0
LINE
  5
152
330
151
100
AcDbEntity
  8
LC-005-003-----0
 62
     2
370
    -2
100
AcDbLine
 10
44.203911
 20
218.470815
 30
0.0
 11
-3.6
 21
218.470815
 31
0.0
  0
LINE
  5
153
330
151
100
AcDbEntity
  8
LC-005-003-----0
 62
     2
370
    -2
100
AcDbLine
 10
41.503911
 20
211.270815
 30
0.0
 11
-3.6
 21
211.270815
 31
0.0
  0
LINE
  5
154
330
151
100
AcDbEntity
  8
LC-005-003-----0
 62
     2
370
    -2
100
AcDbLine
 10
0.0
 20
246.470815
 30
0.0
 11
0.0
 21
274.470815
 31
0.0
  0
LINE
  5
155
330
151
100
AcDbEntity
  8
LC-005-003-----0
 62
     2
370
    -2
100
AcDbLine
 10
0.0
 20
183.270815
 30
0.0
 11
0.0
 21
165.521378
 31
0.0
  0
SOLID
  5
156
330
151
100
AcDbEntity
  8
LC-005-003-----0
 62
     2
100
AcDbTrace
 10
-4.666667
 20
246.470815
 30
0.0
 11
4.666667
 21
246.470815
 31
0.0
 12
0.0
 22
218.470815
 32
0.0
 13
0.0
 23
218.470815
 33
0.0
  0
SOLID
  5
157
330
151
100
AcDbEntity
  8
LC-005-003-----0
 62
     2
100
AcDbTrace
 10
4.666667
 20
183.270815
 30
0.0
 11
-4.666667
 21
183.270815
 31
0.0
 12
0.0
 22
211.270815
 32
0.0
 13
0.0
 23
211.270815
 33
0.0
  0
MTEXT
  5
158
330
151
100
AcDbEntity
  8
LC-005-003-----0
 62
     2
100
AcDbMText
 10
-30.8
 20
177.606
 30
0.0
 40
28.0
 41
0.0
 71
     5
 72
     1
  1
\A1;7
  7
LCTX15-400-0-0pDIN-Schrift
 11
6.123031769111886E-17
 21
1.0
 31
0.0
 73
     1
 44
1.0
  0
POINT
  5
159
330
151
100
AcDbEntity
  8
Defpoints
 62
     0
100
AcDbPoint
 10
44.203911
 20
218.470815
 30
0.0
  0
POINT
  5
15A
330
151
100
AcDbEntity
  8
Defpoints
 62
     0
100
AcDbPoint
 10
41.503911
 20
211.270815
 30
0.0
  0
POINT
  5
15B
330
151
100
AcDbEntity
  8
Defpoints
 62
     0
100
AcDbPoint
 10
0.0
 20
211.270815
 30
0.0
  0
ENDBLK
  5
15D
330
151
100
AcDbEntity
  8
0
100
AcDbBlockEnd
  0
BLOCK
  5
171
330
167
100
AcDbEntity
  8
0
100
AcDbBlockBegin
  2
*D11
 70
     1
 71
     0
 10
0.0
 20
0.0
 30
0.0
  3
*D11
  1

  0
LINE
  5
168
330
167
100
AcDbEntity
  8
LC-005-003-----0
 62
     2
370
    -2
100
AcDbLine
 10
42.003911
 20
215.370815
 30
0.0
 11
42.003911
 21
237.042
 31
0.0
  0
LINE
  5
169
330
167
100
AcDbEntity
  8
LC-005-003-----0
 62
     2
370
    -2
100
AcDbLine
 10
142.003911
 20
215.370815
 30
0.0
 11
142.003911
 21
237.042
 31
0.0
  0
LINE
  5
16A
330
167
100
AcDbEntity
  8
LC-005-003-----0
 62
     2
370
    -2
100
AcDbLine
 10
70.003911
 20
233.442
 30
0.0
 11
114.003911
 21
233.442
 31
0.0
  0
SOLID
  5
16B
330
167
100
AcDbEntity
  8
LC-005-003-----0
 62
     2
100
AcDbTrace
 10
70.003911
 20
238.108667
 30
0.0
 11
70.003911
 21
228.775333
 31
0.0
 12
42.003911
 22
233.442
 32
0.0
 13
42.003911
 23
233.442
 33
0.0
  0
SOLID
  5
16C
330
167
100
AcDbEntity
  8
LC-005-003-----0
 62
     2
100
AcDbTrace
 10
114.003911
 20
228.775333
 30
0.0
 11
114.003911
 21
238.108667
 31
0.0
 12
142.003911
 22
233.442
 32
0.0
 13
142.003911
 23
233.442
 33
0.0
  0
MTEXT
  5
16D
330
167
100
AcDbEntity
  8
LC-005-003-----0
 62
     2
100
AcDbMText
 10
105.583617
 20
264.242
 30
0.0
 40
28.0
 41
0.0
 71
     5
 72
     1
  1
\A1;100
  7
LCTX15-400-0-0pDIN-Schrift
 73
     1
 44
1.0
  0
POINT
  5
16E
330
167
100
AcDbEntity
  8
Defpoints
 62
     0
100
AcDbPoint
 10
42.003911
 20
215.370815
 30
0.0
  0
POINT
  5
16F
330
167
100
AcDbEntity
  8
Defpoints
 62
     0
100
AcDbPoint
 10
142.003911
 20
215.370815
 30
0.0
  0
POINT
  5
170
330
167
100
AcDbEntity
  8
Defpoints
 62
     0
100
AcDbPoint
 10
142.003911
 20
233.442
 30
0.0
  0
ENDBLK
  5
172
330
167
100
AcDbEntity
  8
0
100
AcDbBlockEnd
  0
BLOCK
  5
198
330
18E
100
AcDbEntity
  8
0
100
AcDbBlockBegin
  2
*D12
 70
     1
 71
     0
 10
0.0
 20
0.0
 30
0.0
  3
*D12
  1

  0
LINE
  5
18F
330
18E
100
AcDbEntity
  8
LC-005-003-----0
 62
     2
370
    -2
100
AcDbLine
 10
37.003911
 20
98.470815
 30
0.0
 11
37.003911
 21
35.6
 31
0.0
  0
LINE
  5
190
330
18E
100
AcDbEntity
  8
LC-005-003-----0
 62
     2
370
    -2
100
AcDbLine
 10
147.003911
 20
98.470815
 30
0.0
 11
147.003911
 21
35.6
 31
0.0
  0
LINE
  5
191
330
18E
100
AcDbEntity
  8
LC-005-003-----0
 62
     2
370
    -2
100
AcDbLine
 10
65.003911
 20
39.2
 30
0.0
 11
119.003911
 21
39.2
 31
0.0
  0
SOLID
  5
192
330
18E
100
AcDbEntity
  8
LC-005-003-----0
 62
     2
100
AcDbTrace
 10
65.003911
 20
43.866667
 30
0.0
 11
65.003911
 21
34.533333
 31
0.0
 12
37.003911
 22
39.2
 32
0.0
 13
37.003911
 23
39.2
 33
0.0
  0
SOLID
  5
193
330
18E
100
AcDbEntity
  8
LC-005-003-----0
 62
     2
100
AcDbTrace
 10
119.003911
 20
34.533333
 30
0.0
 11
119.003911
 21
43.866667
 31
0.0
 12
147.003911
 22
39.2
 32
0.0
 13
147.003911
 23
39.2
 33
0.0
  0
MTEXT
  5
194
330
18E
100
AcDbEntity
  8
LC-005-003-----0
 62
     2
100
AcDbMText
 10
92.003911
 20
70.0
 30
0.0
 40
28.0
 41
0.0
 71
     5
 72
     1
  1
\A1;%%c110
  7
LCTX15-400-0-0pDIN-Schrift
 73
     1
 44
1.0
  0
POINT
  5
195
330
18E
100
AcDbEntity
  8
Defpoints
 62
     0
100
AcDbPoint
 10
37.003911
 20
98.470815
 30
0.0
  0
POINT
  5
196
330
18E
100
AcDbEntity
  8
Defpoints
 62
     0
100
AcDbPoint
 10
147.003911
 20
98.470815
 30
0.0
  0
POINT
  5
197
330
18E
100
AcDbEntity
  8
Defpoints
 62
     0
100
AcDbPoint
 10
147.003911
 20
39.2
 30
0.0
  0
ENDBLK
  5
199
330
18E
100
AcDbEntity
  8
0
100
AcDbBlockEnd
  0
BLOCK
  5
1B1
330
1B0
100
AcDbEntity
  8
0
100
AcDbBlockBegin
  2
*X1013
 70
     1
 71
     0
 10
0.0
 20
0.0
 30
0.0
  3
*X1013
  1

  4
*X10
  0
LINE
  5
1B3
330
1B0
100
AcDbEntity
  8
LC-003-005-----0
 62
     7
370
    25
100
AcDbLine
 10
134.809408
 20
199.863231
 30
0.0
 11
135.964181
 21
201.018005
 31
0.0
  0
LINE
  5
1B4
330
1B0
100
AcDbEntity
  8
LC-003-005-----0
 62
     7
370
    25
100
AcDbLine
 10
134.503911
 20
202.386162
 30
0.0
 11
135.203911
 21
203.086162
 31
0.0
  0
LINE
  5
1B5
330
1B0
100
AcDbEntity
  8
LC-003-005-----0
 62
     7
370
    25
100
AcDbLine
 10
134.503911
 20
205.214589
 30
0.0
 11
135.203911
 21
205.914589
 31
0.0
  0
LINE
  5
1B6
330
1B0
100
AcDbEntity
  8
LC-003-005-----0
 62
     7
370
    25
100
AcDbLine
 10
136.260137
 20
206.970815
 30
0.0
 11
136.960137
 21
207.670815
 31
0.0
  0
LINE
  5
1B7
330
1B0
100
AcDbEntity
  8
LC-003-005-----0
 62
     7
370
    25
100
AcDbLine
 10
138.103911
 20
208.814589
 30
0.0
 11
138.803911
 21
209.514589
 31
0.0
  0
LINE
  5
1B8
330
1B0
100
AcDbEntity
  8
LC-003-005-----0
 62
     7
370
    25
100
AcDbLine
 10
141.536067
 20
212.246745
 30
0.0
 11
142.072221
 21
212.782899
 31
0.0
  0
LINE
  5
1B9
330
1B0
100
AcDbEntity
  8
LC-003-005-----0
 62
     7
370
    25
100
AcDbLine
 10
138.103911
 20
211.643016
 30
0.0
 11
138.803911
 21
212.343016
 31
0.0
  0
LINE
  5
1BA
330
1B0
100
AcDbEntity
  8
LC-003-005-----0
 62
     7
370
    25
100
AcDbLine
 10
141.303911
 20
214.843016
 30
0.0
 11
142.003911
 21
215.543016
 31
0.0
  0
LINE
  5
1BB
330
1B0
100
AcDbEntity
  8
LC-003-005-----0
 62
     7
370
    25
100
AcDbLine
 10
138.103911
 20
214.471444
 30
0.0
 11
138.803911
 21
215.171444
 31
0.0
  0
LINE
  5
1BC
330
1B0
100
AcDbEntity
  8
LC-003-005-----0
 62
     7
370
    25
100
AcDbLine
 10
141.058956
 20
217.426488
 30
0.0
 11
141.554651
 21
217.922183
 31
0.0
  0
LINE
  5
1BD
330
1B0
100
AcDbEntity
  8
LC-003-005-----0
 62
     7
370
    25
100
AcDbLine
 10
138.23902
 20
217.434979
 30
0.0
 11
139.139747
 21
218.335706
 31
0.0
  0
ENDBLK
  5
1B2
330
1B0
100
AcDbEntity
  8
0
100
AcDbBlockEnd
  0
BLOCK
  5
1C8
330
1C7
100
AcDbEntity
  8
0
100
AcDbBlockBegin
  2
*X1114
 70
     1
 71
     0
 10
0.0
 20
0.0
 30
0.0
  3
*X1114
  1

  4
*X11
  0
LINE
  5
1CA
330
1C7
100
AcDbEntity
  8
LC-003-005-----0
 62
     7
370
    25
100
AcDbLine
 10
48.562941
 20
205.9955
 30
0.0
 11
47.587626
 21
206.970815
 31
0.0
  0
LINE
  5
1CB
330
1C7
100
AcDbEntity
  8
LC-003-005-----0
 62
     7
370
    25
100
AcDbLine
 10
48.881555
 20
202.848459
 30
0.0
 11
44.759199
 21
206.970815
 31
0.0
  0
LINE
  5
1CC
330
1C7
100
AcDbEntity
  8
LC-003-005-----0
 62
     7
370
    25
100
AcDbLine
 10
48.003911
 20
200.897676
 30
0.0
 11
42.967342
 21
205.934245
 31
0.0
  0
LINE
  5
1CD
330
1C7
100
AcDbEntity
  8
LC-003-005-----0
 62
     7
370
    25
100
AcDbLine
 10
48.003911
 20
198.069249
 30
0.0
 11
46.003911
 21
200.069249
 31
0.0
  0
LINE
  5
1CE
330
1C7
100
AcDbEntity
  8
LC-003-005-----0
 62
     7
370
    25
100
AcDbLine
 10
43.674448
 20
202.398711
 30
0.0
 11
41.553128
 21
204.520032
 31
0.0
  0
LINE
  5
1CF
330
1C7
100
AcDbEntity
  8
LC-003-005-----0
 62
     7
370
    25
100
AcDbLine
 10
47.273918
 20
195.970815
 30
0.0
 11
46.003911
 21
197.240822
 31
0.0
  0
LINE
  5
1D0
330
1C7
100
AcDbEntity
  8
LC-003-005-----0
 62
     7
370
    25
100
AcDbLine
 10
42.260235
 20
200.984498
 30
0.0
 11
40.138915
 21
203.105818
 31
0.0
  0
LINE
  5
1D1
330
1C7
100
AcDbEntity
  8
LC-003-005-----0
 62
     7
370
    25
100
AcDbLine
 10
40.846021
 20
199.570284
 30
0.0
 11
38.724701
 21
201.691605
 31
0.0
  0
LINE
  5
1D2
330
1C7
100
AcDbEntity
  8
LC-003-005-----0
 62
     7
370
    25
100
AcDbLine
 10
40.003911
 20
197.583967
 30
0.0
 11
37.310487
 21
200.277391
 31
0.0
  0
LINE
  5
1D3
330
1C7
100
AcDbEntity
  8
LC-003-005-----0
 62
     7
370
    25
100
AcDbLine
 10
40.003911
 20
194.75554
 30
0.0
 11
37.003911
 21
197.75554
 31
0.0
  0
LINE
  5
1D4
330
1C7
100
AcDbEntity
  8
LC-003-005-----0
 62
     7
370
    25
100
AcDbLine
 10
40.003911
 20
191.927113
 30
0.0
 11
37.003911
 21
194.927113
 31
0.0
  0
LINE
  5
1D5
330
1C7
100
AcDbEntity
  8
LC-003-005-----0
 62
     7
370
    25
100
AcDbLine
 10
40.003911
 20
189.098686
 30
0.0
 11
37.003911
 21
192.098686
 31
0.0
  0
LINE
  5
1D6
330
1C7
100
AcDbEntity
  8
LC-003-005-----0
 62
     7
370
    25
100
AcDbLine
 10
40.003911
 20
186.270259
 30
0.0
 11
37.003911
 21
189.270259
 31
0.0
  0
LINE
  5
1D7
330
1C7
100
AcDbEntity
  8
LC-003-005-----0
 62
     7
370
    25
100
AcDbLine
 10
40.003911
 20
183.441832
 30
0.0
 11
37.003911
 21
186.441832
 31
0.0
  0
LINE
  5
1D8
330
1C7
100
AcDbEntity
  8
LC-003-005-----0
 62
     7
370
    25
100
AcDbLine
 10
40.003911
 20
180.613405
 30
0.0
 11
37.003911
 21
183.613405
 31
0.0
  0
LINE
  5
1D9
330
1C7
100
AcDbEntity
  8
LC-003-005-----0
 62
     7
370
    25
100
AcDbLine
 10
40.003911
 20
177.784977
 30
0.0
 11
37.003911
 21
180.784977
 31
0.0
  0
LINE
  5
1DA
330
1C7
100
AcDbEntity
  8
LC-003-005-----0
 62
     7
370
    25
100
AcDbLine
 10
40.003911
 20
174.95655
 30
0.0
 11
37.003911
 21
177.95655
 31
0.0
  0
LINE
  5
1DB
330
1C7
100
AcDbEntity
  8
LC-003-005-----0
 62
     7
370
    25
100
AcDbLine
 10
40.003911
 20
172.128123
 30
0.0
 11
37.003911
 21
175.128123
 31
0.0
  0
LINE
  5
1DC
330
1C7
100
AcDbEntity
  8
LC-003-005-----0
 62
     7
370
    25
100
AcDbLine
 10
40.003911
 20
169.299696
 30
0.0
 11
37.003911
 21
172.299696
 31
0.0
  0
LINE
  5
1DD
330
1C7
100
AcDbEntity
  8
LC-003-005-----0
 62
     7
370
    25
100
AcDbLine
 10
40.003911
 20
166.471269
 30
0.0
 11
37.003911
 21
169.471269
 31
0.0
  0
LINE
  5
1DE
330
1C7
100
AcDbEntity
  8
LC-003-005-----0
 62
     7
370
    25
100
AcDbLine
 10
40.003911
 20
163.642842
 30
0.0
 11
37.003911
 21
166.642842
 31
0.0
  0
LINE
  5
1DF
330
1C7
100
AcDbEntity
  8
LC-003-005-----0
 62
     7
370
    25
100
AcDbLine
 10
40.003911
 20
160.814415
 30
0.0
 11
37.003911
 21
163.814415
 31
0.0
  0
LINE
  5
1E0
330
1C7
100
AcDbEntity
  8
LC-003-005-----0
 62
     7
370
    25
100
AcDbLine
 10
40.003911
 20
157.985988
 30
0.0
 11
37.003911
 21
160.985988
 31
0.0
  0
LINE
  5
1E1
330
1C7
100
AcDbEntity
  8
LC-003-005-----0
 62
     7
370
    25
100
AcDbLine
 10
40.003911
 20
155.15756
 30
0.0
 11
37.003911
 21
158.15756
 31
0.0
  0
LINE
  5
1E2
330
1C7
100
AcDbEntity
  8
LC-003-005-----0
 62
     7
370
    25
100
AcDbLine
 10
40.003911
 20
152.329133
 30
0.0
 11
37.003911
 21
155.329133
 31
0.0
  0
LINE
  5
1E3
330
1C7
100
AcDbEntity
  8
LC-003-005-----0
 62
     7
370
    25
100
AcDbLine
 10
40.003911
 20
149.500706
 30
0.0
 11
37.003911
 21
152.500706
 31
0.0
  0
LINE
  5
1E4
330
1C7
100
AcDbEntity
  8
LC-003-005-----0
 62
     7
370
    25
100
AcDbLine
 10
40.003911
 20
146.672279
 30
0.0
 11
37.003911
 21
149.672279
 31
0.0
  0
LINE
  5
1E5
330
1C7
100
AcDbEntity
  8
LC-003-005-----0
 62
     7
370
    25
100
AcDbLine
 10
40.003911
 20
143.843852
 30
0.0
 11
37.003911
 21
146.843852
 31
0.0
  0
LINE
  5
1E6
330
1C7
100
AcDbEntity
  8
LC-003-005-----0
 62
     7
370
    25
100
AcDbLine
 10
40.003911
 20
141.015425
 30
0.0
 11
37.003911
 21
144.015425
 31
0.0
  0
LINE
  5
1E7
330
1C7
100
AcDbEntity
  8
LC-003-005-----0
 62
     7
370
    25
100
AcDbLine
 10
40.003911
 20
138.186998
 30
0.0
 11
37.003911
 21
141.186998
 31
0.0
  0
LINE
  5
1E8
330
1C7
100
AcDbEntity
  8
LC-003-005-----0
 62
     7
370
    25
100
AcDbLine
 10
40.003911
 20
135.358571
 30
0.0
 11
37.003911
 21
138.358571
 31
0.0
  0
LINE
  5
1E9
330
1C7
100
AcDbEntity
  8
LC-003-005-----0
 62
     7
370
    25
100
AcDbLine
 10
40.003911
 20
132.530143
 30
0.0
 11
37.003911
 21
135.530143
 31
0.0
  0
LINE
  5
1EA
330
1C7
100
AcDbEntity
  8
LC-003-005-----0
 62
     7
370
    25
100
AcDbLine
 10
40.003911
 20
129.701716
 30
0.0
 11
37.003911
 21
132.701716
 31
0.0
  0
LINE
  5
1EB
330
1C7
100
AcDbEntity
  8
LC-003-005-----0
 62
     7
370
    25
100
AcDbLine
 10
40.003911
 20
126.873289
 30
0.0
 11
37.003911
 21
129.873289
 31
0.0
  0
LINE
  5
1EC
330
1C7
100
AcDbEntity
  8
LC-003-005-----0
 62
     7
370
    25
100
AcDbLine
 10
40.003911
 20
124.044862
 30
0.0
 11
37.003911
 21
127.044862
 31
0.0
  0
LINE
  5
1ED
330
1C7
100
AcDbEntity
  8
LC-003-005-----0
 62
     7
370
    25
100
AcDbLine
 10
40.003911
 20
121.216435
 30
0.0
 11
37.003911
 21
124.216435
 31
0.0
  0
LINE
  5
1EE
330
1C7
100
AcDbEntity
  8
LC-003-005-----0
 62
     7
370
    25
100
AcDbLine
 10
40.003911
 20
118.388008
 30
0.0
 11
37.003911
 21
121.388008
 31
0.0
  0
LINE
  5
1EF
330
1C7
100
AcDbEntity
  8
LC-003-005-----0
 62
     7
370
    25
100
AcDbLine
 10
40.003911
 20
115.559581
 30
0.0
 11
37.003911
 21
118.559581
 31
0.0
  0
LINE
  5
1F0
330
1C7
100
AcDbEntity
  8
LC-003-005-----0
 62
     7
370
    25
100
AcDbLine
 10
40.003911
 20
112.731154
 30
0.0
 11
37.003911
 21
115.731154
 31
0.0
  0
LINE
  5
1F1
330
1C7
100
AcDbEntity
  8
LC-003-005-----0
 62
     7
370
    25
100
AcDbLine
 10
40.003911
 20
109.902726
 30
0.0
 11
37.003911
 21
112.902726
 31
0.0
  0
LINE
  5
1F2
330
1C7
100
AcDbEntity
  8
LC-003-005-----0
 62
     7
370
    25
100
AcDbLine
 10
40.003911
 20
107.074299
 30
0.0
 11
37.003911
 21
110.074299
 31
0.0
  0
LINE
  5
1F3
330
1C7
100
AcDbEntity
  8
LC-003-005-----0
 62
     7
370
    25
100
AcDbLine
 10
40.003911
 20
104.245872
 30
0.0
 11
37.003911
 21
107.245872
 31
0.0
  0
LINE
  5
1F4
330
1C7
100
AcDbEntity
  8
LC-003-005-----0
 62
     7
370
    25
100
AcDbLine
 10
40.003911
 20
101.417445
 30
0.0
 11
37.003911
 21
104.417445
 31
0.0
  0
LINE
  5
1F5
330
1C7
100
AcDbEntity
  8
LC-003-005-----0
 62
     7
370
    25
100
AcDbLine
 10
40.003911
 20
98.589018
 30
0.0
 11
37.003911
 21
101.589018
 31
0.0
  0
LINE
  5
1F6
330
1C7
100
AcDbEntity
  8
LC-003-005-----0
 62
     7
370
    25
100
AcDbLine
 10
38.293687
 20
97.470815
 30
0.0
 11
37.003911
 21
98.760591
 31
0.0
  0
ENDBLK
  5
1C9
330
1C7
100
AcDbEntity
  8
0
100
AcDbBlockEnd
  0
BLOCK
  5
215
330
214
100
AcDbEntity
  8
0
100
AcDbBlockBegin
  2
*X1215
 70
     1
 71
     0
 10
0.0
 20
0.0
 30
0.0
  3
*X1215
  1

  4
*X12
  0
LINE
  5
217
330
214
100
AcDbEntity
  8
LC-003-005-----0
 62
     7
370
    25
100
AcDbLine
 10
37.902298
 20
94.47084
 30
0.0
 11
40.004349
 21
96.572892
 31
0.0
  0
LINE
  5
218
330
214
100
AcDbEntity
  8
LC-003-005-----0
 62
     7
370
    25
100
AcDbLine
 10
35.07387
 20
94.47084
 30
0.0
 11
38.073845
 21
97.470815
 31
0.0
  0
LINE
  5
219
330
214
100
AcDbEntity
  8
LC-003-005-----0
 62
     7
370
    25
100
AcDbLine
 10
32.245443
 20
94.47084
 30
0.0
 11
37.00438
 21
99.229776
 31
0.0
  0
LINE
  5
21A
330
214
100
AcDbEntity
  8
LC-003-005-----0
 62
     7
370
    25
100
AcDbLine
 10
32.004304
 20
97.058128
 30
0.0
 11
37.004388
 21
102.058212
 31
0.0
  0
LINE
  5
21B
330
214
100
AcDbEntity
  8
LC-003-005-----0
 62
     7
370
    25
100
AcDbLine
 10
32.004304
 20
99.886555
 30
0.0
 11
37.004397
 21
104.886648
 31
0.0
  0
LINE
  5
21C
330
214
100
AcDbEntity
  8
LC-003-005-----0
 62
     7
370
    25
100
AcDbLine
 10
32.004304
 20
102.714982
 30
0.0
 11
33.760078
 21
104.470756
 31
0.0
  0
LINE
  5
21D
330
214
100
AcDbEntity
  8
LC-003-005-----0
 62
     7
370
    25
100
AcDbLine
 10
35.004398
 20
105.715076
 30
0.0
 11
37.004406
 21
107.715084
 31
0.0
  0
LINE
  5
21E
330
214
100
AcDbEntity
  8
LC-003-005-----0
 62
     7
370
    25
100
AcDbLine
 10
35.004398
 20
108.543503
 30
0.0
 11
37.004414
 21
110.54352
 31
0.0
  0
LINE
  5
21F
330
214
100
AcDbEntity
  8
LC-003-005-----0
 62
     7
370
    25
100
AcDbLine
 10
35.004398
 20
111.37193
 30
0.0
 11
36.553769
 21
112.921301
 31
0.0
  0
LINE
  5
220
330
214
100
AcDbEntity
  8
LC-003-005-----0
 62
     7
370
    25
100
AcDbLine
 10
35.004398
 20
114.200358
 30
0.0
 11
35.139555
 21
114.335515
 31
0.0
  0
ENDBLK
  5
216
330
214
100
AcDbEntity
  8
0
100
AcDbBlockEnd
  0
BLOCK
  5
233
330
232
100
AcDbEntity
  8
0
100
AcDbBlockBegin
  2
*X1316
 70
     1
 71
     0
 10
0.0
 20
0.0
 30
0.0
  3
*X1316
  1

  4
*X13
  0
LINE
  5
235
330
232
100
AcDbEntity
  8
LC-003-005-----0
 62
     7
370
    25
100
AcDbLine
 10
151.039382
 20
94.47084
 30
0.0
 11
152.003518
 21
95.434976
 31
0.0
  0
LINE
  5
236
330
232
100
AcDbEntity
  8
LC-003-005-----0
 62
     7
370
    25
100
AcDbLine
 10
148.210955
 20
94.47084
 30
0.0
 11
152.003518
 21
98.263403
 31
0.0
  0
LINE
  5
237
330
232
100
AcDbEntity
  8
LC-003-005-----0
 62
     7
370
    25
100
AcDbLine
 10
145.382528
 20
94.47084
 30
0.0
 11
152.003518
 21
101.09183
 31
0.0
  0
LINE
  5
238
330
232
100
AcDbEntity
  8
LC-003-005-----0
 62
     7
370
    25
100
AcDbLine
 10
144.003473
 20
95.920212
 30
0.0
 11
145.554076
 21
97.470815
 31
0.0
  0
LINE
  5
239
330
232
100
AcDbEntity
  8
LC-003-005-----0
 62
     7
370
    25
100
AcDbLine
 10
147.003444
 20
98.920183
 30
0.0
 11
152.003518
 21
103.920257
 31
0.0
  0
LINE
  5
23A
330
232
100
AcDbEntity
  8
LC-003-005-----0
 62
     7
370
    25
100
AcDbLine
 10
147.003435
 20
101.748601
 30
0.0
 11
149.72559
 21
104.470756
 31
0.0
  0
LINE
  5
23B
330
232
100
AcDbEntity
  8
LC-003-005-----0
 62
     7
370
    25
100
AcDbLine
 10
147.003426
 20
104.577019
 30
0.0
 11
149.003424
 21
106.577017
 31
0.0
  0
LINE
  5
23C
330
232
100
AcDbEntity
  8
LC-003-005-----0
 62
     7
370
    25
100
AcDbLine
 10
147.003418
 20
107.405438
 30
0.0
 11
149.003424
 21
109.405445
 31
0.0
  0
LINE
  5
23D
330
232
100
AcDbEntity
  8
LC-003-005-----0
 62
     7
370
    25
100
AcDbLine
 10
147.003409
 20
110.233856
 30
0.0
 11
149.003424
 21
112.233872
 31
0.0
  0
ENDBLK
  5
234
330
232
100
AcDbEntity
  8
0
100
AcDbBlockEnd
  0
BLOCK
  5
24D
330
24C
100
AcDbEntity
  8
0
100
AcDbBlockBegin
  2
*X1417
 70
     1
 71
     0
 10
0.0
 20
0.0
 30
0.0
  3
*X1417
  1

  4
*X14
  0
LINE
  5
24F
330
24C
100
AcDbEntity
  8
LC-003-005-----0
 62
     7
370
    25
100
AcDbLine
 10
91.81396
 20
97.470815
 30
0.0
 11
92.003911
 21
97.660765
 31
0.0
  0
LINE
  5
250
330
24C
100
AcDbEntity
  8
LC-003-005-----0
 62
     7
370
    25
100
AcDbLine
 10
86.157106
 20
97.470815
 30
0.0
 11
92.003911
 21
103.31762
 31
0.0
  0
LINE
  5
251
330
24C
100
AcDbEntity
  8
LC-003-005-----0
 62
     7
370
    25
100
AcDbLine
 10
80.500252
 20
97.470815
 30
0.0
 11
92.003911
 21
108.974474
 31
0.0
  0
LINE
  5
252
330
24C
100
AcDbEntity
  8
LC-003-005-----0
 62
     7
370
    25
100
AcDbLine
 10
74.843398
 20
97.470815
 30
0.0
 11
88.843398
 21
111.470815
 31
0.0
  0
LINE
  5
253
330
24C
100
AcDbEntity
  8
LC-003-005-----0
 62
     7
370
    25
100
AcDbLine
 10
69.186543
 20
97.470815
 30
0.0
 11
83.186543
 21
111.470815
 31
0.0
  0
LINE
  5
254
330
24C
100
AcDbEntity
  8
LC-003-005-----0
 62
     7
370
    25
100
AcDbLine
 10
63.529689
 20
97.470815
 30
0.0
 11
77.529689
 21
111.470815
 31
0.0
  0
LINE
  5
255
330
24C
100
AcDbEntity
  8
LC-003-005-----0
 62
     7
370
    25
100
AcDbLine
 10
57.872835
 20
97.470815
 30
0.0
 11
71.872835
 21
111.470815
 31
0.0
  0
LINE
  5
256
330
24C
100
AcDbEntity
  8
LC-003-005-----0
 62
     7
370
    25
100
AcDbLine
 10
52.215981
 20
97.470815
 30
0.0
 11
66.215981
 21
111.470815
 31
0.0
  0
LINE
  5
257
330
24C
100
AcDbEntity
  8
LC-003-005-----0
 62
     7
370
    25
100
AcDbLine
 10
46.559126
 20
97.470815
 30
0.0
 11
60.559126
 21
111.470815
 31
0.0
  0
LINE
  5
258
330
24C
100
AcDbEntity
  8
LC-003-005-----0
 62
     7
370
    25
100
AcDbLine
 10
40.902272
 20
97.470815
 30
0.0
 11
54.902272
 21
111.470815
 31
0.0
  0
LINE
  5
259
330
24C
100
AcDbEntity
  8
LC-003-005-----0
 62
     7
370
    25
100
AcDbLine
 10
40.003911
 20
102.229308
 30
0.0
 11
49.245418
 21
111.470815
 31
0.0
  0
LINE
  5
25A
330
24C
100
AcDbEntity
  8
LC-003-005-----0
 62
     7
370
    25
100
AcDbLine
 10
40.003911
 20
107.886162
 30
0.0
 11
43.588564
 21
111.470815
 31
0.0
  0
LINE
  5
25B
330
24C
100
AcDbEntity
  8
LC-003-005-----0
 62
     7
370
    25
100
AcDbLine
 10
92.003911
 20
105.985988
 30
0.0
 11
86.519084
 21
111.470815
 31
0.0
  0
LINE
  5
25C
330
24C
100
AcDbEntity
  8
LC-003-005-----0
 62
     7
370
    25
100
AcDbLine
 10
92.003911
 20
100.329133
 30
0.0
 11
80.86223
 21
111.470815
 31
0.0
  0
LINE
  5
25D
330
24C
100
AcDbEntity
  8
LC-003-005-----0
 62
     7
370
    25
100
AcDbLine
 10
89.205375
 20
97.470815
 30
0.0
 11
75.205375
 21
111.470815
 31
0.0
  0
LINE
  5
25E
330
24C
100
AcDbEntity
  8
LC-003-005-----0
 62
     7
370
    25
100
AcDbLine
 10
83.548521
 20
97.470815
 30
0.0
 11
69.548521
 21
111.470815
 31
0.0
  0
LINE
  5
25F
330
24C
100
AcDbEntity
  8
LC-003-005-----0
 62
     7
370
    25
100
AcDbLine
 10
77.891667
 20
97.470815
 30
0.0
 11
63.891667
 21
111.470815
 31
0.0
  0
LINE
  5
260
330
24C
100
AcDbEntity
  8
LC-003-005-----0
 62
     7
370
    25
100
AcDbLine
 10
72.234813
 20
97.470815
 30
0.0
 11
58.234813
 21
111.470815
 31
0.0
  0
LINE
  5
261
330
24C
100
AcDbEntity
  8
LC-003-005-----0
 62
     7
370
    25
100
AcDbLine
 10
66.577958
 20
97.470815
 30
0.0
 11
52.577958
 21
111.470815
 31
0.0
  0
LINE
  5
262
330
24C
100
AcDbEntity
  8
LC-003-005-----0
 62
     7
370
    25
100
AcDbLine
 10
60.921104
 20
97.470815
 30
0.0
 11
46.921104
 21
111.470815
 31
0.0
  0
LINE
  5
263
330
24C
100
AcDbEntity
  8
LC-003-005-----0
 62
     7
370
    25
100
AcDbLine
 10
55.26425
 20
97.470815
 30
0.0
 11
41.26425
 21
111.470815
 31
0.0
  0
LINE
  5
264
330
24C
100
AcDbEntity
  8
LC-003-005-----0
 62
     7
370
    25
100
AcDbLine
 10
49.607396
 20
97.470815
 30
0.0
 11
40.003911
 21
107.074299
 31
0.0
  0
LINE
  5
265
330
24C
100
AcDbEntity
  8
LC-003-005-----0
 62
     7
370
    25
100
AcDbLine
 10
43.950542
 20
97.470815
 30
0.0
 11
40.003911
 21
101.417445
 31
0.0
  0
ENDBLK
  5
24E
330
24C
100
AcDbEntity
  8
0
100
AcDbBlockEnd
  0
BLOCK
  5
268
330
267
100
AcDbEntity
  8
0
100
AcDbBlockBegin
  2
*X1518
 70
     1
 71
     0
 10
0.0
 20
0.0
 30
0.0
  3
*X1518
  1

  4
*X15
  0
LINE
  5
26A
330
267
100
AcDbEntity
  8
LC-003-005-----0
 62
     7
370
    25
100
AcDbLine
 10
142.725649
 20
97.470815
 30
0.0
 11
144.003911
 21
98.749077
 31
0.0
  0
LINE
  5
26B
330
267
100
AcDbEntity
  8
LC-003-005-----0
 62
     7
370
    25
100
AcDbLine
 10
137.068794
 20
97.470815
 30
0.0
 11
144.003911
 21
104.405931
 31
0.0
  0
LINE
  5
26C
330
267
100
AcDbEntity
  8
LC-003-005-----0
 62
     7
370
    25
100
AcDbLine
 10
131.41194
 20
97.470815
 30
0.0
 11
144.003911
 21
110.062786
 31
0.0
  0
LINE
  5
26D
330
267
100
AcDbEntity
  8
LC-003-005-----0
 62
     7
370
    25
100
AcDbLine
 10
125.755086
 20
97.470815
 30
0.0
 11
139.755086
 21
111.470815
 31
0.0
  0
LINE
  5
26E
330
267
100
AcDbEntity
  8
LC-003-005-----0
 62
     7
370
    25
100
AcDbLine
 10
120.098232
 20
97.470815
 30
0.0
 11
134.098232
 21
111.470815
 31
0.0
  0
LINE
  5
26F
330
267
100
AcDbEntity
  8
LC-003-005-----0
 62
     7
370
    25
100
AcDbLine
 10
114.441377
 20
97.470815
 30
0.0
 11
128.441377
 21
111.470815
 31
0.0
  0
LINE
  5
270
330
267
100
AcDbEntity
  8
LC-003-005-----0
 62
     7
370
    25
100
AcDbLine
 10
108.784523
 20
97.470815
 30
0.0
 11
122.784523
 21
111.470815
 31
0.0
  0
LINE
  5
271
330
267
100
AcDbEntity
  8
LC-003-005-----0
 62
     7
370
    25
100
AcDbLine
 10
103.127669
 20
97.470815
 30
0.0
 11
117.127669
 21
111.470815
 31
0.0
  0
LINE
  5
272
330
267
100
AcDbEntity
  8
LC-003-005-----0
 62
     7
370
    25
100
AcDbLine
 10
97.470815
 20
97.470815
 30
0.0
 11
111.470815
 21
111.470815
 31
0.0
  0
LINE
  5
273
330
267
100
AcDbEntity
  8
LC-003-005-----0
 62
     7
370
    25
100
AcDbLine
 10
92.003911
 20
97.660765
 30
0.0
 11
105.81396
 21
111.470815
 31
0.0
  0
LINE
  5
274
330
267
100
AcDbEntity
  8
LC-003-005-----0
 62
     7
370
    25
100
AcDbLine
 10
92.003911
 20
103.31762
 30
0.0
 11
100.157106
 21
111.470815
 31
0.0
  0
LINE
  5
275
330
267
100
AcDbEntity
  8
LC-003-005-----0
 62
     7
370
    25
100
AcDbLine
 10
92.003911
 20
108.974474
 30
0.0
 11
94.500252
 21
111.470815
 31
0.0
  0
LINE
  5
276
330
267
100
AcDbEntity
  8
LC-003-005-----0
 62
     7
370
    25
100
AcDbLine
 10
144.003911
 20
110.55453
 30
0.0
 11
143.087626
 21
111.470815
 31
0.0
  0
LINE
  5
277
330
267
100
AcDbEntity
  8
LC-003-005-----0
 62
     7
370
    25
100
AcDbLine
 10
144.003911
 20
104.897676
 30
0.0
 11
137.430772
 21
111.470815
 31
0.0
  0
LINE
  5
278
330
267
100
AcDbEntity
  8
LC-003-005-----0
 62
     7
370
    25
100
AcDbLine
 10
144.003911
 20
99.240822
 30
0.0
 11
131.773918
 21
111.470815
 31
0.0
  0
LINE
  5
279
330
267
100
AcDbEntity
  8
LC-003-005-----0
 62
     7
370
    25
100
AcDbLine
 10
140.117064
 20
97.470815
 30
0.0
 11
126.117064
 21
111.470815
 31
0.0
  0
LINE
  5
27A
330
267
100
AcDbEntity
  8
LC-003-005-----0
 62
     7
370
    25
100
AcDbLine
 10
134.460209
 20
97.470815
 30
0.0
 11
120.460209
 21
111.470815
 31
0.0
  0
LINE
  5
27B
330
267
100
AcDbEntity
  8
LC-003-005-----0
 62
     7
370
    25
100
AcDbLine
 10
128.803355
 20
97.470815
 30
0.0
 11
114.803355
 21
111.470815
 31
0.0
  0
LINE
  5
27C
330
267
100
AcDbEntity
  8
LC-003-005-----0
 62
     7
370
    25
100
AcDbLine
 10
123.146501
 20
97.470815
 30
0.0
 11
109.146501
 21
111.470815
 31
0.0
  0
LINE
  5
27D
330
267
100
AcDbEntity
  8
LC-003-005-----0
 62
     7
370
    25
100
AcDbLine
 10
117.489647
 20
97.470815
 30
0.0
 11
103.489647
 21
111.470815
 31
0.0
  0
LINE
  5
27E
330
267
100
AcDbEntity
  8
LC-003-005-----0
 62
     7
370
    25
100
AcDbLine
 10
111.832792
 20
97.470815
 30
0.0
 11
97.832792
 21
111.470815
 31
0.0
  0
LINE
  5
27F
330
267
100
AcDbEntity
  8
LC-003-005-----0
 62
     7
370
    25
100
AcDbLine
 10
106.175938
 20
97.470815
 30
0.0
 11
92.175938
 21
111.470815
 31
0.0
  0
LINE
  5
280
330
267
100
AcDbEntity
  8
LC-003-005-----0
 62
     7
370
    25
100
AcDbLine
 10
100.519084
 20
97.470815
 30
0.0
 11
92.003911
 21
105.985988
 31
0.0
  0
LINE
  5
281
330
267
100
AcDbEntity
  8
LC-003-005-----0
 62
     7
370
    25
100
AcDbLine
 10
94.86223
 20
97.470815
 30
0.0
 11
92.003911
 21
100.329133
 31
0.0
  0
ENDBLK
  5
269
330
267
100
AcDbEntity
  8
0
100
AcDbBlockEnd
  0
BLOCK
  5
28F
330
284
100
AcDbEntity
  8
0
100
AcDbBlockBegin
  2
*D19
 70
     1
 71
     0
 10
0.0
 20
0.0
 30
0.0
  3
*D19
  1

  0
LINE
  5
285
330
284
100
AcDbEntity
  8
LC-005-003-----0
 62
     2
370
    -2
100
AcDbLine
 10
144.003473
 20
97.470815
 30
0.0
 11
193.559137
 21
97.469264
 31
0.0
  0
LINE
  5
286
330
284
100
AcDbEntity
  8
LC-005-003-----0
 62
     2
370
    -2
100
AcDbLine
 10
144.003911
 20
111.470815
 30
0.0
 11
193.559575
 21
111.469264
 31
0.0
  0
LINE
  5
287
330
284
100
AcDbEntity
  8
LC-005-003-----0
 62
     2
370
    -2
100
AcDbLine
 10
189.958261
 20
69.469377
 30
0.0
 11
189.957385
 21
41.469377
 31
0.0
  0
LINE
  5
288
330
284
100
AcDbEntity
  8
LC-005-003-----0
 62
     2
370
    -2
100
AcDbLine
 10
189.960451
 20
139.469377
 30
0.0
 11
189.961076
 21
159.42843
 31
0.0
  0
SOLID
  5
289
330
284
100
AcDbEntity
  8
LC-005-003-----0
 62
     2
100
AcDbTrace
 10
194.624927
 20
69.469231
 30
0.0
 11
185.291594
 21
69.469523
 31
0.0
 12
189.959137
 22
97.469377
 32
0.0
 13
189.959137
 23
97.469377
 33
0.0
  0
SOLID
  5
28A
330
284
100
AcDbEntity
  8
LC-005-003-----0
 62
     2
100
AcDbTrace
 10
185.293785
 20
139.469523
 30
0.0
 11
194.627118
 21
139.469231
 31
0.0
 12
189.959575
 22
111.469377
 32
0.0
 13
189.959575
 23
111.469377
 33
0.0
  0
MTEXT
  5
28B
330
284
100
AcDbEntity
  8
LC-005-003-----0
 62
     2
100
AcDbMText
 10
159.160492
 20
140.778964
 30
0.0
 40
28.0
 41
0.0
 71
     5
 72
     1
  1
\A1;14
  7
LCTX15-400-0-0pDIN-Schrift
 11
3.129214280345770E-5
 21
0.9999999995104009
 31
0.0
 73
     1
 44
1.0
  0
POINT
  5
28C
330
284
100
AcDbEntity
  8
Defpoints
 62
     0
100
AcDbPoint
 10
144.003473
 20
97.470815
 30
0.0
  0
POINT
  5
28D
330
284
100
AcDbEntity
  8
Defpoints
 62
     0
100
AcDbPoint
 10
144.003911
 20
111.470815
 30
0.0
  0
POINT
  5
28E
330
284
100
AcDbEntity
  8
Defpoints
 62
     0
100
AcDbPoint
 10
189.959575
 20
111.469377
 30
0.0
  0
ENDBLK
  5
290
330
284
100
AcDbEntity
  8
0
100
AcDbBlockEnd
  0
BLOCK
  5
29C
330
292
100
AcDbEntity
  8
0
100
AcDbBlockBegin
  2
*D20
 70
     1
 71
     0
 10
0.0
 20
0.0
 30
0.0
  3
*D20
  1

  0
LINE
  5
293
330
292
100
AcDbEntity
  8
LC-005-003-----0
 62
     2
370
    -2
100
AcDbLine
 10
144.003911
 20
111.470815
 30
0.0
 11
241.022484
 21
111.470815
 31
0.0
  0
LINE
  5
294
330
292
100
AcDbEntity
  8
LC-005-003-----0
 62
     2
370
    -2
100
AcDbLine
 10
139.803911
 20
218.470815
 30
0.0
 11
241.022484
 21
218.470815
 31
0.0
  0
LINE
  5
295
330
292
100
AcDbEntity
  8
LC-005-003-----0
 62
     2
370
    -2
100
AcDbLine
 10
237.422484
 20
139.470815
 30
0.0
 11
237.422484
 21
190.470815
 31
0.0
  0
SOLID
  5
296
330
292
100
AcDbEntity
  8
LC-005-003-----0
 62
     2
100
AcDbTrace
 10
232.755818
 20
139.470815
 30
0.0
 11
242.089151
 21
139.470815
 31
0.0
 12
237.422484
 22
111.470815
 32
0.0
 13
237.422484
 23
111.470815
 33
0.0
  0
SOLID
  5
297
330
292
100
AcDbEntity
  8
LC-005-003-----0
 62
     2
100
AcDbTrace
 10
242.089151
 20
190.470815
 30
0.0
 11
232.755818
 21
190.470815
 31
0.0
 12
237.422484
 22
218.470815
 32
0.0
 13
237.422484
 23
218.470815
 33
0.0
  0
MTEXT
  5
298
330
292
100
AcDbEntity
  8
LC-005-003-----0
 62
     2
100
AcDbMText
 10
206.622484
 20
156.222
 30
0.0
 40
28.0
 41
0.0
 71
     5
 72
     1
  1
\A1;15-107
  7
LCTX15-400-0-0pDIN-Schrift
 11
6.123031769111886E-17
 21
1.0
 31
0.0
 73
     1
 44
1.0
  0
POINT
  5
299
330
292
100
AcDbEntity
  8
Defpoints
 62
     0
100
AcDbPoint
 10
144.003911
 20
111.470815
 30
0.0
  0
POINT
  5
29A
330
292
100
AcDbEntity
  8
Defpoints
 62
     0
100
AcDbPoint
 10
139.803911
 20
218.470815
 30
0.0
  0
POINT
  5
29B
330
292
100
AcDbEntity
  8
Defpoints
 62
     0
100
AcDbPoint
 10
237.422484
 20
218.470815
 30
0.0
  0
ENDBLK
  5
29D
330
292
100
AcDbEntity
  8
0
100
AcDbBlockEnd
  0
ENDSEC
  0
SECTION
  2
ENTITIES
  0
LINE
  5
32
102
{ACAD_REACTORS
330
2A2
102
}
330
1F
100
AcDbEntity
  8
LC-001-002-----0
 62
     7
370
    50
100
AcDbLine
 10
138.003911
 20
202.31396
 30
0.0
 11
138.003911
 21
195.970815
 31
0.0
  0
LINE
  5
33
102
{ACAD_REACTORS
330
2A2
102
}
330
1F
100
AcDbEntity
  8
LC-001-002-----0
 62
     7
370
    50
100
AcDbLine
 10
135.003911
 20
204.783945
 30
0.0
 11
135.799867
 21
206.970815
 31
0.0
  0
LINE
  5
34
330
1F
100
AcDbEntity
  8
LC-001-002-----0
 62
     7
370
    50
100
AcDbLine
 10
101.003911
 20
217.770815
 30
0.0
 11
101.003911
 21
212.770815
 31
0.0
  0
LINE
  5
35
330
1F
100
AcDbEntity
  8
LC-001-002-----0
 62
     7
370
    50
100
AcDbLine
 10
83.003911
 20
217.770815
 30
0.0
 11
83.003911
 21
212.770815
 31
0.0
  0
LINE
  5
36
330
1F
100
AcDbEntity
  8
LC-001-002-----0
 62
     7
370
    50
100
AcDbLine
 10
77.003911
 20
217.770815
 30
0.0
 11
77.003911
 21
212.770815
 31
0.0
  0
LINE
  5
37
330
1F
100
AcDbEntity
  8
LC-001-002-----0
 62
     7
370
    50
100
AcDbLine
 10
71.003911
 20
217.770815
 30
0.0
 11
71.003911
 21
212.770815
 31
0.0
  0
LINE
  5
38
330
1F
100
AcDbEntity
  8
LC-001-002-----0
 62
     7
370
    50
100
AcDbLine
 10
65.003911
 20
217.770815
 30
0.0
 11
65.003911
 21
212.770815
 31
0.0
  0
LINE
  5
39
330
1F
100
AcDbEntity
  8
LC-001-002-----0
 62
     7
370
    50
100
AcDbLine
 10
59.003911
 20
217.770815
 30
0.0
 11
59.003911
 21
212.770815
 31
0.0
  0
LINE
  5
3A
330
1F
100
AcDbEntity
  8
LC-001-002-----0
 62
     7
370
    50
100
AcDbLine
 10
53.003911
 20
217.770815
 30
0.0
 11
53.003911
 21
212.770815
 31
0.0
  0
LINE
  5
3C
102
{ACAD_REACTORS
330
2AE
102
}
330
1F
100
AcDbEntity
  8
LC-002-001-----0
 62
     7
370
    50
100
AcDbLine
 10
82.986845
 20
212.770815
 30
0.0
 11
92.003911
 21
212.770815
 31
0.0
  0
LINE
  5
3D
102
{ACAD_REACTORS
330
2A0
102
}
330
1F
100
AcDbEntity
  8
LC-002-001-----0
 62
     7
370
    50
100
AcDbLine
 10
100.990138
 20
212.770815
 30
0.0
 11
92.003911
 21
212.770815
 31
0.0
  0
INSERT
  5
4A
330
1F
100
AcDbEntity
  8
LC-003-005-----0
 62
     7
370
    25
100
AcDbBlockReference
  2
*X11
 10
0.0
 20
0.0
 30
0.0
  0
LINE
  5
4B
102
{ACAD_REACTORS
330
29E
102
}
330
1F
100
AcDbEntity
  8
LC-001-002-----0
 62
     7
370
    50
100
AcDbLine
 10
77.003911
 20
217.770815
 30
0.0
 11
73.003911
 21
217.770815
 31
0.0
  0
LINE
  5
4C
102
{ACAD_REACTORS
330
29E
102
}
330
1F
100
AcDbEntity
  8
LC-001-002-----0
 62
     7
370
    50
100
AcDbLine
 10
71.003911
 20
217.770815
 30
0.0
 11
66.003911
 21
217.770815
 31
0.0
  0
LINE
  5
4D
102
{ACAD_REACTORS
330
2AE
102
}
330
1F
100
AcDbEntity
  8
LC-002-001-----0
 62
     7
370
    50
100
AcDbLine
 10
70.074138
 20
212.770815
 30
0.0
 11
77.003911
 21
212.770815
 31
0.0
  0
LINE
  5
4E
102
{ACAD_REACTORS
330
2AE
102
}
330
1F
100
AcDbEntity
  8
LC-002-001-----0
 62
     7
370
    50
100
AcDbLine
 10
77.003911
 20
212.770815
 30
0.0
 11
83.003911
 21
212.770815
 31
0.0
  0
INSERT
  5
55
330
1F
100
AcDbEntity
  8
LC-003-005-----0
 62
     7
370
    25
100
AcDbBlockReference
  2
*X22
 10
0.0
 20
0.0
 30
0.0
  0
INSERT
  5
5D
330
1F
100
AcDbEntity
  8
LC-003-005-----0
 62
     7
370
    25
100
AcDbBlockReference
  2
*X33
 10
0.0
 20
0.0
 30
0.0
  0
INSERT
  5
65
330
1F
100
AcDbEntity
  8
LC-003-005-----0
 62
     7
370
    25
100
AcDbBlockReference
  2
*X44
 10
0.0
 20
0.0
 30
0.0
  0
LINE
  5
66
330
1F
100
AcDbEntity
  8
LC-001-002-----0
 62
     7
370
    50
100
AcDbLine
 10
107.003911
 20
217.770815
 30
0.0
 11
107.003911
 21
212.770815
 31
0.0
  0
INSERT
  5
6E
330
1F
100
AcDbEntity
  8
LC-003-005-----0
 62
     7
370
    25
100
AcDbBlockReference
  2
*X55
 10
0.0
 20
0.0
 30
0.0
  0
LINE
  5
6F
330
1F
100
AcDbEntity
  8
LC-001-002-----0
 62
     7
370
    50
100
AcDbLine
 10
113.003911
 20
217.770815
 30
0.0
 11
113.003911
 21
212.770815
 31
0.0
  0
LINE
  5
70
330
1F
100
AcDbEntity
  8
LC-001-002-----0
 62
     7
370
    50
100
AcDbLine
 10
119.003911
 20
217.770815
 30
0.0
 11
119.003911
 21
212.770815
 31
0.0
  0
INSERT
  5
77
330
1F
100
AcDbEntity
  8
LC-003-005-----0
 62
     7
370
    25
100
AcDbBlockReference
  2
*X66
 10
0.0
 20
0.0
 30
0.0
  0
LINE
  5
78
330
1F
100
AcDbEntity
  8
LC-001-002-----0
 62
     7
370
    50
100
AcDbLine
 10
125.003911
 20
217.770815
 30
0.0
 11
125.003911
 21
212.770815
 31
0.0
  0
LINE
  5
79
330
1F
100
AcDbEntity
  8
LC-001-002-----0
 62
     7
370
    50
100
AcDbLine
 10
131.003911
 20
217.770815
 30
0.0
 11
131.003911
 21
212.770815
 31
0.0
  0
INSERT
  5
81
330
1F
100
AcDbEntity
  8
LC-003-005-----0
 62
     7
370
    25
100
AcDbBlockReference
  2
*X77
 10
0.0
 20
0.0
 30
0.0
  0
LINE
  5
82
330
1F
100
AcDbEntity
  8
LC-001-002-----0
 62
     7
370
    25
100
AcDbLine
 10
53.715629
 20
259.134
 30
0.0
 11
68.715629
 21
259.134
 31
0.0
  0
LINE
  5
83
330
1F
100
AcDbEntity
  8
LC-001-002-----0
 62
     7
370
    25
100
AcDbLine
 10
68.715629
 20
259.134
 30
0.0
 11
68.715629
 21
244.134
 31
0.0
  0
LINE
  5
84
330
1F
100
AcDbEntity
  8
LC-001-002-----0
 62
     7
370
    50
100
AcDbLine
 10
302.003911
 20
202.57308
 30
0.0
 11
259.003911
 21
202.57308
 31
0.0
  0
LINE
  5
85
330
1F
100
AcDbEntity
  8
LC-001-002-----0
 62
     7
370
    50
100
AcDbLine
 10
256.003911
 20
113.57308
 30
0.0
 11
256.003911
 21
199.57308
 31
0.0
  0
LINE
  5
86
330
1F
100
AcDbEntity
  8
LC-001-002-----0
 62
     7
370
    50
100
AcDbLine
 10
302.003911
 20
202.57308
 30
0.0
 11
345.003911
 21
202.57308
 31
0.0
  0
LINE
  5
87
330
1F
100
AcDbEntity
  8
LC-001-002-----0
 62
     7
370
    50
100
AcDbLine
 10
348.003911
 20
113.57308
 30
0.0
 11
348.003911
 21
199.57308
 31
0.0
  0
LINE
  5
88
330
1F
100
AcDbEntity
  8
LC-001-002-----0
 62
     7
370
    50
100
AcDbLine
 10
302.003911
 20
110.57308
 30
0.0
 11
259.003911
 21
110.57308
 31
0.0
  0
LINE
  5
89
330
1F
100
AcDbEntity
  8
LC-001-002-----0
 62
     7
370
    50
100
AcDbLine
 10
302.003911
 20
110.57308
 30
0.0
 11
345.003911
 21
110.57308
 31
0.0
  0
ARC
  5
8B
330
1F
100
AcDbEntity
  8
LC-004-002-RND-0
 62
     7
370
    50
100
AcDbCircle
 10
345.003911
 20
199.57308
 30
0.0
 40
3.0
100
AcDbArc
 50
0.0
 51
90.0
  0
ARC
  5
8C
330
1F
100
AcDbEntity
  8
LC-004-002-RND-0
 62
     7
370
    50
100
AcDbCircle
 10
345.003911
 20
113.57308
 30
0.0
 40
3.0
100
AcDbArc
 50
270.0
 51
0.0
  0
ARC
  5
8D
330
1F
100
AcDbEntity
  8
LC-004-002-RND-0
 62
     7
370
    50
100
AcDbCircle
 10
259.003911
 20
113.57308
 30
0.0
 40
3.0
100
AcDbArc
 50
180.0
 51
270.0
  0
ARC
  5
8E
330
1F
100
AcDbEntity
  8
LC-004-002-RND-0
 62
     7
370
    50
100
AcDbCircle
 10
259.003911
 20
199.57308
 30
0.0
 40
3.0
100
AcDbArc
 50
90.0
 51
180.0
  0
ARC
  5
8F
330
1F
100
AcDbEntity
  8
LC-001-002-----0
 62
     7
370
    50
100
AcDbCircle
 10
302.003911
 20
187.57308
 30
0.0
 40
4.0
100
AcDbArc
 50
0.0
 51
179.999829
  0
ARC
  5
90
330
1F
100
AcDbEntity
  8
LC-001-002-----0
 62
     7
370
    50
100
AcDbCircle
 10
317.003911
 20
187.57308
 30
0.0
 40
4.0
100
AcDbArc
 50
0.0
 51
179.999829
  0
ARC
  5
91
330
1F
100
AcDbEntity
  8
LC-001-002-----0
 62
     7
370
    50
100
AcDbCircle
 10
332.003911
 20
182.57308
 30
0.0
 40
4.0
100
AcDbArc
 50
0.0
 51
179.999829
  0
LINE
  5
92
330
1F
100
AcDbEntity
  8
LC-001-002-----0
 62
     7
370
    50
100
AcDbLine
 10
298.003911
 20
187.57308
 30
0.0
 11
298.003911
 21
156.57308
 31
0.0
  0
LINE
  5
93
330
1F
100
AcDbEntity
  8
LC-001-002-----0
 62
     7
370
    50
100
AcDbLine
 10
306.003911
 20
187.57308
 30
0.0
 11
306.003911
 21
156.570815
 31
0.0
  0
LINE
  5
94
330
1F
100
AcDbEntity
  8
LC-001-002-----0
 62
     7
370
    50
100
AcDbLine
 10
313.003911
 20
187.57308
 30
0.0
 11
313.003911
 21
156.570778
 31
0.0
  0
LINE
  5
95
330
1F
100
AcDbEntity
  8
LC-001-002-----0
 62
     7
370
    50
100
AcDbLine
 10
321.003911
 20
187.57308
 30
0.0
 11
321.003911
 21
155.973632
 31
0.0
  0
LINE
  5
96
330
1F
100
AcDbEntity
  8
LC-001-002-----0
 62
     7
370
    50
100
AcDbLine
 10
328.003911
 20
182.57308
 30
0.0
 11
328.003911
 21
156.570698
 31
0.0
  0
LINE
  5
97
330
1F
100
AcDbEntity
  8
LC-001-002-----0
 62
     7
370
    50
100
AcDbLine
 10
336.003911
 20
182.57308
 30
0.0
 11
336.003911
 21
156.570656
 31
0.0
  0
ARC
  5
98
102
{ACAD_REACTORS
330
2A7
102
}
330
1F
100
AcDbEntity
  8
LC-001-002-----0
 62
     7
370
    50
100
AcDbCircle
 10
272.00409
 20
182.573376
 30
0.0
 40
4.000000000000497
100
AcDbArc
 50
0.000115
 51
179.999963
  0
LINE
  5
99
102
{ACAD_REACTORS
330
2A2
102
}
330
1F
100
AcDbEntity
  8
LC-001-002-----0
 62
     7
370
    50
100
AcDbLine
 10
136.003911
 20
195.970815
 30
0.0
 11
92.003911
 21
195.970815
 31
0.0
  0
LINE
  5
9A
102
{ACAD_REACTORS
330
2A2
102
}
330
1F
100
AcDbEntity
  8
LC-001-002-----0
 62
     7
370
    50
100
AcDbLine
 10
135.003911
 20
202.970815
 30
0.0
 11
135.003911
 21
204.783945
 31
0.0
  0
LINE
  5
9B
330
1F
100
AcDbEntity
  8
LC-001-002-----0
 62
     7
370
    50
100
AcDbLine
 10
140.003911
 20
206.970815
 30
0.0
 11
135.799867
 21
206.970815
 31
0.0
  0
INSERT
  5
C9
330
1F
100
AcDbEntity
  8
LC-003-005-----0
 62
     7
370
    25
100
AcDbBlockReference
  2
*X88
 10
0.0
 20
0.0
 30
0.0
  0
LINE
  5
CA
102
{ACAD_REACTORS
330
2A2
102
}
330
1F
100
AcDbEntity
  8
LC-001-002-----0
 62
     7
370
    50
100
AcDbLine
 10
135.003911
 20
202.970815
 30
0.0
 11
136.003911
 21
201.970815
 31
0.0
  0
LINE
  5
CB
102
{ACAD_REACTORS
330
2A2
102
}
330
1F
100
AcDbEntity
  8
LC-001-002-----0
 62
     7
370
    50
100
AcDbLine
 10
136.003911
 20
201.970815
 30
0.0
 11
136.003911
 21
195.970815
 31
0.0
  0
LINE
  5
CC
102
{ACAD_REACTORS
330
2A7
102
}
330
1F
100
AcDbEntity
  8
LC-001-002-----0
 62
     7
370
    50
100
AcDbLine
 10
298.004094
 20
187.573359
 30
0.0
 11
298.004073
 21
156.570578
 31
0.0
  0
LINE
  5
CD
102
{ACAD_REACTORS
330
2A2
102
}
330
1F
100
AcDbEntity
  8
LC-001-002-----0
 62
     7
370
    50
100
AcDbLine
 10
146.003911
 20
97.470815
 30
0.0
 11
147.003911
 21
98.470815
 31
0.0
  0
LINE
  5
CE
102
{ACAD_REACTORS
330
2A2
102
}
330
1F
100
AcDbEntity
  8
LC-001-002-----0
 62
     7
370
    50
100
AcDbLine
 10
138.003911
 20
195.970815
 30
0.0
 11
136.003911
 21
195.970815
 31
0.0
  0
LINE
  5
CF
102
{ACAD_REACTORS
330
2A7
102
}
330
1F
100
AcDbEntity
  8
LC-001-002-----0
 62
     7
370
    50
100
AcDbLine
 10
291.004094
 20
187.573363
 30
0.0
 11
291.004073
 21
156.570611
 31
0.0
  0
LINE
  5
D0
102
{ACAD_REACTORS
330
2AE
102
}
330
1F
100
AcDbEntity
  8
LC-002-001-----0
 62
     7
370
    50
100
AcDbLine
 10
46.903911
 20
212.770815
 30
0.0
 11
70.074138
 21
212.770815
 31
0.0
  0
LINE
  5
D1
102
{ACAD_REACTORS
330
2AE
102
}
330
1F
100
AcDbEntity
  8
LC-002-001-----0
 62
     7
370
    50
100
AcDbLine
 10
45.903911
 20
218.470815
 30
0.0
 11
92.003911
 21
218.470815
 31
0.0
  0
LINE
  5
D2
102
{ACAD_REACTORS
330
2A7
102
}
330
1F
100
AcDbEntity
  8
LC-001-002-----0
 62
     7
370
    50
100
AcDbLine
 10
283.004094
 20
187.573369
 30
0.0
 11
283.004072
 21
155.180847
 31
0.0
  0
LINE
  5
D3
102
{ACAD_REACTORS
330
2A2
102
}
330
1F
100
AcDbEntity
  8
LC-001-002-----0
 62
     7
370
    50
100
AcDbLine
 10
144.003911
 20
198.728174
 30
0.0
 11
144.003911
 21
97.470815
 31
0.0
  0
LINE
  5
D4
102
{ACAD_REACTORS
330
2AE
102
}
330
1F
100
AcDbEntity
  8
LC-002-001-----0
 62
     7
370
    50
100
AcDbLine
 10
48.303911
 20
207.670815
 30
0.0
 11
92.003911
 21
207.670815
 31
0.0
  0
LINE
  5
D5
102
{ACAD_REACTORS
330
2AE
102
}
330
1F
100
AcDbEntity
  8
LC-002-001-----0
 62
     7
370
    50
100
AcDbLine
 10
46.903911
 20
212.070815
 30
0.0
 11
92.003911
 21
212.070815
 31
0.0
  0
LINE
  5
D6
102
{ACAD_REACTORS
330
2AE
102
}
330
1F
100
AcDbEntity
  8
LC-002-001-----0
 62
     7
370
    50
100
AcDbLine
 10
48.803911
 20
206.470815
 30
0.0
 11
48.803911
 21
201.970815
 31
0.0
  0
LINE
  5
D7
102
{ACAD_REACTORS
330
2AE
102
}
330
1F
100
AcDbEntity
  8
LC-002-001-----0
 62
     7
370
    50
100
AcDbLine
 10
49.503911
 20
206.470815
 30
0.0
 11
49.503911
 21
201.270815
 31
0.0
  0
LINE
  5
D8
102
{ACAD_REACTORS
330
2AE
102
}
330
1F
100
AcDbEntity
  8
LC-002-001-----0
 62
     7
370
    50
100
AcDbLine
 10
45.903911
 20
216.770815
 30
0.0
 11
45.903911
 21
213.770815
 31
0.0
  0
LINE
  5
D9
102
{ACAD_REACTORS
330
2AE
102
}
330
1F
100
AcDbEntity
  8
LC-002-001-----0
 62
     7
370
    50
100
AcDbLine
 10
45.203911
 20
216.770815
 30
0.0
 11
45.203911
 21
210.270815
 31
0.0
  0
ARC
  5
DA
102
{ACAD_REACTORS
330
2AE
102
}
330
1F
100
AcDbEntity
  8
LC-002-001-----0
 62
     7
370
    50
100
AcDbCircle
 10
48.303911
 20
206.470815
 30
0.0
 40
0.5
100
AcDbArc
 50
0.0
 51
90.0
  0
LINE
  5
DB
102
{ACAD_REACTORS
330
2AE
102
}
330
1F
100
AcDbEntity
  8
LC-002-001-----0
 62
     7
370
    50
100
AcDbLine
 10
48.303911
 20
206.970815
 30
0.0
 11
46.903911
 21
206.970815
 31
0.0
  0
LINE
  5
DC
102
{ACAD_REACTORS
330
2AE
102
}
330
1F
100
AcDbEntity
  8
LC-002-001-----0
 62
     7
370
    50
100
AcDbLine
 10
45.203911
 20
210.270815
 30
0.0
 11
45.203911
 21
208.670815
 31
0.0
  0
ARC
  5
DD
102
{ACAD_REACTORS
330
2AE
102
}
330
1F
100
AcDbEntity
  8
LC-002-001-----0
 62
     7
370
    50
100
AcDbCircle
 10
46.903911
 20
208.670815
 30
0.0
 40
1.0
100
AcDbArc
 50
180.0
 51
270.0
  0
LINE
  5
DE
102
{ACAD_REACTORS
330
2AE
102
}
330
1F
100
AcDbEntity
  8
LC-002-001-----0
 62
     7
370
    50
100
AcDbLine
 10
46.903911
 20
206.970815
 30
0.0
 11
48.303911
 21
206.970815
 31
0.0
  0
LINE
  5
DF
102
{ACAD_REACTORS
330
2A7
102
}
330
1F
100
AcDbEntity
  8
LC-001-002-----0
 62
     7
370
    50
100
AcDbLine
 10
276.00409
 20
182.573373
 30
0.0
 11
276.004073
 21
156.570681
 31
0.0
  0
LINE
  5
E0
102
{ACAD_REACTORS
330
2AE
102
}
330
1F
100
AcDbEntity
  8
LC-002-001-----0
 62
     7
370
    50
100
AcDbLine
 10
46.903911
 20
207.670815
 30
0.0
 11
48.303911
 21
207.670815
 31
0.0
  0
LINE
  5
E1
102
{ACAD_REACTORS
330
2A2
102
}
330
1F
100
AcDbEntity
  8
LC-001-002-----0
 62
     7
370
    50
100
AcDbLine
 10
147.003911
 20
98.470815
 30
0.0
 11
147.003911
 21
143.094189
 31
0.0
  0
LINE
  5
E2
102
{ACAD_REACTORS
330
2A2
102
}
330
1F
100
AcDbEntity
  8
LC-001-002-----0
  6
DASHED
 62
     7
370
    25
100
AcDbLine
 10
147.003911
 20
143.094189
 30
0.0
 11
147.003911
 21
199.970815
 31
0.0
  0
LINE
  5
E3
102
{ACAD_REACTORS
330
2A7
102
}
330
1F
100
AcDbEntity
  8
LC-001-002-----0
 62
     7
370
    50
100
AcDbLine
 10
268.00409
 20
182.573379
 30
0.0
 11
268.004073
 21
156.570718
 31
0.0
  0
ARC
  5
E4
102
{ACAD_REACTORS
330
2A6
102
}
330
1F
100
AcDbEntity
  8
LC-001-002-----0
 62
     7
370
    50
100
AcDbCircle
 10
287.004094
 20
187.573366
 30
0.0
 40
4.000000000000497
100
AcDbArc
 50
0.000115
 51
179.999963
  0
ARC
  5
E5
102
{ACAD_REACTORS
330
2AD
102
}
330
1F
100
AcDbEntity
  8
LC-001-002-----0
 62
     7
370
    50
100
AcDbCircle
 10
302.00243
 20
125.570836
 30
0.0
 40
4.000000000000461
100
AcDbArc
 50
179.999925
 51
359.999696
  0
LINE
  5
E6
102
{ACAD_REACTORS
330
2AD
102
}
330
1F
100
AcDbEntity
  8
LC-001-002-----0
 62
     7
370
    50
100
AcDbLine
 10
298.00243
 20
125.570857
 30
0.0
 11
298.002594
 21
156.570857
 31
0.0
  0
ARC
  5
E7
102
{ACAD_REACTORS
330
2AC
102
}
330
1F
100
AcDbEntity
  8
LC-001-002-----0
 62
     7
370
    50
100
AcDbCircle
 10
272.002636
 20
130.570699
 30
0.0
 40
4.000000000000565
100
AcDbArc
 50
179.999733
 51
359.999544
  0
LINE
  5
E8
102
{ACAD_REACTORS
330
2AC
102
}
330
1F
100
AcDbEntity
  8
LC-001-002-----0
 62
     7
370
    50
100
AcDbLine
 10
291.002612
 20
125.570611
 30
0.0
 11
291.002757
 21
156.570611
 31
0.0
  0
LINE
  5
E9
102
{ACAD_REACTORS
330
2AC
102
}
330
1F
100
AcDbEntity
  8
LC-001-002-----0
 62
     7
370
    50
100
AcDbLine
 10
283.002612
 20
125.570648
 30
0.0
 11
283.002757
 21
156.570648
 31
0.0
  0
LINE
  5
EA
102
{ACAD_REACTORS
330
2AC
102
}
330
1F
100
AcDbEntity
  8
LC-001-002-----0
 62
     7
370
    50
100
AcDbLine
 10
276.002636
 20
130.570681
 30
0.0
 11
276.002757
 21
156.570681
 31
0.0
  0
LINE
  5
EB
102
{ACAD_REACTORS
330
2AE
102
}
330
1F
100
AcDbEntity
  8
LC-002-001-----0
 62
     7
370
    50
100
AcDbLine
 10
45.903911
 20
213.770815
 30
0.0
 11
45.903911
 21
208.670815
 31
0.0
  0
ARC
  5
EC
102
{ACAD_REACTORS
330
2AE
102
}
330
1F
100
AcDbEntity
  8
LC-002-001-----0
 62
     7
370
    50
100
AcDbCircle
 10
46.903911
 20
213.770815
 30
0.0
 40
1.700000000000024
100
AcDbArc
 50
233.968121
 51
270.0
  0
LINE
  5
ED
102
{ACAD_REACTORS
330
2A2
102
}
330
1F
100
AcDbEntity
  8
LC-001-002-----0
  6
DASHED
 62
     7
370
    25
100
AcDbLine
 10
147.003911
 20
199.970815
 30
0.0
 11
145.162402
 21
201.812324
 31
0.0
  0
LINE
  5
EE
102
{ACAD_REACTORS
330
2A2
102
}
330
1F
100
AcDbEntity
  8
LC-001-002-----0
 62
     7
370
    50
100
AcDbLine
 10
145.162402
 20
201.812324
 30
0.0
 11
140.003911
 21
206.970815
 31
0.0
  0
ARC
  5
EF
102
{ACAD_REACTORS
330
2AE
102
}
330
1F
100
AcDbEntity
  8
LC-002-001-----0
 62
     7
370
    50
100
AcDbCircle
 10
46.903911
 20
213.770815
 30
0.0
 40
1.0
100
AcDbArc
 50
180.0
 51
270.0
  0
LINE
  5
F0
102
{ACAD_REACTORS
330
2A2
102
}
330
1F
100
AcDbEntity
  8
LC-001-002-----0
 62
     7
370
    50
100
AcDbLine
 10
139.711018
 20
203.021067
 30
0.0
 11
144.003911
 21
198.728174
 31
0.0
  0
ARC
  5
F1
102
{ACAD_REACTORS
330
2AE
102
}
330
1F
100
AcDbEntity
  8
LC-002-001-----0
 62
     7
370
    50
100
AcDbCircle
 10
48.303911
 20
206.470815
 30
0.0
 40
1.200000000000046
100
AcDbArc
 50
360.0
 51
90.0
  0
ARC
  5
F2
102
{ACAD_REACTORS
330
2AE
102
}
330
1F
100
AcDbEntity
  8
LC-002-001-----0
 62
     7
370
    50
100
AcDbCircle
 10
46.903911
 20
208.670815
 30
0.0
 40
1.700000000000046
100
AcDbArc
 50
180.0
 51
270.0
  0
LINE
  5
F3
102
{ACAD_REACTORS
330
2AE
102
}
330
1F
100
AcDbEntity
  8
LC-002-001-----0
 62
     7
370
    50
100
AcDbLine
 10
44.203911
 20
217.770815
 30
0.0
 11
43.703911
 21
217.770815
 31
0.0
  0
LINE
  5
F4
102
{ACAD_REACTORS
330
2AE
102
}
330
1F
100
AcDbEntity
  8
LC-002-001-----0
 62
     7
370
    50
100
AcDbLine
 10
44.203911
 20
218.470815
 30
0.0
 11
43.703911
 21
218.470815
 31
0.0
  0
ARC
  5
F5
102
{ACAD_REACTORS
330
2A1
102
}
330
1F
100
AcDbEntity
  8
LC-001-002-----0
 62
     7
370
    50
100
AcDbCircle
 10
302.003911
 20
156.570815
 30
0.0
 40
55.00000000011263
100
AcDbArc
 50
156.661707
 51
203.338293
  0
ARC
  5
F6
102
{ACAD_REACTORS
330
2AE
102
}
330
1F
100
AcDbEntity
  8
LC-002-001-----0
 62
     7
370
    50
100
AcDbCircle
 10
43.703911
 20
216.770815
 30
0.0
 40
1.0
100
AcDbArc
 50
90.0
 51
180.0
  0
ARC
  5
F7
102
{ACAD_REACTORS
330
2AE
102
}
330
1F
100
AcDbEntity
  8
LC-002-001-----0
 62
     7
370
    50
100
AcDbCircle
 10
43.703911
 20
216.770815
 30
0.0
 40
1.699999999999989
100
AcDbArc
 50
90.0
 51
180.0
  0
ARC
  5
F8
102
{ACAD_REACTORS
330
2A2
102
}
330
1F
100
AcDbEntity
  8
LC-004-002-RND-0
 62
     7
370
    50
100
AcDbCircle
 10
139.003911
 20
202.31396
 30
0.0
 40
1.000000000000008
100
AcDbArc
 50
45.0
 51
180.0
  0
LINE
  5
F9
102
{ACAD_REACTORS
330
2AE
102
}
330
1F
100
AcDbEntity
  8
LC-002-001-----0
 62
     7
370
    50
100
AcDbLine
 10
42.003911
 20
216.770815
 30
0.0
 11
42.003911
 21
213.230407
 31
0.0
  0
LINE
  5
FA
102
{ACAD_REACTORS
330
2AE
102
}
330
1F
100
AcDbEntity
  8
LC-002-001-----0
 62
     7
370
    50
100
AcDbLine
 10
42.703911
 20
213.230407
 30
0.0
 11
42.703911
 21
216.770815
 31
0.0
  0
ARC
  5
FB
102
{ACAD_REACTORS
330
2AE
102
}
330
1F
100
AcDbEntity
  8
LC-002-001-----0
 62
     7
370
    50
100
AcDbCircle
 10
44.203911
 20
216.770815
 30
0.0
 40
1.000000000000014
100
AcDbArc
 50
360.0
 51
90.0
  0
ARC
  5
FC
102
{ACAD_REACTORS
330
2AE
102
}
330
1F
100
AcDbEntity
  8
LC-002-001-----0
 62
     7
370
    50
100
AcDbCircle
 10
44.203911
 20
216.770815
 30
0.0
 40
1.000000000000014
100
AcDbArc
 50
360.0
 51
90.0
  0
LINE
  5
FD
102
{ACAD_REACTORS
330
2A2
102
}
330
1F
100
AcDbEntity
  8
LC-001-002-----0
 62
     7
370
    50
100
AcDbLine
 10
146.003911
 20
97.470815
 30
0.0
 11
144.003911
 21
97.470815
 31
0.0
  0
ARC
  5
FE
102
{ACAD_REACTORS
330
2AE
102
}
330
1F
100
AcDbEntity
  8
LC-002-001-----0
 62
     7
370
    50
100
AcDbCircle
 10
44.203911
 20
216.770815
 30
0.0
 40
1.70000000000006
100
AcDbArc
 50
360.0
 51
90.0
  0
LINE
  5
FF
102
{ACAD_REACTORS
330
2AE
102
}
330
1F
100
AcDbEntity
  8
LC-002-001-----0
 62
     7
370
    50
100
AcDbLine
 10
45.903911
 20
218.470815
 30
0.0
 11
44.203911
 21
218.470815
 31
0.0
  0
LINE
  5
100
102
{ACAD_REACTORS
330
2AE
102
}
330
1F
100
AcDbEntity
  8
LC-001-002-----0
 62
     7
370
    50
100
AcDbLine
 10
49.240065
 20
197.702135
 30
0.0
 11
49.85419
 21
198.061505
 31
0.0
  0
LINE
  5
101
102
{ACAD_REACTORS
330
2AC
102
}
330
1F
100
AcDbEntity
  8
LC-001-002-----0
 62
     7
370
    50
100
AcDbLine
 10
268.002636
 20
130.570718
 30
0.0
 11
268.002757
 21
156.570718
 31
0.0
  0
LINE
  5
102
102
{ACAD_REACTORS
330
2A5
102
}
330
1F
100
AcDbEntity
  8
LC-002-001-----0
 62
     7
370
    50
100
AcDbLine
 10
251.503911
 20
201.07308
 30
0.0
 11
251.503911
 21
112.07308
 31
0.0
  0
LINE
  5
103
102
{ACAD_REACTORS
330
2A5
102
}
330
1F
100
AcDbEntity
  8
LC-001-002-----0
 62
     7
370
    50
100
AcDbLine
 10
346.503911
 20
206.57308
 30
0.0
 11
257.503911
 21
206.57308
 31
0.0
  0
LINE
  5
104
102
{ACAD_REACTORS
330
2A5
102
}
330
1F
100
AcDbEntity
  8
LC-002-001-----0
 62
     7
370
    50
100
AcDbLine
 10
352.503911
 20
112.07308
 30
0.0
 11
352.503911
 21
201.07308
 31
0.0
  0
ARC
  5
105
102
{ACAD_REACTORS
330
2A5
102
}
330
1F
100
AcDbEntity
  8
LC-001-002-----0
 62
     7
370
    50
100
AcDbCircle
 10
257.503911
 20
201.07308
 30
0.0
 40
5.5
100
AcDbArc
 50
90.0
 51
180.0
  0
ARC
  5
106
102
{ACAD_REACTORS
330
2AB
102
}
330
1F
100
AcDbEntity
  8
LC-001-002-----0
 62
     7
370
    50
100
AcDbCircle
 10
287.002612
 20
125.570629
 30
0.0
 40
4.000000000000565
100
AcDbArc
 50
179.999733
 51
359.999544
  0
ARC
  5
107
102
{ACAD_REACTORS
330
2AA
102
}
330
1F
100
AcDbEntity
  8
LC-001-002-----0
 62
     7
370
    50
100
AcDbCircle
 10
332.002456
 20
130.570677
 30
0.0
 40
4.000000000000688
100
AcDbArc
 50
179.999925
 51
359.999696
  0
ARC
  5
108
102
{ACAD_REACTORS
330
2AE
102
}
330
1F
100
AcDbEntity
  8
LC-001-002-----0
 62
     7
370
    50
100
AcDbCircle
 10
48.828911
 20
201.170815
 30
0.0
 40
0.800000000000772
100
AcDbArc
 50
91.790785
 51
200.0
  0
ARC
  5
109
102
{ACAD_REACTORS
330
2AE
102
}
330
1F
100
AcDbEntity
  8
LC-001-002-----0
 62
     7
370
    50
100
AcDbCircle
 10
40.503911
 20
213.230407
 30
0.0
 40
1.50000000000022
100
AcDbArc
 50
311.810315
 51
360.0
  0
LINE
  5
10A
102
{ACAD_REACTORS
330
2AA
102
}
330
1F
100
AcDbEntity
  8
LC-001-002-----0
 62
     7
370
    50
100
AcDbLine
 10
306.00243
 20
125.570815
 30
0.0
 11
306.002594
 21
156.570815
 31
0.0
  0
LINE
  5
10B
102
{ACAD_REACTORS
330
2A5
102
}
330
1F
100
AcDbEntity
  8
LC-002-001-----0
 62
     7
370
    50
100
AcDbLine
 10
257.503911
 20
106.07308
 30
0.0
 11
346.503911
 21
106.07308
 31
0.0
  0
LINE
  5
10C
102
{ACAD_REACTORS
330
2A5
102
}
330
1F
100
AcDbEntity
  8
LC-001-002-----0
 62
     7
370
    50
100
AcDbLine
 10
252.003911
 20
201.07308
 30
0.0
 11
252.003911
 21
112.07308
 31
0.0
  0
LINE
  5
10D
102
{ACAD_REACTORS
330
2AA
102
}
330
1F
100
AcDbEntity
  8
LC-001-002-----0
 62
     7
370
    50
100
AcDbLine
 10
313.00243
 20
125.570778
 30
0.0
 11
313.002594
 21
156.570778
 31
0.0
  0
ARC
  5
10E
102
{ACAD_REACTORS
330
2A5
102
}
330
1F
100
AcDbEntity
  8
LC-001-002-----0
 62
     7
370
    50
100
AcDbCircle
 10
257.503911
 20
112.07308
 30
0.0
 40
5.500000000000028
100
AcDbArc
 50
180.0
 51
270.0
  0
ARC
  5
10F
102
{ACAD_REACTORS
330
2A5
102
}
330
1F
100
AcDbEntity
  8
LC-002-001-----0
 62
     7
370
    50
100
AcDbCircle
 10
257.503911
 20
112.07308
 30
0.0
 40
6.000000000000028
100
AcDbArc
 50
180.0
 51
270.0
  0
LINE
  5
110
102
{ACAD_REACTORS
330
2AA
102
}
330
1F
100
AcDbEntity
  8
LC-001-002-----0
 62
     7
370
    50
100
AcDbLine
 10
321.00243
 20
125.570735
 30
0.0
 11
321.002594
 21
156.570735
 31
0.0
  0
ARC
  5
111
102
{ACAD_REACTORS
330
2A5
102
}
330
1F
100
AcDbEntity
  8
LC-002-001-----0
 62
     7
370
    50
100
AcDbCircle
 10
346.503911
 20
112.07308
 30
0.0
 40
6.0
100
AcDbArc
 50
270.0
 51
0.0
  0
LINE
  5
112
102
{ACAD_REACTORS
330
2A5
102
}
330
1F
100
AcDbEntity
  8
LC-001-002-----0
 62
     7
370
    50
100
AcDbLine
 10
257.503911
 20
106.57308
 30
0.0
 11
346.503911
 21
106.57308
 31
0.0
  0
LINE
  5
113
102
{ACAD_REACTORS
330
2AA
102
}
330
1F
100
AcDbEntity
  8
LC-001-002-----0
 62
     7
370
    50
100
AcDbLine
 10
328.002456
 20
130.570698
 30
0.0
 11
328.002594
 21
156.570698
 31
0.0
  0
ARC
  5
114
102
{ACAD_REACTORS
330
2A5
102
}
330
1F
100
AcDbEntity
  8
LC-001-002-----0
 62
     7
370
    50
100
AcDbCircle
 10
346.503911
 20
112.07308
 30
0.0
 40
5.5
100
AcDbArc
 50
270.0
 51
0.0
  0
LINE
  5
115
102
{ACAD_REACTORS
330
2A5
102
}
330
1F
100
AcDbEntity
  8
LC-002-001-----0
 62
     7
370
    50
100
AcDbLine
 10
346.503911
 20
207.07308
 30
0.0
 11
257.503911
 21
207.07308
 31
0.0
  0
LINE
  5
116
102
{ACAD_REACTORS
330
2AA
102
}
330
1F
100
AcDbEntity
  8
LC-001-002-----0
 62
     7
370
    50
100
AcDbLine
 10
336.002456
 20
130.570656
 30
0.0
 11
336.002597
 21
157.132648
 31
0.0
  0
ARC
  5
117
102
{ACAD_REACTORS
330
2A5
102
}
330
1F
100
AcDbEntity
  8
LC-002-001-----0
 62
     7
370
    50
100
AcDbCircle
 10
257.503911
 20
201.07308
 30
0.0
 40
6.0
100
AcDbArc
 50
90.0
 51
180.0
  0
LINE
  5
118
102
{ACAD_REACTORS
330
2A5
102
}
330
1F
100
AcDbEntity
  8
LC-001-002-----0
 62
     7
370
    50
100
AcDbLine
 10
352.003911
 20
112.07308
 30
0.0
 11
352.003911
 21
201.07308
 31
0.0
  0
ARC
  5
119
102
{ACAD_REACTORS
330
2A9
102
}
330
1F
100
AcDbEntity
  8
LC-001-002-----0
 62
     7
370
    50
100
AcDbCircle
 10
317.00243
 20
125.570756
 30
0.0
 40
4.000000000000688
100
AcDbArc
 50
179.999925
 51
359.999696
  0
ARC
  5
11A
102
{ACAD_REACTORS
330
2A5
102
}
330
1F
100
AcDbEntity
  8
LC-002-001-----0
 62
     7
370
    50
100
AcDbCircle
 10
346.503911
 20
201.07308
 30
0.0
 40
6.0
100
AcDbArc
 50
360.0
 51
90.0
  0
ARC
  5
11B
102
{ACAD_REACTORS
330
2A5
102
}
330
1F
100
AcDbEntity
  8
LC-001-002-----0
 62
     7
370
    50
100
AcDbCircle
 10
346.503911
 20
201.07308
 30
0.0
 40
5.5
100
AcDbArc
 50
0.0
 51
90.0
  0
ARC
  5
11C
102
{ACAD_REACTORS
330
2AE
102
}
330
1F
100
AcDbEntity
  8
LC-001-002-----0
 62
     7
370
    50
100
AcDbCircle
 10
40.503911
 20
213.230407
 30
0.0
 40
2.199999999999869
100
AcDbArc
 50
297.035692
 51
360.0
  0
LINE
  5
11D
102
{ACAD_REACTORS
330
2AE
102
}
330
1F
100
AcDbEntity
  8
LC-001-002-----0
 62
     7
370
    50
100
AcDbLine
 10
48.686096
 20
201.270815
 30
0.0
 11
49.85419
 21
198.061505
 31
0.0
  0
CIRCLE
  5
11E
330
1F
100
AcDbEntity
  8
LC-001-002-----0
 62
     7
370
    50
100
AcDbCircle
 10
340.003911
 20
194.57308
 30
0.0
 40
4.5
  0
LINE
  5
11F
330
1F
100
AcDbEntity
  8
LC-001-002-----0
 62
     7
370
    50
100
AcDbLine
 10
340.503911
 20
197.07308
 30
0.0
 11
339.503911
 21
197.07308
 31
0.0
  0
LINE
  5
120
330
1F
100
AcDbEntity
  8
LC-001-002-----0
 62
     7
370
    50
100
AcDbLine
 10
339.503911
 20
197.07308
 30
0.0
 11
339.503911
 21
195.07308
 31
0.0
  0
LINE
  5
121
330
1F
100
AcDbEntity
  8
LC-001-002-----0
 62
     7
370
    50
100
AcDbLine
 10
339.503911
 20
192.07308
 30
0.0
 11
340.503911
 21
192.07308
 31
0.0
  0
LINE
  5
122
330
1F
100
AcDbEntity
  8
LC-001-002-----0
 62
     7
370
    50
100
AcDbLine
 10
340.503911
 20
192.07308
 30
0.0
 11
340.503911
 21
194.07308
 31
0.0
  0
LINE
  5
123
330
1F
100
AcDbEntity
  8
LC-001-002-----0
 62
     7
370
    50
100
AcDbLine
 10
342.503911
 20
195.07308
 30
0.0
 11
342.503911
 21
194.07308
 31
0.0
  0
LINE
  5
124
330
1F
100
AcDbEntity
  8
LC-001-002-----0
 62
     7
370
    50
100
AcDbLine
 10
342.503911
 20
194.07308
 30
0.0
 11
340.503911
 21
194.07308
 31
0.0
  0
LINE
  5
125
330
1F
100
AcDbEntity
  8
LC-001-002-----0
 62
     7
370
    50
100
AcDbLine
 10
337.503911
 20
194.07308
 30
0.0
 11
337.503911
 21
195.07308
 31
0.0
  0
LINE
  5
126
330
1F
100
AcDbEntity
  8
LC-001-002-----0
 62
     7
370
    50
100
AcDbLine
 10
337.503911
 20
195.07308
 30
0.0
 11
339.503911
 21
195.07308
 31
0.0
  0
LINE
  5
127
330
1F
100
AcDbEntity
  8
LC-001-002-----0
 62
     7
370
    50
100
AcDbLine
 10
340.503911
 20
195.07308
 30
0.0
 11
342.503911
 21
195.07308
 31
0.0
  0
LINE
  5
128
330
1F
100
AcDbEntity
  8
LC-001-002-----0
 62
     7
370
    50
100
AcDbLine
 10
340.503911
 20
195.07308
 30
0.0
 11
340.503911
 21
197.07308
 31
0.0
  0
LINE
  5
129
330
1F
100
AcDbEntity
  8
LC-001-002-----0
 62
     7
370
    50
100
AcDbLine
 10
339.503911
 20
194.07308
 30
0.0
 11
339.503911
 21
192.07308
 31
0.0
  0
LINE
  5
12A
330
1F
100
AcDbEntity
  8
LC-001-002-----0
 62
     7
370
    50
100
AcDbLine
 10
339.503911
 20
194.07308
 30
0.0
 11
337.503911
 21
194.07308
 31
0.0
  0
CIRCLE
  5
12B
102
{ACAD_REACTORS
330
2A8
102
}
330
1F
100
AcDbEntity
  8
LC-001-002-----0
 62
     7
370
    50
100
AcDbCircle
 10
264.00361
 20
118.573267
 30
0.0
 40
4.500000000000222
  0
LINE
  5
12C
102
{ACAD_REACTORS
330
2A8
102
}
330
1F
100
AcDbEntity
  8
LC-001-002-----0
 62
     7
370
    50
100
AcDbLine
 10
261.50361
 20
118.073269
 30
0.0
 11
261.50361
 21
119.073269
 31
0.0
  0
LINE
  5
12D
102
{ACAD_REACTORS
330
2A8
102
}
330
1F
100
AcDbEntity
  8
LC-001-002-----0
 62
     7
370
    50
100
AcDbLine
 10
261.50361
 20
119.073269
 30
0.0
 11
263.50361
 21
119.073267
 31
0.0
  0
LINE
  5
12E
102
{ACAD_REACTORS
330
2A8
102
}
330
1F
100
AcDbEntity
  8
LC-001-002-----0
 62
     7
370
    50
100
AcDbLine
 10
266.50361
 20
119.073265
 30
0.0
 11
266.50361
 21
118.073265
 31
0.0
  0
LINE
  5
12F
102
{ACAD_REACTORS
330
2A8
102
}
330
1F
100
AcDbEntity
  8
LC-001-002-----0
 62
     7
370
    50
100
AcDbLine
 10
266.50361
 20
118.073265
 30
0.0
 11
264.50361
 21
118.073267
 31
0.0
  0
LINE
  5
130
102
{ACAD_REACTORS
330
2A8
102
}
330
1F
100
AcDbEntity
  8
LC-001-002-----0
 62
     7
370
    50
100
AcDbLine
 10
263.503608
 20
116.073267
 30
0.0
 11
264.503608
 21
116.073267
 31
0.0
  0
LINE
  5
131
102
{ACAD_REACTORS
330
2A8
102
}
330
1F
100
AcDbEntity
  8
LC-001-002-----0
 62
     7
370
    50
100
AcDbLine
 10
264.503608
 20
116.073267
 30
0.0
 11
264.50361
 21
118.073267
 31
0.0
  0
LINE
  5
132
102
{ACAD_REACTORS
330
2A8
102
}
330
1F
100
AcDbEntity
  8
LC-001-002-----0
 62
     7
370
    50
100
AcDbLine
 10
264.503612
 20
121.073267
 30
0.0
 11
263.503612
 21
121.073267
 31
0.0
  0
LINE
  5
133
102
{ACAD_REACTORS
330
2A8
102
}
330
1F
100
AcDbEntity
  8
LC-001-002-----0
 62
     7
370
    50
100
AcDbLine
 10
263.503612
 20
121.073267
 30
0.0
 11
263.50361
 21
119.073267
 31
0.0
  0
LINE
  5
134
102
{ACAD_REACTORS
330
2A8
102
}
330
1F
100
AcDbEntity
  8
LC-001-002-----0
 62
     7
370
    50
100
AcDbLine
 10
263.50361
 20
118.073267
 30
0.0
 11
263.503608
 21
116.073267
 31
0.0
  0
LINE
  5
135
102
{ACAD_REACTORS
330
2A8
102
}
330
1F
100
AcDbEntity
  8
LC-001-002-----0
 62
     7
370
    50
100
AcDbLine
 10
263.50361
 20
118.073267
 30
0.0
 11
261.50361
 21
118.073269
 31
0.0
  0
LINE
  5
136
102
{ACAD_REACTORS
330
2A8
102
}
330
1F
100
AcDbEntity
  8
LC-001-002-----0
 62
     7
370
    50
100
AcDbLine
 10
264.50361
 20
119.073267
 30
0.0
 11
266.50361
 21
119.073265
 31
0.0
  0
LINE
  5
137
102
{ACAD_REACTORS
330
2A8
102
}
330
1F
100
AcDbEntity
  8
LC-001-002-----0
 62
     7
370
    50
100
AcDbLine
 10
264.50361
 20
119.073267
 30
0.0
 11
264.503612
 21
121.073267
 31
0.0
  0
ARC
  5
138
102
{ACAD_REACTORS
330
2A1
102
}
330
1F
100
AcDbEntity
  8
LC-001-002-----0
 62
     7
370
    50
100
AcDbCircle
 10
302.003911
 20
156.570815
 30
0.0
 40
55.00000000011258
100
AcDbArc
 50
65.385688
 51
114.614312
  0
LINE
  5
139
330
1F
100
AcDbEntity
  8
LC-001-002-----0
 62
     7
370
    50
100
AcDbLine
 10
298.003911
 20
156.57308
 30
0.0
 11
298.003911
 21
125.461917
 31
0.0
  0
INSERT
  5
149
102
{ACAD_REACTORS
330
2AE
102
}
330
1F
100
AcDbEntity
  8
LC-003-005-----0
 62
     7
370
    25
100
AcDbBlockReference
  2
*X99
 10
0.0
 20
0.0
 30
0.0
  0
LINE
  5
14A
102
{ACAD_REACTORS
330
2AE
102
}
330
1F
100
AcDbEntity
  8
LC-001-002-----0
 62
     7
370
    50
100
AcDbLine
 10
49.85419
 20
198.061505
 30
0.0
 11
92.003911
 21
198.061505
 31
0.0
  0
ARC
  5
14B
102
{ACAD_REACTORS
330
2A1
102
}
330
1F
100
AcDbEntity
  8
LC-001-002-----0
 62
     7
370
    50
100
AcDbCircle
 10
302.003911
 20
156.570815
 30
0.0
 40
55.00000000011261
100
AcDbArc
 50
336.661707
 51
23.338293
  0
DIMENSION
  5
14F
330
1F
100
AcDbEntity
  8
LC-005-003-----0
 62
     7
370
    25
100
AcDbDimension
  2
*D10
 10
0.0
 20
211.270815
 30
0.0
 11
-30.8
 21
177.606
 31
0.0
 70
   160
  1
7
 71
     5
 42
7.2
 53
90.0
  3
LC-DIM-L-0140-02-02
100
AcDbAlignedDimension
 13
44.203911
 23
218.470815
 33
0.0
 14
41.503911
 24
211.270815
 34
0.0
 50
90.0
100
AcDbRotatedDimension
  0
ARC
  5
15E
102
{ACAD_REACTORS
330
2A1
102
}
330
1F
100
AcDbEntity
  8
LC-001-002-----0
 62
     7
370
    50
100
AcDbCircle
 10
302.003911
 20
156.570815
 30
0.0
 40
55.00000000011262
100
AcDbArc
 50
246.655751
 51
293.344249
  0
LINE
  5
15F
330
1F
100
AcDbEntity
  8
LC-001-002-----0
 62
     7
370
    50
100
AcDbLine
 10
41.503911
 20
211.270815
 30
0.0
 11
45.203911
 21
211.270815
 31
0.0
  0
LINE
  5
160
330
1F
100
AcDbEntity
  8
LC-001-002-----0
 62
     7
370
    50
100
AcDbLine
 10
135.003911
 20
195.970815
 30
0.0
 11
92.003911
 21
195.970815
 31
0.0
  0
LINE
  5
161
102
{ACAD_REACTORS
330
2AE
102
}
330
1F
100
AcDbEntity
  8
LC-001-002-----0
 62
     7
370
    50
100
AcDbLine
 10
92.003911
 20
201.270815
 30
0.0
 11
48.686096
 21
201.270815
 31
0.0
  0
LINE
  5
162
102
{ACAD_REACTORS
330
2AE
102
}
330
1F
100
AcDbEntity
  8
LC-001-002-----0
 62
     7
370
    50
100
AcDbLine
 10
41.503911
 20
212.112373
 30
0.0
 11
41.503911
 21
211.270815
 31
0.0
  0
LINE
  5
163
102
{ACAD_REACTORS
330
2AE
102
}
330
1F
100
AcDbEntity
  8
LC-001-002-----0
 62
     7
370
    50
100
AcDbLine
 10
49.240065
 20
197.702135
 30
0.0
 11
92.003911
 21
197.702135
 31
0.0
  0
LINE
  5
164
102
{ACAD_REACTORS
330
2AE
102
}
330
1F
100
AcDbEntity
  8
LC-001-002-----0
 62
     7
370
    50
100
AcDbLine
 10
48.077157
 20
200.897199
 30
0.0
 11
49.240065
 21
197.702135
 31
0.0
  0
ARC
  5
165
102
{ACAD_REACTORS
330
29E
102
}
330
1F
100
AcDbEntity
  8
LC-004-002-RND-0
 62
     7
370
    50
100
AcDbCircle
 10
47.503911
 20
216.770815
 30
0.0
 40
1.0
100
AcDbArc
 50
90.0
 51
180.0
  0
DIMENSION
  5
166
330
1F
100
AcDbEntity
  8
LC-005-003-----0
 62
     7
370
    25
100
AcDbDimension
  2
*D11
 10
142.003911
 20
233.442
 30
0.0
 11
105.583617
 21
264.242
 31
0.0
 70
   160
 71
     5
 42
100.0
  3
LC-DIM-L-0140-02-02
100
AcDbAlignedDimension
 13
42.003911
 23
215.370815
 33
0.0
 14
142.003911
 24
215.370815
 34
0.0
100
AcDbRotatedDimension
  0
LINE
  5
173
102
{ACAD_REACTORS
330
29E
102
}
330
1F
100
AcDbEntity
  8
LC-001-002-----0
 62
     7
370
    50
100
AcDbLine
 10
48.003911
 20
212.770815
 30
0.0
 11
46.503911
 21
212.770815
 31
0.0
  0
LINE
  5
174
102
{ACAD_REACTORS
330
29E
102
}
330
1F
100
AcDbEntity
  8
LC-001-002-----0
 62
     7
370
    50
100
AcDbLine
 10
46.503911
 20
212.770815
 30
0.0
 11
46.503911
 21
216.770815
 31
0.0
  0
LINE
  5
175
102
{ACAD_REACTORS
330
29E
102
}
330
1F
100
AcDbEntity
  8
LC-001-002-----0
 62
     7
370
    50
100
AcDbLine
 10
92.003911
 20
217.770815
 30
0.0
 11
83.003911
 21
217.770815
 31
0.0
  0
LINE
  5
176
102
{ACAD_REACTORS
330
29E
102
}
330
1F
100
AcDbEntity
  8
LC-001-002-----0
 62
     7
370
    50
100
AcDbLine
 10
83.003911
 20
217.770815
 30
0.0
 11
77.003911
 21
217.770815
 31
0.0
  0
LINE
  5
177
102
{ACAD_REACTORS
330
29E
102
}
330
1F
100
AcDbEntity
  8
LC-001-002-----0
 62
     7
370
    50
100
AcDbLine
 10
73.003911
 20
217.770815
 30
0.0
 11
71.003911
 21
217.770815
 31
0.0
  0
LINE
  5
178
102
{ACAD_REACTORS
330
2A0
102
}
330
1F
100
AcDbEntity
  8
LC-002-001-----0
 62
     7
370
    50
100
AcDbLine
 10
137.103911
 20
212.770815
 30
0.0
 11
101.003911
 21
212.770815
 31
0.0
  0
LINE
  5
179
102
{ACAD_REACTORS
330
2A0
102
}
330
1F
100
AcDbEntity
  8
LC-002-001-----0
 62
     7
370
    50
100
AcDbLine
 10
138.103911
 20
218.470815
 30
0.0
 11
92.003911
 21
218.470815
 31
0.0
  0
LINE
  5
17A
102
{ACAD_REACTORS
330
2A0
102
}
330
1F
100
AcDbEntity
  8
LC-002-001-----0
 62
     7
370
    50
100
AcDbLine
 10
135.703911
 20
207.670815
 30
0.0
 11
92.003911
 21
207.670815
 31
0.0
  0
LINE
  5
17B
102
{ACAD_REACTORS
330
2A0
102
}
330
1F
100
AcDbEntity
  8
LC-002-001-----0
 62
     7
370
    50
100
AcDbLine
 10
137.103911
 20
212.070815
 30
0.0
 11
92.003911
 21
212.070815
 31
0.0
  0
LINE
  5
17C
102
{ACAD_REACTORS
330
2A0
102
}
330
1F
100
AcDbEntity
  8
LC-002-001-----0
 62
     7
370
    50
100
AcDbLine
 10
135.203911
 20
206.470815
 30
0.0
 11
135.203911
 21
201.970815
 31
0.0
  0
LINE
  5
17D
102
{ACAD_REACTORS
330
2A0
102
}
330
1F
100
AcDbEntity
  8
LC-002-001-----0
 62
     7
370
    50
100
AcDbLine
 10
134.503911
 20
206.470815
 30
0.0
 11
134.503911
 21
201.270815
 31
0.0
  0
LINE
  5
17E
102
{ACAD_REACTORS
330
2A0
102
}
330
1F
100
AcDbEntity
  8
LC-002-001-----0
 62
     7
370
    50
100
AcDbLine
 10
138.103911
 20
216.770815
 30
0.0
 11
138.103911
 21
213.770815
 31
0.0
  0
LINE
  5
17F
102
{ACAD_REACTORS
330
2A0
102
}
330
1F
100
AcDbEntity
  8
LC-002-001-----0
 62
     7
370
    50
100
AcDbLine
 10
138.803911
 20
216.770815
 30
0.0
 11
138.803911
 21
210.270815
 31
0.0
  0
ARC
  5
180
102
{ACAD_REACTORS
330
2A0
102
}
330
1F
100
AcDbEntity
  8
LC-002-001-----0
 62
     7
370
    50
100
AcDbCircle
 10
135.703911
 20
206.470815
 30
0.0
 40
0.5
100
AcDbArc
 50
90.0
 51
180.0
  0
LINE
  5
181
102
{ACAD_REACTORS
330
2A0
102
}
330
1F
100
AcDbEntity
  8
LC-002-001-----0
 62
     7
370
    50
100
AcDbLine
 10
135.703911
 20
206.970815
 30
0.0
 11
137.103911
 21
206.970815
 31
0.0
  0
LINE
  5
182
102
{ACAD_REACTORS
330
2A0
102
}
330
1F
100
AcDbEntity
  8
LC-002-001-----0
 62
     7
370
    50
100
AcDbLine
 10
138.803911
 20
210.270815
 30
0.0
 11
138.803911
 21
208.670815
 31
0.0
  0
ARC
  5
183
102
{ACAD_REACTORS
330
2A0
102
}
330
1F
100
AcDbEntity
  8
LC-002-001-----0
 62
     7
370
    50
100
AcDbCircle
 10
137.103911
 20
208.670815
 30
0.0
 40
1.0
100
AcDbArc
 50
270.0
 51
0.0
  0
LINE
  5
184
102
{ACAD_REACTORS
330
2A0
102
}
330
1F
100
AcDbEntity
  8
LC-002-001-----0
 62
     7
370
    50
100
AcDbLine
 10
137.103911
 20
206.970815
 30
0.0
 11
135.703911
 21
206.970815
 31
0.0
  0
LINE
  5
185
102
{ACAD_REACTORS
330
2A0
102
}
330
1F
100
AcDbEntity
  8
LC-002-001-----0
 62
     7
370
    50
100
AcDbLine
 10
137.103911
 20
207.670815
 30
0.0
 11
135.703911
 21
207.670815
 31
0.0
  0
LINE
  5
186
102
{ACAD_REACTORS
330
2A0
102
}
330
1F
100
AcDbEntity
  8
LC-002-001-----0
 62
     7
370
    50
100
AcDbLine
 10
138.103911
 20
213.770815
 30
0.0
 11
138.103911
 21
208.670815
 31
0.0
  0
ARC
  5
187
102
{ACAD_REACTORS
330
2A0
102
}
330
1F
100
AcDbEntity
  8
LC-002-001-----0
 62
     7
370
    50
100
AcDbCircle
 10
137.103911
 20
213.770815
 30
0.0
 40
1.700000000000046
100
AcDbArc
 50
270.0
 51
306.031879
  0
ARC
  5
188
102
{ACAD_REACTORS
330
2A0
102
}
330
1F
100
AcDbEntity
  8
LC-002-001-----0
 62
     7
370
    50
100
AcDbCircle
 10
137.103911
 20
213.770815
 30
0.0
 40
1.0
100
AcDbArc
 50
270.0
 51
0.0
  0
ARC
  5
189
102
{ACAD_REACTORS
330
2A0
102
}
330
1F
100
AcDbEntity
  8
LC-002-001-----0
 62
     7
370
    50
100
AcDbCircle
 10
135.703911
 20
206.470815
 30
0.0
 40
1.200000000000046
100
AcDbArc
 50
90.0
 51
180.0
  0
ARC
  5
18A
102
{ACAD_REACTORS
330
2A0
102
}
330
1F
100
AcDbEntity
  8
LC-002-001-----0
 62
     7
370
    50
100
AcDbCircle
 10
137.103911
 20
208.670815
 30
0.0
 40
1.700000000000046
100
AcDbArc
 50
270.0
 51
0.0
  0
LINE
  5
18B
102
{ACAD_REACTORS
330
2A0
102
}
330
1F
100
AcDbEntity
  8
LC-002-001-----0
 62
     7
370
    50
100
AcDbLine
 10
139.803911
 20
217.770815
 30
0.0
 11
140.303911
 21
217.770815
 31
0.0
  0
LINE
  5
18C
102
{ACAD_REACTORS
330
2A0
102
}
330
1F
100
AcDbEntity
  8
LC-002-001-----0
 62
     7
370
    50
100
AcDbLine
 10
139.803911
 20
218.470815
 30
0.0
 11
140.303911
 21
218.470815
 31
0.0
  0
DIMENSION
  5
18D
330
1F
100
AcDbEntity
  8
LC-005-003-----0
 62
     7
370
    25
100
AcDbDimension
  2
*D12
 10
147.003911
 20
39.2
 30
0.0
 11
92.003911
 21
70.0
 31
0.0
 70
   160
  1
%%c110
 71
     5
 42
110.0
  3
LC-DIM-L-0140-02-02
100
AcDbAlignedDimension
 13
37.003911
 23
98.470815
 33
0.0
 14
147.003911
 24
98.470815
 34
0.0
100
AcDbRotatedDimension
  0
ARC
  5
19A
102
{ACAD_REACTORS
330
2A0
102
}
330
1F
100
AcDbEntity
  8
LC-002-001-----0
 62
     7
370
    50
100
AcDbCircle
 10
140.303911
 20
216.770815
 30
0.0
 40
1.0
100
AcDbArc
 50
0.0
 51
90.0
  0
ARC
  5
19B
102
{ACAD_REACTORS
330
2A0
102
}
330
1F
100
AcDbEntity
  8
LC-002-001-----0
 62
     7
370
    50
100
AcDbCircle
 10
140.303911
 20
216.770815
 30
0.0
 40
1.700000000000046
100
AcDbArc
 50
0.0
 51
90.0
  0
LINE
  5
19C
102
{ACAD_REACTORS
330
2A0
102
}
330
1F
100
AcDbEntity
  8
LC-002-001-----0
 62
     7
370
    50
100
AcDbLine
 10
142.003911
 20
216.770815
 30
0.0
 11
142.003911
 21
213.230407
 31
0.0
  0
LINE
  5
19D
102
{ACAD_REACTORS
330
2A0
102
}
330
1F
100
AcDbEntity
  8
LC-002-001-----0
 62
     7
370
    50
100
AcDbLine
 10
141.303911
 20
213.230407
 30
0.0
 11
141.303911
 21
216.770815
 31
0.0
  0
ARC
  5
19E
102
{ACAD_REACTORS
330
2A0
102
}
330
1F
100
AcDbEntity
  8
LC-002-001-----0
 62
     7
370
    50
100
AcDbCircle
 10
139.803911
 20
216.770815
 30
0.0
 40
1.0
100
AcDbArc
 50
90.0
 51
180.0
  0
ARC
  5
19F
102
{ACAD_REACTORS
330
2A0
102
}
330
1F
100
AcDbEntity
  8
LC-002-001-----0
 62
     7
370
    50
100
AcDbCircle
 10
139.803911
 20
216.770815
 30
0.0
 40
1.0
100
AcDbArc
 50
90.0
 51
180.0
  0
ARC
  5
1A0
102
{ACAD_REACTORS
330
2A0
102
}
330
1F
100
AcDbEntity
  8
LC-002-001-----0
 62
     7
370
    50
100
AcDbCircle
 10
139.803911
 20
216.770815
 30
0.0
 40
1.700000000000046
100
AcDbArc
 50
90.0
 51
180.0
  0
LINE
  5
1A1
102
{ACAD_REACTORS
330
2A0
102
}
330
1F
100
AcDbEntity
  8
LC-002-001-----0
 62
     7
370
    50
100
AcDbLine
 10
138.103911
 20
218.470815
 30
0.0
 11
139.803911
 21
218.470815
 31
0.0
  0
LINE
  5
1A2
102
{ACAD_REACTORS
330
29E
102
}
330
1F
100
AcDbEntity
  8
LC-001-002-----0
 62
     7
370
    50
100
AcDbLine
 10
66.003911
 20
217.770815
 30
0.0
 11
58.003911
 21
217.770815
 31
0.0
  0
LINE
  5
1A3
102
{ACAD_REACTORS
330
29E
102
}
330
1F
100
AcDbEntity
  8
LC-001-002-----0
 62
     7
370
    50
100
AcDbLine
 10
58.003911
 20
217.770815
 30
0.0
 11
47.503911
 21
217.770815
 31
0.0
  0
LINE
  5
1A4
102
{ACAD_REACTORS
330
29F
102
}
330
1F
100
AcDbEntity
  8
LC-001-002-----0
 62
     7
370
    50
100
AcDbLine
 10
46.003911
 20
202.31396
 30
0.0
 11
46.003911
 21
195.970815
 31
0.0
  0
LINE
  5
1A5
102
{ACAD_REACTORS
330
29F
102
}
330
1F
100
AcDbEntity
  8
LC-001-002-----0
 62
     7
370
    50
100
AcDbLine
 10
49.003911
 20
204.783945
 30
0.0
 11
48.207956
 21
206.970815
 31
0.0
  0
LINE
  5
1A6
102
{ACAD_REACTORS
330
29F
102
}
330
1F
100
AcDbEntity
  8
LC-001-002-----0
 62
     7
370
    50
100
AcDbLine
 10
38.003911
 20
97.470815
 30
0.0
 11
40.003911
 21
97.470815
 31
0.0
  0
LINE
  5
1A7
102
{ACAD_REACTORS
330
29F
102
}
330
1F
100
AcDbEntity
  8
LC-001-002-----0
 62
     7
370
    50
100
AcDbLine
 10
37.003911
 20
98.470815
 30
0.0
 11
37.003911
 21
199.970815
 31
0.0
  0
LINE
  5
1A8
330
1F
100
AcDbEntity
  8
LC-001-002-----0
 62
     7
370
    25
100
AcDbLine
 10
53.715629
 20
244.134
 30
0.0
 11
68.715629
 21
244.134
 31
0.0
  0
LINE
  5
1A9
102
{ACAD_REACTORS
330
29F
102
}
330
1F
100
AcDbEntity
  8
LC-001-002-----0
 62
     7
370
    50
100
AcDbLine
 10
48.003911
 20
195.970815
 30
0.0
 11
92.003911
 21
195.970815
 31
0.0
  0
LINE
  5
1AA
102
{ACAD_REACTORS
330
29F
102
}
330
1F
100
AcDbEntity
  8
LC-001-002-----0
 62
     7
370
    50
100
AcDbLine
 10
49.003911
 20
202.970815
 30
0.0
 11
49.003911
 21
204.783945
 31
0.0
  0
LINE
  5
1AB
102
{ACAD_REACTORS
330
29F
102
}
330
1F
100
AcDbEntity
  8
LC-001-002-----0
 62
     7
370
    50
100
AcDbLine
 10
40.003911
 20
198.728174
 30
0.0
 11
40.003911
 21
97.470815
 31
0.0
  0
LINE
  5
1AC
102
{ACAD_REACTORS
330
29F
102
}
330
1F
100
AcDbEntity
  8
LC-001-002-----0
 62
     7
370
    50
100
AcDbLine
 10
44.296804
 20
203.021067
 30
0.0
 11
40.003911
 21
198.728174
 31
0.0
  0
LINE
  5
1AD
102
{ACAD_REACTORS
330
29F
102
}
330
1F
100
AcDbEntity
  8
LC-001-002-----0
 62
     7
370
    50
100
AcDbLine
 10
49.003911
 20
202.970815
 30
0.0
 11
48.003911
 21
201.970815
 31
0.0
  0
LINE
  5
1AE
102
{ACAD_REACTORS
330
29F
102
}
330
1F
100
AcDbEntity
  8
LC-001-002-----0
 62
     7
370
    50
100
AcDbLine
 10
48.003911
 20
201.970815
 30
0.0
 11
48.003911
 21
195.970815
 31
0.0
  0
LINE
  5
1AF
102
{ACAD_REACTORS
330
2A0
102
}
330
1F
100
AcDbEntity
  8
LC-001-002-----0
 62
     7
370
    50
100
AcDbLine
 10
134.153633
 20
198.061505
 30
0.0
 11
92.003911
 21
198.061505
 31
0.0
  0
INSERT
  5
1BE
102
{ACAD_REACTORS
330
2A0
102
}
330
1F
100
AcDbEntity
  8
LC-003-005-----0
 62
     7
370
    25
100
AcDbBlockReference
  2
*X1013
 10
0.0
 20
0.0
 30
0.0
  0
LINE
  5
1BF
102
{ACAD_REACTORS
330
2A0
102
}
330
1F
100
AcDbEntity
  8
LC-001-002-----0
 62
     7
370
    50
100
AcDbLine
 10
134.767757
 20
197.702135
 30
0.0
 11
92.003911
 21
197.702135
 31
0.0
  0
ARC
  5
1C0
102
{ACAD_REACTORS
330
2A0
102
}
330
1F
100
AcDbEntity
  8
LC-001-002-----0
 62
     7
370
    50
100
AcDbCircle
 10
135.178911
 20
201.170815
 30
0.0
 40
0.8000000000007603
100
AcDbArc
 50
340.0
 51
88.209215
  0
LINE
  5
1C1
102
{ACAD_REACTORS
330
2A0
102
}
330
1F
100
AcDbEntity
  8
LC-001-002-----0
 62
     7
370
    50
100
AcDbLine
 10
92.003911
 20
201.270815
 30
0.0
 11
135.321726
 21
201.270815
 31
0.0
  0
LINE
  5
1C2
102
{ACAD_REACTORS
330
2A0
102
}
330
1F
100
AcDbEntity
  8
LC-001-002-----0
 62
     7
370
    50
100
AcDbLine
 10
142.503911
 20
212.112373
 30
0.0
 11
142.503911
 21
211.270815
 31
0.0
  0
ARC
  5
1C3
102
{ACAD_REACTORS
330
29F
102
}
330
1F
100
AcDbEntity
  8
LC-004-002-RND-0
 62
     7
370
    50
100
AcDbCircle
 10
45.003911
 20
202.31396
 30
0.0
 40
1.000000000000014
100
AcDbArc
 50
360.0
 51
135.0
  0
LINE
  5
1C4
102
{ACAD_REACTORS
330
29F
102
}
330
1F
100
AcDbEntity
  8
LC-001-002-----0
 62
     7
370
    50
100
AcDbLine
 10
38.003911
 20
97.470815
 30
0.0
 11
37.003911
 21
98.470815
 31
0.0
  0
LINE
  5
1C5
102
{ACAD_REACTORS
330
29F
102
}
330
1F
100
AcDbEntity
  8
LC-001-002-----0
 62
     7
370
    50
100
AcDbLine
 10
46.003911
 20
195.970815
 30
0.0
 11
48.003911
 21
195.970815
 31
0.0
  0
LINE
  5
1C6
102
{ACAD_REACTORS
330
29F
102
}
330
1F
100
AcDbEntity
  8
LC-001-002-----0
 62
     7
370
    50
100
AcDbLine
 10
37.003911
 20
199.970815
 30
0.0
 11
44.003911
 21
206.970815
 31
0.0
  0
INSERT
  5
1F7
330
1F
100
AcDbEntity
  8
LC-003-005-----0
 62
     7
370
    25
100
AcDbBlockReference
  2
*X1114
 10
0.0
 20
0.0
 30
0.0
  0
ARC
  5
1F8
102
{ACAD_REACTORS
330
2A0
102
}
330
1F
100
AcDbEntity
  8
LC-001-002-----0
 62
     7
370
    50
100
AcDbCircle
 10
143.503911
 20
213.230407
 30
0.0
 40
1.500000000000227
100
AcDbArc
 50
180.0
 51
228.189685
  0
ARC
  5
1F9
102
{ACAD_REACTORS
330
2A0
102
}
330
1F
100
AcDbEntity
  8
LC-001-002-----0
 62
     7
370
    50
100
AcDbCircle
 10
143.503911
 20
213.230407
 30
0.0
 40
2.199999999999932
100
AcDbArc
 50
180.0
 51
242.964308
  0
LINE
  5
1FA
102
{ACAD_REACTORS
330
2A0
102
}
330
1F
100
AcDbEntity
  8
LC-001-002-----0
 62
     7
370
    50
100
AcDbLine
 10
134.767757
 20
197.702135
 30
0.0
 11
134.153633
 21
198.061505
 31
0.0
  0
LINE
  5
1FB
102
{ACAD_REACTORS
330
2A0
102
}
330
1F
100
AcDbEntity
  8
LC-001-002-----0
 62
     7
370
    50
100
AcDbLine
 10
135.930665
 20
200.897199
 30
0.0
 11
134.767757
 21
197.702135
 31
0.0
  0
LINE
  5
1FC
102
{ACAD_REACTORS
330
2A0
102
}
330
1F
100
AcDbEntity
  8
LC-001-002-----0
 62
     7
370
    50
100
AcDbLine
 10
135.321726
 20
201.270815
 30
0.0
 11
134.153633
 21
198.061505
 31
0.0
  0
LINE
  5
1FD
330
1F
100
AcDbEntity
  8
LC-001-002-----0
 62
     7
370
    50
100
AcDbLine
 10
44.003911
 20
206.970815
 30
0.0
 11
48.207956
 21
206.970815
 31
0.0
  0
LINE
  5
1FE
330
1F
100
AcDbEntity
  8
LC-001-002-----0
 62
     7
370
    50
100
AcDbLine
 10
144.003911
 20
97.470815
 30
0.0
 11
40.003911
 21
97.470815
 31
0.0
  0
LINE
  5
1FF
330
1F
100
AcDbEntity
  8
LC-001-002-----0
 62
     7
370
    25
100
AcDbLine
 10
53.715629
 20
259.134
 30
0.0
 11
53.715629
 21
244.134
 31
0.0
  0
LINE
  5
200
330
1F
100
AcDbEntity
  8
LC-001-002-----0
 62
     7
370
    50
100
AcDbLine
 10
142.503911
 20
211.270815
 30
0.0
 11
138.803911
 21
211.270815
 31
0.0
  0
LINE
  5
201
102
{ACAD_REACTORS
330
2A4
102
}
330
1F
100
AcDbEntity
  8
LC-001-002-----0
 62
     7
370
    50
100
AcDbLine
 10
147.003402
 20
112.470649
 30
0.0
 11
147.003427
 21
104.470756
 31
0.0
  0
LINE
  5
202
102
{ACAD_REACTORS
330
2A4
102
}
330
1F
100
AcDbEntity
  8
LC-001-002-----0
 62
     7
370
    50
100
AcDbLine
 10
144.003473
 20
94.47084
 30
0.0
 11
152.003518
 21
94.47084
 31
0.0
  0
LINE
  5
203
102
{ACAD_REACTORS
330
2A4
102
}
330
1F
100
AcDbEntity
  8
LC-001-002-----0
 62
     7
370
    50
100
AcDbLine
 10
127.697202
 20
94.47084
 30
0.0
 11
127.697202
 21
97.470815
 31
0.0
  0
LINE
  5
204
102
{ACAD_REACTORS
330
2A4
102
}
330
1F
100
AcDbEntity
  8
LC-001-002-----0
 62
     7
370
    50
100
AcDbLine
 10
56.31062
 20
94.47084
 30
0.0
 11
56.31062
 21
97.470815
 31
0.0
  0
LINE
  5
205
102
{ACAD_REACTORS
330
2A4
102
}
330
1F
100
AcDbEntity
  8
LC-001-002-----0
 62
     7
370
    50
100
AcDbLine
 10
54.189318
 20
94.47084
 30
0.0
 11
54.189318
 21
97.470815
 31
0.0
  0
LINE
  5
206
102
{ACAD_REACTORS
330
2A4
102
}
330
1F
100
AcDbEntity
  8
LC-001-002-----0
 62
     7
370
    50
100
AcDbLine
 10
152.003518
 20
94.47084
 30
0.0
 11
152.003518
 21
104.470065
 31
0.0
  0
LINE
  5
207
102
{ACAD_REACTORS
330
2A4
102
}
330
1F
100
AcDbEntity
  8
LC-001-002-----0
 62
     7
370
    50
100
AcDbLine
 10
149.003424
 20
114.470672
 30
0.0
 11
149.003424
 21
104.470756
 31
0.0
  0
LINE
  5
208
102
{ACAD_REACTORS
330
2A4
102
}
330
1F
100
AcDbEntity
  8
LC-001-002-----0
 62
     7
370
    50
100
AcDbLine
 10
150.503531
 20
104.470756
 30
0.0
 11
152.003518
 21
104.470756
 31
0.0
  0
LINE
  5
209
102
{ACAD_REACTORS
330
2A4
102
}
330
1F
100
AcDbEntity
  8
LC-001-002-----0
 62
     7
370
    50
100
AcDbLine
 10
149.003424
 20
114.470672
 30
0.0
 11
147.003402
 21
112.470649
 31
0.0
  0
LINE
  5
20A
102
{ACAD_REACTORS
330
2A4
102
}
330
1F
100
AcDbEntity
  8
LC-001-002-----0
 62
     7
370
    50
100
AcDbLine
 10
150.503531
 20
104.470756
 30
0.0
 11
149.003424
 21
104.470756
 31
0.0
  0
LINE
  5
20B
102
{ACAD_REACTORS
330
2A4
102
}
330
1F
100
AcDbEntity
  8
LC-001-002-----0
 62
     7
370
    50
100
AcDbLine
 10
90.503924
 20
97.470815
 30
0.0
 11
93.503899
 21
97.470815
 31
0.0
  0
LINE
  5
20C
102
{ACAD_REACTORS
330
2A4
102
}
330
1F
100
AcDbEntity
  8
LC-001-002-----0
 62
     7
370
    50
100
AcDbLine
 10
93.503899
 20
94.47084
 30
0.0
 11
93.503899
 21
97.470815
 31
0.0
  0
LINE
  5
20D
102
{ACAD_REACTORS
330
2A4
102
}
330
1F
100
AcDbEntity
  8
LC-001-002-----0
 62
     7
370
    50
100
AcDbLine
 10
49.589449
 20
94.47084
 30
0.0
 11
49.589449
 21
97.470815
 31
0.0
  0
LINE
  5
20E
102
{ACAD_REACTORS
330
2A4
102
}
330
1F
100
AcDbEntity
  8
LC-001-002-----0
 62
     7
370
    50
100
AcDbLine
 10
49.589449
 20
97.470815
 30
0.0
 11
56.31062
 21
97.470815
 31
0.0
  0
LINE
  5
20F
102
{ACAD_REACTORS
330
2A4
102
}
330
1F
100
AcDbEntity
  8
LC-001-002-----0
 62
     7
370
    50
100
AcDbLine
 10
40.004349
 20
94.47084
 30
0.0
 11
93.503899
 21
94.47084
 31
0.0
  0
LINE
  5
210
102
{ACAD_REACTORS
330
2A4
102
}
330
1F
100
AcDbEntity
  8
LC-001-002-----0
 62
     7
370
    50
100
AcDbLine
 10
93.503899
 20
94.47084
 30
0.0
 11
127.697202
 21
94.47084
 31
0.0
  0
ARC
  5
211
102
{ACAD_REACTORS
330
2A3
102
}
330
1F
100
AcDbEntity
  8
LC-004-002-RND-0
 62
     7
370
    50
100
AcDbCircle
 10
136.503911
 20
216.770815
 30
0.0
 40
1.0
100
AcDbArc
 50
360.0
 51
90.0
  0
LINE
  5
212
102
{ACAD_REACTORS
330
2A4
102
}
330
1F
100
AcDbEntity
  8
LC-001-002-----0
 62
     7
370
    50
100
AcDbLine
 10
127.697202
 20
94.47084
 30
0.0
 11
143.981834
 21
94.47084
 31
0.0
  0
LINE
  5
213
102
{ACAD_REACTORS
330
2A4
102
}
330
1F
100
AcDbEntity
  8
LC-001-002-----0
 62
     7
370
    50
100
AcDbLine
 10
90.503924
 20
94.47084
 30
0.0
 11
90.503924
 21
97.470815
 31
0.0
  0
INSERT
  5
221
102
{ACAD_REACTORS
330
2A4
102
}
330
1F
100
AcDbEntity
  8
LC-003-005-----0
 62
     7
370
    25
100
AcDbBlockReference
  2
*X1215
 10
0.0
 20
0.0
 30
0.0
  0
LINE
  5
222
102
{ACAD_REACTORS
330
2A3
102
}
330
1F
100
AcDbEntity
  8
LC-001-002-----0
 62
     7
370
    50
100
AcDbLine
 10
136.003911
 20
212.770815
 30
0.0
 11
137.503911
 21
212.770815
 31
0.0
  0
LINE
  5
223
102
{ACAD_REACTORS
330
2A3
102
}
330
1F
100
AcDbEntity
  8
LC-001-002-----0
 62
     7
370
    50
100
AcDbLine
 10
137.503911
 20
212.770815
 30
0.0
 11
137.503911
 21
216.770815
 31
0.0
  0
LINE
  5
224
102
{ACAD_REACTORS
330
2A3
102
}
330
1F
100
AcDbEntity
  8
LC-001-002-----0
 62
     7
370
    50
100
AcDbLine
 10
92.003911
 20
217.770815
 30
0.0
 11
101.003911
 21
217.770815
 31
0.0
  0
LINE
  5
225
102
{ACAD_REACTORS
330
2A3
102
}
330
1F
100
AcDbEntity
  8
LC-001-002-----0
 62
     7
370
    50
100
AcDbLine
 10
101.003911
 20
217.770815
 30
0.0
 11
111.003911
 21
217.770815
 31
0.0
  0
LINE
  5
226
102
{ACAD_REACTORS
330
2A3
102
}
330
1F
100
AcDbEntity
  8
LC-001-002-----0
 62
     7
370
    50
100
AcDbLine
 10
111.003911
 20
217.770815
 30
0.0
 11
118.003911
 21
217.770815
 31
0.0
  0
LINE
  5
227
102
{ACAD_REACTORS
330
2A3
102
}
330
1F
100
AcDbEntity
  8
LC-001-002-----0
 62
     7
370
    50
100
AcDbLine
 10
118.003911
 20
217.770815
 30
0.0
 11
126.003911
 21
217.770815
 31
0.0
  0
LINE
  5
228
102
{ACAD_REACTORS
330
2A3
102
}
330
1F
100
AcDbEntity
  8
LC-001-002-----0
 62
     7
370
    50
100
AcDbLine
 10
126.003911
 20
217.770815
 30
0.0
 11
136.503911
 21
217.770815
 31
0.0
  0
LINE
  5
229
102
{ACAD_REACTORS
330
2A4
102
}
330
1F
100
AcDbEntity
  8
LC-001-002-----0
 62
     7
370
    50
100
AcDbLine
 10
37.00442
 20
112.470649
 30
0.0
 11
37.004374
 21
97.470815
 31
0.0
  0
LINE
  5
22A
102
{ACAD_REACTORS
330
2A4
102
}
330
1F
100
AcDbEntity
  8
LC-001-002-----0
 62
     7
370
    50
100
AcDbLine
 10
40.004349
 20
94.47084
 30
0.0
 11
32.004304
 21
94.47084
 31
0.0
  0
LINE
  5
22B
102
{ACAD_REACTORS
330
2A4
102
}
330
1F
100
AcDbEntity
  8
LC-001-002-----0
 62
     7
370
    50
100
AcDbLine
 10
32.004304
 20
94.47084
 30
0.0
 11
32.004304
 21
104.470065
 31
0.0
  0
LINE
  5
22C
102
{ACAD_REACTORS
330
2A4
102
}
330
1F
100
AcDbEntity
  8
LC-001-002-----0
 62
     7
370
    50
100
AcDbLine
 10
35.004398
 20
114.470672
 30
0.0
 11
35.004398
 21
104.470756
 31
0.0
  0
LINE
  5
22D
102
{ACAD_REACTORS
330
2A4
102
}
330
1F
100
AcDbEntity
  8
LC-001-002-----0
 62
     7
370
    50
100
AcDbLine
 10
33.504292
 20
104.470756
 30
0.0
 11
32.004304
 21
104.470756
 31
0.0
  0
LINE
  5
22E
102
{ACAD_REACTORS
330
2A4
102
}
330
1F
100
AcDbEntity
  8
LC-001-002-----0
 62
     7
370
    50
100
AcDbLine
 10
35.004398
 20
114.470672
 30
0.0
 11
37.00442
 21
112.470649
 31
0.0
  0
LINE
  5
22F
102
{ACAD_REACTORS
330
2A4
102
}
330
1F
100
AcDbEntity
  8
LC-001-002-----0
 62
     7
370
    50
100
AcDbLine
 10
37.004374
 20
97.470815
 30
0.0
 11
40.004349
 21
97.470815
 31
0.0
  0
LINE
  5
230
102
{ACAD_REACTORS
330
2A4
102
}
330
1F
100
AcDbEntity
  8
LC-001-002-----0
 62
     7
370
    50
100
AcDbLine
 10
40.004349
 20
97.470815
 30
0.0
 11
40.004349
 21
94.47084
 31
0.0
  0
LINE
  5
231
102
{ACAD_REACTORS
330
2A4
102
}
330
1F
100
AcDbEntity
  8
LC-001-002-----0
 62
     7
370
    50
100
AcDbLine
 10
33.504292
 20
104.470756
 30
0.0
 11
35.004398
 21
104.470756
 31
0.0
  0
INSERT
  5
23E
102
{ACAD_REACTORS
330
2A4
102
}
330
1F
100
AcDbEntity
  8
LC-003-005-----0
 62
     7
370
    25
100
AcDbBlockReference
  2
*X1316
 10
0.0
 20
0.0
 30
0.0
  0
LINE
  5
23F
102
{ACAD_REACTORS
330
2A4
102
}
330
1F
100
AcDbEntity
  8
LC-001-002-----0
 62
     7
370
    50
100
AcDbLine
 10
147.003448
 20
97.470815
 30
0.0
 11
144.003473
 21
97.470815
 31
0.0
  0
LINE
  5
240
102
{ACAD_REACTORS
330
2A4
102
}
330
1F
100
AcDbEntity
  8
LC-001-002-----0
 62
     7
370
    50
100
AcDbLine
 10
144.003473
 20
97.470815
 30
0.0
 11
144.003473
 21
94.47084
 31
0.0
  0
LINE
  5
241
102
{ACAD_REACTORS
330
2A4
102
}
330
1F
100
AcDbEntity
  8
LC-001-002-----0
 62
     7
370
    50
100
AcDbLine
 10
147.003402
 20
112.470649
 30
0.0
 11
147.003448
 21
97.470815
 31
0.0
  0
LINE
  5
242
102
{ACAD_REACTORS
330
2A4
102
}
330
1F
100
AcDbEntity
  8
LC-001-002-----0
 62
     7
370
    50
100
AcDbLine
 10
149.003424
 20
114.470672
 30
0.0
 11
147.003402
 21
112.470649
 31
0.0
  0
LINE
  5
243
102
{ACAD_REACTORS
330
2A4
102
}
330
1F
100
AcDbEntity
  8
LC-001-002-----0
 62
     7
370
    50
100
AcDbLine
 10
149.003424
 20
114.470672
 30
0.0
 11
149.003424
 21
104.470756
 31
0.0
  0
LINE
  5
244
102
{ACAD_REACTORS
330
2A4
102
}
330
1F
100
AcDbEntity
  8
LC-001-002-----0
 62
     7
370
    50
100
AcDbLine
 10
152.003518
 20
94.47084
 30
0.0
 11
152.003518
 21
104.470065
 31
0.0
  0
LINE
  5
245
102
{ACAD_REACTORS
330
2A4
102
}
330
1F
100
AcDbEntity
  8
LC-001-002-----0
 62
     7
370
    50
100
AcDbLine
 10
144.003473
 20
94.47084
 30
0.0
 11
152.003518
 21
94.47084
 31
0.0
  0
LINE
  5
246
102
{ACAD_REACTORS
330
2A4
102
}
330
1F
100
AcDbEntity
  8
LC-001-002-----0
 62
     7
370
    50
100
AcDbLine
 10
134.418374
 20
94.47084
 30
0.0
 11
134.418374
 21
97.470815
 31
0.0
  0
LINE
  5
247
102
{ACAD_REACTORS
330
2A4
102
}
330
1F
100
AcDbEntity
  8
LC-001-002-----0
 62
     7
370
    50
100
AcDbLine
 10
134.418374
 20
97.470815
 30
0.0
 11
127.697202
 21
97.470815
 31
0.0
  0
LINE
  5
248
102
{ACAD_REACTORS
330
2A4
102
}
330
1F
100
AcDbEntity
  8
LC-001-002-----0
 62
     7
370
    50
100
AcDbLine
 10
129.818504
 20
94.47084
 30
0.0
 11
129.818504
 21
97.470815
 31
0.0
  0
LINE
  5
24A
330
1F
100
AcDbEntity
  8
LC-001-002-----0
  6
DASHDOT
 62
     7
370
    25
100
AcDbLine
 10
92.003911
 20
94.47084
 30
0.0
 11
92.003911
 21
218.470815
 31
0.0
  0
LINE
  5
24B
330
1F
100
AcDbEntity
  8
LC-001-002-----0
 62
     7
370
    25
100
AcDbLine
 10
144.003911
 20
111.470815
 30
0.0
 11
40.003911
 21
111.470815
 31
0.0
  0
INSERT
  5
266
330
1F
100
AcDbEntity
  8
LC-003-005-----0
 62
     7
370
    25
100
AcDbBlockReference
  2
*X1417
 10
0.0
 20
0.0
 30
0.0
  0
INSERT
  5
282
330
1F
100
AcDbEntity
  8
LC-003-005-----0
 62
     7
370
    25
100
AcDbBlockReference
  2
*X1518
 10
0.0
 20
0.0
 30
0.0
  0
DIMENSION
  5
283
330
1F
100
AcDbEntity
  8
LC-005-003-----0
 62
     7
370
    25
100
AcDbDimension
  2
*D19
 10
189.959575
 20
111.469377
 30
0.0
 11
159.160492
 21
140.778964
 31
0.0
 70
   160
 71
     5
 42
14.0
 53
89.998207
  3
LC-DIM-L-0140-02-02
100
AcDbAlignedDimension
 13
144.003473
 23
97.470815
 33
0.0
 14
144.003911
 24
111.470815
 34
0.0
 50
89.998207
100
AcDbRotatedDimension
  0
DIMENSION
  5
291
330
1F
100
AcDbEntity
  8
LC-005-003-----0
 62
     7
370
    25
100
AcDbDimension
  2
*D20
 10
237.422484
 20
218.470815
 30
0.0
 11
206.622484
 21
156.222
 31
0.0
 70
   160
  1
15-107
 71
     5
 42
107.0
 53
90.0
  3
LC-DIM-L-0140-02-02
100
AcDbAlignedDimension
 13
144.003911
 23
111.470815
 33
0.0
 14
139.803911
 24
218.470815
 34
0.0
 50
90.0
100
AcDbRotatedDimension
  0
ENDSEC
  0
SECTION
  2
OBJECTS
  0
DICTIONARY
  5
C
330
0
100
AcDbDictionary
281
     1
  3
ACAD_GROUP
350
D
  3
ACAD_LAYOUT
350
1A
  3
ACAD_MLINESTYLE
350
17
  3
ACAD_PLOTSETTINGS
350
19
  3
ACAD_PLOTSTYLENAME
350
E
  0
DICTIONARY
  5
D
102
{ACAD_REACTORS
330
C
102
}
330
C
100
AcDbDictionary
281
     1
  3
LCGROUP117
350
2A2
  3
LCGROUP173
350
2A5
  3
LCGROUP174
350
2A7
  3
LCGROUP175
350
2A6
  3
LCGROUP176
350
2AD
  3
LCGROUP177
350
2AC
  3
LCGROUP178
350
2AB
  3
LCGROUP179
350
2AA
  3
LCGROUP180
350
2A9
  3
LCGROUP181
350
2A8
  3
LCGROUP228
350
2AE
  3
LCGROUP286
350
29E
  3
LCGROUP322
350
29F
  3
LCGROUP329
350
2A0
  3
LCGROUP420
350
2A3
  3
LCGROUP442
350
2A4
  3
LCGROUP616
350
2A1
  0
DICTIONARY
  5
1A
102
{ACAD_REACTORS
330
C
102
}
330
C
100
AcDbDictionary
281
     1
  3
Layout1
350
1E
  3
Layout2
350
26
  3
Model
350
22
  0
DICTIONARY
  5
17
102
{ACAD_REACTORS
330
C
102
}
330
C
100
AcDbDictionary
281
     1
  3
Standard
350
18
  0
DICTIONARY
  5
19
102
{ACAD_REACTORS
330
C
102
}
330
C
100
AcDbDictionary
281
     1
  0
ACDBDICTIONARYWDFLT
  5
E
102
{ACAD_REACTORS
330
C
102
}
330
C
100
AcDbDictionary
281
     1
  3
Normal
350
F
100
AcDbDictionaryWithDefault
340
F
  0
GROUP
  5
2A2
102
{ACAD_REACTORS
330
D
102
}
330
D
100
AcDbGroup
300
Rahmenverlõngerung
 70
     1
 71
     1
340
32
340
33
340
99
340
9A
340
CA
340
CB
340
CD
340
CE
340
D3
340
E1
340
E2
340
ED
340
EE
340
F0
340
F8
340
FD
  0
GROUP
  5
2A5
102
{ACAD_REACTORS
330
D
102
}
330
D
100
AcDbGroup
300
GRP173
 70
     1
 71
     1
340
102
340
103
340
104
340
105
340
10B
340
10C
340
10E
340
10F
340
111
340
112
340
114
340
115
340
117
340
118
340
11A
340
11B
  0
GROUP
  5
2A7
102
{ACAD_REACTORS
330
D
102
}
330
D
100
AcDbGroup
300
GRP174
 70
     1
 71
     1
340
98
340
CC
340
CF
340
D2
340
DF
340
E3
  0
GROUP
  5
2A6
102
{ACAD_REACTORS
330
D
102
}
330
D
100
AcDbGroup
300
GRP175
 70
     1
 71
     1
340
E4
  0
GROUP
  5
2AD
102
{ACAD_REACTORS
330
D
102
}
330
D
100
AcDbGroup
300
GRP176
 70
     1
 71
     1
340
E5
340
E6
  0
GROUP
  5
2AC
102
{ACAD_REACTORS
330
D
102
}
330
D
100
AcDbGroup
300
GRP177
 70
     1
 71
     1
340
E7
340
E8
340
E9
340
EA
340
101
  0
GROUP
  5
2AB
102
{ACAD_REACTORS
330
D
102
}
330
D
100
AcDbGroup
300
GRP178
 70
     1
 71
     1
340
106
  0
GROUP
  5
2AA
102
{ACAD_REACTORS
330
D
102
}
330
D
100
AcDbGroup
300
GRP179
 70
     1
 71
     1
340
107
340
10A
340
10D
340
110
340
113
340
116
  0
GROUP
  5
2A9
102
{ACAD_REACTORS
330
D
102
}
330
D
100
AcDbGroup
300
GRP180
 70
     1
 71
     1
340
119
  0
GROUP
  5
2A8
102
{ACAD_REACTORS
330
D
102
}
330
D
100
AcDbGroup
300
GRP181
 70
     1
 71
     1
340
12B
340
12C
340
12D
340
12E
340
12F
340
130
340
131
340
132
340
133
340
134
340
135
340
136
340
137
  0
GROUP
  5
2AE
102
{ACAD_REACTORS
330
D
102
}
330
D
100
AcDbGroup
300
Rahmen
 70
     1
 71
     1
340
3C
340
4D
340
4E
340
D0
340
D1
340
D4
340
D5
340
D6
340
D7
340
D8
340
D9
340
DA
340
DB
340
DC
340
DD
340
DE
340
E0
340
EB
340
EC
340
EF
340
F1
340
F2
340
F3
340
F4
340
F6
340
F7
340
F9
340
FA
340
FB
340
FC
340
FE
340
FF
340
100
340
108
340
109
340
11C
340
11D
340
149
340
14A
340
161
340
162
340
163
340
164
  0
GROUP
  5
29E
102
{ACAD_REACTORS
330
D
102
}
330
D
100
AcDbGroup
300
rost
 70
     1
 71
     1
340
4B
340
4C
340
165
340
173
340
174
340
175
340
176
340
177
340
1A2
340
1A3
  0
GROUP
  5
29F
102
{ACAD_REACTORS
330
D
102
}
330
D
100
AcDbGroup
300
Rahmenverlõngerung
 70
     1
 71
     1
340
1A4
340
1A5
340
1A6
340
1A7
340
1A9
340
1AA
340
1AB
340
1AC
340
1AD
340
1AE
340
1C3
340
1C4
340
1C5
340
1C6
  0
GROUP
  5
2A0
102
{ACAD_REACTORS
330
D
102
}
330
D
100
AcDbGroup
300
Rahmen
 70
     1
 71
     1
340
3D
340
178
340
179
340
17A
340
17B
340
17C
340
17D
340
17E
340
17F
340
180
340
181
340
182
340
183
340
184
340
185
340
186
340
187
340
188
340
189
340
18A
340
18B
340
18C
340
19A
340
19B
340
19C
340
19D
340
19E
340
19F
340
1A0
340
1A1
340
1AF
340
1BE
340
1BF
340
1C0
340
1C1
340
1C2
340
1F8
340
1F9
340
1FA
340
1FB
340
1FC
  0
GROUP
  5
2A3
102
{ACAD_REACTORS
330
D
102
}
330
D
100
AcDbGroup
300
rost
 70
     1
 71
     1
340
211
340
222
340
223
340
224
340
225
340
226
340
227
340
228
  0
GROUP
  5
2A4
102
{ACAD_REACTORS
330
D
102
}
330
D
100
AcDbGroup
300
Zentrierring
 70
     1
 71
     1
340
201
340
202
340
203
340
204
340
205
340
206
340
207
340
208
340
209
340
20A
340
20B
340
20C
340
20D
340
20E
340
20F
340
210
340
212
340
213
340
221
340
229
340
22A
340
22B
340
22C
340
22D
340
22E
340
22F
340
230
340
231
340
23E
340
23F
340
240
340
241
340
242
340
243
340
244
340
245
340
246
340
247
340
248
  0
GROUP
  5
2A1
102
{ACAD_REACTORS
330
D
102
}
330
D
100
AcDbGroup
300
verlõngerung
 70
     1
 71
     1
340
F5
340
138
340
14B
340
15E
  0
LAYOUT
  5
1E
102
{ACAD_REACTORS
330
1A
102
}
330
1A
100
AcDbPlotSettings
  1

  2

  4

  6

 40
0.0
 41
0.0
 42
0.0
 43
0.0
 44
0.0
 45
0.0
 46
0.0
 47
0.0
 48
0.0
 49
0.0
140
0.0
141
0.0
142
1.0
143
1.0
 70
   688
 72
     0
 73
     0
 74
     5
  7

 75
    16
147
1.0
148
0.0
149
0.0
100
AcDbLayout
  1
Layout1
 70
     1
 71
     1
 10
-210.0
 20
-148.5
 11
630.0
 21
445.5
 12
0.0
 22
0.0
 32
0.0
 14
-210.0
 24
-148.5
 34
0.0
 15
630.0
 25
445.5
 35
0.0
146
0.0
 13
0.0
 23
0.0
 33
0.0
 16
1.0
 26
0.0
 36
0.0
 17
0.0
 27
1.0
 37
0.0
 76
     0
330
1B
  0
LAYOUT
  5
26
102
{ACAD_REACTORS
330
1A
102
}
330
1A
100
AcDbPlotSettings
  1

  2

  4

  6

 40
0.0
 41
0.0
 42
0.0
 43
0.0
 44
0.0
 45
0.0
 46
0.0
 47
0.0
 48
0.0
 49
0.0
140
0.0
141
0.0
142
1.0
143
1.0
 70
   688
 72
     0
 73
     0
 74
     5
  7

 75
    16
147
1.0
148
0.0
149
0.0
100
AcDbLayout
  1
Layout2
 70
     1
 71
     2
 10
0.0
 20
0.0
 11
0.0
 21
0.0
 12
0.0
 22
0.0
 32
0.0
 14
0.0
 24
0.0
 34
0.0
 15
0.0
 25
0.0
 35
0.0
146
0.0
 13
0.0
 23
0.0
 33
0.0
 16
1.0
 26
0.0
 36
0.0
 17
0.0
 27
1.0
 37
0.0
 76
     0
330
23
  0
LAYOUT
  5
22
102
{ACAD_REACTORS
330
1A
102
}
330
1A
100
AcDbPlotSettings
  1

  2

  4

  6

 40
0.0
 41
0.0
 42
0.0
 43
0.0
 44
0.0
 45
0.0
 46
0.0
 47
0.0
 48
0.0
 49
0.0
140
0.0
141
0.0
142
1.0
143
1.0
 70
  1776
 72
     0
 73
     0
 74
     0
  7

 75
     0
147
1.0
148
0.0
149
0.0
100
AcDbLayout
  1
Model
 70
     1
 71
     0
 10
-210.0
 20
-148.5
 11
630.0
 21
445.5
 12
0.0
 22
0.0
 32
0.0
 14
-210.0
 24
-148.5
 34
0.0
 15
630.0
 25
445.5
 35
0.0
146
0.0
 13
0.0
 23
0.0
 33
0.0
 16
1.0
 26
0.0
 36
0.0
 17
0.0
 27
1.0
 37
0.0
 76
     0
330
1F
  0
MLINESTYLE
  5
18
102
{ACAD_REACTORS
330
17
102
}
330
17
100
AcDbMlineStyle
  2
Standard
 70
     0
  3

 62
   256
 51
90.0
 52
90.0
 71
     2
 49
0.5
 62
   256
  6
BYLAYER
 49
-0.5
 62
   256
  6
BYLAYER
  0
ACDBPLACEHOLDER
  5
F
102
{ACAD_REACTORS
330
E
102
}
330
E
  0
ENDSEC
  0
EOF
