  0
SECTION
  2
HEADER
  9
$ACADVER
  1
AC1009
  9
$INSBASE
 10
0.0
 20
0.0
 30
0.0
  9
$EXTMIN
 10
0.0
 20
0.0
 30
0.0
  9
$EXTMAX
 10
840.0
 20
594.0
 30
0.0
  9
$LIMMIN
 10
0.0
 20
0.0
  9
$LIMMAX
 10
840.0
 20
594.0
  9
$ORTHOMODE
 70
     0
  9
$REGENMODE
 70
     1
  9
$FILLMODE
 70
     1
  9
$QTEXTMODE
 70
     0
  9
$MIRRTEXT
 70
     1
  9
$DRAGMODE
 70
     2
  9
$LTSCALE
 40
2.0
  9
$OSMODE
 70
     0
  9
$ATTMODE
 70
     1
  9
$TEXTSIZE
 40
0.2
  9
$TRACEWID
 40
0.05
  9
$TEXTSTYLE
  7
STANDARD
  9
$CLAYER
  8
0
  9
$CELTYPE
  6
BYLAYER
  9
$CECOLOR
 62
     7
  9
$DIMSCALE
 40
2.0
  9
$DIMASZ
 40
3.5
  9
$DIMEXO
 40
0.0625
  9
$DIMDLI
 40
0.38
  9
$DIMRND
 40
0.0
  9
$DIMDLE
 40
0.0
  9
$DIMEXE
 40
0.18
  9
$DIMTP
 40
0.0
  9
$DIMTM
 40
0.0
  9
$DIMTXT
 40
3.5
  9
$DIMCEN
 40
0.09
  9
$DIMTSZ
 40
0.0
  9
$DIMTOL
 70
     0
  9
$DIMLIM
 70
     0
  9
$DIMTIH
 70
     1
  9
$DIMTOH
 70
     1
  9
$DIMSE1
 70
     0
  9
$DIMSE2
 70
     0
  9
$DIMTAD
 70
     1
  9
$DIMZIN
 70
     0
  9
$DIMBLK
  1

  9
$DIMASO
 70
     1
  9
$DIMSHO
 70
     1
  9
$DIMPOST
  1

  9
$DIMAPOST
  1

  9
$DIMALT
 70
     0
  9
$DIMALTD
 70
     2
  9
$DIMALTF
 40
25.4
  9
$DIMLFAC
 40
1.0
  9
$DIMTOFL
 70
     0
  9
$DIMTVP
 40
0.0
  9
$DIMTIX
 70
     0
  9
$DIMSOXD
 70
     0
  9
$DIMSAH
 70
     0
  9
$DIMBLK1
  1

  9
$DIMBLK2
  1

  9
$DIMSTYLE
  2
STANDARD
  9
$DIMCLRD
 70
     0
  9
$DIMCLRE
 70
     0
  9
$DIMCLRT
 70
     0
  9
$DIMTFAC
 40
1.0
  9
$DIMGAP
 40
0.09
  9
$LUNITS
 70
     2
  9
$LUPREC
 70
     2
  9
$AXISMODE
 70
     0
  9
$AXISUNIT
 10
0.0
 20
0.0
  9
$SKETCHINC
 40
0.1
  9
$FILLETRAD
 40
0.0
  9
$AUNITS
 70
     0
  9
$AUPREC
 70
     0
  9
$MENU
  1
acad
  9
$ELEVATION
 40
0.0
  9
$PELEVATION
 40
0.0
  9
$THICKNESS
 40
0.0
  9
$LIMCHECK
 70
     0
  9
$BLIPMODE
 70
     1
  9
$CHAMFERA
 40
0.0
  9
$CHAMFERB
 40
0.0
  9
$SKPOLY
 70
     0
  9
$TDCREATE
 40
0.000000000
  9
$TDUPDATE
 40
0.000000000
  9
$TDINDWG
 40
0.0000000000
  9
$TDUSRTIMER
 40
0.0000000000
  9
$USRTIMER
 70
     1
  9
$ANGBASE
 50
0.0
  9
$ANGDIR
 70
     0
  9
$PDMODE
 70
     0
  9
$PDSIZE
 40
0.0
  9
$PLINEWID
 40
0.0
  9
$COORDS
 70
     0
  9
$SPLFRAME
 70
     0
  9
$SPLINETYPE
 70
     6
  9
$SPLINESEGS
 70
     8
  9
$ATTDIA
 70
     0
  9
$ATTREQ
 70
     1
  9
$HANDLING
 70
     1
  9
$HANDSEED
  5
32A
  9
$SURFTAB1
 70
     6
  9
$SURFTAB2
 70
     6
  9
$SURFTYPE
 70
     6
  9
$SURFU
 70
     6
  9
$SURFV
 70
     6
  9
$UCSNAME
  2

  9
$UCSORG
 10
0.0
 20
0.0
 30
0.0
  9
$UCSXDIR
 10
1.0
 20
0.0
 30
0.0
  9
$UCSYDIR
 10
0.0
 20
1.0
 30
0.0
  9
$PUCSNAME
  2

  9
$PUCSORG
 10
0.0
 20
0.0
 30
0.0
  9
$PUCSXDIR
 10
1.0
 20
0.0
 30
0.0
  9
$PUCSYDIR
 10
0.0
 20
1.0
 30
0.0
  9
$USERI1
 70
     0
  9
$USERI2
 70
     0
  9
$USERI3
 70
     0
  9
$USERI4
 70
     0
  9
$USERI5
 70
     0
  9
$USERR1
 40
0.0
  9
$USERR2
 40
0.0
  9
$USERR3
 40
0.0
  9
$USERR4
 40
0.0
  9
$USERR5
 40
0.0
  9
$WORLDVIEW
 70
     1
  9
$SHADEDGE
 70
     3
  9
$SHADEDIF
 70
    70
  9
$TILEMODE
 70
     1
  9
$MAXACTVP
 70
    16
  9
$PINSBASE
 10
0.0
 20
0.0
 30
0.0
  9
$PLIMCHECK
 70
     0
  9
$PEXTMIN
 10
1.000000E+20
 20
1.000000E+20
 30
1.000000E+20
  9
$PEXTMAX
 10
-1.000000E+20
 20
-1.000000E+20
 30
-1.000000E+20
  9
$PLIMMIN
 10
0.0
 20
0.0
  9
$PLIMMAX
 10
840.0
 20
594.0
  9
$UNITMODE
 70
     0
  9
$VISRETAIN
 70
     0
  9
$PLINEGEN
 70
     1
  9
$PSLTSCALE
 70
     0
  9
$TREEDEPTH
 70
  3020
  9
$DWGCODEPAGE
  3
dos850
  0
ENDSEC
  0
SECTION
  2
TABLES
  0
TABLE
  2
VPORT
 70
     1
  0
VPORT
  2
*ACTIVE
 70
     0
 10
0.0
 20
0.0
 11
1.0
 21
1.0
 12
420.0
 22
297.0
 13
0.0
 23
0.0
 14
1.0
 24
1.0
 15
0.0
 25
0.0
 16
0.0
 26
0.0
 36
1.0
 17
0.0
 27
0.0
 37
0.0
 40
594.0
 41
1.604229
 42
50.0
 43
0.0
 44
0.0
 50
0.0
 51
0.0
 71
     0
 72
   100
 73
     1
 74
     1
 75
     0
 76
     0
 77
     0
 78
     0
  0
ENDTAB
  0
TABLE
  2
LTYPE
 70
     2
  0
LTYPE
  2
CONTINUOUS
 70
    64
  3
Solid line
 72
    65
 73
     0
 40
0.0
  0
LTYPE
  2
DASHDOT
 70
    64
  3
__ . __ . __ . __ . __
 72
    65
 73
     4
 40
7.5
 49
5.0
 49
-1.25
 49
0.0
 49
-1.25
  0
ENDTAB
  0
TABLE
  2
LAYER
 70
    12
  0
LAYER
  2
0
 70
     0
 62
     7
  6
CONTINUOUS
  0
LAYER
  2
LC-INFO-1-2-MM-A3-0
 70
     1
 62
    -1
  6
CONTINUOUS
  0
LAYER
  2
LC-004-003-MTH-0
 70
     0
 62
     2
  6
CONTINUOUS
  0
LAYER
  2
LC-005-003-MTG-0
 70
     0
 62
     2
  6
CONTINUOUS
  0
LAYER
  2
LC-003-003-----0
 70
     0
 62
     2
  6
CONTINUOUS
  0
LAYER
  2
LC-006-005-----0
 70
     0
 62
     2
  6
CONTINUOUS
  0
LAYER
  2
LC-002-000-----0
 70
     0
 62
     7
  6
CONTINUOUS
  0
LAYER
  2
LC-008-000-----0
 70
     0
 62
     7
  6
CONTINUOUS
  0
LAYER
  2
LC-001-002-----0
 70
     0
 62
     2
  6
DASHDOT
  0
LAYER
  2
LC-007-001-----0
 70
     0
 62
     1
  6
CONTINUOUS
  0
LAYER
  2
LC-009-002-RND-0
 70
     0
 62
     1
  6
CONTINUOUS
  0
LAYER
  2
LC-000
 70
     0
 62
     7
  6
CONTINUOUS
  0
ENDTAB
  0
TABLE
  2
STYLE
 70
     4
  0
STYLE
  2
STANDARD
 70
     0
 40
0.0
 41
1.0
 50
0.0
 71
     0
 42
0.0
  3
txt
  4

  0
STYLE
  2
LC-STANDARD
 70
    64
 40
0.0
 41
1.0
 50
0.0
 71
     0
 42
3.5
  3
MONOTXT
  4

  0
STYLE
  2
LC-TXTSTYLE-150-400-0-0-A2
 70
    64
 40
0.0
 41
1.0
 50
15.0
 71
     0
 42
3.5
  3
MONOTXT
  4

  0
STYLE
  2
LC-TXTSTYLE-150-400-0-0-D3
 70
    64
 40
0.0
 41
1.0
 50
15.0
 71
     0
 42
3.5
  3
LC-STANDARD
  4

  0
ENDTAB
  0
TABLE
  2
VIEW
 70
     0
  0
ENDTAB
  0
TABLE
  2
UCS
 70
     0
  0
ENDTAB
  0
TABLE
  2
APPID
 70
     1
  0
APPID
  2
ACAD
 70
     0
  0
ENDTAB
  0
TABLE
  2
DIMSTYLE
 70
     3
  0
DIMSTYLE
  2
STANDARD
 70
     0
  3

  4

  5

  6

  7

 40
1.0
 41
0.18
 42
0.0625
 43
0.38
 44
0.18
 45
0.0
 46
0.0
 47
0.0
 48
0.0
 71
     0
 72
     0
 73
     1
 74
     1
 75
     0
 76
     0
 77
     0
 78
     0
140
0.18
141
0.09
142
0.0
143
25.4
144
1.0
145
0.0
146
1.0
147
0.09
170
     0
171
     2
172
     0
173
     0
174
     0
175
     0
176
     0
177
     0
178
     0
  0
DIMSTYLE
  2
LC-STANDARD
 70
     0
  3

  4

  5

  6

  7

 40
1.0
 41
3.5
 42
0.0
 43
7.5
 44
1.8
 45
0.0
 46
0.0
 47
0.0
 48
0.0
 71
     0
 72
     0
 73
     0
 74
     0
 75
     0
 76
     0
 77
     1
 78
     8
140
3.5
141
0.0
142
0.0
143
25.4
144
1.0
145
0.0
146
0.71
147
1.5
170
     0
171
     2
172
     1
173
     0
174
     0
175
     0
176
     0
177
     0
178
     3
  0
DIMSTYLE
  2
LC-DIM-L-0140-02-02
 70
     0
  3

  4

  5

  6

  7

 40
2.0
 41
3.5
 42
0.0
 43
7.5
 44
1.8
 45
0.0
 46
0.0
 47
0.0
 48
0.0
 71
     0
 72
     0
 73
     0
 74
     0
 75
     0
 76
     0
 77
     1
 78
     8
140
14.0
141
0.0
142
0.0
143
25.4
144
1.0
145
0.0
146
0.71
147
1.5
170
     0
171
     2
172
     0
173
     0
174
     0
175
     0
176
     2
177
     2
178
     8
  0
ENDTAB
  0
ENDSEC
  0
SECTION
  2
BLOCKS
  0
BLOCK
  8
0
  5
23
  2
BLK1
 70
    64
 10
0.0
 20
0.0
 30
0.0
  3
BLK1
  0
ENDBLK
  8
0
  5
24
  0
BLOCK
  8
0
  5
26
  2
BLK2
 70
    64
 10
0.0
 20
0.0
 30
0.0
  3
BLK2
  0
ENDBLK
  8
0
  5
27
  0
BLOCK
  8
0
  5
29
  2
BLK3
 70
    64
 10
0.0
 20
0.0
 30
0.0
  3
BLK3
  0
ENDBLK
  8
0
  5
2A
  0
BLOCK
  8
0
  5
2C
  2
BLK4
 70
    64
 10
0.0
 20
0.0
 30
0.0
  3
BLK4
  0
ENDBLK
  8
0
  5
2D
  0
BLOCK
  8
0
  5
2F
  2
BLK5
 70
    64
 10
0.0
 20
0.0
 30
0.0
  3
BLK5
  0
ENDBLK
  8
0
  5
30
  0
BLOCK
  8
0
  5
32
  2
BLK6
 70
    64
 10
0.0
 20
0.0
 30
0.0
  3
BLK6
  0
ENDBLK
  8
0
  5
33
  0
BLOCK
  8
0
  5
35
  2
BLK7
 70
    64
 10
0.0
 20
0.0
 30
0.0
  3
BLK7
  0
ENDBLK
  8
0
  5
36
  0
BLOCK
  8
0
  5
38
  2
*D7
 70
    65
 10
0.0
 20
0.0
 30
0.0
  3
*D7
  0
LINE
  8
LC-004-003-MTH-0
  6
CONTINUOUS
  5
3A
 10
261.586667
 20
283.558376
 30
0.0
 11
261.586667
 21
221.2
 31
0.0
  0
LINE
  8
LC-004-003-MTH-0
  6
CONTINUOUS
  5
3B
 10
371.586667
 20
283.558376
 30
0.0
 11
371.586667
 21
221.2
 31
0.0
  0
LINE
  8
LC-005-003-MTG-0
  6
CONTINUOUS
  5
3D
 10
261.586667
 20
238.0
 30
0.0
 11
371.586667
 21
238.0
 31
0.0
  0
LINE
  8
LC-003-003-----0
  6
CONTINUOUS
  5
3F
 10
289.347123
 20
241.654733
 30
0.0
 11
261.586667
 21
238.0
 31
0.0
  0
LINE
  8
LC-003-003-----0
  6
CONTINUOUS
  5
40
 10
261.586667
 20
238.0
 30
0.0
 11
289.347123
 21
234.345267
 31
0.0
  0
LINE
  8
LC-003-003-----0
  6
CONTINUOUS
  5
41
 10
289.347123
 20
234.345267
 30
0.0
 11
289.347123
 21
241.654733
 31
0.0
  0
LINE
  8
LC-003-003-----0
  6
CONTINUOUS
  5
42
 10
289.409404
 20
240.704503
 30
0.0
 11
268.866667
 21
238.0
 31
0.0
  0
LINE
  8
LC-003-003-----0
  6
CONTINUOUS
  5
43
 10
268.866667
 20
238.0
 30
0.0
 11
289.409404
 21
235.295497
 31
0.0
  0
LINE
  8
LC-003-003-----0
  6
CONTINUOUS
  5
44
 10
289.471686
 20
239.754272
 30
0.0
 11
276.146667
 21
238.0
 31
0.0
  0
LINE
  8
LC-003-003-----0
  6
CONTINUOUS
  5
45
 10
276.146667
 20
238.0
 30
0.0
 11
289.471686
 21
236.245728
 31
0.0
  0
LINE
  8
LC-003-003-----0
  6
CONTINUOUS
  5
46
 10
289.533967
 20
238.804041
 30
0.0
 11
283.426667
 21
238.0
 31
0.0
  0
LINE
  8
LC-003-003-----0
  6
CONTINUOUS
  5
47
 10
283.426667
 20
238.0
 30
0.0
 11
289.533967
 21
237.195959
 31
0.0
  0
LINE
  8
LC-003-003-----0
  6
CONTINUOUS
  5
48
 10
343.826211
 20
234.345267
 30
0.0
 11
371.586667
 21
238.0
 31
0.0
  0
LINE
  8
LC-003-003-----0
  6
CONTINUOUS
  5
49
 10
371.586667
 20
238.0
 30
0.0
 11
343.826211
 21
241.654733
 31
0.0
  0
LINE
  8
LC-003-003-----0
  6
CONTINUOUS
  5
4A
 10
343.826211
 20
241.654733
 30
0.0
 11
343.826211
 21
234.345267
 31
0.0
  0
LINE
  8
LC-003-003-----0
  6
CONTINUOUS
  5
4B
 10
343.763929
 20
235.295497
 30
0.0
 11
364.306667
 21
238.0
 31
0.0
  0
LINE
  8
LC-003-003-----0
  6
CONTINUOUS
  5
4C
 10
364.306667
 20
238.0
 30
0.0
 11
343.763929
 21
240.704503
 31
0.0
  0
LINE
  8
LC-003-003-----0
  6
CONTINUOUS
  5
4D
 10
343.701648
 20
236.245728
 30
0.0
 11
357.026667
 21
238.0
 31
0.0
  0
LINE
  8
LC-003-003-----0
  6
CONTINUOUS
  5
4E
 10
357.026667
 20
238.0
 30
0.0
 11
343.701648
 21
239.754272
 31
0.0
  0
LINE
  8
LC-003-003-----0
  6
CONTINUOUS
  5
4F
 10
343.639366
 20
237.195959
 30
0.0
 11
349.746667
 21
238.0
 31
0.0
  0
LINE
  8
LC-003-003-----0
  6
CONTINUOUS
  5
50
 10
349.746667
 20
238.0
 30
0.0
 11
343.639366
 21
238.804041
 31
0.0
  0
TEXT
  8
LC-003-003-----0
  6
CONTINUOUS
 62
     8
  5
52
 10
282.837189
 20
245.827554
 30
0.0
 40
28.0
  1
Ø110
 41
0.9
 51
15.0
  7
LC-TXTSTYLE-150-400-0-0-D0
 72
     1
 11
320.934827
 21
245.827554
 31
0.0
  0
ENDBLK
  8
0
  5
53
  0
BLOCK
  8
0
  5
55
  2
*D8
 70
    65
 10
0.0
 20
0.0
 30
0.0
  3
*D8
  0
LINE
  8
LC-004-003-MTH-0
  6
CONTINUOUS
  5
56
 10
246.086667
 20
379.058376
 30
0.0
 11
179.2
 21
379.058376
 31
0.0
  0
LINE
  8
LC-004-003-MTH-0
  6
CONTINUOUS
  5
57
 10
245.086497
 20
408.058376
 30
0.0
 11
179.2
 21
408.058376
 31
0.0
  0
LINE
  8
LC-003-003-----0
  6
CONTINUOUS
  5
58
 10
199.654733
 20
351.29792
 30
0.0
 11
196.0
 21
379.058376
 31
0.0
  0
LINE
  8
LC-003-003-----0
  6
CONTINUOUS
  5
59
 10
196.0
 20
379.058376
 30
0.0
 11
192.345267
 21
351.29792
 31
0.0
  0
LINE
  8
LC-003-003-----0
  6
CONTINUOUS
  5
5A
 10
192.345267
 20
351.29792
 30
0.0
 11
199.654733
 21
351.29792
 31
0.0
  0
LINE
  8
LC-003-003-----0
  6
CONTINUOUS
  5
5B
 10
198.704503
 20
351.235639
 30
0.0
 11
196.0
 21
371.778376
 31
0.0
  0
LINE
  8
LC-003-003-----0
  6
CONTINUOUS
  5
5C
 10
196.0
 20
371.778376
 30
0.0
 11
193.295497
 21
351.235639
 31
0.0
  0
LINE
  8
LC-003-003-----0
  6
CONTINUOUS
  5
5D
 10
197.754272
 20
351.173357
 30
0.0
 11
196.0
 21
364.498376
 31
0.0
  0
LINE
  8
LC-003-003-----0
  6
CONTINUOUS
  5
5E
 10
196.0
 20
364.498376
 30
0.0
 11
194.245728
 21
351.173357
 31
0.0
  0
LINE
  8
LC-003-003-----0
  6
CONTINUOUS
  5
5F
 10
196.804041
 20
351.111076
 30
0.0
 11
196.0
 21
357.218376
 31
0.0
  0
LINE
  8
LC-003-003-----0
  6
CONTINUOUS
  5
60
 10
196.0
 20
357.218376
 30
0.0
 11
195.195959
 21
351.111076
 31
0.0
  0
LINE
  8
LC-003-003-----0
  6
CONTINUOUS
  5
61
 10
192.345267
 20
435.818832
 30
0.0
 11
196.0
 21
408.058376
 31
0.0
  0
LINE
  8
LC-003-003-----0
  6
CONTINUOUS
  5
62
 10
196.0
 20
408.058376
 30
0.0
 11
199.654733
 21
435.818832
 31
0.0
  0
LINE
  8
LC-003-003-----0
  6
CONTINUOUS
  5
63
 10
199.654733
 20
435.818832
 30
0.0
 11
192.345267
 21
435.818832
 31
0.0
  0
LINE
  8
LC-003-003-----0
  6
CONTINUOUS
  5
64
 10
193.295497
 20
435.881114
 30
0.0
 11
196.0
 21
415.338376
 31
0.0
  0
LINE
  8
LC-003-003-----0
  6
CONTINUOUS
  5
65
 10
196.0
 20
415.338376
 30
0.0
 11
198.704503
 21
435.881114
 31
0.0
  0
LINE
  8
LC-003-003-----0
  6
CONTINUOUS
  5
66
 10
194.245728
 20
435.943395
 30
0.0
 11
196.0
 21
422.618376
 31
0.0
  0
LINE
  8
LC-003-003-----0
  6
CONTINUOUS
  5
67
 10
196.0
 20
422.618376
 30
0.0
 11
197.754272
 21
435.943395
 31
0.0
  0
LINE
  8
LC-003-003-----0
  6
CONTINUOUS
  5
68
 10
195.195959
 20
436.005676
 30
0.0
 11
196.0
 21
429.898376
 31
0.0
  0
LINE
  8
LC-003-003-----0
  6
CONTINUOUS
  5
69
 10
196.0
 20
429.898376
 30
0.0
 11
196.804041
 21
436.005676
 31
0.0
  0
LINE
  8
LC-005-003-MTG-0
  6
CONTINUOUS
  5
6A
 10
196.0
 20
295.693976
 30
0.0
 11
196.0
 21
447.258376
 31
0.0
  0
TEXT
  8
LC-003-003-----0
  6
CONTINUOUS
 62
     8
  5
6B
 10
188.172446
 20
308.419449
 30
0.0
 40
28.0
  1
29
 50
90.0
 51
15.0
  7
LC-TXTSTYLE-150-400-0-0-D0
 72
     2
 11
188.172446
 21
345.326536
 31
0.0
  0
ENDBLK
  8
0
  5
6C
  0
BLOCK
  8
0
  5
6E
  2
*X9
 70
    65
 10
240.086497
 20
278.058376
 30
0.0
  3
*X9
  0
LINE
  8
LC-006-005-----0
  6
CONTINUOUS
  5
70
 10
246.086497
 20
404.451742
 30
0.0
 11
243.485024
 21
407.053214
 31
0.0
  0
LINE
  8
LC-006-005-----0
  6
CONTINUOUS
  5
71
 10
246.086497
 20
401.623315
 30
0.0
 11
242.586497
 21
405.123315
 31
0.0
  0
LINE
  8
LC-006-005-----0
  6
CONTINUOUS
  5
72
 10
264.586667
 20
380.294718
 30
0.0
 11
261.823008
 21
383.058376
 31
0.0
  0
LINE
  8
LC-006-005-----0
  6
CONTINUOUS
  5
73
 10
246.086497
 20
398.794888
 30
0.0
 11
242.586497
 21
402.294888
 31
0.0
  0
LINE
  8
LC-006-005-----0
  6
CONTINUOUS
  5
74
 10
264.586667
 20
377.466291
 30
0.0
 11
258.994581
 21
383.058376
 31
0.0
  0
LINE
  8
LC-006-005-----0
  6
CONTINUOUS
  5
75
 10
246.086497
 20
395.966461
 30
0.0
 11
242.586497
 21
399.466461
 31
0.0
  0
LINE
  8
LC-006-005-----0
  6
CONTINUOUS
  5
76
 10
264.586667
 20
374.637864
 30
0.0
 11
261.586667
 21
377.637864
 31
0.0
  0
LINE
  8
LC-006-005-----0
  6
CONTINUOUS
  5
77
 10
260.166154
 20
379.058376
 30
0.0
 11
256.166154
 21
383.058376
 31
0.0
  0
LINE
  8
LC-006-005-----0
  6
CONTINUOUS
  5
78
 10
246.086497
 20
393.138033
 30
0.0
 11
242.586497
 21
396.638033
 31
0.0
  0
LINE
  8
LC-006-005-----0
  6
CONTINUOUS
  5
79
 10
264.586667
 20
371.809436
 30
0.0
 11
261.586667
 21
374.809436
 31
0.0
  0
LINE
  8
LC-006-005-----0
  6
CONTINUOUS
  5
7A
 10
257.337727
 20
379.058376
 30
0.0
 11
253.337727
 21
383.058376
 31
0.0
  0
LINE
  8
LC-006-005-----0
  6
CONTINUOUS
  5
7B
 10
246.086497
 20
390.309606
 30
0.0
 11
241.837727
 21
394.558376
 31
0.0
  0
LINE
  8
LC-006-005-----0
  6
CONTINUOUS
  5
7C
 10
241.586497
 20
394.809606
 30
0.0
 11
240.40877
 21
395.987333
 31
0.0
  0
LINE
  8
LC-006-005-----0
  6
CONTINUOUS
  5
7D
 10
264.586667
 20
368.981009
 30
0.0
 11
261.586667
 21
371.981009
 31
0.0
  0
LINE
  8
LC-006-005-----0
  6
CONTINUOUS
  5
7E
 10
254.5093
 20
379.058376
 30
0.0
 11
250.5093
 21
383.058376
 31
0.0
  0
LINE
  8
LC-006-005-----0
  6
CONTINUOUS
  5
7F
 10
247.086497
 20
386.481179
 30
0.0
 11
247.047898
 21
386.519778
 31
0.0
  0
LINE
  8
LC-006-005-----0
  6
CONTINUOUS
  5
80
 10
246.086497
 20
387.481179
 30
0.0
 11
241.586497
 21
391.981179
 31
0.0
  0
LINE
  8
LC-006-005-----0
  6
CONTINUOUS
  5
81
 10
240.5093
 20
393.058376
 30
0.0
 11
240.086497
 21
393.481179
 31
0.0
  0
LINE
  8
LC-006-005-----0
  6
CONTINUOUS
  5
82
 10
264.586667
 20
366.152582
 30
0.0
 11
261.586667
 21
369.152582
 31
0.0
  0
LINE
  8
LC-006-005-----0
  6
CONTINUOUS
  5
83
 10
251.680873
 20
379.058376
 30
0.0
 11
247.680873
 21
383.058376
 31
0.0
  0
LINE
  8
LC-006-005-----0
  6
CONTINUOUS
  5
84
 10
247.086497
 20
383.652752
 30
0.0
 11
245.633684
 21
385.105565
 31
0.0
  0
LINE
  8
LC-006-005-----0
  6
CONTINUOUS
  5
85
 10
244.926577
 20
385.812672
 30
0.0
 11
244.086667
 21
386.652582
 31
0.0
  0
LINE
  8
LC-006-005-----0
  6
CONTINUOUS
  5
86
 10
241.680873
 20
389.058376
 30
0.0
 11
241.586497
 21
389.152752
 31
0.0
  0
LINE
  8
LC-006-005-----0
  6
CONTINUOUS
  5
87
 10
264.586667
 20
363.324155
 30
0.0
 11
261.586667
 21
366.324155
 31
0.0
  0
LINE
  8
LC-006-005-----0
  6
CONTINUOUS
  5
88
 10
248.852446
 20
379.058376
 30
0.0
 11
244.086667
 21
383.824155
 31
0.0
  0
LINE
  8
LC-006-005-----0
  6
CONTINUOUS
  5
89
 10
264.586667
 20
360.495728
 30
0.0
 11
261.586667
 21
363.495728
 31
0.0
  0
LINE
  8
LC-006-005-----0
  6
CONTINUOUS
  5
8A
 10
246.023005
 20
379.05939
 30
0.0
 11
244.08768
 21
380.994714
 31
0.0
  0
LINE
  8
LC-006-005-----0
  6
CONTINUOUS
  5
8B
 10
264.586667
 20
357.667301
 30
0.0
 11
261.586667
 21
360.667301
 31
0.0
  0
LINE
  8
LC-006-005-----0
  6
CONTINUOUS
  5
8C
 10
264.586667
 20
354.838874
 30
0.0
 11
261.586667
 21
357.838874
 31
0.0
  0
LINE
  8
LC-006-005-----0
  6
CONTINUOUS
  5
8D
 10
264.586667
 20
352.010447
 30
0.0
 11
261.586667
 21
355.010447
 31
0.0
  0
LINE
  8
LC-006-005-----0
  6
CONTINUOUS
  5
8E
 10
264.586667
 20
349.182019
 30
0.0
 11
261.586667
 21
352.182019
 31
0.0
  0
LINE
  8
LC-006-005-----0
  6
CONTINUOUS
  5
8F
 10
264.586667
 20
346.353592
 30
0.0
 11
261.586667
 21
349.353592
 31
0.0
  0
LINE
  8
LC-006-005-----0
  6
CONTINUOUS
  5
90
 10
264.586667
 20
343.525165
 30
0.0
 11
261.586667
 21
346.525165
 31
0.0
  0
LINE
  8
LC-006-005-----0
  6
CONTINUOUS
  5
91
 10
264.586667
 20
340.696738
 30
0.0
 11
261.586667
 21
343.696738
 31
0.0
  0
LINE
  8
LC-006-005-----0
  6
CONTINUOUS
  5
92
 10
264.586667
 20
337.868311
 30
0.0
 11
261.586667
 21
340.868311
 31
0.0
  0
LINE
  8
LC-006-005-----0
  6
CONTINUOUS
  5
93
 10
264.586667
 20
335.039884
 30
0.0
 11
261.586667
 21
338.039884
 31
0.0
  0
LINE
  8
LC-006-005-----0
  6
CONTINUOUS
  5
94
 10
264.586667
 20
332.211457
 30
0.0
 11
261.586667
 21
335.211457
 31
0.0
  0
LINE
  8
LC-006-005-----0
  6
CONTINUOUS
  5
95
 10
264.586667
 20
329.38303
 30
0.0
 11
261.586667
 21
332.38303
 31
0.0
  0
LINE
  8
LC-006-005-----0
  6
CONTINUOUS
  5
96
 10
264.586667
 20
326.554602
 30
0.0
 11
261.586667
 21
329.554602
 31
0.0
  0
LINE
  8
LC-006-005-----0
  6
CONTINUOUS
  5
97
 10
264.586667
 20
323.726175
 30
0.0
 11
261.586667
 21
326.726175
 31
0.0
  0
LINE
  8
LC-006-005-----0
  6
CONTINUOUS
  5
98
 10
264.586667
 20
320.897748
 30
0.0
 11
261.586667
 21
323.897748
 31
0.0
  0
LINE
  8
LC-006-005-----0
  6
CONTINUOUS
  5
99
 10
264.586667
 20
318.069321
 30
0.0
 11
261.586667
 21
321.069321
 31
0.0
  0
LINE
  8
LC-006-005-----0
  6
CONTINUOUS
  5
9A
 10
264.586667
 20
315.240894
 30
0.0
 11
261.586667
 21
318.240894
 31
0.0
  0
LINE
  8
LC-006-005-----0
  6
CONTINUOUS
  5
9B
 10
264.586667
 20
312.412467
 30
0.0
 11
261.586667
 21
315.412467
 31
0.0
  0
LINE
  8
LC-006-005-----0
  6
CONTINUOUS
  5
9C
 10
264.586667
 20
309.58404
 30
0.0
 11
261.586667
 21
312.58404
 31
0.0
  0
LINE
  8
LC-006-005-----0
  6
CONTINUOUS
  5
9D
 10
264.586667
 20
306.755613
 30
0.0
 11
261.586667
 21
309.755613
 31
0.0
  0
LINE
  8
LC-006-005-----0
  6
CONTINUOUS
  5
9E
 10
264.586667
 20
303.927185
 30
0.0
 11
261.586667
 21
306.927185
 31
0.0
  0
LINE
  8
LC-006-005-----0
  6
CONTINUOUS
  5
9F
 10
264.586667
 20
301.098758
 30
0.0
 11
261.586667
 21
304.098758
 31
0.0
  0
LINE
  8
LC-006-005-----0
  6
CONTINUOUS
  5
A0
 10
264.586667
 20
298.270331
 30
0.0
 11
261.586667
 21
301.270331
 31
0.0
  0
LINE
  8
LC-006-005-----0
  6
CONTINUOUS
  5
A1
 10
264.586667
 20
295.441904
 30
0.0
 11
261.586667
 21
298.441904
 31
0.0
  0
LINE
  8
LC-006-005-----0
  6
CONTINUOUS
  5
A2
 10
264.586667
 20
292.613477
 30
0.0
 11
261.586667
 21
295.613477
 31
0.0
  0
LINE
  8
LC-006-005-----0
  6
CONTINUOUS
  5
A3
 10
264.586667
 20
289.78505
 30
0.0
 11
261.586667
 21
292.78505
 31
0.0
  0
LINE
  8
LC-006-005-----0
  6
CONTINUOUS
  5
A4
 10
264.586667
 20
286.956623
 30
0.0
 11
261.586667
 21
289.956623
 31
0.0
  0
LINE
  8
LC-006-005-----0
  6
CONTINUOUS
  5
A5
 10
264.586667
 20
284.128196
 30
0.0
 11
261.586667
 21
287.128196
 31
0.0
  0
LINE
  8
LC-006-005-----0
  6
CONTINUOUS
  5
A6
 10
264.586667
 20
281.299768
 30
0.0
 11
261.586667
 21
284.299768
 31
0.0
  0
LINE
  8
LC-006-005-----0
  6
CONTINUOUS
  5
A7
 10
264.586667
 20
278.471341
 30
0.0
 11
262.350574
 21
280.707434
 31
0.0
  0
ENDBLK
  8
0
  5
A8
  0
BLOCK
  8
0
  5
AA
  2
BLK8
 70
    64
 10
0.0
 20
0.0
 30
0.0
  3
BLK8
  0
ENDBLK
  8
0
  5
AB
  0
BLOCK
  8
0
  5
AD
  2
BLK9
 70
    64
 10
0.0
 20
0.0
 30
0.0
  3
BLK9
  0
ENDBLK
  8
0
  5
AE
  0
BLOCK
  8
0
  5
B0
  2
BLK10
 70
    64
 10
0.0
 20
0.0
 30
0.0
  3
BLK10
  0
ENDBLK
  8
0
  5
B1
  0
BLOCK
  8
0
  5
B3
  2
BLK11
 70
    64
 10
0.0
 20
0.0
 30
0.0
  3
BLK11
  0
ENDBLK
  8
0
  5
B4
  0
BLOCK
  8
0
  5
B6
  2
BLK12
 70
    64
 10
0.0
 20
0.0
 30
0.0
  3
BLK12
  0
ENDBLK
  8
0
  5
B7
  0
BLOCK
  8
0
  5
B9
  2
BLK13
 70
    64
 10
0.0
 20
0.0
 30
0.0
  3
BLK13
  0
ENDBLK
  8
0
  5
BA
  0
BLOCK
  8
0
  5
BC
  2
BLK14
 70
    64
 10
0.0
 20
0.0
 30
0.0
  3
BLK14
  0
ENDBLK
  8
0
  5
BD
  0
BLOCK
  8
0
  5
BF
  2
BLK15
 70
    64
 10
0.0
 20
0.0
 30
0.0
  3
BLK15
  0
ENDBLK
  8
0
  5
C0
  0
BLOCK
  8
0
  5
C2
  2
BLK16
 70
    64
 10
0.0
 20
0.0
 30
0.0
  3
BLK16
  0
ENDBLK
  8
0
  5
C3
  0
BLOCK
  8
0
  5
C5
  2
BLK17
 70
    64
 10
0.0
 20
0.0
 30
0.0
  3
BLK17
  0
ENDBLK
  8
0
  5
C6
  0
BLOCK
  8
0
  5
C8
  2
BLK18
 70
    64
 10
0.0
 20
0.0
 30
0.0
  3
BLK18
  0
ENDBLK
  8
0
  5
C9
  0
BLOCK
  8
0
  5
CB
  2
BLK19
 70
    64
 10
0.0
 20
0.0
 30
0.0
  3
BLK19
  0
ENDBLK
  8
0
  5
CC
  0
BLOCK
  8
0
  5
CE
  2
BLK20
 70
    64
 10
0.0
 20
0.0
 30
0.0
  3
BLK20
  0
ENDBLK
  8
0
  5
CF
  0
BLOCK
  8
0
  5
D1
  2
BLK21
 70
    64
 10
0.0
 20
0.0
 30
0.0
  3
BLK21
  0
ENDBLK
  8
0
  5
D2
  0
BLOCK
  8
0
  5
D4
  2
BLK22
 70
    64
 10
0.0
 20
0.0
 30
0.0
  3
BLK22
  0
ENDBLK
  8
0
  5
D5
  0
BLOCK
  8
0
  5
D7
  2
BLK23
 70
    64
 10
0.0
 20
0.0
 30
0.0
  3
BLK23
  0
ENDBLK
  8
0
  5
D8
  0
BLOCK
  8
0
  5
DA
  2
BLK24
 70
    64
 10
0.0
 20
0.0
 30
0.0
  3
BLK24
  0
ENDBLK
  8
0
  5
DB
  0
BLOCK
  8
0
  5
DD
  2
BLK25
 70
    64
 10
0.0
 20
0.0
 30
0.0
  3
BLK25
  0
ENDBLK
  8
0
  5
DE
  0
BLOCK
  8
0
  5
E0
  2
BLK26
 70
    64
 10
0.0
 20
0.0
 30
0.0
  3
BLK26
  0
ENDBLK
  8
0
  5
E1
  0
BLOCK
  8
0
  5
E3
  2
BLK27
 70
    64
 10
0.0
 20
0.0
 30
0.0
  3
BLK27
  0
ENDBLK
  8
0
  5
E4
  0
BLOCK
  8
0
  5
E6
  2
BLK28
 70
    64
 10
0.0
 20
0.0
 30
0.0
  3
BLK28
  0
ENDBLK
  8
0
  5
E7
  0
BLOCK
  8
0
  5
E9
  2
BLK29
 70
    64
 10
0.0
 20
0.0
 30
0.0
  3
BLK29
  0
ENDBLK
  8
0
  5
EA
  0
BLOCK
  8
0
  5
EC
  2
BLK30
 70
    64
 10
0.0
 20
0.0
 30
0.0
  3
BLK30
  0
ENDBLK
  8
0
  5
ED
  0
BLOCK
  8
0
  5
EF
  2
BLK31
 70
    64
 10
0.0
 20
0.0
 30
0.0
  3
BLK31
  0
ENDBLK
  8
0
  5
F0
  0
BLOCK
  8
0
  5
F2
  2
BLK32
 70
    64
 10
0.0
 20
0.0
 30
0.0
  3
BLK32
  0
ENDBLK
  8
0
  5
F3
  0
BLOCK
  8
0
  5
F5
  2
BLK33
 70
    64
 10
0.0
 20
0.0
 30
0.0
  3
BLK33
  0
ENDBLK
  8
0
  5
F6
  0
BLOCK
  8
0
  5
F8
  2
BLK34
 70
    64
 10
0.0
 20
0.0
 30
0.0
  3
BLK34
  0
ENDBLK
  8
0
  5
F9
  0
BLOCK
  8
0
  5
FB
  2
BLK35
 70
    64
 10
0.0
 20
0.0
 30
0.0
  3
BLK35
  0
ENDBLK
  8
0
  5
FC
  0
BLOCK
  8
0
  5
FE
  2
BLK36
 70
    64
 10
0.0
 20
0.0
 30
0.0
  3
BLK36
  0
ENDBLK
  8
0
  5
FF
  0
BLOCK
  8
0
  5
101
  2
BLK37
 70
    64
 10
0.0
 20
0.0
 30
0.0
  3
BLK37
  0
ENDBLK
  8
0
  5
102
  0
BLOCK
  8
0
  5
104
  2
*D40
 70
    65
 10
0.0
 20
0.0
 30
0.0
  3
*D40
  0
LINE
  8
LC-004-003-MTH-0
  6
CONTINUOUS
  5
105
 10
241.586497
 20
406.058376
 30
0.0
 11
241.586497
 21
456.8
 31
0.0
  0
LINE
  8
LC-004-003-MTH-0
  6
CONTINUOUS
  5
106
 10
391.533579
 20
406.05844
 30
0.0
 11
391.533579
 21
456.8
 31
0.0
  0
LINE
  8
LC-005-003-MTG-0
  6
CONTINUOUS
  5
107
 10
241.586497
 20
440.0
 30
0.0
 11
391.533579
 21
440.0
 31
0.0
  0
LINE
  8
LC-003-003-----0
  6
CONTINUOUS
  5
108
 10
269.346953
 20
443.654733
 30
0.0
 11
241.586497
 21
440.0
 31
0.0
  0
LINE
  8
LC-003-003-----0
  6
CONTINUOUS
  5
109
 10
241.586497
 20
440.0
 30
0.0
 11
269.346953
 21
436.345267
 31
0.0
  0
LINE
  8
LC-003-003-----0
  6
CONTINUOUS
  5
10A
 10
269.346953
 20
436.345267
 30
0.0
 11
269.346953
 21
443.654733
 31
0.0
  0
LINE
  8
LC-003-003-----0
  6
CONTINUOUS
  5
10B
 10
269.409234
 20
442.704503
 30
0.0
 11
248.866497
 21
440.0
 31
0.0
  0
LINE
  8
LC-003-003-----0
  6
CONTINUOUS
  5
10C
 10
248.866497
 20
440.0
 30
0.0
 11
269.409234
 21
437.295497
 31
0.0
  0
LINE
  8
LC-003-003-----0
  6
CONTINUOUS
  5
10D
 10
269.471516
 20
441.754272
 30
0.0
 11
256.146497
 21
440.0
 31
0.0
  0
LINE
  8
LC-003-003-----0
  6
CONTINUOUS
  5
10E
 10
256.146497
 20
440.0
 30
0.0
 11
269.471516
 21
438.245728
 31
0.0
  0
LINE
  8
LC-003-003-----0
  6
CONTINUOUS
  5
10F
 10
269.533797
 20
440.804041
 30
0.0
 11
263.426497
 21
440.0
 31
0.0
  0
LINE
  8
LC-003-003-----0
  6
CONTINUOUS
  5
110
 10
263.426497
 20
440.0
 30
0.0
 11
269.533797
 21
439.195959
 31
0.0
  0
LINE
  8
LC-003-003-----0
  6
CONTINUOUS
  5
111
 10
363.773123
 20
436.345267
 30
0.0
 11
391.533579
 21
440.0
 31
0.0
  0
LINE
  8
LC-003-003-----0
  6
CONTINUOUS
  5
112
 10
391.533579
 20
440.0
 30
0.0
 11
363.773123
 21
443.654733
 31
0.0
  0
LINE
  8
LC-003-003-----0
  6
CONTINUOUS
  5
113
 10
363.773123
 20
443.654733
 30
0.0
 11
363.773123
 21
436.345267
 31
0.0
  0
LINE
  8
LC-003-003-----0
  6
CONTINUOUS
  5
114
 10
363.710841
 20
437.295497
 30
0.0
 11
384.253579
 21
440.0
 31
0.0
  0
LINE
  8
LC-003-003-----0
  6
CONTINUOUS
  5
115
 10
384.253579
 20
440.0
 30
0.0
 11
363.710841
 21
442.704503
 31
0.0
  0
LINE
  8
LC-003-003-----0
  6
CONTINUOUS
  5
116
 10
363.64856
 20
438.245728
 30
0.0
 11
376.973579
 21
440.0
 31
0.0
  0
LINE
  8
LC-003-003-----0
  6
CONTINUOUS
  5
117
 10
376.973579
 20
440.0
 30
0.0
 11
363.64856
 21
441.754272
 31
0.0
  0
LINE
  8
LC-003-003-----0
  6
CONTINUOUS
  5
118
 10
363.586278
 20
439.195959
 30
0.0
 11
369.693579
 21
440.0
 31
0.0
  0
LINE
  8
LC-003-003-----0
  6
CONTINUOUS
  5
119
 10
369.693579
 20
440.0
 30
0.0
 11
363.586278
 21
440.804041
 31
0.0
  0
TEXT
  8
LC-003-003-----0
  6
CONTINUOUS
 62
     8
  5
11A
 10
290.557052
 20
447.827554
 30
0.0
 40
28.0
  1
150
 51
15.0
  7
LC-TXTSTYLE-150-400-0-0-D0
 72
     1
 11
320.320832
 21
447.827554
 31
0.0
  0
ENDBLK
  8
0
  5
11B
  0
BLOCK
  8
0
  5
11D
  2
BLK38
 70
    64
 10
0.0
 20
0.0
 30
0.0
  3
BLK38
  0
ENDBLK
  8
0
  5
11E
  0
BLOCK
  8
0
  5
120
  2
BLK39
 70
    64
 10
0.0
 20
0.0
 30
0.0
  3
BLK39
  0
ENDBLK
  8
0
  5
121
  0
BLOCK
  8
0
  5
123
  2
*X43
 70
    65
 10
241.586497
 20
385.058378
 30
0.0
  3
*X43
  0
LINE
  8
LC-006-005-----0
  6
CONTINUOUS
  5
124
 10
246.086497
 20
387.507853
 30
0.0
 11
247.086497
 21
388.507853
 31
0.0
  0
LINE
  8
LC-006-005-----0
  6
CONTINUOUS
  5
125
 10
246.086497
 20
390.33628
 30
0.0
 11
247.086497
 21
391.33628
 31
0.0
  0
LINE
  8
LC-006-005-----0
  6
CONTINUOUS
  5
126
 10
246.086497
 20
393.164707
 30
0.0
 11
247.086497
 21
394.164707
 31
0.0
  0
LINE
  8
LC-006-005-----0
  6
CONTINUOUS
  5
127
 10
246.086497
 20
395.993134
 30
0.0
 11
247.086497
 21
396.993134
 31
0.0
  0
LINE
  8
LC-006-005-----0
  6
CONTINUOUS
  5
128
 10
241.823311
 20
394.558376
 30
0.0
 11
242.586497
 21
395.321562
 31
0.0
  0
LINE
  8
LC-006-005-----0
  6
CONTINUOUS
  5
129
 10
246.086497
 20
398.821562
 30
0.0
 11
247.086497
 21
399.821562
 31
0.0
  0
LINE
  8
LC-006-005-----0
  6
CONTINUOUS
  5
12A
 10
241.586497
 20
397.149989
 30
0.0
 11
242.586497
 21
398.149989
 31
0.0
  0
LINE
  8
LC-006-005-----0
  6
CONTINUOUS
  5
12B
 10
246.086497
 20
401.649989
 30
0.0
 11
247.086497
 21
402.649989
 31
0.0
  0
LINE
  8
LC-006-005-----0
  6
CONTINUOUS
  5
12C
 10
241.586497
 20
399.978416
 30
0.0
 11
242.586497
 21
400.978416
 31
0.0
  0
LINE
  8
LC-006-005-----0
  6
CONTINUOUS
  5
12D
 10
246.086497
 20
404.478416
 30
0.0
 11
247.086497
 21
405.478416
 31
0.0
  0
LINE
  8
LC-006-005-----0
  6
CONTINUOUS
  5
12E
 10
241.586497
 20
402.806843
 30
0.0
 11
242.586497
 21
403.806843
 31
0.0
  0
LINE
  8
LC-006-005-----0
  6
CONTINUOUS
  5
12F
 10
245.658371
 20
406.878717
 30
0.0
 11
246.37101
 21
407.591356
 31
0.0
  0
LINE
  8
LC-006-005-----0
  6
CONTINUOUS
  5
130
 10
241.586497
 20
405.63527
 30
0.0
 11
244.009603
 21
408.058376
 31
0.0
  0
ENDBLK
  8
0
  5
131
  0
BLOCK
  8
0
  5
133
  2
*X44
 70
    65
 10
386.086441
 20
385.0595
 30
0.0
  3
*X44
  0
LINE
  8
LC-006-005-----0
  6
CONTINUOUS
  5
134
 10
386.323116
 20
386.323116
 30
0.0
 11
387.086741
 21
387.086741
 31
0.0
  0
LINE
  8
LC-006-005-----0
  6
CONTINUOUS
  5
135
 10
386.086712
 20
388.91514
 30
0.0
 11
387.086697
 21
389.915124
 31
0.0
  0
LINE
  8
LC-006-005-----0
  6
CONTINUOUS
  5
136
 10
386.086668
 20
391.743522
 30
0.0
 11
387.086652
 21
392.743506
 31
0.0
  0
LINE
  8
LC-006-005-----0
  6
CONTINUOUS
  5
137
 10
390.586597
 20
396.243451
 30
0.0
 11
391.586581
 21
397.243435
 31
0.0
  0
LINE
  8
LC-006-005-----0
  6
CONTINUOUS
  5
138
 10
386.086623
 20
394.571904
 30
0.0
 11
387.086607
 21
395.571889
 31
0.0
  0
LINE
  8
LC-006-005-----0
  6
CONTINUOUS
  5
139
 10
390.586552
 20
399.071833
 30
0.0
 11
391.586536
 21
400.071817
 31
0.0
  0
LINE
  8
LC-006-005-----0
  6
CONTINUOUS
  5
13A
 10
386.086578
 20
397.400287
 30
0.0
 11
387.086562
 21
398.400271
 31
0.0
  0
LINE
  8
LC-006-005-----0
  6
CONTINUOUS
  5
13B
 10
390.586507
 20
401.900216
 30
0.0
 11
391.586491
 21
402.9002
 31
0.0
  0
LINE
  8
LC-006-005-----0
  6
CONTINUOUS
  5
13C
 10
386.086534
 20
400.228669
 30
0.0
 11
387.086518
 21
401.228653
 31
0.0
  0
LINE
  8
LC-006-005-----0
  6
CONTINUOUS
  5
13D
 10
390.586462
 20
404.728598
 30
0.0
 11
391.586447
 21
405.728582
 31
0.0
  0
LINE
  8
LC-006-005-----0
  6
CONTINUOUS
  5
13E
 10
386.086489
 20
403.057052
 30
0.0
 11
387.086473
 21
404.057036
 31
0.0
  0
LINE
  8
LC-006-005-----0
  6
CONTINUOUS
  5
13F
 10
389.999618
 20
406.970181
 30
0.0
 11
390.729872
 21
407.700434
 31
0.0
  0
LINE
  8
LC-006-005-----0
  6
CONTINUOUS
  5
140
 10
386.086444
 20
405.885434
 30
0.0
 11
388.260519
 21
408.059509
 31
0.0
  0
ENDBLK
  8
0
  5
141
  0
BLOCK
  8
0
  5
143
  2
*X45
 70
    65
 10
368.586667
 20
278.058376
 30
0.0
  3
*X45
  0
LINE
  8
LC-006-005-----0
  6
CONTINUOUS
  5
144
 10
390.586837
 20
404.201185
 30
0.0
 11
387.778401
 21
407.009621
 31
0.0
  0
LINE
  8
LC-006-005-----0
  6
CONTINUOUS
  5
145
 10
390.586837
 20
401.372758
 30
0.0
 11
387.086837
 21
404.872758
 31
0.0
  0
LINE
  8
LC-006-005-----0
  6
CONTINUOUS
  5
146
 10
390.586837
 20
398.544331
 30
0.0
 11
387.086837
 21
402.044331
 31
0.0
  0
LINE
  8
LC-006-005-----0
  6
CONTINUOUS
  5
147
 10
393.086837
 20
393.215904
 30
0.0
 11
391.586837
 21
394.715904
 31
0.0
  0
LINE
  8
LC-006-005-----0
  6
CONTINUOUS
  5
148
 10
390.586837
 20
395.715904
 30
0.0
 11
387.086837
 21
399.215904
 31
0.0
  0
LINE
  8
LC-006-005-----0
  6
CONTINUOUS
  5
149
 10
391.586837
 20
391.887477
 30
0.0
 11
387.086837
 21
396.387477
 31
0.0
  0
LINE
  8
LC-006-005-----0
  6
CONTINUOUS
  5
14A
 10
391.586837
 20
389.05905
 30
0.0
 11
387.086837
 21
393.55905
 31
0.0
  0
LINE
  8
LC-006-005-----0
  6
CONTINUOUS
  5
14B
 10
389.086667
 20
388.730793
 30
0.0
 11
387.086837
 21
390.730623
 31
0.0
  0
LINE
  8
LC-006-005-----0
  6
CONTINUOUS
  5
14C
 10
389.086667
 20
385.902366
 30
0.0
 11
387.086837
 21
387.902196
 31
0.0
  0
LINE
  8
LC-006-005-----0
  6
CONTINUOUS
  5
14D
 10
389.086667
 20
383.073938
 30
0.0
 11
386.086837
 21
386.073768
 31
0.0
  0
LINE
  8
LC-006-005-----0
  6
CONTINUOUS
  5
14E
 10
388.963853
 20
380.368325
 30
0.0
 11
386.086837
 21
383.245341
 31
0.0
  0
LINE
  8
LC-006-005-----0
  6
CONTINUOUS
  5
14F
 10
387.417776
 20
379.085975
 30
0.0
 11
383.445375
 21
383.058376
 31
0.0
  0
LINE
  8
LC-006-005-----0
  6
CONTINUOUS
  5
150
 10
384.616948
 20
379.058376
 30
0.0
 11
380.616948
 21
383.058376
 31
0.0
  0
LINE
  8
LC-006-005-----0
  6
CONTINUOUS
  5
151
 10
381.788521
 20
379.058376
 30
0.0
 11
377.788521
 21
383.058376
 31
0.0
  0
LINE
  8
LC-006-005-----0
  6
CONTINUOUS
  5
152
 10
378.960093
 20
379.058376
 30
0.0
 11
374.960093
 21
383.058376
 31
0.0
  0
LINE
  8
LC-006-005-----0
  6
CONTINUOUS
  5
153
 10
376.131666
 20
379.058376
 30
0.0
 11
372.131666
 21
383.058376
 31
0.0
  0
LINE
  8
LC-006-005-----0
  6
CONTINUOUS
  5
154
 10
373.303239
 20
379.058376
 30
0.0
 11
369.303239
 21
383.058376
 31
0.0
  0
LINE
  8
LC-006-005-----0
  6
CONTINUOUS
  5
155
 10
371.586667
 20
377.946521
 30
0.0
 11
368.586667
 21
380.946521
 31
0.0
  0
LINE
  8
LC-006-005-----0
  6
CONTINUOUS
  5
156
 10
371.586667
 20
375.118094
 30
0.0
 11
368.586667
 21
378.118094
 31
0.0
  0
LINE
  8
LC-006-005-----0
  6
CONTINUOUS
  5
157
 10
371.586667
 20
372.289667
 30
0.0
 11
368.586667
 21
375.289667
 31
0.0
  0
LINE
  8
LC-006-005-----0
  6
CONTINUOUS
  5
158
 10
371.586667
 20
369.46124
 30
0.0
 11
368.586667
 21
372.46124
 31
0.0
  0
LINE
  8
LC-006-005-----0
  6
CONTINUOUS
  5
159
 10
371.586667
 20
366.632813
 30
0.0
 11
368.586667
 21
369.632813
 31
0.0
  0
LINE
  8
LC-006-005-----0
  6
CONTINUOUS
  5
15A
 10
371.586667
 20
363.804386
 30
0.0
 11
368.586667
 21
366.804386
 31
0.0
  0
LINE
  8
LC-006-005-----0
  6
CONTINUOUS
  5
15B
 10
371.586667
 20
360.975959
 30
0.0
 11
368.586667
 21
363.975959
 31
0.0
  0
LINE
  8
LC-006-005-----0
  6
CONTINUOUS
  5
15C
 10
371.586667
 20
358.147532
 30
0.0
 11
368.586667
 21
361.147532
 31
0.0
  0
LINE
  8
LC-006-005-----0
  6
CONTINUOUS
  5
15D
 10
371.586667
 20
355.319104
 30
0.0
 11
368.586667
 21
358.319104
 31
0.0
  0
LINE
  8
LC-006-005-----0
  6
CONTINUOUS
  5
15E
 10
371.586667
 20
352.490677
 30
0.0
 11
368.586667
 21
355.490677
 31
0.0
  0
LINE
  8
LC-006-005-----0
  6
CONTINUOUS
  5
15F
 10
371.586667
 20
349.66225
 30
0.0
 11
368.586667
 21
352.66225
 31
0.0
  0
LINE
  8
LC-006-005-----0
  6
CONTINUOUS
  5
160
 10
371.586667
 20
346.833823
 30
0.0
 11
368.586667
 21
349.833823
 31
0.0
  0
LINE
  8
LC-006-005-----0
  6
CONTINUOUS
  5
161
 10
371.586667
 20
344.005396
 30
0.0
 11
368.586667
 21
347.005396
 31
0.0
  0
LINE
  8
LC-006-005-----0
  6
CONTINUOUS
  5
162
 10
371.586667
 20
341.176969
 30
0.0
 11
368.586667
 21
344.176969
 31
0.0
  0
LINE
  8
LC-006-005-----0
  6
CONTINUOUS
  5
163
 10
371.586667
 20
338.348542
 30
0.0
 11
368.586667
 21
341.348542
 31
0.0
  0
LINE
  8
LC-006-005-----0
  6
CONTINUOUS
  5
164
 10
371.586667
 20
335.520115
 30
0.0
 11
368.586667
 21
338.520115
 31
0.0
  0
LINE
  8
LC-006-005-----0
  6
CONTINUOUS
  5
165
 10
371.586667
 20
332.691687
 30
0.0
 11
368.586667
 21
335.691687
 31
0.0
  0
LINE
  8
LC-006-005-----0
  6
CONTINUOUS
  5
166
 10
371.586667
 20
329.86326
 30
0.0
 11
368.586667
 21
332.86326
 31
0.0
  0
LINE
  8
LC-006-005-----0
  6
CONTINUOUS
  5
167
 10
371.586667
 20
327.034833
 30
0.0
 11
368.586667
 21
330.034833
 31
0.0
  0
LINE
  8
LC-006-005-----0
  6
CONTINUOUS
  5
168
 10
371.586667
 20
324.206406
 30
0.0
 11
368.586667
 21
327.206406
 31
0.0
  0
LINE
  8
LC-006-005-----0
  6
CONTINUOUS
  5
169
 10
371.586667
 20
321.377979
 30
0.0
 11
368.586667
 21
324.377979
 31
0.0
  0
LINE
  8
LC-006-005-----0
  6
CONTINUOUS
  5
16A
 10
371.586667
 20
318.549552
 30
0.0
 11
368.586667
 21
321.549552
 31
0.0
  0
LINE
  8
LC-006-005-----0
  6
CONTINUOUS
  5
16B
 10
371.586667
 20
315.721125
 30
0.0
 11
368.586667
 21
318.721125
 31
0.0
  0
LINE
  8
LC-006-005-----0
  6
CONTINUOUS
  5
16C
 10
371.586667
 20
312.892698
 30
0.0
 11
368.586667
 21
315.892698
 31
0.0
  0
LINE
  8
LC-006-005-----0
  6
CONTINUOUS
  5
16D
 10
371.586667
 20
310.06427
 30
0.0
 11
368.586667
 21
313.06427
 31
0.0
  0
LINE
  8
LC-006-005-----0
  6
CONTINUOUS
  5
16E
 10
371.586667
 20
307.235843
 30
0.0
 11
368.586667
 21
310.235843
 31
0.0
  0
LINE
  8
LC-006-005-----0
  6
CONTINUOUS
  5
16F
 10
371.586667
 20
304.407416
 30
0.0
 11
368.586667
 21
307.407416
 31
0.0
  0
LINE
  8
LC-006-005-----0
  6
CONTINUOUS
  5
170
 10
371.586667
 20
301.578989
 30
0.0
 11
368.586667
 21
304.578989
 31
0.0
  0
LINE
  8
LC-006-005-----0
  6
CONTINUOUS
  5
171
 10
371.586667
 20
298.750562
 30
0.0
 11
368.586667
 21
301.750562
 31
0.0
  0
LINE
  8
LC-006-005-----0
  6
CONTINUOUS
  5
172
 10
371.586667
 20
295.922135
 30
0.0
 11
368.586667
 21
298.922135
 31
0.0
  0
LINE
  8
LC-006-005-----0
  6
CONTINUOUS
  5
173
 10
371.586667
 20
293.093708
 30
0.0
 11
368.586667
 21
296.093708
 31
0.0
  0
LINE
  8
LC-006-005-----0
  6
CONTINUOUS
  5
174
 10
371.586667
 20
290.265281
 30
0.0
 11
368.586667
 21
293.265281
 31
0.0
  0
LINE
  8
LC-006-005-----0
  6
CONTINUOUS
  5
175
 10
371.586667
 20
287.436853
 30
0.0
 11
368.586667
 21
290.436853
 31
0.0
  0
LINE
  8
LC-006-005-----0
  6
CONTINUOUS
  5
176
 10
371.586667
 20
284.608426
 30
0.0
 11
368.586667
 21
287.608426
 31
0.0
  0
LINE
  8
LC-006-005-----0
  6
CONTINUOUS
  5
177
 10
371.210851
 20
282.155814
 30
0.0
 11
368.586667
 21
284.779999
 31
0.0
  0
LINE
  8
LC-006-005-----0
  6
CONTINUOUS
  5
178
 10
370.613134
 20
279.925104
 30
0.0
 11
368.586667
 21
281.951572
 31
0.0
  0
LINE
  8
LC-006-005-----0
  6
CONTINUOUS
  5
179
 10
369.651436
 20
278.058376
 30
0.0
 11
368.586667
 21
279.123145
 31
0.0
  0
ENDBLK
  8
0
  5
17A
  0
BLOCK
  8
0
  5
17C
  2
BLK40
 70
    64
 10
0.0
 20
0.0
 30
0.0
  3
BLK40
  0
ENDBLK
  8
0
  5
17D
  0
BLOCK
  8
0
  5
17F
  2
BLK41
 70
    64
 10
0.0
 20
0.0
 30
0.0
  3
BLK41
  0
ENDBLK
  8
0
  5
180
  0
BLOCK
  8
0
  5
182
  2
*X48
 70
    65
 10
344.086667
 20
402.058376
 30
0.0
  3
*X48
  0
LINE
  8
LC-006-005-----0
  6
CONTINUOUS
  5
183
 10
368.086667
 20
404.856219
 30
0.0
 11
369.000926
 21
405.770479
 31
0.0
  0
LINE
  8
LC-006-005-----0
  6
CONTINUOUS
  5
184
 10
367.152642
 20
406.750622
 30
0.0
 11
367.871613
 21
407.469593
 31
0.0
  0
LINE
  8
LC-006-005-----0
  6
CONTINUOUS
  5
185
 10
360.631969
 20
403.058376
 30
0.0
 11
361.086667
 21
403.513074
 31
0.0
  0
LINE
  8
LC-006-005-----0
  6
CONTINUOUS
  5
186
 10
364.631969
 20
407.058376
 30
0.0
 11
364.88076
 21
407.307167
 31
0.0
  0
LINE
  8
LC-006-005-----0
  6
CONTINUOUS
  5
187
 10
364.90725
 20
407.333657
 30
0.0
 11
365.631969
 21
408.058376
 31
0.0
  0
LINE
  8
LC-006-005-----0
  6
CONTINUOUS
  5
188
 10
360.1015
 20
405.356334
 30
0.0
 11
362.788709
 21
408.043543
 31
0.0
  0
LINE
  8
LC-006-005-----0
  6
CONTINUOUS
  5
189
 10
352.146688
 20
403.058376
 30
0.0
 11
353.086667
 21
403.998355
 31
0.0
  0
LINE
  8
LC-006-005-----0
  6
CONTINUOUS
  5
18A
 10
351.975568
 20
405.715683
 30
0.0
 11
352.732438
 21
406.472553
 31
0.0
  0
LINE
  8
LC-006-005-----0
  6
CONTINUOUS
  5
18B
 10
350.455525
 20
407.024068
 30
0.0
 11
351.253582
 21
407.822125
 31
0.0
  0
LINE
  8
LC-006-005-----0
  6
CONTINUOUS
  5
18C
 10
344.086667
 20
403.483636
 30
0.0
 11
345.086667
 21
404.483636
 31
0.0
  0
LINE
  8
LC-006-005-----0
  6
CONTINUOUS
  5
18D
 10
347.661406
 20
407.058376
 30
0.0
 11
348.661406
 21
408.058376
 31
0.0
  0
ENDBLK
  8
0
  5
18E
  0
BLOCK
  8
0
  5
190
  2
*X49
 70
    65
 10
296.086667
 20
402.058376
 30
0.0
  3
*X49
  0
LINE
  8
LC-006-005-----0
  6
CONTINUOUS
  5
191
 10
336.086667
 20
403.968918
 30
0.0
 11
337.086667
 21
404.968918
 31
0.0
  0
LINE
  8
LC-006-005-----0
  6
CONTINUOUS
  5
192
 10
335.62536
 20
406.336039
 30
0.0
 11
336.334484
 21
407.045162
 31
0.0
  0
LINE
  8
LC-006-005-----0
  6
CONTINUOUS
  5
193
 10
333.519271
 20
407.058376
 30
0.0
 11
334.491791
 21
408.030896
 31
0.0
  0
LINE
  8
LC-006-005-----0
  6
CONTINUOUS
  5
194
 10
330.690844
 20
407.058376
 30
0.0
 11
331.690844
 21
408.058376
 31
0.0
  0
LINE
  8
LC-006-005-----0
  6
CONTINUOUS
  5
195
 10
327.862417
 20
407.058376
 30
0.0
 11
328.862417
 21
408.058376
 31
0.0
  0
LINE
  8
LC-006-005-----0
  6
CONTINUOUS
  5
196
 10
325.033989
 20
407.058376
 30
0.0
 11
326.033989
 21
408.058376
 31
0.0
  0
LINE
  8
LC-006-005-----0
  6
CONTINUOUS
  5
197
 10
322.205562
 20
407.058376
 30
0.0
 11
323.205562
 21
408.058376
 31
0.0
  0
LINE
  8
LC-006-005-----0
  6
CONTINUOUS
  5
198
 10
319.377135
 20
407.058376
 30
0.0
 11
320.377135
 21
408.058376
 31
0.0
  0
LINE
  8
LC-006-005-----0
  6
CONTINUOUS
  5
199
 10
316.548708
 20
407.058376
 30
0.0
 11
317.548708
 21
408.058376
 31
0.0
  0
LINE
  8
LC-006-005-----0
  6
CONTINUOUS
  5
19A
 10
313.720281
 20
407.058376
 30
0.0
 11
314.720281
 21
408.058376
 31
0.0
  0
LINE
  8
LC-006-005-----0
  6
CONTINUOUS
  5
19B
 10
310.891854
 20
407.058376
 30
0.0
 11
311.891854
 21
408.058376
 31
0.0
  0
LINE
  8
LC-006-005-----0
  6
CONTINUOUS
  5
19C
 10
308.063427
 20
407.058376
 30
0.0
 11
309.063427
 21
408.058376
 31
0.0
  0
LINE
  8
LC-006-005-----0
  6
CONTINUOUS
  5
19D
 10
305.235
 20
407.058376
 30
0.0
 11
306.235
 21
408.058376
 31
0.0
  0
LINE
  8
LC-006-005-----0
  6
CONTINUOUS
  5
19E
 10
302.406572
 20
407.058376
 30
0.0
 11
303.406572
 21
408.058376
 31
0.0
  0
LINE
  8
LC-006-005-----0
  6
CONTINUOUS
  5
19F
 10
296.086667
 20
403.566897
 30
0.0
 11
297.086667
 21
404.566897
 31
0.0
  0
LINE
  8
LC-006-005-----0
  6
CONTINUOUS
  5
1A0
 10
299.578145
 20
407.058376
 30
0.0
 11
300.578145
 21
408.058376
 31
0.0
  0
ENDBLK
  8
0
  5
1A1
  0
BLOCK
  8
0
  5
1A3
  2
*X50
 70
    65
 10
264.086667
 20
402.058376
 30
0.0
  3
*X50
  0
LINE
  8
LC-006-005-----0
  6
CONTINUOUS
  5
1A4
 10
288.086667
 20
404.052179
 30
0.0
 11
289.086667
 21
405.052179
 31
0.0
  0
LINE
  8
LC-006-005-----0
  6
CONTINUOUS
  5
1A5
 10
287.586969
 20
406.380909
 30
0.0
 11
288.295009
 21
407.088948
 31
0.0
  0
LINE
  8
LC-006-005-----0
  6
CONTINUOUS
  5
1A6
 10
285.43601
 20
407.058376
 30
0.0
 11
286.417691
 21
408.040057
 31
0.0
  0
LINE
  8
LC-006-005-----0
  6
CONTINUOUS
  5
1A7
 10
280.086667
 20
404.53746
 30
0.0
 11
281.16629
 21
405.617084
 31
0.0
  0
LINE
  8
LC-006-005-----0
  6
CONTINUOUS
  5
1A8
 10
282.527959
 20
406.978753
 30
0.0
 11
283.607583
 21
408.058376
 31
0.0
  0
LINE
  8
LC-006-005-----0
  6
CONTINUOUS
  5
1A9
 10
272.950728
 20
403.058376
 30
0.0
 11
273.086667
 21
403.194314
 31
0.0
  0
LINE
  8
LC-006-005-----0
  6
CONTINUOUS
  5
1AA
 10
272.086667
 20
405.022742
 30
0.0
 11
272.965679
 21
405.901754
 31
0.0
  0
LINE
  8
LC-006-005-----0
  6
CONTINUOUS
  5
1AB
 10
271.047794
 20
406.812296
 30
0.0
 11
271.774226
 21
407.538728
 31
0.0
  0
LINE
  8
LC-006-005-----0
  6
CONTINUOUS
  5
1AC
 10
264.465447
 20
403.058376
 30
0.0
 11
265.086667
 21
403.679596
 31
0.0
  0
LINE
  8
LC-006-005-----0
  6
CONTINUOUS
  5
1AD
 10
268.465447
 20
407.058376
 30
0.0
 11
269.465447
 21
408.058376
 31
0.0
  0
LINE
  8
LC-006-005-----0
  6
CONTINUOUS
  5
1AE
 10
264.126941
 20
405.548297
 30
0.0
 11
266.596746
 21
408.018102
 31
0.0
  0
ENDBLK
  8
0
  5
1AF
  0
BLOCK
  8
0
  5
1B1
  2
*D51
 70
    65
 10
0.0
 20
0.0
 30
0.0
  3
*D51
  0
LINE
  8
LC-004-003-MTH-0
  6
CONTINUOUS
  5
1B2
 10
368.586667
 20
278.058376
 30
0.0
 11
448.0
 21
278.058376
 31
0.0
  0
LINE
  8
LC-004-003-MTH-0
  6
CONTINUOUS
  5
1B3
 10
389.53359
 20
408.058441
 30
0.0
 11
448.0
 21
408.058441
 31
0.0
  0
LINE
  8
LC-005-003-MTG-0
  6
CONTINUOUS
  5
1B4
 10
431.2
 20
278.058376
 30
0.0
 11
431.2
 21
408.058441
 31
0.0
  0
LINE
  8
LC-003-003-----0
  6
CONTINUOUS
  5
1B5
 10
427.545267
 20
305.818832
 30
0.0
 11
431.2
 21
278.058376
 31
0.0
  0
LINE
  8
LC-003-003-----0
  6
CONTINUOUS
  5
1B6
 10
431.2
 20
278.058376
 30
0.0
 11
434.854733
 21
305.818832
 31
0.0
  0
LINE
  8
LC-003-003-----0
  6
CONTINUOUS
  5
1B7
 10
434.854733
 20
305.818832
 30
0.0
 11
427.545267
 21
305.818832
 31
0.0
  0
LINE
  8
LC-003-003-----0
  6
CONTINUOUS
  5
1B8
 10
428.495497
 20
305.881114
 30
0.0
 11
431.2
 21
285.338376
 31
0.0
  0
LINE
  8
LC-003-003-----0
  6
CONTINUOUS
  5
1B9
 10
431.2
 20
285.338376
 30
0.0
 11
433.904503
 21
305.881114
 31
0.0
  0
LINE
  8
LC-003-003-----0
  6
CONTINUOUS
  5
1BA
 10
429.445728
 20
305.943395
 30
0.0
 11
431.2
 21
292.618376
 31
0.0
  0
LINE
  8
LC-003-003-----0
  6
CONTINUOUS
  5
1BB
 10
431.2
 20
292.618376
 30
0.0
 11
432.954272
 21
305.943395
 31
0.0
  0
LINE
  8
LC-003-003-----0
  6
CONTINUOUS
  5
1BC
 10
430.395959
 20
306.005676
 30
0.0
 11
431.2
 21
299.898376
 31
0.0
  0
LINE
  8
LC-003-003-----0
  6
CONTINUOUS
  5
1BD
 10
431.2
 20
299.898376
 30
0.0
 11
432.004041
 21
306.005676
 31
0.0
  0
LINE
  8
LC-003-003-----0
  6
CONTINUOUS
  5
1BE
 10
434.854733
 20
380.297985
 30
0.0
 11
431.2
 21
408.058441
 31
0.0
  0
LINE
  8
LC-003-003-----0
  6
CONTINUOUS
  5
1BF
 10
431.2
 20
408.058441
 30
0.0
 11
427.545267
 21
380.297985
 31
0.0
  0
LINE
  8
LC-003-003-----0
  6
CONTINUOUS
  5
1C0
 10
427.545267
 20
380.297985
 30
0.0
 11
434.854733
 21
380.297985
 31
0.0
  0
LINE
  8
LC-003-003-----0
  6
CONTINUOUS
  5
1C1
 10
433.904503
 20
380.235704
 30
0.0
 11
431.2
 21
400.778441
 31
0.0
  0
LINE
  8
LC-003-003-----0
  6
CONTINUOUS
  5
1C2
 10
431.2
 20
400.778441
 30
0.0
 11
428.495497
 21
380.235704
 31
0.0
  0
LINE
  8
LC-003-003-----0
  6
CONTINUOUS
  5
1C3
 10
432.954272
 20
380.173422
 30
0.0
 11
431.2
 21
393.498441
 31
0.0
  0
LINE
  8
LC-003-003-----0
  6
CONTINUOUS
  5
1C4
 10
431.2
 20
393.498441
 30
0.0
 11
429.445728
 21
380.173422
 31
0.0
  0
LINE
  8
LC-003-003-----0
  6
CONTINUOUS
  5
1C5
 10
432.004041
 20
380.111141
 30
0.0
 11
431.2
 21
386.218441
 31
0.0
  0
LINE
  8
LC-003-003-----0
  6
CONTINUOUS
  5
1C6
 10
431.2
 20
386.218441
 30
0.0
 11
430.395959
 21
380.111141
 31
0.0
  0
TEXT
  8
LC-003-003-----0
  6
CONTINUOUS
 62
     8
  5
1C7
 10
423.372446
 20
317.642789
 30
0.0
 40
28.0
  1
130
 50
90.0
 51
15.0
  7
LC-TXTSTYLE-150-400-0-0-D0
 72
     1
 11
423.372446
 21
347.406569
 31
0.0
  0
ENDBLK
  8
0
  5
1C8
  0
ENDSEC
  0
SECTION
  2
ENTITIES
  0
VIEWPORT
  8
LC-000
  5
2FD
 67
     1
 68
     1
 10
420.0
 20
297.0
 30
0.0
 40
840.0
 41
594.0
 69
     1
1001
ACAD
1000
MVIEW
1002
{
1070
    16
1010
0.0
1020
0.0
1030
0.0
1010
0.0
1020
0.0
1030
1.0
1040
0.0
1040
594.0
1040
420.0
1040
297.0
1040
50.0
1040
0.0
1040
0.0
1070
     0
1070
   100
1070
     1
1070
     1
1070
     0
1070
     0
1070
     0
1070
     0
1040
0.0
1040
0.0
1040
0.0
1040
1.0
1040
1.0
1040
0.0
1040
0.0
1070
     0
1002
{
1002
}
1002
}
  0
VIEWPORT
  8
0
  5
2FE
 67
     1
 68
     1
 10
0.0
 20
0.0
 30
0.0
 40
0.0
 41
0.0
 69
     1
1001
ACAD
1000
MVIEW
1002
{
1070
    16
1010
0.0
1020
0.0
1030
0.0
1010
0.0
1020
0.0
1030
1.0
1040
0.0
1040
594.0
1040
0.0
1040
0.0
1040
50.0
1040
0.0
1040
0.0
1070
     0
1070
   100
1070
     0
1070
     1
1070
     0
1070
     0
1070
     0
1070
     0
1040
0.0
1040
0.0
1040
0.0
1040
0.5
1040
0.5
1040
0.5
1040
0.5
1070
     0
1002
{
1002
}
1002
}
  0
INSERT
  8
0
  5
1CA
  2
BLK1
 10
0.0
 20
0.0
 30
0.0
  0
INSERT
  8
0
  5
1CB
  2
BLK2
 10
0.0
 20
0.0
 30
0.0
  0
INSERT
  8
0
  5
1CC
  2
BLK3
 10
0.0
 20
0.0
 30
0.0
  0
INSERT
  8
0
  5
1CD
  2
BLK4
 10
0.0
 20
0.0
 30
0.0
  0
INSERT
  8
0
  5
1CE
  2
BLK5
 10
0.0
 20
0.0
 30
0.0
  0
INSERT
  8
0
  5
1CF
  2
BLK6
 10
0.0
 20
0.0
 30
0.0
  0
INSERT
  8
0
  5
1D0
  2
BLK7
 10
0.0
 20
0.0
 30
0.0
  0
DIMENSION
  8
0
  5
1D1
  2
*D7
 10
316.586667
 20
238.0
 30
0.0
 11
316.586667
 21
238.0
 31
0.0
  1
%%c110
 13
261.586667
 23
283.558376
 33
0.0
 14
371.586667
 24
283.558376
 34
0.0
  3
LC-DIM-L-0140-02-02
  0
DIMENSION
  8
0
  5
1D2
  2
*D8
 10
196.0
 20
371.844
 30
0.0
 11
196.0
 21
371.844
 31
0.0
  1
29
 13
245.086497
 23
408.058376
 33
0.0
 14
246.086667
 24
379.058376
 34
0.0
 50
90.0
  3
LC-DIM-L-0140-02-02
  0
INSERT
  8
0
  5
1D3
  2
*X9
 10
240.086497
 20
278.058376
 30
0.0
  0
INSERT
  8
0
  5
1D4
  2
BLK8
 10
0.0
 20
0.0
 30
0.0
  0
INSERT
  8
0
  5
1D5
  2
BLK9
 10
0.0
 20
0.0
 30
0.0
  0
INSERT
  8
0
  5
1D6
  2
BLK10
 10
0.0
 20
0.0
 30
0.0
  0
INSERT
  8
0
  5
1D7
  2
BLK11
 10
0.0
 20
0.0
 30
0.0
  0
INSERT
  8
0
  5
1D8
  2
BLK12
 10
0.0
 20
0.0
 30
0.0
  0
INSERT
  8
0
  5
1D9
  2
BLK13
 10
0.0
 20
0.0
 30
0.0
  0
INSERT
  8
0
  5
1DA
  2
BLK14
 10
0.0
 20
0.0
 30
0.0
  0
INSERT
  8
0
  5
1DB
  2
BLK15
 10
0.0
 20
0.0
 30
0.0
  0
INSERT
  8
0
  5
1DC
  2
BLK16
 10
0.0
 20
0.0
 30
0.0
  0
INSERT
  8
0
  5
1DD
  2
BLK17
 10
0.0
 20
0.0
 30
0.0
  0
INSERT
  8
0
  5
1DE
  2
BLK18
 10
0.0
 20
0.0
 30
0.0
  0
INSERT
  8
0
  5
1DF
  2
BLK19
 10
0.0
 20
0.0
 30
0.0
  0
INSERT
  8
0
  5
1E0
  2
BLK20
 10
0.0
 20
0.0
 30
0.0
  0
INSERT
  8
0
  5
1E1
  2
BLK21
 10
0.0
 20
0.0
 30
0.0
  0
INSERT
  8
0
  5
1E2
  2
BLK22
 10
0.0
 20
0.0
 30
0.0
  0
INSERT
  8
0
  5
1E3
  2
BLK23
 10
0.0
 20
0.0
 30
0.0
  0
INSERT
  8
0
  5
1E4
  2
BLK24
 10
0.0
 20
0.0
 30
0.0
  0
INSERT
  8
0
  5
1E5
  2
BLK25
 10
0.0
 20
0.0
 30
0.0
  0
INSERT
  8
0
  5
1E6
  2
BLK26
 10
0.0
 20
0.0
 30
0.0
  0
INSERT
  8
0
  5
1E7
  2
BLK27
 10
0.0
 20
0.0
 30
0.0
  0
INSERT
  8
0
  5
1E8
  2
BLK28
 10
0.0
 20
0.0
 30
0.0
  0
INSERT
  8
0
  5
1E9
  2
BLK29
 10
0.0
 20
0.0
 30
0.0
  0
INSERT
  8
0
  5
1EA
  2
BLK30
 10
0.0
 20
0.0
 30
0.0
  0
INSERT
  8
0
  5
1EB
  2
BLK31
 10
0.0
 20
0.0
 30
0.0
  0
INSERT
  8
0
  5
1EC
  2
BLK32
 10
0.0
 20
0.0
 30
0.0
  0
INSERT
  8
0
  5
1ED
  2
BLK33
 10
0.0
 20
0.0
 30
0.0
  0
INSERT
  8
0
  5
1EE
  2
BLK34
 10
0.0
 20
0.0
 30
0.0
  0
INSERT
  8
0
  5
1EF
  2
BLK35
 10
0.0
 20
0.0
 30
0.0
  0
INSERT
  8
0
  5
1F1
  2
BLK36
 10
0.0
 20
0.0
 30
0.0
  0
INSERT
  8
0
  5
1F2
  2
BLK37
 10
0.0
 20
0.0
 30
0.0
  0
DIMENSION
  8
0
  5
1F3
  2
*D40
 10
315.972672
 20
440.0
 30
0.0
 11
315.972672
 21
440.0
 31
0.0
  1
150
 13
241.586497
 23
406.058376
 33
0.0
 14
391.533579
 24
406.05844
 34
0.0
  3
LC-DIM-L-0140-02-02
  0
INSERT
  8
0
  5
1F4
  2
BLK38
 10
0.0
 20
0.0
 30
0.0
  0
INSERT
  8
0
  5
1F5
  2
BLK39
 10
0.0
 20
0.0
 30
0.0
  0
INSERT
  8
0
  5
1F6
  2
*X43
 10
241.586497
 20
385.058378
 30
0.0
  0
INSERT
  8
0
  5
1F7
  2
*X44
 10
386.086441
 20
385.0595
 30
0.0
  0
INSERT
  8
0
  5
1F8
  2
*X45
 10
368.586667
 20
278.058376
 30
0.0
  0
INSERT
  8
0
  5
1F9
  2
BLK40
 10
0.0
 20
0.0
 30
0.0
  0
INSERT
  8
0
  5
1FA
  2
BLK41
 10
0.0
 20
0.0
 30
0.0
  0
INSERT
  8
0
  5
1FB
  2
*X48
 10
344.086667
 20
402.058376
 30
0.0
  0
INSERT
  8
0
  5
1FC
  2
*X49
 10
296.086667
 20
402.058376
 30
0.0
  0
INSERT
  8
0
  5
1FD
  2
*X50
 10
264.086667
 20
402.058376
 30
0.0
  0
DIMENSION
  8
0
  5
1FE
  2
*D51
 10
431.2
 20
343.058409
 30
0.0
 11
431.2
 21
343.058409
 31
0.0
 13
389.53359
 23
408.058441
 33
0.0
 14
368.586667
 24
278.058376
 34
0.0
 50
90.0
  3
LC-DIM-L-0140-02-02
  0
LINE
  8
LC-001-002-----0
  5
201
 10
316.586667
 20
278.058376
 30
0.0
 11
316.586667
 21
408.058376
 31
0.0
  0
LINE
  8
LC-001-002-----0
  6
CONTINUOUS
 62
     1
  5
202
 10
247.086497
 20
386.558376
 30
0.0
 11
245.586497
 21
385.058378
 31
0.0
  0
LINE
  8
LC-001-002-----0
  6
CONTINUOUS
 62
     1
  5
203
 10
244.87939
 20
385.765485
 30
0.0
 11
246.086497
 21
386.97259
 31
0.0
  0
LINE
  8
LC-001-002-----0
  6
CONTINUOUS
 62
     1
  5
204
 10
245.586497
 20
385.058378
 30
0.0
 11
244.87939
 21
385.765485
 31
0.0
  0
LINE
  8
LC-001-002-----0
  6
CONTINUOUS
 62
     1
  5
205
 10
241.586497
 20
393.058376
 30
0.0
 11
241.586497
 21
389.058376
 31
0.0
  0
LINE
  8
LC-001-002-----0
  6
CONTINUOUS
 62
     1
  5
206
 10
386.033564
 20
386.558442
 30
0.0
 11
387.533563
 21
385.058443
 31
0.0
  0
LINE
  8
LC-001-002-----0
  6
CONTINUOUS
 62
     1
  5
207
 10
388.240669
 20
385.765549
 30
0.0
 11
387.033564
 21
386.972655
 31
0.0
  0
LINE
  8
LC-001-002-----0
  6
CONTINUOUS
 62
     1
  5
208
 10
387.533563
 20
385.058443
 30
0.0
 11
388.240669
 21
385.765549
 31
0.0
  0
LINE
  8
LC-001-002-----0
  6
CONTINUOUS
 62
     1
  5
209
 10
368.586667
 20
278.058376
 30
0.0
 11
368.586667
 21
383.058376
 31
0.0
  0
LINE
  8
LC-001-002-----0
  6
CONTINUOUS
 62
     1
  5
20A
 10
241.586497
 20
406.058376
 30
0.0
 11
241.586497
 21
394.558376
 31
0.0
  0
ARC
  8
LC-001-002-----0
  6
CONTINUOUS
 62
     1
  5
20B
 10
243.586497
 20
406.058376
 30
0.0
 40
2.0
 50
89.999981
 51
180.0
  0
ARC
  8
LC-001-002-----0
  6
CONTINUOUS
 62
     1
  5
20C
 10
245.086497
 20
406.058376
 30
0.0
 40
2.0
 50
0.0
 51
90.0
  0
LINE
  8
LC-001-002-----0
  6
CONTINUOUS
 62
     1
  5
20D
 10
247.086497
 20
406.058376
 30
0.0
 11
247.086497
 21
383.058376
 31
0.0
  0
ARC
  8
LC-001-002-----0
  6
CONTINUOUS
 62
     1
  5
20E
 10
243.586497
 20
406.058376
 30
0.0
 40
1.0
 50
90.0
 51
179.999848
  0
LINE
  8
LC-001-002-----0
  6
CONTINUOUS
 62
     1
  5
20F
 10
242.586497
 20
394.558376
 30
0.0
 11
242.586497
 21
406.058376
 31
0.0
  0
LINE
  8
LC-001-002-----0
  6
CONTINUOUS
 62
     1
  5
210
 10
246.086497
 20
406.058376
 30
0.0
 11
246.086497
 21
386.97259
 31
0.0
  0
ARC
  8
LC-001-002-----0
  6
CONTINUOUS
 62
     1
  5
211
 10
245.086497
 20
406.058376
 30
0.0
 40
1.0
 50
0.0
 51
89.999981
  0
LINE
  8
LC-001-002-----0
  6
CONTINUOUS
 62
     1
  5
212
 10
243.586497
 20
407.058376
 30
0.0
 11
245.086497
 21
407.058376
 31
0.0
  0
LINE
  8
LC-001-002-----0
  6
CONTINUOUS
 62
     1
  5
213
 10
386.033579
 20
406.058441
 30
0.0
 11
386.033564
 21
383.058442
 31
0.0
  0
LINE
  8
LC-001-002-----0
  6
CONTINUOUS
 62
     1
  5
214
 10
248.586667
 20
403.058376
 30
0.0
 11
247.586667
 21
403.058376
 31
0.0
  0
LINE
  8
LC-001-002-----0
  6
CONTINUOUS
 62
     1
  5
215
 10
384.586667
 20
403.058376
 30
0.0
 11
385.586667
 21
403.058376
 31
0.0
  0
LINE
  8
LC-001-002-----0
  6
CONTINUOUS
 62
     1
  5
216
 10
386.086665
 20
406.058441
 30
0.0
 11
386.086665
 21
406.058441
 31
0.0
  0
ARC
  8
LC-001-002-----0
  6
CONTINUOUS
 62
     1
  5
217
 10
388.033579
 20
406.058441
 30
0.0
 40
2.0
 50
89.999981
 51
180.0
  0
LINE
  8
LC-001-002-----0
  6
CONTINUOUS
 62
     1
  5
218
 10
391.533579
 20
406.05844
 30
0.0
 11
391.533571
 21
394.558439
 31
0.0
  0
ARC
  8
LC-001-002-----0
  6
CONTINUOUS
 62
     1
  5
219
 10
389.533579
 20
406.058441
 30
0.0
 40
2.0
 50
359.999963
 51
89.999677
  0
LINE
  8
LC-001-002-----0
  6
CONTINUOUS
 62
     1
  5
21A
 10
388.086665
 20
408.058441
 30
0.0
 11
389.586665
 21
408.058441
 31
0.0
  0
ARC
  8
LC-001-002-----0
  6
CONTINUOUS
 62
     1
  5
21B
 10
388.033579
 20
406.05844
 30
0.0
 40
1.0
 50
89.999963
 51
179.999944
  0
LINE
  8
LC-001-002-----0
  6
CONTINUOUS
 62
     1
  5
21C
 10
387.033579
 20
406.058441
 30
0.0
 11
387.033566
 21
386.972653
 31
0.0
  0
LINE
  8
LC-001-002-----0
  6
CONTINUOUS
 62
     1
  5
21D
 10
390.533571
 20
394.558439
 30
0.0
 11
390.533579
 21
406.058438
 31
0.0
  0
ARC
  8
LC-001-002-----0
  6
CONTINUOUS
 62
     1
  5
21E
 10
389.533579
 20
406.058439
 30
0.0
 40
1.0
 50
359.999963
 51
89.999658
  0
LINE
  8
LC-001-002-----0
  6
CONTINUOUS
 62
     1
  5
21F
 10
389.533579
 20
407.058439
 30
0.0
 11
388.033579
 21
407.05844
 31
0.0
  0
LINE
  8
LC-001-002-----0
  6
CONTINUOUS
 62
     1
  5
220
 10
391.586656
 20
396.558438
 30
0.0
 11
391.586656
 21
396.558438
 31
0.0
  0
ARC
  8
LC-001-002-----0
  6
CONTINUOUS
 62
     1
  5
221
 10
391.53357
 20
395.058438
 30
0.0
 40
1.5
 50
0.0
 51
90.0
  0
LINE
  8
LC-001-002-----0
  6
CONTINUOUS
 62
     1
  5
222
 10
393.03357
 20
393.058376
 30
0.0
 11
393.03357
 21
395.058438
 31
0.0
  0
LINE
  8
LC-001-002-----0
  6
CONTINUOUS
 62
     1
  5
223
 10
390.53357
 20
394.558439
 30
0.0
 11
391.53357
 21
394.558439
 31
0.0
  0
LINE
  8
LC-001-002-----0
  6
CONTINUOUS
 62
     1
  5
224
 10
240.086497
 20
395.058376
 30
0.0
 11
240.086497
 21
393.058376
 31
0.0
  0
ARC
  8
LC-001-002-----0
  6
CONTINUOUS
 62
     1
  5
225
 10
241.586497
 20
395.058376
 30
0.0
 40
1.5
 50
89.999981
 51
180.0
  0
LINE
  8
LC-001-002-----0
  6
CONTINUOUS
 62
     1
  5
226
 10
241.586497
 20
396.558376
 30
0.0
 11
241.586497
 21
396.558376
 31
0.0
  0
LINE
  8
LC-001-002-----0
  6
CONTINUOUS
 62
     1
  5
227
 10
241.586497
 20
394.558376
 30
0.0
 11
242.586497
 21
394.558376
 31
0.0
  0
LINE
  8
LC-007-001-----0
  6
CONTINUOUS
  5
229
 10
247.086497
 20
402.558376
 30
0.0
 11
316.586497
 21
402.558376
 31
0.0
  0
LINE
  8
LC-007-001-----0
  6
CONTINUOUS
  5
22A
 10
386.033576
 20
402.558441
 30
0.0
 11
316.586663
 21
402.558487
 31
0.0
  0
LINE
  8
LC-006-005-----0
  6
CONTINUOUS
  5
22B
 10
256.086667
 20
403.164877
 30
0.0
 11
257.086667
 21
404.164877
 31
0.0
  0
LINE
  8
LC-006-005-----0
  6
CONTINUOUS
  5
22C
 10
255.929319
 20
405.835957
 30
0.0
 11
256.672591
 21
406.579229
 31
0.0
  0
LINE
  8
LC-006-005-----0
  6
CONTINUOUS
  5
22D
 10
254.310722
 20
407.045786
 30
0.0
 11
255.134405
 21
407.869469
 31
0.0
  0
LINE
  8
LC-001-002-----0
  6
CONTINUOUS
 62
     1
  5
22E
 10
243.586497
 20
408.058376
 30
0.0
 11
245.086497
 21
408.058376
 31
0.0
  0
LINE
  8
LC-006-005-----0
  6
CONTINUOUS
  5
22F
 10
247.586667
 20
403.150159
 30
0.0
 11
248.586667
 21
404.150159
 31
0.0
  0
LINE
  8
LC-006-005-----0
  6
CONTINUOUS
  5
230
 10
251.494884
 20
407.058376
 30
0.0
 11
252.494884
 21
408.058376
 31
0.0
  0
LINE
  8
LC-006-005-----0
  6
CONTINUOUS
  5
231
 10
247.815397
 20
406.207316
 30
0.0
 11
249.437727
 21
407.829646
 31
0.0
  0
LINE
  8
LC-001-002-----0
  6
CONTINUOUS
  5
232
 10
267.534498
 20
451.894629
 30
0.0
 11
282.534498
 21
451.894629
 31
0.0
  0
LINE
  8
LC-001-002-----0
  6
CONTINUOUS
  5
233
 10
282.534498
 20
451.894629
 30
0.0
 11
282.534498
 21
466.894629
 31
0.0
  0
LINE
  8
LC-006-005-----0
  6
CONTINUOUS
  5
234
 10
384.586667
 20
404.385657
 30
0.0
 11
385.570492
 21
405.369482
 31
0.0
  0
LINE
  8
LC-006-005-----0
  6
CONTINUOUS
  5
235
 10
383.920882
 20
406.548299
 30
0.0
 11
384.628704
 21
407.256121
 31
0.0
  0
LINE
  8
LC-006-005-----0
  6
CONTINUOUS
  5
236
 10
381.602532
 20
407.058376
 30
0.0
 11
382.60249
 21
408.058334
 31
0.0
  0
LINE
  8
LC-006-005-----0
  6
CONTINUOUS
  5
237
 10
376.086667
 20
404.370938
 30
0.0
 11
377.116129
 21
405.4004
 31
0.0
  0
LINE
  8
LC-006-005-----0
  6
CONTINUOUS
  5
238
 10
378.744643
 20
407.028914
 30
0.0
 11
379.774105
 21
408.058376
 31
0.0
  0
LINE
  8
LC-007-001-----0
  6
CONTINUOUS
 62
     2
  5
239
 10
391.533572
 20
396.063269
 30
0.0
 11
391.965276
 21
396.494972
 31
0.0
  0
LINE
  8
LC-001-002-----0
  6
CONTINUOUS
  5
23A
 10
267.534498
 20
451.894629
 30
0.0
 11
267.534498
 21
466.894629
 31
0.0
  0
LINE
  8
LC-001-002-----0
  6
CONTINUOUS
  5
23B
 10
267.534498
 20
466.894629
 30
0.0
 11
282.534498
 21
466.894629
 31
0.0
  0
LINE
  8
LC-001-002-----0
  6
CONTINUOUS
 62
     1
  5
23C
 10
611.586368
 20
268.058024
 30
0.0
 11
611.586965
 21
418.058024
 31
0.0
  0
LINE
  8
LC-001-002-----0
  6
CONTINUOUS
 62
     1
  5
23D
 10
611.586965
 20
418.058024
 30
0.0
 11
461.586965
 21
418.058621
 31
0.0
  0
LINE
  8
LC-001-002-----0
  6
CONTINUOUS
 62
     1
  5
23E
 10
461.586965
 20
418.058621
 30
0.0
 11
461.586368
 21
268.058621
 31
0.0
  0
CIRCLE
  8
LC-001-002-----0
  6
CONTINUOUS
 62
     1
  5
23F
 10
475.086545
 20
281.536333
 30
0.0
 40
5.5
  0
LINE
  8
LC-001-002-----0
  6
CONTINUOUS
 62
     1
  5
240
 10
477.586545
 20
282.036333
 30
0.0
 11
475.586545
 21
282.036333
 31
0.0
  0
LINE
  8
LC-001-002-----0
  6
CONTINUOUS
 62
     1
  5
241
 10
474.586545
 20
282.036333
 30
0.0
 11
472.586545
 21
282.036333
 31
0.0
  0
LINE
  8
LC-001-002-----0
  6
CONTINUOUS
 62
     1
  5
242
 10
474.586545
 20
284.036333
 30
0.0
 11
474.586545
 21
282.036333
 31
0.0
  0
LINE
  8
LC-001-002-----0
  6
CONTINUOUS
 62
     1
  5
243
 10
474.586545
 20
281.036333
 30
0.0
 11
474.586545
 21
279.036333
 31
0.0
  0
LINE
  8
LC-001-002-----0
  6
CONTINUOUS
 62
     1
  5
244
 10
477.586545
 20
281.036333
 30
0.0
 11
475.586545
 21
281.036333
 31
0.0
  0
LINE
  8
LC-001-002-----0
  6
CONTINUOUS
 62
     1
  5
245
 10
474.586545
 20
281.036333
 30
0.0
 11
472.586545
 21
281.036333
 31
0.0
  0
LINE
  8
LC-001-002-----0
  6
CONTINUOUS
 62
     1
  5
246
 10
475.586545
 20
284.036333
 30
0.0
 11
475.586545
 21
282.036333
 31
0.0
  0
LINE
  8
LC-001-002-----0
  6
CONTINUOUS
 62
     1
  5
247
 10
475.586545
 20
281.036333
 30
0.0
 11
475.586545
 21
279.036333
 31
0.0
  0
CIRCLE
  8
LC-001-002-----0
  6
CONTINUOUS
 62
     1
  5
248
 10
475.086545
 20
281.536333
 30
0.0
 40
5.5
  0
LINE
  8
LC-001-002-----0
  6
CONTINUOUS
 62
     1
  5
249
 10
477.586545
 20
282.036333
 30
0.0
 11
477.586545
 21
281.036333
 31
0.0
  0
LINE
  8
LC-001-002-----0
  6
CONTINUOUS
 62
     1
  5
24A
 10
472.586545
 20
282.036333
 30
0.0
 11
472.586545
 21
281.036333
 31
0.0
  0
LINE
  8
LC-001-002-----0
  6
CONTINUOUS
 62
     1
  5
24B
 10
475.586545
 20
279.036333
 30
0.0
 11
474.586545
 21
279.036333
 31
0.0
  0
LINE
  8
LC-001-002-----0
  6
CONTINUOUS
 62
     1
  5
24C
 10
475.586545
 20
284.036333
 30
0.0
 11
474.586545
 21
284.036333
 31
0.0
  0
LINE
  8
LC-001-002-----0
  6
CONTINUOUS
 62
     1
  5
24D
 10
371.586667
 20
283.558376
 30
0.0
 11
371.586667
 21
379.058376
 31
0.0
  0
LINE
  8
LC-001-002-----0
  6
CONTINUOUS
 62
     1
  5
24E
 10
371.586667
 20
283.558376
 30
0.0
 11
370.112946
 21
278.058376
 31
0.0
  0
LINE
  8
LC-001-002-----0
  6
CONTINUOUS
 62
     1
  5
24F
 10
246.086667
 20
379.058376
 30
0.0
 11
261.586667
 21
379.058376
 31
0.0
  0
LINE
  8
LC-001-002-----0
  6
CONTINUOUS
 62
     1
  5
250
 10
387.086667
 20
379.058376
 30
0.0
 11
371.586667
 21
379.058376
 31
0.0
  0
ARC
  8
LC-009-002-RND-0
  6
CONTINUOUS
  5
252
 10
387.086667
 20
381.058376
 30
0.0
 40
2.0
 50
270.0
 51
0.0
  0
LINE
  8
LC-001-002-----0
  6
CONTINUOUS
 62
     1
  5
253
 10
261.586667
 20
283.558376
 30
0.0
 11
261.586667
 21
379.058376
 31
0.0
  0
LINE
  8
LC-001-002-----0
  6
CONTINUOUS
 62
     1
  5
254
 10
247.086497
 20
383.058376
 30
0.0
 11
316.586497
 21
383.058376
 31
0.0
  0
LINE
  8
LC-001-002-----0
  6
CONTINUOUS
 62
     1
  5
255
 10
264.586667
 20
278.058376
 30
0.0
 11
264.586667
 21
383.058376
 31
0.0
  0
LINE
  8
LC-001-002-----0
  6
CONTINUOUS
 62
     1
  5
256
 10
386.033564
 20
383.058376
 30
0.0
 11
316.586837
 21
383.058376
 31
0.0
  0
LINE
  8
LC-001-002-----0
  6
CONTINUOUS
 62
     1
  5
257
 10
389.086667
 20
381.058376
 30
0.0
 11
389.086667
 21
389.058376
 31
0.0
  0
LINE
  8
LC-001-002-----0
  6
CONTINUOUS
 62
     1
  5
258
 10
391.586837
 20
389.058376
 30
0.0
 11
389.086667
 21
389.058376
 31
0.0
  0
LINE
  8
LC-001-002-----0
  6
CONTINUOUS
 62
     1
  5
259
 10
391.586837
 20
393.058376
 30
0.0
 11
391.586837
 21
389.058376
 31
0.0
  0
LINE
  8
LC-001-002-----0
  6
CONTINUOUS
 62
     1
  5
25A
 10
241.586497
 20
389.058376
 30
0.0
 11
244.086667
 21
389.058376
 31
0.0
  0
LINE
  8
LC-001-002-----0
  6
CONTINUOUS
 62
     1
  5
25B
 10
393.086837
 20
393.058376
 30
0.0
 11
391.586837
 21
393.058376
 31
0.0
  0
LINE
  8
LC-001-002-----0
  6
CONTINUOUS
 62
     1
  5
25C
 10
240.086497
 20
393.058376
 30
0.0
 11
241.586497
 21
393.058376
 31
0.0
  0
LINE
  8
LC-001-002-----0
  6
CONTINUOUS
 62
     1
  5
25D
 10
244.086667
 20
381.058376
 30
0.0
 11
244.086667
 21
389.058376
 31
0.0
  0
ARC
  8
LC-009-002-RND-0
  6
CONTINUOUS
  5
25E
 10
246.086667
 20
381.058376
 30
0.0
 40
2.0
 50
180.0
 51
270.0
  0
LINE
  8
LC-001-002-----0
  6
CONTINUOUS
 62
     1
  5
25F
 10
261.586667
 20
283.558376
 30
0.0
 11
263.060387
 21
278.058376
 31
0.0
  0
LINE
  8
LC-001-002-----0
  6
CONTINUOUS
 62
     1
  5
260
 10
466.586667
 20
273.058322
 30
0.0
 11
606.586667
 21
273.058322
 31
0.0
  0
LINE
  8
LC-001-002-----0
  6
CONTINUOUS
 62
     1
  5
261
 10
466.586667
 20
273.058322
 30
0.0
 11
466.586667
 21
413.058322
 31
0.0
  0
LINE
  8
LC-001-002-----0
  6
CONTINUOUS
 62
     1
  5
262
 10
466.586667
 20
413.058322
 30
0.0
 11
606.586667
 21
413.058322
 31
0.0
  0
LINE
  8
LC-001-002-----0
  6
CONTINUOUS
 62
     1
  5
263
 10
606.586667
 20
273.058322
 30
0.0
 11
606.586667
 21
413.058322
 31
0.0
  0
CIRCLE
  8
LC-001-002-----0
  6
CONTINUOUS
 62
     1
  5
264
 10
598.086545
 20
404.536333
 30
0.0
 40
5.5
  0
LINE
  8
LC-001-002-----0
  6
CONTINUOUS
 62
     1
  5
265
 10
597.586545
 20
402.036333
 30
0.0
 11
597.586545
 21
404.036333
 31
0.0
  0
LINE
  8
LC-001-002-----0
  6
CONTINUOUS
 62
     1
  5
266
 10
597.586545
 20
405.036333
 30
0.0
 11
597.586545
 21
407.036333
 31
0.0
  0
LINE
  8
LC-001-002-----0
  6
CONTINUOUS
 62
     1
  5
267
 10
600.586545
 20
405.036333
 30
0.0
 11
600.586545
 21
404.036333
 31
0.0
  0
LINE
  8
LC-001-002-----0
  6
CONTINUOUS
 62
     1
  5
268
 10
595.586545
 20
405.036333
 30
0.0
 11
597.586545
 21
405.036333
 31
0.0
  0
LINE
  8
LC-001-002-----0
  6
CONTINUOUS
 62
     1
  5
269
 10
598.586545
 20
405.036333
 30
0.0
 11
600.586545
 21
405.036333
 31
0.0
  0
LINE
  8
LC-001-002-----0
  6
CONTINUOUS
 62
     1
  5
26A
 10
598.586545
 20
402.036333
 30
0.0
 11
598.586545
 21
404.036333
 31
0.0
  0
LINE
  8
LC-001-002-----0
  6
CONTINUOUS
 62
     1
  5
26B
 10
598.586545
 20
405.036333
 30
0.0
 11
598.586545
 21
407.036333
 31
0.0
  0
ARC
  8
LC-001-002-----0
  6
CONTINUOUS
 62
     1
  5
26C
 10
480.58672
 20
302.558799
 30
0.0
 40
3.5
 50
180.0
 51
0.0
  0
LINE
  8
LC-001-002-----0
  6
CONTINUOUS
 62
     1
  5
26D
 10
477.08672
 20
302.558799
 30
0.0
 11
477.086961
 21
343.058677
 31
0.0
  0
LINE
  8
LC-001-002-----0
  6
CONTINUOUS
 62
     1
  5
26E
 10
484.08672
 20
302.558799
 30
0.0
 11
484.086961
 21
343.058635
 31
0.0
  0
LINE
  8
LC-001-002-----0
  6
CONTINUOUS
 62
     1
  5
26F
 10
477.087202
 20
383.558554
 30
0.0
 11
477.086961
 21
343.058677
 31
0.0
  0
LINE
  8
LC-001-002-----0
  6
CONTINUOUS
 62
     1
  5
270
 10
484.087202
 20
383.558471
 30
0.0
 11
484.086961
 21
343.058635
 31
0.0
  0
ARC
  8
LC-001-002-----0
  6
CONTINUOUS
 62
     1
  5
271
 10
496.586699
 20
367.558354
 30
0.0
 40
3.5
 50
359.999659
 51
179.999659
  0
ARC
  8
LC-001-002-----0
  6
CONTINUOUS
 62
     1
  5
272
 10
512.586677
 20
351.558465
 30
0.0
 40
3.5
 50
359.999659
 51
179.999659
  0
ARC
  8
LC-001-002-----0
  6
CONTINUOUS
 62
     1
  5
273
 10
480.587202
 20
383.558512
 30
0.0
 40
3.5
 50
359.999318
 51
179.999318
  0
LINE
  8
LC-001-002-----0
  6
CONTINUOUS
 62
     1
  5
274
 10
596.086131
 20
383.558554
 30
0.0
 11
596.086372
 21
343.058677
 31
0.0
  0
LINE
  8
LC-001-002-----0
  6
CONTINUOUS
 62
     1
  5
275
 10
589.086131
 20
383.558471
 30
0.0
 11
589.086372
 21
343.058635
 31
0.0
  0
ARC
  8
LC-001-002-----0
  6
CONTINUOUS
 62
     1
  5
276
 10
512.586677
 20
334.558465
 30
0.0
 40
3.5
 50
180.0
 51
0.0
  0
ARC
  8
LC-001-002-----0
  6
CONTINUOUS
 62
     1
  5
277
 10
496.586699
 20
318.558767
 30
0.0
 40
3.5
 50
180.0
 51
0.0
  0
ARC
  8
LC-001-002-----0
  6
CONTINUOUS
 62
     1
  5
278
 10
576.586635
 20
367.558354
 30
0.0
 40
3.5
 50
0.000341
 51
180.000341
  0
ARC
  8
LC-001-002-----0
  6
CONTINUOUS
 62
     1
  5
279
 10
560.586656
 20
351.558465
 30
0.0
 40
3.5
 50
0.000341
 51
180.000341
  0
ARC
  8
LC-001-002-----0
  6
CONTINUOUS
 62
     1
  5
27A
 10
592.586131
 20
383.558512
 30
0.0
 40
3.5
 50
0.000682
 51
180.000682
  0
LINE
  8
LC-001-002-----0
  6
CONTINUOUS
 62
     1
  5
27B
 10
564.086656
 20
351.558486
 30
0.0
 11
564.086656
 21
334.558486
 31
0.0
  0
LINE
  8
LC-001-002-----0
  6
CONTINUOUS
 62
     1
  5
27C
 10
557.086656
 20
334.558444
 30
0.0
 11
557.086656
 21
351.558444
 31
0.0
  0
LINE
  8
LC-001-002-----0
  6
CONTINUOUS
 62
     1
  5
27D
 10
580.086635
 20
367.558374
 30
0.0
 11
580.086635
 21
318.558767
 31
0.0
  0
LINE
  8
LC-001-002-----0
  6
CONTINUOUS
 62
     1
  5
27E
 10
573.086635
 20
318.558767
 30
0.0
 11
573.086635
 21
367.558312
 31
0.0
  0
ARC
  8
LC-001-002-----0
  6
CONTINUOUS
 62
     1
  5
27F
 10
560.586656
 20
334.558465
 30
0.0
 40
3.5
 50
180.0
 51
0.0
  0
ARC
  8
LC-001-002-----0
  6
CONTINUOUS
 62
     1
  5
280
 10
576.586635
 20
318.558767
 30
0.0
 40
3.5
 50
180.0
 51
0.0
  0
ARC
  8
LC-001-002-----0
  6
CONTINUOUS
 62
     1
  5
281
 10
592.586614
 20
302.558799
 30
0.0
 40
3.5
 50
180.0
 51
0.0
  0
LINE
  8
LC-001-002-----0
  6
CONTINUOUS
 62
     1
  5
282
 10
509.086677
 20
351.558486
 30
0.0
 11
509.086677
 21
334.558486
 31
0.0
  0
LINE
  8
LC-001-002-----0
  6
CONTINUOUS
 62
     1
  5
283
 10
516.086677
 20
334.558444
 30
0.0
 11
516.086677
 21
351.558444
 31
0.0
  0
LINE
  8
LC-001-002-----0
  6
CONTINUOUS
 62
     1
  5
284
 10
493.086699
 20
367.558374
 30
0.0
 11
493.086699
 21
318.558767
 31
0.0
  0
LINE
  8
LC-001-002-----0
  6
CONTINUOUS
 62
     1
  5
285
 10
500.086699
 20
318.558767
 30
0.0
 11
500.086699
 21
367.558312
 31
0.0
  0
LINE
  8
LC-001-002-----0
  6
CONTINUOUS
 62
     1
  5
286
 10
596.086614
 20
302.558799
 30
0.0
 11
596.086372
 21
343.058677
 31
0.0
  0
LINE
  8
LC-001-002-----0
  6
CONTINUOUS
 62
     1
  5
287
 10
589.086614
 20
302.558799
 30
0.0
 11
589.086372
 21
343.058635
 31
0.0
  0
LINE
  8
LC-001-002-----0
  6
CONTINUOUS
 62
     1
  5
288
 10
496.086435
 20
283.558858
 30
0.0
 11
536.586312
 21
283.558617
 31
0.0
  0
LINE
  8
LC-001-002-----0
  6
CONTINUOUS
 62
     1
  5
289
 10
496.086518
 20
290.558858
 30
0.0
 11
536.586354
 21
290.558617
 31
0.0
  0
ARC
  8
LC-001-002-----0
  6
CONTINUOUS
 62
     1
  5
28A
 10
512.086635
 20
303.058354
 30
0.0
 40
3.5
 50
89.999659
 51
269.999659
  0
ARC
  8
LC-001-002-----0
  6
CONTINUOUS
 62
     1
  5
28B
 10
528.086524
 20
319.058333
 30
0.0
 40
3.5
 50
89.999659
 51
269.999659
  0
ARC
  8
LC-001-002-----0
  6
CONTINUOUS
 62
     1
  5
28C
 10
496.086477
 20
287.058858
 30
0.0
 40
3.5
 50
89.999318
 51
269.999318
  0
LINE
  8
LC-001-002-----0
  6
CONTINUOUS
 62
     1
  5
28D
 10
528.086503
 20
315.558333
 30
0.0
 11
545.086503
 21
315.558333
 31
0.0
  0
LINE
  8
LC-001-002-----0
  6
CONTINUOUS
 62
     1
  5
28E
 10
545.086545
 20
322.558333
 30
0.0
 11
528.086545
 21
322.558333
 31
0.0
  0
LINE
  8
LC-001-002-----0
  6
CONTINUOUS
 62
     1
  5
28F
 10
512.086615
 20
299.558354
 30
0.0
 11
561.086222
 21
299.558354
 31
0.0
  0
LINE
  8
LC-001-002-----0
  6
CONTINUOUS
 62
     1
  5
290
 10
561.086222
 20
306.558354
 30
0.0
 11
512.086677
 21
306.558354
 31
0.0
  0
ARC
  8
LC-001-002-----0
  6
CONTINUOUS
 62
     1
  5
291
 10
577.08619
 20
287.058375
 30
0.0
 40
3.5
 50
270.0
 51
90.0
  0
LINE
  8
LC-001-002-----0
  6
CONTINUOUS
 62
     1
  5
292
 10
577.08619
 20
283.558375
 30
0.0
 11
536.586312
 21
283.558617
 31
0.0
  0
LINE
  8
LC-001-002-----0
  6
CONTINUOUS
 62
     1
  5
293
 10
577.08619
 20
290.558375
 30
0.0
 11
536.586354
 21
290.558617
 31
0.0
  0
ARC
  8
LC-001-002-----0
  6
CONTINUOUS
 62
     1
  5
294
 10
561.086222
 20
303.058354
 30
0.0
 40
3.5
 50
270.0
 51
90.0
  0
ARC
  8
LC-001-002-----0
  6
CONTINUOUS
 62
     1
  5
295
 10
545.086524
 20
319.058333
 30
0.0
 40
3.5
 50
270.0
 51
90.0
  0
LINE
  8
LC-001-002-----0
  6
CONTINUOUS
 62
     1
  5
296
 10
496.086435
 20
402.557787
 30
0.0
 11
536.586312
 21
402.558028
 31
0.0
  0
LINE
  8
LC-001-002-----0
  6
CONTINUOUS
 62
     1
  5
297
 10
496.086518
 20
395.557787
 30
0.0
 11
536.586354
 21
395.558028
 31
0.0
  0
ARC
  8
LC-001-002-----0
  6
CONTINUOUS
 62
     1
  5
298
 10
512.086635
 20
383.058291
 30
0.0
 40
3.5
 50
90.000341
 51
270.000341
  0
ARC
  8
LC-001-002-----0
  6
CONTINUOUS
 62
     1
  5
299
 10
528.086524
 20
367.058312
 30
0.0
 40
3.5
 50
90.000341
 51
270.000341
  0
ARC
  8
LC-001-002-----0
  6
CONTINUOUS
 62
     1
  5
29A
 10
496.086477
 20
399.057787
 30
0.0
 40
3.5
 50
90.000682
 51
270.000682
  0
LINE
  8
LC-001-002-----0
  6
CONTINUOUS
 62
     1
  5
29B
 10
528.086503
 20
370.558312
 30
0.0
 11
545.086503
 21
370.558312
 31
0.0
  0
LINE
  8
LC-001-002-----0
  6
CONTINUOUS
 62
     1
  5
29C
 10
545.086545
 20
363.558312
 30
0.0
 11
528.086545
 21
363.558312
 31
0.0
  0
LINE
  8
LC-001-002-----0
  6
CONTINUOUS
 62
     1
  5
29D
 10
512.086615
 20
386.558291
 30
0.0
 11
561.086222
 21
386.558291
 31
0.0
  0
LINE
  8
LC-001-002-----0
  6
CONTINUOUS
 62
     1
  5
29E
 10
561.086222
 20
379.558291
 30
0.0
 11
512.086677
 21
379.558291
 31
0.0
  0
ARC
  8
LC-001-002-----0
  6
CONTINUOUS
 62
     1
  5
29F
 10
545.086524
 20
367.058312
 30
0.0
 40
3.5
 50
270.0
 51
90.0
  0
ARC
  8
LC-001-002-----0
  6
CONTINUOUS
 62
     1
  5
2A0
 10
561.086222
 20
383.058291
 30
0.0
 40
3.5
 50
270.0
 51
90.0
  0
ARC
  8
LC-001-002-----0
  6
CONTINUOUS
 62
     1
  5
2A1
 10
577.08619
 20
399.058269
 30
0.0
 40
3.5
 50
270.0
 51
90.0
  0
LINE
  8
LC-001-002-----0
  6
CONTINUOUS
 62
     1
  5
2A2
 10
577.08619
 20
395.558269
 30
0.0
 11
536.586354
 21
395.558028
 31
0.0
  0
LINE
  8
LC-001-002-----0
  6
CONTINUOUS
 62
     1
  5
2A3
 10
577.08619
 20
402.558269
 30
0.0
 11
536.586312
 21
402.558028
 31
0.0
  0
LINE
  8
LC-001-002-----0
  6
CONTINUOUS
 62
     1
  5
2A4
 10
605.586667
 20
409.057929
 30
0.0
 11
605.586667
 21
277.057929
 31
0.0
  0
LINE
  8
LC-001-002-----0
  6
CONTINUOUS
 62
     1
  5
2A5
 10
467.586667
 20
409.058715
 30
0.0
 11
467.586667
 21
277.058715
 31
0.0
  0
LINE
  8
LC-001-002-----0
  6
CONTINUOUS
 62
     1
  5
2A6
 10
602.586685
 20
412.057929
 30
0.0
 11
470.586685
 21
412.058715
 31
0.0
  0
LINE
  8
LC-001-002-----0
  6
CONTINUOUS
 62
     1
  5
2A7
 10
602.586649
 20
274.057929
 30
0.0
 11
470.586649
 21
274.058715
 31
0.0
  0
ARC
  8
LC-009-002-RND-0
  6
CONTINUOUS
  5
2A8
 10
470.586667
 20
409.058715
 30
0.0
 40
3.0
 50
89.999659
 51
180.0
  0
ARC
  8
LC-009-002-RND-0
  6
CONTINUOUS
  5
2A9
 10
602.586667
 20
409.057929
 30
0.0
 40
3.0
 50
0.0
 51
89.999659
  0
ARC
  8
LC-009-002-RND-0
  6
CONTINUOUS
  5
2AA
 10
602.586667
 20
277.057929
 30
0.0
 40
3.0
 50
269.999659
 51
0.0
  0
ARC
  8
LC-009-002-RND-0
  6
CONTINUOUS
  5
2AB
 10
470.586667
 20
277.058715
 30
0.0
 40
3.0
 50
180.0
 51
269.999659
  0
LINE
  8
LC-001-002-----0
  6
CONTINUOUS
 62
     1
  5
2AC
 10
595.586545
 20
404.036333
 30
0.0
 11
597.586545
 21
404.036333
 31
0.0
  0
LINE
  8
LC-001-002-----0
  6
CONTINUOUS
 62
     1
  5
2AD
 10
598.586545
 20
404.036333
 30
0.0
 11
600.586545
 21
404.036333
 31
0.0
  0
CIRCLE
  8
LC-001-002-----0
  6
CONTINUOUS
 62
     1
  5
2AE
 10
598.086545
 20
404.536333
 30
0.0
 40
5.5
  0
LINE
  8
LC-001-002-----0
  6
CONTINUOUS
 62
     1
  5
2AF
 10
597.586545
 20
402.036333
 30
0.0
 11
598.586545
 21
402.036333
 31
0.0
  0
LINE
  8
LC-001-002-----0
  6
CONTINUOUS
 62
     1
  5
2B0
 10
597.586545
 20
407.036333
 30
0.0
 11
598.586545
 21
407.036333
 31
0.0
  0
LINE
  8
LC-001-002-----0
  6
CONTINUOUS
 62
     1
  5
2B1
 10
595.586545
 20
404.036333
 30
0.0
 11
595.586545
 21
405.036333
 31
0.0
  0
LINE
  8
LC-001-002-----0
  6
CONTINUOUS
 62
     1
  5
2B2
 10
250.586667
 20
408.058376
 30
0.0
 11
316.586667
 21
408.058376
 31
0.0
  0
LINE
  8
LC-001-002-----0
  6
CONTINUOUS
 62
     1
  5
2B3
 10
334.086667
 20
407.058376
 30
0.0
 11
316.586667
 21
407.058376
 31
0.0
  0
LINE
  8
LC-001-002-----0
  6
CONTINUOUS
 62
     1
  5
2B4
 10
382.586667
 20
408.058376
 30
0.0
 11
316.586667
 21
408.058376
 31
0.0
  0
LINE
  8
LC-001-002-----0
  6
CONTINUOUS
 62
     1
  5
2B5
 10
336.086667
 20
405.058376
 30
0.0
 11
336.086667
 21
403.058376
 31
0.0
  0
ARC
  8
LC-001-002-----0
  6
CONTINUOUS
 62
     1
  5
2B6
 10
334.086667
 20
405.058376
 30
0.0
 40
2.0
 50
0.0
 51
90.0
  0
ARC
  8
LC-001-002-----0
  6
CONTINUOUS
 62
     1
  5
2B7
 10
334.086667
 20
405.058376
 30
0.0
 40
3.0
 50
0.0
 51
90.0
  0
LINE
  8
LC-001-002-----0
  6
CONTINUOUS
 62
     1
  5
2B8
 10
337.086667
 20
405.058376
 30
0.0
 11
337.086667
 21
403.058376
 31
0.0
  0
LINE
  8
LC-001-002-----0
  6
CONTINUOUS
 62
     1
  5
2B9
 10
336.086667
 20
403.058376
 30
0.0
 11
345.086667
 21
403.058376
 31
0.0
  0
LINE
  8
LC-001-002-----0
  6
CONTINUOUS
 62
     1
  5
2BA
 10
344.086667
 20
403.058376
 30
0.0
 11
344.086667
 21
405.058376
 31
0.0
  0
LINE
  8
LC-001-002-----0
  6
CONTINUOUS
 62
     1
  5
2BB
 10
345.086667
 20
403.058376
 30
0.0
 11
345.086667
 21
405.058376
 31
0.0
  0
ARC
  8
LC-001-002-----0
  6
CONTINUOUS
 62
     1
  5
2BC
 10
347.086667
 20
405.058376
 30
0.0
 40
2.0
 50
90.0
 51
180.0
  0
ARC
  8
LC-001-002-----0
  6
CONTINUOUS
 62
     1
  5
2BD
 10
347.086667
 20
405.058376
 30
0.0
 40
3.0
 50
90.0
 51
180.0
  0
LINE
  8
LC-001-002-----0
  6
CONTINUOUS
 62
     1
  5
2BE
 10
350.086667
 20
407.058376
 30
0.0
 11
347.086667
 21
407.058376
 31
0.0
  0
ARC
  8
LC-001-002-----0
  6
CONTINUOUS
 62
     1
  5
2BF
 10
350.086667
 20
405.058376
 30
0.0
 40
2.0
 50
0.0
 51
90.0
  0
LINE
  8
LC-001-002-----0
  6
CONTINUOUS
 62
     1
  5
2C0
 10
352.086667
 20
405.058376
 30
0.0
 11
352.086667
 21
403.058376
 31
0.0
  0
ARC
  8
LC-001-002-----0
  6
CONTINUOUS
 62
     1
  5
2C1
 10
350.086667
 20
405.058376
 30
0.0
 40
3.0
 50
0.0
 51
90.0
  0
LINE
  8
LC-001-002-----0
  6
CONTINUOUS
 62
     1
  5
2C2
 10
353.086667
 20
405.058376
 30
0.0
 11
353.086667
 21
403.058376
 31
0.0
  0
LINE
  8
LC-001-002-----0
  6
CONTINUOUS
 62
     1
  5
2C3
 10
352.086667
 20
403.058376
 30
0.0
 11
361.086667
 21
403.058376
 31
0.0
  0
LINE
  8
LC-001-002-----0
  6
CONTINUOUS
 62
     1
  5
2C4
 10
360.086667
 20
403.058376
 30
0.0
 11
360.086667
 21
405.058376
 31
0.0
  0
LINE
  8
LC-001-002-----0
  6
CONTINUOUS
 62
     1
  5
2C5
 10
361.086667
 20
403.058376
 30
0.0
 11
361.086667
 21
405.058376
 31
0.0
  0
ARC
  8
LC-001-002-----0
  6
CONTINUOUS
 62
     1
  5
2C6
 10
363.086667
 20
405.058376
 30
0.0
 40
3.0
 50
90.0
 51
180.0
  0
ARC
  8
LC-001-002-----0
  6
CONTINUOUS
 62
     1
  5
2C7
 10
363.086667
 20
405.058376
 30
0.0
 40
2.0
 50
90.0
 51
180.0
  0
LINE
  8
LC-001-002-----0
  6
CONTINUOUS
 62
     1
  5
2C8
 10
363.086667
 20
407.058376
 30
0.0
 11
366.086667
 21
407.058376
 31
0.0
  0
ARC
  8
LC-001-002-----0
  6
CONTINUOUS
 62
     1
  5
2C9
 10
366.086667
 20
405.058376
 30
0.0
 40
3.0
 50
0.0
 51
90.0
  0
ARC
  8
LC-001-002-----0
  6
CONTINUOUS
 62
     1
  5
2CA
 10
366.086667
 20
405.058376
 30
0.0
 40
2.0
 50
0.0
 51
90.0
  0
LINE
  8
LC-001-002-----0
  6
CONTINUOUS
 62
     1
  5
2CB
 10
368.086667
 20
405.058376
 30
0.0
 11
368.086667
 21
403.058376
 31
0.0
  0
LINE
  8
LC-001-002-----0
  6
CONTINUOUS
 62
     1
  5
2CC
 10
369.086667
 20
405.058376
 30
0.0
 11
369.086667
 21
403.058376
 31
0.0
  0
LINE
  8
LC-001-002-----0
  6
CONTINUOUS
 62
     1
  5
2CD
 10
368.086667
 20
403.058376
 30
0.0
 11
377.086667
 21
403.058376
 31
0.0
  0
LINE
  8
LC-001-002-----0
  6
CONTINUOUS
 62
     1
  5
2CE
 10
376.086667
 20
403.058376
 30
0.0
 11
376.086667
 21
405.058376
 31
0.0
  0
LINE
  8
LC-001-002-----0
  6
CONTINUOUS
 62
     1
  5
2CF
 10
377.086667
 20
403.058376
 30
0.0
 11
377.086667
 21
405.058376
 31
0.0
  0
ARC
  8
LC-001-002-----0
  6
CONTINUOUS
 62
     1
  5
2D0
 10
379.086667
 20
405.058376
 30
0.0
 40
2.0
 50
90.0
 51
180.0
  0
ARC
  8
LC-001-002-----0
  6
CONTINUOUS
 62
     1
  5
2D1
 10
379.086667
 20
405.058376
 30
0.0
 40
3.0
 50
90.0
 51
180.0
  0
LINE
  8
LC-001-002-----0
  6
CONTINUOUS
 62
     1
  5
2D2
 10
379.086667
 20
407.058376
 30
0.0
 11
382.586667
 21
407.058376
 31
0.0
  0
ARC
  8
LC-001-002-----0
  6
CONTINUOUS
 62
     1
  5
2D3
 10
382.586667
 20
405.058376
 30
0.0
 40
2.0
 50
0.0
 51
90.0
  0
ARC
  8
LC-001-002-----0
  6
CONTINUOUS
 62
     1
  5
2D4
 10
382.586667
 20
405.058376
 30
0.0
 40
3.0
 50
0.0
 51
90.0
  0
LINE
  8
LC-001-002-----0
  6
CONTINUOUS
 62
     1
  5
2D5
 10
384.586667
 20
405.058376
 30
0.0
 11
384.586667
 21
403.058376
 31
0.0
  0
LINE
  8
LC-001-002-----0
  6
CONTINUOUS
 62
     1
  5
2D6
 10
385.586667
 20
405.058376
 30
0.0
 11
385.586667
 21
403.058376
 31
0.0
  0
LINE
  8
LC-001-002-----0
  6
CONTINUOUS
 62
     1
  5
2D7
 10
247.586667
 20
405.058376
 30
0.0
 11
247.586667
 21
403.058376
 31
0.0
  0
LINE
  8
LC-001-002-----0
  6
CONTINUOUS
 62
     1
  5
2D8
 10
297.086667
 20
403.058376
 30
0.0
 11
288.086667
 21
403.058376
 31
0.0
  0
LINE
  8
LC-001-002-----0
  6
CONTINUOUS
 62
     1
  5
2D9
 10
297.086667
 20
405.058376
 30
0.0
 11
297.086667
 21
403.058376
 31
0.0
  0
ARC
  8
LC-001-002-----0
  6
CONTINUOUS
 62
     1
  5
2DA
 10
299.086667
 20
405.058376
 30
0.0
 40
2.0
 50
90.0
 51
180.0
  0
LINE
  8
LC-001-002-----0
  6
CONTINUOUS
 62
     1
  5
2DB
 10
288.086667
 20
403.058376
 30
0.0
 11
288.086667
 21
405.058376
 31
0.0
  0
LINE
  8
LC-001-002-----0
  6
CONTINUOUS
 62
     1
  5
2DC
 10
270.086667
 20
407.058376
 30
0.0
 11
267.086667
 21
407.058376
 31
0.0
  0
LINE
  8
LC-001-002-----0
  6
CONTINUOUS
 62
     1
  5
2DD
 10
281.086667
 20
403.058376
 30
0.0
 11
272.086667
 21
403.058376
 31
0.0
  0
ARC
  8
LC-001-002-----0
  6
CONTINUOUS
 62
     1
  5
2DE
 10
286.086667
 20
405.058376
 30
0.0
 40
3.0
 50
0.0
 51
90.0
  0
LINE
  8
LC-001-002-----0
  6
CONTINUOUS
 62
     1
  5
2DF
 10
281.086667
 20
405.058376
 30
0.0
 11
281.086667
 21
403.058376
 31
0.0
  0
LINE
  8
LC-001-002-----0
  6
CONTINUOUS
 62
     1
  5
2E0
 10
256.086667
 20
403.058376
 30
0.0
 11
256.086667
 21
405.058376
 31
0.0
  0
LINE
  8
LC-001-002-----0
  6
CONTINUOUS
 62
     1
  5
2E1
 10
257.086667
 20
403.058376
 30
0.0
 11
257.086667
 21
405.058376
 31
0.0
  0
LINE
  8
LC-001-002-----0
  6
CONTINUOUS
 62
     1
  5
2E2
 10
265.086667
 20
403.058376
 30
0.0
 11
256.086667
 21
403.058376
 31
0.0
  0
ARC
  8
LC-001-002-----0
  6
CONTINUOUS
 62
     1
  5
2E3
 10
270.086667
 20
405.058376
 30
0.0
 40
3.0
 50
0.0
 51
90.0
  0
LINE
  8
LC-001-002-----0
  6
CONTINUOUS
 62
     1
  5
2E4
 10
265.086667
 20
405.058376
 30
0.0
 11
265.086667
 21
403.058376
 31
0.0
  0
ARC
  8
LC-001-002-----0
  6
CONTINUOUS
 62
     1
  5
2E5
 10
283.086667
 20
405.058376
 30
0.0
 40
2.0
 50
90.0
 51
180.0
  0
ARC
  8
LC-001-002-----0
  6
CONTINUOUS
 62
     1
  5
2E6
 10
267.086667
 20
405.058376
 30
0.0
 40
2.0
 50
90.0
 51
180.0
  0
ARC
  8
LC-001-002-----0
  6
CONTINUOUS
 62
     1
  5
2E7
 10
254.086667
 20
405.058376
 30
0.0
 40
2.0
 50
0.0
 51
90.0
  0
ARC
  8
LC-001-002-----0
  6
CONTINUOUS
 62
     1
  5
2E8
 10
250.586667
 20
405.058376
 30
0.0
 40
2.0
 50
90.0
 51
180.0
  0
LINE
  8
LC-001-002-----0
  6
CONTINUOUS
 62
     1
  5
2E9
 10
248.586667
 20
405.058376
 30
0.0
 11
248.586667
 21
403.058376
 31
0.0
  0
ARC
  8
LC-001-002-----0
  6
CONTINUOUS
 62
     1
  5
2EA
 10
254.086667
 20
405.058376
 30
0.0
 40
3.0
 50
0.0
 51
90.0
  0
ARC
  8
LC-001-002-----0
  6
CONTINUOUS
 62
     1
  5
2EB
 10
250.586667
 20
405.058376
 30
0.0
 40
3.0
 50
90.0
 51
180.0
  0
LINE
  8
LC-001-002-----0
  6
CONTINUOUS
 62
     1
  5
2EC
 10
254.086667
 20
407.058376
 30
0.0
 11
250.586667
 21
407.058376
 31
0.0
  0
ARC
  8
LC-001-002-----0
  6
CONTINUOUS
 62
     1
  5
2ED
 10
270.086667
 20
405.058376
 30
0.0
 40
2.0
 50
0.0
 51
90.0
  0
LINE
  8
LC-001-002-----0
  6
CONTINUOUS
 62
     1
  5
2EE
 10
272.086667
 20
403.058376
 30
0.0
 11
272.086667
 21
405.058376
 31
0.0
  0
ARC
  8
LC-001-002-----0
  6
CONTINUOUS
 62
     1
  5
2EF
 10
286.086667
 20
405.058376
 30
0.0
 40
2.0
 50
0.0
 51
90.0
  0
LINE
  8
LC-001-002-----0
  6
CONTINUOUS
 62
     1
  5
2F0
 10
283.086667
 20
407.058376
 30
0.0
 11
286.086667
 21
407.058376
 31
0.0
  0
LINE
  8
LC-001-002-----0
  6
CONTINUOUS
 62
     1
  5
2F1
 10
299.086667
 20
407.058376
 30
0.0
 11
316.586667
 21
407.058376
 31
0.0
  0
ARC
  8
LC-001-002-----0
  6
CONTINUOUS
 62
     1
  5
2F2
 10
267.086667
 20
405.058376
 30
0.0
 40
3.0
 50
90.0
 51
180.0
  0
ARC
  8
LC-001-002-----0
  6
CONTINUOUS
 62
     1
  5
2F3
 10
283.086667
 20
405.058376
 30
0.0
 40
3.0
 50
90.0
 51
180.0
  0
ARC
  8
LC-001-002-----0
  6
CONTINUOUS
 62
     1
  5
2F4
 10
299.086667
 20
405.058376
 30
0.0
 40
3.0
 50
90.0
 51
180.0
  0
LINE
  8
LC-001-002-----0
  6
CONTINUOUS
 62
     1
  5
2F5
 10
264.086667
 20
405.058376
 30
0.0
 11
264.086667
 21
403.058376
 31
0.0
  0
LINE
  8
LC-001-002-----0
  6
CONTINUOUS
 62
     1
  5
2F6
 10
273.086667
 20
403.058376
 30
0.0
 11
273.086667
 21
405.058376
 31
0.0
  0
LINE
  8
LC-001-002-----0
  6
CONTINUOUS
 62
     1
  5
2F7
 10
280.086667
 20
405.058376
 30
0.0
 11
280.086667
 21
403.058376
 31
0.0
  0
LINE
  8
LC-001-002-----0
  6
CONTINUOUS
 62
     1
  5
2F8
 10
289.086667
 20
403.058376
 30
0.0
 11
289.086667
 21
405.058376
 31
0.0
  0
LINE
  8
LC-001-002-----0
  6
CONTINUOUS
 62
     1
  5
2F9
 10
296.086667
 20
405.058376
 30
0.0
 11
296.086667
 21
403.058376
 31
0.0
  0
LINE
  8
LC-001-002-----0
  6
CONTINUOUS
 62
     1
  5
2FA
 10
461.586368
 20
268.058621
 30
0.0
 11
611.586368
 21
268.058621
 31
0.0
  0
LINE
  8
LC-001-002-----0
  6
CONTINUOUS
 62
     1
  5
2FB
 10
264.586667
 20
278.058376
 30
0.0
 11
370.112946
 21
278.058376
 31
0.0
  0
ENDSEC
  0
EOF
