  0
SECTION
  2
HEADER
  9
$ACADVER
  1
AC1015
  9
$ACADMAINTVER
 70
     6
  9
$DWGCODEPAGE
  3
ANSI_1252
  9
$INSBASE
 10
191.487762
 20
277.53
 30
0.0
  9
$EXTMIN
 10
191.487762
 20
277.53
 30
0.0
  9
$EXTMAX
 10
1873.487762
 20
1465.53
 30
0.0
  9
$LIMMIN
 10
191.487762
 20
277.53
  9
$LIMMAX
 10
1873.487762
 20
1465.53
  9
$ORTHOMODE
 70
     0
  9
$REGENMODE
 70
     1
  9
$FILLMODE
 70
     1
  9
$QTEXTMODE
 70
     0
  9
$MIRRTEXT
 70
     1
  9
$LTSCALE
 40
2.0
  9
$ATTMODE
 70
     1
  9
$TEXTSIZE
 40
2.5
  9
$TRACEWID
 40
1.0
  9
$TEXTSTYLE
  7
Standard
  9
$CLAYER
  8
0
  9
$CELTYPE
  6
ByLayer
  9
$CECOLOR
 62
     7
  9
$CELTSCALE
 40
1.0
  9
$DISPSILH
 70
     0
  9
$DIMSCALE
 40
2.0
  9
$DIMASZ
 40
3.5
  9
$DIMEXO
 40
0.625
  9
$DIMDLI
 40
3.75
  9
$DIMRND
 40
0.0
  9
$DIMDLE
 40
0.0
  9
$DIMEXE
 40
1.25
  9
$DIMTP
 40
0.0
  9
$DIMTM
 40
0.0
  9
$DIMTXT
 40
3.5
  9
$DIMCEN
 40
2.5
  9
$DIMTSZ
 40
0.0
  9
$DIMTOL
 70
     0
  9
$DIMLIM
 70
     0
  9
$DIMTIH
 70
     0
  9
$DIMTOH
 70
     0
  9
$DIMSE1
 70
     0
  9
$DIMSE2
 70
     0
  9
$DIMTAD
 70
     1
  9
$DIMZIN
 70
     8
  9
$DIMBLK
  1

  9
$DIMASO
 70
     1
  9
$DIMSHO
 70
     1
  9
$DIMPOST
  1

  9
$DIMAPOST
  1

  9
$DIMALT
 70
     0
  9
$DIMALTD
 70
     3
  9
$DIMALTF
 40
0.03937
  9
$DIMLFAC
 40
1.0
  9
$DIMTOFL
 70
     1
  9
$DIMTVP
 40
0.0
  9
$DIMTIX
 70
     0
  9
$DIMSOXD
 70
     0
  9
$DIMSAH
 70
     0
  9
$DIMBLK1
  1

  9
$DIMBLK2
  1

  9
$DIMSTYLE
  2
ISO-25
  9
$DIMCLRD
 70
     0
  9
$DIMCLRE
 70
     0
  9
$DIMCLRT
 70
     0
  9
$DIMTFAC
 40
1.0
  9
$DIMGAP
 40
0.625
  9
$DIMJUST
 70
     0
  9
$DIMSD1
 70
     0
  9
$DIMSD2
 70
     0
  9
$DIMTOLJ
 70
     0
  9
$DIMTZIN
 70
     8
  9
$DIMALTZ
 70
     0
  9
$DIMALTTZ
 70
     0
  9
$DIMUPT
 70
     0
  9
$DIMDEC
 70
     2
  9
$DIMTDEC
 70
     2
  9
$DIMALTU
 70
     2
  9
$DIMALTTD
 70
     3
  9
$DIMTXSTY
  7
Standard
  9
$DIMAUNIT
 70
     0
  9
$DIMADEC
 70
     0
  9
$DIMALTRND
 40
0.0
  9
$DIMAZIN
 70
     0
  9
$DIMDSEP
 70
    44
  9
$DIMATFIT
 70
     3
  9
$DIMFRAC
 70
     0
  9
$DIMLDRBLK
  1

  9
$DIMLUNIT
 70
     2
  9
$DIMLWD
 70
    -2
  9
$DIMLWE
 70
    -2
  9
$DIMTMOVE
 70
     0
  9
$LUNITS
 70
     2
  9
$LUPREC
 70
     4
  9
$SKETCHINC
 40
1.0
  9
$FILLETRAD
 40
10.0
  9
$AUNITS
 70
     0
  9
$AUPREC
 70
     0
  9
$MENU
  1
.
  9
$ELEVATION
 40
0.0
  9
$PELEVATION
 40
0.0
  9
$THICKNESS
 40
0.0
  9
$LIMCHECK
 70
     0
  9
$CHAMFERA
 40
10.0
  9
$CHAMFERB
 40
10.0
  9
$CHAMFERC
 40
20.0
  9
$CHAMFERD
 40
0.0
  9
$SKPOLY
 70
     0
  9
$TDCREATE
 40
2457029.290750151
  9
$TDUCREATE
 40
2457029.249083484
  9
$TDUPDATE
 40
2457029.290750162
  9
$TDUUPDATE
 40
2457029.249083495
  9
$TDINDWG
 40
0.0000000116
  9
$TDUSRTIMER
 40
0.0000000116
  9
$USRTIMER
 70
     1
  9
$ANGBASE
 50
0.0
  9
$ANGDIR
 70
     0
  9
$PDMODE
 70
     0
  9
$PDSIZE
 40
0.0
  9
$PLINEWID
 40
0.0
  9
$SPLFRAME
 70
     0
  9
$SPLINETYPE
 70
     6
  9
$SPLINESEGS
 70
     8
  9
$HANDSEED
  5
298
  9
$SURFTAB1
 70
     6
  9
$SURFTAB2
 70
     6
  9
$SURFTYPE
 70
     6
  9
$SURFU
 70
     6
  9
$SURFV
 70
     6
  9
$UCSBASE
  2

  9
$UCSNAME
  2

  9
$UCSORG
 10
0.0
 20
0.0
 30
0.0
  9
$UCSXDIR
 10
1.0
 20
0.0
 30
0.0
  9
$UCSYDIR
 10
0.0
 20
1.0
 30
0.0
  9
$UCSORTHOREF
  2

  9
$UCSORTHOVIEW
 70
     0
  9
$UCSORGTOP
 10
0.0
 20
0.0
 30
0.0
  9
$UCSORGBOTTOM
 10
0.0
 20
0.0
 30
0.0
  9
$UCSORGLEFT
 10
0.0
 20
0.0
 30
0.0
  9
$UCSORGRIGHT
 10
0.0
 20
0.0
 30
0.0
  9
$UCSORGFRONT
 10
0.0
 20
0.0
 30
0.0
  9
$UCSORGBACK
 10
0.0
 20
0.0
 30
0.0
  9
$PUCSBASE
  2

  9
$PUCSNAME
  2

  9
$PUCSORG
 10
0.0
 20
0.0
 30
0.0
  9
$PUCSXDIR
 10
1.0
 20
0.0
 30
0.0
  9
$PUCSYDIR
 10
0.0
 20
1.0
 30
0.0
  9
$PUCSORTHOREF
  2

  9
$PUCSORTHOVIEW
 70
     0
  9
$PUCSORGTOP
 10
0.0
 20
0.0
 30
0.0
  9
$PUCSORGBOTTOM
 10
0.0
 20
0.0
 30
0.0
  9
$PUCSORGLEFT
 10
0.0
 20
0.0
 30
0.0
  9
$PUCSORGRIGHT
 10
0.0
 20
0.0
 30
0.0
  9
$PUCSORGFRONT
 10
0.0
 20
0.0
 30
0.0
  9
$PUCSORGBACK
 10
0.0
 20
0.0
 30
0.0
  9
$USERI1
 70
     0
  9
$USERI2
 70
     0
  9
$USERI3
 70
     0
  9
$USERI4
 70
     0
  9
$USERI5
 70
     0
  9
$USERR1
 40
0.0
  9
$USERR2
 40
0.0
  9
$USERR3
 40
0.0
  9
$USERR4
 40
0.0
  9
$USERR5
 40
0.0
  9
$WORLDVIEW
 70
     1
  9
$SHADEDGE
 70
     3
  9
$SHADEDIF
 70
    70
  9
$TILEMODE
 70
     1
  9
$MAXACTVP
 70
    64
  9
$PINSBASE
 10
0.0
 20
0.0
 30
0.0
  9
$PLIMCHECK
 70
     0
  9
$PEXTMIN
 10
191.487762
 20
277.53
 30
0.0
  9
$PEXTMAX
 10
1873.487762
 20
1465.53
 30
0.0
  9
$PLIMMIN
 10
191.487762
 20
277.53
  9
$PLIMMAX
 10
1873.487762
 20
1465.53
  9
$UNITMODE
 70
     0
  9
$VISRETAIN
 70
     1
  9
$PLINEGEN
 70
     0
  9
$PSLTSCALE
 70
     1
  9
$TREEDEPTH
 70
  3020
  9
$CMLSTYLE
  2
Standard
  9
$CMLJUST
 70
     0
  9
$CMLSCALE
 40
20.0
  9
$PROXYGRAPHICS
 70
     1
  9
$MEASUREMENT
 70
     1
  9
$CELWEIGHT
370
    -1
  9
$ENDCAPS
280
     0
  9
$JOINSTYLE
280
     0
  9
$LWDISPLAY
290
     0
  9
$INSUNITS
 70
     4
  9
$HYPERLINKBASE
  1

  9
$STYLESHEET
  1

  9
$XEDIT
290
     1
  9
$CEPSNTYPE
380
     0
  9
$PSTYLEMODE
290
     1
  9
$FINGERPRINTGUID
  2
{FAEB1C30-E019-11D5-929B-00C0DF256EC4}
  9
$VERSIONGUID
  2
{FAEB1C32-E019-11D5-929B-00C0DF256EC4}
  9
$EXTNAMES
290
     1
  9
$PSVPSCALE
 40
0.0
  9
$OLESTARTUP
290
     0
  0
ENDSEC
  0
SECTION
  2
CLASSES
  0
CLASS
  1
ACDBDICTIONARYWDFLT
  2
AcDbDictionaryWithDefault
  3
ObjectDBX Classes
 90
        0
280
     0
281
     0
  0
CLASS
  1
ACDBPLACEHOLDER
  2
AcDbPlaceHolder
  3
ObjectDBX Classes
 90
        0
280
     0
281
     0
  0
CLASS
  1
LAYOUT
  2
AcDbLayout
  3
ObjectDBX Classes
 90
        0
280
     0
281
     0
  0
ENDSEC
  0
SECTION
  2
TABLES
  0
TABLE
  2
VPORT
  5
8
330
0
100
AcDbSymbolTable
 70
     2
  0
VPORT
  5
29
330
8
100
AcDbSymbolTableRecord
100
AcDbViewportTableRecord
  2
*ACTIVE
 70
     0
 10
0.0
 20
0.0
 11
1.0
 21
1.0
 12
1032.487762
 22
871.53
 13
0.0
 23
0.0
 14
1.0
 24
1.0
 15
0.0
 25
0.0
 16
0.0
 26
0.0
 36
1.0
 17
0.0
 27
0.0
 37
0.0
 40
1188.0
 41
1.415825
 42
50.0
 43
0.0
 44
0.0
 50
0.0
 51
0.0
 71
    16
 72
   100
 73
     1
 74
     0
 75
     0
 76
     0
 77
     0
 78
     0
281
     0
 65
     0
110
0.0
120
0.0
130
0.0
111
1.0
121
0.0
131
0.0
112
0.0
122
1.0
132
0.0
 79
     0
146
0.0
  0
ENDTAB
  0
TABLE
  2
LTYPE
  5
5
330
0
100
AcDbSymbolTable
 70
     3
  0
LTYPE
  5
14
330
5
100
AcDbSymbolTableRecord
100
AcDbLinetypeTableRecord
  2
ByBlock
 70
     0
  3

 72
    65
 73
     0
 40
0.0
  0
LTYPE
  5
15
330
5
100
AcDbSymbolTableRecord
100
AcDbLinetypeTableRecord
  2
ByLayer
 70
     0
  3

 72
    65
 73
     0
 40
0.0
  0
LTYPE
  5
16
330
5
100
AcDbSymbolTableRecord
100
AcDbLinetypeTableRecord
  2
Continuous
 70
     0
  3
Solid line
 72
    65
 73
     0
 40
0.0
  0
LTYPE
  5
2A
330
5
100
AcDbSymbolTableRecord
100
AcDbLinetypeTableRecord
  2
DASHED
 70
     0
  3
__ __ __ __ __
 72
    65
 73
     2
 40
6.25
 49
5.0
 74
     4
 75
     0
340
0
 46
1.0
 50
0.0
 44
0.0
 45
0.0
 49
-1.25
 74
     4
 75
     0
340
0
 46
1.0
 50
0.0
 44
0.0
 45
0.0
  0
LTYPE
  5
38
330
5
100
AcDbSymbolTableRecord
100
AcDbLinetypeTableRecord
  2
DASHDOT
 70
     0
  3
__ . __ . __ . __ . __
 72
    65
 73
     4
 40
7.5
 49
5.0
 74
     4
 75
     0
340
0
 46
1.0
 50
0.0
 44
0.0
 45
0.0
 49
-1.25
 74
     4
 75
     0
340
0
 46
1.0
 50
0.0
 44
0.0
 45
0.0
 49
0.0
 74
     4
 75
     0
340
0
 46
1.0
 50
0.0
 44
0.0
 45
0.0
 49
-1.25
 74
     4
 75
     0
340
0
 46
1.0
 50
0.0
 44
0.0
 45
0.0
  0
ENDTAB
  0
TABLE
  2
LAYER
  5
2
330
0
100
AcDbSymbolTable
 70
    12
  0
LAYER
  5
10
330
2
100
AcDbSymbolTableRecord
100
AcDbLayerTableRecord
  2
0
 70
     0
 62
     7
  6
Continuous
370
    -3
390
F
  0
LAYER
  5
2B
330
2
100
AcDbSymbolTableRecord
100
AcDbLayerTableRecord
  2
LC-INFO-1-2-mm-A1-0
 70
     1
 62
     7
  6
ByBlock
370
    -3
390
F
  0
LAYER
  5
2C
330
2
100
AcDbSymbolTableRecord
100
AcDbLayerTableRecord
  2
LC-CUT-HIDDEN
 70
     0
 62
     7
  6
DASHED
370
    -3
390
F
  0
LAYER
  5
2D
330
2
100
AcDbSymbolTableRecord
100
AcDbLayerTableRecord
  2
LC-VIEWPORT
 70
     0
 62
     7
  6
ByBlock
370
    -3
390
F
  0
LAYER
  5
2E
330
2
100
AcDbSymbolTableRecord
100
AcDbLayerTableRecord
  2
LC-3D-HIDDEN
 70
     0
 62
     9
  6
DASHED
370
    -3
390
F
  0
LAYER
  5
31
330
2
100
AcDbSymbolTableRecord
100
AcDbLayerTableRecord
  2
LC-001-002-----0
 70
     0
 62
     1
  6
ByBlock
370
    -3
390
F
  0
LAYER
  5
39
330
2
100
AcDbSymbolTableRecord
100
AcDbLayerTableRecord
  2
LC-002-006-MLN-0
 70
     0
 62
     2
  6
DASHDOT
370
    -3
390
F
  0
LAYER
  5
3E
330
2
100
AcDbSymbolTableRecord
100
AcDbLayerTableRecord
  2
LC-003-003-----0
 70
     0
 62
     2
  6
ByBlock
370
    -3
390
F
  0
LAYER
  5
40
330
2
100
AcDbSymbolTableRecord
100
AcDbLayerTableRecord
  2
Defpoints
 70
     0
 62
     7
  6
Continuous
290
     0
370
    -3
390
F
  0
LAYER
  5
71
330
2
100
AcDbSymbolTableRecord
100
AcDbLayerTableRecord
  2
LC-004-005-----0
 70
     0
 62
     2
  6
ByBlock
370
    -3
390
F
  0
LAYER
  5
94
330
2
100
AcDbSymbolTableRecord
100
AcDbLayerTableRecord
  2
LC-005-002-RND-0
 70
     0
 62
     1
  6
ByBlock
370
    -3
390
F
  0
LAYER
  5
F1
330
2
100
AcDbSymbolTableRecord
100
AcDbLayerTableRecord
  2
LC-006-004-----0
 70
     0
 62
     7
  6
ByBlock
370
    -3
390
F
  0
ENDTAB
  0
TABLE
  2
STYLE
  5
3
330
0
100
AcDbSymbolTable
 70
     3
  0
STYLE
  5
11
330
3
100
AcDbSymbolTableRecord
100
AcDbTextStyleTableRecord
  2
Standard
 70
     0
 40
0.0
 41
1.0
 50
0.0
 71
     0
 42
2.5
  3
txt
  4

  0
STYLE
  5
2F
330
3
100
AcDbSymbolTableRecord
100
AcDbTextStyleTableRecord
  2
LCTX15-400-0-0-Arial
 70
     0
 40
0.0
 41
0.9
 50
0.0
 71
     0
 42
3.5
  3

  4

1001
ACAD
1000
Arial
1071
 16777218
  0
STYLE
  5
30
330
3
100
AcDbSymbolTableRecord
100
AcDbTextStyleTableRecord
  2
LCTX15-400-0-0pDIN-Schrift
 70
     0
 40
0.0
 41
0.9
 50
15.0
 71
     0
 42
3.5
  3
TXT
  4

  0
ENDTAB
  0
TABLE
  2
VIEW
  5
6
330
0
100
AcDbSymbolTable
 70
     0
  0
ENDTAB
  0
TABLE
  2
UCS
  5
7
330
0
100
AcDbSymbolTable
 70
     0
  0
ENDTAB
  0
TABLE
  2
APPID
  5
9
330
0
100
AcDbSymbolTable
 70
     1
  0
APPID
  5
12
330
9
100
AcDbSymbolTableRecord
100
AcDbRegAppTableRecord
  2
ACAD
 70
     0
  0
ENDTAB
  0
TABLE
  2
DIMSTYLE
  5
A
330
0
100
AcDbSymbolTable
 70
     2
100
AcDbDimStyleTable
  0
DIMSTYLE
105
27
330
A
100
AcDbSymbolTableRecord
100
AcDbDimStyleTableRecord
  2
ISO-25
 70
     0
 41
2.5
 42
0.625
 43
3.75
 44
1.25
 73
     0
 74
     0
 77
     1
 78
     8
140
2.5
141
2.5
143
0.03937
147
0.625
171
     3
172
     1
271
     2
272
     2
274
     3
278
    44
283
     0
284
     8
340
11
  0
DIMSTYLE
105
3D
102
{ACAD_REACTORS
330
3F
330
5F
330
244
102
}
330
A
100
AcDbSymbolTableRecord
100
AcDbDimStyleTableRecord
  2
LC-DIM-L-0140-02-02
 70
     0
 40
2.0
 41
14.0
 42
0.0
 43
7.5
 44
1.8
 73
     0
 74
     0
 77
     1
 78
     8
 79
     2
140
14.0
141
0.0
146
0.71
147
1.5
176
     2
177
     2
178
     2
179
     2
271
     2
278
    44
289
     1
340
30
  0
ENDTAB
  0
TABLE
  2
BLOCK_RECORD
  5
1
330
0
100
AcDbSymbolTable
 70
     9
  0
BLOCK_RECORD
  5
1F
330
1
100
AcDbSymbolTableRecord
100
AcDbBlockTableRecord
  2
*Model_Space
340
22
  0
BLOCK_RECORD
  5
1B
330
1
100
AcDbSymbolTableRecord
100
AcDbBlockTableRecord
  2
*Paper_Space
340
1E
  0
BLOCK_RECORD
  5
23
330
1
100
AcDbSymbolTableRecord
100
AcDbBlockTableRecord
  2
*Paper_Space0
340
26
  0
BLOCK_RECORD
  5
41
330
1
100
AcDbSymbolTableRecord
100
AcDbBlockTableRecord
  2
*D1
340
0
  0
BLOCK_RECORD
  5
60
330
1
100
AcDbSymbolTableRecord
100
AcDbBlockTableRecord
  2
*D2
340
0
  0
BLOCK_RECORD
  5
6E
330
1
100
AcDbSymbolTableRecord
100
AcDbBlockTableRecord
  2
*X13
340
0
102
{BLKREFS
331
86
102
}
  0
BLOCK_RECORD
  5
C2
330
1
100
AcDbSymbolTableRecord
100
AcDbBlockTableRecord
  2
*X24
340
0
102
{BLKREFS
331
E7
102
}
  0
BLOCK_RECORD
  5
F9
330
1
100
AcDbSymbolTableRecord
100
AcDbBlockTableRecord
  2
*X35
340
0
102
{BLKREFS
331
1FA
102
}
  0
BLOCK_RECORD
  5
1FC
330
1
100
AcDbSymbolTableRecord
100
AcDbBlockTableRecord
  2
*X46
340
0
102
{BLKREFS
331
243
102
}
  0
BLOCK_RECORD
  5
245
330
1
100
AcDbSymbolTableRecord
100
AcDbBlockTableRecord
  2
*D7
340
0
  0
BLOCK_RECORD
  5
251
330
1
100
AcDbSymbolTableRecord
100
AcDbBlockTableRecord
  2
*X58
340
0
102
{BLKREFS
331
295
102
}
  0
ENDTAB
  0
ENDSEC
  0
SECTION
  2
BLOCKS
  0
BLOCK
  5
20
330
1F
100
AcDbEntity
  8
0
100
AcDbBlockBegin
  2
*Model_Space
 70
     0
 71
     0
 10
0.0
 20
0.0
 30
0.0
  3
*Model_Space
  1

  0
ENDBLK
  5
21
330
1F
100
AcDbEntity
  8
0
100
AcDbBlockEnd
  0
BLOCK
  5
1C
330
1B
100
AcDbEntity
 67
     1
  8
0
100
AcDbBlockBegin
  2
*Paper_Space
 70
     0
 71
     0
 10
0.0
 20
0.0
 30
0.0
  3
*Paper_Space
  1

  0
ENDBLK
  5
1D
330
1B
100
AcDbEntity
 67
     1
  8
0
100
AcDbBlockEnd
  0
BLOCK
  5
24
330
23
100
AcDbEntity
  8
0
100
AcDbBlockBegin
  2
*Paper_Space0
 70
     0
 71
     0
 10
0.0
 20
0.0
 30
0.0
  3
*Paper_Space0
  1

  0
ENDBLK
  5
25
330
23
100
AcDbEntity
  8
0
100
AcDbBlockEnd
  0
BLOCK
  5
4B
330
41
100
AcDbEntity
  8
0
100
AcDbBlockBegin
  2
*D1
 70
     1
 71
     0
 10
0.0
 20
0.0
 30
0.0
  3
*D1
  1

  0
LINE
  5
42
330
41
100
AcDbEntity
  8
LC-003-003-----0
 62
     2
370
    -2
100
AcDbLine
 10
569.669019
 20
1216.727311
 30
0.0
 11
528.4
 21
1216.727311
 31
0.0
  0
LINE
  5
43
330
41
100
AcDbEntity
  8
LC-003-003-----0
 62
     2
370
    -2
100
AcDbLine
 10
569.669019
 20
316.727311
 30
0.0
 11
528.4
 21
316.727311
 31
0.0
  0
LINE
  5
44
330
41
100
AcDbEntity
  8
LC-003-003-----0
 62
     2
370
    -2
100
AcDbLine
 10
532.0
 20
1188.727311
 30
0.0
 11
532.0
 21
344.727311
 31
0.0
  0
SOLID
  5
45
330
41
100
AcDbEntity
  8
LC-003-003-----0
 62
     2
100
AcDbTrace
 10
536.666667
 20
1188.727311
 30
0.0
 11
527.333333
 21
1188.727311
 31
0.0
 12
532.0
 22
1216.727311
 32
0.0
 13
532.0
 23
1216.727311
 33
0.0
  0
SOLID
  5
46
330
41
100
AcDbEntity
  8
LC-003-003-----0
 62
     2
100
AcDbTrace
 10
527.333333
 20
344.727311
 30
0.0
 11
536.666667
 21
344.727311
 31
0.0
 12
532.0
 22
316.727311
 32
0.0
 13
532.0
 23
316.727311
 33
0.0
  0
MTEXT
  5
47
330
41
100
AcDbEntity
  8
LC-003-003-----0
 62
     2
100
AcDbMText
 10
501.2
 20
764.462452
 30
0.0
 40
28.0
 41
0.0
 71
     5
 72
     1
  1
\A1;900
  7
LCTX15-400-0-0pDIN-Schrift
 11
6.123031769111886E-17
 21
1.0
 31
0.0
 73
     1
 44
1.0
  0
POINT
  5
48
330
41
100
AcDbEntity
  8
Defpoints
 62
     0
100
AcDbPoint
 10
569.669019
 20
1216.727311
 30
0.0
  0
POINT
  5
49
330
41
100
AcDbEntity
  8
Defpoints
 62
     0
100
AcDbPoint
 10
569.669019
 20
316.727311
 30
0.0
  0
POINT
  5
4A
330
41
100
AcDbEntity
  8
Defpoints
 62
     0
100
AcDbPoint
 10
532.0
 20
316.727311
 30
0.0
  0
ENDBLK
  5
4C
330
41
100
AcDbEntity
  8
0
100
AcDbBlockEnd
  0
BLOCK
  5
6C
330
60
100
AcDbEntity
  8
0
100
AcDbBlockBegin
  2
*D2
 70
     1
 71
     0
 10
0.0
 20
0.0
 30
0.0
  3
*D2
  1

  0
LINE
  5
61
330
60
100
AcDbEntity
  8
LC-003-003-----0
 62
     2
370
    -2
100
AcDbLine
 10
569.669019
 20
1401.923947
 30
0.0
 11
528.4
 21
1401.923947
 31
0.0
  0
LINE
  5
62
330
60
100
AcDbEntity
  8
LC-003-003-----0
 62
     2
370
    -2
100
AcDbLine
 10
569.669019
 20
1361.923947
 30
0.0
 11
528.4
 21
1361.923947
 31
0.0
  0
LINE
  5
63
330
60
100
AcDbEntity
  8
LC-003-003-----0
 62
     2
370
    -2
100
AcDbLine
 10
532.0
 20
1429.923947
 30
0.0
 11
532.0
 21
1457.923947
 31
0.0
  0
LINE
  5
64
330
60
100
AcDbEntity
  8
LC-003-003-----0
 62
     2
370
    -2
100
AcDbLine
 10
532.0
 20
1333.923947
 30
0.0
 11
532.0
 21
1305.923947
 31
0.0
  0
LINE
  5
65
330
60
100
AcDbEntity
  8
LC-003-003-----0
 62
     2
370
    -2
100
AcDbLine
 10
532.0
 20
1401.923947
 30
0.0
 11
532.0
 21
1361.923947
 31
0.0
  0
SOLID
  5
66
330
60
100
AcDbEntity
  8
LC-003-003-----0
 62
     2
100
AcDbTrace
 10
527.333333
 20
1429.923947
 30
0.0
 11
536.666667
 21
1429.923947
 31
0.0
 12
532.0
 22
1401.923947
 32
0.0
 13
532.0
 23
1401.923947
 33
0.0
  0
SOLID
  5
67
330
60
100
AcDbEntity
  8
LC-003-003-----0
 62
     2
100
AcDbTrace
 10
536.666667
 20
1333.923947
 30
0.0
 11
527.333333
 21
1333.923947
 31
0.0
 12
532.0
 22
1361.923947
 32
0.0
 13
532.0
 23
1361.923947
 33
0.0
  0
MTEXT
  5
68
330
60
100
AcDbEntity
  8
LC-003-003-----0
 62
     2
100
AcDbMText
 10
501.2
 20
1379.541756
 30
0.0
 40
28.0
 41
0.0
 71
     5
 72
     1
  1
\A1;40
  7
LCTX15-400-0-0pDIN-Schrift
 11
6.123031769111886E-17
 21
1.0
 31
0.0
 73
     1
 44
1.0
  0
POINT
  5
69
330
60
100
AcDbEntity
  8
Defpoints
 62
     0
100
AcDbPoint
 10
569.669019
 20
1401.923947
 30
0.0
  0
POINT
  5
6A
330
60
100
AcDbEntity
  8
Defpoints
 62
     0
100
AcDbPoint
 10
569.669019
 20
1361.923947
 30
0.0
  0
POINT
  5
6B
330
60
100
AcDbEntity
  8
Defpoints
 62
     0
100
AcDbPoint
 10
532.0
 20
1361.923947
 30
0.0
  0
ENDBLK
  5
6D
330
60
100
AcDbEntity
  8
0
100
AcDbBlockEnd
  0
BLOCK
  5
6F
330
6E
100
AcDbEntity
  8
0
100
AcDbBlockBegin
  2
*X13
 70
     1
 71
     0
 10
0.0
 20
0.0
 30
0.0
  3
*X13
  1

  4
*X1
  0
LINE
  5
72
330
6E
100
AcDbEntity
  8
LC-004-005-----0
 62
     7
370
    25
100
AcDbLine
 10
1253.445686
 20
1360.925917
 30
0.0
 11
1253.669019
 21
1361.14925
 31
0.0
  0
LINE
  5
73
330
6E
100
AcDbEntity
  8
LC-004-005-----0
 62
     7
370
    25
100
AcDbLine
 10
1250.617259
 20
1360.925917
 30
0.0
 11
1251.617259
 21
1361.925917
 31
0.0
  0
LINE
  5
74
330
6E
100
AcDbEntity
  8
LC-004-005-----0
 62
     7
370
    25
100
AcDbLine
 10
1247.788832
 20
1360.925917
 30
0.0
 11
1248.788832
 21
1361.925917
 31
0.0
  0
LINE
  5
75
330
6E
100
AcDbEntity
  8
LC-004-005-----0
 62
     7
370
    25
100
AcDbLine
 10
1244.960405
 20
1360.925917
 30
0.0
 11
1245.960405
 21
1361.925917
 31
0.0
  0
LINE
  5
76
330
6E
100
AcDbEntity
  8
LC-004-005-----0
 62
     7
370
    25
100
AcDbLine
 10
1242.131977
 20
1360.925917
 30
0.0
 11
1243.131977
 21
1361.925917
 31
0.0
  0
LINE
  5
77
330
6E
100
AcDbEntity
  8
LC-004-005-----0
 62
     7
370
    25
100
AcDbLine
 10
1239.30355
 20
1360.925917
 30
0.0
 11
1240.30355
 21
1361.925917
 31
0.0
  0
LINE
  5
78
330
6E
100
AcDbEntity
  8
LC-004-005-----0
 62
     7
370
    25
100
AcDbLine
 10
1236.475123
 20
1360.925917
 30
0.0
 11
1237.475123
 21
1361.925917
 31
0.0
  0
LINE
  5
79
330
6E
100
AcDbEntity
  8
LC-004-005-----0
 62
     7
370
    25
100
AcDbLine
 10
1233.646696
 20
1360.925917
 30
0.0
 11
1234.646696
 21
1361.925917
 31
0.0
  0
LINE
  5
7A
330
6E
100
AcDbEntity
  8
LC-004-005-----0
 62
     7
370
    25
100
AcDbLine
 10
1230.818269
 20
1360.925917
 30
0.0
 11
1231.818269
 21
1361.925917
 31
0.0
  0
LINE
  5
7B
330
6E
100
AcDbEntity
  8
LC-004-005-----0
 62
     7
370
    25
100
AcDbLine
 10
1227.989842
 20
1360.925917
 30
0.0
 11
1228.989842
 21
1361.925917
 31
0.0
  0
LINE
  5
7C
330
6E
100
AcDbEntity
  8
LC-004-005-----0
 62
     7
370
    25
100
AcDbLine
 10
1112.02433
 20
1360.925917
 30
0.0
 11
1113.02433
 21
1361.925917
 31
0.0
  0
LINE
  5
7D
330
6E
100
AcDbEntity
  8
LC-004-005-----0
 62
     7
370
    25
100
AcDbLine
 10
1109.195903
 20
1360.925917
 30
0.0
 11
1110.195903
 21
1361.925917
 31
0.0
  0
LINE
  5
7E
330
6E
100
AcDbEntity
  8
LC-004-005-----0
 62
     7
370
    25
100
AcDbLine
 10
1106.367475
 20
1360.925917
 30
0.0
 11
1107.367475
 21
1361.925917
 31
0.0
  0
LINE
  5
7F
330
6E
100
AcDbEntity
  8
LC-004-005-----0
 62
     7
370
    25
100
AcDbLine
 10
1103.539048
 20
1360.925917
 30
0.0
 11
1104.539048
 21
1361.925917
 31
0.0
  0
LINE
  5
80
330
6E
100
AcDbEntity
  8
LC-004-005-----0
 62
     7
370
    25
100
AcDbLine
 10
1100.710621
 20
1360.925917
 30
0.0
 11
1101.710621
 21
1361.925917
 31
0.0
  0
LINE
  5
81
330
6E
100
AcDbEntity
  8
LC-004-005-----0
 62
     7
370
    25
100
AcDbLine
 10
1097.882194
 20
1360.925917
 30
0.0
 11
1098.882194
 21
1361.925917
 31
0.0
  0
LINE
  5
82
330
6E
100
AcDbEntity
  8
LC-004-005-----0
 62
     7
370
    25
100
AcDbLine
 10
1095.053767
 20
1360.925917
 30
0.0
 11
1096.053767
 21
1361.925917
 31
0.0
  0
LINE
  5
83
330
6E
100
AcDbEntity
  8
LC-004-005-----0
 62
     7
370
    25
100
AcDbLine
 10
1092.22534
 20
1360.925917
 30
0.0
 11
1093.22534
 21
1361.925917
 31
0.0
  0
LINE
  5
84
330
6E
100
AcDbEntity
  8
LC-004-005-----0
 62
     7
370
    25
100
AcDbLine
 10
1089.396913
 20
1360.925917
 30
0.0
 11
1090.396913
 21
1361.925917
 31
0.0
  0
LINE
  5
85
330
6E
100
AcDbEntity
  8
LC-004-005-----0
 62
     7
370
    25
100
AcDbLine
 10
1086.568486
 20
1360.925917
 30
0.0
 11
1087.568486
 21
1361.925917
 31
0.0
  0
ENDBLK
  5
70
330
6E
100
AcDbEntity
  8
0
100
AcDbBlockEnd
  0
BLOCK
  5
C3
330
C2
100
AcDbEntity
  8
0
100
AcDbBlockBegin
  2
*X24
 70
     1
 71
     0
 10
0.0
 20
0.0
 30
0.0
  3
*X24
  1

  4
*X2
  0
LINE
  5
C5
330
C2
100
AcDbEntity
  8
LC-004-005-----0
 62
     7
370
    25
100
AcDbLine
 10
1259.310784
 20
1380.93315
 30
0.0
 11
1259.919019
 21
1381.541386
 31
0.0
  0
LINE
  5
C6
330
C2
100
AcDbEntity
  8
LC-004-005-----0
 62
     7
370
    25
100
AcDbLine
 10
1256.482357
 20
1380.93315
 30
0.0
 11
1257.979099
 21
1382.429892
 31
0.0
  0
LINE
  5
C7
330
C2
100
AcDbEntity
  8
LC-004-005-----0
 62
     7
370
    25
100
AcDbLine
 10
1253.65393
 20
1380.93315
 30
0.0
 11
1255.150671
 21
1382.429892
 31
0.0
  0
LINE
  5
C8
330
C2
100
AcDbEntity
  8
LC-004-005-----0
 62
     7
370
    25
100
AcDbLine
 10
1250.825503
 20
1380.93315
 30
0.0
 11
1252.322244
 21
1382.429892
 31
0.0
  0
LINE
  5
C9
330
C2
100
AcDbEntity
  8
LC-004-005-----0
 62
     7
370
    25
100
AcDbLine
 10
1240.992082
 20
1373.928157
 30
0.0
 11
1244.919019
 21
1377.855094
 31
0.0
  0
LINE
  5
CA
330
C2
100
AcDbEntity
  8
LC-004-005-----0
 62
     7
370
    25
100
AcDbLine
 10
1247.997075
 20
1380.93315
 30
0.0
 11
1249.493817
 21
1382.429892
 31
0.0
  0
LINE
  5
CB
330
C2
100
AcDbEntity
  8
LC-004-005-----0
 62
     7
370
    25
100
AcDbLine
 10
1226.169019
 20
1361.933521
 30
0.0
 11
1227.669019
 21
1363.433521
 31
0.0
  0
LINE
  5
CC
330
C2
100
AcDbEntity
  8
LC-004-005-----0
 62
     7
370
    25
100
AcDbLine
 10
1233.198762
 20
1368.963264
 30
0.0
 11
1241.166404
 21
1376.930906
 31
0.0
  0
LINE
  5
CD
330
C2
100
AcDbEntity
  8
LC-004-005-----0
 62
     7
370
    25
100
AcDbLine
 10
1242.419019
 20
1378.183521
 30
0.0
 11
1244.919019
 21
1380.683521
 31
0.0
  0
LINE
  5
CE
330
C2
100
AcDbEntity
  8
LC-004-005-----0
 62
     7
370
    25
100
AcDbLine
 10
1245.168648
 20
1380.93315
 30
0.0
 11
1246.66539
 21
1382.429892
 31
0.0
  0
LINE
  5
CF
330
C2
100
AcDbEntity
  8
LC-004-005-----0
 62
     7
370
    25
100
AcDbLine
 10
1226.169019
 20
1364.761948
 30
0.0
 11
1231.833256
 21
1370.426185
 31
0.0
  0
LINE
  5
D0
330
C2
100
AcDbEntity
  8
LC-004-005-----0
 62
     7
370
    25
100
AcDbLine
 10
1231.919019
 20
1370.511948
 30
0.0
 11
1238.337977
 21
1376.930906
 31
0.0
  0
LINE
  5
D1
330
C2
100
AcDbEntity
  8
LC-004-005-----0
 62
     7
370
    25
100
AcDbLine
 10
1242.419019
 20
1381.011948
 30
0.0
 11
1243.836963
 21
1382.429892
 31
0.0
  0
LINE
  5
D2
330
C2
100
AcDbEntity
  8
LC-004-005-----0
 62
     7
370
    25
100
AcDbLine
 10
1226.174881
 20
1367.596237
 30
0.0
 11
1229.419019
 21
1370.840375
 31
0.0
  0
LINE
  5
D3
330
C2
100
AcDbEntity
  8
LC-004-005-----0
 62
     7
370
    25
100
AcDbLine
 10
1113.02433
 20
1361.925917
 30
0.0
 11
1113.169019
 21
1362.070606
 31
0.0
  0
LINE
  5
D4
330
C2
100
AcDbEntity
  8
LC-004-005-----0
 62
     7
370
    25
100
AcDbLine
 10
1111.669019
 20
1363.399033
 30
0.0
 11
1113.169019
 21
1364.899033
 31
0.0
  0
LINE
  5
D5
330
C2
100
AcDbEntity
  8
LC-004-005-----0
 62
     7
370
    25
100
AcDbLine
 10
1111.188263
 20
1365.746704
 30
0.0
 11
1113.153649
 21
1367.71209
 31
0.0
  0
LINE
  5
D6
330
C2
100
AcDbEntity
  8
LC-004-005-----0
 62
     7
370
    25
100
AcDbLine
 10
1109.460526
 20
1366.847394
 30
0.0
 11
1112.21552
 21
1369.602388
 31
0.0
  0
LINE
  5
D7
330
C2
100
AcDbEntity
  8
LC-004-005-----0
 62
     7
370
    25
100
AcDbLine
 10
1107.732789
 20
1367.948084
 30
0.0
 11
1110.524258
 21
1370.739553
 31
0.0
  0
LINE
  5
D8
330
C2
100
AcDbEntity
  8
LC-004-005-----0
 62
     7
370
    25
100
AcDbLine
 10
1106.005052
 20
1369.048775
 30
0.0
 11
1107.419019
 21
1370.462742
 31
0.0
  0
LINE
  5
D9
330
C2
100
AcDbEntity
  8
LC-004-005-----0
 62
     7
370
    25
100
AcDbLine
 10
1104.277315
 20
1370.149465
 30
0.0
 11
1107.081
 21
1372.95315
 31
0.0
  0
LINE
  5
DA
330
C2
100
AcDbEntity
  8
LC-004-005-----0
 62
     7
370
    25
100
AcDbLine
 10
1102.549578
 20
1371.250155
 30
0.0
 11
1105.353263
 21
1374.05384
 31
0.0
  0
LINE
  5
DB
330
C2
100
AcDbEntity
  8
LC-004-005-----0
 62
     7
370
    25
100
AcDbLine
 10
1100.821841
 20
1372.350845
 30
0.0
 11
1103.669019
 21
1375.198023
 31
0.0
  0
LINE
  5
DC
330
C2
100
AcDbEntity
  8
LC-004-005-----0
 62
     7
370
    25
100
AcDbLine
 10
1099.094104
 20
1373.451535
 30
0.0
 11
1102.573475
 21
1376.930906
 31
0.0
  0
LINE
  5
DD
330
C2
100
AcDbEntity
  8
LC-004-005-----0
 62
     7
370
    25
100
AcDbLine
 10
1097.366366
 20
1374.552225
 30
0.0
 11
1099.745048
 21
1376.930906
 31
0.0
  0
LINE
  5
DE
330
C2
100
AcDbEntity
  8
LC-004-005-----0
 62
     7
370
    25
100
AcDbLine
 10
1095.638629
 20
1375.652915
 30
0.0
 11
1096.919019
 21
1376.933305
 31
0.0
  0
LINE
  5
DF
330
C2
100
AcDbEntity
  8
LC-004-005-----0
 62
     7
370
    25
100
AcDbLine
 10
1094.419019
 20
1377.261732
 30
0.0
 11
1096.919019
 21
1379.761732
 31
0.0
  0
LINE
  5
E0
330
C2
100
AcDbEntity
  8
LC-004-005-----0
 62
     7
370
    25
100
AcDbLine
 10
1094.419019
 20
1380.090159
 30
0.0
 11
1096.68408
 21
1382.35522
 31
0.0
  0
LINE
  5
E1
330
C2
100
AcDbEntity
  8
LC-004-005-----0
 62
     7
370
    25
100
AcDbLine
 10
1092.433584
 20
1380.93315
 30
0.0
 11
1093.930325
 21
1382.429892
 31
0.0
  0
LINE
  5
E2
330
C2
100
AcDbEntity
  8
LC-004-005-----0
 62
     7
370
    25
100
AcDbLine
 10
1089.605156
 20
1380.93315
 30
0.0
 11
1091.101898
 21
1382.429892
 31
0.0
  0
LINE
  5
E3
330
C2
100
AcDbEntity
  8
LC-004-005-----0
 62
     7
370
    25
100
AcDbLine
 10
1086.776729
 20
1380.93315
 30
0.0
 11
1088.273471
 21
1382.429892
 31
0.0
  0
LINE
  5
E4
330
C2
100
AcDbEntity
  8
LC-004-005-----0
 62
     7
370
    25
100
AcDbLine
 10
1083.948302
 20
1380.93315
 30
0.0
 11
1085.445044
 21
1382.429892
 31
0.0
  0
LINE
  5
E5
330
C2
100
AcDbEntity
  8
LC-004-005-----0
 62
     7
370
    25
100
AcDbLine
 10
1081.119875
 20
1380.93315
 30
0.0
 11
1082.616617
 21
1382.429892
 31
0.0
  0
LINE
  5
E6
330
C2
100
AcDbEntity
  8
LC-004-005-----0
 62
     7
370
    25
100
AcDbLine
 10
1079.419019
 20
1382.060722
 30
0.0
 11
1079.78819
 21
1382.429892
 31
0.0
  0
ENDBLK
  5
C4
330
C2
100
AcDbEntity
  8
0
100
AcDbBlockEnd
  0
BLOCK
  5
FA
330
F9
100
AcDbEntity
  8
0
100
AcDbBlockBegin
  2
*X35
 70
     1
 71
     0
 10
0.0
 20
0.0
 30
0.0
  3
*X35
  1

  4
*X3
  0
LINE
  5
FC
330
F9
100
AcDbEntity
  8
LC-004-005-----0
 62
     7
370
    25
100
AcDbLine
 10
1769.217453
 20
1361.923947
 30
0.0
 11
1769.669019
 21
1362.375513
 31
0.0
  0
LINE
  5
FD
330
F9
100
AcDbEntity
  8
LC-004-005-----0
 62
     7
370
    25
100
AcDbLine
 10
1760.732171
 20
1361.923947
 30
0.0
 11
1763.232171
 21
1364.423947
 31
0.0
  0
LINE
  5
FE
330
F9
100
AcDbEntity
  8
LC-004-005-----0
 62
     7
370
    25
100
AcDbLine
 10
1752.24689
 20
1361.923947
 30
0.0
 11
1754.74689
 21
1364.423947
 31
0.0
  0
LINE
  5
FF
330
F9
100
AcDbEntity
  8
LC-004-005-----0
 62
     7
370
    25
100
AcDbLine
 10
1743.761609
 20
1361.923947
 30
0.0
 11
1746.261609
 21
1364.423947
 31
0.0
  0
LINE
  5
100
330
F9
100
AcDbEntity
  8
LC-004-005-----0
 62
     7
370
    25
100
AcDbLine
 10
1735.276327
 20
1361.923947
 30
0.0
 11
1737.776327
 21
1364.423947
 31
0.0
  0
LINE
  5
101
330
F9
100
AcDbEntity
  8
LC-004-005-----0
 62
     7
370
    25
100
AcDbLine
 10
1726.791046
 20
1361.923947
 30
0.0
 11
1729.291046
 21
1364.423947
 31
0.0
  0
LINE
  5
102
330
F9
100
AcDbEntity
  8
LC-004-005-----0
 62
     7
370
    25
100
AcDbLine
 10
1764.102694
 20
1399.235595
 30
0.0
 11
1766.691785
 21
1401.824686
 31
0.0
  0
LINE
  5
103
330
F9
100
AcDbEntity
  8
LC-004-005-----0
 62
     7
370
    25
100
AcDbLine
 10
1718.305764
 20
1361.923947
 30
0.0
 11
1720.805764
 21
1364.423947
 31
0.0
  0
LINE
  5
104
330
F9
100
AcDbEntity
  8
LC-004-005-----0
 62
     7
370
    25
100
AcDbLine
 10
1755.324786
 20
1398.942968
 30
0.0
 11
1757.913847
 21
1401.532029
 31
0.0
  0
LINE
  5
105
330
F9
100
AcDbEntity
  8
LC-004-005-----0
 62
     7
370
    25
100
AcDbLine
 10
1709.820483
 20
1361.923947
 30
0.0
 11
1712.320483
 21
1364.423947
 31
0.0
  0
LINE
  5
106
330
F9
100
AcDbEntity
  8
LC-004-005-----0
 62
     7
370
    25
100
AcDbLine
 10
1746.546877
 20
1398.65034
 30
0.0
 11
1749.135909
 21
1401.239373
 31
0.0
  0
LINE
  5
107
330
F9
100
AcDbEntity
  8
LC-004-005-----0
 62
     7
370
    25
100
AcDbLine
 10
1701.335202
 20
1361.923947
 30
0.0
 11
1703.835202
 21
1364.423947
 31
0.0
  0
LINE
  5
108
330
F9
100
AcDbEntity
  8
LC-004-005-----0
 62
     7
370
    25
100
AcDbLine
 10
1737.768968
 20
1398.357713
 30
0.0
 11
1740.357971
 21
1400.946716
 31
0.0
  0
LINE
  5
109
330
F9
100
AcDbEntity
  8
LC-004-005-----0
 62
     7
370
    25
100
AcDbLine
 10
1692.84992
 20
1361.923947
 30
0.0
 11
1695.34992
 21
1364.423947
 31
0.0
  0
LINE
  5
10A
330
F9
100
AcDbEntity
  8
LC-004-005-----0
 62
     7
370
    25
100
AcDbLine
 10
1728.991059
 20
1398.065086
 30
0.0
 11
1731.580033
 21
1400.654059
 31
0.0
  0
LINE
  5
10B
330
F9
100
AcDbEntity
  8
LC-004-005-----0
 62
     7
370
    25
100
AcDbLine
 10
1684.364639
 20
1361.923947
 30
0.0
 11
1686.864639
 21
1364.423947
 31
0.0
  0
LINE
  5
10C
330
F9
100
AcDbEntity
  8
LC-004-005-----0
 62
     7
370
    25
100
AcDbLine
 10
1720.213151
 20
1397.772458
 30
0.0
 11
1722.802095
 21
1400.361403
 31
0.0
  0
LINE
  5
10D
330
F9
100
AcDbEntity
  8
LC-004-005-----0
 62
     7
370
    25
100
AcDbLine
 10
1675.879358
 20
1361.923947
 30
0.0
 11
1678.379358
 21
1364.423947
 31
0.0
  0
LINE
  5
10E
330
F9
100
AcDbEntity
  8
LC-004-005-----0
 62
     7
370
    25
100
AcDbLine
 10
1711.435242
 20
1397.479831
 30
0.0
 11
1714.024157
 21
1400.068746
 31
0.0
  0
LINE
  5
10F
330
F9
100
AcDbEntity
  8
LC-004-005-----0
 62
     7
370
    25
100
AcDbLine
 10
1667.394076
 20
1361.923947
 30
0.0
 11
1669.894076
 21
1364.423947
 31
0.0
  0
LINE
  5
110
330
F9
100
AcDbEntity
  8
LC-004-005-----0
 62
     7
370
    25
100
AcDbLine
 10
1702.657333
 20
1397.187204
 30
0.0
 11
1705.246219
 21
1399.77609
 31
0.0
  0
LINE
  5
111
330
F9
100
AcDbEntity
  8
LC-004-005-----0
 62
     7
370
    25
100
AcDbLine
 10
1658.908795
 20
1361.923947
 30
0.0
 11
1661.408795
 21
1364.423947
 31
0.0
  0
LINE
  5
112
330
F9
100
AcDbEntity
  8
LC-004-005-----0
 62
     7
370
    25
100
AcDbLine
 10
1693.879424
 20
1396.894576
 30
0.0
 11
1696.468281
 21
1399.483433
 31
0.0
  0
LINE
  5
113
330
F9
100
AcDbEntity
  8
LC-004-005-----0
 62
     7
370
    25
100
AcDbLine
 10
1650.423513
 20
1361.923947
 30
0.0
 11
1652.923513
 21
1364.423947
 31
0.0
  0
LINE
  5
114
330
F9
100
AcDbEntity
  8
LC-004-005-----0
 62
     7
370
    25
100
AcDbLine
 10
1685.101516
 20
1396.601949
 30
0.0
 11
1687.690343
 21
1399.190776
 31
0.0
  0
LINE
  5
115
330
F9
100
AcDbEntity
  8
LC-004-005-----0
 62
     7
370
    25
100
AcDbLine
 10
1641.938232
 20
1361.923947
 30
0.0
 11
1644.438232
 21
1364.423947
 31
0.0
  0
LINE
  5
116
330
F9
100
AcDbEntity
  8
LC-004-005-----0
 62
     7
370
    25
100
AcDbLine
 10
1676.323607
 20
1396.309322
 30
0.0
 11
1678.912405
 21
1398.89812
 31
0.0
  0
LINE
  5
117
330
F9
100
AcDbEntity
  8
LC-004-005-----0
 62
     7
370
    25
100
AcDbLine
 10
1633.452951
 20
1361.923947
 30
0.0
 11
1635.952951
 21
1364.423947
 31
0.0
  0
LINE
  5
118
330
F9
100
AcDbEntity
  8
LC-004-005-----0
 62
     7
370
    25
100
AcDbLine
 10
1667.545698
 20
1396.016694
 30
0.0
 11
1670.134467
 21
1398.605463
 31
0.0
  0
LINE
  5
119
330
F9
100
AcDbEntity
  8
LC-004-005-----0
 62
     7
370
    25
100
AcDbLine
 10
1624.967669
 20
1361.923947
 30
0.0
 11
1627.467669
 21
1364.423947
 31
0.0
  0
LINE
  5
11A
330
F9
100
AcDbEntity
  8
LC-004-005-----0
 62
     7
370
    25
100
AcDbLine
 10
1658.767789
 20
1395.724067
 30
0.0
 11
1661.356529
 21
1398.312807
 31
0.0
  0
LINE
  5
11B
330
F9
100
AcDbEntity
  8
LC-004-005-----0
 62
     7
370
    25
100
AcDbLine
 10
1616.482388
 20
1361.923947
 30
0.0
 11
1618.982388
 21
1364.423947
 31
0.0
  0
LINE
  5
11C
330
F9
100
AcDbEntity
  8
LC-004-005-----0
 62
     7
370
    25
100
AcDbLine
 10
1649.989881
 20
1395.431439
 30
0.0
 11
1652.578591
 21
1398.02015
 31
0.0
  0
LINE
  5
11D
330
F9
100
AcDbEntity
  8
LC-004-005-----0
 62
     7
370
    25
100
AcDbLine
 10
1607.997107
 20
1361.923947
 30
0.0
 11
1610.497107
 21
1364.423947
 31
0.0
  0
LINE
  5
11E
330
F9
100
AcDbEntity
  8
LC-004-005-----0
 62
     7
370
    25
100
AcDbLine
 10
1641.211972
 20
1395.138812
 30
0.0
 11
1643.800653
 21
1397.727494
 31
0.0
  0
LINE
  5
11F
330
F9
100
AcDbEntity
  8
LC-004-005-----0
 62
     7
370
    25
100
AcDbLine
 10
1599.511825
 20
1361.923947
 30
0.0
 11
1602.011825
 21
1364.423947
 31
0.0
  0
LINE
  5
120
330
F9
100
AcDbEntity
  8
LC-004-005-----0
 62
     7
370
    25
100
AcDbLine
 10
1632.434063
 20
1394.846185
 30
0.0
 11
1635.022715
 21
1397.434837
 31
0.0
  0
LINE
  5
121
330
F9
100
AcDbEntity
  8
LC-004-005-----0
 62
     7
370
    25
100
AcDbLine
 10
1591.026544
 20
1361.923947
 30
0.0
 11
1593.526544
 21
1364.423947
 31
0.0
  0
LINE
  5
122
330
F9
100
AcDbEntity
  8
LC-004-005-----0
 62
     7
370
    25
100
AcDbLine
 10
1623.656154
 20
1394.553557
 30
0.0
 11
1626.244777
 21
1397.14218
 31
0.0
  0
LINE
  5
123
330
F9
100
AcDbEntity
  8
LC-004-005-----0
 62
     7
370
    25
100
AcDbLine
 10
1582.541262
 20
1361.923947
 30
0.0
 11
1585.041262
 21
1364.423947
 31
0.0
  0
LINE
  5
124
330
F9
100
AcDbEntity
  8
LC-004-005-----0
 62
     7
370
    25
100
AcDbLine
 10
1614.878246
 20
1394.26093
 30
0.0
 11
1617.46684
 21
1396.849524
 31
0.0
  0
LINE
  5
125
330
F9
100
AcDbEntity
  8
LC-004-005-----0
 62
     7
370
    25
100
AcDbLine
 10
1574.055981
 20
1361.923947
 30
0.0
 11
1576.555981
 21
1364.423947
 31
0.0
  0
LINE
  5
126
330
F9
100
AcDbEntity
  8
LC-004-005-----0
 62
     7
370
    25
100
AcDbLine
 10
1606.100337
 20
1393.968303
 30
0.0
 11
1608.688902
 21
1396.556867
 31
0.0
  0
LINE
  5
127
330
F9
100
AcDbEntity
  8
LC-004-005-----0
 62
     7
370
    25
100
AcDbLine
 10
1565.5707
 20
1361.923947
 30
0.0
 11
1568.0707
 21
1364.423947
 31
0.0
  0
LINE
  5
128
330
F9
100
AcDbEntity
  8
LC-004-005-----0
 62
     7
370
    25
100
AcDbLine
 10
1597.322428
 20
1393.675675
 30
0.0
 11
1599.910964
 21
1396.264211
 31
0.0
  0
LINE
  5
129
330
F9
100
AcDbEntity
  8
LC-004-005-----0
 62
     7
370
    25
100
AcDbLine
 10
1557.085418
 20
1361.923947
 30
0.0
 11
1559.585418
 21
1364.423947
 31
0.0
  0
LINE
  5
12A
330
F9
100
AcDbEntity
  8
LC-004-005-----0
 62
     7
370
    25
100
AcDbLine
 10
1588.54452
 20
1393.383048
 30
0.0
 11
1591.133026
 21
1395.971554
 31
0.0
  0
LINE
  5
12B
330
F9
100
AcDbEntity
  8
LC-004-005-----0
 62
     7
370
    25
100
AcDbLine
 10
1548.600137
 20
1361.923947
 30
0.0
 11
1551.100137
 21
1364.423947
 31
0.0
  0
LINE
  5
12C
330
F9
100
AcDbEntity
  8
LC-004-005-----0
 62
     7
370
    25
100
AcDbLine
 10
1579.766611
 20
1393.090421
 30
0.0
 11
1582.355088
 21
1395.678897
 31
0.0
  0
LINE
  5
12D
330
F9
100
AcDbEntity
  8
LC-004-005-----0
 62
     7
370
    25
100
AcDbLine
 10
1540.114856
 20
1361.923947
 30
0.0
 11
1542.614856
 21
1364.423947
 31
0.0
  0
LINE
  5
12E
330
F9
100
AcDbEntity
  8
LC-004-005-----0
 62
     7
370
    25
100
AcDbLine
 10
1570.988702
 20
1392.797793
 30
0.0
 11
1573.57715
 21
1395.386241
 31
0.0
  0
LINE
  5
12F
330
F9
100
AcDbEntity
  8
LC-004-005-----0
 62
     7
370
    25
100
AcDbLine
 10
1531.629574
 20
1361.923947
 30
0.0
 11
1534.129574
 21
1364.423947
 31
0.0
  0
LINE
  5
130
330
F9
100
AcDbEntity
  8
LC-004-005-----0
 62
     7
370
    25
100
AcDbLine
 10
1562.210793
 20
1392.505166
 30
0.0
 11
1564.799212
 21
1395.093584
 31
0.0
  0
LINE
  5
131
330
F9
100
AcDbEntity
  8
LC-004-005-----0
 62
     7
370
    25
100
AcDbLine
 10
1523.144293
 20
1361.923947
 30
0.0
 11
1525.644293
 21
1364.423947
 31
0.0
  0
LINE
  5
132
330
F9
100
AcDbEntity
  8
LC-004-005-----0
 62
     7
370
    25
100
AcDbLine
 10
1553.432885
 20
1392.212538
 30
0.0
 11
1556.021274
 21
1394.800928
 31
0.0
  0
LINE
  5
133
330
F9
100
AcDbEntity
  8
LC-004-005-----0
 62
     7
370
    25
100
AcDbLine
 10
1514.659011
 20
1361.923947
 30
0.0
 11
1517.159011
 21
1364.423947
 31
0.0
  0
LINE
  5
134
330
F9
100
AcDbEntity
  8
LC-004-005-----0
 62
     7
370
    25
100
AcDbLine
 10
1544.654976
 20
1391.919911
 30
0.0
 11
1547.243336
 21
1394.508271
 31
0.0
  0
LINE
  5
135
330
F9
100
AcDbEntity
  8
LC-004-005-----0
 62
     7
370
    25
100
AcDbLine
 10
1506.17373
 20
1361.923947
 30
0.0
 11
1508.67373
 21
1364.423947
 31
0.0
  0
LINE
  5
136
330
F9
100
AcDbEntity
  8
LC-004-005-----0
 62
     7
370
    25
100
AcDbLine
 10
1535.877067
 20
1391.627284
 30
0.0
 11
1538.465398
 21
1394.215615
 31
0.0
  0
LINE
  5
137
330
F9
100
AcDbEntity
  8
LC-004-005-----0
 62
     7
370
    25
100
AcDbLine
 10
1497.688449
 20
1361.923947
 30
0.0
 11
1500.188449
 21
1364.423947
 31
0.0
  0
LINE
  5
138
330
F9
100
AcDbEntity
  8
LC-004-005-----0
 62
     7
370
    25
100
AcDbLine
 10
1527.099158
 20
1391.334656
 30
0.0
 11
1529.68746
 21
1393.922958
 31
0.0
  0
LINE
  5
139
330
F9
100
AcDbEntity
  8
LC-004-005-----0
 62
     7
370
    25
100
AcDbLine
 10
1489.203167
 20
1361.923947
 30
0.0
 11
1491.703167
 21
1364.423947
 31
0.0
  0
LINE
  5
13A
330
F9
100
AcDbEntity
  8
LC-004-005-----0
 62
     7
370
    25
100
AcDbLine
 10
1518.32125
 20
1391.042029
 30
0.0
 11
1520.909522
 21
1393.630301
 31
0.0
  0
LINE
  5
13B
330
F9
100
AcDbEntity
  8
LC-004-005-----0
 62
     7
370
    25
100
AcDbLine
 10
1480.717886
 20
1361.923947
 30
0.0
 11
1483.217886
 21
1364.423947
 31
0.0
  0
LINE
  5
13C
330
F9
100
AcDbEntity
  8
LC-004-005-----0
 62
     7
370
    25
100
AcDbLine
 10
1509.543341
 20
1390.749402
 30
0.0
 11
1512.131584
 21
1393.337645
 31
0.0
  0
LINE
  5
13D
330
F9
100
AcDbEntity
  8
LC-004-005-----0
 62
     7
370
    25
100
AcDbLine
 10
1472.232605
 20
1361.923947
 30
0.0
 11
1474.732605
 21
1364.423947
 31
0.0
  0
LINE
  5
13E
330
F9
100
AcDbEntity
  8
LC-004-005-----0
 62
     7
370
    25
100
AcDbLine
 10
1500.765432
 20
1390.456774
 30
0.0
 11
1503.353646
 21
1393.044988
 31
0.0
  0
LINE
  5
13F
330
F9
100
AcDbEntity
  8
LC-004-005-----0
 62
     7
370
    25
100
AcDbLine
 10
1463.747323
 20
1361.923947
 30
0.0
 11
1466.247323
 21
1364.423947
 31
0.0
  0
LINE
  5
140
330
F9
100
AcDbEntity
  8
LC-004-005-----0
 62
     7
370
    25
100
AcDbLine
 10
1491.987523
 20
1390.164147
 30
0.0
 11
1494.575708
 21
1392.752332
 31
0.0
  0
LINE
  5
141
330
F9
100
AcDbEntity
  8
LC-004-005-----0
 62
     7
370
    25
100
AcDbLine
 10
1455.262042
 20
1361.923947
 30
0.0
 11
1457.762042
 21
1364.423947
 31
0.0
  0
LINE
  5
142
330
F9
100
AcDbEntity
  8
LC-004-005-----0
 62
     7
370
    25
100
AcDbLine
 10
1483.209615
 20
1389.87152
 30
0.0
 11
1485.79777
 21
1392.459675
 31
0.0
  0
LINE
  5
143
330
F9
100
AcDbEntity
  8
LC-004-005-----0
 62
     7
370
    25
100
AcDbLine
 10
1446.77676
 20
1361.923947
 30
0.0
 11
1449.27676
 21
1364.423947
 31
0.0
  0
LINE
  5
144
330
F9
100
AcDbEntity
  8
LC-004-005-----0
 62
     7
370
    25
100
AcDbLine
 10
1474.431706
 20
1389.578892
 30
0.0
 11
1477.019832
 21
1392.167018
 31
0.0
  0
LINE
  5
145
330
F9
100
AcDbEntity
  8
LC-004-005-----0
 62
     7
370
    25
100
AcDbLine
 10
1438.291479
 20
1361.923947
 30
0.0
 11
1440.791479
 21
1364.423947
 31
0.0
  0
LINE
  5
146
330
F9
100
AcDbEntity
  8
LC-004-005-----0
 62
     7
370
    25
100
AcDbLine
 10
1465.653797
 20
1389.286265
 30
0.0
 11
1468.241894
 21
1391.874362
 31
0.0
  0
LINE
  5
147
330
F9
100
AcDbEntity
  8
LC-004-005-----0
 62
     7
370
    25
100
AcDbLine
 10
1429.806198
 20
1361.923947
 30
0.0
 11
1432.306198
 21
1364.423947
 31
0.0
  0
LINE
  5
148
330
F9
100
AcDbEntity
  8
LC-004-005-----0
 62
     7
370
    25
100
AcDbLine
 10
1456.875888
 20
1388.993637
 30
0.0
 11
1459.463956
 21
1391.581705
 31
0.0
  0
LINE
  5
149
330
F9
100
AcDbEntity
  8
LC-004-005-----0
 62
     7
370
    25
100
AcDbLine
 10
1421.320916
 20
1361.923947
 30
0.0
 11
1423.820916
 21
1364.423947
 31
0.0
  0
LINE
  5
14A
330
F9
100
AcDbEntity
  8
LC-004-005-----0
 62
     7
370
    25
100
AcDbLine
 10
1448.09798
 20
1388.70101
 30
0.0
 11
1450.686018
 21
1391.289049
 31
0.0
  0
LINE
  5
14B
330
F9
100
AcDbEntity
  8
LC-004-005-----0
 62
     7
370
    25
100
AcDbLine
 10
1412.835635
 20
1361.923947
 30
0.0
 11
1415.335635
 21
1364.423947
 31
0.0
  0
LINE
  5
14C
330
F9
100
AcDbEntity
  8
LC-004-005-----0
 62
     7
370
    25
100
AcDbLine
 10
1439.320071
 20
1388.408383
 30
0.0
 11
1441.90808
 21
1390.996392
 31
0.0
  0
LINE
  5
14D
330
F9
100
AcDbEntity
  8
LC-004-005-----0
 62
     7
370
    25
100
AcDbLine
 10
1404.350354
 20
1361.923947
 30
0.0
 11
1406.850354
 21
1364.423947
 31
0.0
  0
LINE
  5
14E
330
F9
100
AcDbEntity
  8
LC-004-005-----0
 62
     7
370
    25
100
AcDbLine
 10
1430.542162
 20
1388.115755
 30
0.0
 11
1433.130142
 21
1390.703736
 31
0.0
  0
LINE
  5
14F
330
F9
100
AcDbEntity
  8
LC-004-005-----0
 62
     7
370
    25
100
AcDbLine
 10
1395.865072
 20
1361.923947
 30
0.0
 11
1398.365072
 21
1364.423947
 31
0.0
  0
LINE
  5
150
330
F9
100
AcDbEntity
  8
LC-004-005-----0
 62
     7
370
    25
100
AcDbLine
 10
1421.764254
 20
1387.823128
 30
0.0
 11
1424.352204
 21
1390.411079
 31
0.0
  0
LINE
  5
151
330
F9
100
AcDbEntity
  8
LC-004-005-----0
 62
     7
370
    25
100
AcDbLine
 10
1387.379791
 20
1361.923947
 30
0.0
 11
1389.879791
 21
1364.423947
 31
0.0
  0
LINE
  5
152
330
F9
100
AcDbEntity
  8
LC-004-005-----0
 62
     7
370
    25
100
AcDbLine
 10
1412.986345
 20
1387.530501
 30
0.0
 11
1415.574266
 21
1390.118422
 31
0.0
  0
LINE
  5
153
330
F9
100
AcDbEntity
  8
LC-004-005-----0
 62
     7
370
    25
100
AcDbLine
 10
1378.894509
 20
1361.923947
 30
0.0
 11
1381.394509
 21
1364.423947
 31
0.0
  0
LINE
  5
154
330
F9
100
AcDbEntity
  8
LC-004-005-----0
 62
     7
370
    25
100
AcDbLine
 10
1404.208436
 20
1387.237873
 30
0.0
 11
1406.796329
 21
1389.825766
 31
0.0
  0
LINE
  5
155
330
F9
100
AcDbEntity
  8
LC-004-005-----0
 62
     7
370
    25
100
AcDbLine
 10
1370.409228
 20
1361.923947
 30
0.0
 11
1372.909228
 21
1364.423947
 31
0.0
  0
LINE
  5
156
330
F9
100
AcDbEntity
  8
LC-004-005-----0
 62
     7
370
    25
100
AcDbLine
 10
1395.430527
 20
1386.945246
 30
0.0
 11
1398.018391
 21
1389.533109
 31
0.0
  0
LINE
  5
157
330
F9
100
AcDbEntity
  8
LC-004-005-----0
 62
     7
370
    25
100
AcDbLine
 10
1361.923947
 20
1361.923947
 30
0.0
 11
1364.423947
 21
1364.423947
 31
0.0
  0
LINE
  5
158
330
F9
100
AcDbEntity
  8
LC-004-005-----0
 62
     7
370
    25
100
AcDbLine
 10
1386.652619
 20
1386.652619
 30
0.0
 11
1389.240453
 21
1389.240453
 31
0.0
  0
LINE
  5
159
330
F9
100
AcDbEntity
  8
LC-004-005-----0
 62
     7
370
    25
100
AcDbLine
 10
1353.438665
 20
1361.923947
 30
0.0
 11
1355.938665
 21
1364.423947
 31
0.0
  0
LINE
  5
15A
330
F9
100
AcDbEntity
  8
LC-004-005-----0
 62
     7
370
    25
100
AcDbLine
 10
1377.87471
 20
1386.359991
 30
0.0
 11
1380.462515
 21
1388.947796
 31
0.0
  0
LINE
  5
15B
330
F9
100
AcDbEntity
  8
LC-004-005-----0
 62
     7
370
    25
100
AcDbLine
 10
1344.953384
 20
1361.923947
 30
0.0
 11
1347.453384
 21
1364.423947
 31
0.0
  0
LINE
  5
15C
330
F9
100
AcDbEntity
  8
LC-004-005-----0
 62
     7
370
    25
100
AcDbLine
 10
1369.096801
 20
1386.067364
 30
0.0
 11
1371.684577
 21
1388.655139
 31
0.0
  0
LINE
  5
15D
330
F9
100
AcDbEntity
  8
LC-004-005-----0
 62
     7
370
    25
100
AcDbLine
 10
1336.468103
 20
1361.923947
 30
0.0
 11
1338.968103
 21
1364.423947
 31
0.0
  0
LINE
  5
15E
330
F9
100
AcDbEntity
  8
LC-004-005-----0
 62
     7
370
    25
100
AcDbLine
 10
1360.318892
 20
1385.774737
 30
0.0
 11
1362.906639
 21
1388.362483
 31
0.0
  0
LINE
  5
15F
330
F9
100
AcDbEntity
  8
LC-004-005-----0
 62
     7
370
    25
100
AcDbLine
 10
1327.982821
 20
1361.923947
 30
0.0
 11
1330.482821
 21
1364.423947
 31
0.0
  0
LINE
  5
160
330
F9
100
AcDbEntity
  8
LC-004-005-----0
 62
     7
370
    25
100
AcDbLine
 10
1351.540984
 20
1385.482109
 30
0.0
 11
1354.128701
 21
1388.069826
 31
0.0
  0
LINE
  5
161
330
F9
100
AcDbEntity
  8
LC-004-005-----0
 62
     7
370
    25
100
AcDbLine
 10
1319.49754
 20
1361.923947
 30
0.0
 11
1321.99754
 21
1364.423947
 31
0.0
  0
LINE
  5
162
330
F9
100
AcDbEntity
  8
LC-004-005-----0
 62
     7
370
    25
100
AcDbLine
 10
1342.763075
 20
1385.189482
 30
0.0
 11
1345.350763
 21
1387.77717
 31
0.0
  0
LINE
  5
163
330
F9
100
AcDbEntity
  8
LC-004-005-----0
 62
     7
370
    25
100
AcDbLine
 10
1311.012258
 20
1361.923947
 30
0.0
 11
1313.512258
 21
1364.423947
 31
0.0
  0
LINE
  5
164
330
F9
100
AcDbEntity
  8
LC-004-005-----0
 62
     7
370
    25
100
AcDbLine
 10
1333.985166
 20
1384.896854
 30
0.0
 11
1336.572825
 21
1387.484513
 31
0.0
  0
LINE
  5
165
330
F9
100
AcDbEntity
  8
LC-004-005-----0
 62
     7
370
    25
100
AcDbLine
 10
1302.526977
 20
1361.923947
 30
0.0
 11
1305.026977
 21
1364.423947
 31
0.0
  0
LINE
  5
166
330
F9
100
AcDbEntity
  8
LC-004-005-----0
 62
     7
370
    25
100
AcDbLine
 10
1325.207257
 20
1384.604227
 30
0.0
 11
1327.794887
 21
1387.191857
 31
0.0
  0
LINE
  5
167
330
F9
100
AcDbEntity
  8
LC-004-005-----0
 62
     7
370
    25
100
AcDbLine
 10
1294.041696
 20
1361.923947
 30
0.0
 11
1296.541696
 21
1364.423947
 31
0.0
  0
LINE
  5
168
330
F9
100
AcDbEntity
  8
LC-004-005-----0
 62
     7
370
    25
100
AcDbLine
 10
1316.429349
 20
1384.3116
 30
0.0
 11
1319.016949
 21
1386.8992
 31
0.0
  0
LINE
  5
169
330
F9
100
AcDbEntity
  8
LC-004-005-----0
 62
     7
370
    25
100
AcDbLine
 10
1285.556414
 20
1361.923947
 30
0.0
 11
1288.056414
 21
1364.423947
 31
0.0
  0
LINE
  5
16A
330
F9
100
AcDbEntity
  8
LC-004-005-----0
 62
     7
370
    25
100
AcDbLine
 10
1307.65144
 20
1384.018972
 30
0.0
 11
1310.239011
 21
1386.606543
 31
0.0
  0
LINE
  5
16B
330
F9
100
AcDbEntity
  8
LC-004-005-----0
 62
     7
370
    25
100
AcDbLine
 10
1277.071133
 20
1361.923947
 30
0.0
 11
1279.571133
 21
1364.423947
 31
0.0
  0
LINE
  5
16C
330
F9
100
AcDbEntity
  8
LC-004-005-----0
 62
     7
370
    25
100
AcDbLine
 10
1298.873531
 20
1383.726345
 30
0.0
 11
1301.461073
 21
1386.313887
 31
0.0
  0
LINE
  5
16D
330
F9
100
AcDbEntity
  8
LC-004-005-----0
 62
     7
370
    25
100
AcDbLine
 10
1268.585852
 20
1361.923947
 30
0.0
 11
1271.085852
 21
1364.423947
 31
0.0
  0
LINE
  5
16E
330
F9
100
AcDbEntity
  8
LC-004-005-----0
 62
     7
370
    25
100
AcDbLine
 10
1290.095622
 20
1383.433718
 30
0.0
 11
1292.683135
 21
1386.02123
 31
0.0
  0
LINE
  5
16F
330
F9
100
AcDbEntity
  8
LC-004-005-----0
 62
     7
370
    25
100
AcDbLine
 10
1260.10057
 20
1361.923947
 30
0.0
 11
1262.60057
 21
1364.423947
 31
0.0
  0
LINE
  5
170
330
F9
100
AcDbEntity
  8
LC-004-005-----0
 62
     7
370
    25
100
AcDbLine
 10
1281.317714
 20
1383.14109
 30
0.0
 11
1283.905197
 21
1385.728574
 31
0.0
  0
LINE
  5
171
330
F9
100
AcDbEntity
  8
LC-004-005-----0
 62
     7
370
    25
100
AcDbLine
 10
1251.615289
 20
1361.923947
 30
0.0
 11
1254.115289
 21
1364.423947
 31
0.0
  0
LINE
  5
172
330
F9
100
AcDbEntity
  8
LC-004-005-----0
 62
     7
370
    25
100
AcDbLine
 10
1272.539805
 20
1382.848463
 30
0.0
 11
1275.127259
 21
1385.435917
 31
0.0
  0
LINE
  5
173
330
F9
100
AcDbEntity
  8
LC-004-005-----0
 62
     7
370
    25
100
AcDbLine
 10
1243.130007
 20
1361.923947
 30
0.0
 11
1245.630007
 21
1364.423947
 31
0.0
  0
LINE
  5
174
330
F9
100
AcDbEntity
  8
LC-004-005-----0
 62
     7
370
    25
100
AcDbLine
 10
1263.761896
 20
1382.555836
 30
0.0
 11
1266.349321
 21
1385.14326
 31
0.0
  0
LINE
  5
175
330
F9
100
AcDbEntity
  8
LC-004-005-----0
 62
     7
370
    25
100
AcDbLine
 10
1234.644726
 20
1361.923947
 30
0.0
 11
1237.144726
 21
1364.423947
 31
0.0
  0
LINE
  5
176
330
F9
100
AcDbEntity
  8
LC-004-005-----0
 62
     7
370
    25
100
AcDbLine
 10
1255.150671
 20
1382.429892
 30
0.0
 11
1257.649653
 21
1384.928874
 31
0.0
  0
LINE
  5
177
330
F9
100
AcDbEntity
  8
LC-004-005-----0
 62
     7
370
    25
100
AcDbLine
 10
1227.669019
 20
1363.433521
 30
0.0
 11
1228.659445
 21
1364.423947
 31
0.0
  0
LINE
  5
178
330
F9
100
AcDbEntity
  8
LC-004-005-----0
 62
     7
370
    25
100
AcDbLine
 10
1246.66539
 20
1382.429892
 30
0.0
 11
1249.164372
 21
1384.928874
 31
0.0
  0
LINE
  5
179
330
F9
100
AcDbEntity
  8
LC-004-005-----0
 62
     7
370
    25
100
AcDbLine
 10
1107.365506
 20
1361.923947
 30
0.0
 11
1109.865506
 21
1364.423947
 31
0.0
  0
LINE
  5
17A
330
F9
100
AcDbEntity
  8
LC-004-005-----0
 62
     7
370
    25
100
AcDbLine
 10
1098.880224
 20
1361.923947
 30
0.0
 11
1101.380224
 21
1364.423947
 31
0.0
  0
LINE
  5
17B
330
F9
100
AcDbEntity
  8
LC-004-005-----0
 62
     7
370
    25
100
AcDbLine
 10
1090.394943
 20
1361.923947
 30
0.0
 11
1092.894943
 21
1364.423947
 31
0.0
  0
LINE
  5
17C
330
F9
100
AcDbEntity
  8
LC-004-005-----0
 62
     7
370
    25
100
AcDbLine
 10
1081.909661
 20
1361.923947
 30
0.0
 11
1084.409661
 21
1364.423947
 31
0.0
  0
LINE
  5
17D
330
F9
100
AcDbEntity
  8
LC-004-005-----0
 62
     7
370
    25
100
AcDbLine
 10
1073.42438
 20
1361.923947
 30
0.0
 11
1075.92438
 21
1364.423947
 31
0.0
  0
LINE
  5
17E
330
F9
100
AcDbEntity
  8
LC-004-005-----0
 62
     7
370
    25
100
AcDbLine
 10
1093.934521
 20
1382.434088
 30
0.0
 11
1096.422093
 21
1384.92166
 31
0.0
  0
LINE
  5
17F
330
F9
100
AcDbEntity
  8
LC-004-005-----0
 62
     7
370
    25
100
AcDbLine
 10
1064.939099
 20
1361.923947
 30
0.0
 11
1067.439099
 21
1364.423947
 31
0.0
  0
LINE
  5
180
330
F9
100
AcDbEntity
  8
LC-004-005-----0
 62
     7
370
    25
100
AcDbLine
 10
1085.44924
 20
1382.434088
 30
0.0
 11
1087.944026
 21
1384.928874
 31
0.0
  0
LINE
  5
181
330
F9
100
AcDbEntity
  8
LC-004-005-----0
 62
     7
370
    25
100
AcDbLine
 10
1056.453817
 20
1361.923947
 30
0.0
 11
1058.953817
 21
1364.423947
 31
0.0
  0
LINE
  5
182
330
F9
100
AcDbEntity
  8
LC-004-005-----0
 62
     7
370
    25
100
AcDbLine
 10
1077.037032
 20
1382.507161
 30
0.0
 11
1079.458745
 21
1384.928874
 31
0.0
  0
LINE
  5
183
330
F9
100
AcDbEntity
  8
LC-004-005-----0
 62
     7
370
    25
100
AcDbLine
 10
1047.968536
 20
1361.923947
 30
0.0
 11
1050.468536
 21
1364.423947
 31
0.0
  0
LINE
  5
184
330
F9
100
AcDbEntity
  8
LC-004-005-----0
 62
     7
370
    25
100
AcDbLine
 10
1068.825496
 20
1382.780907
 30
0.0
 11
1071.245953
 21
1385.201364
 31
0.0
  0
LINE
  5
185
330
F9
100
AcDbEntity
  8
LC-004-005-----0
 62
     7
370
    25
100
AcDbLine
 10
1039.483255
 20
1361.923947
 30
0.0
 11
1041.983255
 21
1364.423947
 31
0.0
  0
LINE
  5
186
330
F9
100
AcDbEntity
  8
LC-004-005-----0
 62
     7
370
    25
100
AcDbLine
 10
1060.613961
 20
1383.054653
 30
0.0
 11
1063.034444
 21
1385.475136
 31
0.0
  0
LINE
  5
187
330
F9
100
AcDbEntity
  8
LC-004-005-----0
 62
     7
370
    25
100
AcDbLine
 10
1030.997973
 20
1361.923947
 30
0.0
 11
1033.497973
 21
1364.423947
 31
0.0
  0
LINE
  5
188
330
F9
100
AcDbEntity
  8
LC-004-005-----0
 62
     7
370
    25
100
AcDbLine
 10
1052.402425
 20
1383.328399
 30
0.0
 11
1054.822934
 21
1385.748908
 31
0.0
  0
LINE
  5
189
330
F9
100
AcDbEntity
  8
LC-004-005-----0
 62
     7
370
    25
100
AcDbLine
 10
1022.512692
 20
1361.923947
 30
0.0
 11
1025.012692
 21
1364.423947
 31
0.0
  0
LINE
  5
18A
330
F9
100
AcDbEntity
  8
LC-004-005-----0
 62
     7
370
    25
100
AcDbLine
 10
1044.19089
 20
1383.602145
 30
0.0
 11
1046.611425
 21
1386.02268
 31
0.0
  0
LINE
  5
18B
330
F9
100
AcDbEntity
  8
LC-004-005-----0
 62
     7
370
    25
100
AcDbLine
 10
1014.02741
 20
1361.923947
 30
0.0
 11
1016.52741
 21
1364.423947
 31
0.0
  0
LINE
  5
18C
330
F9
100
AcDbEntity
  8
LC-004-005-----0
 62
     7
370
    25
100
AcDbLine
 10
1035.979354
 20
1383.875891
 30
0.0
 11
1038.399915
 21
1386.296452
 31
0.0
  0
LINE
  5
18D
330
F9
100
AcDbEntity
  8
LC-004-005-----0
 62
     7
370
    25
100
AcDbLine
 10
1005.542129
 20
1361.923947
 30
0.0
 11
1008.042129
 21
1364.423947
 31
0.0
  0
LINE
  5
18E
330
F9
100
AcDbEntity
  8
LC-004-005-----0
 62
     7
370
    25
100
AcDbLine
 10
1027.767819
 20
1384.149636
 30
0.0
 11
1030.188406
 21
1386.570223
 31
0.0
  0
LINE
  5
18F
330
F9
100
AcDbEntity
  8
LC-004-005-----0
 62
     7
370
    25
100
AcDbLine
 10
997.056848
 20
1361.923947
 30
0.0
 11
999.556848
 21
1364.423947
 31
0.0
  0
LINE
  5
190
330
F9
100
AcDbEntity
  8
LC-004-005-----0
 62
     7
370
    25
100
AcDbLine
 10
1019.556283
 20
1384.423382
 30
0.0
 11
1021.976896
 21
1386.843995
 31
0.0
  0
LINE
  5
191
330
F9
100
AcDbEntity
  8
LC-004-005-----0
 62
     7
370
    25
100
AcDbLine
 10
988.571566
 20
1361.923947
 30
0.0
 11
991.071566
 21
1364.423947
 31
0.0
  0
LINE
  5
192
330
F9
100
AcDbEntity
  8
LC-004-005-----0
 62
     7
370
    25
100
AcDbLine
 10
1011.344748
 20
1384.697128
 30
0.0
 11
1013.765387
 21
1387.117767
 31
0.0
  0
LINE
  5
193
330
F9
100
AcDbEntity
  8
LC-004-005-----0
 62
     7
370
    25
100
AcDbLine
 10
980.086285
 20
1361.923947
 30
0.0
 11
982.586285
 21
1364.423947
 31
0.0
  0
LINE
  5
194
330
F9
100
AcDbEntity
  8
LC-004-005-----0
 62
     7
370
    25
100
AcDbLine
 10
1003.133212
 20
1384.970874
 30
0.0
 11
1005.553877
 21
1387.391539
 31
0.0
  0
LINE
  5
195
330
F9
100
AcDbEntity
  8
LC-004-005-----0
 62
     7
370
    25
100
AcDbLine
 10
971.601004
 20
1361.923947
 30
0.0
 11
974.101004
 21
1364.423947
 31
0.0
  0
LINE
  5
196
330
F9
100
AcDbEntity
  8
LC-004-005-----0
 62
     7
370
    25
100
AcDbLine
 10
994.921677
 20
1385.24462
 30
0.0
 11
997.342368
 21
1387.665311
 31
0.0
  0
LINE
  5
197
330
F9
100
AcDbEntity
  8
LC-004-005-----0
 62
     7
370
    25
100
AcDbLine
 10
963.115722
 20
1361.923947
 30
0.0
 11
965.615722
 21
1364.423947
 31
0.0
  0
LINE
  5
198
330
F9
100
AcDbEntity
  8
LC-004-005-----0
 62
     7
370
    25
100
AcDbLine
 10
986.710141
 20
1385.518366
 30
0.0
 11
989.130858
 21
1387.939083
 31
0.0
  0
LINE
  5
199
330
F9
100
AcDbEntity
  8
LC-004-005-----0
 62
     7
370
    25
100
AcDbLine
 10
954.630441
 20
1361.923947
 30
0.0
 11
957.130441
 21
1364.423947
 31
0.0
  0
LINE
  5
19A
330
F9
100
AcDbEntity
  8
LC-004-005-----0
 62
     7
370
    25
100
AcDbLine
 10
978.498606
 20
1385.792112
 30
0.0
 11
980.919349
 21
1388.212855
 31
0.0
  0
LINE
  5
19B
330
F9
100
AcDbEntity
  8
LC-004-005-----0
 62
     7
370
    25
100
AcDbLine
 10
946.145159
 20
1361.923947
 30
0.0
 11
948.645159
 21
1364.423947
 31
0.0
  0
LINE
  5
19C
330
F9
100
AcDbEntity
  8
LC-004-005-----0
 62
     7
370
    25
100
AcDbLine
 10
970.28707
 20
1386.065857
 30
0.0
 11
972.707839
 21
1388.486626
 31
0.0
  0
LINE
  5
19D
330
F9
100
AcDbEntity
  8
LC-004-005-----0
 62
     7
370
    25
100
AcDbLine
 10
937.659878
 20
1361.923947
 30
0.0
 11
940.159878
 21
1364.423947
 31
0.0
  0
LINE
  5
19E
330
F9
100
AcDbEntity
  8
LC-004-005-----0
 62
     7
370
    25
100
AcDbLine
 10
962.075535
 20
1386.339603
 30
0.0
 11
964.49633
 21
1388.760398
 31
0.0
  0
LINE
  5
19F
330
F9
100
AcDbEntity
  8
LC-004-005-----0
 62
     7
370
    25
100
AcDbLine
 10
929.174597
 20
1361.923947
 30
0.0
 11
931.674597
 21
1364.423947
 31
0.0
  0
LINE
  5
1A0
330
F9
100
AcDbEntity
  8
LC-004-005-----0
 62
     7
370
    25
100
AcDbLine
 10
953.863999
 20
1386.613349
 30
0.0
 11
956.28482
 21
1389.03417
 31
0.0
  0
LINE
  5
1A1
330
F9
100
AcDbEntity
  8
LC-004-005-----0
 62
     7
370
    25
100
AcDbLine
 10
920.689315
 20
1361.923947
 30
0.0
 11
923.189315
 21
1364.423947
 31
0.0
  0
LINE
  5
1A2
330
F9
100
AcDbEntity
  8
LC-004-005-----0
 62
     7
370
    25
100
AcDbLine
 10
945.652463
 20
1386.887095
 30
0.0
 11
948.073311
 21
1389.307942
 31
0.0
  0
LINE
  5
1A3
330
F9
100
AcDbEntity
  8
LC-004-005-----0
 62
     7
370
    25
100
AcDbLine
 10
912.204034
 20
1361.923947
 30
0.0
 11
914.704034
 21
1364.423947
 31
0.0
  0
LINE
  5
1A4
330
F9
100
AcDbEntity
  8
LC-004-005-----0
 62
     7
370
    25
100
AcDbLine
 10
937.440928
 20
1387.160841
 30
0.0
 11
939.861801
 21
1389.581714
 31
0.0
  0
LINE
  5
1A5
330
F9
100
AcDbEntity
  8
LC-004-005-----0
 62
     7
370
    25
100
AcDbLine
 10
903.718753
 20
1361.923947
 30
0.0
 11
906.218753
 21
1364.423947
 31
0.0
  0
LINE
  5
1A6
330
F9
100
AcDbEntity
  8
LC-004-005-----0
 62
     7
370
    25
100
AcDbLine
 10
929.229392
 20
1387.434587
 30
0.0
 11
931.650291
 21
1389.855486
 31
0.0
  0
LINE
  5
1A7
330
F9
100
AcDbEntity
  8
LC-004-005-----0
 62
     7
370
    25
100
AcDbLine
 10
895.233471
 20
1361.923947
 30
0.0
 11
897.733471
 21
1364.423947
 31
0.0
  0
LINE
  5
1A8
330
F9
100
AcDbEntity
  8
LC-004-005-----0
 62
     7
370
    25
100
AcDbLine
 10
921.017857
 20
1387.708332
 30
0.0
 11
923.438782
 21
1390.129258
 31
0.0
  0
LINE
  5
1A9
330
F9
100
AcDbEntity
  8
LC-004-005-----0
 62
     7
370
    25
100
AcDbLine
 10
886.74819
 20
1361.923947
 30
0.0
 11
889.24819
 21
1364.423947
 31
0.0
  0
LINE
  5
1AA
330
F9
100
AcDbEntity
  8
LC-004-005-----0
 62
     7
370
    25
100
AcDbLine
 10
912.806321
 20
1387.982078
 30
0.0
 11
915.227272
 21
1390.403029
 31
0.0
  0
LINE
  5
1AB
330
F9
100
AcDbEntity
  8
LC-004-005-----0
 62
     7
370
    25
100
AcDbLine
 10
878.262908
 20
1361.923947
 30
0.0
 11
880.762908
 21
1364.423947
 31
0.0
  0
LINE
  5
1AC
330
F9
100
AcDbEntity
  8
LC-004-005-----0
 62
     7
370
    25
100
AcDbLine
 10
904.594786
 20
1388.255824
 30
0.0
 11
907.015763
 21
1390.676801
 31
0.0
  0
LINE
  5
1AD
330
F9
100
AcDbEntity
  8
LC-004-005-----0
 62
     7
370
    25
100
AcDbLine
 10
869.777627
 20
1361.923947
 30
0.0
 11
872.277627
 21
1364.423947
 31
0.0
  0
LINE
  5
1AE
330
F9
100
AcDbEntity
  8
LC-004-005-----0
 62
     7
370
    25
100
AcDbLine
 10
896.38325
 20
1388.52957
 30
0.0
 11
898.804253
 21
1390.950573
 31
0.0
  0
LINE
  5
1AF
330
F9
100
AcDbEntity
  8
LC-004-005-----0
 62
     7
370
    25
100
AcDbLine
 10
861.292346
 20
1361.923947
 30
0.0
 11
863.792346
 21
1364.423947
 31
0.0
  0
LINE
  5
1B0
330
F9
100
AcDbEntity
  8
LC-004-005-----0
 62
     7
370
    25
100
AcDbLine
 10
888.171715
 20
1388.803316
 30
0.0
 11
890.592744
 21
1391.224345
 31
0.0
  0
LINE
  5
1B1
330
F9
100
AcDbEntity
  8
LC-004-005-----0
 62
     7
370
    25
100
AcDbLine
 10
852.807064
 20
1361.923947
 30
0.0
 11
855.307064
 21
1364.423947
 31
0.0
  0
LINE
  5
1B2
330
F9
100
AcDbEntity
  8
LC-004-005-----0
 62
     7
370
    25
100
AcDbLine
 10
879.960179
 20
1389.077062
 30
0.0
 11
882.381234
 21
1391.498117
 31
0.0
  0
LINE
  5
1B3
330
F9
100
AcDbEntity
  8
LC-004-005-----0
 62
     7
370
    25
100
AcDbLine
 10
844.321783
 20
1361.923947
 30
0.0
 11
846.821783
 21
1364.423947
 31
0.0
  0
LINE
  5
1B4
330
F9
100
AcDbEntity
  8
LC-004-005-----0
 62
     7
370
    25
100
AcDbLine
 10
871.748644
 20
1389.350808
 30
0.0
 11
874.169725
 21
1391.771889
 31
0.0
  0
LINE
  5
1B5
330
F9
100
AcDbEntity
  8
LC-004-005-----0
 62
     7
370
    25
100
AcDbLine
 10
835.836502
 20
1361.923947
 30
0.0
 11
838.336502
 21
1364.423947
 31
0.0
  0
LINE
  5
1B6
330
F9
100
AcDbEntity
  8
LC-004-005-----0
 62
     7
370
    25
100
AcDbLine
 10
863.537108
 20
1389.624553
 30
0.0
 11
865.958215
 21
1392.045661
 31
0.0
  0
LINE
  5
1B7
330
F9
100
AcDbEntity
  8
LC-004-005-----0
 62
     7
370
    25
100
AcDbLine
 10
827.35122
 20
1361.923947
 30
0.0
 11
829.85122
 21
1364.423947
 31
0.0
  0
LINE
  5
1B8
330
F9
100
AcDbEntity
  8
LC-004-005-----0
 62
     7
370
    25
100
AcDbLine
 10
855.325573
 20
1389.898299
 30
0.0
 11
857.746706
 21
1392.319432
 31
0.0
  0
LINE
  5
1B9
330
F9
100
AcDbEntity
  8
LC-004-005-----0
 62
     7
370
    25
100
AcDbLine
 10
818.865939
 20
1361.923947
 30
0.0
 11
821.365939
 21
1364.423947
 31
0.0
  0
LINE
  5
1BA
330
F9
100
AcDbEntity
  8
LC-004-005-----0
 62
     7
370
    25
100
AcDbLine
 10
847.114037
 20
1390.172045
 30
0.0
 11
849.535196
 21
1392.593204
 31
0.0
  0
LINE
  5
1BB
330
F9
100
AcDbEntity
  8
LC-004-005-----0
 62
     7
370
    25
100
AcDbLine
 10
810.380657
 20
1361.923947
 30
0.0
 11
812.880657
 21
1364.423947
 31
0.0
  0
LINE
  5
1BC
330
F9
100
AcDbEntity
  8
LC-004-005-----0
 62
     7
370
    25
100
AcDbLine
 10
838.902502
 20
1390.445791
 30
0.0
 11
841.323687
 21
1392.866976
 31
0.0
  0
LINE
  5
1BD
330
F9
100
AcDbEntity
  8
LC-004-005-----0
 62
     7
370
    25
100
AcDbLine
 10
801.895376
 20
1361.923947
 30
0.0
 11
804.395376
 21
1364.423947
 31
0.0
  0
LINE
  5
1BE
330
F9
100
AcDbEntity
  8
LC-004-005-----0
 62
     7
370
    25
100
AcDbLine
 10
830.690966
 20
1390.719537
 30
0.0
 11
833.112177
 21
1393.140748
 31
0.0
  0
LINE
  5
1BF
330
F9
100
AcDbEntity
  8
LC-004-005-----0
 62
     7
370
    25
100
AcDbLine
 10
793.410095
 20
1361.923947
 30
0.0
 11
795.910095
 21
1364.423947
 31
0.0
  0
LINE
  5
1C0
330
F9
100
AcDbEntity
  8
LC-004-005-----0
 62
     7
370
    25
100
AcDbLine
 10
822.479431
 20
1390.993283
 30
0.0
 11
824.900668
 21
1393.41452
 31
0.0
  0
LINE
  5
1C1
330
F9
100
AcDbEntity
  8
LC-004-005-----0
 62
     7
370
    25
100
AcDbLine
 10
784.924813
 20
1361.923947
 30
0.0
 11
787.424813
 21
1364.423947
 31
0.0
  0
LINE
  5
1C2
330
F9
100
AcDbEntity
  8
LC-004-005-----0
 62
     7
370
    25
100
AcDbLine
 10
814.267895
 20
1391.267029
 30
0.0
 11
816.689158
 21
1393.688292
 31
0.0
  0
LINE
  5
1C3
330
F9
100
AcDbEntity
  8
LC-004-005-----0
 62
     7
370
    25
100
AcDbLine
 10
776.439532
 20
1361.923947
 30
0.0
 11
778.939532
 21
1364.423947
 31
0.0
  0
LINE
  5
1C4
330
F9
100
AcDbEntity
  8
LC-004-005-----0
 62
     7
370
    25
100
AcDbLine
 10
806.05636
 20
1391.540774
 30
0.0
 11
808.477649
 21
1393.962063
 31
0.0
  0
LINE
  5
1C5
330
F9
100
AcDbEntity
  8
LC-004-005-----0
 62
     7
370
    25
100
AcDbLine
 10
767.954251
 20
1361.923947
 30
0.0
 11
770.454251
 21
1364.423947
 31
0.0
  0
LINE
  5
1C6
330
F9
100
AcDbEntity
  8
LC-004-005-----0
 62
     7
370
    25
100
AcDbLine
 10
797.844824
 20
1391.81452
 30
0.0
 11
800.266139
 21
1394.235835
 31
0.0
  0
LINE
  5
1C7
330
F9
100
AcDbEntity
  8
LC-004-005-----0
 62
     7
370
    25
100
AcDbLine
 10
759.468969
 20
1361.923947
 30
0.0
 11
761.968969
 21
1364.423947
 31
0.0
  0
LINE
  5
1C8
330
F9
100
AcDbEntity
  8
LC-004-005-----0
 62
     7
370
    25
100
AcDbLine
 10
789.633289
 20
1392.088266
 30
0.0
 11
792.05463
 21
1394.509607
 31
0.0
  0
LINE
  5
1C9
330
F9
100
AcDbEntity
  8
LC-004-005-----0
 62
     7
370
    25
100
AcDbLine
 10
750.983688
 20
1361.923947
 30
0.0
 11
753.483688
 21
1364.423947
 31
0.0
  0
LINE
  5
1CA
330
F9
100
AcDbEntity
  8
LC-004-005-----0
 62
     7
370
    25
100
AcDbLine
 10
781.421753
 20
1392.362012
 30
0.0
 11
783.84312
 21
1394.783379
 31
0.0
  0
LINE
  5
1CB
330
F9
100
AcDbEntity
  8
LC-004-005-----0
 62
     7
370
    25
100
AcDbLine
 10
742.498406
 20
1361.923947
 30
0.0
 11
744.998406
 21
1364.423947
 31
0.0
  0
LINE
  5
1CC
330
F9
100
AcDbEntity
  8
LC-004-005-----0
 62
     7
370
    25
100
AcDbLine
 10
773.210218
 20
1392.635758
 30
0.0
 11
775.631611
 21
1395.057151
 31
0.0
  0
LINE
  5
1CD
330
F9
100
AcDbEntity
  8
LC-004-005-----0
 62
     7
370
    25
100
AcDbLine
 10
734.013125
 20
1361.923947
 30
0.0
 11
736.513125
 21
1364.423947
 31
0.0
  0
LINE
  5
1CE
330
F9
100
AcDbEntity
  8
LC-004-005-----0
 62
     7
370
    25
100
AcDbLine
 10
764.998682
 20
1392.909504
 30
0.0
 11
767.420101
 21
1395.330923
 31
0.0
  0
LINE
  5
1CF
330
F9
100
AcDbEntity
  8
LC-004-005-----0
 62
     7
370
    25
100
AcDbLine
 10
725.527844
 20
1361.923947
 30
0.0
 11
728.027844
 21
1364.423947
 31
0.0
  0
LINE
  5
1D0
330
F9
100
AcDbEntity
  8
LC-004-005-----0
 62
     7
370
    25
100
AcDbLine
 10
756.787147
 20
1393.18325
 30
0.0
 11
759.208591
 21
1395.604695
 31
0.0
  0
LINE
  5
1D1
330
F9
100
AcDbEntity
  8
LC-004-005-----0
 62
     7
370
    25
100
AcDbLine
 10
717.042562
 20
1361.923947
 30
0.0
 11
719.542562
 21
1364.423947
 31
0.0
  0
LINE
  5
1D2
330
F9
100
AcDbEntity
  8
LC-004-005-----0
 62
     7
370
    25
100
AcDbLine
 10
748.575611
 20
1393.456995
 30
0.0
 11
750.997082
 21
1395.878466
 31
0.0
  0
LINE
  5
1D3
330
F9
100
AcDbEntity
  8
LC-004-005-----0
 62
     7
370
    25
100
AcDbLine
 10
708.557281
 20
1361.923947
 30
0.0
 11
711.057281
 21
1364.423947
 31
0.0
  0
LINE
  5
1D4
330
F9
100
AcDbEntity
  8
LC-004-005-----0
 62
     7
370
    25
100
AcDbLine
 10
740.364075
 20
1393.730741
 30
0.0
 11
742.785572
 21
1396.152238
 31
0.0
  0
LINE
  5
1D5
330
F9
100
AcDbEntity
  8
LC-004-005-----0
 62
     7
370
    25
100
AcDbLine
 10
700.072
 20
1361.923947
 30
0.0
 11
702.572
 21
1364.423947
 31
0.0
  0
LINE
  5
1D6
330
F9
100
AcDbEntity
  8
LC-004-005-----0
 62
     7
370
    25
100
AcDbLine
 10
732.15254
 20
1394.004487
 30
0.0
 11
734.574063
 21
1396.42601
 31
0.0
  0
LINE
  5
1D7
330
F9
100
AcDbEntity
  8
LC-004-005-----0
 62
     7
370
    25
100
AcDbLine
 10
691.586718
 20
1361.923947
 30
0.0
 11
694.086718
 21
1364.423947
 31
0.0
  0
LINE
  5
1D8
330
F9
100
AcDbEntity
  8
LC-004-005-----0
 62
     7
370
    25
100
AcDbLine
 10
723.941004
 20
1394.278233
 30
0.0
 11
726.362553
 21
1396.699782
 31
0.0
  0
LINE
  5
1D9
330
F9
100
AcDbEntity
  8
LC-004-005-----0
 62
     7
370
    25
100
AcDbLine
 10
683.101437
 20
1361.923947
 30
0.0
 11
685.601437
 21
1364.423947
 31
0.0
  0
LINE
  5
1DA
330
F9
100
AcDbEntity
  8
LC-004-005-----0
 62
     7
370
    25
100
AcDbLine
 10
715.729469
 20
1394.551979
 30
0.0
 11
718.151044
 21
1396.973554
 31
0.0
  0
LINE
  5
1DB
330
F9
100
AcDbEntity
  8
LC-004-005-----0
 62
     7
370
    25
100
AcDbLine
 10
674.616155
 20
1361.923947
 30
0.0
 11
677.116155
 21
1364.423947
 31
0.0
  0
LINE
  5
1DC
330
F9
100
AcDbEntity
  8
LC-004-005-----0
 62
     7
370
    25
100
AcDbLine
 10
707.517933
 20
1394.825725
 30
0.0
 11
709.939534
 21
1397.247326
 31
0.0
  0
LINE
  5
1DD
330
F9
100
AcDbEntity
  8
LC-004-005-----0
 62
     7
370
    25
100
AcDbLine
 10
666.130874
 20
1361.923947
 30
0.0
 11
668.630874
 21
1364.423947
 31
0.0
  0
LINE
  5
1DE
330
F9
100
AcDbEntity
  8
LC-004-005-----0
 62
     7
370
    25
100
AcDbLine
 10
699.306398
 20
1395.099471
 30
0.0
 11
701.728025
 21
1397.521098
 31
0.0
  0
LINE
  5
1DF
330
F9
100
AcDbEntity
  8
LC-004-005-----0
 62
     7
370
    25
100
AcDbLine
 10
657.645593
 20
1361.923947
 30
0.0
 11
660.145593
 21
1364.423947
 31
0.0
  0
LINE
  5
1E0
330
F9
100
AcDbEntity
  8
LC-004-005-----0
 62
     7
370
    25
100
AcDbLine
 10
691.094862
 20
1395.373216
 30
0.0
 11
693.516515
 21
1397.794869
 31
0.0
  0
LINE
  5
1E1
330
F9
100
AcDbEntity
  8
LC-004-005-----0
 62
     7
370
    25
100
AcDbLine
 10
649.160311
 20
1361.923947
 30
0.0
 11
651.660311
 21
1364.423947
 31
0.0
  0
LINE
  5
1E2
330
F9
100
AcDbEntity
  8
LC-004-005-----0
 62
     7
370
    25
100
AcDbLine
 10
682.883327
 20
1395.646962
 30
0.0
 11
685.305006
 21
1398.068641
 31
0.0
  0
LINE
  5
1E3
330
F9
100
AcDbEntity
  8
LC-004-005-----0
 62
     7
370
    25
100
AcDbLine
 10
640.67503
 20
1361.923947
 30
0.0
 11
643.17503
 21
1364.423947
 31
0.0
  0
LINE
  5
1E4
330
F9
100
AcDbEntity
  8
LC-004-005-----0
 62
     7
370
    25
100
AcDbLine
 10
674.671791
 20
1395.920708
 30
0.0
 11
677.093496
 21
1398.342413
 31
0.0
  0
LINE
  5
1E5
330
F9
100
AcDbEntity
  8
LC-004-005-----0
 62
     7
370
    25
100
AcDbLine
 10
632.189749
 20
1361.923947
 30
0.0
 11
634.689749
 21
1364.423947
 31
0.0
  0
LINE
  5
1E6
330
F9
100
AcDbEntity
  8
LC-004-005-----0
 62
     7
370
    25
100
AcDbLine
 10
666.460256
 20
1396.194454
 30
0.0
 11
668.881987
 21
1398.616185
 31
0.0
  0
LINE
  5
1E7
330
F9
100
AcDbEntity
  8
LC-004-005-----0
 62
     7
370
    25
100
AcDbLine
 10
623.704467
 20
1361.923947
 30
0.0
 11
626.204467
 21
1364.423947
 31
0.0
  0
LINE
  5
1E8
330
F9
100
AcDbEntity
  8
LC-004-005-----0
 62
     7
370
    25
100
AcDbLine
 10
658.24872
 20
1396.4682
 30
0.0
 11
660.670477
 21
1398.889957
 31
0.0
  0
LINE
  5
1E9
330
F9
100
AcDbEntity
  8
LC-004-005-----0
 62
     7
370
    25
100
AcDbLine
 10
615.219186
 20
1361.923947
 30
0.0
 11
617.719186
 21
1364.423947
 31
0.0
  0
LINE
  5
1EA
330
F9
100
AcDbEntity
  8
LC-004-005-----0
 62
     7
370
    25
100
AcDbLine
 10
650.037185
 20
1396.741946
 30
0.0
 11
652.458968
 21
1399.163729
 31
0.0
  0
LINE
  5
1EB
330
F9
100
AcDbEntity
  8
LC-004-005-----0
 62
     7
370
    25
100
AcDbLine
 10
606.733904
 20
1361.923947
 30
0.0
 11
609.233904
 21
1364.423947
 31
0.0
  0
LINE
  5
1EC
330
F9
100
AcDbEntity
  8
LC-004-005-----0
 62
     7
370
    25
100
AcDbLine
 10
641.825649
 20
1397.015692
 30
0.0
 11
644.247458
 21
1399.4375
 31
0.0
  0
LINE
  5
1ED
330
F9
100
AcDbEntity
  8
LC-004-005-----0
 62
     7
370
    25
100
AcDbLine
 10
598.248623
 20
1361.923947
 30
0.0
 11
600.748623
 21
1364.423947
 31
0.0
  0
LINE
  5
1EE
330
F9
100
AcDbEntity
  8
LC-004-005-----0
 62
     7
370
    25
100
AcDbLine
 10
633.614114
 20
1397.289437
 30
0.0
 11
636.035949
 21
1399.711272
 31
0.0
  0
LINE
  5
1EF
330
F9
100
AcDbEntity
  8
LC-004-005-----0
 62
     7
370
    25
100
AcDbLine
 10
589.763342
 20
1361.923947
 30
0.0
 11
592.263342
 21
1364.423947
 31
0.0
  0
LINE
  5
1F0
330
F9
100
AcDbEntity
  8
LC-004-005-----0
 62
     7
370
    25
100
AcDbLine
 10
625.402578
 20
1397.563183
 30
0.0
 11
627.824439
 21
1399.985044
 31
0.0
  0
LINE
  5
1F1
330
F9
100
AcDbEntity
  8
LC-004-005-----0
 62
     7
370
    25
100
AcDbLine
 10
581.27806
 20
1361.923947
 30
0.0
 11
583.77806
 21
1364.423947
 31
0.0
  0
LINE
  5
1F2
330
F9
100
AcDbEntity
  8
LC-004-005-----0
 62
     7
370
    25
100
AcDbLine
 10
617.191043
 20
1397.836929
 30
0.0
 11
619.61293
 21
1400.258816
 31
0.0
  0
LINE
  5
1F3
330
F9
100
AcDbEntity
  8
LC-004-005-----0
 62
     7
370
    25
100
AcDbLine
 10
572.792779
 20
1361.923947
 30
0.0
 11
575.292779
 21
1364.423947
 31
0.0
  0
LINE
  5
1F4
330
F9
100
AcDbEntity
  8
LC-004-005-----0
 62
     7
370
    25
100
AcDbLine
 10
608.979507
 20
1398.110675
 30
0.0
 11
611.40142
 21
1400.532588
 31
0.0
  0
LINE
  5
1F5
330
F9
100
AcDbEntity
  8
LC-004-005-----0
 62
     7
370
    25
100
AcDbLine
 10
600.767972
 20
1398.384421
 30
0.0
 11
603.189911
 21
1400.80636
 31
0.0
  0
LINE
  5
1F6
330
F9
100
AcDbEntity
  8
LC-004-005-----0
 62
     7
370
    25
100
AcDbLine
 10
592.556436
 20
1398.658167
 30
0.0
 11
594.978401
 21
1401.080132
 31
0.0
  0
LINE
  5
1F7
330
F9
100
AcDbEntity
  8
LC-004-005-----0
 62
     7
370
    25
100
AcDbLine
 10
584.344901
 20
1398.931913
 30
0.0
 11
586.766891
 21
1401.353903
 31
0.0
  0
LINE
  5
1F8
330
F9
100
AcDbEntity
  8
LC-004-005-----0
 62
     7
370
    25
100
AcDbLine
 10
576.133365
 20
1399.205658
 30
0.0
 11
578.555382
 21
1401.627675
 31
0.0
  0
LINE
  5
1F9
330
F9
100
AcDbEntity
  8
LC-004-005-----0
 62
     7
370
    25
100
AcDbLine
 10
569.669019
 20
1401.226594
 30
0.0
 11
570.343872
 21
1401.901447
 31
0.0
  0
ENDBLK
  5
FB
330
F9
100
AcDbEntity
  8
0
100
AcDbBlockEnd
  0
BLOCK
  5
1FD
330
1FC
100
AcDbEntity
  8
0
100
AcDbBlockBegin
  2
*X46
 70
     1
 71
     0
 10
0.0
 20
0.0
 30
0.0
  3
*X46
  1

  4
*X4
  0
LINE
  5
1FF
330
1FC
100
AcDbEntity
  8
LC-004-005-----0
 62
     7
370
    25
100
AcDbLine
 10
1109.865506
 20
1364.423947
 30
0.0
 11
1111.188263
 21
1365.746704
 31
0.0
  0
LINE
  5
200
330
1FC
100
AcDbEntity
  8
LC-004-005-----0
 62
     7
370
    25
100
AcDbLine
 10
1101.380224
 20
1364.423947
 30
0.0
 11
1106.005052
 21
1369.048775
 31
0.0
  0
LINE
  5
201
330
1FC
100
AcDbEntity
  8
LC-004-005-----0
 62
     7
370
    25
100
AcDbLine
 10
1092.894943
 20
1364.423947
 30
0.0
 11
1100.821841
 21
1372.350845
 31
0.0
  0
LINE
  5
202
330
1FC
100
AcDbEntity
  8
LC-004-005-----0
 62
     7
370
    25
100
AcDbLine
 10
1084.409661
 20
1364.423947
 30
0.0
 11
1095.638629
 21
1375.652915
 31
0.0
  0
LINE
  5
203
330
1FC
100
AcDbEntity
  8
LC-004-005-----0
 62
     7
370
    25
100
AcDbLine
 10
1075.92438
 20
1364.423947
 30
0.0
 11
1092.433584
 21
1380.93315
 31
0.0
  0
LINE
  5
204
330
1FC
100
AcDbEntity
  8
LC-004-005-----0
 62
     7
370
    25
100
AcDbLine
 10
1067.439099
 20
1364.423947
 30
0.0
 11
1083.948302
 21
1380.93315
 31
0.0
  0
LINE
  5
205
330
1FC
100
AcDbEntity
  8
LC-004-005-----0
 62
     7
370
    25
100
AcDbLine
 10
1058.953817
 20
1364.423947
 30
0.0
 11
1077.037006
 21
1382.507135
 31
0.0
  0
LINE
  5
206
330
1FC
100
AcDbEntity
  8
LC-004-005-----0
 62
     7
370
    25
100
AcDbLine
 10
1050.468536
 20
1364.423947
 30
0.0
 11
1068.82547
 21
1382.780881
 31
0.0
  0
LINE
  5
207
330
1FC
100
AcDbEntity
  8
LC-004-005-----0
 62
     7
370
    25
100
AcDbLine
 10
1041.983255
 20
1364.423947
 30
0.0
 11
1060.613935
 21
1383.054628
 31
0.0
  0
LINE
  5
208
330
1FC
100
AcDbEntity
  8
LC-004-005-----0
 62
     7
370
    25
100
AcDbLine
 10
1033.497973
 20
1364.423947
 30
0.0
 11
1052.4024
 21
1383.328374
 31
0.0
  0
LINE
  5
209
330
1FC
100
AcDbEntity
  8
LC-004-005-----0
 62
     7
370
    25
100
AcDbLine
 10
1025.012692
 20
1364.423947
 30
0.0
 11
1044.190865
 21
1383.60212
 31
0.0
  0
LINE
  5
20A
330
1FC
100
AcDbEntity
  8
LC-004-005-----0
 62
     7
370
    25
100
AcDbLine
 10
1016.52741
 20
1364.423947
 30
0.0
 11
1035.97933
 21
1383.875866
 31
0.0
  0
LINE
  5
20B
330
1FC
100
AcDbEntity
  8
LC-004-005-----0
 62
     7
370
    25
100
AcDbLine
 10
1008.042129
 20
1364.423947
 30
0.0
 11
1027.767795
 21
1384.149613
 31
0.0
  0
LINE
  5
20C
330
1FC
100
AcDbEntity
  8
LC-004-005-----0
 62
     7
370
    25
100
AcDbLine
 10
999.556848
 20
1364.423947
 30
0.0
 11
1019.55626
 21
1384.423359
 31
0.0
  0
LINE
  5
20D
330
1FC
100
AcDbEntity
  8
LC-004-005-----0
 62
     7
370
    25
100
AcDbLine
 10
991.071566
 20
1364.423947
 30
0.0
 11
1011.344725
 21
1384.697105
 31
0.0
  0
LINE
  5
20E
330
1FC
100
AcDbEntity
  8
LC-004-005-----0
 62
     7
370
    25
100
AcDbLine
 10
982.586285
 20
1364.423947
 30
0.0
 11
1003.13319
 21
1384.970852
 31
0.0
  0
LINE
  5
20F
330
1FC
100
AcDbEntity
  8
LC-004-005-----0
 62
     7
370
    25
100
AcDbLine
 10
974.101004
 20
1364.423947
 30
0.0
 11
994.921655
 21
1385.244598
 31
0.0
  0
LINE
  5
210
330
1FC
100
AcDbEntity
  8
LC-004-005-----0
 62
     7
370
    25
100
AcDbLine
 10
965.615722
 20
1364.423947
 30
0.0
 11
986.71012
 21
1385.518344
 31
0.0
  0
LINE
  5
211
330
1FC
100
AcDbEntity
  8
LC-004-005-----0
 62
     7
370
    25
100
AcDbLine
 10
957.130441
 20
1364.423947
 30
0.0
 11
978.498584
 21
1385.79209
 31
0.0
  0
LINE
  5
212
330
1FC
100
AcDbEntity
  8
LC-004-005-----0
 62
     7
370
    25
100
AcDbLine
 10
948.645159
 20
1364.423947
 30
0.0
 11
970.287049
 21
1386.065837
 31
0.0
  0
LINE
  5
213
330
1FC
100
AcDbEntity
  8
LC-004-005-----0
 62
     7
370
    25
100
AcDbLine
 10
940.159878
 20
1364.423947
 30
0.0
 11
962.075514
 21
1386.339583
 31
0.0
  0
LINE
  5
214
330
1FC
100
AcDbEntity
  8
LC-004-005-----0
 62
     7
370
    25
100
AcDbLine
 10
931.674597
 20
1364.423947
 30
0.0
 11
953.863979
 21
1386.613329
 31
0.0
  0
LINE
  5
215
330
1FC
100
AcDbEntity
  8
LC-004-005-----0
 62
     7
370
    25
100
AcDbLine
 10
923.189315
 20
1364.423947
 30
0.0
 11
945.652444
 21
1386.887075
 31
0.0
  0
LINE
  5
216
330
1FC
100
AcDbEntity
  8
LC-004-005-----0
 62
     7
370
    25
100
AcDbLine
 10
914.704034
 20
1364.423947
 30
0.0
 11
937.440909
 21
1387.160822
 31
0.0
  0
LINE
  5
217
330
1FC
100
AcDbEntity
  8
LC-004-005-----0
 62
     7
370
    25
100
AcDbLine
 10
906.218753
 20
1364.423947
 30
0.0
 11
929.229374
 21
1387.434568
 31
0.0
  0
LINE
  5
218
330
1FC
100
AcDbEntity
  8
LC-004-005-----0
 62
     7
370
    25
100
AcDbLine
 10
897.733471
 20
1364.423947
 30
0.0
 11
921.017839
 21
1387.708314
 31
0.0
  0
LINE
  5
219
330
1FC
100
AcDbEntity
  8
LC-004-005-----0
 62
     7
370
    25
100
AcDbLine
 10
889.24819
 20
1364.423947
 30
0.0
 11
912.806304
 21
1387.982061
 31
0.0
  0
LINE
  5
21A
330
1FC
100
AcDbEntity
  8
LC-004-005-----0
 62
     7
370
    25
100
AcDbLine
 10
880.762908
 20
1364.423947
 30
0.0
 11
904.594769
 21
1388.255807
 31
0.0
  0
LINE
  5
21B
330
1FC
100
AcDbEntity
  8
LC-004-005-----0
 62
     7
370
    25
100
AcDbLine
 10
872.277627
 20
1364.423947
 30
0.0
 11
896.383233
 21
1388.529553
 31
0.0
  0
LINE
  5
21C
330
1FC
100
AcDbEntity
  8
LC-004-005-----0
 62
     7
370
    25
100
AcDbLine
 10
863.792346
 20
1364.423947
 30
0.0
 11
888.171698
 21
1388.803299
 31
0.0
  0
LINE
  5
21D
330
1FC
100
AcDbEntity
  8
LC-004-005-----0
 62
     7
370
    25
100
AcDbLine
 10
855.307064
 20
1364.423947
 30
0.0
 11
879.960163
 21
1389.077046
 31
0.0
  0
LINE
  5
21E
330
1FC
100
AcDbEntity
  8
LC-004-005-----0
 62
     7
370
    25
100
AcDbLine
 10
846.821783
 20
1364.423947
 30
0.0
 11
871.748628
 21
1389.350792
 31
0.0
  0
LINE
  5
21F
330
1FC
100
AcDbEntity
  8
LC-004-005-----0
 62
     7
370
    25
100
AcDbLine
 10
838.336502
 20
1364.423947
 30
0.0
 11
863.537093
 21
1389.624538
 31
0.0
  0
LINE
  5
220
330
1FC
100
AcDbEntity
  8
LC-004-005-----0
 62
     7
370
    25
100
AcDbLine
 10
829.85122
 20
1364.423947
 30
0.0
 11
855.325558
 21
1389.898285
 31
0.0
  0
LINE
  5
221
330
1FC
100
AcDbEntity
  8
LC-004-005-----0
 62
     7
370
    25
100
AcDbLine
 10
821.365939
 20
1364.423947
 30
0.0
 11
847.114023
 21
1390.172031
 31
0.0
  0
LINE
  5
222
330
1FC
100
AcDbEntity
  8
LC-004-005-----0
 62
     7
370
    25
100
AcDbLine
 10
812.880657
 20
1364.423947
 30
0.0
 11
838.902488
 21
1390.445777
 31
0.0
  0
LINE
  5
223
330
1FC
100
AcDbEntity
  8
LC-004-005-----0
 62
     7
370
    25
100
AcDbLine
 10
804.395376
 20
1364.423947
 30
0.0
 11
830.690953
 21
1390.719523
 31
0.0
  0
LINE
  5
224
330
1FC
100
AcDbEntity
  8
LC-004-005-----0
 62
     7
370
    25
100
AcDbLine
 10
795.910095
 20
1364.423947
 30
0.0
 11
822.479418
 21
1390.99327
 31
0.0
  0
LINE
  5
225
330
1FC
100
AcDbEntity
  8
LC-004-005-----0
 62
     7
370
    25
100
AcDbLine
 10
787.424813
 20
1364.423947
 30
0.0
 11
814.267883
 21
1391.267016
 31
0.0
  0
LINE
  5
226
330
1FC
100
AcDbEntity
  8
LC-004-005-----0
 62
     7
370
    25
100
AcDbLine
 10
778.939532
 20
1364.423947
 30
0.0
 11
806.056347
 21
1391.540762
 31
0.0
  0
LINE
  5
227
330
1FC
100
AcDbEntity
  8
LC-004-005-----0
 62
     7
370
    25
100
AcDbLine
 10
770.454251
 20
1364.423947
 30
0.0
 11
797.844812
 21
1391.814509
 31
0.0
  0
LINE
  5
228
330
1FC
100
AcDbEntity
  8
LC-004-005-----0
 62
     7
370
    25
100
AcDbLine
 10
761.968969
 20
1364.423947
 30
0.0
 11
789.633277
 21
1392.088255
 31
0.0
  0
LINE
  5
229
330
1FC
100
AcDbEntity
  8
LC-004-005-----0
 62
     7
370
    25
100
AcDbLine
 10
753.483688
 20
1364.423947
 30
0.0
 11
781.421742
 21
1392.362001
 31
0.0
  0
LINE
  5
22A
330
1FC
100
AcDbEntity
  8
LC-004-005-----0
 62
     7
370
    25
100
AcDbLine
 10
744.998406
 20
1364.423947
 30
0.0
 11
773.210207
 21
1392.635747
 31
0.0
  0
LINE
  5
22B
330
1FC
100
AcDbEntity
  8
LC-004-005-----0
 62
     7
370
    25
100
AcDbLine
 10
736.513125
 20
1364.423947
 30
0.0
 11
764.998672
 21
1392.909494
 31
0.0
  0
LINE
  5
22C
330
1FC
100
AcDbEntity
  8
LC-004-005-----0
 62
     7
370
    25
100
AcDbLine
 10
728.027844
 20
1364.423947
 30
0.0
 11
756.787137
 21
1393.18324
 31
0.0
  0
LINE
  5
22D
330
1FC
100
AcDbEntity
  8
LC-004-005-----0
 62
     7
370
    25
100
AcDbLine
 10
719.542562
 20
1364.423947
 30
0.0
 11
748.575602
 21
1393.456986
 31
0.0
  0
LINE
  5
22E
330
1FC
100
AcDbEntity
  8
LC-004-005-----0
 62
     7
370
    25
100
AcDbLine
 10
711.057281
 20
1364.423947
 30
0.0
 11
740.364067
 21
1393.730732
 31
0.0
  0
LINE
  5
22F
330
1FC
100
AcDbEntity
  8
LC-004-005-----0
 62
     7
370
    25
100
AcDbLine
 10
702.572
 20
1364.423947
 30
0.0
 11
732.152532
 21
1394.004479
 31
0.0
  0
LINE
  5
230
330
1FC
100
AcDbEntity
  8
LC-004-005-----0
 62
     7
370
    25
100
AcDbLine
 10
694.086718
 20
1364.423947
 30
0.0
 11
723.940996
 21
1394.278225
 31
0.0
  0
LINE
  5
231
330
1FC
100
AcDbEntity
  8
LC-004-005-----0
 62
     7
370
    25
100
AcDbLine
 10
685.601437
 20
1364.423947
 30
0.0
 11
715.729461
 21
1394.551971
 31
0.0
  0
LINE
  5
232
330
1FC
100
AcDbEntity
  8
LC-004-005-----0
 62
     7
370
    25
100
AcDbLine
 10
677.116155
 20
1364.423947
 30
0.0
 11
707.517926
 21
1394.825718
 31
0.0
  0
LINE
  5
233
330
1FC
100
AcDbEntity
  8
LC-004-005-----0
 62
     7
370
    25
100
AcDbLine
 10
668.630874
 20
1364.423947
 30
0.0
 11
699.306391
 21
1395.099464
 31
0.0
  0
LINE
  5
234
330
1FC
100
AcDbEntity
  8
LC-004-005-----0
 62
     7
370
    25
100
AcDbLine
 10
660.145593
 20
1364.423947
 30
0.0
 11
691.094856
 21
1395.37321
 31
0.0
  0
LINE
  5
235
330
1FC
100
AcDbEntity
  8
LC-004-005-----0
 62
     7
370
    25
100
AcDbLine
 10
651.660311
 20
1364.423947
 30
0.0
 11
682.883321
 21
1395.646956
 31
0.0
  0
LINE
  5
236
330
1FC
100
AcDbEntity
  8
LC-004-005-----0
 62
     7
370
    25
100
AcDbLine
 10
643.17503
 20
1364.423947
 30
0.0
 11
674.671786
 21
1395.920703
 31
0.0
  0
LINE
  5
237
330
1FC
100
AcDbEntity
  8
LC-004-005-----0
 62
     7
370
    25
100
AcDbLine
 10
634.689749
 20
1364.423947
 30
0.0
 11
666.460251
 21
1396.194449
 31
0.0
  0
LINE
  5
238
330
1FC
100
AcDbEntity
  8
LC-004-005-----0
 62
     7
370
    25
100
AcDbLine
 10
626.204467
 20
1364.423947
 30
0.0
 11
658.248716
 21
1396.468195
 31
0.0
  0
LINE
  5
239
330
1FC
100
AcDbEntity
  8
LC-004-005-----0
 62
     7
370
    25
100
AcDbLine
 10
617.719186
 20
1364.423947
 30
0.0
 11
650.037181
 21
1396.741942
 31
0.0
  0
LINE
  5
23A
330
1FC
100
AcDbEntity
  8
LC-004-005-----0
 62
     7
370
    25
100
AcDbLine
 10
609.233904
 20
1364.423947
 30
0.0
 11
641.825646
 21
1397.015688
 31
0.0
  0
LINE
  5
23B
330
1FC
100
AcDbEntity
  8
LC-004-005-----0
 62
     7
370
    25
100
AcDbLine
 10
600.748623
 20
1364.423947
 30
0.0
 11
633.61411
 21
1397.289434
 31
0.0
  0
LINE
  5
23C
330
1FC
100
AcDbEntity
  8
LC-004-005-----0
 62
     7
370
    25
100
AcDbLine
 10
592.263342
 20
1364.423947
 30
0.0
 11
625.402575
 21
1397.56318
 31
0.0
  0
LINE
  5
23D
330
1FC
100
AcDbEntity
  8
LC-004-005-----0
 62
     7
370
    25
100
AcDbLine
 10
583.77806
 20
1364.423947
 30
0.0
 11
617.19104
 21
1397.836927
 31
0.0
  0
LINE
  5
23E
330
1FC
100
AcDbEntity
  8
LC-004-005-----0
 62
     7
370
    25
100
AcDbLine
 10
575.292779
 20
1364.423947
 30
0.0
 11
608.979505
 21
1398.110673
 31
0.0
  0
LINE
  5
23F
330
1FC
100
AcDbEntity
  8
LC-004-005-----0
 62
     7
370
    25
100
AcDbLine
 10
569.669019
 20
1367.285468
 30
0.0
 11
600.76797
 21
1398.384419
 31
0.0
  0
LINE
  5
240
330
1FC
100
AcDbEntity
  8
LC-004-005-----0
 62
     7
370
    25
100
AcDbLine
 10
569.669019
 20
1375.77075
 30
0.0
 11
592.556435
 21
1398.658165
 31
0.0
  0
LINE
  5
241
330
1FC
100
AcDbEntity
  8
LC-004-005-----0
 62
     7
370
    25
100
AcDbLine
 10
569.669019
 20
1384.256031
 30
0.0
 11
584.3449
 21
1398.931912
 31
0.0
  0
LINE
  5
242
330
1FC
100
AcDbEntity
  8
LC-004-005-----0
 62
     7
370
    25
100
AcDbLine
 10
569.669019
 20
1392.741313
 30
0.0
 11
576.133365
 21
1399.205658
 31
0.0
  0
ENDBLK
  5
1FE
330
1FC
100
AcDbEntity
  8
0
100
AcDbBlockEnd
  0
BLOCK
  5
24F
330
245
100
AcDbEntity
  8
0
100
AcDbBlockBegin
  2
*D7
 70
     1
 71
     0
 10
0.0
 20
0.0
 30
0.0
  3
*D7
  1

  0
LINE
  5
246
330
245
100
AcDbEntity
  8
LC-003-003-----0
 62
     2
370
    -2
100
AcDbLine
 10
569.669019
 20
1216.727311
 30
0.0
 11
569.669019
 21
1252.914
 31
0.0
  0
LINE
  5
247
330
245
100
AcDbEntity
  8
LC-003-003-----0
 62
     2
370
    -2
100
AcDbLine
 10
1769.669019
 20
1216.727311
 30
0.0
 11
1769.669019
 21
1252.914
 31
0.0
  0
LINE
  5
248
330
245
100
AcDbEntity
  8
LC-003-003-----0
 62
     2
370
    -2
100
AcDbLine
 10
597.669019
 20
1249.314
 30
0.0
 11
1741.669019
 21
1249.314
 31
0.0
  0
SOLID
  5
249
330
245
100
AcDbEntity
  8
LC-003-003-----0
 62
     2
100
AcDbTrace
 10
597.669019
 20
1253.980667
 30
0.0
 11
597.669019
 21
1244.647333
 31
0.0
 12
569.669019
 22
1249.314
 32
0.0
 13
569.669019
 23
1249.314
 33
0.0
  0
SOLID
  5
24A
330
245
100
AcDbEntity
  8
LC-003-003-----0
 62
     2
100
AcDbTrace
 10
1741.669019
 20
1244.647333
 30
0.0
 11
1741.669019
 21
1253.980667
 31
0.0
 12
1769.669019
 22
1249.314
 32
0.0
 13
1769.669019
 23
1249.314
 33
0.0
  0
MTEXT
  5
24B
330
245
100
AcDbEntity
  8
LC-003-003-----0
 62
     2
100
AcDbMText
 10
1149.624458
 20
1280.114
 30
0.0
 40
28.0
 41
0.0
 71
     5
 72
     1
  1
\A1;1200
  7
LCTX15-400-0-0pDIN-Schrift
 73
     1
 44
1.0
  0
POINT
  5
24C
330
245
100
AcDbEntity
  8
Defpoints
 62
     0
100
AcDbPoint
 10
569.669019
 20
1216.727311
 30
0.0
  0
POINT
  5
24D
330
245
100
AcDbEntity
  8
Defpoints
 62
     0
100
AcDbPoint
 10
1769.669019
 20
1216.727311
 30
0.0
  0
POINT
  5
24E
330
245
100
AcDbEntity
  8
Defpoints
 62
     0
100
AcDbPoint
 10
1769.669019
 20
1249.314
 30
0.0
  0
ENDBLK
  5
250
330
245
100
AcDbEntity
  8
0
100
AcDbBlockEnd
  0
BLOCK
  5
252
330
251
100
AcDbEntity
  8
0
100
AcDbBlockBegin
  2
*X58
 70
     1
 71
     0
 10
0.0
 20
0.0
 30
0.0
  3
*X58
  1

  4
*X5
  0
LINE
  5
254
330
251
100
AcDbEntity
  8
LC-004-005-----0
 62
     7
370
    25
100
AcDbLine
 10
1763.232171
 20
1364.423947
 30
0.0
 11
1769.669019
 21
1370.860795
 31
0.0
  0
LINE
  5
255
330
251
100
AcDbEntity
  8
LC-004-005-----0
 62
     7
370
    25
100
AcDbLine
 10
1754.74689
 20
1364.423947
 30
0.0
 11
1769.669019
 21
1379.346076
 31
0.0
  0
LINE
  5
256
330
251
100
AcDbEntity
  8
LC-004-005-----0
 62
     7
370
    25
100
AcDbLine
 10
1746.261609
 20
1364.423947
 30
0.0
 11
1769.669019
 21
1387.831357
 31
0.0
  0
LINE
  5
257
330
251
100
AcDbEntity
  8
LC-004-005-----0
 62
     7
370
    25
100
AcDbLine
 10
1737.776327
 20
1364.423947
 30
0.0
 11
1769.669019
 21
1396.316639
 31
0.0
  0
LINE
  5
258
330
251
100
AcDbEntity
  8
LC-004-005-----0
 62
     7
370
    25
100
AcDbLine
 10
1729.291046
 20
1364.423947
 30
0.0
 11
1764.102694
 21
1399.235595
 31
0.0
  0
LINE
  5
259
330
251
100
AcDbEntity
  8
LC-004-005-----0
 62
     7
370
    25
100
AcDbLine
 10
1720.805764
 20
1364.423947
 30
0.0
 11
1755.324786
 21
1398.942968
 31
0.0
  0
LINE
  5
25A
330
251
100
AcDbEntity
  8
LC-004-005-----0
 62
     7
370
    25
100
AcDbLine
 10
1712.320483
 20
1364.423947
 30
0.0
 11
1746.546877
 21
1398.65034
 31
0.0
  0
LINE
  5
25B
330
251
100
AcDbEntity
  8
LC-004-005-----0
 62
     7
370
    25
100
AcDbLine
 10
1703.835202
 20
1364.423947
 30
0.0
 11
1737.768968
 21
1398.357713
 31
0.0
  0
LINE
  5
25C
330
251
100
AcDbEntity
  8
LC-004-005-----0
 62
     7
370
    25
100
AcDbLine
 10
1695.34992
 20
1364.423947
 30
0.0
 11
1728.991059
 21
1398.065086
 31
0.0
  0
LINE
  5
25D
330
251
100
AcDbEntity
  8
LC-004-005-----0
 62
     7
370
    25
100
AcDbLine
 10
1686.864639
 20
1364.423947
 30
0.0
 11
1720.213151
 21
1397.772458
 31
0.0
  0
LINE
  5
25E
330
251
100
AcDbEntity
  8
LC-004-005-----0
 62
     7
370
    25
100
AcDbLine
 10
1678.379358
 20
1364.423947
 30
0.0
 11
1711.435242
 21
1397.479831
 31
0.0
  0
LINE
  5
25F
330
251
100
AcDbEntity
  8
LC-004-005-----0
 62
     7
370
    25
100
AcDbLine
 10
1669.894076
 20
1364.423947
 30
0.0
 11
1702.657333
 21
1397.187204
 31
0.0
  0
LINE
  5
260
330
251
100
AcDbEntity
  8
LC-004-005-----0
 62
     7
370
    25
100
AcDbLine
 10
1661.408795
 20
1364.423947
 30
0.0
 11
1693.879424
 21
1396.894576
 31
0.0
  0
LINE
  5
261
330
251
100
AcDbEntity
  8
LC-004-005-----0
 62
     7
370
    25
100
AcDbLine
 10
1652.923513
 20
1364.423947
 30
0.0
 11
1685.101516
 21
1396.601949
 31
0.0
  0
LINE
  5
262
330
251
100
AcDbEntity
  8
LC-004-005-----0
 62
     7
370
    25
100
AcDbLine
 10
1644.438232
 20
1364.423947
 30
0.0
 11
1676.323607
 21
1396.309322
 31
0.0
  0
LINE
  5
263
330
251
100
AcDbEntity
  8
LC-004-005-----0
 62
     7
370
    25
100
AcDbLine
 10
1635.952951
 20
1364.423947
 30
0.0
 11
1667.545698
 21
1396.016694
 31
0.0
  0
LINE
  5
264
330
251
100
AcDbEntity
  8
LC-004-005-----0
 62
     7
370
    25
100
AcDbLine
 10
1627.467669
 20
1364.423947
 30
0.0
 11
1658.767789
 21
1395.724067
 31
0.0
  0
LINE
  5
265
330
251
100
AcDbEntity
  8
LC-004-005-----0
 62
     7
370
    25
100
AcDbLine
 10
1618.982388
 20
1364.423947
 30
0.0
 11
1649.989881
 21
1395.431439
 31
0.0
  0
LINE
  5
266
330
251
100
AcDbEntity
  8
LC-004-005-----0
 62
     7
370
    25
100
AcDbLine
 10
1610.497107
 20
1364.423947
 30
0.0
 11
1641.211972
 21
1395.138812
 31
0.0
  0
LINE
  5
267
330
251
100
AcDbEntity
  8
LC-004-005-----0
 62
     7
370
    25
100
AcDbLine
 10
1602.011825
 20
1364.423947
 30
0.0
 11
1632.434063
 21
1394.846185
 31
0.0
  0
LINE
  5
268
330
251
100
AcDbEntity
  8
LC-004-005-----0
 62
     7
370
    25
100
AcDbLine
 10
1593.526544
 20
1364.423947
 30
0.0
 11
1623.656154
 21
1394.553557
 31
0.0
  0
LINE
  5
269
330
251
100
AcDbEntity
  8
LC-004-005-----0
 62
     7
370
    25
100
AcDbLine
 10
1585.041262
 20
1364.423947
 30
0.0
 11
1614.878246
 21
1394.26093
 31
0.0
  0
LINE
  5
26A
330
251
100
AcDbEntity
  8
LC-004-005-----0
 62
     7
370
    25
100
AcDbLine
 10
1576.555981
 20
1364.423947
 30
0.0
 11
1606.100337
 21
1393.968303
 31
0.0
  0
LINE
  5
26B
330
251
100
AcDbEntity
  8
LC-004-005-----0
 62
     7
370
    25
100
AcDbLine
 10
1568.0707
 20
1364.423947
 30
0.0
 11
1597.322428
 21
1393.675675
 31
0.0
  0
LINE
  5
26C
330
251
100
AcDbEntity
  8
LC-004-005-----0
 62
     7
370
    25
100
AcDbLine
 10
1559.585418
 20
1364.423947
 30
0.0
 11
1588.54452
 21
1393.383048
 31
0.0
  0
LINE
  5
26D
330
251
100
AcDbEntity
  8
LC-004-005-----0
 62
     7
370
    25
100
AcDbLine
 10
1551.100137
 20
1364.423947
 30
0.0
 11
1579.766611
 21
1393.090421
 31
0.0
  0
LINE
  5
26E
330
251
100
AcDbEntity
  8
LC-004-005-----0
 62
     7
370
    25
100
AcDbLine
 10
1542.614856
 20
1364.423947
 30
0.0
 11
1570.988702
 21
1392.797793
 31
0.0
  0
LINE
  5
26F
330
251
100
AcDbEntity
  8
LC-004-005-----0
 62
     7
370
    25
100
AcDbLine
 10
1534.129574
 20
1364.423947
 30
0.0
 11
1562.210793
 21
1392.505166
 31
0.0
  0
LINE
  5
270
330
251
100
AcDbEntity
  8
LC-004-005-----0
 62
     7
370
    25
100
AcDbLine
 10
1525.644293
 20
1364.423947
 30
0.0
 11
1553.432885
 21
1392.212538
 31
0.0
  0
LINE
  5
271
330
251
100
AcDbEntity
  8
LC-004-005-----0
 62
     7
370
    25
100
AcDbLine
 10
1517.159011
 20
1364.423947
 30
0.0
 11
1544.654976
 21
1391.919911
 31
0.0
  0
LINE
  5
272
330
251
100
AcDbEntity
  8
LC-004-005-----0
 62
     7
370
    25
100
AcDbLine
 10
1508.67373
 20
1364.423947
 30
0.0
 11
1535.877067
 21
1391.627284
 31
0.0
  0
LINE
  5
273
330
251
100
AcDbEntity
  8
LC-004-005-----0
 62
     7
370
    25
100
AcDbLine
 10
1500.188449
 20
1364.423947
 30
0.0
 11
1527.099158
 21
1391.334656
 31
0.0
  0
LINE
  5
274
330
251
100
AcDbEntity
  8
LC-004-005-----0
 62
     7
370
    25
100
AcDbLine
 10
1491.703167
 20
1364.423947
 30
0.0
 11
1518.32125
 21
1391.042029
 31
0.0
  0
LINE
  5
275
330
251
100
AcDbEntity
  8
LC-004-005-----0
 62
     7
370
    25
100
AcDbLine
 10
1483.217886
 20
1364.423947
 30
0.0
 11
1509.543341
 21
1390.749402
 31
0.0
  0
LINE
  5
276
330
251
100
AcDbEntity
  8
LC-004-005-----0
 62
     7
370
    25
100
AcDbLine
 10
1474.732605
 20
1364.423947
 30
0.0
 11
1500.765432
 21
1390.456774
 31
0.0
  0
LINE
  5
277
330
251
100
AcDbEntity
  8
LC-004-005-----0
 62
     7
370
    25
100
AcDbLine
 10
1466.247323
 20
1364.423947
 30
0.0
 11
1491.987523
 21
1390.164147
 31
0.0
  0
LINE
  5
278
330
251
100
AcDbEntity
  8
LC-004-005-----0
 62
     7
370
    25
100
AcDbLine
 10
1457.762042
 20
1364.423947
 30
0.0
 11
1483.209615
 21
1389.87152
 31
0.0
  0
LINE
  5
279
330
251
100
AcDbEntity
  8
LC-004-005-----0
 62
     7
370
    25
100
AcDbLine
 10
1449.27676
 20
1364.423947
 30
0.0
 11
1474.431706
 21
1389.578892
 31
0.0
  0
LINE
  5
27A
330
251
100
AcDbEntity
  8
LC-004-005-----0
 62
     7
370
    25
100
AcDbLine
 10
1440.791479
 20
1364.423947
 30
0.0
 11
1465.653797
 21
1389.286265
 31
0.0
  0
LINE
  5
27B
330
251
100
AcDbEntity
  8
LC-004-005-----0
 62
     7
370
    25
100
AcDbLine
 10
1432.306198
 20
1364.423947
 30
0.0
 11
1456.875888
 21
1388.993637
 31
0.0
  0
LINE
  5
27C
330
251
100
AcDbEntity
  8
LC-004-005-----0
 62
     7
370
    25
100
AcDbLine
 10
1423.820916
 20
1364.423947
 30
0.0
 11
1448.09798
 21
1388.70101
 31
0.0
  0
LINE
  5
27D
330
251
100
AcDbEntity
  8
LC-004-005-----0
 62
     7
370
    25
100
AcDbLine
 10
1415.335635
 20
1364.423947
 30
0.0
 11
1439.320071
 21
1388.408383
 31
0.0
  0
LINE
  5
27E
330
251
100
AcDbEntity
  8
LC-004-005-----0
 62
     7
370
    25
100
AcDbLine
 10
1406.850354
 20
1364.423947
 30
0.0
 11
1430.542162
 21
1388.115755
 31
0.0
  0
LINE
  5
27F
330
251
100
AcDbEntity
  8
LC-004-005-----0
 62
     7
370
    25
100
AcDbLine
 10
1398.365072
 20
1364.423947
 30
0.0
 11
1421.764254
 21
1387.823128
 31
0.0
  0
LINE
  5
280
330
251
100
AcDbEntity
  8
LC-004-005-----0
 62
     7
370
    25
100
AcDbLine
 10
1389.879791
 20
1364.423947
 30
0.0
 11
1412.986345
 21
1387.530501
 31
0.0
  0
LINE
  5
281
330
251
100
AcDbEntity
  8
LC-004-005-----0
 62
     7
370
    25
100
AcDbLine
 10
1381.394509
 20
1364.423947
 30
0.0
 11
1404.208436
 21
1387.237873
 31
0.0
  0
LINE
  5
282
330
251
100
AcDbEntity
  8
LC-004-005-----0
 62
     7
370
    25
100
AcDbLine
 10
1372.909228
 20
1364.423947
 30
0.0
 11
1395.430527
 21
1386.945246
 31
0.0
  0
LINE
  5
283
330
251
100
AcDbEntity
  8
LC-004-005-----0
 62
     7
370
    25
100
AcDbLine
 10
1364.423947
 20
1364.423947
 30
0.0
 11
1386.652619
 21
1386.652619
 31
0.0
  0
LINE
  5
284
330
251
100
AcDbEntity
  8
LC-004-005-----0
 62
     7
370
    25
100
AcDbLine
 10
1355.938665
 20
1364.423947
 30
0.0
 11
1377.87471
 21
1386.359991
 31
0.0
  0
LINE
  5
285
330
251
100
AcDbEntity
  8
LC-004-005-----0
 62
     7
370
    25
100
AcDbLine
 10
1347.453384
 20
1364.423947
 30
0.0
 11
1369.096801
 21
1386.067364
 31
0.0
  0
LINE
  5
286
330
251
100
AcDbEntity
  8
LC-004-005-----0
 62
     7
370
    25
100
AcDbLine
 10
1338.968103
 20
1364.423947
 30
0.0
 11
1360.318892
 21
1385.774737
 31
0.0
  0
LINE
  5
287
330
251
100
AcDbEntity
  8
LC-004-005-----0
 62
     7
370
    25
100
AcDbLine
 10
1330.482821
 20
1364.423947
 30
0.0
 11
1351.540984
 21
1385.482109
 31
0.0
  0
LINE
  5
288
330
251
100
AcDbEntity
  8
LC-004-005-----0
 62
     7
370
    25
100
AcDbLine
 10
1321.99754
 20
1364.423947
 30
0.0
 11
1342.763075
 21
1385.189482
 31
0.0
  0
LINE
  5
289
330
251
100
AcDbEntity
  8
LC-004-005-----0
 62
     7
370
    25
100
AcDbLine
 10
1313.512258
 20
1364.423947
 30
0.0
 11
1333.985166
 21
1384.896854
 31
0.0
  0
LINE
  5
28A
330
251
100
AcDbEntity
  8
LC-004-005-----0
 62
     7
370
    25
100
AcDbLine
 10
1305.026977
 20
1364.423947
 30
0.0
 11
1325.207257
 21
1384.604227
 31
0.0
  0
LINE
  5
28B
330
251
100
AcDbEntity
  8
LC-004-005-----0
 62
     7
370
    25
100
AcDbLine
 10
1296.541696
 20
1364.423947
 30
0.0
 11
1316.429349
 21
1384.3116
 31
0.0
  0
LINE
  5
28C
330
251
100
AcDbEntity
  8
LC-004-005-----0
 62
     7
370
    25
100
AcDbLine
 10
1288.056414
 20
1364.423947
 30
0.0
 11
1307.65144
 21
1384.018972
 31
0.0
  0
LINE
  5
28D
330
251
100
AcDbEntity
  8
LC-004-005-----0
 62
     7
370
    25
100
AcDbLine
 10
1279.571133
 20
1364.423947
 30
0.0
 11
1298.873531
 21
1383.726345
 31
0.0
  0
LINE
  5
28E
330
251
100
AcDbEntity
  8
LC-004-005-----0
 62
     7
370
    25
100
AcDbLine
 10
1271.085852
 20
1364.423947
 30
0.0
 11
1290.095622
 21
1383.433718
 31
0.0
  0
LINE
  5
28F
330
251
100
AcDbEntity
  8
LC-004-005-----0
 62
     7
370
    25
100
AcDbLine
 10
1262.60057
 20
1364.423947
 30
0.0
 11
1281.317714
 21
1383.14109
 31
0.0
  0
LINE
  5
290
330
251
100
AcDbEntity
  8
LC-004-005-----0
 62
     7
370
    25
100
AcDbLine
 10
1254.115289
 20
1364.423947
 30
0.0
 11
1272.539805
 21
1382.848463
 31
0.0
  0
LINE
  5
291
330
251
100
AcDbEntity
  8
LC-004-005-----0
 62
     7
370
    25
100
AcDbLine
 10
1245.630007
 20
1364.423947
 30
0.0
 11
1263.761896
 21
1382.555836
 31
0.0
  0
LINE
  5
292
330
251
100
AcDbEntity
  8
LC-004-005-----0
 62
     7
370
    25
100
AcDbLine
 10
1237.144726
 20
1364.423947
 30
0.0
 11
1253.65393
 21
1380.93315
 31
0.0
  0
LINE
  5
293
330
251
100
AcDbEntity
  8
LC-004-005-----0
 62
     7
370
    25
100
AcDbLine
 10
1228.659445
 20
1364.423947
 30
0.0
 11
1233.198762
 21
1368.963264
 31
0.0
  0
LINE
  5
294
330
251
100
AcDbEntity
  8
LC-004-005-----0
 62
     7
370
    25
100
AcDbLine
 10
1244.919019
 20
1380.683521
 30
0.0
 11
1245.168648
 21
1380.93315
 31
0.0
  0
ENDBLK
  5
253
330
251
100
AcDbEntity
  8
0
100
AcDbBlockEnd
  0
ENDSEC
  0
SECTION
  2
ENTITIES
  0
LINE
  5
32
330
1F
100
AcDbEntity
  8
LC-001-002-----0
 62
     7
370
    50
100
AcDbLine
 10
569.669019
 20
1216.727311
 30
0.0
 11
1769.669019
 21
1216.727311
 31
0.0
  0
LINE
  5
33
330
1F
100
AcDbEntity
  8
LC-001-002-----0
 62
     7
370
    50
100
AcDbLine
 10
1769.669019
 20
1216.727311
 30
0.0
 11
1769.669019
 21
316.727311
 31
0.0
  0
LINE
  5
34
330
1F
100
AcDbEntity
  8
LC-001-002-----0
 62
     7
370
    50
100
AcDbLine
 10
1769.669019
 20
316.727311
 30
0.0
 11
569.669019
 21
316.727311
 31
0.0
  0
LINE
  5
35
330
1F
100
AcDbEntity
  8
LC-001-002-----0
 62
     7
370
    50
100
AcDbLine
 10
569.669019
 20
316.727311
 30
0.0
 11
569.669019
 21
1216.727311
 31
0.0
  0
LINE
  5
36
330
1F
100
AcDbEntity
  8
LC-001-002-----0
 62
     7
370
    50
100
AcDbLine
 10
569.669019
 20
1216.727311
 30
0.0
 11
1118.508911
 21
818.449704
 31
0.0
  0
LINE
  5
37
330
1F
100
AcDbEntity
  8
LC-001-002-----0
 62
     7
370
    50
100
AcDbLine
 10
1769.669019
 20
1216.727311
 30
0.0
 11
1220.829127
 21
818.449704
 31
0.0
  0
LINE
  5
3A
330
1F
100
AcDbEntity
  8
LC-002-006-MLN-0
 62
     7
370
    25
100
AcDbLine
 10
1096.919019
 20
766.727311
 30
0.0
 11
1242.419019
 21
766.727311
 31
0.0
  0
LINE
  5
3B
330
1F
100
AcDbEntity
  8
LC-001-002-----0
 62
     7
370
    50
100
AcDbLine
 10
1220.829127
 20
715.004919
 30
0.0
 11
1769.669019
 21
316.727311
 31
0.0
  0
LINE
  5
3C
330
1F
100
AcDbEntity
  8
LC-001-002-----0
 62
     7
370
    50
100
AcDbLine
 10
1118.508911
 20
715.004919
 30
0.0
 11
569.669019
 21
316.727311
 31
0.0
  0
DIMENSION
  5
3F
330
1F
100
AcDbEntity
  8
LC-003-003-----0
 62
     7
370
    25
100
AcDbDimension
  2
*D1
 10
532.0
 20
316.727311
 30
0.0
 11
501.2
 21
764.462452
 31
0.0
 70
   160
 71
     5
 42
900.0
 53
90.0
  3
LC-DIM-L-0140-02-02
100
AcDbAlignedDimension
 13
569.669019
 23
1216.727311
 33
0.0
 14
569.669019
 24
316.727311
 34
0.0
 50
90.0
100
AcDbRotatedDimension
  0
LINE
  5
4D
102
{ACAD_REACTORS
330
297
102
}
330
1F
100
AcDbEntity
  8
LC-002-006-MLN-0
 62
     7
370
    25
100
AcDbLine
 10
1169.669019
 20
839.477311
 30
0.0
 11
1169.669019
 21
693.977311
 31
0.0
  0
CIRCLE
  5
4E
102
{ACAD_REACTORS
330
297
102
}
330
1F
100
AcDbEntity
  8
LC-001-002-----0
 62
     7
370
    50
100
AcDbCircle
 10
1169.669019
 20
766.727311
 30
0.0
 40
56.50000000000023
  0
CIRCLE
  5
4F
102
{ACAD_REACTORS
330
297
102
}
330
1F
100
AcDbEntity
  8
LC-001-002-----0
 62
     7
370
    50
100
AcDbCircle
 10
1169.669019
 20
766.727311
 30
0.0
 40
59.75000000000023
  0
CIRCLE
  5
50
102
{ACAD_REACTORS
330
297
102
}
330
1F
100
AcDbEntity
  8
LC-001-002-----0
 62
     7
370
    50
100
AcDbCircle
 10
1169.669019
 20
766.727311
 30
0.0
 40
62.25000000000023
  0
CIRCLE
  5
51
102
{ACAD_REACTORS
330
297
102
}
330
1F
100
AcDbEntity
  8
LC-001-002-----0
 62
     7
370
    50
100
AcDbCircle
 10
1169.669019
 20
766.727311
 30
0.0
 40
66.00000000000023
  0
CIRCLE
  5
52
102
{ACAD_REACTORS
330
297
102
}
330
1F
100
AcDbEntity
  8
LC-001-002-----0
 62
     7
370
    50
100
AcDbCircle
 10
1169.669019
 20
766.727311
 30
0.0
 40
67.00000000000023
  0
CIRCLE
  5
53
102
{ACAD_REACTORS
330
297
102
}
330
1F
100
AcDbEntity
  8
LC-001-002-----0
 62
     7
370
    50
100
AcDbCircle
 10
1169.669019
 20
766.727311
 30
0.0
 40
72.75000000000023
  0
LINE
  5
54
330
1F
100
AcDbEntity
  8
LC-001-002-----0
 62
     7
370
    50
100
AcDbLine
 10
569.669019
 20
1364.423947
 30
0.0
 11
1111.669019
 21
1364.423947
 31
0.0
  0
LINE
  5
55
330
1F
100
AcDbEntity
  8
LC-001-002-----0
 62
     7
370
    50
100
AcDbLine
 10
1079.419019
 20
1382.429892
 30
0.0
 11
1079.281609
 21
1382.432023
 31
0.0
  0
LINE
  5
56
330
1F
100
AcDbEntity
  8
LC-001-002-----0
 62
     7
370
    50
100
AcDbLine
 10
1096.422093
 20
1382.434088
 30
0.0
 11
1096.422093
 21
1384.928874
 31
0.0
  0
LINE
  5
57
330
1F
100
AcDbEntity
  8
LC-001-002-----0
 62
     7
370
    50
100
AcDbLine
 10
569.669019
 20
1361.923947
 30
0.0
 11
1769.669019
 21
1361.923947
 31
0.0
  0
LINE
  5
58
330
1F
100
AcDbEntity
  8
LC-001-002-----0
 62
     7
370
    50
100
AcDbLine
 10
569.669019
 20
1401.923947
 30
0.0
 11
1769.669019
 21
1401.923947
 31
0.0
  0
LINE
  5
59
330
1F
100
AcDbEntity
  8
LC-001-002-----0
 62
     7
370
    50
100
AcDbLine
 10
569.669019
 20
1401.923947
 30
0.0
 11
569.669019
 21
1361.923947
 31
0.0
  0
LINE
  5
5A
330
1F
100
AcDbEntity
  8
LC-001-002-----0
 62
     7
370
    50
100
AcDbLine
 10
1769.669019
 20
1401.923947
 30
0.0
 11
1769.669019
 21
1361.923947
 31
0.0
  0
LINE
  5
5B
330
1F
100
AcDbEntity
  8
LC-001-002-----0
 62
     7
370
    50
100
AcDbLine
 10
1259.919019
 20
1382.429892
 30
0.0
 11
1243.065023
 21
1382.429892
 31
0.0
  0
LINE
  5
5C
330
1F
100
AcDbEntity
  8
LC-001-002-----0
 62
     7
370
    50
100
AcDbLine
 10
1079.301047
 20
1382.431659
 30
0.0
 11
569.669019
 21
1399.421159
 31
0.0
  0
LINE
  5
5D
330
1F
100
AcDbEntity
  8
LC-001-002-----0
 62
     7
370
    50
100
AcDbLine
 10
1079.419019
 20
1384.928874
 30
0.0
 11
1169.669019
 21
1384.928874
 31
0.0
  0
LINE
  5
5E
330
1F
100
AcDbEntity
  8
LC-001-002-----0
 62
     7
370
    50
100
AcDbLine
 10
1079.419019
 20
1384.928874
 30
0.0
 11
569.669019
 21
1401.923947
 31
0.0
  0
DIMENSION
  5
5F
330
1F
100
AcDbEntity
  8
LC-003-003-----0
 62
     7
370
    25
100
AcDbDimension
  2
*D2
 10
532.0
 20
1361.923947
 30
0.0
 11
501.2
 21
1379.541756
 31
0.0
 70
   160
 71
     5
 42
40.0
 53
90.0
  3
LC-DIM-L-0140-02-02
100
AcDbAlignedDimension
 13
569.669019
 23
1401.923947
 33
0.0
 14
569.669019
 24
1361.923947
 34
0.0
 50
90.0
100
AcDbRotatedDimension
  0
INSERT
  5
86
330
1F
100
AcDbEntity
  8
LC-004-005-----0
 62
     7
370
    25
100
AcDbBlockReference
  2
*X13
 10
0.0
 20
0.0
 30
0.0
  0
LINE
  5
87
330
1F
100
AcDbEntity
  8
LC-001-002-----0
 62
     7
370
    50
100
AcDbLine
 10
1085.669019
 20
1361.925917
 30
0.0
 11
1253.669019
 21
1361.925917
 31
0.0
  0
LINE
  5
88
330
1F
100
AcDbEntity
  8
LC-001-002-----0
 62
     7
370
    50
100
AcDbLine
 10
1085.669019
 20
1360.925917
 30
0.0
 11
1253.669019
 21
1360.925917
 31
0.0
  0
LINE
  5
89
330
1F
100
AcDbEntity
  8
LC-001-002-----0
 62
     7
370
    50
100
AcDbLine
 10
1085.669019
 20
1361.925917
 30
0.0
 11
1085.669019
 21
1360.925917
 31
0.0
  0
LINE
  5
8A
330
1F
100
AcDbEntity
  8
LC-001-002-----0
 62
     7
370
    50
100
AcDbLine
 10
1253.669019
 20
1361.925917
 30
0.0
 11
1253.669019
 21
1360.925917
 31
0.0
  0
LINE
  5
8B
330
1F
100
AcDbEntity
  8
LC-001-002-----0
 62
     7
370
    50
100
AcDbLine
 10
1113.169019
 20
1361.925917
 30
0.0
 11
1113.169019
 21
1360.925917
 31
0.0
  0
LINE
  5
8C
330
1F
100
AcDbEntity
  8
LC-001-002-----0
 62
     7
370
    50
100
AcDbLine
 10
1226.169019
 20
1361.925917
 30
0.0
 11
1226.169019
 21
1360.925917
 31
0.0
  0
LINE
  5
8D
330
1F
100
AcDbEntity
  8
LC-001-002-----0
 62
     7
370
    50
100
AcDbLine
 10
1103.669019
 20
1375.930906
 30
0.0
 11
1235.669019
 21
1375.930906
 31
0.0
  0
LINE
  5
8E
330
1F
100
AcDbEntity
  8
LC-001-002-----0
 62
     7
370
    50
100
AcDbLine
 10
1169.669019
 20
1382.429892
 30
0.0
 11
1079.419019
 21
1382.429892
 31
0.0
  0
LINE
  5
8F
330
1F
100
AcDbEntity
  8
LC-001-002-----0
 62
     7
370
    50
100
AcDbLine
 10
1236.669019
 20
1376.930906
 30
0.0
 11
1235.669019
 21
1375.930906
 31
0.0
  0
LINE
  5
90
330
1F
100
AcDbEntity
  8
LC-001-002-----0
 62
     7
370
    50
100
AcDbLine
 10
1107.419019
 20
1372.737808
 30
0.0
 11
1169.669019
 21
1372.737808
 31
0.0
  0
LINE
  5
91
330
1F
100
AcDbEntity
  8
LC-001-002-----0
 62
     7
370
    50
100
AcDbLine
 10
1102.669019
 20
1376.930906
 30
0.0
 11
1103.669019
 21
1375.930906
 31
0.0
  0
LINE
  5
92
330
1F
100
AcDbEntity
  8
LC-001-002-----0
 62
     7
370
    50
100
AcDbLine
 10
1094.419019
 20
1376.429892
 30
0.0
 11
1111.669019
 21
1365.440429
 31
0.0
  0
LINE
  5
93
330
1F
100
AcDbEntity
  8
LC-001-002-----0
 62
     7
370
    50
100
AcDbLine
 10
1103.669019
 20
1375.930906
 30
0.0
 11
1103.669019
 21
1375.126822
 31
0.0
  0
ARC
  5
95
330
1F
100
AcDbEntity
  8
LC-005-002-RND-0
 62
     7
370
    50
100
AcDbCircle
 10
1110.169019
 20
1367.408798
 30
0.0
 40
3.0
100
AcDbArc
 50
0.0
 51
57.499998
  0
LINE
  5
96
330
1F
100
AcDbEntity
  8
LC-001-002-----0
 62
     7
370
    50
100
AcDbLine
 10
1111.669019
 20
1365.440429
 30
0.0
 11
1111.669019
 21
1361.925917
 31
0.0
  0
LINE
  5
97
330
1F
100
AcDbEntity
  8
LC-001-002-----0
 62
     7
370
    50
100
AcDbLine
 10
1096.123937
 20
1382.429892
 30
0.0
 11
1096.422093
 21
1382.429892
 31
0.0
  0
LINE
  5
98
330
1F
100
AcDbEntity
  8
LC-001-002-----0
 62
     7
370
    50
100
AcDbLine
 10
1109.919019
 20
1371.125133
 30
0.0
 11
1111.780918
 21
1369.938972
 31
0.0
  0
LINE
  5
99
330
1F
100
AcDbEntity
  8
LC-001-002-----0
 62
     7
370
    50
100
AcDbLine
 10
1103.669019
 20
1375.126822
 30
0.0
 11
1107.419019
 21
1372.737808
 31
0.0
  0
LINE
  5
9A
330
1F
100
AcDbEntity
  8
LC-001-002-----0
 62
     7
370
    50
100
AcDbLine
 10
1096.919019
 20
1376.930906
 30
0.0
 11
1102.669019
 21
1376.930906
 31
0.0
  0
LINE
  5
9B
330
1F
100
AcDbEntity
  8
LC-001-002-----0
 62
     7
370
    50
100
AcDbLine
 10
1103.669019
 20
1375.126822
 30
0.0
 11
1169.669019
 21
1375.126822
 31
0.0
  0
LINE
  5
9C
330
1F
100
AcDbEntity
  8
LC-001-002-----0
 62
     7
370
    50
100
AcDbLine
 10
1096.919019
 20
1376.930906
 30
0.0
 11
1096.919019
 21
1381.932966
 31
0.0
  0
LINE
  5
9D
330
1F
100
AcDbEntity
  8
LC-001-002-----0
 62
     7
370
    50
100
AcDbLine
 10
1109.919019
 20
1371.125133
 30
0.0
 11
1109.919019
 21
1370.426185
 31
0.0
  0
LINE
  5
9E
330
1F
100
AcDbEntity
  8
LC-001-002-----0
 62
     7
370
    50
100
AcDbLine
 10
1109.919019
 20
1370.426185
 30
0.0
 11
1107.419019
 21
1370.426185
 31
0.0
  0
ARC
  5
9F
330
1F
100
AcDbEntity
  8
LC-001-002-----0
 62
     7
370
    50
100
AcDbCircle
 10
1096.422093
 20
1381.932966
 30
0.0
 40
0.4969262295080625
100
AcDbArc
 50
0.0
 51
90.0
  0
LINE
  5
A0
330
1F
100
AcDbEntity
  8
LC-001-002-----0
 62
     7
370
    50
100
AcDbLine
 10
1107.419019
 20
1372.737808
 30
0.0
 11
1107.419019
 21
1370.426185
 31
0.0
  0
LINE
  5
A1
330
1F
100
AcDbEntity
  8
LC-001-002-----0
 62
     7
370
    50
100
AcDbLine
 10
1079.419019
 20
1380.93315
 30
0.0
 11
1094.419019
 21
1380.93315
 31
0.0
  0
LINE
  5
A2
330
1F
100
AcDbEntity
  8
LC-001-002-----0
 62
     7
370
    50
100
AcDbLine
 10
1094.419019
 20
1380.93315
 30
0.0
 11
1094.419019
 21
1376.429892
 31
0.0
  0
LINE
  5
A3
330
1F
100
AcDbEntity
  8
LC-001-002-----0
 62
     7
370
    50
100
AcDbLine
 10
1113.169019
 20
1367.408798
 30
0.0
 11
1113.169019
 21
1361.925917
 31
0.0
  0
LINE
  5
A4
330
1F
100
AcDbEntity
  8
LC-001-002-----0
 62
     7
370
    50
100
AcDbLine
 10
1169.669019
 20
1361.925917
 30
0.0
 11
1111.669019
 21
1361.925917
 31
0.0
  0
LINE
  5
A5
330
1F
100
AcDbEntity
  8
LC-001-002-----0
 62
     7
370
    50
100
AcDbLine
 10
1109.919019
 20
1371.125133
 30
0.0
 11
1169.669019
 21
1371.125133
 31
0.0
  0
LINE
  5
A6
330
1F
100
AcDbEntity
  8
LC-004-005-----0
 62
     7
370
    25
100
AcDbLine
 10
1114.985994
 20
1369.054654
 30
0.0
 11
1169.669019
 21
1369.054654
 31
0.0
  0
LINE
  5
A7
330
1F
100
AcDbEntity
  8
LC-002-006-MLN-0
 62
     7
370
    25
100
AcDbLine
 10
1169.669019
 20
1382.429892
 30
0.0
 11
1169.669019
 21
1361.925917
 31
0.0
  0
LINE
  5
A8
330
1F
100
AcDbEntity
  8
LC-001-002-----0
 62
     7
370
    50
100
AcDbLine
 10
1079.419019
 20
1382.429892
 30
0.0
 11
1079.419019
 21
1380.93315
 31
0.0
  0
LINE
  5
A9
330
1F
100
AcDbEntity
  8
LC-001-002-----0
 62
     7
370
    50
100
AcDbLine
 10
1102.669019
 20
1376.930906
 30
0.0
 11
1169.669019
 21
1376.930906
 31
0.0
  0
LINE
  5
AA
330
1F
100
AcDbEntity
  8
LC-001-002-----0
 62
     7
370
    50
100
AcDbLine
 10
1244.919019
 20
1376.429892
 30
0.0
 11
1227.669019
 21
1365.440429
 31
0.0
  0
LINE
  5
AB
330
1F
100
AcDbEntity
  8
LC-001-002-----0
 62
     7
370
    50
100
AcDbLine
 10
1235.669019
 20
1375.930906
 30
0.0
 11
1235.669019
 21
1375.126822
 31
0.0
  0
ARC
  5
AC
330
1F
100
AcDbEntity
  8
LC-005-002-RND-0
 62
     7
370
    50
100
AcDbCircle
 10
1229.169019
 20
1367.408798
 30
0.0
 40
2.999999999999981
100
AcDbArc
 50
122.500002
 51
180.0
  0
LINE
  5
AD
330
1F
100
AcDbEntity
  8
LC-001-002-----0
 62
     7
370
    50
100
AcDbLine
 10
1227.669019
 20
1365.440429
 30
0.0
 11
1227.669019
 21
1361.925917
 31
0.0
  0
LINE
  5
AE
330
1F
100
AcDbEntity
  8
LC-001-002-----0
 62
     7
370
    50
100
AcDbLine
 10
1243.214101
 20
1382.429892
 30
0.0
 11
1242.915945
 21
1382.429892
 31
0.0
  0
LINE
  5
AF
330
1F
100
AcDbEntity
  8
LC-001-002-----0
 62
     7
370
    50
100
AcDbLine
 10
1229.419019
 20
1371.125133
 30
0.0
 11
1227.55712
 21
1369.938972
 31
0.0
  0
LINE
  5
B0
330
1F
100
AcDbEntity
  8
LC-001-002-----0
 62
     7
370
    50
100
AcDbLine
 10
1235.669019
 20
1375.126822
 30
0.0
 11
1231.919019
 21
1372.737808
 31
0.0
  0
LINE
  5
B1
330
1F
100
AcDbEntity
  8
LC-001-002-----0
 62
     7
370
    50
100
AcDbLine
 10
1242.419019
 20
1376.930906
 30
0.0
 11
1236.669019
 21
1376.930906
 31
0.0
  0
LINE
  5
B2
330
1F
100
AcDbEntity
  8
LC-001-002-----0
 62
     7
370
    50
100
AcDbLine
 10
1242.419019
 20
1376.930906
 30
0.0
 11
1242.419019
 21
1381.932966
 31
0.0
  0
LINE
  5
B3
330
1F
100
AcDbEntity
  8
LC-001-002-----0
 62
     7
370
    50
100
AcDbLine
 10
1229.419019
 20
1371.125133
 30
0.0
 11
1229.419019
 21
1370.426185
 31
0.0
  0
LINE
  5
B4
330
1F
100
AcDbEntity
  8
LC-001-002-----0
 62
     7
370
    50
100
AcDbLine
 10
1229.419019
 20
1370.426185
 30
0.0
 11
1231.919019
 21
1370.426185
 31
0.0
  0
ARC
  5
B5
330
1F
100
AcDbEntity
  8
LC-001-002-----0
 62
     7
370
    50
100
AcDbCircle
 10
1242.915945
 20
1381.932966
 30
0.0
 40
0.4969262295082899
100
AcDbArc
 50
90.0
 51
180.0
  0
LINE
  5
B6
330
1F
100
AcDbEntity
  8
LC-001-002-----0
 62
     7
370
    50
100
AcDbLine
 10
1231.919019
 20
1372.737808
 30
0.0
 11
1231.919019
 21
1370.426185
 31
0.0
  0
LINE
  5
B7
330
1F
100
AcDbEntity
  8
LC-001-002-----0
 62
     7
370
    50
100
AcDbLine
 10
1259.919019
 20
1380.93315
 30
0.0
 11
1244.919019
 21
1380.93315
 31
0.0
  0
LINE
  5
B8
330
1F
100
AcDbEntity
  8
LC-001-002-----0
 62
     7
370
    50
100
AcDbLine
 10
1244.919019
 20
1380.93315
 30
0.0
 11
1244.919019
 21
1376.429892
 31
0.0
  0
LINE
  5
B9
330
1F
100
AcDbEntity
  8
LC-001-002-----0
 62
     7
370
    50
100
AcDbLine
 10
1226.169019
 20
1367.408798
 30
0.0
 11
1226.169019
 21
1361.925917
 31
0.0
  0
LINE
  5
BA
330
1F
100
AcDbEntity
  8
LC-001-002-----0
 62
     7
370
    50
100
AcDbLine
 10
1259.919019
 20
1382.429892
 30
0.0
 11
1259.919019
 21
1380.93315
 31
0.0
  0
LINE
  5
BB
330
1F
100
AcDbEntity
  8
LC-001-002-----0
 62
     7
370
    50
100
AcDbLine
 10
1236.669019
 20
1376.930906
 30
0.0
 11
1169.669019
 21
1376.930906
 31
0.0
  0
LINE
  5
BC
330
1F
100
AcDbEntity
  8
LC-001-002-----0
 62
     7
370
    50
100
AcDbLine
 10
1235.669019
 20
1375.126822
 30
0.0
 11
1169.669019
 21
1375.126822
 31
0.0
  0
LINE
  5
BD
330
1F
100
AcDbEntity
  8
LC-001-002-----0
 62
     7
370
    50
100
AcDbLine
 10
1231.919019
 20
1372.737808
 30
0.0
 11
1169.669019
 21
1372.737808
 31
0.0
  0
LINE
  5
BE
330
1F
100
AcDbEntity
  8
LC-001-002-----0
 62
     7
370
    50
100
AcDbLine
 10
1229.419019
 20
1371.125133
 30
0.0
 11
1169.669019
 21
1371.125133
 31
0.0
  0
LINE
  5
BF
330
1F
100
AcDbEntity
  8
LC-004-005-----0
 62
     7
370
    25
100
AcDbLine
 10
1224.352045
 20
1369.054654
 30
0.0
 11
1169.669019
 21
1369.054654
 31
0.0
  0
LINE
  5
C0
330
1F
100
AcDbEntity
  8
LC-001-002-----0
 62
     7
370
    50
100
AcDbLine
 10
1169.669019
 20
1361.925917
 30
0.0
 11
1227.669019
 21
1361.925917
 31
0.0
  0
LINE
  5
C1
330
1F
100
AcDbEntity
  8
LC-001-002-----0
 62
     7
370
    50
100
AcDbLine
 10
1169.669019
 20
1382.429892
 30
0.0
 11
1259.919019
 21
1382.429892
 31
0.0
  0
INSERT
  5
E7
330
1F
100
AcDbEntity
  8
LC-004-005-----0
 62
     7
370
    25
100
AcDbBlockReference
  2
*X24
 10
0.0
 20
0.0
 30
0.0
  0
LINE
  5
E8
330
1F
100
AcDbEntity
  8
LC-001-002-----0
 62
     7
370
    50
100
AcDbLine
 10
1111.669019
 20
1365.440429
 30
0.0
 11
1111.669019
 21
1361.923947
 31
0.0
  0
LINE
  5
E9
330
1F
100
AcDbEntity
  8
LC-001-002-----0
 62
     7
370
    50
100
AcDbLine
 10
1094.419019
 20
1380.93315
 30
0.0
 11
1094.419019
 21
1376.429892
 31
0.0
  0
LINE
  5
EA
330
1F
100
AcDbEntity
  8
LC-001-002-----0
 62
     7
370
    50
100
AcDbLine
 10
1079.419019
 20
1380.93315
 30
0.0
 11
1094.419019
 21
1380.93315
 31
0.0
  0
LINE
  5
EB
330
1F
100
AcDbEntity
  8
LC-001-002-----0
 62
     7
370
    50
100
AcDbLine
 10
1079.419019
 20
1382.434088
 30
0.0
 11
1079.419019
 21
1380.93315
 31
0.0
  0
LINE
  5
EC
330
1F
100
AcDbEntity
  8
LC-001-002-----0
 62
     7
370
    50
100
AcDbLine
 10
1259.919019
 20
1382.429892
 30
0.0
 11
1259.919019
 21
1380.93315
 31
0.0
  0
LINE
  5
ED
330
1F
100
AcDbEntity
  8
LC-001-002-----0
 62
     7
370
    50
100
AcDbLine
 10
1259.919019
 20
1380.93315
 30
0.0
 11
1244.919019
 21
1380.93315
 31
0.0
  0
LINE
  5
EE
330
1F
100
AcDbEntity
  8
LC-001-002-----0
 62
     7
370
    50
100
AcDbLine
 10
1244.919019
 20
1380.93315
 30
0.0
 11
1244.919019
 21
1376.429892
 31
0.0
  0
LINE
  5
EF
330
1F
100
AcDbEntity
  8
LC-001-002-----0
 62
     7
370
    50
100
AcDbLine
 10
1244.919019
 20
1376.429892
 30
0.0
 11
1227.669019
 21
1365.440429
 31
0.0
  0
LINE
  5
F0
330
1F
100
AcDbEntity
  8
LC-001-002-----0
 62
     7
370
    50
100
AcDbLine
 10
1227.669019
 20
1365.440429
 30
0.0
 11
1227.669019
 21
1361.923947
 31
0.0
  0
TEXT
  5
F2
330
1F
100
AcDbEntity
  8
LC-006-004-----0
 62
     7
370
    25
100
AcDbText
 10
929.316337
 20
1470.507223
 30
0.0
 40
5.0
  1
a
 41
0.9
 51
15.0
  7
LCTX15-400-0-0pDIN-Schrift
100
AcDbText
  0
LINE
  5
F3
330
1F
100
AcDbEntity
  8
LC-001-002-----0
 62
     7
370
    50
100
AcDbLine
 10
1096.422093
 20
1382.434088
 30
0.0
 11
1079.419019
 21
1382.434088
 31
0.0
  0
LINE
  5
F4
330
1F
100
AcDbEntity
  8
LC-001-002-----0
 62
     7
370
    50
100
AcDbLine
 10
1769.669019
 20
1364.423947
 30
0.0
 11
1227.669019
 21
1364.423947
 31
0.0
  0
LINE
  5
F5
330
1F
100
AcDbEntity
  8
LC-001-002-----0
 62
     7
370
    50
100
AcDbLine
 10
1259.919019
 20
1384.928874
 30
0.0
 11
1769.669019
 21
1401.923947
 31
0.0
  0
LINE
  5
F6
330
1F
100
AcDbEntity
  8
LC-001-002-----0
 62
     7
370
    50
100
AcDbLine
 10
1260.036991
 20
1382.431659
 30
0.0
 11
1769.669019
 21
1399.421159
 31
0.0
  0
LINE
  5
F7
330
1F
100
AcDbEntity
  8
LC-001-002-----0
 62
     7
370
    50
100
AcDbLine
 10
1242.915945
 20
1382.434088
 30
0.0
 11
1242.915945
 21
1384.928874
 31
0.0
  0
LINE
  5
F8
330
1F
100
AcDbEntity
  8
LC-001-002-----0
 62
     7
370
    50
100
AcDbLine
 10
1259.919019
 20
1384.928874
 30
0.0
 11
1169.669019
 21
1384.928874
 31
0.0
  0
INSERT
  5
1FA
330
1F
100
AcDbEntity
  8
LC-004-005-----0
 62
     7
370
    25
100
AcDbBlockReference
  2
*X35
 10
0.0
 20
0.0
 30
0.0
  0
LINE
  5
1FB
330
1F
100
AcDbEntity
  8
LC-001-002-----0
 62
     7
370
    50
100
AcDbLine
 10
1094.419019
 20
1376.429892
 30
0.0
 11
1111.669019
 21
1365.440429
 31
0.0
  0
INSERT
  5
243
330
1F
100
AcDbEntity
  8
LC-004-005-----0
 62
     7
370
    25
100
AcDbBlockReference
  2
*X46
 10
0.0
 20
0.0
 30
0.0
  0
DIMENSION
  5
244
330
1F
100
AcDbEntity
  8
LC-003-003-----0
 62
     7
370
    25
100
AcDbDimension
  2
*D7
 10
1769.669019
 20
1249.314
 30
0.0
 11
1149.624458
 21
1280.114
 31
0.0
 70
   160
 71
     5
 42
1200.0
  3
LC-DIM-L-0140-02-02
100
AcDbAlignedDimension
 13
569.669019
 23
1216.727311
 33
0.0
 14
1769.669019
 24
1216.727311
 34
0.0
100
AcDbRotatedDimension
  0
INSERT
  5
295
330
1F
100
AcDbEntity
  8
LC-004-005-----0
 62
     7
370
    25
100
AcDbBlockReference
  2
*X58
 10
0.0
 20
0.0
 30
0.0
  0
LINE
  5
296
330
1F
100
AcDbEntity
  8
LC-002-006-MLN-0
 62
     7
370
    25
100
AcDbLine
 10
1169.669019
 20
1382.429892
 30
0.0
 11
1169.669019
 21
1361.925917
 31
0.0
  0
ENDSEC
  0
SECTION
  2
OBJECTS
  0
DICTIONARY
  5
C
330
0
100
AcDbDictionary
281
     1
  3
ACAD_GROUP
350
D
  3
ACAD_LAYOUT
350
1A
  3
ACAD_MLINESTYLE
350
17
  3
ACAD_PLOTSETTINGS
350
19
  3
ACAD_PLOTSTYLENAME
350
E
  0
DICTIONARY
  5
D
102
{ACAD_REACTORS
330
C
102
}
330
C
100
AcDbDictionary
281
     1
  3
LCGROUP110
350
297
  0
DICTIONARY
  5
1A
102
{ACAD_REACTORS
330
C
102
}
330
C
100
AcDbDictionary
281
     1
  3
Layout1
350
1E
  3
Layout2
350
26
  3
Model
350
22
  0
DICTIONARY
  5
17
102
{ACAD_REACTORS
330
C
102
}
330
C
100
AcDbDictionary
281
     1
  3
Standard
350
18
  0
DICTIONARY
  5
19
102
{ACAD_REACTORS
330
C
102
}
330
C
100
AcDbDictionary
281
     1
  0
ACDBDICTIONARYWDFLT
  5
E
102
{ACAD_REACTORS
330
C
102
}
330
C
100
AcDbDictionary
281
     1
  3
Normal
350
F
100
AcDbDictionaryWithDefault
340
F
  0
GROUP
  5
297
102
{ACAD_REACTORS
330
D
102
}
330
D
100
AcDbGroup
300
GRP110
 70
     1
 71
     1
340
4D
340
4E
340
4F
340
50
340
51
340
52
340
53
  0
LAYOUT
  5
1E
102
{ACAD_REACTORS
330
1A
102
}
330
1A
100
AcDbPlotSettings
  1

  2

  4

  6

 40
0.0
 41
0.0
 42
0.0
 43
0.0
 44
0.0
 45
0.0
 46
0.0
 47
0.0
 48
0.0
 49
0.0
140
0.0
141
0.0
142
1.0
143
1.0
 70
   688
 72
     0
 73
     0
 74
     5
  7

 75
    16
147
1.0
148
0.0
149
0.0
100
AcDbLayout
  1
Layout1
 70
     1
 71
     1
 10
191.487762
 20
277.53
 11
1873.487762
 21
1465.53
 12
0.0
 22
0.0
 32
0.0
 14
191.487762
 24
277.53
 34
0.0
 15
1873.487762
 25
1465.53
 35
0.0
146
0.0
 13
0.0
 23
0.0
 33
0.0
 16
1.0
 26
0.0
 36
0.0
 17
0.0
 27
1.0
 37
0.0
 76
     0
330
1B
  0
LAYOUT
  5
26
102
{ACAD_REACTORS
330
1A
102
}
330
1A
100
AcDbPlotSettings
  1

  2

  4

  6

 40
0.0
 41
0.0
 42
0.0
 43
0.0
 44
0.0
 45
0.0
 46
0.0
 47
0.0
 48
0.0
 49
0.0
140
0.0
141
0.0
142
1.0
143
1.0
 70
   688
 72
     0
 73
     0
 74
     5
  7

 75
    16
147
1.0
148
0.0
149
0.0
100
AcDbLayout
  1
Layout2
 70
     1
 71
     2
 10
0.0
 20
0.0
 11
0.0
 21
0.0
 12
0.0
 22
0.0
 32
0.0
 14
0.0
 24
0.0
 34
0.0
 15
0.0
 25
0.0
 35
0.0
146
0.0
 13
0.0
 23
0.0
 33
0.0
 16
1.0
 26
0.0
 36
0.0
 17
0.0
 27
1.0
 37
0.0
 76
     0
330
23
  0
LAYOUT
  5
22
102
{ACAD_REACTORS
330
1A
102
}
330
1A
100
AcDbPlotSettings
  1

  2

  4

  6

 40
0.0
 41
0.0
 42
0.0
 43
0.0
 44
0.0
 45
0.0
 46
0.0
 47
0.0
 48
0.0
 49
0.0
140
0.0
141
0.0
142
1.0
143
1.0
 70
  1776
 72
     0
 73
     0
 74
     0
  7

 75
     0
147
1.0
148
0.0
149
0.0
100
AcDbLayout
  1
Model
 70
     1
 71
     0
 10
191.487762
 20
277.53
 11
1873.487762
 21
1465.53
 12
191.487762
 22
277.53
 32
0.0
 14
191.487762
 24
277.53
 34
0.0
 15
1873.487762
 25
1465.53
 35
0.0
146
0.0
 13
0.0
 23
0.0
 33
0.0
 16
1.0
 26
0.0
 36
0.0
 17
0.0
 27
1.0
 37
0.0
 76
     0
330
1F
  0
MLINESTYLE
  5
18
102
{ACAD_REACTORS
330
17
102
}
330
17
100
AcDbMlineStyle
  2
Standard
 70
     0
  3

 62
   256
 51
90.0
 52
90.0
 71
     2
 49
0.5
 62
   256
  6
BYLAYER
 49
-0.5
 62
   256
  6
BYLAYER
  0
ACDBPLACEHOLDER
  5
F
102
{ACAD_REACTORS
330
E
102
}
330
E
  0
ENDSEC
  0
EOF
