  0
SECTION
  2
HEADER
  9
$ACADVER
  1
AC1015
  9
$ACADMAINTVER
 70
     6
  9
$DWGCODEPAGE
  3
ANSI_1252
  9
$INSBASE
 10
0.0
 20
0.0
 30
0.0
  9
$EXTMIN
 10
0.0
 20
0.0
 30
0.0
  9
$EXTMAX
 10
2378.0
 20
1682.0
 30
0.0
  9
$LIMMIN
 10
0.0
 20
0.0
  9
$LIMMAX
 10
2378.0
 20
1682.0
  9
$ORTHOMODE
 70
     0
  9
$REGENMODE
 70
     1
  9
$FILLMODE
 70
     1
  9
$QTEXTMODE
 70
     0
  9
$MIRRTEXT
 70
     1
  9
$LTSCALE
 40
2.0
  9
$ATTMODE
 70
     1
  9
$TEXTSIZE
 40
2.5
  9
$TRACEWID
 40
1.0
  9
$TEXTSTYLE
  7
Standard
  9
$CLAYER
  8
0
  9
$CELTYPE
  6
ByLayer
  9
$CECOLOR
 62
     7
  9
$CELTSCALE
 40
1.0
  9
$DISPSILH
 70
     0
  9
$DIMSCALE
 40
2.0
  9
$DIMASZ
 40
3.5
  9
$DIMEXO
 40
0.625
  9
$DIMDLI
 40
3.75
  9
$DIMRND
 40
0.0
  9
$DIMDLE
 40
0.0
  9
$DIMEXE
 40
1.25
  9
$DIMTP
 40
0.0
  9
$DIMTM
 40
0.0
  9
$DIMTXT
 40
3.5
  9
$DIMCEN
 40
2.5
  9
$DIMTSZ
 40
0.0
  9
$DIMTOL
 70
     0
  9
$DIMLIM
 70
     0
  9
$DIMTIH
 70
     0
  9
$DIMTOH
 70
     0
  9
$DIMSE1
 70
     0
  9
$DIMSE2
 70
     0
  9
$DIMTAD
 70
     1
  9
$DIMZIN
 70
     8
  9
$DIMBLK
  1

  9
$DIMASO
 70
     1
  9
$DIMSHO
 70
     1
  9
$DIMPOST
  1

  9
$DIMAPOST
  1

  9
$DIMALT
 70
     0
  9
$DIMALTD
 70
     3
  9
$DIMALTF
 40
0.03937
  9
$DIMLFAC
 40
1.0
  9
$DIMTOFL
 70
     1
  9
$DIMTVP
 40
0.0
  9
$DIMTIX
 70
     0
  9
$DIMSOXD
 70
     0
  9
$DIMSAH
 70
     0
  9
$DIMBLK1
  1

  9
$DIMBLK2
  1

  9
$DIMSTYLE
  2
ISO-25
  9
$DIMCLRD
 70
     0
  9
$DIMCLRE
 70
     0
  9
$DIMCLRT
 70
     0
  9
$DIMTFAC
 40
1.0
  9
$DIMGAP
 40
0.625
  9
$DIMJUST
 70
     0
  9
$DIMSD1
 70
     0
  9
$DIMSD2
 70
     0
  9
$DIMTOLJ
 70
     0
  9
$DIMTZIN
 70
     8
  9
$DIMALTZ
 70
     0
  9
$DIMALTTZ
 70
     0
  9
$DIMUPT
 70
     0
  9
$DIMDEC
 70
     2
  9
$DIMTDEC
 70
     2
  9
$DIMALTU
 70
     2
  9
$DIMALTTD
 70
     3
  9
$DIMTXSTY
  7
Standard
  9
$DIMAUNIT
 70
     0
  9
$DIMADEC
 70
     0
  9
$DIMALTRND
 40
0.0
  9
$DIMAZIN
 70
     0
  9
$DIMDSEP
 70
    44
  9
$DIMATFIT
 70
     3
  9
$DIMFRAC
 70
     0
  9
$DIMLDRBLK
  1

  9
$DIMLUNIT
 70
     2
  9
$DIMLWD
 70
    -2
  9
$DIMLWE
 70
    -2
  9
$DIMTMOVE
 70
     0
  9
$LUNITS
 70
     2
  9
$LUPREC
 70
     4
  9
$SKETCHINC
 40
1.0
  9
$FILLETRAD
 40
10.0
  9
$AUNITS
 70
     0
  9
$AUPREC
 70
     0
  9
$MENU
  1
.
  9
$ELEVATION
 40
0.0
  9
$PELEVATION
 40
0.0
  9
$THICKNESS
 40
0.0
  9
$LIMCHECK
 70
     0
  9
$CHAMFERA
 40
10.0
  9
$CHAMFERB
 40
10.0
  9
$CHAMFERC
 40
20.0
  9
$CHAMFERD
 40
0.0
  9
$SKPOLY
 70
     0
  9
$TDCREATE
 40
2457029.292469849
  9
$TDUCREATE
 40
2457029.250803183
  9
$TDUPDATE
 40
2457029.292469861
  9
$TDUUPDATE
 40
2457029.250803195
  9
$TDINDWG
 40
0.0000000116
  9
$TDUSRTIMER
 40
0.0000000116
  9
$USRTIMER
 70
     1
  9
$ANGBASE
 50
0.0
  9
$ANGDIR
 70
     0
  9
$PDMODE
 70
     0
  9
$PDSIZE
 40
0.0
  9
$PLINEWID
 40
0.0
  9
$SPLFRAME
 70
     0
  9
$SPLINETYPE
 70
     6
  9
$SPLINESEGS
 70
     8
  9
$HANDSEED
  5
286
  9
$SURFTAB1
 70
     6
  9
$SURFTAB2
 70
     6
  9
$SURFTYPE
 70
     6
  9
$SURFU
 70
     6
  9
$SURFV
 70
     6
  9
$UCSBASE
  2

  9
$UCSNAME
  2

  9
$UCSORG
 10
0.0
 20
0.0
 30
0.0
  9
$UCSXDIR
 10
1.0
 20
0.0
 30
0.0
  9
$UCSYDIR
 10
0.0
 20
1.0
 30
0.0
  9
$UCSORTHOREF
  2

  9
$UCSORTHOVIEW
 70
     0
  9
$UCSORGTOP
 10
0.0
 20
0.0
 30
0.0
  9
$UCSORGBOTTOM
 10
0.0
 20
0.0
 30
0.0
  9
$UCSORGLEFT
 10
0.0
 20
0.0
 30
0.0
  9
$UCSORGRIGHT
 10
0.0
 20
0.0
 30
0.0
  9
$UCSORGFRONT
 10
0.0
 20
0.0
 30
0.0
  9
$UCSORGBACK
 10
0.0
 20
0.0
 30
0.0
  9
$PUCSBASE
  2

  9
$PUCSNAME
  2

  9
$PUCSORG
 10
0.0
 20
0.0
 30
0.0
  9
$PUCSXDIR
 10
1.0
 20
0.0
 30
0.0
  9
$PUCSYDIR
 10
0.0
 20
1.0
 30
0.0
  9
$PUCSORTHOREF
  2

  9
$PUCSORTHOVIEW
 70
     0
  9
$PUCSORGTOP
 10
0.0
 20
0.0
 30
0.0
  9
$PUCSORGBOTTOM
 10
0.0
 20
0.0
 30
0.0
  9
$PUCSORGLEFT
 10
0.0
 20
0.0
 30
0.0
  9
$PUCSORGRIGHT
 10
0.0
 20
0.0
 30
0.0
  9
$PUCSORGFRONT
 10
0.0
 20
0.0
 30
0.0
  9
$PUCSORGBACK
 10
0.0
 20
0.0
 30
0.0
  9
$USERI1
 70
     0
  9
$USERI2
 70
     0
  9
$USERI3
 70
     0
  9
$USERI4
 70
     0
  9
$USERI5
 70
     0
  9
$USERR1
 40
0.0
  9
$USERR2
 40
0.0
  9
$USERR3
 40
0.0
  9
$USERR4
 40
0.0
  9
$USERR5
 40
0.0
  9
$WORLDVIEW
 70
     1
  9
$SHADEDGE
 70
     3
  9
$SHADEDIF
 70
    70
  9
$TILEMODE
 70
     1
  9
$MAXACTVP
 70
    64
  9
$PINSBASE
 10
0.0
 20
0.0
 30
0.0
  9
$PLIMCHECK
 70
     0
  9
$PEXTMIN
 10
0.0
 20
0.0
 30
0.0
  9
$PEXTMAX
 10
2378.0
 20
1682.0
 30
0.0
  9
$PLIMMIN
 10
0.0
 20
0.0
  9
$PLIMMAX
 10
2378.0
 20
1682.0
  9
$UNITMODE
 70
     0
  9
$VISRETAIN
 70
     1
  9
$PLINEGEN
 70
     0
  9
$PSLTSCALE
 70
     1
  9
$TREEDEPTH
 70
  3020
  9
$CMLSTYLE
  2
Standard
  9
$CMLJUST
 70
     0
  9
$CMLSCALE
 40
20.0
  9
$PROXYGRAPHICS
 70
     1
  9
$MEASUREMENT
 70
     1
  9
$CELWEIGHT
370
    -1
  9
$ENDCAPS
280
     0
  9
$JOINSTYLE
280
     0
  9
$LWDISPLAY
290
     0
  9
$INSUNITS
 70
     4
  9
$HYPERLINKBASE
  1

  9
$STYLESHEET
  1

  9
$XEDIT
290
     1
  9
$CEPSNTYPE
380
     0
  9
$PSTYLEMODE
290
     1
  9
$FINGERPRINTGUID
  2
{FAEB1C30-E019-11D5-929B-00C0DF256EC4}
  9
$VERSIONGUID
  2
{FAEB1C32-E019-11D5-929B-00C0DF256EC4}
  9
$EXTNAMES
290
     1
  9
$PSVPSCALE
 40
0.0
  9
$OLESTARTUP
290
     0
  0
ENDSEC
  0
SECTION
  2
CLASSES
  0
CLASS
  1
ACDBDICTIONARYWDFLT
  2
AcDbDictionaryWithDefault
  3
ObjectDBX Classes
 90
        0
280
     0
281
     0
  0
CLASS
  1
ACDBPLACEHOLDER
  2
AcDbPlaceHolder
  3
ObjectDBX Classes
 90
        0
280
     0
281
     0
  0
CLASS
  1
LAYOUT
  2
AcDbLayout
  3
ObjectDBX Classes
 90
        0
280
     0
281
     0
  0
ENDSEC
  0
SECTION
  2
TABLES
  0
TABLE
  2
VPORT
  5
8
330
0
100
AcDbSymbolTable
 70
     2
  0
VPORT
  5
29
330
8
100
AcDbSymbolTableRecord
100
AcDbViewportTableRecord
  2
*ACTIVE
 70
     0
 10
0.0
 20
0.0
 11
1.0
 21
1.0
 12
1189.0
 22
841.0
 13
0.0
 23
0.0
 14
1.0
 24
1.0
 15
0.0
 25
0.0
 16
0.0
 26
0.0
 36
1.0
 17
0.0
 27
0.0
 37
0.0
 40
1682.0
 41
1.413793
 42
50.0
 43
0.0
 44
0.0
 50
0.0
 51
0.0
 71
    16
 72
   100
 73
     1
 74
     0
 75
     0
 76
     0
 77
     0
 78
     0
281
     0
 65
     0
110
0.0
120
0.0
130
0.0
111
1.0
121
0.0
131
0.0
112
0.0
122
1.0
132
0.0
 79
     0
146
0.0
  0
ENDTAB
  0
TABLE
  2
LTYPE
  5
5
330
0
100
AcDbSymbolTable
 70
     3
  0
LTYPE
  5
14
330
5
100
AcDbSymbolTableRecord
100
AcDbLinetypeTableRecord
  2
ByBlock
 70
     0
  3

 72
    65
 73
     0
 40
0.0
  0
LTYPE
  5
15
330
5
100
AcDbSymbolTableRecord
100
AcDbLinetypeTableRecord
  2
ByLayer
 70
     0
  3

 72
    65
 73
     0
 40
0.0
  0
LTYPE
  5
16
330
5
100
AcDbSymbolTableRecord
100
AcDbLinetypeTableRecord
  2
Continuous
 70
     0
  3
Solid line
 72
    65
 73
     0
 40
0.0
  0
LTYPE
  5
2A
330
5
100
AcDbSymbolTableRecord
100
AcDbLinetypeTableRecord
  2
DASHED
 70
     0
  3
__ __ __ __ __
 72
    65
 73
     2
 40
6.25
 49
5.0
 74
     4
 75
     0
340
0
 46
1.0
 50
0.0
 44
0.0
 45
0.0
 49
-1.25
 74
     4
 75
     0
340
0
 46
1.0
 50
0.0
 44
0.0
 45
0.0
  0
LTYPE
  5
37
330
5
100
AcDbSymbolTableRecord
100
AcDbLinetypeTableRecord
  2
DASHDOT
 70
     0
  3
__ . __ . __ . __ . __
 72
    65
 73
     4
 40
7.5
 49
5.0
 74
     4
 75
     0
340
0
 46
1.0
 50
0.0
 44
0.0
 45
0.0
 49
-1.25
 74
     4
 75
     0
340
0
 46
1.0
 50
0.0
 44
0.0
 45
0.0
 49
0.0
 74
     4
 75
     0
340
0
 46
1.0
 50
0.0
 44
0.0
 45
0.0
 49
-1.25
 74
     4
 75
     0
340
0
 46
1.0
 50
0.0
 44
0.0
 45
0.0
  0
ENDTAB
  0
TABLE
  2
LAYER
  5
2
330
0
100
AcDbSymbolTable
 70
    11
  0
LAYER
  5
10
330
2
100
AcDbSymbolTableRecord
100
AcDbLayerTableRecord
  2
0
 70
     0
 62
     7
  6
Continuous
370
    -3
390
F
  0
LAYER
  5
2B
330
2
100
AcDbSymbolTableRecord
100
AcDbLayerTableRecord
  2
LC-INFO-1-2-mm-A0-0
 70
     1
 62
     7
  6
ByBlock
370
    -3
390
F
  0
LAYER
  5
2C
330
2
100
AcDbSymbolTableRecord
100
AcDbLayerTableRecord
  2
LC-CUT-HIDDEN
 70
     0
 62
     7
  6
DASHED
370
    -3
390
F
  0
LAYER
  5
2D
330
2
100
AcDbSymbolTableRecord
100
AcDbLayerTableRecord
  2
LC-VIEWPORT
 70
     0
 62
     7
  6
ByBlock
370
    -3
390
F
  0
LAYER
  5
2E
330
2
100
AcDbSymbolTableRecord
100
AcDbLayerTableRecord
  2
LC-3D-HIDDEN
 70
     0
 62
     9
  6
DASHED
370
    -3
390
F
  0
LAYER
  5
30
330
2
100
AcDbSymbolTableRecord
100
AcDbLayerTableRecord
  2
LC-001-002-----0
 70
     0
 62
     1
  6
ByBlock
370
    -3
390
F
  0
LAYER
  5
38
330
2
100
AcDbSymbolTableRecord
100
AcDbLayerTableRecord
  2
LC-002-006-MLN-0
 70
     0
 62
     2
  6
DASHDOT
370
    -3
390
F
  0
LAYER
  5
3E
330
2
100
AcDbSymbolTableRecord
100
AcDbLayerTableRecord
  2
LC-003-003-----0
 70
     0
 62
     2
  6
ByBlock
370
    -3
390
F
  0
LAYER
  5
40
330
2
100
AcDbSymbolTableRecord
100
AcDbLayerTableRecord
  2
Defpoints
 70
     0
 62
     7
  6
Continuous
290
     0
370
    -3
390
F
  0
LAYER
  5
71
330
2
100
AcDbSymbolTableRecord
100
AcDbLayerTableRecord
  2
LC-004-005-----0
 70
     0
 62
     2
  6
ByBlock
370
    -3
390
F
  0
LAYER
  5
94
330
2
100
AcDbSymbolTableRecord
100
AcDbLayerTableRecord
  2
LC-005-002-RND-0
 70
     0
 62
     1
  6
ByBlock
370
    -3
390
F
  0
ENDTAB
  0
TABLE
  2
STYLE
  5
3
330
0
100
AcDbSymbolTable
 70
     3
  0
STYLE
  5
11
330
3
100
AcDbSymbolTableRecord
100
AcDbTextStyleTableRecord
  2
Standard
 70
     0
 40
0.0
 41
1.0
 50
0.0
 71
     0
 42
2.5
  3
txt
  4

  0
STYLE
  5
2F
330
3
100
AcDbSymbolTableRecord
100
AcDbTextStyleTableRecord
  2
LCTX15-400-0-0-Arial
 70
     0
 40
0.0
 41
0.9
 50
0.0
 71
     0
 42
3.5
  3

  4

1001
ACAD
1000
Arial
1071
 16777218
  0
STYLE
  5
3C
330
3
100
AcDbSymbolTableRecord
100
AcDbTextStyleTableRecord
  2
LCTX15-400-0-0pDIN-Schrift
 70
     0
 40
2.5
 41
0.8
 50
15.0
 71
     0
 42
3.5
  3
STANDARD
  4

  0
ENDTAB
  0
TABLE
  2
VIEW
  5
6
330
0
100
AcDbSymbolTable
 70
     0
  0
ENDTAB
  0
TABLE
  2
UCS
  5
7
330
0
100
AcDbSymbolTable
 70
     0
  0
ENDTAB
  0
TABLE
  2
APPID
  5
9
330
0
100
AcDbSymbolTable
 70
     1
  0
APPID
  5
12
330
9
100
AcDbSymbolTableRecord
100
AcDbRegAppTableRecord
  2
ACAD
 70
     0
  0
ENDTAB
  0
TABLE
  2
DIMSTYLE
  5
A
330
0
100
AcDbSymbolTable
 70
     2
100
AcDbDimStyleTable
  0
DIMSTYLE
105
27
330
A
100
AcDbSymbolTableRecord
100
AcDbDimStyleTableRecord
  2
ISO-25
 70
     0
 41
2.5
 42
0.625
 43
3.75
 44
1.25
 73
     0
 74
     0
 77
     1
 78
     8
140
2.5
141
2.5
143
0.03937
147
0.625
171
     3
172
     1
271
     2
272
     2
274
     3
278
    44
283
     0
284
     8
340
11
  0
DIMSTYLE
105
3D
102
{ACAD_REACTORS
330
3F
330
5F
102
}
330
A
100
AcDbSymbolTableRecord
100
AcDbDimStyleTableRecord
  2
LC-DIM-L-0140-02-02
 70
     0
 40
2.0
 41
14.0
 42
0.0
 43
7.5
 44
1.8
 73
     0
 74
     0
 77
     1
 78
     8
 79
     2
140
14.0
141
0.0
146
0.71
147
1.5
176
     2
177
     2
178
     2
179
     2
271
     2
278
    44
289
     1
340
3C
  0
ENDTAB
  0
TABLE
  2
BLOCK_RECORD
  5
1
330
0
100
AcDbSymbolTable
 70
     8
  0
BLOCK_RECORD
  5
1F
330
1
100
AcDbSymbolTableRecord
100
AcDbBlockTableRecord
  2
*Model_Space
340
22
  0
BLOCK_RECORD
  5
1B
330
1
100
AcDbSymbolTableRecord
100
AcDbBlockTableRecord
  2
*Paper_Space
340
1E
  0
BLOCK_RECORD
  5
23
330
1
100
AcDbSymbolTableRecord
100
AcDbBlockTableRecord
  2
*Paper_Space0
340
26
  0
BLOCK_RECORD
  5
41
330
1
100
AcDbSymbolTableRecord
100
AcDbBlockTableRecord
  2
*D1
340
0
  0
BLOCK_RECORD
  5
60
330
1
100
AcDbSymbolTableRecord
100
AcDbBlockTableRecord
  2
*D2
340
0
  0
BLOCK_RECORD
  5
6E
330
1
100
AcDbSymbolTableRecord
100
AcDbBlockTableRecord
  2
*X13
340
0
102
{BLKREFS
331
86
102
}
  0
BLOCK_RECORD
  5
C2
330
1
100
AcDbSymbolTableRecord
100
AcDbBlockTableRecord
  2
*X24
340
0
102
{BLKREFS
331
E5
102
}
  0
BLOCK_RECORD
  5
F5
330
1
100
AcDbSymbolTableRecord
100
AcDbBlockTableRecord
  2
*X35
340
0
102
{BLKREFS
331
1F6
102
}
  0
BLOCK_RECORD
  5
1F8
330
1
100
AcDbSymbolTableRecord
100
AcDbBlockTableRecord
  2
*X46
340
0
102
{BLKREFS
331
23F
102
}
  0
BLOCK_RECORD
  5
240
330
1
100
AcDbSymbolTableRecord
100
AcDbBlockTableRecord
  2
*X57
340
0
102
{BLKREFS
331
284
102
}
  0
ENDTAB
  0
ENDSEC
  0
SECTION
  2
BLOCKS
  0
BLOCK
  5
20
330
1F
100
AcDbEntity
  8
0
100
AcDbBlockBegin
  2
*Model_Space
 70
     0
 71
     0
 10
0.0
 20
0.0
 30
0.0
  3
*Model_Space
  1

  0
ENDBLK
  5
21
330
1F
100
AcDbEntity
  8
0
100
AcDbBlockEnd
  0
BLOCK
  5
1C
330
1B
100
AcDbEntity
 67
     1
  8
0
100
AcDbBlockBegin
  2
*Paper_Space
 70
     0
 71
     0
 10
0.0
 20
0.0
 30
0.0
  3
*Paper_Space
  1

  0
ENDBLK
  5
1D
330
1B
100
AcDbEntity
 67
     1
  8
0
100
AcDbBlockEnd
  0
BLOCK
  5
24
330
23
100
AcDbEntity
  8
0
100
AcDbBlockBegin
  2
*Paper_Space0
 70
     0
 71
     0
 10
0.0
 20
0.0
 30
0.0
  3
*Paper_Space0
  1

  0
ENDBLK
  5
25
330
23
100
AcDbEntity
  8
0
100
AcDbBlockEnd
  0
BLOCK
  5
4B
330
41
100
AcDbEntity
  8
0
100
AcDbBlockBegin
  2
*D1
 70
     1
 71
     0
 10
0.0
 20
0.0
 30
0.0
  3
*D1
  1

  0
LINE
  5
42
330
41
100
AcDbEntity
  8
LC-003-003-----0
 62
     2
370
    -2
100
AcDbLine
 10
569.669019
 20
1366.727311
 30
0.0
 11
569.669019
 21
1419.025311
 31
0.0
  0
LINE
  5
43
330
41
100
AcDbEntity
  8
LC-003-003-----0
 62
     2
370
    -2
100
AcDbLine
 10
1769.669019
 20
1366.727311
 30
0.0
 11
1769.669019
 21
1419.025311
 31
0.0
  0
LINE
  5
44
330
41
100
AcDbEntity
  8
LC-003-003-----0
 62
     2
370
    -2
100
AcDbLine
 10
597.669019
 20
1415.425311
 30
0.0
 11
1741.669019
 21
1415.425311
 31
0.0
  0
SOLID
  5
45
330
41
100
AcDbEntity
  8
LC-003-003-----0
 62
     2
100
AcDbTrace
 10
597.669019
 20
1420.091978
 30
0.0
 11
597.669019
 21
1410.758645
 31
0.0
 12
569.669019
 22
1415.425311
 32
0.0
 13
569.669019
 23
1415.425311
 33
0.0
  0
SOLID
  5
46
330
41
100
AcDbEntity
  8
LC-003-003-----0
 62
     2
100
AcDbTrace
 10
1741.669019
 20
1410.758645
 30
0.0
 11
1741.669019
 21
1420.091978
 31
0.0
 12
1769.669019
 22
1415.425311
 32
0.0
 13
1769.669019
 23
1415.425311
 33
0.0
  0
MTEXT
  5
47
330
41
100
AcDbEntity
  8
LC-003-003-----0
 62
     2
100
AcDbMText
 10
1172.335891
 20
1446.225311
 30
0.0
 40
28.0
 41
0.0
 71
     5
 72
     1
  1
\A1;1200
  7
LCTX15-400-0-0pDIN-Schrift
 73
     1
 44
1.0
  0
POINT
  5
48
330
41
100
AcDbEntity
  8
Defpoints
 62
     0
100
AcDbPoint
 10
569.669019
 20
1366.727311
 30
0.0
  0
POINT
  5
49
330
41
100
AcDbEntity
  8
Defpoints
 62
     0
100
AcDbPoint
 10
1769.669019
 20
1366.727311
 30
0.0
  0
POINT
  5
4A
330
41
100
AcDbEntity
  8
Defpoints
 62
     0
100
AcDbPoint
 10
1769.669019
 20
1415.425311
 30
0.0
  0
ENDBLK
  5
4C
330
41
100
AcDbEntity
  8
0
100
AcDbBlockEnd
  0
BLOCK
  5
6C
330
60
100
AcDbEntity
  8
0
100
AcDbBlockBegin
  2
*D2
 70
     1
 71
     0
 10
0.0
 20
0.0
 30
0.0
  3
*D2
  1

  0
LINE
  5
61
330
60
100
AcDbEntity
  8
LC-003-003-----0
 62
     2
370
    -2
100
AcDbLine
 10
569.669019
 20
1555.098239
 30
0.0
 11
528.4
 21
1555.098239
 31
0.0
  0
LINE
  5
62
330
60
100
AcDbEntity
  8
LC-003-003-----0
 62
     2
370
    -2
100
AcDbLine
 10
569.669019
 20
1515.098239
 30
0.0
 11
528.4
 21
1515.098239
 31
0.0
  0
LINE
  5
63
330
60
100
AcDbEntity
  8
LC-003-003-----0
 62
     2
370
    -2
100
AcDbLine
 10
532.0
 20
1583.098239
 30
0.0
 11
532.0
 21
1611.098239
 31
0.0
  0
LINE
  5
64
330
60
100
AcDbEntity
  8
LC-003-003-----0
 62
     2
370
    -2
100
AcDbLine
 10
532.0
 20
1487.098239
 30
0.0
 11
532.0
 21
1459.098239
 31
0.0
  0
LINE
  5
65
330
60
100
AcDbEntity
  8
LC-003-003-----0
 62
     2
370
    -2
100
AcDbLine
 10
532.0
 20
1555.098239
 30
0.0
 11
532.0
 21
1515.098239
 31
0.0
  0
SOLID
  5
66
330
60
100
AcDbEntity
  8
LC-003-003-----0
 62
     2
100
AcDbTrace
 10
527.333333
 20
1583.098239
 30
0.0
 11
536.666667
 21
1583.098239
 31
0.0
 12
532.0
 22
1555.098239
 32
0.0
 13
532.0
 23
1555.098239
 33
0.0
  0
SOLID
  5
67
330
60
100
AcDbEntity
  8
LC-003-003-----0
 62
     2
100
AcDbTrace
 10
536.666667
 20
1487.098239
 30
0.0
 11
527.333333
 21
1487.098239
 31
0.0
 12
532.0
 22
1515.098239
 32
0.0
 13
532.0
 23
1515.098239
 33
0.0
  0
MTEXT
  5
68
330
60
100
AcDbEntity
  8
LC-003-003-----0
 62
     2
100
AcDbMText
 10
501.2
 20
1532.716048
 30
0.0
 40
28.0
 41
0.0
 71
     5
 72
     1
  1
\A1;40
  7
LCTX15-400-0-0pDIN-Schrift
 11
6.123031769111886E-17
 21
1.0
 31
0.0
 73
     1
 44
1.0
  0
POINT
  5
69
330
60
100
AcDbEntity
  8
Defpoints
 62
     0
100
AcDbPoint
 10
569.669019
 20
1555.098239
 30
0.0
  0
POINT
  5
6A
330
60
100
AcDbEntity
  8
Defpoints
 62
     0
100
AcDbPoint
 10
569.669019
 20
1515.098239
 30
0.0
  0
POINT
  5
6B
330
60
100
AcDbEntity
  8
Defpoints
 62
     0
100
AcDbPoint
 10
532.0
 20
1515.098239
 30
0.0
  0
ENDBLK
  5
6D
330
60
100
AcDbEntity
  8
0
100
AcDbBlockEnd
  0
BLOCK
  5
6F
330
6E
100
AcDbEntity
  8
0
100
AcDbBlockBegin
  2
*X13
 70
     1
 71
     0
 10
0.0
 20
0.0
 30
0.0
  3
*X13
  1

  4
*X1
  0
LINE
  5
72
330
6E
100
AcDbEntity
  8
LC-004-005-----0
 62
     7
370
    25
100
AcDbLine
 10
1251.056486
 20
1514.100209
 30
0.0
 11
1252.056486
 21
1515.100209
 31
0.0
  0
LINE
  5
73
330
6E
100
AcDbEntity
  8
LC-004-005-----0
 62
     7
370
    25
100
AcDbLine
 10
1248.228059
 20
1514.100209
 30
0.0
 11
1249.228059
 21
1515.100209
 31
0.0
  0
LINE
  5
74
330
6E
100
AcDbEntity
  8
LC-004-005-----0
 62
     7
370
    25
100
AcDbLine
 10
1245.399632
 20
1514.100209
 30
0.0
 11
1246.399632
 21
1515.100209
 31
0.0
  0
LINE
  5
75
330
6E
100
AcDbEntity
  8
LC-004-005-----0
 62
     7
370
    25
100
AcDbLine
 10
1242.571205
 20
1514.100209
 30
0.0
 11
1243.571205
 21
1515.100209
 31
0.0
  0
LINE
  5
76
330
6E
100
AcDbEntity
  8
LC-004-005-----0
 62
     7
370
    25
100
AcDbLine
 10
1239.742778
 20
1514.100209
 30
0.0
 11
1240.742778
 21
1515.100209
 31
0.0
  0
LINE
  5
77
330
6E
100
AcDbEntity
  8
LC-004-005-----0
 62
     7
370
    25
100
AcDbLine
 10
1236.91435
 20
1514.100209
 30
0.0
 11
1237.91435
 21
1515.100209
 31
0.0
  0
LINE
  5
78
330
6E
100
AcDbEntity
  8
LC-004-005-----0
 62
     7
370
    25
100
AcDbLine
 10
1234.085923
 20
1514.100209
 30
0.0
 11
1235.085923
 21
1515.100209
 31
0.0
  0
LINE
  5
79
330
6E
100
AcDbEntity
  8
LC-004-005-----0
 62
     7
370
    25
100
AcDbLine
 10
1231.257496
 20
1514.100209
 30
0.0
 11
1232.257496
 21
1515.100209
 31
0.0
  0
LINE
  5
7A
330
6E
100
AcDbEntity
  8
LC-004-005-----0
 62
     7
370
    25
100
AcDbLine
 10
1228.429069
 20
1514.100209
 30
0.0
 11
1229.429069
 21
1515.100209
 31
0.0
  0
LINE
  5
7B
330
6E
100
AcDbEntity
  8
LC-004-005-----0
 62
     7
370
    25
100
AcDbLine
 10
1226.169019
 20
1514.668586
 30
0.0
 11
1226.600642
 21
1515.100209
 31
0.0
  0
LINE
  5
7C
330
6E
100
AcDbEntity
  8
LC-004-005-----0
 62
     7
370
    25
100
AcDbLine
 10
1112.463557
 20
1514.100209
 30
0.0
 11
1113.169019
 21
1514.805671
 31
0.0
  0
LINE
  5
7D
330
6E
100
AcDbEntity
  8
LC-004-005-----0
 62
     7
370
    25
100
AcDbLine
 10
1109.63513
 20
1514.100209
 30
0.0
 11
1110.63513
 21
1515.100209
 31
0.0
  0
LINE
  5
7E
330
6E
100
AcDbEntity
  8
LC-004-005-----0
 62
     7
370
    25
100
AcDbLine
 10
1106.806703
 20
1514.100209
 30
0.0
 11
1107.806703
 21
1515.100209
 31
0.0
  0
LINE
  5
7F
330
6E
100
AcDbEntity
  8
LC-004-005-----0
 62
     7
370
    25
100
AcDbLine
 10
1103.978276
 20
1514.100209
 30
0.0
 11
1104.978276
 21
1515.100209
 31
0.0
  0
LINE
  5
80
330
6E
100
AcDbEntity
  8
LC-004-005-----0
 62
     7
370
    25
100
AcDbLine
 10
1101.149848
 20
1514.100209
 30
0.0
 11
1102.149848
 21
1515.100209
 31
0.0
  0
LINE
  5
81
330
6E
100
AcDbEntity
  8
LC-004-005-----0
 62
     7
370
    25
100
AcDbLine
 10
1098.321421
 20
1514.100209
 30
0.0
 11
1099.321421
 21
1515.100209
 31
0.0
  0
LINE
  5
82
330
6E
100
AcDbEntity
  8
LC-004-005-----0
 62
     7
370
    25
100
AcDbLine
 10
1095.492994
 20
1514.100209
 30
0.0
 11
1096.492994
 21
1515.100209
 31
0.0
  0
LINE
  5
83
330
6E
100
AcDbEntity
  8
LC-004-005-----0
 62
     7
370
    25
100
AcDbLine
 10
1092.664567
 20
1514.100209
 30
0.0
 11
1093.664567
 21
1515.100209
 31
0.0
  0
LINE
  5
84
330
6E
100
AcDbEntity
  8
LC-004-005-----0
 62
     7
370
    25
100
AcDbLine
 10
1089.83614
 20
1514.100209
 30
0.0
 11
1090.83614
 21
1515.100209
 31
0.0
  0
LINE
  5
85
330
6E
100
AcDbEntity
  8
LC-004-005-----0
 62
     7
370
    25
100
AcDbLine
 10
1087.007713
 20
1514.100209
 30
0.0
 11
1088.007713
 21
1515.100209
 31
0.0
  0
ENDBLK
  5
70
330
6E
100
AcDbEntity
  8
0
100
AcDbBlockEnd
  0
BLOCK
  5
C3
330
C2
100
AcDbEntity
  8
0
100
AcDbBlockBegin
  2
*X24
 70
     1
 71
     0
 10
0.0
 20
0.0
 30
0.0
  3
*X24
  1

  4
*X2
  0
LINE
  5
C5
330
C2
100
AcDbEntity
  8
LC-004-005-----0
 62
     7
370
    25
100
AcDbLine
 10
1259.750011
 20
1534.107442
 30
0.0
 11
1259.919019
 21
1534.27645
 31
0.0
  0
LINE
  5
C6
330
C2
100
AcDbEntity
  8
LC-004-005-----0
 62
     7
370
    25
100
AcDbLine
 10
1256.921584
 20
1534.107442
 30
0.0
 11
1258.418326
 21
1535.604184
 31
0.0
  0
LINE
  5
C7
330
C2
100
AcDbEntity
  8
LC-004-005-----0
 62
     7
370
    25
100
AcDbLine
 10
1254.093157
 20
1534.107442
 30
0.0
 11
1255.589899
 21
1535.604184
 31
0.0
  0
LINE
  5
C8
330
C2
100
AcDbEntity
  8
LC-004-005-----0
 62
     7
370
    25
100
AcDbLine
 10
1251.26473
 20
1534.107442
 30
0.0
 11
1252.761472
 21
1535.604184
 31
0.0
  0
LINE
  5
C9
330
C2
100
AcDbEntity
  8
LC-004-005-----0
 62
     7
370
    25
100
AcDbLine
 10
1242.202309
 20
1527.873449
 30
0.0
 11
1244.919019
 21
1530.590159
 31
0.0
  0
LINE
  5
CA
330
C2
100
AcDbEntity
  8
LC-004-005-----0
 62
     7
370
    25
100
AcDbLine
 10
1248.436303
 20
1534.107442
 30
0.0
 11
1249.933044
 21
1535.604184
 31
0.0
  0
LINE
  5
CB
330
C2
100
AcDbEntity
  8
LC-004-005-----0
 62
     7
370
    25
100
AcDbLine
 10
1226.600642
 20
1515.100209
 30
0.0
 11
1227.669019
 21
1516.168586
 31
0.0
  0
LINE
  5
CC
330
C2
100
AcDbEntity
  8
LC-004-005-----0
 62
     7
370
    25
100
AcDbLine
 10
1234.408989
 20
1522.908556
 30
0.0
 11
1241.605632
 21
1530.105198
 31
0.0
  0
LINE
  5
CD
330
C2
100
AcDbEntity
  8
LC-004-005-----0
 62
     7
370
    25
100
AcDbLine
 10
1242.419019
 20
1530.918586
 30
0.0
 11
1244.919019
 21
1533.418586
 31
0.0
  0
LINE
  5
CE
330
C2
100
AcDbEntity
  8
LC-004-005-----0
 62
     7
370
    25
100
AcDbLine
 10
1245.607876
 20
1534.107442
 30
0.0
 11
1247.104617
 21
1535.604184
 31
0.0
  0
LINE
  5
CF
330
C2
100
AcDbEntity
  8
LC-004-005-----0
 62
     7
370
    25
100
AcDbLine
 10
1226.169019
 20
1517.497013
 30
0.0
 11
1238.777205
 21
1530.105198
 31
0.0
  0
LINE
  5
D0
330
C2
100
AcDbEntity
  8
LC-004-005-----0
 62
     7
370
    25
100
AcDbLine
 10
1242.419019
 20
1533.747013
 30
0.0
 11
1244.27619
 21
1535.604184
 31
0.0
  0
LINE
  5
D1
330
C2
100
AcDbEntity
  8
LC-004-005-----0
 62
     7
370
    25
100
AcDbLine
 10
1226.169019
 20
1520.32544
 30
0.0
 11
1229.444056
 21
1523.600477
 31
0.0
  0
LINE
  5
D2
330
C2
100
AcDbEntity
  8
LC-004-005-----0
 62
     7
370
    25
100
AcDbLine
 10
1111.669019
 20
1516.134098
 30
0.0
 11
1113.169019
 21
1517.634098
 31
0.0
  0
LINE
  5
D3
330
C2
100
AcDbEntity
  8
LC-004-005-----0
 62
     7
370
    25
100
AcDbLine
 10
1111.456564
 20
1518.75007
 30
0.0
 11
1113.169019
 21
1520.462525
 31
0.0
  0
LINE
  5
D4
330
C2
100
AcDbEntity
  8
LC-004-005-----0
 62
     7
370
    25
100
AcDbLine
 10
1109.728827
 20
1519.85076
 30
0.0
 11
1112.431374
 21
1522.553307
 31
0.0
  0
LINE
  5
D5
330
C2
100
AcDbEntity
  8
LC-004-005-----0
 62
     7
370
    25
100
AcDbLine
 10
1108.00109
 20
1520.95145
 30
0.0
 11
1110.792559
 21
1523.742919
 31
0.0
  0
LINE
  5
D6
330
C2
100
AcDbEntity
  8
LC-004-005-----0
 62
     7
370
    25
100
AcDbLine
 10
1106.273353
 20
1522.05214
 30
0.0
 11
1107.821689
 21
1523.600477
 31
0.0
  0
LINE
  5
D7
330
C2
100
AcDbEntity
  8
LC-004-005-----0
 62
     7
370
    25
100
AcDbLine
 10
1104.545616
 20
1523.15283
 30
0.0
 11
1107.349301
 21
1525.956515
 31
0.0
  0
LINE
  5
D8
330
C2
100
AcDbEntity
  8
LC-004-005-----0
 62
     7
370
    25
100
AcDbLine
 10
1102.817879
 20
1524.25352
 30
0.0
 11
1105.621564
 21
1527.057205
 31
0.0
  0
LINE
  5
D9
330
C2
100
AcDbEntity
  8
LC-004-005-----0
 62
     7
370
    25
100
AcDbLine
 10
1101.090141
 20
1525.35421
 30
0.0
 11
1103.893827
 21
1528.157895
 31
0.0
  0
LINE
  5
DA
330
C2
100
AcDbEntity
  8
LC-004-005-----0
 62
     7
370
    25
100
AcDbLine
 10
1099.362404
 20
1526.4549
 30
0.0
 11
1103.012703
 21
1530.105198
 31
0.0
  0
LINE
  5
DB
330
C2
100
AcDbEntity
  8
LC-004-005-----0
 62
     7
370
    25
100
AcDbLine
 10
1097.634667
 20
1527.55559
 30
0.0
 11
1100.184275
 21
1530.105198
 31
0.0
  0
LINE
  5
DC
330
C2
100
AcDbEntity
  8
LC-004-005-----0
 62
     7
370
    25
100
AcDbLine
 10
1095.90693
 20
1528.65628
 30
0.0
 11
1097.355848
 21
1530.105198
 31
0.0
  0
LINE
  5
DD
330
C2
100
AcDbEntity
  8
LC-004-005-----0
 62
     7
370
    25
100
AcDbLine
 10
1094.419019
 20
1529.996796
 30
0.0
 11
1096.919019
 21
1532.496796
 31
0.0
  0
LINE
  5
DE
330
C2
100
AcDbEntity
  8
LC-004-005-----0
 62
     7
370
    25
100
AcDbLine
 10
1094.419019
 20
1532.825224
 30
0.0
 11
1096.884084
 21
1535.290288
 31
0.0
  0
LINE
  5
DF
330
C2
100
AcDbEntity
  8
LC-004-005-----0
 62
     7
370
    25
100
AcDbLine
 10
1092.872811
 20
1534.107442
 30
0.0
 11
1094.369553
 21
1535.604184
 31
0.0
  0
LINE
  5
E0
330
C2
100
AcDbEntity
  8
LC-004-005-----0
 62
     7
370
    25
100
AcDbLine
 10
1090.044384
 20
1534.107442
 30
0.0
 11
1091.541126
 21
1535.604184
 31
0.0
  0
LINE
  5
E1
330
C2
100
AcDbEntity
  8
LC-004-005-----0
 62
     7
370
    25
100
AcDbLine
 10
1087.215957
 20
1534.107442
 30
0.0
 11
1088.712698
 21
1535.604184
 31
0.0
  0
LINE
  5
E2
330
C2
100
AcDbEntity
  8
LC-004-005-----0
 62
     7
370
    25
100
AcDbLine
 10
1084.387529
 20
1534.107442
 30
0.0
 11
1085.884271
 21
1535.604184
 31
0.0
  0
LINE
  5
E3
330
C2
100
AcDbEntity
  8
LC-004-005-----0
 62
     7
370
    25
100
AcDbLine
 10
1081.559102
 20
1534.107442
 30
0.0
 11
1083.055844
 21
1535.604184
 31
0.0
  0
LINE
  5
E4
330
C2
100
AcDbEntity
  8
LC-004-005-----0
 62
     7
370
    25
100
AcDbLine
 10
1079.419019
 20
1534.795786
 30
0.0
 11
1080.227417
 21
1535.604184
 31
0.0
  0
ENDBLK
  5
C4
330
C2
100
AcDbEntity
  8
0
100
AcDbBlockEnd
  0
BLOCK
  5
F6
330
F5
100
AcDbEntity
  8
0
100
AcDbBlockBegin
  2
*X35
 70
     1
 71
     0
 10
0.0
 20
0.0
 30
0.0
  3
*X35
  1

  4
*X3
  0
LINE
  5
F8
330
F5
100
AcDbEntity
  8
LC-004-005-----0
 62
     7
370
    25
100
AcDbLine
 10
1769.65668
 20
1515.098239
 30
0.0
 11
1769.669019
 21
1515.110578
 31
0.0
  0
LINE
  5
F9
330
F5
100
AcDbEntity
  8
LC-004-005-----0
 62
     7
370
    25
100
AcDbLine
 10
1761.171399
 20
1515.098239
 30
0.0
 11
1763.671399
 21
1517.598239
 31
0.0
  0
LINE
  5
FA
330
F5
100
AcDbEntity
  8
LC-004-005-----0
 62
     7
370
    25
100
AcDbLine
 10
1752.686117
 20
1515.098239
 30
0.0
 11
1755.186117
 21
1517.598239
 31
0.0
  0
LINE
  5
FB
330
F5
100
AcDbEntity
  8
LC-004-005-----0
 62
     7
370
    25
100
AcDbLine
 10
1744.200836
 20
1515.098239
 30
0.0
 11
1746.700836
 21
1517.598239
 31
0.0
  0
LINE
  5
FC
330
F5
100
AcDbEntity
  8
LC-004-005-----0
 62
     7
370
    25
100
AcDbLine
 10
1735.715554
 20
1515.098239
 30
0.0
 11
1738.215554
 21
1517.598239
 31
0.0
  0
LINE
  5
FD
330
F5
100
AcDbEntity
  8
LC-004-005-----0
 62
     7
370
    25
100
AcDbLine
 10
1727.230273
 20
1515.098239
 30
0.0
 11
1729.730273
 21
1517.598239
 31
0.0
  0
LINE
  5
FE
330
F5
100
AcDbEntity
  8
LC-004-005-----0
 62
     7
370
    25
100
AcDbLine
 10
1764.557069
 20
1552.425035
 30
0.0
 11
1767.146161
 21
1555.014127
 31
0.0
  0
LINE
  5
FF
330
F5
100
AcDbEntity
  8
LC-004-005-----0
 62
     7
370
    25
100
AcDbLine
 10
1718.744992
 20
1515.098239
 30
0.0
 11
1721.244992
 21
1517.598239
 31
0.0
  0
LINE
  5
100
330
F5
100
AcDbEntity
  8
LC-004-005-----0
 62
     7
370
    25
100
AcDbLine
 10
1755.77916
 20
1552.132407
 30
0.0
 11
1758.368223
 21
1554.72147
 31
0.0
  0
LINE
  5
101
330
F5
100
AcDbEntity
  8
LC-004-005-----0
 62
     7
370
    25
100
AcDbLine
 10
1710.25971
 20
1515.098239
 30
0.0
 11
1712.75971
 21
1517.598239
 31
0.0
  0
LINE
  5
102
330
F5
100
AcDbEntity
  8
LC-004-005-----0
 62
     7
370
    25
100
AcDbLine
 10
1747.001251
 20
1551.83978
 30
0.0
 11
1749.590285
 21
1554.428813
 31
0.0
  0
LINE
  5
103
330
F5
100
AcDbEntity
  8
LC-004-005-----0
 62
     7
370
    25
100
AcDbLine
 10
1701.774429
 20
1515.098239
 30
0.0
 11
1704.274429
 21
1517.598239
 31
0.0
  0
LINE
  5
104
330
F5
100
AcDbEntity
  8
LC-004-005-----0
 62
     7
370
    25
100
AcDbLine
 10
1738.223343
 20
1551.547152
 30
0.0
 11
1740.812347
 21
1554.136157
 31
0.0
  0
LINE
  5
105
330
F5
100
AcDbEntity
  8
LC-004-005-----0
 62
     7
370
    25
100
AcDbLine
 10
1693.289148
 20
1515.098239
 30
0.0
 11
1695.789148
 21
1517.598239
 31
0.0
  0
LINE
  5
106
330
F5
100
AcDbEntity
  8
LC-004-005-----0
 62
     7
370
    25
100
AcDbLine
 10
1729.445434
 20
1551.254525
 30
0.0
 11
1732.034409
 21
1553.8435
 31
0.0
  0
LINE
  5
107
330
F5
100
AcDbEntity
  8
LC-004-005-----0
 62
     7
370
    25
100
AcDbLine
 10
1684.803866
 20
1515.098239
 30
0.0
 11
1687.303866
 21
1517.598239
 31
0.0
  0
LINE
  5
108
330
F5
100
AcDbEntity
  8
LC-004-005-----0
 62
     7
370
    25
100
AcDbLine
 10
1720.667525
 20
1550.961898
 30
0.0
 11
1723.256471
 21
1553.550844
 31
0.0
  0
LINE
  5
109
330
F5
100
AcDbEntity
  8
LC-004-005-----0
 62
     7
370
    25
100
AcDbLine
 10
1676.318585
 20
1515.098239
 30
0.0
 11
1678.818585
 21
1517.598239
 31
0.0
  0
LINE
  5
10A
330
F5
100
AcDbEntity
  8
LC-004-005-----0
 62
     7
370
    25
100
AcDbLine
 10
1711.889616
 20
1550.66927
 30
0.0
 11
1714.478533
 21
1553.258187
 31
0.0
  0
LINE
  5
10B
330
F5
100
AcDbEntity
  8
LC-004-005-----0
 62
     7
370
    25
100
AcDbLine
 10
1667.833303
 20
1515.098239
 30
0.0
 11
1670.333303
 21
1517.598239
 31
0.0
  0
LINE
  5
10C
330
F5
100
AcDbEntity
  8
LC-004-005-----0
 62
     7
370
    25
100
AcDbLine
 10
1703.111708
 20
1550.376643
 30
0.0
 11
1705.700595
 21
1552.965531
 31
0.0
  0
LINE
  5
10D
330
F5
100
AcDbEntity
  8
LC-004-005-----0
 62
     7
370
    25
100
AcDbLine
 10
1659.348022
 20
1515.098239
 30
0.0
 11
1661.848022
 21
1517.598239
 31
0.0
  0
LINE
  5
10E
330
F5
100
AcDbEntity
  8
LC-004-005-----0
 62
     7
370
    25
100
AcDbLine
 10
1694.333799
 20
1550.084016
 30
0.0
 11
1696.922657
 21
1552.672874
 31
0.0
  0
LINE
  5
10F
330
F5
100
AcDbEntity
  8
LC-004-005-----0
 62
     7
370
    25
100
AcDbLine
 10
1650.862741
 20
1515.098239
 30
0.0
 11
1653.362741
 21
1517.598239
 31
0.0
  0
LINE
  5
110
330
F5
100
AcDbEntity
  8
LC-004-005-----0
 62
     7
370
    25
100
AcDbLine
 10
1685.55589
 20
1549.791388
 30
0.0
 11
1688.144719
 21
1552.380217
 31
0.0
  0
LINE
  5
111
330
F5
100
AcDbEntity
  8
LC-004-005-----0
 62
     7
370
    25
100
AcDbLine
 10
1642.377459
 20
1515.098239
 30
0.0
 11
1644.877459
 21
1517.598239
 31
0.0
  0
LINE
  5
112
330
F5
100
AcDbEntity
  8
LC-004-005-----0
 62
     7
370
    25
100
AcDbLine
 10
1676.777982
 20
1549.498761
 30
0.0
 11
1679.366781
 21
1552.087561
 31
0.0
  0
LINE
  5
113
330
F5
100
AcDbEntity
  8
LC-004-005-----0
 62
     7
370
    25
100
AcDbLine
 10
1633.892178
 20
1515.098239
 30
0.0
 11
1636.392178
 21
1517.598239
 31
0.0
  0
LINE
  5
114
330
F5
100
AcDbEntity
  8
LC-004-005-----0
 62
     7
370
    25
100
AcDbLine
 10
1668.000073
 20
1549.206134
 30
0.0
 11
1670.588843
 21
1551.794904
 31
0.0
  0
LINE
  5
115
330
F5
100
AcDbEntity
  8
LC-004-005-----0
 62
     7
370
    25
100
AcDbLine
 10
1625.406897
 20
1515.098239
 30
0.0
 11
1627.906897
 21
1517.598239
 31
0.0
  0
LINE
  5
116
330
F5
100
AcDbEntity
  8
LC-004-005-----0
 62
     7
370
    25
100
AcDbLine
 10
1659.222164
 20
1548.913506
 30
0.0
 11
1661.810905
 21
1551.502248
 31
0.0
  0
LINE
  5
117
330
F5
100
AcDbEntity
  8
LC-004-005-----0
 62
     7
370
    25
100
AcDbLine
 10
1616.921615
 20
1515.098239
 30
0.0
 11
1619.421615
 21
1517.598239
 31
0.0
  0
LINE
  5
118
330
F5
100
AcDbEntity
  8
LC-004-005-----0
 62
     7
370
    25
100
AcDbLine
 10
1650.444255
 20
1548.620879
 30
0.0
 11
1653.032968
 21
1551.209591
 31
0.0
  0
LINE
  5
119
330
F5
100
AcDbEntity
  8
LC-004-005-----0
 62
     7
370
    25
100
AcDbLine
 10
1608.436334
 20
1515.098239
 30
0.0
 11
1610.936334
 21
1517.598239
 31
0.0
  0
LINE
  5
11A
330
F5
100
AcDbEntity
  8
LC-004-005-----0
 62
     7
370
    25
100
AcDbLine
 10
1641.666347
 20
1548.328251
 30
0.0
 11
1644.25503
 21
1550.916934
 31
0.0
  0
LINE
  5
11B
330
F5
100
AcDbEntity
  8
LC-004-005-----0
 62
     7
370
    25
100
AcDbLine
 10
1599.951052
 20
1515.098239
 30
0.0
 11
1602.451052
 21
1517.598239
 31
0.0
  0
LINE
  5
11C
330
F5
100
AcDbEntity
  8
LC-004-005-----0
 62
     7
370
    25
100
AcDbLine
 10
1632.888438
 20
1548.035624
 30
0.0
 11
1635.477092
 21
1550.624278
 31
0.0
  0
LINE
  5
11D
330
F5
100
AcDbEntity
  8
LC-004-005-----0
 62
     7
370
    25
100
AcDbLine
 10
1591.465771
 20
1515.098239
 30
0.0
 11
1593.965771
 21
1517.598239
 31
0.0
  0
LINE
  5
11E
330
F5
100
AcDbEntity
  8
LC-004-005-----0
 62
     7
370
    25
100
AcDbLine
 10
1624.110529
 20
1547.742997
 30
0.0
 11
1626.699154
 21
1550.331621
 31
0.0
  0
LINE
  5
11F
330
F5
100
AcDbEntity
  8
LC-004-005-----0
 62
     7
370
    25
100
AcDbLine
 10
1582.98049
 20
1515.098239
 30
0.0
 11
1585.48049
 21
1517.598239
 31
0.0
  0
LINE
  5
120
330
F5
100
AcDbEntity
  8
LC-004-005-----0
 62
     7
370
    25
100
AcDbLine
 10
1615.33262
 20
1547.450369
 30
0.0
 11
1617.921216
 21
1550.038965
 31
0.0
  0
LINE
  5
121
330
F5
100
AcDbEntity
  8
LC-004-005-----0
 62
     7
370
    25
100
AcDbLine
 10
1574.495208
 20
1515.098239
 30
0.0
 11
1576.995208
 21
1517.598239
 31
0.0
  0
LINE
  5
122
330
F5
100
AcDbEntity
  8
LC-004-005-----0
 62
     7
370
    25
100
AcDbLine
 10
1606.554712
 20
1547.157742
 30
0.0
 11
1609.143278
 21
1549.746308
 31
0.0
  0
LINE
  5
123
330
F5
100
AcDbEntity
  8
LC-004-005-----0
 62
     7
370
    25
100
AcDbLine
 10
1566.009927
 20
1515.098239
 30
0.0
 11
1568.509927
 21
1517.598239
 31
0.0
  0
LINE
  5
124
330
F5
100
AcDbEntity
  8
LC-004-005-----0
 62
     7
370
    25
100
AcDbLine
 10
1597.776803
 20
1546.865115
 30
0.0
 11
1600.36534
 21
1549.453652
 31
0.0
  0
LINE
  5
125
330
F5
100
AcDbEntity
  8
LC-004-005-----0
 62
     7
370
    25
100
AcDbLine
 10
1557.524646
 20
1515.098239
 30
0.0
 11
1560.024646
 21
1517.598239
 31
0.0
  0
LINE
  5
126
330
F5
100
AcDbEntity
  8
LC-004-005-----0
 62
     7
370
    25
100
AcDbLine
 10
1588.998894
 20
1546.572487
 30
0.0
 11
1591.587402
 21
1549.160995
 31
0.0
  0
LINE
  5
127
330
F5
100
AcDbEntity
  8
LC-004-005-----0
 62
     7
370
    25
100
AcDbLine
 10
1549.039364
 20
1515.098239
 30
0.0
 11
1551.539364
 21
1517.598239
 31
0.0
  0
LINE
  5
128
330
F5
100
AcDbEntity
  8
LC-004-005-----0
 62
     7
370
    25
100
AcDbLine
 10
1580.220985
 20
1546.27986
 30
0.0
 11
1582.809464
 21
1548.868338
 31
0.0
  0
LINE
  5
129
330
F5
100
AcDbEntity
  8
LC-004-005-----0
 62
     7
370
    25
100
AcDbLine
 10
1540.554083
 20
1515.098239
 30
0.0
 11
1543.054083
 21
1517.598239
 31
0.0
  0
LINE
  5
12A
330
F5
100
AcDbEntity
  8
LC-004-005-----0
 62
     7
370
    25
100
AcDbLine
 10
1571.443077
 20
1545.987233
 30
0.0
 11
1574.031526
 21
1548.575682
 31
0.0
  0
LINE
  5
12B
330
F5
100
AcDbEntity
  8
LC-004-005-----0
 62
     7
370
    25
100
AcDbLine
 10
1532.068801
 20
1515.098239
 30
0.0
 11
1534.568801
 21
1517.598239
 31
0.0
  0
LINE
  5
12C
330
F5
100
AcDbEntity
  8
LC-004-005-----0
 62
     7
370
    25
100
AcDbLine
 10
1562.665168
 20
1545.694605
 30
0.0
 11
1565.253588
 21
1548.283025
 31
0.0
  0
LINE
  5
12D
330
F5
100
AcDbEntity
  8
LC-004-005-----0
 62
     7
370
    25
100
AcDbLine
 10
1523.58352
 20
1515.098239
 30
0.0
 11
1526.08352
 21
1517.598239
 31
0.0
  0
LINE
  5
12E
330
F5
100
AcDbEntity
  8
LC-004-005-----0
 62
     7
370
    25
100
AcDbLine
 10
1553.887259
 20
1545.401978
 30
0.0
 11
1556.47565
 21
1547.990369
 31
0.0
  0
LINE
  5
12F
330
F5
100
AcDbEntity
  8
LC-004-005-----0
 62
     7
370
    25
100
AcDbLine
 10
1515.098239
 20
1515.098239
 30
0.0
 11
1517.598239
 21
1517.598239
 31
0.0
  0
LINE
  5
130
330
F5
100
AcDbEntity
  8
LC-004-005-----0
 62
     7
370
    25
100
AcDbLine
 10
1545.109351
 20
1545.109351
 30
0.0
 11
1547.697712
 21
1547.697712
 31
0.0
  0
LINE
  5
131
330
F5
100
AcDbEntity
  8
LC-004-005-----0
 62
     7
370
    25
100
AcDbLine
 10
1506.612957
 20
1515.098239
 30
0.0
 11
1509.112957
 21
1517.598239
 31
0.0
  0
LINE
  5
132
330
F5
100
AcDbEntity
  8
LC-004-005-----0
 62
     7
370
    25
100
AcDbLine
 10
1536.331442
 20
1544.816723
 30
0.0
 11
1538.919774
 21
1547.405055
 31
0.0
  0
LINE
  5
133
330
F5
100
AcDbEntity
  8
LC-004-005-----0
 62
     7
370
    25
100
AcDbLine
 10
1498.127676
 20
1515.098239
 30
0.0
 11
1500.627676
 21
1517.598239
 31
0.0
  0
LINE
  5
134
330
F5
100
AcDbEntity
  8
LC-004-005-----0
 62
     7
370
    25
100
AcDbLine
 10
1527.553533
 20
1544.524096
 30
0.0
 11
1530.141836
 21
1547.112399
 31
0.0
  0
LINE
  5
135
330
F5
100
AcDbEntity
  8
LC-004-005-----0
 62
     7
370
    25
100
AcDbLine
 10
1489.642395
 20
1515.098239
 30
0.0
 11
1492.142395
 21
1517.598239
 31
0.0
  0
LINE
  5
136
330
F5
100
AcDbEntity
  8
LC-004-005-----0
 62
     7
370
    25
100
AcDbLine
 10
1518.775624
 20
1544.231468
 30
0.0
 11
1521.363898
 21
1546.819742
 31
0.0
  0
LINE
  5
137
330
F5
100
AcDbEntity
  8
LC-004-005-----0
 62
     7
370
    25
100
AcDbLine
 10
1481.157113
 20
1515.098239
 30
0.0
 11
1483.657113
 21
1517.598239
 31
0.0
  0
LINE
  5
138
330
F5
100
AcDbEntity
  8
LC-004-005-----0
 62
     7
370
    25
100
AcDbLine
 10
1509.997716
 20
1543.938841
 30
0.0
 11
1512.58596
 21
1546.527086
 31
0.0
  0
LINE
  5
139
330
F5
100
AcDbEntity
  8
LC-004-005-----0
 62
     7
370
    25
100
AcDbLine
 10
1472.671832
 20
1515.098239
 30
0.0
 11
1475.171832
 21
1517.598239
 31
0.0
  0
LINE
  5
13A
330
F5
100
AcDbEntity
  8
LC-004-005-----0
 62
     7
370
    25
100
AcDbLine
 10
1501.219807
 20
1543.646214
 30
0.0
 11
1503.808022
 21
1546.234429
 31
0.0
  0
LINE
  5
13B
330
F5
100
AcDbEntity
  8
LC-004-005-----0
 62
     7
370
    25
100
AcDbLine
 10
1464.18655
 20
1515.098239
 30
0.0
 11
1466.68655
 21
1517.598239
 31
0.0
  0
LINE
  5
13C
330
F5
100
AcDbEntity
  8
LC-004-005-----0
 62
     7
370
    25
100
AcDbLine
 10
1492.441898
 20
1543.353586
 30
0.0
 11
1495.030084
 21
1545.941773
 31
0.0
  0
LINE
  5
13D
330
F5
100
AcDbEntity
  8
LC-004-005-----0
 62
     7
370
    25
100
AcDbLine
 10
1455.701269
 20
1515.098239
 30
0.0
 11
1458.201269
 21
1517.598239
 31
0.0
  0
LINE
  5
13E
330
F5
100
AcDbEntity
  8
LC-004-005-----0
 62
     7
370
    25
100
AcDbLine
 10
1483.663989
 20
1543.060959
 30
0.0
 11
1486.252146
 21
1545.649116
 31
0.0
  0
LINE
  5
13F
330
F5
100
AcDbEntity
  8
LC-004-005-----0
 62
     7
370
    25
100
AcDbLine
 10
1447.215988
 20
1515.098239
 30
0.0
 11
1449.715988
 21
1517.598239
 31
0.0
  0
LINE
  5
140
330
F5
100
AcDbEntity
  8
LC-004-005-----0
 62
     7
370
    25
100
AcDbLine
 10
1474.886081
 20
1542.768332
 30
0.0
 11
1477.474208
 21
1545.356459
 31
0.0
  0
LINE
  5
141
330
F5
100
AcDbEntity
  8
LC-004-005-----0
 62
     7
370
    25
100
AcDbLine
 10
1438.730706
 20
1515.098239
 30
0.0
 11
1441.230706
 21
1517.598239
 31
0.0
  0
LINE
  5
142
330
F5
100
AcDbEntity
  8
LC-004-005-----0
 62
     7
370
    25
100
AcDbLine
 10
1466.108172
 20
1542.475704
 30
0.0
 11
1468.69627
 21
1545.063803
 31
0.0
  0
LINE
  5
143
330
F5
100
AcDbEntity
  8
LC-004-005-----0
 62
     7
370
    25
100
AcDbLine
 10
1430.245425
 20
1515.098239
 30
0.0
 11
1432.745425
 21
1517.598239
 31
0.0
  0
LINE
  5
144
330
F5
100
AcDbEntity
  8
LC-004-005-----0
 62
     7
370
    25
100
AcDbLine
 10
1457.330263
 20
1542.183077
 30
0.0
 11
1459.918332
 21
1544.771146
 31
0.0
  0
LINE
  5
145
330
F5
100
AcDbEntity
  8
LC-004-005-----0
 62
     7
370
    25
100
AcDbLine
 10
1421.760144
 20
1515.098239
 30
0.0
 11
1424.260144
 21
1517.598239
 31
0.0
  0
LINE
  5
146
330
F5
100
AcDbEntity
  8
LC-004-005-----0
 62
     7
370
    25
100
AcDbLine
 10
1448.552354
 20
1541.89045
 30
0.0
 11
1451.140394
 21
1544.47849
 31
0.0
  0
LINE
  5
147
330
F5
100
AcDbEntity
  8
LC-004-005-----0
 62
     7
370
    25
100
AcDbLine
 10
1413.274862
 20
1515.098239
 30
0.0
 11
1415.774862
 21
1517.598239
 31
0.0
  0
LINE
  5
148
330
F5
100
AcDbEntity
  8
LC-004-005-----0
 62
     7
370
    25
100
AcDbLine
 10
1439.774446
 20
1541.597822
 30
0.0
 11
1442.362457
 21
1544.185833
 31
0.0
  0
LINE
  5
149
330
F5
100
AcDbEntity
  8
LC-004-005-----0
 62
     7
370
    25
100
AcDbLine
 10
1404.789581
 20
1515.098239
 30
0.0
 11
1407.289581
 21
1517.598239
 31
0.0
  0
LINE
  5
14A
330
F5
100
AcDbEntity
  8
LC-004-005-----0
 62
     7
370
    25
100
AcDbLine
 10
1430.996537
 20
1541.305195
 30
0.0
 11
1433.584519
 21
1543.893176
 31
0.0
  0
LINE
  5
14B
330
F5
100
AcDbEntity
  8
LC-004-005-----0
 62
     7
370
    25
100
AcDbLine
 10
1396.304299
 20
1515.098239
 30
0.0
 11
1398.804299
 21
1517.598239
 31
0.0
  0
LINE
  5
14C
330
F5
100
AcDbEntity
  8
LC-004-005-----0
 62
     7
370
    25
100
AcDbLine
 10
1422.218628
 20
1541.012567
 30
0.0
 11
1424.806581
 21
1543.60052
 31
0.0
  0
LINE
  5
14D
330
F5
100
AcDbEntity
  8
LC-004-005-----0
 62
     7
370
    25
100
AcDbLine
 10
1387.819018
 20
1515.098239
 30
0.0
 11
1390.319018
 21
1517.598239
 31
0.0
  0
LINE
  5
14E
330
F5
100
AcDbEntity
  8
LC-004-005-----0
 62
     7
370
    25
100
AcDbLine
 10
1413.440719
 20
1540.71994
 30
0.0
 11
1416.028643
 21
1543.307863
 31
0.0
  0
LINE
  5
14F
330
F5
100
AcDbEntity
  8
LC-004-005-----0
 62
     7
370
    25
100
AcDbLine
 10
1379.333737
 20
1515.098239
 30
0.0
 11
1381.833737
 21
1517.598239
 31
0.0
  0
LINE
  5
150
330
F5
100
AcDbEntity
  8
LC-004-005-----0
 62
     7
370
    25
100
AcDbLine
 10
1404.662811
 20
1540.427313
 30
0.0
 11
1407.250705
 21
1543.015207
 31
0.0
  0
LINE
  5
151
330
F5
100
AcDbEntity
  8
LC-004-005-----0
 62
     7
370
    25
100
AcDbLine
 10
1370.848455
 20
1515.098239
 30
0.0
 11
1373.348455
 21
1517.598239
 31
0.0
  0
LINE
  5
152
330
F5
100
AcDbEntity
  8
LC-004-005-----0
 62
     7
370
    25
100
AcDbLine
 10
1395.884902
 20
1540.134685
 30
0.0
 11
1398.472767
 21
1542.72255
 31
0.0
  0
LINE
  5
153
330
F5
100
AcDbEntity
  8
LC-004-005-----0
 62
     7
370
    25
100
AcDbLine
 10
1362.363174
 20
1515.098239
 30
0.0
 11
1364.863174
 21
1517.598239
 31
0.0
  0
LINE
  5
154
330
F5
100
AcDbEntity
  8
LC-004-005-----0
 62
     7
370
    25
100
AcDbLine
 10
1387.106993
 20
1539.842058
 30
0.0
 11
1389.694829
 21
1542.429894
 31
0.0
  0
LINE
  5
155
330
F5
100
AcDbEntity
  8
LC-004-005-----0
 62
     7
370
    25
100
AcDbLine
 10
1353.877893
 20
1515.098239
 30
0.0
 11
1356.377893
 21
1517.598239
 31
0.0
  0
LINE
  5
156
330
F5
100
AcDbEntity
  8
LC-004-005-----0
 62
     7
370
    25
100
AcDbLine
 10
1378.329085
 20
1539.549431
 30
0.0
 11
1380.916891
 21
1542.137237
 31
0.0
  0
LINE
  5
157
330
F5
100
AcDbEntity
  8
LC-004-005-----0
 62
     7
370
    25
100
AcDbLine
 10
1345.392611
 20
1515.098239
 30
0.0
 11
1347.892611
 21
1517.598239
 31
0.0
  0
LINE
  5
158
330
F5
100
AcDbEntity
  8
LC-004-005-----0
 62
     7
370
    25
100
AcDbLine
 10
1369.551176
 20
1539.256803
 30
0.0
 11
1372.138953
 21
1541.84458
 31
0.0
  0
LINE
  5
159
330
F5
100
AcDbEntity
  8
LC-004-005-----0
 62
     7
370
    25
100
AcDbLine
 10
1336.90733
 20
1515.098239
 30
0.0
 11
1339.40733
 21
1517.598239
 31
0.0
  0
LINE
  5
15A
330
F5
100
AcDbEntity
  8
LC-004-005-----0
 62
     7
370
    25
100
AcDbLine
 10
1360.773267
 20
1538.964176
 30
0.0
 11
1363.361015
 21
1541.551924
 31
0.0
  0
LINE
  5
15B
330
F5
100
AcDbEntity
  8
LC-004-005-----0
 62
     7
370
    25
100
AcDbLine
 10
1328.422049
 20
1515.098239
 30
0.0
 11
1330.922049
 21
1517.598239
 31
0.0
  0
LINE
  5
15C
330
F5
100
AcDbEntity
  8
LC-004-005-----0
 62
     7
370
    25
100
AcDbLine
 10
1351.995358
 20
1538.671549
 30
0.0
 11
1354.583077
 21
1541.259267
 31
0.0
  0
LINE
  5
15D
330
F5
100
AcDbEntity
  8
LC-004-005-----0
 62
     7
370
    25
100
AcDbLine
 10
1319.936767
 20
1515.098239
 30
0.0
 11
1322.436767
 21
1517.598239
 31
0.0
  0
LINE
  5
15E
330
F5
100
AcDbEntity
  8
LC-004-005-----0
 62
     7
370
    25
100
AcDbLine
 10
1343.21745
 20
1538.378921
 30
0.0
 11
1345.805139
 21
1540.966611
 31
0.0
  0
LINE
  5
15F
330
F5
100
AcDbEntity
  8
LC-004-005-----0
 62
     7
370
    25
100
AcDbLine
 10
1311.451486
 20
1515.098239
 30
0.0
 11
1313.951486
 21
1517.598239
 31
0.0
  0
LINE
  5
160
330
F5
100
AcDbEntity
  8
LC-004-005-----0
 62
     7
370
    25
100
AcDbLine
 10
1334.439541
 20
1538.086294
 30
0.0
 11
1337.027201
 21
1540.673954
 31
0.0
  0
LINE
  5
161
330
F5
100
AcDbEntity
  8
LC-004-005-----0
 62
     7
370
    25
100
AcDbLine
 10
1302.966204
 20
1515.098239
 30
0.0
 11
1305.466204
 21
1517.598239
 31
0.0
  0
LINE
  5
162
330
F5
100
AcDbEntity
  8
LC-004-005-----0
 62
     7
370
    25
100
AcDbLine
 10
1325.661632
 20
1537.793666
 30
0.0
 11
1328.249263
 21
1540.381297
 31
0.0
  0
LINE
  5
163
330
F5
100
AcDbEntity
  8
LC-004-005-----0
 62
     7
370
    25
100
AcDbLine
 10
1294.480923
 20
1515.098239
 30
0.0
 11
1296.980923
 21
1517.598239
 31
0.0
  0
LINE
  5
164
330
F5
100
AcDbEntity
  8
LC-004-005-----0
 62
     7
370
    25
100
AcDbLine
 10
1316.883723
 20
1537.501039
 30
0.0
 11
1319.471325
 21
1540.088641
 31
0.0
  0
LINE
  5
165
330
F5
100
AcDbEntity
  8
LC-004-005-----0
 62
     7
370
    25
100
AcDbLine
 10
1285.995642
 20
1515.098239
 30
0.0
 11
1288.495642
 21
1517.598239
 31
0.0
  0
LINE
  5
166
330
F5
100
AcDbEntity
  8
LC-004-005-----0
 62
     7
370
    25
100
AcDbLine
 10
1308.105815
 20
1537.208412
 30
0.0
 11
1310.693387
 21
1539.795984
 31
0.0
  0
LINE
  5
167
330
F5
100
AcDbEntity
  8
LC-004-005-----0
 62
     7
370
    25
100
AcDbLine
 10
1277.51036
 20
1515.098239
 30
0.0
 11
1280.01036
 21
1517.598239
 31
0.0
  0
LINE
  5
168
330
F5
100
AcDbEntity
  8
LC-004-005-----0
 62
     7
370
    25
100
AcDbLine
 10
1299.327906
 20
1536.915784
 30
0.0
 11
1301.915449
 21
1539.503328
 31
0.0
  0
LINE
  5
169
330
F5
100
AcDbEntity
  8
LC-004-005-----0
 62
     7
370
    25
100
AcDbLine
 10
1269.025079
 20
1515.098239
 30
0.0
 11
1271.525079
 21
1517.598239
 31
0.0
  0
LINE
  5
16A
330
F5
100
AcDbEntity
  8
LC-004-005-----0
 62
     7
370
    25
100
AcDbLine
 10
1290.549997
 20
1536.623157
 30
0.0
 11
1293.137511
 21
1539.210671
 31
0.0
  0
LINE
  5
16B
330
F5
100
AcDbEntity
  8
LC-004-005-----0
 62
     7
370
    25
100
AcDbLine
 10
1260.539798
 20
1515.098239
 30
0.0
 11
1263.039798
 21
1517.598239
 31
0.0
  0
LINE
  5
16C
330
F5
100
AcDbEntity
  8
LC-004-005-----0
 62
     7
370
    25
100
AcDbLine
 10
1281.772088
 20
1536.33053
 30
0.0
 11
1284.359573
 21
1538.918015
 31
0.0
  0
LINE
  5
16D
330
F5
100
AcDbEntity
  8
LC-004-005-----0
 62
     7
370
    25
100
AcDbLine
 10
1252.054516
 20
1515.098239
 30
0.0
 11
1254.554516
 21
1517.598239
 31
0.0
  0
LINE
  5
16E
330
F5
100
AcDbEntity
  8
LC-004-005-----0
 62
     7
370
    25
100
AcDbLine
 10
1272.99418
 20
1536.037902
 30
0.0
 11
1275.581635
 21
1538.625358
 31
0.0
  0
LINE
  5
16F
330
F5
100
AcDbEntity
  8
LC-004-005-----0
 62
     7
370
    25
100
AcDbLine
 10
1243.569235
 20
1515.098239
 30
0.0
 11
1246.069235
 21
1517.598239
 31
0.0
  0
LINE
  5
170
330
F5
100
AcDbEntity
  8
LC-004-005-----0
 62
     7
370
    25
100
AcDbLine
 10
1264.216271
 20
1535.745275
 30
0.0
 11
1266.803697
 21
1538.332701
 31
0.0
  0
LINE
  5
171
330
F5
100
AcDbEntity
  8
LC-004-005-----0
 62
     7
370
    25
100
AcDbLine
 10
1235.083953
 20
1515.098239
 30
0.0
 11
1237.583953
 21
1517.598239
 31
0.0
  0
LINE
  5
172
330
F5
100
AcDbEntity
  8
LC-004-005-----0
 62
     7
370
    25
100
AcDbLine
 10
1255.589899
 20
1535.604184
 30
0.0
 11
1258.088881
 21
1538.103166
 31
0.0
  0
LINE
  5
173
330
F5
100
AcDbEntity
  8
LC-004-005-----0
 62
     7
370
    25
100
AcDbLine
 10
1227.669019
 20
1516.168586
 30
0.0
 11
1229.098672
 21
1517.598239
 31
0.0
  0
LINE
  5
174
330
F5
100
AcDbEntity
  8
LC-004-005-----0
 62
     7
370
    25
100
AcDbLine
 10
1247.104617
 20
1535.604184
 30
0.0
 11
1249.603599
 21
1538.103166
 31
0.0
  0
LINE
  5
175
330
F5
100
AcDbEntity
  8
LC-004-005-----0
 62
     7
370
    25
100
AcDbLine
 10
1107.804733
 20
1515.098239
 30
0.0
 11
1110.304733
 21
1517.598239
 31
0.0
  0
LINE
  5
176
330
F5
100
AcDbEntity
  8
LC-004-005-----0
 62
     7
370
    25
100
AcDbLine
 10
1099.319451
 20
1515.098239
 30
0.0
 11
1101.819451
 21
1517.598239
 31
0.0
  0
LINE
  5
177
330
F5
100
AcDbEntity
  8
LC-004-005-----0
 62
     7
370
    25
100
AcDbLine
 10
1090.83417
 20
1515.098239
 30
0.0
 11
1093.33417
 21
1517.598239
 31
0.0
  0
LINE
  5
178
330
F5
100
AcDbEntity
  8
LC-004-005-----0
 62
     7
370
    25
100
AcDbLine
 10
1082.348889
 20
1515.098239
 30
0.0
 11
1084.848889
 21
1517.598239
 31
0.0
  0
LINE
  5
179
330
F5
100
AcDbEntity
  8
LC-004-005-----0
 62
     7
370
    25
100
AcDbLine
 10
1073.863607
 20
1515.098239
 30
0.0
 11
1076.363607
 21
1517.598239
 31
0.0
  0
LINE
  5
17A
330
F5
100
AcDbEntity
  8
LC-004-005-----0
 62
     7
370
    25
100
AcDbLine
 10
1094.373748
 20
1535.60838
 30
0.0
 11
1096.422093
 21
1537.656724
 31
0.0
  0
LINE
  5
17B
330
F5
100
AcDbEntity
  8
LC-004-005-----0
 62
     7
370
    25
100
AcDbLine
 10
1065.378326
 20
1515.098239
 30
0.0
 11
1067.878326
 21
1517.598239
 31
0.0
  0
LINE
  5
17C
330
F5
100
AcDbEntity
  8
LC-004-005-----0
 62
     7
370
    25
100
AcDbLine
 10
1085.888467
 20
1535.60838
 30
0.0
 11
1088.383253
 21
1538.103166
 31
0.0
  0
LINE
  5
17D
330
F5
100
AcDbEntity
  8
LC-004-005-----0
 62
     7
370
    25
100
AcDbLine
 10
1056.893045
 20
1515.098239
 30
0.0
 11
1059.393045
 21
1517.598239
 31
0.0
  0
LINE
  5
17E
330
F5
100
AcDbEntity
  8
LC-004-005-----0
 62
     7
370
    25
100
AcDbLine
 10
1077.462089
 20
1535.667283
 30
0.0
 11
1079.897972
 21
1538.103166
 31
0.0
  0
LINE
  5
17F
330
F5
100
AcDbEntity
  8
LC-004-005-----0
 62
     7
370
    25
100
AcDbLine
 10
1048.407763
 20
1515.098239
 30
0.0
 11
1050.907763
 21
1517.598239
 31
0.0
  0
LINE
  5
180
330
F5
100
AcDbEntity
  8
LC-004-005-----0
 62
     7
370
    25
100
AcDbLine
 10
1069.250554
 20
1535.941029
 30
0.0
 11
1071.671009
 21
1538.361485
 31
0.0
  0
LINE
  5
181
330
F5
100
AcDbEntity
  8
LC-004-005-----0
 62
     7
370
    25
100
AcDbLine
 10
1039.922482
 20
1515.098239
 30
0.0
 11
1042.422482
 21
1517.598239
 31
0.0
  0
LINE
  5
182
330
F5
100
AcDbEntity
  8
LC-004-005-----0
 62
     7
370
    25
100
AcDbLine
 10
1061.039018
 20
1536.214775
 30
0.0
 11
1063.4595
 21
1538.635257
 31
0.0
  0
LINE
  5
183
330
F5
100
AcDbEntity
  8
LC-004-005-----0
 62
     7
370
    25
100
AcDbLine
 10
1031.4372
 20
1515.098239
 30
0.0
 11
1033.9372
 21
1517.598239
 31
0.0
  0
LINE
  5
184
330
F5
100
AcDbEntity
  8
LC-004-005-----0
 62
     7
370
    25
100
AcDbLine
 10
1052.827482
 20
1536.488521
 30
0.0
 11
1055.24799
 21
1538.909029
 31
0.0
  0
LINE
  5
185
330
F5
100
AcDbEntity
  8
LC-004-005-----0
 62
     7
370
    25
100
AcDbLine
 10
1022.951919
 20
1515.098239
 30
0.0
 11
1025.451919
 21
1517.598239
 31
0.0
  0
LINE
  5
186
330
F5
100
AcDbEntity
  8
LC-004-005-----0
 62
     7
370
    25
100
AcDbLine
 10
1044.615947
 20
1536.762267
 30
0.0
 11
1047.036481
 21
1539.1828
 31
0.0
  0
LINE
  5
187
330
F5
100
AcDbEntity
  8
LC-004-005-----0
 62
     7
370
    25
100
AcDbLine
 10
1014.466638
 20
1515.098239
 30
0.0
 11
1016.966638
 21
1517.598239
 31
0.0
  0
LINE
  5
188
330
F5
100
AcDbEntity
  8
LC-004-005-----0
 62
     7
370
    25
100
AcDbLine
 10
1036.404411
 20
1537.036013
 30
0.0
 11
1038.824971
 21
1539.456572
 31
0.0
  0
LINE
  5
189
330
F5
100
AcDbEntity
  8
LC-004-005-----0
 62
     7
370
    25
100
AcDbLine
 10
1005.981356
 20
1515.098239
 30
0.0
 11
1008.481356
 21
1517.598239
 31
0.0
  0
LINE
  5
18A
330
F5
100
AcDbEntity
  8
LC-004-005-----0
 62
     7
370
    25
100
AcDbLine
 10
1028.192876
 20
1537.309758
 30
0.0
 11
1030.613462
 21
1539.730344
 31
0.0
  0
LINE
  5
18B
330
F5
100
AcDbEntity
  8
LC-004-005-----0
 62
     7
370
    25
100
AcDbLine
 10
997.496075
 20
1515.098239
 30
0.0
 11
999.996075
 21
1517.598239
 31
0.0
  0
LINE
  5
18C
330
F5
100
AcDbEntity
  8
LC-004-005-----0
 62
     7
370
    25
100
AcDbLine
 10
1019.98134
 20
1537.583504
 30
0.0
 11
1022.401952
 21
1540.004116
 31
0.0
  0
LINE
  5
18D
330
F5
100
AcDbEntity
  8
LC-004-005-----0
 62
     7
370
    25
100
AcDbLine
 10
989.010794
 20
1515.098239
 30
0.0
 11
991.510794
 21
1517.598239
 31
0.0
  0
LINE
  5
18E
330
F5
100
AcDbEntity
  8
LC-004-005-----0
 62
     7
370
    25
100
AcDbLine
 10
1011.769805
 20
1537.85725
 30
0.0
 11
1014.190443
 21
1540.277888
 31
0.0
  0
LINE
  5
18F
330
F5
100
AcDbEntity
  8
LC-004-005-----0
 62
     7
370
    25
100
AcDbLine
 10
980.525512
 20
1515.098239
 30
0.0
 11
983.025512
 21
1517.598239
 31
0.0
  0
LINE
  5
190
330
F5
100
AcDbEntity
  8
LC-004-005-----0
 62
     7
370
    25
100
AcDbLine
 10
1003.558269
 20
1538.130996
 30
0.0
 11
1005.978933
 21
1540.55166
 31
0.0
  0
LINE
  5
191
330
F5
100
AcDbEntity
  8
LC-004-005-----0
 62
     7
370
    25
100
AcDbLine
 10
972.040231
 20
1515.098239
 30
0.0
 11
974.540231
 21
1517.598239
 31
0.0
  0
LINE
  5
192
330
F5
100
AcDbEntity
  8
LC-004-005-----0
 62
     7
370
    25
100
AcDbLine
 10
995.346734
 20
1538.404742
 30
0.0
 11
997.767424
 21
1540.825432
 31
0.0
  0
LINE
  5
193
330
F5
100
AcDbEntity
  8
LC-004-005-----0
 62
     7
370
    25
100
AcDbLine
 10
963.554949
 20
1515.098239
 30
0.0
 11
966.054949
 21
1517.598239
 31
0.0
  0
LINE
  5
194
330
F5
100
AcDbEntity
  8
LC-004-005-----0
 62
     7
370
    25
100
AcDbLine
 10
987.135198
 20
1538.678488
 30
0.0
 11
989.555914
 21
1541.099203
 31
0.0
  0
LINE
  5
195
330
F5
100
AcDbEntity
  8
LC-004-005-----0
 62
     7
370
    25
100
AcDbLine
 10
955.069668
 20
1515.098239
 30
0.0
 11
957.569668
 21
1517.598239
 31
0.0
  0
LINE
  5
196
330
F5
100
AcDbEntity
  8
LC-004-005-----0
 62
     7
370
    25
100
AcDbLine
 10
978.923663
 20
1538.952233
 30
0.0
 11
981.344405
 21
1541.372975
 31
0.0
  0
LINE
  5
197
330
F5
100
AcDbEntity
  8
LC-004-005-----0
 62
     7
370
    25
100
AcDbLine
 10
946.584387
 20
1515.098239
 30
0.0
 11
949.084387
 21
1517.598239
 31
0.0
  0
LINE
  5
198
330
F5
100
AcDbEntity
  8
LC-004-005-----0
 62
     7
370
    25
100
AcDbLine
 10
970.712127
 20
1539.225979
 30
0.0
 11
973.132895
 21
1541.646747
 31
0.0
  0
LINE
  5
199
330
F5
100
AcDbEntity
  8
LC-004-005-----0
 62
     7
370
    25
100
AcDbLine
 10
938.099105
 20
1515.098239
 30
0.0
 11
940.599105
 21
1517.598239
 31
0.0
  0
LINE
  5
19A
330
F5
100
AcDbEntity
  8
LC-004-005-----0
 62
     7
370
    25
100
AcDbLine
 10
962.500592
 20
1539.499725
 30
0.0
 11
964.921385
 21
1541.920519
 31
0.0
  0
LINE
  5
19B
330
F5
100
AcDbEntity
  8
LC-004-005-----0
 62
     7
370
    25
100
AcDbLine
 10
929.613824
 20
1515.098239
 30
0.0
 11
932.113824
 21
1517.598239
 31
0.0
  0
LINE
  5
19C
330
F5
100
AcDbEntity
  8
LC-004-005-----0
 62
     7
370
    25
100
AcDbLine
 10
954.289056
 20
1539.773471
 30
0.0
 11
956.709876
 21
1542.194291
 31
0.0
  0
LINE
  5
19D
330
F5
100
AcDbEntity
  8
LC-004-005-----0
 62
     7
370
    25
100
AcDbLine
 10
921.128543
 20
1515.098239
 30
0.0
 11
923.628543
 21
1517.598239
 31
0.0
  0
LINE
  5
19E
330
F5
100
AcDbEntity
  8
LC-004-005-----0
 62
     7
370
    25
100
AcDbLine
 10
946.077521
 20
1540.047217
 30
0.0
 11
948.498366
 21
1542.468063
 31
0.0
  0
LINE
  5
19F
330
F5
100
AcDbEntity
  8
LC-004-005-----0
 62
     7
370
    25
100
AcDbLine
 10
912.643261
 20
1515.098239
 30
0.0
 11
915.143261
 21
1517.598239
 31
0.0
  0
LINE
  5
1A0
330
F5
100
AcDbEntity
  8
LC-004-005-----0
 62
     7
370
    25
100
AcDbLine
 10
937.865985
 20
1540.320963
 30
0.0
 11
940.286857
 21
1542.741834
 31
0.0
  0
LINE
  5
1A1
330
F5
100
AcDbEntity
  8
LC-004-005-----0
 62
     7
370
    25
100
AcDbLine
 10
904.15798
 20
1515.098239
 30
0.0
 11
906.65798
 21
1517.598239
 31
0.0
  0
LINE
  5
1A2
330
F5
100
AcDbEntity
  8
LC-004-005-----0
 62
     7
370
    25
100
AcDbLine
 10
929.65445
 20
1540.594709
 30
0.0
 11
932.075347
 21
1543.015606
 31
0.0
  0
LINE
  5
1A3
330
F5
100
AcDbEntity
  8
LC-004-005-----0
 62
     7
370
    25
100
AcDbLine
 10
895.672698
 20
1515.098239
 30
0.0
 11
898.172698
 21
1517.598239
 31
0.0
  0
LINE
  5
1A4
330
F5
100
AcDbEntity
  8
LC-004-005-----0
 62
     7
370
    25
100
AcDbLine
 10
921.442914
 20
1540.868454
 30
0.0
 11
923.863838
 21
1543.289378
 31
0.0
  0
LINE
  5
1A5
330
F5
100
AcDbEntity
  8
LC-004-005-----0
 62
     7
370
    25
100
AcDbLine
 10
887.187417
 20
1515.098239
 30
0.0
 11
889.687417
 21
1517.598239
 31
0.0
  0
LINE
  5
1A6
330
F5
100
AcDbEntity
  8
LC-004-005-----0
 62
     7
370
    25
100
AcDbLine
 10
913.231379
 20
1541.1422
 30
0.0
 11
915.652328
 21
1543.56315
 31
0.0
  0
LINE
  5
1A7
330
F5
100
AcDbEntity
  8
LC-004-005-----0
 62
     7
370
    25
100
AcDbLine
 10
878.702136
 20
1515.098239
 30
0.0
 11
881.202136
 21
1517.598239
 31
0.0
  0
LINE
  5
1A8
330
F5
100
AcDbEntity
  8
LC-004-005-----0
 62
     7
370
    25
100
AcDbLine
 10
905.019843
 20
1541.415946
 30
0.0
 11
907.440819
 21
1543.836922
 31
0.0
  0
LINE
  5
1A9
330
F5
100
AcDbEntity
  8
LC-004-005-----0
 62
     7
370
    25
100
AcDbLine
 10
870.216854
 20
1515.098239
 30
0.0
 11
872.716854
 21
1517.598239
 31
0.0
  0
LINE
  5
1AA
330
F5
100
AcDbEntity
  8
LC-004-005-----0
 62
     7
370
    25
100
AcDbLine
 10
896.808308
 20
1541.689692
 30
0.0
 11
899.229309
 21
1544.110694
 31
0.0
  0
LINE
  5
1AB
330
F5
100
AcDbEntity
  8
LC-004-005-----0
 62
     7
370
    25
100
AcDbLine
 10
861.731573
 20
1515.098239
 30
0.0
 11
864.231573
 21
1517.598239
 31
0.0
  0
LINE
  5
1AC
330
F5
100
AcDbEntity
  8
LC-004-005-----0
 62
     7
370
    25
100
AcDbLine
 10
888.596772
 20
1541.963438
 30
0.0
 11
891.0178
 21
1544.384466
 31
0.0
  0
LINE
  5
1AD
330
F5
100
AcDbEntity
  8
LC-004-005-----0
 62
     7
370
    25
100
AcDbLine
 10
853.246292
 20
1515.098239
 30
0.0
 11
855.746292
 21
1517.598239
 31
0.0
  0
LINE
  5
1AE
330
F5
100
AcDbEntity
  8
LC-004-005-----0
 62
     7
370
    25
100
AcDbLine
 10
880.385237
 20
1542.237184
 30
0.0
 11
882.80629
 21
1544.658237
 31
0.0
  0
LINE
  5
1AF
330
F5
100
AcDbEntity
  8
LC-004-005-----0
 62
     7
370
    25
100
AcDbLine
 10
844.76101
 20
1515.098239
 30
0.0
 11
847.26101
 21
1517.598239
 31
0.0
  0
LINE
  5
1B0
330
F5
100
AcDbEntity
  8
LC-004-005-----0
 62
     7
370
    25
100
AcDbLine
 10
872.173701
 20
1542.51093
 30
0.0
 11
874.594781
 21
1544.932009
 31
0.0
  0
LINE
  5
1B1
330
F5
100
AcDbEntity
  8
LC-004-005-----0
 62
     7
370
    25
100
AcDbLine
 10
836.275729
 20
1515.098239
 30
0.0
 11
838.775729
 21
1517.598239
 31
0.0
  0
LINE
  5
1B2
330
F5
100
AcDbEntity
  8
LC-004-005-----0
 62
     7
370
    25
100
AcDbLine
 10
863.962166
 20
1542.784675
 30
0.0
 11
866.383271
 21
1545.205781
 31
0.0
  0
LINE
  5
1B3
330
F5
100
AcDbEntity
  8
LC-004-005-----0
 62
     7
370
    25
100
AcDbLine
 10
827.790447
 20
1515.098239
 30
0.0
 11
830.290447
 21
1517.598239
 31
0.0
  0
LINE
  5
1B4
330
F5
100
AcDbEntity
  8
LC-004-005-----0
 62
     7
370
    25
100
AcDbLine
 10
855.75063
 20
1543.058421
 30
0.0
 11
858.171762
 21
1545.479553
 31
0.0
  0
LINE
  5
1B5
330
F5
100
AcDbEntity
  8
LC-004-005-----0
 62
     7
370
    25
100
AcDbLine
 10
819.305166
 20
1515.098239
 30
0.0
 11
821.805166
 21
1517.598239
 31
0.0
  0
LINE
  5
1B6
330
F5
100
AcDbEntity
  8
LC-004-005-----0
 62
     7
370
    25
100
AcDbLine
 10
847.539094
 20
1543.332167
 30
0.0
 11
849.960252
 21
1545.753325
 31
0.0
  0
LINE
  5
1B7
330
F5
100
AcDbEntity
  8
LC-004-005-----0
 62
     7
370
    25
100
AcDbLine
 10
810.819885
 20
1515.098239
 30
0.0
 11
813.319885
 21
1517.598239
 31
0.0
  0
LINE
  5
1B8
330
F5
100
AcDbEntity
  8
LC-004-005-----0
 62
     7
370
    25
100
AcDbLine
 10
839.327559
 20
1543.605913
 30
0.0
 11
841.748743
 21
1546.027097
 31
0.0
  0
LINE
  5
1B9
330
F5
100
AcDbEntity
  8
LC-004-005-----0
 62
     7
370
    25
100
AcDbLine
 10
802.334603
 20
1515.098239
 30
0.0
 11
804.834603
 21
1517.598239
 31
0.0
  0
LINE
  5
1BA
330
F5
100
AcDbEntity
  8
LC-004-005-----0
 62
     7
370
    25
100
AcDbLine
 10
831.116023
 20
1543.879659
 30
0.0
 11
833.537233
 21
1546.300869
 31
0.0
  0
LINE
  5
1BB
330
F5
100
AcDbEntity
  8
LC-004-005-----0
 62
     7
370
    25
100
AcDbLine
 10
793.849322
 20
1515.098239
 30
0.0
 11
796.349322
 21
1517.598239
 31
0.0
  0
LINE
  5
1BC
330
F5
100
AcDbEntity
  8
LC-004-005-----0
 62
     7
370
    25
100
AcDbLine
 10
822.904488
 20
1544.153405
 30
0.0
 11
825.325724
 21
1546.57464
 31
0.0
  0
LINE
  5
1BD
330
F5
100
AcDbEntity
  8
LC-004-005-----0
 62
     7
370
    25
100
AcDbLine
 10
785.364041
 20
1515.098239
 30
0.0
 11
787.864041
 21
1517.598239
 31
0.0
  0
LINE
  5
1BE
330
F5
100
AcDbEntity
  8
LC-004-005-----0
 62
     7
370
    25
100
AcDbLine
 10
814.692952
 20
1544.427151
 30
0.0
 11
817.114214
 21
1546.848412
 31
0.0
  0
LINE
  5
1BF
330
F5
100
AcDbEntity
  8
LC-004-005-----0
 62
     7
370
    25
100
AcDbLine
 10
776.878759
 20
1515.098239
 30
0.0
 11
779.378759
 21
1517.598239
 31
0.0
  0
LINE
  5
1C0
330
F5
100
AcDbEntity
  8
LC-004-005-----0
 62
     7
370
    25
100
AcDbLine
 10
806.481417
 20
1544.700896
 30
0.0
 11
808.902705
 21
1547.122184
 31
0.0
  0
LINE
  5
1C1
330
F5
100
AcDbEntity
  8
LC-004-005-----0
 62
     7
370
    25
100
AcDbLine
 10
768.393478
 20
1515.098239
 30
0.0
 11
770.893478
 21
1517.598239
 31
0.0
  0
LINE
  5
1C2
330
F5
100
AcDbEntity
  8
LC-004-005-----0
 62
     7
370
    25
100
AcDbLine
 10
798.269881
 20
1544.974642
 30
0.0
 11
800.691195
 21
1547.395956
 31
0.0
  0
LINE
  5
1C3
330
F5
100
AcDbEntity
  8
LC-004-005-----0
 62
     7
370
    25
100
AcDbLine
 10
759.908196
 20
1515.098239
 30
0.0
 11
762.408196
 21
1517.598239
 31
0.0
  0
LINE
  5
1C4
330
F5
100
AcDbEntity
  8
LC-004-005-----0
 62
     7
370
    25
100
AcDbLine
 10
790.058346
 20
1545.248388
 30
0.0
 11
792.479685
 21
1547.669728
 31
0.0
  0
LINE
  5
1C5
330
F5
100
AcDbEntity
  8
LC-004-005-----0
 62
     7
370
    25
100
AcDbLine
 10
751.422915
 20
1515.098239
 30
0.0
 11
753.922915
 21
1517.598239
 31
0.0
  0
LINE
  5
1C6
330
F5
100
AcDbEntity
  8
LC-004-005-----0
 62
     7
370
    25
100
AcDbLine
 10
781.84681
 20
1545.522134
 30
0.0
 11
784.268176
 21
1547.9435
 31
0.0
  0
LINE
  5
1C7
330
F5
100
AcDbEntity
  8
LC-004-005-----0
 62
     7
370
    25
100
AcDbLine
 10
742.937634
 20
1515.098239
 30
0.0
 11
745.437634
 21
1517.598239
 31
0.0
  0
LINE
  5
1C8
330
F5
100
AcDbEntity
  8
LC-004-005-----0
 62
     7
370
    25
100
AcDbLine
 10
773.635275
 20
1545.79588
 30
0.0
 11
776.056666
 21
1548.217271
 31
0.0
  0
LINE
  5
1C9
330
F5
100
AcDbEntity
  8
LC-004-005-----0
 62
     7
370
    25
100
AcDbLine
 10
734.452352
 20
1515.098239
 30
0.0
 11
736.952352
 21
1517.598239
 31
0.0
  0
LINE
  5
1CA
330
F5
100
AcDbEntity
  8
LC-004-005-----0
 62
     7
370
    25
100
AcDbLine
 10
765.423739
 20
1546.069626
 30
0.0
 11
767.845157
 21
1548.491043
 31
0.0
  0
LINE
  5
1CB
330
F5
100
AcDbEntity
  8
LC-004-005-----0
 62
     7
370
    25
100
AcDbLine
 10
725.967071
 20
1515.098239
 30
0.0
 11
728.467071
 21
1517.598239
 31
0.0
  0
LINE
  5
1CC
330
F5
100
AcDbEntity
  8
LC-004-005-----0
 62
     7
370
    25
100
AcDbLine
 10
757.212204
 20
1546.343372
 30
0.0
 11
759.633647
 21
1548.764815
 31
0.0
  0
LINE
  5
1CD
330
F5
100
AcDbEntity
  8
LC-004-005-----0
 62
     7
370
    25
100
AcDbLine
 10
717.48179
 20
1515.098239
 30
0.0
 11
719.98179
 21
1517.598239
 31
0.0
  0
LINE
  5
1CE
330
F5
100
AcDbEntity
  8
LC-004-005-----0
 62
     7
370
    25
100
AcDbLine
 10
749.000668
 20
1546.617117
 30
0.0
 11
751.422138
 21
1549.038587
 31
0.0
  0
LINE
  5
1CF
330
F5
100
AcDbEntity
  8
LC-004-005-----0
 62
     7
370
    25
100
AcDbLine
 10
708.996508
 20
1515.098239
 30
0.0
 11
711.496508
 21
1517.598239
 31
0.0
  0
LINE
  5
1D0
330
F5
100
AcDbEntity
  8
LC-004-005-----0
 62
     7
370
    25
100
AcDbLine
 10
740.789133
 20
1546.890863
 30
0.0
 11
743.210628
 21
1549.312359
 31
0.0
  0
LINE
  5
1D1
330
F5
100
AcDbEntity
  8
LC-004-005-----0
 62
     7
370
    25
100
AcDbLine
 10
700.511227
 20
1515.098239
 30
0.0
 11
703.011227
 21
1517.598239
 31
0.0
  0
LINE
  5
1D2
330
F5
100
AcDbEntity
  8
LC-004-005-----0
 62
     7
370
    25
100
AcDbLine
 10
732.577597
 20
1547.164609
 30
0.0
 11
734.999119
 21
1549.586131
 31
0.0
  0
LINE
  5
1D3
330
F5
100
AcDbEntity
  8
LC-004-005-----0
 62
     7
370
    25
100
AcDbLine
 10
692.025945
 20
1515.098239
 30
0.0
 11
694.525945
 21
1517.598239
 31
0.0
  0
LINE
  5
1D4
330
F5
100
AcDbEntity
  8
LC-004-005-----0
 62
     7
370
    25
100
AcDbLine
 10
724.366062
 20
1547.438355
 30
0.0
 11
726.787609
 21
1549.859903
 31
0.0
  0
LINE
  5
1D5
330
F5
100
AcDbEntity
  8
LC-004-005-----0
 62
     7
370
    25
100
AcDbLine
 10
683.540664
 20
1515.098239
 30
0.0
 11
686.040664
 21
1517.598239
 31
0.0
  0
LINE
  5
1D6
330
F5
100
AcDbEntity
  8
LC-004-005-----0
 62
     7
370
    25
100
AcDbLine
 10
716.154526
 20
1547.712101
 30
0.0
 11
718.5761
 21
1550.133674
 31
0.0
  0
LINE
  5
1D7
330
F5
100
AcDbEntity
  8
LC-004-005-----0
 62
     7
370
    25
100
AcDbLine
 10
675.055383
 20
1515.098239
 30
0.0
 11
677.555383
 21
1517.598239
 31
0.0
  0
LINE
  5
1D8
330
F5
100
AcDbEntity
  8
LC-004-005-----0
 62
     7
370
    25
100
AcDbLine
 10
707.942991
 20
1547.985847
 30
0.0
 11
710.36459
 21
1550.407446
 31
0.0
  0
LINE
  5
1D9
330
F5
100
AcDbEntity
  8
LC-004-005-----0
 62
     7
370
    25
100
AcDbLine
 10
666.570101
 20
1515.098239
 30
0.0
 11
669.070101
 21
1517.598239
 31
0.0
  0
LINE
  5
1DA
330
F5
100
AcDbEntity
  8
LC-004-005-----0
 62
     7
370
    25
100
AcDbLine
 10
699.731455
 20
1548.259593
 30
0.0
 11
702.153081
 21
1550.681218
 31
0.0
  0
LINE
  5
1DB
330
F5
100
AcDbEntity
  8
LC-004-005-----0
 62
     7
370
    25
100
AcDbLine
 10
658.08482
 20
1515.098239
 30
0.0
 11
660.58482
 21
1517.598239
 31
0.0
  0
LINE
  5
1DC
330
F5
100
AcDbEntity
  8
LC-004-005-----0
 62
     7
370
    25
100
AcDbLine
 10
691.51992
 20
1548.533338
 30
0.0
 11
693.941571
 21
1550.95499
 31
0.0
  0
LINE
  5
1DD
330
F5
100
AcDbEntity
  8
LC-004-005-----0
 62
     7
370
    25
100
AcDbLine
 10
649.599539
 20
1515.098239
 30
0.0
 11
652.099539
 21
1517.598239
 31
0.0
  0
LINE
  5
1DE
330
F5
100
AcDbEntity
  8
LC-004-005-----0
 62
     7
370
    25
100
AcDbLine
 10
683.308384
 20
1548.807084
 30
0.0
 11
685.730062
 21
1551.228762
 31
0.0
  0
LINE
  5
1DF
330
F5
100
AcDbEntity
  8
LC-004-005-----0
 62
     7
370
    25
100
AcDbLine
 10
641.114257
 20
1515.098239
 30
0.0
 11
643.614257
 21
1517.598239
 31
0.0
  0
LINE
  5
1E0
330
F5
100
AcDbEntity
  8
LC-004-005-----0
 62
     7
370
    25
100
AcDbLine
 10
675.096849
 20
1549.08083
 30
0.0
 11
677.518552
 21
1551.502534
 31
0.0
  0
LINE
  5
1E1
330
F5
100
AcDbEntity
  8
LC-004-005-----0
 62
     7
370
    25
100
AcDbLine
 10
632.628976
 20
1515.098239
 30
0.0
 11
635.128976
 21
1517.598239
 31
0.0
  0
LINE
  5
1E2
330
F5
100
AcDbEntity
  8
LC-004-005-----0
 62
     7
370
    25
100
AcDbLine
 10
666.885313
 20
1549.354576
 30
0.0
 11
669.307043
 21
1551.776306
 31
0.0
  0
LINE
  5
1E3
330
F5
100
AcDbEntity
  8
LC-004-005-----0
 62
     7
370
    25
100
AcDbLine
 10
624.143694
 20
1515.098239
 30
0.0
 11
626.643694
 21
1517.598239
 31
0.0
  0
LINE
  5
1E4
330
F5
100
AcDbEntity
  8
LC-004-005-----0
 62
     7
370
    25
100
AcDbLine
 10
658.673778
 20
1549.628322
 30
0.0
 11
661.095533
 21
1552.050077
 31
0.0
  0
LINE
  5
1E5
330
F5
100
AcDbEntity
  8
LC-004-005-----0
 62
     7
370
    25
100
AcDbLine
 10
615.658413
 20
1515.098239
 30
0.0
 11
618.158413
 21
1517.598239
 31
0.0
  0
LINE
  5
1E6
330
F5
100
AcDbEntity
  8
LC-004-005-----0
 62
     7
370
    25
100
AcDbLine
 10
650.462242
 20
1549.902068
 30
0.0
 11
652.884024
 21
1552.323849
 31
0.0
  0
LINE
  5
1E7
330
F5
100
AcDbEntity
  8
LC-004-005-----0
 62
     7
370
    25
100
AcDbLine
 10
607.173132
 20
1515.098239
 30
0.0
 11
609.673132
 21
1517.598239
 31
0.0
  0
LINE
  5
1E8
330
F5
100
AcDbEntity
  8
LC-004-005-----0
 62
     7
370
    25
100
AcDbLine
 10
642.250706
 20
1550.175814
 30
0.0
 11
644.672514
 21
1552.597621
 31
0.0
  0
LINE
  5
1E9
330
F5
100
AcDbEntity
  8
LC-004-005-----0
 62
     7
370
    25
100
AcDbLine
 10
598.68785
 20
1515.098239
 30
0.0
 11
601.18785
 21
1517.598239
 31
0.0
  0
LINE
  5
1EA
330
F5
100
AcDbEntity
  8
LC-004-005-----0
 62
     7
370
    25
100
AcDbLine
 10
634.039171
 20
1550.449559
 30
0.0
 11
636.461005
 21
1552.871393
 31
0.0
  0
LINE
  5
1EB
330
F5
100
AcDbEntity
  8
LC-004-005-----0
 62
     7
370
    25
100
AcDbLine
 10
590.202569
 20
1515.098239
 30
0.0
 11
592.702569
 21
1517.598239
 31
0.0
  0
LINE
  5
1EC
330
F5
100
AcDbEntity
  8
LC-004-005-----0
 62
     7
370
    25
100
AcDbLine
 10
625.827635
 20
1550.723305
 30
0.0
 11
628.249495
 21
1553.145165
 31
0.0
  0
LINE
  5
1ED
330
F5
100
AcDbEntity
  8
LC-004-005-----0
 62
     7
370
    25
100
AcDbLine
 10
581.717288
 20
1515.098239
 30
0.0
 11
584.217288
 21
1517.598239
 31
0.0
  0
LINE
  5
1EE
330
F5
100
AcDbEntity
  8
LC-004-005-----0
 62
     7
370
    25
100
AcDbLine
 10
617.6161
 20
1550.997051
 30
0.0
 11
620.037985
 21
1553.418937
 31
0.0
  0
LINE
  5
1EF
330
F5
100
AcDbEntity
  8
LC-004-005-----0
 62
     7
370
    25
100
AcDbLine
 10
573.232006
 20
1515.098239
 30
0.0
 11
575.732006
 21
1517.598239
 31
0.0
  0
LINE
  5
1F0
330
F5
100
AcDbEntity
  8
LC-004-005-----0
 62
     7
370
    25
100
AcDbLine
 10
609.404564
 20
1551.270797
 30
0.0
 11
611.826476
 21
1553.692708
 31
0.0
  0
LINE
  5
1F1
330
F5
100
AcDbEntity
  8
LC-004-005-----0
 62
     7
370
    25
100
AcDbLine
 10
601.193029
 20
1551.544543
 30
0.0
 11
603.614966
 21
1553.96648
 31
0.0
  0
LINE
  5
1F2
330
F5
100
AcDbEntity
  8
LC-004-005-----0
 62
     7
370
    25
100
AcDbLine
 10
592.981493
 20
1551.818289
 30
0.0
 11
595.403457
 21
1554.240252
 31
0.0
  0
LINE
  5
1F3
330
F5
100
AcDbEntity
  8
LC-004-005-----0
 62
     7
370
    25
100
AcDbLine
 10
584.769958
 20
1552.092034
 30
0.0
 11
587.191947
 21
1554.514024
 31
0.0
  0
LINE
  5
1F4
330
F5
100
AcDbEntity
  8
LC-004-005-----0
 62
     7
370
    25
100
AcDbLine
 10
576.558422
 20
1552.36578
 30
0.0
 11
578.980438
 21
1554.787796
 31
0.0
  0
LINE
  5
1F5
330
F5
100
AcDbEntity
  8
LC-004-005-----0
 62
     7
370
    25
100
AcDbLine
 10
569.669019
 20
1553.961659
 30
0.0
 11
570.768928
 21
1555.061568
 31
0.0
  0
ENDBLK
  5
F7
330
F5
100
AcDbEntity
  8
0
100
AcDbBlockEnd
  0
BLOCK
  5
1F9
330
1F8
100
AcDbEntity
  8
0
100
AcDbBlockBegin
  2
*X46
 70
     1
 71
     0
 10
0.0
 20
0.0
 30
0.0
  3
*X46
  1

  4
*X4
  0
LINE
  5
1FB
330
1F8
100
AcDbEntity
  8
LC-004-005-----0
 62
     7
370
    25
100
AcDbLine
 10
1110.304733
 20
1517.598239
 30
0.0
 11
1111.456564
 21
1518.75007
 31
0.0
  0
LINE
  5
1FC
330
1F8
100
AcDbEntity
  8
LC-004-005-----0
 62
     7
370
    25
100
AcDbLine
 10
1101.819451
 20
1517.598239
 30
0.0
 11
1106.273353
 21
1522.05214
 31
0.0
  0
LINE
  5
1FD
330
1F8
100
AcDbEntity
  8
LC-004-005-----0
 62
     7
370
    25
100
AcDbLine
 10
1093.33417
 20
1517.598239
 30
0.0
 11
1101.090141
 21
1525.35421
 31
0.0
  0
LINE
  5
1FE
330
1F8
100
AcDbEntity
  8
LC-004-005-----0
 62
     7
370
    25
100
AcDbLine
 10
1084.848889
 20
1517.598239
 30
0.0
 11
1095.90693
 21
1528.65628
 31
0.0
  0
LINE
  5
1FF
330
1F8
100
AcDbEntity
  8
LC-004-005-----0
 62
     7
370
    25
100
AcDbLine
 10
1076.363607
 20
1517.598239
 30
0.0
 11
1092.872811
 21
1534.107442
 31
0.0
  0
LINE
  5
200
330
1F8
100
AcDbEntity
  8
LC-004-005-----0
 62
     7
370
    25
100
AcDbLine
 10
1067.878326
 20
1517.598239
 30
0.0
 11
1084.387529
 21
1534.107442
 31
0.0
  0
LINE
  5
201
330
1F8
100
AcDbEntity
  8
LC-004-005-----0
 62
     7
370
    25
100
AcDbLine
 10
1059.393045
 20
1517.598239
 30
0.0
 11
1077.462063
 21
1535.667257
 31
0.0
  0
LINE
  5
202
330
1F8
100
AcDbEntity
  8
LC-004-005-----0
 62
     7
370
    25
100
AcDbLine
 10
1050.907763
 20
1517.598239
 30
0.0
 11
1069.250528
 21
1535.941003
 31
0.0
  0
LINE
  5
203
330
1F8
100
AcDbEntity
  8
LC-004-005-----0
 62
     7
370
    25
100
AcDbLine
 10
1042.422482
 20
1517.598239
 30
0.0
 11
1061.038993
 21
1536.21475
 31
0.0
  0
LINE
  5
204
330
1F8
100
AcDbEntity
  8
LC-004-005-----0
 62
     7
370
    25
100
AcDbLine
 10
1033.9372
 20
1517.598239
 30
0.0
 11
1052.827457
 21
1536.488496
 31
0.0
  0
LINE
  5
205
330
1F8
100
AcDbEntity
  8
LC-004-005-----0
 62
     7
370
    25
100
AcDbLine
 10
1025.451919
 20
1517.598239
 30
0.0
 11
1044.615922
 21
1536.762242
 31
0.0
  0
LINE
  5
206
330
1F8
100
AcDbEntity
  8
LC-004-005-----0
 62
     7
370
    25
100
AcDbLine
 10
1016.966638
 20
1517.598239
 30
0.0
 11
1036.404387
 21
1537.035988
 31
0.0
  0
LINE
  5
207
330
1F8
100
AcDbEntity
  8
LC-004-005-----0
 62
     7
370
    25
100
AcDbLine
 10
1008.481356
 20
1517.598239
 30
0.0
 11
1028.192852
 21
1537.309735
 31
0.0
  0
LINE
  5
208
330
1F8
100
AcDbEntity
  8
LC-004-005-----0
 62
     7
370
    25
100
AcDbLine
 10
999.996075
 20
1517.598239
 30
0.0
 11
1019.981317
 21
1537.583481
 31
0.0
  0
LINE
  5
209
330
1F8
100
AcDbEntity
  8
LC-004-005-----0
 62
     7
370
    25
100
AcDbLine
 10
991.510794
 20
1517.598239
 30
0.0
 11
1011.769782
 21
1537.857227
 31
0.0
  0
LINE
  5
20A
330
1F8
100
AcDbEntity
  8
LC-004-005-----0
 62
     7
370
    25
100
AcDbLine
 10
983.025512
 20
1517.598239
 30
0.0
 11
1003.558247
 21
1538.130973
 31
0.0
  0
LINE
  5
20B
330
1F8
100
AcDbEntity
  8
LC-004-005-----0
 62
     7
370
    25
100
AcDbLine
 10
974.540231
 20
1517.598239
 30
0.0
 11
995.346712
 21
1538.40472
 31
0.0
  0
LINE
  5
20C
330
1F8
100
AcDbEntity
  8
LC-004-005-----0
 62
     7
370
    25
100
AcDbLine
 10
966.054949
 20
1517.598239
 30
0.0
 11
987.135177
 21
1538.678466
 31
0.0
  0
LINE
  5
20D
330
1F8
100
AcDbEntity
  8
LC-004-005-----0
 62
     7
370
    25
100
AcDbLine
 10
957.569668
 20
1517.598239
 30
0.0
 11
978.923642
 21
1538.952212
 31
0.0
  0
LINE
  5
20E
330
1F8
100
AcDbEntity
  8
LC-004-005-----0
 62
     7
370
    25
100
AcDbLine
 10
949.084387
 20
1517.598239
 30
0.0
 11
970.712107
 21
1539.225959
 31
0.0
  0
LINE
  5
20F
330
1F8
100
AcDbEntity
  8
LC-004-005-----0
 62
     7
370
    25
100
AcDbLine
 10
940.599105
 20
1517.598239
 30
0.0
 11
962.500571
 21
1539.499705
 31
0.0
  0
LINE
  5
210
330
1F8
100
AcDbEntity
  8
LC-004-005-----0
 62
     7
370
    25
100
AcDbLine
 10
932.113824
 20
1517.598239
 30
0.0
 11
954.289036
 21
1539.773451
 31
0.0
  0
LINE
  5
211
330
1F8
100
AcDbEntity
  8
LC-004-005-----0
 62
     7
370
    25
100
AcDbLine
 10
923.628543
 20
1517.598239
 30
0.0
 11
946.077501
 21
1540.047197
 31
0.0
  0
LINE
  5
212
330
1F8
100
AcDbEntity
  8
LC-004-005-----0
 62
     7
370
    25
100
AcDbLine
 10
915.143261
 20
1517.598239
 30
0.0
 11
937.865966
 21
1540.320944
 31
0.0
  0
LINE
  5
213
330
1F8
100
AcDbEntity
  8
LC-004-005-----0
 62
     7
370
    25
100
AcDbLine
 10
906.65798
 20
1517.598239
 30
0.0
 11
929.654431
 21
1540.59469
 31
0.0
  0
LINE
  5
214
330
1F8
100
AcDbEntity
  8
LC-004-005-----0
 62
     7
370
    25
100
AcDbLine
 10
898.172698
 20
1517.598239
 30
0.0
 11
921.442896
 21
1540.868436
 31
0.0
  0
LINE
  5
215
330
1F8
100
AcDbEntity
  8
LC-004-005-----0
 62
     7
370
    25
100
AcDbLine
 10
889.687417
 20
1517.598239
 30
0.0
 11
913.231361
 21
1541.142183
 31
0.0
  0
LINE
  5
216
330
1F8
100
AcDbEntity
  8
LC-004-005-----0
 62
     7
370
    25
100
AcDbLine
 10
881.202136
 20
1517.598239
 30
0.0
 11
905.019826
 21
1541.415929
 31
0.0
  0
LINE
  5
217
330
1F8
100
AcDbEntity
  8
LC-004-005-----0
 62
     7
370
    25
100
AcDbLine
 10
872.716854
 20
1517.598239
 30
0.0
 11
896.808291
 21
1541.689675
 31
0.0
  0
LINE
  5
218
330
1F8
100
AcDbEntity
  8
LC-004-005-----0
 62
     7
370
    25
100
AcDbLine
 10
864.231573
 20
1517.598239
 30
0.0
 11
888.596756
 21
1541.963421
 31
0.0
  0
LINE
  5
219
330
1F8
100
AcDbEntity
  8
LC-004-005-----0
 62
     7
370
    25
100
AcDbLine
 10
855.746292
 20
1517.598239
 30
0.0
 11
880.38522
 21
1542.237168
 31
0.0
  0
LINE
  5
21A
330
1F8
100
AcDbEntity
  8
LC-004-005-----0
 62
     7
370
    25
100
AcDbLine
 10
847.26101
 20
1517.598239
 30
0.0
 11
872.173685
 21
1542.510914
 31
0.0
  0
LINE
  5
21B
330
1F8
100
AcDbEntity
  8
LC-004-005-----0
 62
     7
370
    25
100
AcDbLine
 10
838.775729
 20
1517.598239
 30
0.0
 11
863.96215
 21
1542.78466
 31
0.0
  0
LINE
  5
21C
330
1F8
100
AcDbEntity
  8
LC-004-005-----0
 62
     7
370
    25
100
AcDbLine
 10
830.290447
 20
1517.598239
 30
0.0
 11
855.750615
 21
1543.058407
 31
0.0
  0
LINE
  5
21D
330
1F8
100
AcDbEntity
  8
LC-004-005-----0
 62
     7
370
    25
100
AcDbLine
 10
821.805166
 20
1517.598239
 30
0.0
 11
847.53908
 21
1543.332153
 31
0.0
  0
LINE
  5
21E
330
1F8
100
AcDbEntity
  8
LC-004-005-----0
 62
     7
370
    25
100
AcDbLine
 10
813.319885
 20
1517.598239
 30
0.0
 11
839.327545
 21
1543.605899
 31
0.0
  0
LINE
  5
21F
330
1F8
100
AcDbEntity
  8
LC-004-005-----0
 62
     7
370
    25
100
AcDbLine
 10
804.834603
 20
1517.598239
 30
0.0
 11
831.11601
 21
1543.879645
 31
0.0
  0
LINE
  5
220
330
1F8
100
AcDbEntity
  8
LC-004-005-----0
 62
     7
370
    25
100
AcDbLine
 10
796.349322
 20
1517.598239
 30
0.0
 11
822.904475
 21
1544.153392
 31
0.0
  0
LINE
  5
221
330
1F8
100
AcDbEntity
  8
LC-004-005-----0
 62
     7
370
    25
100
AcDbLine
 10
787.864041
 20
1517.598239
 30
0.0
 11
814.69294
 21
1544.427138
 31
0.0
  0
LINE
  5
222
330
1F8
100
AcDbEntity
  8
LC-004-005-----0
 62
     7
370
    25
100
AcDbLine
 10
779.378759
 20
1517.598239
 30
0.0
 11
806.481405
 21
1544.700884
 31
0.0
  0
LINE
  5
223
330
1F8
100
AcDbEntity
  8
LC-004-005-----0
 62
     7
370
    25
100
AcDbLine
 10
770.893478
 20
1517.598239
 30
0.0
 11
798.26987
 21
1544.97463
 31
0.0
  0
LINE
  5
224
330
1F8
100
AcDbEntity
  8
LC-004-005-----0
 62
     7
370
    25
100
AcDbLine
 10
762.408196
 20
1517.598239
 30
0.0
 11
790.058334
 21
1545.248377
 31
0.0
  0
LINE
  5
225
330
1F8
100
AcDbEntity
  8
LC-004-005-----0
 62
     7
370
    25
100
AcDbLine
 10
753.922915
 20
1517.598239
 30
0.0
 11
781.846799
 21
1545.522123
 31
0.0
  0
LINE
  5
226
330
1F8
100
AcDbEntity
  8
LC-004-005-----0
 62
     7
370
    25
100
AcDbLine
 10
745.437634
 20
1517.598239
 30
0.0
 11
773.635264
 21
1545.795869
 31
0.0
  0
LINE
  5
227
330
1F8
100
AcDbEntity
  8
LC-004-005-----0
 62
     7
370
    25
100
AcDbLine
 10
736.952352
 20
1517.598239
 30
0.0
 11
765.423729
 21
1546.069616
 31
0.0
  0
LINE
  5
228
330
1F8
100
AcDbEntity
  8
LC-004-005-----0
 62
     7
370
    25
100
AcDbLine
 10
728.467071
 20
1517.598239
 30
0.0
 11
757.212194
 21
1546.343362
 31
0.0
  0
LINE
  5
229
330
1F8
100
AcDbEntity
  8
LC-004-005-----0
 62
     7
370
    25
100
AcDbLine
 10
719.98179
 20
1517.598239
 30
0.0
 11
749.000659
 21
1546.617108
 31
0.0
  0
LINE
  5
22A
330
1F8
100
AcDbEntity
  8
LC-004-005-----0
 62
     7
370
    25
100
AcDbLine
 10
711.496508
 20
1517.598239
 30
0.0
 11
740.789124
 21
1546.890854
 31
0.0
  0
LINE
  5
22B
330
1F8
100
AcDbEntity
  8
LC-004-005-----0
 62
     7
370
    25
100
AcDbLine
 10
703.011227
 20
1517.598239
 30
0.0
 11
732.577589
 21
1547.164601
 31
0.0
  0
LINE
  5
22C
330
1F8
100
AcDbEntity
  8
LC-004-005-----0
 62
     7
370
    25
100
AcDbLine
 10
694.525945
 20
1517.598239
 30
0.0
 11
724.366054
 21
1547.438347
 31
0.0
  0
LINE
  5
22D
330
1F8
100
AcDbEntity
  8
LC-004-005-----0
 62
     7
370
    25
100
AcDbLine
 10
686.040664
 20
1517.598239
 30
0.0
 11
716.154519
 21
1547.712093
 31
0.0
  0
LINE
  5
22E
330
1F8
100
AcDbEntity
  8
LC-004-005-----0
 62
     7
370
    25
100
AcDbLine
 10
677.555383
 20
1517.598239
 30
0.0
 11
707.942983
 21
1547.98584
 31
0.0
  0
LINE
  5
22F
330
1F8
100
AcDbEntity
  8
LC-004-005-----0
 62
     7
370
    25
100
AcDbLine
 10
669.070101
 20
1517.598239
 30
0.0
 11
699.731448
 21
1548.259586
 31
0.0
  0
LINE
  5
230
330
1F8
100
AcDbEntity
  8
LC-004-005-----0
 62
     7
370
    25
100
AcDbLine
 10
660.58482
 20
1517.598239
 30
0.0
 11
691.519913
 21
1548.533332
 31
0.0
  0
LINE
  5
231
330
1F8
100
AcDbEntity
  8
LC-004-005-----0
 62
     7
370
    25
100
AcDbLine
 10
652.099539
 20
1517.598239
 30
0.0
 11
683.308378
 21
1548.807078
 31
0.0
  0
LINE
  5
232
330
1F8
100
AcDbEntity
  8
LC-004-005-----0
 62
     7
370
    25
100
AcDbLine
 10
643.614257
 20
1517.598239
 30
0.0
 11
675.096843
 21
1549.080825
 31
0.0
  0
LINE
  5
233
330
1F8
100
AcDbEntity
  8
LC-004-005-----0
 62
     7
370
    25
100
AcDbLine
 10
635.128976
 20
1517.598239
 30
0.0
 11
666.885308
 21
1549.354571
 31
0.0
  0
LINE
  5
234
330
1F8
100
AcDbEntity
  8
LC-004-005-----0
 62
     7
370
    25
100
AcDbLine
 10
626.643694
 20
1517.598239
 30
0.0
 11
658.673773
 21
1549.628317
 31
0.0
  0
LINE
  5
235
330
1F8
100
AcDbEntity
  8
LC-004-005-----0
 62
     7
370
    25
100
AcDbLine
 10
618.158413
 20
1517.598239
 30
0.0
 11
650.462238
 21
1549.902063
 31
0.0
  0
LINE
  5
236
330
1F8
100
AcDbEntity
  8
LC-004-005-----0
 62
     7
370
    25
100
AcDbLine
 10
609.673132
 20
1517.598239
 30
0.0
 11
642.250703
 21
1550.17581
 31
0.0
  0
LINE
  5
237
330
1F8
100
AcDbEntity
  8
LC-004-005-----0
 62
     7
370
    25
100
AcDbLine
 10
601.18785
 20
1517.598239
 30
0.0
 11
634.039168
 21
1550.449556
 31
0.0
  0
LINE
  5
238
330
1F8
100
AcDbEntity
  8
LC-004-005-----0
 62
     7
370
    25
100
AcDbLine
 10
592.702569
 20
1517.598239
 30
0.0
 11
625.827633
 21
1550.723302
 31
0.0
  0
LINE
  5
239
330
1F8
100
AcDbEntity
  8
LC-004-005-----0
 62
     7
370
    25
100
AcDbLine
 10
584.217288
 20
1517.598239
 30
0.0
 11
617.616097
 21
1550.997049
 31
0.0
  0
LINE
  5
23A
330
1F8
100
AcDbEntity
  8
LC-004-005-----0
 62
     7
370
    25
100
AcDbLine
 10
575.732006
 20
1517.598239
 30
0.0
 11
609.404562
 21
1551.270795
 31
0.0
  0
LINE
  5
23B
330
1F8
100
AcDbEntity
  8
LC-004-005-----0
 62
     7
370
    25
100
AcDbLine
 10
569.669019
 20
1520.020533
 30
0.0
 11
601.193027
 21
1551.544541
 31
0.0
  0
LINE
  5
23C
330
1F8
100
AcDbEntity
  8
LC-004-005-----0
 62
     7
370
    25
100
AcDbLine
 10
569.669019
 20
1528.505815
 30
0.0
 11
592.981492
 21
1551.818287
 31
0.0
  0
LINE
  5
23D
330
1F8
100
AcDbEntity
  8
LC-004-005-----0
 62
     7
370
    25
100
AcDbLine
 10
569.669019
 20
1536.991096
 30
0.0
 11
584.769957
 21
1552.092034
 31
0.0
  0
LINE
  5
23E
330
1F8
100
AcDbEntity
  8
LC-004-005-----0
 62
     7
370
    25
100
AcDbLine
 10
569.669019
 20
1545.476377
 30
0.0
 11
576.558422
 21
1552.36578
 31
0.0
  0
ENDBLK
  5
1FA
330
1F8
100
AcDbEntity
  8
0
100
AcDbBlockEnd
  0
BLOCK
  5
241
330
240
100
AcDbEntity
  8
0
100
AcDbBlockBegin
  2
*X57
 70
     1
 71
     0
 10
0.0
 20
0.0
 30
0.0
  3
*X57
  1

  4
*X5
  0
LINE
  5
243
330
240
100
AcDbEntity
  8
LC-004-005-----0
 62
     7
370
    25
100
AcDbLine
 10
1763.671399
 20
1517.598239
 30
0.0
 11
1769.669019
 21
1523.595859
 31
0.0
  0
LINE
  5
244
330
240
100
AcDbEntity
  8
LC-004-005-----0
 62
     7
370
    25
100
AcDbLine
 10
1755.186117
 20
1517.598239
 30
0.0
 11
1769.669019
 21
1532.081141
 31
0.0
  0
LINE
  5
245
330
240
100
AcDbEntity
  8
LC-004-005-----0
 62
     7
370
    25
100
AcDbLine
 10
1746.700836
 20
1517.598239
 30
0.0
 11
1769.669019
 21
1540.566422
 31
0.0
  0
LINE
  5
246
330
240
100
AcDbEntity
  8
LC-004-005-----0
 62
     7
370
    25
100
AcDbLine
 10
1738.215554
 20
1517.598239
 30
0.0
 11
1769.669019
 21
1549.051704
 31
0.0
  0
LINE
  5
247
330
240
100
AcDbEntity
  8
LC-004-005-----0
 62
     7
370
    25
100
AcDbLine
 10
1729.730273
 20
1517.598239
 30
0.0
 11
1764.557069
 21
1552.425035
 31
0.0
  0
LINE
  5
248
330
240
100
AcDbEntity
  8
LC-004-005-----0
 62
     7
370
    25
100
AcDbLine
 10
1721.244992
 20
1517.598239
 30
0.0
 11
1755.77916
 21
1552.132407
 31
0.0
  0
LINE
  5
249
330
240
100
AcDbEntity
  8
LC-004-005-----0
 62
     7
370
    25
100
AcDbLine
 10
1712.75971
 20
1517.598239
 30
0.0
 11
1747.001251
 21
1551.83978
 31
0.0
  0
LINE
  5
24A
330
240
100
AcDbEntity
  8
LC-004-005-----0
 62
     7
370
    25
100
AcDbLine
 10
1704.274429
 20
1517.598239
 30
0.0
 11
1738.223343
 21
1551.547152
 31
0.0
  0
LINE
  5
24B
330
240
100
AcDbEntity
  8
LC-004-005-----0
 62
     7
370
    25
100
AcDbLine
 10
1695.789148
 20
1517.598239
 30
0.0
 11
1729.445434
 21
1551.254525
 31
0.0
  0
LINE
  5
24C
330
240
100
AcDbEntity
  8
LC-004-005-----0
 62
     7
370
    25
100
AcDbLine
 10
1687.303866
 20
1517.598239
 30
0.0
 11
1720.667525
 21
1550.961898
 31
0.0
  0
LINE
  5
24D
330
240
100
AcDbEntity
  8
LC-004-005-----0
 62
     7
370
    25
100
AcDbLine
 10
1678.818585
 20
1517.598239
 30
0.0
 11
1711.889616
 21
1550.66927
 31
0.0
  0
LINE
  5
24E
330
240
100
AcDbEntity
  8
LC-004-005-----0
 62
     7
370
    25
100
AcDbLine
 10
1670.333303
 20
1517.598239
 30
0.0
 11
1703.111708
 21
1550.376643
 31
0.0
  0
LINE
  5
24F
330
240
100
AcDbEntity
  8
LC-004-005-----0
 62
     7
370
    25
100
AcDbLine
 10
1661.848022
 20
1517.598239
 30
0.0
 11
1694.333799
 21
1550.084016
 31
0.0
  0
LINE
  5
250
330
240
100
AcDbEntity
  8
LC-004-005-----0
 62
     7
370
    25
100
AcDbLine
 10
1653.362741
 20
1517.598239
 30
0.0
 11
1685.55589
 21
1549.791388
 31
0.0
  0
LINE
  5
251
330
240
100
AcDbEntity
  8
LC-004-005-----0
 62
     7
370
    25
100
AcDbLine
 10
1644.877459
 20
1517.598239
 30
0.0
 11
1676.777982
 21
1549.498761
 31
0.0
  0
LINE
  5
252
330
240
100
AcDbEntity
  8
LC-004-005-----0
 62
     7
370
    25
100
AcDbLine
 10
1636.392178
 20
1517.598239
 30
0.0
 11
1668.000073
 21
1549.206134
 31
0.0
  0
LINE
  5
253
330
240
100
AcDbEntity
  8
LC-004-005-----0
 62
     7
370
    25
100
AcDbLine
 10
1627.906897
 20
1517.598239
 30
0.0
 11
1659.222164
 21
1548.913506
 31
0.0
  0
LINE
  5
254
330
240
100
AcDbEntity
  8
LC-004-005-----0
 62
     7
370
    25
100
AcDbLine
 10
1619.421615
 20
1517.598239
 30
0.0
 11
1650.444255
 21
1548.620879
 31
0.0
  0
LINE
  5
255
330
240
100
AcDbEntity
  8
LC-004-005-----0
 62
     7
370
    25
100
AcDbLine
 10
1610.936334
 20
1517.598239
 30
0.0
 11
1641.666347
 21
1548.328251
 31
0.0
  0
LINE
  5
256
330
240
100
AcDbEntity
  8
LC-004-005-----0
 62
     7
370
    25
100
AcDbLine
 10
1602.451052
 20
1517.598239
 30
0.0
 11
1632.888438
 21
1548.035624
 31
0.0
  0
LINE
  5
257
330
240
100
AcDbEntity
  8
LC-004-005-----0
 62
     7
370
    25
100
AcDbLine
 10
1593.965771
 20
1517.598239
 30
0.0
 11
1624.110529
 21
1547.742997
 31
0.0
  0
LINE
  5
258
330
240
100
AcDbEntity
  8
LC-004-005-----0
 62
     7
370
    25
100
AcDbLine
 10
1585.48049
 20
1517.598239
 30
0.0
 11
1615.33262
 21
1547.450369
 31
0.0
  0
LINE
  5
259
330
240
100
AcDbEntity
  8
LC-004-005-----0
 62
     7
370
    25
100
AcDbLine
 10
1576.995208
 20
1517.598239
 30
0.0
 11
1606.554712
 21
1547.157742
 31
0.0
  0
LINE
  5
25A
330
240
100
AcDbEntity
  8
LC-004-005-----0
 62
     7
370
    25
100
AcDbLine
 10
1568.509927
 20
1517.598239
 30
0.0
 11
1597.776803
 21
1546.865115
 31
0.0
  0
LINE
  5
25B
330
240
100
AcDbEntity
  8
LC-004-005-----0
 62
     7
370
    25
100
AcDbLine
 10
1560.024646
 20
1517.598239
 30
0.0
 11
1588.998894
 21
1546.572487
 31
0.0
  0
LINE
  5
25C
330
240
100
AcDbEntity
  8
LC-004-005-----0
 62
     7
370
    25
100
AcDbLine
 10
1551.539364
 20
1517.598239
 30
0.0
 11
1580.220985
 21
1546.27986
 31
0.0
  0
LINE
  5
25D
330
240
100
AcDbEntity
  8
LC-004-005-----0
 62
     7
370
    25
100
AcDbLine
 10
1543.054083
 20
1517.598239
 30
0.0
 11
1571.443077
 21
1545.987233
 31
0.0
  0
LINE
  5
25E
330
240
100
AcDbEntity
  8
LC-004-005-----0
 62
     7
370
    25
100
AcDbLine
 10
1534.568801
 20
1517.598239
 30
0.0
 11
1562.665168
 21
1545.694605
 31
0.0
  0
LINE
  5
25F
330
240
100
AcDbEntity
  8
LC-004-005-----0
 62
     7
370
    25
100
AcDbLine
 10
1526.08352
 20
1517.598239
 30
0.0
 11
1553.887259
 21
1545.401978
 31
0.0
  0
LINE
  5
260
330
240
100
AcDbEntity
  8
LC-004-005-----0
 62
     7
370
    25
100
AcDbLine
 10
1517.598239
 20
1517.598239
 30
0.0
 11
1545.109351
 21
1545.109351
 31
0.0
  0
LINE
  5
261
330
240
100
AcDbEntity
  8
LC-004-005-----0
 62
     7
370
    25
100
AcDbLine
 10
1509.112957
 20
1517.598239
 30
0.0
 11
1536.331442
 21
1544.816723
 31
0.0
  0
LINE
  5
262
330
240
100
AcDbEntity
  8
LC-004-005-----0
 62
     7
370
    25
100
AcDbLine
 10
1500.627676
 20
1517.598239
 30
0.0
 11
1527.553533
 21
1544.524096
 31
0.0
  0
LINE
  5
263
330
240
100
AcDbEntity
  8
LC-004-005-----0
 62
     7
370
    25
100
AcDbLine
 10
1492.142395
 20
1517.598239
 30
0.0
 11
1518.775624
 21
1544.231468
 31
0.0
  0
LINE
  5
264
330
240
100
AcDbEntity
  8
LC-004-005-----0
 62
     7
370
    25
100
AcDbLine
 10
1483.657113
 20
1517.598239
 30
0.0
 11
1509.997716
 21
1543.938841
 31
0.0
  0
LINE
  5
265
330
240
100
AcDbEntity
  8
LC-004-005-----0
 62
     7
370
    25
100
AcDbLine
 10
1475.171832
 20
1517.598239
 30
0.0
 11
1501.219807
 21
1543.646214
 31
0.0
  0
LINE
  5
266
330
240
100
AcDbEntity
  8
LC-004-005-----0
 62
     7
370
    25
100
AcDbLine
 10
1466.68655
 20
1517.598239
 30
0.0
 11
1492.441898
 21
1543.353586
 31
0.0
  0
LINE
  5
267
330
240
100
AcDbEntity
  8
LC-004-005-----0
 62
     7
370
    25
100
AcDbLine
 10
1458.201269
 20
1517.598239
 30
0.0
 11
1483.663989
 21
1543.060959
 31
0.0
  0
LINE
  5
268
330
240
100
AcDbEntity
  8
LC-004-005-----0
 62
     7
370
    25
100
AcDbLine
 10
1449.715988
 20
1517.598239
 30
0.0
 11
1474.886081
 21
1542.768332
 31
0.0
  0
LINE
  5
269
330
240
100
AcDbEntity
  8
LC-004-005-----0
 62
     7
370
    25
100
AcDbLine
 10
1441.230706
 20
1517.598239
 30
0.0
 11
1466.108172
 21
1542.475704
 31
0.0
  0
LINE
  5
26A
330
240
100
AcDbEntity
  8
LC-004-005-----0
 62
     7
370
    25
100
AcDbLine
 10
1432.745425
 20
1517.598239
 30
0.0
 11
1457.330263
 21
1542.183077
 31
0.0
  0
LINE
  5
26B
330
240
100
AcDbEntity
  8
LC-004-005-----0
 62
     7
370
    25
100
AcDbLine
 10
1424.260144
 20
1517.598239
 30
0.0
 11
1448.552354
 21
1541.89045
 31
0.0
  0
LINE
  5
26C
330
240
100
AcDbEntity
  8
LC-004-005-----0
 62
     7
370
    25
100
AcDbLine
 10
1415.774862
 20
1517.598239
 30
0.0
 11
1439.774446
 21
1541.597822
 31
0.0
  0
LINE
  5
26D
330
240
100
AcDbEntity
  8
LC-004-005-----0
 62
     7
370
    25
100
AcDbLine
 10
1407.289581
 20
1517.598239
 30
0.0
 11
1430.996537
 21
1541.305195
 31
0.0
  0
LINE
  5
26E
330
240
100
AcDbEntity
  8
LC-004-005-----0
 62
     7
370
    25
100
AcDbLine
 10
1398.804299
 20
1517.598239
 30
0.0
 11
1422.218628
 21
1541.012567
 31
0.0
  0
LINE
  5
26F
330
240
100
AcDbEntity
  8
LC-004-005-----0
 62
     7
370
    25
100
AcDbLine
 10
1390.319018
 20
1517.598239
 30
0.0
 11
1413.440719
 21
1540.71994
 31
0.0
  0
LINE
  5
270
330
240
100
AcDbEntity
  8
LC-004-005-----0
 62
     7
370
    25
100
AcDbLine
 10
1381.833737
 20
1517.598239
 30
0.0
 11
1404.662811
 21
1540.427313
 31
0.0
  0
LINE
  5
271
330
240
100
AcDbEntity
  8
LC-004-005-----0
 62
     7
370
    25
100
AcDbLine
 10
1373.348455
 20
1517.598239
 30
0.0
 11
1395.884902
 21
1540.134685
 31
0.0
  0
LINE
  5
272
330
240
100
AcDbEntity
  8
LC-004-005-----0
 62
     7
370
    25
100
AcDbLine
 10
1364.863174
 20
1517.598239
 30
0.0
 11
1387.106993
 21
1539.842058
 31
0.0
  0
LINE
  5
273
330
240
100
AcDbEntity
  8
LC-004-005-----0
 62
     7
370
    25
100
AcDbLine
 10
1356.377893
 20
1517.598239
 30
0.0
 11
1378.329085
 21
1539.549431
 31
0.0
  0
LINE
  5
274
330
240
100
AcDbEntity
  8
LC-004-005-----0
 62
     7
370
    25
100
AcDbLine
 10
1347.892611
 20
1517.598239
 30
0.0
 11
1369.551176
 21
1539.256803
 31
0.0
  0
LINE
  5
275
330
240
100
AcDbEntity
  8
LC-004-005-----0
 62
     7
370
    25
100
AcDbLine
 10
1339.40733
 20
1517.598239
 30
0.0
 11
1360.773267
 21
1538.964176
 31
0.0
  0
LINE
  5
276
330
240
100
AcDbEntity
  8
LC-004-005-----0
 62
     7
370
    25
100
AcDbLine
 10
1330.922049
 20
1517.598239
 30
0.0
 11
1351.995358
 21
1538.671549
 31
0.0
  0
LINE
  5
277
330
240
100
AcDbEntity
  8
LC-004-005-----0
 62
     7
370
    25
100
AcDbLine
 10
1322.436767
 20
1517.598239
 30
0.0
 11
1343.21745
 21
1538.378921
 31
0.0
  0
LINE
  5
278
330
240
100
AcDbEntity
  8
LC-004-005-----0
 62
     7
370
    25
100
AcDbLine
 10
1313.951486
 20
1517.598239
 30
0.0
 11
1334.439541
 21
1538.086294
 31
0.0
  0
LINE
  5
279
330
240
100
AcDbEntity
  8
LC-004-005-----0
 62
     7
370
    25
100
AcDbLine
 10
1305.466204
 20
1517.598239
 30
0.0
 11
1325.661632
 21
1537.793666
 31
0.0
  0
LINE
  5
27A
330
240
100
AcDbEntity
  8
LC-004-005-----0
 62
     7
370
    25
100
AcDbLine
 10
1296.980923
 20
1517.598239
 30
0.0
 11
1316.883723
 21
1537.501039
 31
0.0
  0
LINE
  5
27B
330
240
100
AcDbEntity
  8
LC-004-005-----0
 62
     7
370
    25
100
AcDbLine
 10
1288.495642
 20
1517.598239
 30
0.0
 11
1308.105815
 21
1537.208412
 31
0.0
  0
LINE
  5
27C
330
240
100
AcDbEntity
  8
LC-004-005-----0
 62
     7
370
    25
100
AcDbLine
 10
1280.01036
 20
1517.598239
 30
0.0
 11
1299.327906
 21
1536.915784
 31
0.0
  0
LINE
  5
27D
330
240
100
AcDbEntity
  8
LC-004-005-----0
 62
     7
370
    25
100
AcDbLine
 10
1271.525079
 20
1517.598239
 30
0.0
 11
1290.549997
 21
1536.623157
 31
0.0
  0
LINE
  5
27E
330
240
100
AcDbEntity
  8
LC-004-005-----0
 62
     7
370
    25
100
AcDbLine
 10
1263.039798
 20
1517.598239
 30
0.0
 11
1281.772088
 21
1536.33053
 31
0.0
  0
LINE
  5
27F
330
240
100
AcDbEntity
  8
LC-004-005-----0
 62
     7
370
    25
100
AcDbLine
 10
1254.554516
 20
1517.598239
 30
0.0
 11
1272.99418
 21
1536.037902
 31
0.0
  0
LINE
  5
280
330
240
100
AcDbEntity
  8
LC-004-005-----0
 62
     7
370
    25
100
AcDbLine
 10
1246.069235
 20
1517.598239
 30
0.0
 11
1264.216271
 21
1535.745275
 31
0.0
  0
LINE
  5
281
330
240
100
AcDbEntity
  8
LC-004-005-----0
 62
     7
370
    25
100
AcDbLine
 10
1237.583953
 20
1517.598239
 30
0.0
 11
1254.093157
 21
1534.107442
 31
0.0
  0
LINE
  5
282
330
240
100
AcDbEntity
  8
LC-004-005-----0
 62
     7
370
    25
100
AcDbLine
 10
1229.098672
 20
1517.598239
 30
0.0
 11
1234.408989
 21
1522.908556
 31
0.0
  0
LINE
  5
283
330
240
100
AcDbEntity
  8
LC-004-005-----0
 62
     7
370
    25
100
AcDbLine
 10
1244.919019
 20
1533.418586
 30
0.0
 11
1245.607876
 21
1534.107442
 31
0.0
  0
ENDBLK
  5
242
330
240
100
AcDbEntity
  8
0
100
AcDbBlockEnd
  0
ENDSEC
  0
SECTION
  2
ENTITIES
  0
LINE
  5
31
330
1F
100
AcDbEntity
  8
LC-001-002-----0
 62
     7
370
    50
100
AcDbLine
 10
569.669019
 20
1366.727311
 30
0.0
 11
1769.669019
 21
1366.727311
 31
0.0
  0
LINE
  5
32
330
1F
100
AcDbEntity
  8
LC-001-002-----0
 62
     7
370
    50
100
AcDbLine
 10
1769.669019
 20
1366.727311
 30
0.0
 11
1769.669019
 21
166.727311
 31
0.0
  0
LINE
  5
33
330
1F
100
AcDbEntity
  8
LC-001-002-----0
 62
     7
370
    50
100
AcDbLine
 10
1769.669019
 20
166.727311
 30
0.0
 11
569.669019
 21
166.727311
 31
0.0
  0
LINE
  5
34
330
1F
100
AcDbEntity
  8
LC-001-002-----0
 62
     7
370
    50
100
AcDbLine
 10
569.669019
 20
166.727311
 30
0.0
 11
569.669019
 21
1366.727311
 31
0.0
  0
LINE
  5
35
330
1F
100
AcDbEntity
  8
LC-001-002-----0
 62
     7
370
    50
100
AcDbLine
 10
569.669019
 20
1366.727311
 30
0.0
 11
1118.227001
 21
818.16933
 31
0.0
  0
LINE
  5
36
330
1F
100
AcDbEntity
  8
LC-001-002-----0
 62
     7
370
    50
100
AcDbLine
 10
1769.669019
 20
1366.727311
 30
0.0
 11
1221.111038
 21
818.16933
 31
0.0
  0
LINE
  5
39
330
1F
100
AcDbEntity
  8
LC-002-006-MLN-0
 62
     7
370
    25
100
AcDbLine
 10
1096.919019
 20
766.727311
 30
0.0
 11
1242.419019
 21
766.727311
 31
0.0
  0
LINE
  5
3A
330
1F
100
AcDbEntity
  8
LC-001-002-----0
 62
     7
370
    50
100
AcDbLine
 10
1221.111038
 20
715.285293
 30
0.0
 11
1769.669019
 21
166.727311
 31
0.0
  0
LINE
  5
3B
330
1F
100
AcDbEntity
  8
LC-001-002-----0
 62
     7
370
    50
100
AcDbLine
 10
1118.227001
 20
715.285293
 30
0.0
 11
569.669019
 21
166.727311
 31
0.0
  0
DIMENSION
  5
3F
330
1F
100
AcDbEntity
  8
LC-003-003-----0
 62
     7
370
    25
100
AcDbDimension
  2
*D1
 10
1769.669019
 20
1415.425311
 30
0.0
 11
1172.335891
 21
1446.225311
 31
0.0
 70
   160
 71
     5
 42
1200.0
  3
LC-DIM-L-0140-02-02
100
AcDbAlignedDimension
 13
569.669019
 23
1366.727311
 33
0.0
 14
1769.669019
 24
1366.727311
 34
0.0
100
AcDbRotatedDimension
  0
LINE
  5
4D
102
{ACAD_REACTORS
330
285
102
}
330
1F
100
AcDbEntity
  8
LC-002-006-MLN-0
 62
     7
370
    25
100
AcDbLine
 10
1169.669019
 20
839.477311
 30
0.0
 11
1169.669019
 21
693.977311
 31
0.0
  0
CIRCLE
  5
4E
102
{ACAD_REACTORS
330
285
102
}
330
1F
100
AcDbEntity
  8
LC-001-002-----0
 62
     7
370
    50
100
AcDbCircle
 10
1169.669019
 20
766.727311
 30
0.0
 40
56.50000000000023
  0
CIRCLE
  5
4F
102
{ACAD_REACTORS
330
285
102
}
330
1F
100
AcDbEntity
  8
LC-001-002-----0
 62
     7
370
    50
100
AcDbCircle
 10
1169.669019
 20
766.727311
 30
0.0
 40
59.75000000000023
  0
CIRCLE
  5
50
102
{ACAD_REACTORS
330
285
102
}
330
1F
100
AcDbEntity
  8
LC-001-002-----0
 62
     7
370
    50
100
AcDbCircle
 10
1169.669019
 20
766.727311
 30
0.0
 40
62.25000000000023
  0
CIRCLE
  5
51
102
{ACAD_REACTORS
330
285
102
}
330
1F
100
AcDbEntity
  8
LC-001-002-----0
 62
     7
370
    50
100
AcDbCircle
 10
1169.669019
 20
766.727311
 30
0.0
 40
66.00000000000023
  0
CIRCLE
  5
52
102
{ACAD_REACTORS
330
285
102
}
330
1F
100
AcDbEntity
  8
LC-001-002-----0
 62
     7
370
    50
100
AcDbCircle
 10
1169.669019
 20
766.727311
 30
0.0
 40
67.00000000000023
  0
CIRCLE
  5
53
102
{ACAD_REACTORS
330
285
102
}
330
1F
100
AcDbEntity
  8
LC-001-002-----0
 62
     7
370
    50
100
AcDbCircle
 10
1169.669019
 20
766.727311
 30
0.0
 40
72.75000000000023
  0
LINE
  5
54
330
1F
100
AcDbEntity
  8
LC-001-002-----0
 62
     7
370
    50
100
AcDbLine
 10
569.669019
 20
1517.598239
 30
0.0
 11
1111.669019
 21
1517.598239
 31
0.0
  0
LINE
  5
55
330
1F
100
AcDbEntity
  8
LC-001-002-----0
 62
     7
370
    50
100
AcDbLine
 10
1079.419019
 20
1535.604184
 30
0.0
 11
1079.281609
 21
1535.606315
 31
0.0
  0
LINE
  5
56
330
1F
100
AcDbEntity
  8
LC-001-002-----0
 62
     7
370
    50
100
AcDbLine
 10
1096.422093
 20
1535.60838
 30
0.0
 11
1096.422093
 21
1538.103166
 31
0.0
  0
LINE
  5
57
330
1F
100
AcDbEntity
  8
LC-001-002-----0
 62
     7
370
    50
100
AcDbLine
 10
569.669019
 20
1515.098239
 30
0.0
 11
1769.669019
 21
1515.098239
 31
0.0
  0
LINE
  5
58
330
1F
100
AcDbEntity
  8
LC-001-002-----0
 62
     7
370
    50
100
AcDbLine
 10
569.669019
 20
1555.098239
 30
0.0
 11
1769.669019
 21
1555.098239
 31
0.0
  0
LINE
  5
59
330
1F
100
AcDbEntity
  8
LC-001-002-----0
 62
     7
370
    50
100
AcDbLine
 10
569.669019
 20
1555.098239
 30
0.0
 11
569.669019
 21
1515.098239
 31
0.0
  0
LINE
  5
5A
330
1F
100
AcDbEntity
  8
LC-001-002-----0
 62
     7
370
    50
100
AcDbLine
 10
1769.669019
 20
1555.098239
 30
0.0
 11
1769.669019
 21
1515.098239
 31
0.0
  0
LINE
  5
5B
330
1F
100
AcDbEntity
  8
LC-001-002-----0
 62
     7
370
    50
100
AcDbLine
 10
1259.919019
 20
1535.604184
 30
0.0
 11
1243.065023
 21
1535.604184
 31
0.0
  0
LINE
  5
5C
330
1F
100
AcDbEntity
  8
LC-001-002-----0
 62
     7
370
    50
100
AcDbLine
 10
1079.301047
 20
1535.605951
 30
0.0
 11
569.669019
 21
1552.595451
 31
0.0
  0
LINE
  5
5D
330
1F
100
AcDbEntity
  8
LC-001-002-----0
 62
     7
370
    50
100
AcDbLine
 10
1079.419019
 20
1538.103166
 30
0.0
 11
1169.669019
 21
1538.103166
 31
0.0
  0
LINE
  5
5E
330
1F
100
AcDbEntity
  8
LC-001-002-----0
 62
     7
370
    50
100
AcDbLine
 10
1079.419019
 20
1538.103166
 30
0.0
 11
569.669019
 21
1555.098239
 31
0.0
  0
DIMENSION
  5
5F
330
1F
100
AcDbEntity
  8
LC-003-003-----0
 62
     7
370
    25
100
AcDbDimension
  2
*D2
 10
532.0
 20
1515.098239
 30
0.0
 11
501.2
 21
1532.716048
 31
0.0
 70
   160
 71
     5
 42
40.0
 53
90.0
  3
LC-DIM-L-0140-02-02
100
AcDbAlignedDimension
 13
569.669019
 23
1555.098239
 33
0.0
 14
569.669019
 24
1515.098239
 34
0.0
 50
90.0
100
AcDbRotatedDimension
  0
INSERT
  5
86
330
1F
100
AcDbEntity
  8
LC-004-005-----0
 62
     7
370
    25
100
AcDbBlockReference
  2
*X13
 10
0.0
 20
0.0
 30
0.0
  0
LINE
  5
87
330
1F
100
AcDbEntity
  8
LC-001-002-----0
 62
     7
370
    50
100
AcDbLine
 10
1085.669019
 20
1515.100209
 30
0.0
 11
1253.669019
 21
1515.100209
 31
0.0
  0
LINE
  5
88
330
1F
100
AcDbEntity
  8
LC-001-002-----0
 62
     7
370
    50
100
AcDbLine
 10
1085.669019
 20
1514.100209
 30
0.0
 11
1253.669019
 21
1514.100209
 31
0.0
  0
LINE
  5
89
330
1F
100
AcDbEntity
  8
LC-001-002-----0
 62
     7
370
    50
100
AcDbLine
 10
1085.669019
 20
1515.100209
 30
0.0
 11
1085.669019
 21
1514.100209
 31
0.0
  0
LINE
  5
8A
330
1F
100
AcDbEntity
  8
LC-001-002-----0
 62
     7
370
    50
100
AcDbLine
 10
1253.669019
 20
1515.100209
 30
0.0
 11
1253.669019
 21
1514.100209
 31
0.0
  0
LINE
  5
8B
330
1F
100
AcDbEntity
  8
LC-001-002-----0
 62
     7
370
    50
100
AcDbLine
 10
1113.169019
 20
1515.100209
 30
0.0
 11
1113.169019
 21
1514.100209
 31
0.0
  0
LINE
  5
8C
330
1F
100
AcDbEntity
  8
LC-001-002-----0
 62
     7
370
    50
100
AcDbLine
 10
1226.169019
 20
1515.100209
 30
0.0
 11
1226.169019
 21
1514.100209
 31
0.0
  0
LINE
  5
8D
330
1F
100
AcDbEntity
  8
LC-001-002-----0
 62
     7
370
    50
100
AcDbLine
 10
1103.669019
 20
1529.105198
 30
0.0
 11
1235.669019
 21
1529.105198
 31
0.0
  0
LINE
  5
8E
330
1F
100
AcDbEntity
  8
LC-001-002-----0
 62
     7
370
    50
100
AcDbLine
 10
1169.669019
 20
1535.604184
 30
0.0
 11
1079.419019
 21
1535.604184
 31
0.0
  0
LINE
  5
8F
330
1F
100
AcDbEntity
  8
LC-001-002-----0
 62
     7
370
    50
100
AcDbLine
 10
1236.669019
 20
1530.105198
 30
0.0
 11
1235.669019
 21
1529.105198
 31
0.0
  0
LINE
  5
90
330
1F
100
AcDbEntity
  8
LC-001-002-----0
 62
     7
370
    50
100
AcDbLine
 10
1107.419019
 20
1525.9121
 30
0.0
 11
1169.669019
 21
1525.9121
 31
0.0
  0
LINE
  5
91
330
1F
100
AcDbEntity
  8
LC-001-002-----0
 62
     7
370
    50
100
AcDbLine
 10
1102.669019
 20
1530.105198
 30
0.0
 11
1103.669019
 21
1529.105198
 31
0.0
  0
LINE
  5
92
330
1F
100
AcDbEntity
  8
LC-001-002-----0
 62
     7
370
    50
100
AcDbLine
 10
1094.419019
 20
1529.604184
 30
0.0
 11
1111.669019
 21
1518.614721
 31
0.0
  0
LINE
  5
93
330
1F
100
AcDbEntity
  8
LC-001-002-----0
 62
     7
370
    50
100
AcDbLine
 10
1103.669019
 20
1529.105198
 30
0.0
 11
1103.669019
 21
1528.301114
 31
0.0
  0
ARC
  5
95
330
1F
100
AcDbEntity
  8
LC-005-002-RND-0
 62
     7
370
    50
100
AcDbCircle
 10
1110.169019
 20
1520.58309
 30
0.0
 40
3.0
100
AcDbArc
 50
0.0
 51
57.499998
  0
LINE
  5
96
330
1F
100
AcDbEntity
  8
LC-001-002-----0
 62
     7
370
    50
100
AcDbLine
 10
1111.669019
 20
1518.614721
 30
0.0
 11
1111.669019
 21
1515.100209
 31
0.0
  0
LINE
  5
97
330
1F
100
AcDbEntity
  8
LC-001-002-----0
 62
     7
370
    50
100
AcDbLine
 10
1096.123937
 20
1535.604184
 30
0.0
 11
1096.422093
 21
1535.604184
 31
0.0
  0
LINE
  5
98
330
1F
100
AcDbEntity
  8
LC-001-002-----0
 62
     7
370
    50
100
AcDbLine
 10
1109.919019
 20
1524.299425
 30
0.0
 11
1111.780918
 21
1523.113264
 31
0.0
  0
LINE
  5
99
330
1F
100
AcDbEntity
  8
LC-001-002-----0
 62
     7
370
    50
100
AcDbLine
 10
1103.669019
 20
1528.301114
 30
0.0
 11
1107.419019
 21
1525.9121
 31
0.0
  0
LINE
  5
9A
330
1F
100
AcDbEntity
  8
LC-001-002-----0
 62
     7
370
    50
100
AcDbLine
 10
1096.919019
 20
1530.105198
 30
0.0
 11
1102.669019
 21
1530.105198
 31
0.0
  0
LINE
  5
9B
330
1F
100
AcDbEntity
  8
LC-001-002-----0
 62
     7
370
    50
100
AcDbLine
 10
1103.669019
 20
1528.301114
 30
0.0
 11
1169.669019
 21
1528.301114
 31
0.0
  0
LINE
  5
9C
330
1F
100
AcDbEntity
  8
LC-001-002-----0
 62
     7
370
    50
100
AcDbLine
 10
1096.919019
 20
1530.105198
 30
0.0
 11
1096.919019
 21
1535.107258
 31
0.0
  0
LINE
  5
9D
330
1F
100
AcDbEntity
  8
LC-001-002-----0
 62
     7
370
    50
100
AcDbLine
 10
1109.919019
 20
1524.299425
 30
0.0
 11
1109.919019
 21
1523.600477
 31
0.0
  0
LINE
  5
9E
330
1F
100
AcDbEntity
  8
LC-001-002-----0
 62
     7
370
    50
100
AcDbLine
 10
1109.919019
 20
1523.600477
 30
0.0
 11
1107.419019
 21
1523.600477
 31
0.0
  0
ARC
  5
9F
330
1F
100
AcDbEntity
  8
LC-001-002-----0
 62
     7
370
    50
100
AcDbCircle
 10
1096.422093
 20
1535.107258
 30
0.0
 40
0.4969262295080625
100
AcDbArc
 50
0.0
 51
90.0
  0
LINE
  5
A0
330
1F
100
AcDbEntity
  8
LC-001-002-----0
 62
     7
370
    50
100
AcDbLine
 10
1107.419019
 20
1525.9121
 30
0.0
 11
1107.419019
 21
1523.600477
 31
0.0
  0
LINE
  5
A1
330
1F
100
AcDbEntity
  8
LC-001-002-----0
 62
     7
370
    50
100
AcDbLine
 10
1079.419019
 20
1534.107442
 30
0.0
 11
1094.419019
 21
1534.107442
 31
0.0
  0
LINE
  5
A2
330
1F
100
AcDbEntity
  8
LC-001-002-----0
 62
     7
370
    50
100
AcDbLine
 10
1094.419019
 20
1534.107442
 30
0.0
 11
1094.419019
 21
1529.604184
 31
0.0
  0
LINE
  5
A3
330
1F
100
AcDbEntity
  8
LC-001-002-----0
 62
     7
370
    50
100
AcDbLine
 10
1113.169019
 20
1520.58309
 30
0.0
 11
1113.169019
 21
1515.100209
 31
0.0
  0
LINE
  5
A4
330
1F
100
AcDbEntity
  8
LC-001-002-----0
 62
     7
370
    50
100
AcDbLine
 10
1169.669019
 20
1515.100209
 30
0.0
 11
1111.669019
 21
1515.100209
 31
0.0
  0
LINE
  5
A5
330
1F
100
AcDbEntity
  8
LC-001-002-----0
 62
     7
370
    50
100
AcDbLine
 10
1109.919019
 20
1524.299425
 30
0.0
 11
1169.669019
 21
1524.299425
 31
0.0
  0
LINE
  5
A6
330
1F
100
AcDbEntity
  8
LC-004-005-----0
 62
     7
370
    25
100
AcDbLine
 10
1114.985994
 20
1522.228946
 30
0.0
 11
1169.669019
 21
1522.228946
 31
0.0
  0
LINE
  5
A7
330
1F
100
AcDbEntity
  8
LC-002-006-MLN-0
 62
     7
370
    25
100
AcDbLine
 10
1169.669019
 20
1535.604184
 30
0.0
 11
1169.669019
 21
1515.100209
 31
0.0
  0
LINE
  5
A8
330
1F
100
AcDbEntity
  8
LC-001-002-----0
 62
     7
370
    50
100
AcDbLine
 10
1079.419019
 20
1535.604184
 30
0.0
 11
1079.419019
 21
1534.107442
 31
0.0
  0
LINE
  5
A9
330
1F
100
AcDbEntity
  8
LC-001-002-----0
 62
     7
370
    50
100
AcDbLine
 10
1102.669019
 20
1530.105198
 30
0.0
 11
1169.669019
 21
1530.105198
 31
0.0
  0
LINE
  5
AA
330
1F
100
AcDbEntity
  8
LC-001-002-----0
 62
     7
370
    50
100
AcDbLine
 10
1244.919019
 20
1529.604184
 30
0.0
 11
1227.669019
 21
1518.614721
 31
0.0
  0
LINE
  5
AB
330
1F
100
AcDbEntity
  8
LC-001-002-----0
 62
     7
370
    50
100
AcDbLine
 10
1235.669019
 20
1529.105198
 30
0.0
 11
1235.669019
 21
1528.301114
 31
0.0
  0
ARC
  5
AC
330
1F
100
AcDbEntity
  8
LC-005-002-RND-0
 62
     7
370
    50
100
AcDbCircle
 10
1229.169019
 20
1520.58309
 30
0.0
 40
2.999999999999981
100
AcDbArc
 50
122.500002
 51
180.0
  0
LINE
  5
AD
330
1F
100
AcDbEntity
  8
LC-001-002-----0
 62
     7
370
    50
100
AcDbLine
 10
1227.669019
 20
1518.614721
 30
0.0
 11
1227.669019
 21
1515.100209
 31
0.0
  0
LINE
  5
AE
330
1F
100
AcDbEntity
  8
LC-001-002-----0
 62
     7
370
    50
100
AcDbLine
 10
1243.214101
 20
1535.604184
 30
0.0
 11
1242.915945
 21
1535.604184
 31
0.0
  0
LINE
  5
AF
330
1F
100
AcDbEntity
  8
LC-001-002-----0
 62
     7
370
    50
100
AcDbLine
 10
1229.419019
 20
1524.299425
 30
0.0
 11
1227.55712
 21
1523.113264
 31
0.0
  0
LINE
  5
B0
330
1F
100
AcDbEntity
  8
LC-001-002-----0
 62
     7
370
    50
100
AcDbLine
 10
1235.669019
 20
1528.301114
 30
0.0
 11
1231.919019
 21
1525.9121
 31
0.0
  0
LINE
  5
B1
330
1F
100
AcDbEntity
  8
LC-001-002-----0
 62
     7
370
    50
100
AcDbLine
 10
1242.419019
 20
1530.105198
 30
0.0
 11
1236.669019
 21
1530.105198
 31
0.0
  0
LINE
  5
B2
330
1F
100
AcDbEntity
  8
LC-001-002-----0
 62
     7
370
    50
100
AcDbLine
 10
1242.419019
 20
1530.105198
 30
0.0
 11
1242.419019
 21
1535.107258
 31
0.0
  0
LINE
  5
B3
330
1F
100
AcDbEntity
  8
LC-001-002-----0
 62
     7
370
    50
100
AcDbLine
 10
1229.419019
 20
1524.299425
 30
0.0
 11
1229.419019
 21
1523.600477
 31
0.0
  0
LINE
  5
B4
330
1F
100
AcDbEntity
  8
LC-001-002-----0
 62
     7
370
    50
100
AcDbLine
 10
1229.419019
 20
1523.600477
 30
0.0
 11
1231.919019
 21
1523.600477
 31
0.0
  0
ARC
  5
B5
330
1F
100
AcDbEntity
  8
LC-001-002-----0
 62
     7
370
    50
100
AcDbCircle
 10
1242.915945
 20
1535.107258
 30
0.0
 40
0.4969262295082899
100
AcDbArc
 50
90.0
 51
180.0
  0
LINE
  5
B6
330
1F
100
AcDbEntity
  8
LC-001-002-----0
 62
     7
370
    50
100
AcDbLine
 10
1231.919019
 20
1525.9121
 30
0.0
 11
1231.919019
 21
1523.600477
 31
0.0
  0
LINE
  5
B7
330
1F
100
AcDbEntity
  8
LC-001-002-----0
 62
     7
370
    50
100
AcDbLine
 10
1259.919019
 20
1534.107442
 30
0.0
 11
1244.919019
 21
1534.107442
 31
0.0
  0
LINE
  5
B8
330
1F
100
AcDbEntity
  8
LC-001-002-----0
 62
     7
370
    50
100
AcDbLine
 10
1244.919019
 20
1534.107442
 30
0.0
 11
1244.919019
 21
1529.604184
 31
0.0
  0
LINE
  5
B9
330
1F
100
AcDbEntity
  8
LC-001-002-----0
 62
     7
370
    50
100
AcDbLine
 10
1226.169019
 20
1520.58309
 30
0.0
 11
1226.169019
 21
1515.100209
 31
0.0
  0
LINE
  5
BA
330
1F
100
AcDbEntity
  8
LC-001-002-----0
 62
     7
370
    50
100
AcDbLine
 10
1259.919019
 20
1535.604184
 30
0.0
 11
1259.919019
 21
1534.107442
 31
0.0
  0
LINE
  5
BB
330
1F
100
AcDbEntity
  8
LC-001-002-----0
 62
     7
370
    50
100
AcDbLine
 10
1236.669019
 20
1530.105198
 30
0.0
 11
1169.669019
 21
1530.105198
 31
0.0
  0
LINE
  5
BC
330
1F
100
AcDbEntity
  8
LC-001-002-----0
 62
     7
370
    50
100
AcDbLine
 10
1235.669019
 20
1528.301114
 30
0.0
 11
1169.669019
 21
1528.301114
 31
0.0
  0
LINE
  5
BD
330
1F
100
AcDbEntity
  8
LC-001-002-----0
 62
     7
370
    50
100
AcDbLine
 10
1231.919019
 20
1525.9121
 30
0.0
 11
1169.669019
 21
1525.9121
 31
0.0
  0
LINE
  5
BE
330
1F
100
AcDbEntity
  8
LC-001-002-----0
 62
     7
370
    50
100
AcDbLine
 10
1229.419019
 20
1524.299425
 30
0.0
 11
1169.669019
 21
1524.299425
 31
0.0
  0
LINE
  5
BF
330
1F
100
AcDbEntity
  8
LC-004-005-----0
 62
     7
370
    25
100
AcDbLine
 10
1224.352045
 20
1522.228946
 30
0.0
 11
1169.669019
 21
1522.228946
 31
0.0
  0
LINE
  5
C0
330
1F
100
AcDbEntity
  8
LC-001-002-----0
 62
     7
370
    50
100
AcDbLine
 10
1169.669019
 20
1515.100209
 30
0.0
 11
1227.669019
 21
1515.100209
 31
0.0
  0
LINE
  5
C1
330
1F
100
AcDbEntity
  8
LC-001-002-----0
 62
     7
370
    50
100
AcDbLine
 10
1169.669019
 20
1535.604184
 30
0.0
 11
1259.919019
 21
1535.604184
 31
0.0
  0
INSERT
  5
E5
330
1F
100
AcDbEntity
  8
LC-004-005-----0
 62
     7
370
    25
100
AcDbBlockReference
  2
*X24
 10
0.0
 20
0.0
 30
0.0
  0
LINE
  5
E6
330
1F
100
AcDbEntity
  8
LC-001-002-----0
 62
     7
370
    50
100
AcDbLine
 10
1111.669019
 20
1518.614721
 30
0.0
 11
1111.669019
 21
1515.098239
 31
0.0
  0
LINE
  5
E7
330
1F
100
AcDbEntity
  8
LC-001-002-----0
 62
     7
370
    50
100
AcDbLine
 10
1094.419019
 20
1534.107442
 30
0.0
 11
1094.419019
 21
1529.604184
 31
0.0
  0
LINE
  5
E8
330
1F
100
AcDbEntity
  8
LC-001-002-----0
 62
     7
370
    50
100
AcDbLine
 10
1079.419019
 20
1534.107442
 30
0.0
 11
1094.419019
 21
1534.107442
 31
0.0
  0
LINE
  5
E9
330
1F
100
AcDbEntity
  8
LC-001-002-----0
 62
     7
370
    50
100
AcDbLine
 10
1079.419019
 20
1535.60838
 30
0.0
 11
1079.419019
 21
1534.107442
 31
0.0
  0
LINE
  5
EA
330
1F
100
AcDbEntity
  8
LC-001-002-----0
 62
     7
370
    50
100
AcDbLine
 10
1259.919019
 20
1535.604184
 30
0.0
 11
1259.919019
 21
1534.107442
 31
0.0
  0
LINE
  5
EB
330
1F
100
AcDbEntity
  8
LC-001-002-----0
 62
     7
370
    50
100
AcDbLine
 10
1259.919019
 20
1534.107442
 30
0.0
 11
1244.919019
 21
1534.107442
 31
0.0
  0
LINE
  5
EC
330
1F
100
AcDbEntity
  8
LC-001-002-----0
 62
     7
370
    50
100
AcDbLine
 10
1244.919019
 20
1534.107442
 30
0.0
 11
1244.919019
 21
1529.604184
 31
0.0
  0
LINE
  5
ED
330
1F
100
AcDbEntity
  8
LC-001-002-----0
 62
     7
370
    50
100
AcDbLine
 10
1244.919019
 20
1529.604184
 30
0.0
 11
1227.669019
 21
1518.614721
 31
0.0
  0
LINE
  5
EE
330
1F
100
AcDbEntity
  8
LC-001-002-----0
 62
     7
370
    50
100
AcDbLine
 10
1227.669019
 20
1518.614721
 30
0.0
 11
1227.669019
 21
1515.098239
 31
0.0
  0
LINE
  5
EF
330
1F
100
AcDbEntity
  8
LC-001-002-----0
 62
     7
370
    50
100
AcDbLine
 10
1096.422093
 20
1535.60838
 30
0.0
 11
1079.419019
 21
1535.60838
 31
0.0
  0
LINE
  5
F0
330
1F
100
AcDbEntity
  8
LC-001-002-----0
 62
     7
370
    50
100
AcDbLine
 10
1769.669019
 20
1517.598239
 30
0.0
 11
1227.669019
 21
1517.598239
 31
0.0
  0
LINE
  5
F1
330
1F
100
AcDbEntity
  8
LC-001-002-----0
 62
     7
370
    50
100
AcDbLine
 10
1259.919019
 20
1538.103166
 30
0.0
 11
1769.669019
 21
1555.098239
 31
0.0
  0
LINE
  5
F2
330
1F
100
AcDbEntity
  8
LC-001-002-----0
 62
     7
370
    50
100
AcDbLine
 10
1260.036991
 20
1535.605951
 30
0.0
 11
1769.669019
 21
1552.595451
 31
0.0
  0
LINE
  5
F3
330
1F
100
AcDbEntity
  8
LC-001-002-----0
 62
     7
370
    50
100
AcDbLine
 10
1242.915945
 20
1535.60838
 30
0.0
 11
1242.915945
 21
1538.103166
 31
0.0
  0
LINE
  5
F4
330
1F
100
AcDbEntity
  8
LC-001-002-----0
 62
     7
370
    50
100
AcDbLine
 10
1259.919019
 20
1538.103166
 30
0.0
 11
1169.669019
 21
1538.103166
 31
0.0
  0
INSERT
  5
1F6
330
1F
100
AcDbEntity
  8
LC-004-005-----0
 62
     7
370
    25
100
AcDbBlockReference
  2
*X35
 10
0.0
 20
0.0
 30
0.0
  0
LINE
  5
1F7
330
1F
100
AcDbEntity
  8
LC-001-002-----0
 62
     7
370
    50
100
AcDbLine
 10
1094.419019
 20
1529.604184
 30
0.0
 11
1111.669019
 21
1518.614721
 31
0.0
  0
INSERT
  5
23F
330
1F
100
AcDbEntity
  8
LC-004-005-----0
 62
     7
370
    25
100
AcDbBlockReference
  2
*X46
 10
0.0
 20
0.0
 30
0.0
  0
INSERT
  5
284
330
1F
100
AcDbEntity
  8
LC-004-005-----0
 62
     7
370
    25
100
AcDbBlockReference
  2
*X57
 10
0.0
 20
0.0
 30
0.0
  0
ENDSEC
  0
SECTION
  2
OBJECTS
  0
DICTIONARY
  5
C
330
0
100
AcDbDictionary
281
     1
  3
ACAD_GROUP
350
D
  3
ACAD_LAYOUT
350
1A
  3
ACAD_MLINESTYLE
350
17
  3
ACAD_PLOTSETTINGS
350
19
  3
ACAD_PLOTSTYLENAME
350
E
  0
DICTIONARY
  5
D
102
{ACAD_REACTORS
330
C
102
}
330
C
100
AcDbDictionary
281
     1
  3
LCGROUP110
350
285
  0
DICTIONARY
  5
1A
102
{ACAD_REACTORS
330
C
102
}
330
C
100
AcDbDictionary
281
     1
  3
Layout1
350
1E
  3
Layout2
350
26
  3
Model
350
22
  0
DICTIONARY
  5
17
102
{ACAD_REACTORS
330
C
102
}
330
C
100
AcDbDictionary
281
     1
  3
Standard
350
18
  0
DICTIONARY
  5
19
102
{ACAD_REACTORS
330
C
102
}
330
C
100
AcDbDictionary
281
     1
  0
ACDBDICTIONARYWDFLT
  5
E
102
{ACAD_REACTORS
330
C
102
}
330
C
100
AcDbDictionary
281
     1
  3
Normal
350
F
100
AcDbDictionaryWithDefault
340
F
  0
GROUP
  5
285
102
{ACAD_REACTORS
330
D
102
}
330
D
100
AcDbGroup
300
GRP110
 70
     1
 71
     1
340
4D
340
4E
340
4F
340
50
340
51
340
52
340
53
  0
LAYOUT
  5
1E
102
{ACAD_REACTORS
330
1A
102
}
330
1A
100
AcDbPlotSettings
  1

  2

  4

  6

 40
0.0
 41
0.0
 42
0.0
 43
0.0
 44
0.0
 45
0.0
 46
0.0
 47
0.0
 48
0.0
 49
0.0
140
0.0
141
0.0
142
1.0
143
1.0
 70
   688
 72
     0
 73
     0
 74
     5
  7

 75
    16
147
1.0
148
0.0
149
0.0
100
AcDbLayout
  1
Layout1
 70
     1
 71
     1
 10
0.0
 20
0.0
 11
2378.0
 21
1682.0
 12
0.0
 22
0.0
 32
0.0
 14
0.0
 24
0.0
 34
0.0
 15
2378.0
 25
1682.0
 35
0.0
146
0.0
 13
0.0
 23
0.0
 33
0.0
 16
1.0
 26
0.0
 36
0.0
 17
0.0
 27
1.0
 37
0.0
 76
     0
330
1B
  0
LAYOUT
  5
26
102
{ACAD_REACTORS
330
1A
102
}
330
1A
100
AcDbPlotSettings
  1

  2

  4

  6

 40
0.0
 41
0.0
 42
0.0
 43
0.0
 44
0.0
 45
0.0
 46
0.0
 47
0.0
 48
0.0
 49
0.0
140
0.0
141
0.0
142
1.0
143
1.0
 70
   688
 72
     0
 73
     0
 74
     5
  7

 75
    16
147
1.0
148
0.0
149
0.0
100
AcDbLayout
  1
Layout2
 70
     1
 71
     2
 10
0.0
 20
0.0
 11
0.0
 21
0.0
 12
0.0
 22
0.0
 32
0.0
 14
0.0
 24
0.0
 34
0.0
 15
0.0
 25
0.0
 35
0.0
146
0.0
 13
0.0
 23
0.0
 33
0.0
 16
1.0
 26
0.0
 36
0.0
 17
0.0
 27
1.0
 37
0.0
 76
     0
330
23
  0
LAYOUT
  5
22
102
{ACAD_REACTORS
330
1A
102
}
330
1A
100
AcDbPlotSettings
  1

  2

  4

  6

 40
0.0
 41
0.0
 42
0.0
 43
0.0
 44
0.0
 45
0.0
 46
0.0
 47
0.0
 48
0.0
 49
0.0
140
0.0
141
0.0
142
1.0
143
1.0
 70
  1776
 72
     0
 73
     0
 74
     0
  7

 75
     0
147
1.0
148
0.0
149
0.0
100
AcDbLayout
  1
Model
 70
     1
 71
     0
 10
0.0
 20
0.0
 11
2378.0
 21
1682.0
 12
0.0
 22
0.0
 32
0.0
 14
0.0
 24
0.0
 34
0.0
 15
2378.0
 25
1682.0
 35
0.0
146
0.0
 13
0.0
 23
0.0
 33
0.0
 16
1.0
 26
0.0
 36
0.0
 17
0.0
 27
1.0
 37
0.0
 76
     0
330
1F
  0
MLINESTYLE
  5
18
102
{ACAD_REACTORS
330
17
102
}
330
17
100
AcDbMlineStyle
  2
Standard
 70
     0
  3

 62
   256
 51
90.0
 52
90.0
 71
     2
 49
0.5
 62
   256
  6
BYLAYER
 49
-0.5
 62
   256
  6
BYLAYER
  0
ACDBPLACEHOLDER
  5
F
102
{ACAD_REACTORS
330
E
102
}
330
E
  0
ENDSEC
  0
EOF
