  0
SECTION
  2
HEADER
  9
$ACADVER
  1
AC1015
  9
$ACADMAINTVER
 70
     6
  9
$DWGCODEPAGE
  3
ANSI_1252
  9
$INSBASE
 10
-83.476687
 20
95.6
 30
0.0
  9
$EXTMIN
 10
-502.444058
 20
-111.81
 30
0.0
  9
$EXTMAX
 10
2467.555942
 20
1988.19
 30
0.0
  9
$LIMMIN
 10
-502.444058
 20
-111.81
  9
$LIMMAX
 10
2467.555942
 20
1988.19
  9
$ORTHOMODE
 70
     0
  9
$REGENMODE
 70
     1
  9
$FILLMODE
 70
     1
  9
$QTEXTMODE
 70
     0
  9
$MIRRTEXT
 70
     1
  9
$LTSCALE
 40
5.0
  9
$ATTMODE
 70
     1
  9
$TEXTSIZE
 40
2.5
  9
$TRACEWID
 40
1.0
  9
$TEXTSTYLE
  7
Standard
  9
$CLAYER
  8
0
  9
$CELTYPE
  6
ByLayer
  9
$CECOLOR
 62
     7
  9
$CELTSCALE
 40
1.0
  9
$DISPSILH
 70
     0
  9
$DIMSCALE
 40
5.0
  9
$DIMASZ
 40
3.5
  9
$DIMEXO
 40
0.625
  9
$DIMDLI
 40
3.75
  9
$DIMRND
 40
0.0
  9
$DIMDLE
 40
0.0
  9
$DIMEXE
 40
1.25
  9
$DIMTP
 40
0.0
  9
$DIMTM
 40
0.0
  9
$DIMTXT
 40
3.5
  9
$DIMCEN
 40
2.5
  9
$DIMTSZ
 40
0.0
  9
$DIMTOL
 70
     0
  9
$DIMLIM
 70
     0
  9
$DIMTIH
 70
     0
  9
$DIMTOH
 70
     0
  9
$DIMSE1
 70
     0
  9
$DIMSE2
 70
     0
  9
$DIMTAD
 70
     1
  9
$DIMZIN
 70
     8
  9
$DIMBLK
  1

  9
$DIMASO
 70
     1
  9
$DIMSHO
 70
     1
  9
$DIMPOST
  1

  9
$DIMAPOST
  1

  9
$DIMALT
 70
     0
  9
$DIMALTD
 70
     3
  9
$DIMALTF
 40
0.03937
  9
$DIMLFAC
 40
1.0
  9
$DIMTOFL
 70
     1
  9
$DIMTVP
 40
0.0
  9
$DIMTIX
 70
     0
  9
$DIMSOXD
 70
     0
  9
$DIMSAH
 70
     0
  9
$DIMBLK1
  1

  9
$DIMBLK2
  1

  9
$DIMSTYLE
  2
ISO-25
  9
$DIMCLRD
 70
     0
  9
$DIMCLRE
 70
     0
  9
$DIMCLRT
 70
     0
  9
$DIMTFAC
 40
1.0
  9
$DIMGAP
 40
0.625
  9
$DIMJUST
 70
     0
  9
$DIMSD1
 70
     0
  9
$DIMSD2
 70
     0
  9
$DIMTOLJ
 70
     0
  9
$DIMTZIN
 70
     8
  9
$DIMALTZ
 70
     0
  9
$DIMALTTZ
 70
     0
  9
$DIMUPT
 70
     0
  9
$DIMDEC
 70
     2
  9
$DIMTDEC
 70
     2
  9
$DIMALTU
 70
     2
  9
$DIMALTTD
 70
     3
  9
$DIMTXSTY
  7
Standard
  9
$DIMAUNIT
 70
     0
  9
$DIMADEC
 70
     0
  9
$DIMALTRND
 40
0.0
  9
$DIMAZIN
 70
     0
  9
$DIMDSEP
 70
    44
  9
$DIMATFIT
 70
     3
  9
$DIMFRAC
 70
     0
  9
$DIMLDRBLK
  1

  9
$DIMLUNIT
 70
     2
  9
$DIMLWD
 70
    -2
  9
$DIMLWE
 70
    -2
  9
$DIMTMOVE
 70
     0
  9
$LUNITS
 70
     2
  9
$LUPREC
 70
     4
  9
$SKETCHINC
 40
1.0
  9
$FILLETRAD
 40
10.0
  9
$AUNITS
 70
     0
  9
$AUPREC
 70
     0
  9
$MENU
  1
.
  9
$ELEVATION
 40
0.0
  9
$PELEVATION
 40
0.0
  9
$THICKNESS
 40
0.0
  9
$LIMCHECK
 70
     0
  9
$CHAMFERA
 40
10.0
  9
$CHAMFERB
 40
10.0
  9
$CHAMFERC
 40
20.0
  9
$CHAMFERD
 40
0.0
  9
$SKPOLY
 70
     0
  9
$TDCREATE
 40
2457029.296204722
  9
$TDUCREATE
 40
2457029.254538056
  9
$TDUPDATE
 40
2457029.296204734
  9
$TDUUPDATE
 40
2457029.254538067
  9
$TDINDWG
 40
0.0000000116
  9
$TDUSRTIMER
 40
0.0000000116
  9
$USRTIMER
 70
     1
  9
$ANGBASE
 50
0.0
  9
$ANGDIR
 70
     0
  9
$PDMODE
 70
     0
  9
$PDSIZE
 40
0.0
  9
$PLINEWID
 40
0.0
  9
$SPLFRAME
 70
     0
  9
$SPLINETYPE
 70
     6
  9
$SPLINESEGS
 70
     8
  9
$HANDSEED
  5
1A8
  9
$SURFTAB1
 70
     6
  9
$SURFTAB2
 70
     6
  9
$SURFTYPE
 70
     6
  9
$SURFU
 70
     6
  9
$SURFV
 70
     6
  9
$UCSBASE
  2

  9
$UCSNAME
  2

  9
$UCSORG
 10
0.0
 20
0.0
 30
0.0
  9
$UCSXDIR
 10
1.0
 20
0.0
 30
0.0
  9
$UCSYDIR
 10
0.0
 20
1.0
 30
0.0
  9
$UCSORTHOREF
  2

  9
$UCSORTHOVIEW
 70
     0
  9
$UCSORGTOP
 10
0.0
 20
0.0
 30
0.0
  9
$UCSORGBOTTOM
 10
0.0
 20
0.0
 30
0.0
  9
$UCSORGLEFT
 10
0.0
 20
0.0
 30
0.0
  9
$UCSORGRIGHT
 10
0.0
 20
0.0
 30
0.0
  9
$UCSORGFRONT
 10
0.0
 20
0.0
 30
0.0
  9
$UCSORGBACK
 10
0.0
 20
0.0
 30
0.0
  9
$PUCSBASE
  2

  9
$PUCSNAME
  2

  9
$PUCSORG
 10
0.0
 20
0.0
 30
0.0
  9
$PUCSXDIR
 10
1.0
 20
0.0
 30
0.0
  9
$PUCSYDIR
 10
0.0
 20
1.0
 30
0.0
  9
$PUCSORTHOREF
  2

  9
$PUCSORTHOVIEW
 70
     0
  9
$PUCSORGTOP
 10
0.0
 20
0.0
 30
0.0
  9
$PUCSORGBOTTOM
 10
0.0
 20
0.0
 30
0.0
  9
$PUCSORGLEFT
 10
0.0
 20
0.0
 30
0.0
  9
$PUCSORGRIGHT
 10
0.0
 20
0.0
 30
0.0
  9
$PUCSORGFRONT
 10
0.0
 20
0.0
 30
0.0
  9
$PUCSORGBACK
 10
0.0
 20
0.0
 30
0.0
  9
$USERI1
 70
     0
  9
$USERI2
 70
     0
  9
$USERI3
 70
     0
  9
$USERI4
 70
     0
  9
$USERI5
 70
     0
  9
$USERR1
 40
0.0
  9
$USERR2
 40
0.0
  9
$USERR3
 40
0.0
  9
$USERR4
 40
0.0
  9
$USERR5
 40
0.0
  9
$WORLDVIEW
 70
     1
  9
$SHADEDGE
 70
     3
  9
$SHADEDIF
 70
    70
  9
$TILEMODE
 70
     1
  9
$MAXACTVP
 70
    64
  9
$PINSBASE
 10
0.0
 20
0.0
 30
0.0
  9
$PLIMCHECK
 70
     0
  9
$PEXTMIN
 10
-502.444058
 20
-111.81
 30
0.0
  9
$PEXTMAX
 10
2467.555942
 20
1988.19
 30
0.0
  9
$PLIMMIN
 10
-502.444058
 20
-111.81
  9
$PLIMMAX
 10
2467.555942
 20
1988.19
  9
$UNITMODE
 70
     0
  9
$VISRETAIN
 70
     1
  9
$PLINEGEN
 70
     0
  9
$PSLTSCALE
 70
     1
  9
$TREEDEPTH
 70
  3020
  9
$CMLSTYLE
  2
Standard
  9
$CMLJUST
 70
     0
  9
$CMLSCALE
 40
20.0
  9
$PROXYGRAPHICS
 70
     1
  9
$MEASUREMENT
 70
     1
  9
$CELWEIGHT
370
    -1
  9
$ENDCAPS
280
     0
  9
$JOINSTYLE
280
     0
  9
$LWDISPLAY
290
     0
  9
$INSUNITS
 70
     4
  9
$HYPERLINKBASE
  1

  9
$STYLESHEET
  1

  9
$XEDIT
290
     1
  9
$CEPSNTYPE
380
     0
  9
$PSTYLEMODE
290
     1
  9
$FINGERPRINTGUID
  2
{FAEB1C30-E019-11D5-929B-00C0DF256EC4}
  9
$VERSIONGUID
  2
{FAEB1C32-E019-11D5-929B-00C0DF256EC4}
  9
$EXTNAMES
290
     1
  9
$PSVPSCALE
 40
0.0
  9
$OLESTARTUP
290
     0
  0
ENDSEC
  0
SECTION
  2
CLASSES
  0
CLASS
  1
ACDBDICTIONARYWDFLT
  2
AcDbDictionaryWithDefault
  3
ObjectDBX Classes
 90
        0
280
     0
281
     0
  0
CLASS
  1
ACDBPLACEHOLDER
  2
AcDbPlaceHolder
  3
ObjectDBX Classes
 90
        0
280
     0
281
     0
  0
CLASS
  1
LAYOUT
  2
AcDbLayout
  3
ObjectDBX Classes
 90
        0
280
     0
281
     0
  0
ENDSEC
  0
SECTION
  2
TABLES
  0
TABLE
  2
VPORT
  5
8
330
0
100
AcDbSymbolTable
 70
     2
  0
VPORT
  5
29
330
8
100
AcDbSymbolTableRecord
100
AcDbViewportTableRecord
  2
*ACTIVE
 70
     0
 10
0.0
 20
0.0
 11
1.0
 21
1.0
 12
982.555942
 22
938.19
 13
0.0
 23
0.0
 14
1.0
 24
1.0
 15
0.0
 25
0.0
 16
0.0
 26
0.0
 36
1.0
 17
0.0
 27
0.0
 37
0.0
 40
2100.0
 41
1.414286
 42
50.0
 43
0.0
 44
0.0
 50
0.0
 51
0.0
 71
    16
 72
   100
 73
     1
 74
     0
 75
     0
 76
     0
 77
     0
 78
     0
281
     0
 65
     0
110
0.0
120
0.0
130
0.0
111
1.0
121
0.0
131
0.0
112
0.0
122
1.0
132
0.0
 79
     0
146
0.0
  0
ENDTAB
  0
TABLE
  2
LTYPE
  5
5
330
0
100
AcDbSymbolTable
 70
     3
  0
LTYPE
  5
14
330
5
100
AcDbSymbolTableRecord
100
AcDbLinetypeTableRecord
  2
ByBlock
 70
     0
  3

 72
    65
 73
     0
 40
0.0
  0
LTYPE
  5
15
330
5
100
AcDbSymbolTableRecord
100
AcDbLinetypeTableRecord
  2
ByLayer
 70
     0
  3

 72
    65
 73
     0
 40
0.0
  0
LTYPE
  5
16
330
5
100
AcDbSymbolTableRecord
100
AcDbLinetypeTableRecord
  2
Continuous
 70
     0
  3
Solid line
 72
    65
 73
     0
 40
0.0
  0
LTYPE
  5
2A
330
5
100
AcDbSymbolTableRecord
100
AcDbLinetypeTableRecord
  2
DASHED
 70
     0
  3
__ __ __ __ __
 72
    65
 73
     2
 40
6.25
 49
5.0
 74
     4
 75
     0
340
0
 46
1.0
 50
0.0
 44
0.0
 45
0.0
 49
-1.25
 74
     4
 75
     0
340
0
 46
1.0
 50
0.0
 44
0.0
 45
0.0
  0
LTYPE
  5
39
330
5
100
AcDbSymbolTableRecord
100
AcDbLinetypeTableRecord
  2
DASHDOT
 70
     0
  3
__ . __ . __ . __ . __
 72
    65
 73
     4
 40
7.5
 49
5.0
 74
     4
 75
     0
340
0
 46
1.0
 50
0.0
 44
0.0
 45
0.0
 49
-1.25
 74
     4
 75
     0
340
0
 46
1.0
 50
0.0
 44
0.0
 45
0.0
 49
0.0
 74
     4
 75
     0
340
0
 46
1.0
 50
0.0
 44
0.0
 45
0.0
 49
-1.25
 74
     4
 75
     0
340
0
 46
1.0
 50
0.0
 44
0.0
 45
0.0
  0
ENDTAB
  0
TABLE
  2
LAYER
  5
2
330
0
100
AcDbSymbolTable
 70
    11
  0
LAYER
  5
10
330
2
100
AcDbSymbolTableRecord
100
AcDbLayerTableRecord
  2
0
 70
     0
 62
     7
  6
Continuous
370
    -3
390
F
  0
LAYER
  5
2B
330
2
100
AcDbSymbolTableRecord
100
AcDbLayerTableRecord
  2
LC-INFO-1-5-mm-A2-0
 70
     1
 62
     7
  6
ByBlock
370
    -3
390
F
  0
LAYER
  5
2C
330
2
100
AcDbSymbolTableRecord
100
AcDbLayerTableRecord
  2
LC-CUT-HIDDEN
 70
     0
 62
     7
  6
DASHED
370
    -3
390
F
  0
LAYER
  5
2D
330
2
100
AcDbSymbolTableRecord
100
AcDbLayerTableRecord
  2
LC-VIEWPORT
 70
     0
 62
     7
  6
ByBlock
370
    -3
390
F
  0
LAYER
  5
2E
330
2
100
AcDbSymbolTableRecord
100
AcDbLayerTableRecord
  2
LC-3D-HIDDEN
 70
     0
 62
     9
  6
DASHED
370
    -3
390
F
  0
LAYER
  5
30
330
2
100
AcDbSymbolTableRecord
100
AcDbLayerTableRecord
  2
LC-001-002-----0
 70
     0
 62
     1
  6
ByBlock
370
    -3
390
F
  0
LAYER
  5
3A
330
2
100
AcDbSymbolTableRecord
100
AcDbLayerTableRecord
  2
LC-002-006-MLN-0
 70
     0
 62
     2
  6
DASHDOT
370
    -3
390
F
  0
LAYER
  5
45
330
2
100
AcDbSymbolTableRecord
100
AcDbLayerTableRecord
  2
LC-003-003-----0
 70
     0
 62
     2
  6
ByBlock
370
    -3
390
F
  0
LAYER
  5
47
330
2
100
AcDbSymbolTableRecord
100
AcDbLayerTableRecord
  2
Defpoints
 70
     0
 62
     7
  6
Continuous
290
     0
370
    -3
390
F
  0
LAYER
  5
70
330
2
100
AcDbSymbolTableRecord
100
AcDbLayerTableRecord
  2
LC-004-005-----0
 70
     0
 62
     2
  6
ByBlock
370
    -3
390
F
  0
LAYER
  5
87
330
2
100
AcDbSymbolTableRecord
100
AcDbLayerTableRecord
  2
LC-005-002-RND-0
 70
     0
 62
     1
  6
ByBlock
370
    -3
390
F
  0
ENDTAB
  0
TABLE
  2
STYLE
  5
3
330
0
100
AcDbSymbolTable
 70
     3
  0
STYLE
  5
11
330
3
100
AcDbSymbolTableRecord
100
AcDbTextStyleTableRecord
  2
Standard
 70
     0
 40
0.0
 41
1.0
 50
0.0
 71
     0
 42
2.5
  3
txt
  4

  0
STYLE
  5
2F
330
3
100
AcDbSymbolTableRecord
100
AcDbTextStyleTableRecord
  2
LCTX15-400-0-0-Arial
 70
     0
 40
0.0
 41
0.9
 50
0.0
 71
     0
 42
3.5
  3

  4

1001
ACAD
1000
Arial
1071
 16777218
  0
STYLE
  5
43
330
3
100
AcDbSymbolTableRecord
100
AcDbTextStyleTableRecord
  2
LCTX15-400-0-0pDIN-Schrift
 70
     0
 40
2.5
 41
0.8
 50
15.0
 71
     0
 42
3.5
  3
STANDARD
  4

  0
ENDTAB
  0
TABLE
  2
VIEW
  5
6
330
0
100
AcDbSymbolTable
 70
     0
  0
ENDTAB
  0
TABLE
  2
UCS
  5
7
330
0
100
AcDbSymbolTable
 70
     0
  0
ENDTAB
  0
TABLE
  2
APPID
  5
9
330
0
100
AcDbSymbolTable
 70
     1
  0
APPID
  5
12
330
9
100
AcDbSymbolTableRecord
100
AcDbRegAppTableRecord
  2
ACAD
 70
     0
  0
ENDTAB
  0
TABLE
  2
DIMSTYLE
  5
A
330
0
100
AcDbSymbolTable
 70
     2
100
AcDbDimStyleTable
  0
DIMSTYLE
105
27
330
A
100
AcDbSymbolTableRecord
100
AcDbDimStyleTableRecord
  2
ISO-25
 70
     0
 41
2.5
 42
0.625
 43
3.75
 44
1.25
 73
     0
 74
     0
 77
     1
 78
     8
140
2.5
141
2.5
143
0.03937
147
0.625
171
     3
172
     1
271
     2
272
     2
274
     3
278
    44
283
     0
284
     8
340
11
  0
DIMSTYLE
105
44
102
{ACAD_REACTORS
330
46
330
5F
102
}
330
A
100
AcDbSymbolTableRecord
100
AcDbDimStyleTableRecord
  2
LC-DIM-L-0140-02-02
 70
     0
 40
5.0
 41
14.0
 42
0.0
 43
7.5
 44
1.8
 73
     0
 74
     0
 77
     1
 78
     8
 79
     2
140
14.0
141
0.0
146
0.71
147
1.5
176
     2
177
     2
178
     2
179
     2
271
     2
278
    44
289
     1
340
43
  0
ENDTAB
  0
TABLE
  2
BLOCK_RECORD
  5
1
330
0
100
AcDbSymbolTable
 70
     8
  0
BLOCK_RECORD
  5
1F
330
1
100
AcDbSymbolTableRecord
100
AcDbBlockTableRecord
  2
*Model_Space
340
22
  0
BLOCK_RECORD
  5
1B
330
1
100
AcDbSymbolTableRecord
100
AcDbBlockTableRecord
  2
*Paper_Space
340
1E
  0
BLOCK_RECORD
  5
23
330
1
100
AcDbSymbolTableRecord
100
AcDbBlockTableRecord
  2
*Paper_Space0
340
26
  0
BLOCK_RECORD
  5
48
330
1
100
AcDbSymbolTableRecord
100
AcDbBlockTableRecord
  2
*D1
340
0
  0
BLOCK_RECORD
  5
60
330
1
100
AcDbSymbolTableRecord
100
AcDbBlockTableRecord
  2
*D2
340
0
  0
BLOCK_RECORD
  5
6D
330
1
100
AcDbSymbolTableRecord
100
AcDbBlockTableRecord
  2
*X13
340
0
102
{BLKREFS
331
79
102
}
  0
BLOCK_RECORD
  5
B5
330
1
100
AcDbSymbolTableRecord
100
AcDbBlockTableRecord
  2
*X24
340
0
102
{BLKREFS
331
C6
102
}
  0
BLOCK_RECORD
  5
D6
330
1
100
AcDbSymbolTableRecord
100
AcDbBlockTableRecord
  2
*X35
340
0
102
{BLKREFS
331
15A
102
}
  0
BLOCK_RECORD
  5
15C
330
1
100
AcDbSymbolTableRecord
100
AcDbBlockTableRecord
  2
*X46
340
0
102
{BLKREFS
331
181
102
}
  0
BLOCK_RECORD
  5
183
330
1
100
AcDbSymbolTableRecord
100
AcDbBlockTableRecord
  2
*X57
340
0
102
{BLKREFS
331
1A6
102
}
  0
ENDTAB
  0
ENDSEC
  0
SECTION
  2
BLOCKS
  0
BLOCK
  5
20
330
1F
100
AcDbEntity
  8
0
100
AcDbBlockBegin
  2
*Model_Space
 70
     0
 71
     0
 10
0.0
 20
0.0
 30
0.0
  3
*Model_Space
  1

  0
ENDBLK
  5
21
330
1F
100
AcDbEntity
  8
0
100
AcDbBlockEnd
  0
BLOCK
  5
1C
330
1B
100
AcDbEntity
 67
     1
  8
0
100
AcDbBlockBegin
  2
*Paper_Space
 70
     0
 71
     0
 10
0.0
 20
0.0
 30
0.0
  3
*Paper_Space
  1

  0
ENDBLK
  5
1D
330
1B
100
AcDbEntity
 67
     1
  8
0
100
AcDbBlockEnd
  0
BLOCK
  5
24
330
23
100
AcDbEntity
  8
0
100
AcDbBlockBegin
  2
*Paper_Space0
 70
     0
 71
     0
 10
0.0
 20
0.0
 30
0.0
  3
*Paper_Space0
  1

  0
ENDBLK
  5
25
330
23
100
AcDbEntity
  8
0
100
AcDbBlockEnd
  0
BLOCK
  5
52
330
48
100
AcDbEntity
  8
0
100
AcDbBlockBegin
  2
*D1
 70
     1
 71
     0
 10
0.0
 20
0.0
 30
0.0
  3
*D1
  1

  0
LINE
  5
49
330
48
100
AcDbEntity
  8
LC-003-003-----0
 62
     2
370
    -2
100
AcDbLine
 10
-59.469838
 20
1504.898001
 30
0.0
 11
-59.469838
 21
1585.0
 31
0.0
  0
LINE
  5
4A
330
48
100
AcDbEntity
  8
LC-003-003-----0
 62
     2
370
    -2
100
AcDbLine
 10
1440.530162
 20
1504.898001
 30
0.0
 11
1440.530162
 21
1585.0
 31
0.0
  0
LINE
  5
4B
330
48
100
AcDbEntity
  8
LC-003-003-----0
 62
     2
370
    -2
100
AcDbLine
 10
10.530162
 20
1576.0
 30
0.0
 11
1370.530162
 21
1576.0
 31
0.0
  0
SOLID
  5
4C
330
48
100
AcDbEntity
  8
LC-003-003-----0
 62
     2
100
AcDbTrace
 10
10.530162
 20
1587.666667
 30
0.0
 11
10.530162
 21
1564.333333
 31
0.0
 12
-59.469838
 22
1576.0
 32
0.0
 13
-59.469838
 23
1576.0
 33
0.0
  0
SOLID
  5
4D
330
48
100
AcDbEntity
  8
LC-003-003-----0
 62
     2
100
AcDbTrace
 10
1370.530162
 20
1564.333333
 30
0.0
 11
1370.530162
 21
1587.666667
 31
0.0
 12
1440.530162
 22
1576.0
 32
0.0
 13
1440.530162
 23
1576.0
 33
0.0
  0
MTEXT
  5
4E
330
48
100
AcDbEntity
  8
LC-003-003-----0
 62
     2
100
AcDbMText
 10
654.409202
 20
1653.0
 30
0.0
 40
70.0
 41
0.0
 71
     5
 72
     1
  1
\A1;1500
  7
LCTX15-400-0-0pDIN-Schrift
 73
     1
 44
1.0
  0
POINT
  5
4F
330
48
100
AcDbEntity
  8
Defpoints
 62
     0
100
AcDbPoint
 10
-59.469838
 20
1504.898001
 30
0.0
  0
POINT
  5
50
330
48
100
AcDbEntity
  8
Defpoints
 62
     0
100
AcDbPoint
 10
1440.530162
 20
1504.898001
 30
0.0
  0
POINT
  5
51
330
48
100
AcDbEntity
  8
Defpoints
 62
     0
100
AcDbPoint
 10
1440.530162
 20
1576.0
 30
0.0
  0
ENDBLK
  5
53
330
48
100
AcDbEntity
  8
0
100
AcDbBlockEnd
  0
BLOCK
  5
6B
330
60
100
AcDbEntity
  8
0
100
AcDbBlockBegin
  2
*D2
 70
     1
 71
     0
 10
0.0
 20
0.0
 30
0.0
  3
*D2
  1

  0
LINE
  5
61
330
60
100
AcDbEntity
  8
LC-003-003-----0
 62
     2
370
    -2
100
AcDbLine
 10
-59.469838
 20
1738.668286
 30
0.0
 11
-160.241718
 21
1738.668286
 31
0.0
  0
LINE
  5
62
330
60
100
AcDbEntity
  8
LC-003-003-----0
 62
     2
370
    -2
100
AcDbLine
 10
-59.469838
 20
1698.668286
 30
0.0
 11
-160.241718
 21
1698.668286
 31
0.0
  0
LINE
  5
63
330
60
100
AcDbEntity
  8
LC-003-003-----0
 62
     2
370
    -2
100
AcDbLine
 10
-151.241718
 20
1808.668286
 30
0.0
 11
-151.241718
 21
1878.668286
 31
0.0
  0
LINE
  5
64
330
60
100
AcDbEntity
  8
LC-003-003-----0
 62
     2
370
    -2
100
AcDbLine
 10
-151.241718
 20
1628.668286
 30
0.0
 11
-151.241718
 21
1517.93418
 31
0.0
  0
SOLID
  5
65
330
60
100
AcDbEntity
  8
LC-003-003-----0
 62
     2
100
AcDbTrace
 10
-162.908384
 20
1808.668286
 30
0.0
 11
-139.575051
 21
1808.668286
 31
0.0
 12
-151.241718
 22
1738.668286
 32
0.0
 13
-151.241718
 23
1738.668286
 33
0.0
  0
SOLID
  5
66
330
60
100
AcDbEntity
  8
LC-003-003-----0
 62
     2
100
AcDbTrace
 10
-139.575051
 20
1628.668286
 30
0.0
 11
-162.908384
 21
1628.668286
 31
0.0
 12
-151.241718
 22
1698.668286
 32
0.0
 13
-151.241718
 23
1698.668286
 33
0.0
  0
MTEXT
  5
67
330
60
100
AcDbEntity
  8
LC-003-003-----0
 62
     2
100
AcDbMText
 10
-228.241718
 20
1573.9
 30
0.0
 40
70.0
 41
0.0
 71
     5
 72
     1
  1
\A1;40
  7
LCTX15-400-0-0pDIN-Schrift
 11
6.123031769111886E-17
 21
1.0
 31
0.0
 73
     1
 44
1.0
  0
POINT
  5
68
330
60
100
AcDbEntity
  8
Defpoints
 62
     0
100
AcDbPoint
 10
-59.469838
 20
1738.668286
 30
0.0
  0
POINT
  5
69
330
60
100
AcDbEntity
  8
Defpoints
 62
     0
100
AcDbPoint
 10
-59.469838
 20
1698.668286
 30
0.0
  0
POINT
  5
6A
330
60
100
AcDbEntity
  8
Defpoints
 62
     0
100
AcDbPoint
 10
-151.241718
 20
1698.668286
 30
0.0
  0
ENDBLK
  5
6C
330
60
100
AcDbEntity
  8
0
100
AcDbBlockEnd
  0
BLOCK
  5
6E
330
6D
100
AcDbEntity
  8
0
100
AcDbBlockBegin
  2
*X13
 70
     1
 71
     0
 10
0.0
 20
0.0
 30
0.0
  3
*X13
  1

  4
*X1
  0
LINE
  5
71
330
6D
100
AcDbEntity
  8
LC-004-005-----0
 62
     7
370
    25
100
AcDbLine
 10
771.360373
 20
1697.670256
 30
0.0
 11
772.360373
 21
1698.670256
 31
0.0
  0
LINE
  5
72
330
6D
100
AcDbEntity
  8
LC-004-005-----0
 62
     7
370
    25
100
AcDbLine
 10
764.289305
 20
1697.670256
 30
0.0
 11
765.289305
 21
1698.670256
 31
0.0
  0
LINE
  5
73
330
6D
100
AcDbEntity
  8
LC-004-005-----0
 62
     7
370
    25
100
AcDbLine
 10
757.218237
 20
1697.670256
 30
0.0
 11
758.218237
 21
1698.670256
 31
0.0
  0
LINE
  5
74
330
6D
100
AcDbEntity
  8
LC-004-005-----0
 62
     7
370
    25
100
AcDbLine
 10
750.147169
 20
1697.670256
 30
0.0
 11
751.147169
 21
1698.670256
 31
0.0
  0
LINE
  5
75
330
6D
100
AcDbEntity
  8
LC-004-005-----0
 62
     7
370
    25
100
AcDbLine
 10
629.939016
 20
1697.670256
 30
0.0
 11
630.939016
 21
1698.670256
 31
0.0
  0
LINE
  5
76
330
6D
100
AcDbEntity
  8
LC-004-005-----0
 62
     7
370
    25
100
AcDbLine
 10
622.867949
 20
1697.670256
 30
0.0
 11
623.867949
 21
1698.670256
 31
0.0
  0
LINE
  5
77
330
6D
100
AcDbEntity
  8
LC-004-005-----0
 62
     7
370
    25
100
AcDbLine
 10
615.796881
 20
1697.670256
 30
0.0
 11
616.796881
 21
1698.670256
 31
0.0
  0
LINE
  5
78
330
6D
100
AcDbEntity
  8
LC-004-005-----0
 62
     7
370
    25
100
AcDbLine
 10
608.725813
 20
1697.670256
 30
0.0
 11
609.725813
 21
1698.670256
 31
0.0
  0
ENDBLK
  5
6F
330
6D
100
AcDbEntity
  8
0
100
AcDbBlockEnd
  0
BLOCK
  5
B6
330
B5
100
AcDbEntity
  8
0
100
AcDbBlockBegin
  2
*X24
 70
     1
 71
     0
 10
0.0
 20
0.0
 30
0.0
  3
*X24
  1

  4
*X2
  0
LINE
  5
B8
330
B5
100
AcDbEntity
  8
LC-004-005-----0
 62
     7
370
    25
100
AcDbLine
 10
777.225471
 20
1717.67749
 30
0.0
 11
778.722212
 21
1719.174231
 31
0.0
  0
LINE
  5
B9
330
B5
100
AcDbEntity
  8
LC-004-005-----0
 62
     7
370
    25
100
AcDbLine
 10
765.424673
 20
1712.94776
 30
0.0
 11
765.780162
 21
1713.303249
 31
0.0
  0
LINE
  5
BA
330
B5
100
AcDbEntity
  8
LC-004-005-----0
 62
     7
370
    25
100
AcDbLine
 10
770.154403
 20
1717.67749
 30
0.0
 11
771.651145
 21
1719.174231
 31
0.0
  0
LINE
  5
BB
330
B5
100
AcDbEntity
  8
LC-004-005-----0
 62
     7
370
    25
100
AcDbLine
 10
747.030162
 20
1701.624317
 30
0.0
 11
752.576369
 21
1707.170524
 31
0.0
  0
LINE
  5
BC
330
B5
100
AcDbEntity
  8
LC-004-005-----0
 62
     7
370
    25
100
AcDbLine
 10
752.780162
 20
1707.374317
 30
0.0
 11
759.081091
 21
1713.675246
 31
0.0
  0
LINE
  5
BD
330
B5
100
AcDbEntity
  8
LC-004-005-----0
 62
     7
370
    25
100
AcDbLine
 10
763.280162
 20
1717.874317
 30
0.0
 11
764.580077
 21
1719.174231
 31
0.0
  0
LINE
  5
BE
330
B5
100
AcDbEntity
  8
LC-004-005-----0
 62
     7
370
    25
100
AcDbLine
 10
632.530162
 20
1700.261402
 30
0.0
 11
634.030162
 21
1701.761402
 31
0.0
  0
LINE
  5
BF
330
B5
100
AcDbEntity
  8
LC-004-005-----0
 62
     7
370
    25
100
AcDbLine
 10
629.385703
 20
1704.18801
 30
0.0
 11
632.177172
 21
1706.979479
 31
0.0
  0
LINE
  5
C0
330
B5
100
AcDbEntity
  8
LC-004-005-----0
 62
     7
370
    25
100
AcDbLine
 10
625.06636
 20
1706.939735
 30
0.0
 11
627.870045
 21
1709.74342
 31
0.0
  0
LINE
  5
C1
330
B5
100
AcDbEntity
  8
LC-004-005-----0
 62
     7
370
    25
100
AcDbLine
 10
620.747017
 20
1709.69146
 30
0.0
 11
624.469504
 21
1713.413947
 31
0.0
  0
LINE
  5
C2
330
B5
100
AcDbEntity
  8
LC-004-005-----0
 62
     7
370
    25
100
AcDbLine
 10
616.427674
 20
1712.443185
 30
0.0
 11
617.780162
 21
1713.795673
 31
0.0
  0
LINE
  5
C3
330
B5
100
AcDbEntity
  8
LC-004-005-----0
 62
     7
370
    25
100
AcDbLine
 10
614.590911
 20
1717.67749
 30
0.0
 11
616.087653
 21
1719.174231
 31
0.0
  0
LINE
  5
C4
330
B5
100
AcDbEntity
  8
LC-004-005-----0
 62
     7
370
    25
100
AcDbLine
 10
607.519843
 20
1717.67749
 30
0.0
 11
609.016585
 21
1719.174231
 31
0.0
  0
LINE
  5
C5
330
B5
100
AcDbEntity
  8
LC-004-005-----0
 62
     7
370
    25
100
AcDbLine
 10
600.448775
 20
1717.67749
 30
0.0
 11
601.945517
 21
1719.174231
 31
0.0
  0
ENDBLK
  5
B7
330
B5
100
AcDbEntity
  8
0
100
AcDbBlockEnd
  0
BLOCK
  5
D7
330
D6
100
AcDbEntity
  8
0
100
AcDbBlockBegin
  2
*X35
 70
     1
 71
     0
 10
0.0
 20
0.0
 30
0.0
  3
*X35
  1

  4
*X3
  0
LINE
  5
D9
330
D6
100
AcDbEntity
  8
LC-004-005-----0
 62
     7
370
    25
100
AcDbLine
 10
1422.896641
 20
1698.668286
 30
0.0
 11
1425.396641
 21
1701.168286
 31
0.0
  0
LINE
  5
DA
330
D6
100
AcDbEntity
  8
LC-004-005-----0
 62
     7
370
    25
100
AcDbLine
 10
1401.683438
 20
1698.668286
 30
0.0
 11
1404.183438
 21
1701.168286
 31
0.0
  0
LINE
  5
DB
330
D6
100
AcDbEntity
  8
LC-004-005-----0
 62
     7
370
    25
100
AcDbLine
 10
1439.144973
 20
1736.129821
 30
0.0
 11
1440.530162
 21
1737.51501
 31
0.0
  0
LINE
  5
DC
330
D6
100
AcDbEntity
  8
LC-004-005-----0
 62
     7
370
    25
100
AcDbLine
 10
1380.470235
 20
1698.668286
 30
0.0
 11
1382.970235
 21
1701.168286
 31
0.0
  0
LINE
  5
DD
330
D6
100
AcDbEntity
  8
LC-004-005-----0
 62
     7
370
    25
100
AcDbLine
 10
1417.370957
 20
1735.569009
 30
0.0
 11
1419.93983
 21
1738.137882
 31
0.0
  0
LINE
  5
DE
330
D6
100
AcDbEntity
  8
LC-004-005-----0
 62
     7
370
    25
100
AcDbLine
 10
1359.257031
 20
1698.668286
 30
0.0
 11
1361.757031
 21
1701.168286
 31
0.0
  0
LINE
  5
DF
330
D6
100
AcDbEntity
  8
LC-004-005-----0
 62
     7
370
    25
100
AcDbLine
 10
1395.596942
 20
1735.008197
 30
0.0
 11
1398.165729
 21
1737.576984
 31
0.0
  0
LINE
  5
E0
330
D6
100
AcDbEntity
  8
LC-004-005-----0
 62
     7
370
    25
100
AcDbLine
 10
1338.043828
 20
1698.668286
 30
0.0
 11
1340.543828
 21
1701.168286
 31
0.0
  0
LINE
  5
E1
330
D6
100
AcDbEntity
  8
LC-004-005-----0
 62
     7
370
    25
100
AcDbLine
 10
1373.822926
 20
1734.447385
 30
0.0
 11
1376.391628
 21
1737.016086
 31
0.0
  0
LINE
  5
E2
330
D6
100
AcDbEntity
  8
LC-004-005-----0
 62
     7
370
    25
100
AcDbLine
 10
1316.830624
 20
1698.668286
 30
0.0
 11
1319.330624
 21
1701.168286
 31
0.0
  0
LINE
  5
E3
330
D6
100
AcDbEntity
  8
LC-004-005-----0
 62
     7
370
    25
100
AcDbLine
 10
1352.048911
 20
1733.886573
 30
0.0
 11
1354.617526
 21
1736.455188
 31
0.0
  0
LINE
  5
E4
330
D6
100
AcDbEntity
  8
LC-004-005-----0
 62
     7
370
    25
100
AcDbLine
 10
1295.617421
 20
1698.668286
 30
0.0
 11
1298.117421
 21
1701.168286
 31
0.0
  0
LINE
  5
E5
330
D6
100
AcDbEntity
  8
LC-004-005-----0
 62
     7
370
    25
100
AcDbLine
 10
1330.274895
 20
1733.32576
 30
0.0
 11
1332.843425
 21
1735.89429
 31
0.0
  0
LINE
  5
E6
330
D6
100
AcDbEntity
  8
LC-004-005-----0
 62
     7
370
    25
100
AcDbLine
 10
1274.404217
 20
1698.668286
 30
0.0
 11
1276.904217
 21
1701.168286
 31
0.0
  0
LINE
  5
E7
330
D6
100
AcDbEntity
  8
LC-004-005-----0
 62
     7
370
    25
100
AcDbLine
 10
1308.50088
 20
1732.764948
 30
0.0
 11
1311.069323
 21
1735.333392
 31
0.0
  0
LINE
  5
E8
330
D6
100
AcDbEntity
  8
LC-004-005-----0
 62
     7
370
    25
100
AcDbLine
 10
1253.191014
 20
1698.668286
 30
0.0
 11
1255.691014
 21
1701.168286
 31
0.0
  0
LINE
  5
E9
330
D6
100
AcDbEntity
  8
LC-004-005-----0
 62
     7
370
    25
100
AcDbLine
 10
1286.726864
 20
1732.204136
 30
0.0
 11
1289.295222
 21
1734.772494
 31
0.0
  0
LINE
  5
EA
330
D6
100
AcDbEntity
  8
LC-004-005-----0
 62
     7
370
    25
100
AcDbLine
 10
1231.977811
 20
1698.668286
 30
0.0
 11
1234.477811
 21
1701.168286
 31
0.0
  0
LINE
  5
EB
330
D6
100
AcDbEntity
  8
LC-004-005-----0
 62
     7
370
    25
100
AcDbLine
 10
1264.952849
 20
1731.643324
 30
0.0
 11
1267.521121
 21
1734.211596
 31
0.0
  0
LINE
  5
EC
330
D6
100
AcDbEntity
  8
LC-004-005-----0
 62
     7
370
    25
100
AcDbLine
 10
1210.764607
 20
1698.668286
 30
0.0
 11
1213.264607
 21
1701.168286
 31
0.0
  0
LINE
  5
ED
330
D6
100
AcDbEntity
  8
LC-004-005-----0
 62
     7
370
    25
100
AcDbLine
 10
1243.178833
 20
1731.082512
 30
0.0
 11
1245.747019
 21
1733.650698
 31
0.0
  0
LINE
  5
EE
330
D6
100
AcDbEntity
  8
LC-004-005-----0
 62
     7
370
    25
100
AcDbLine
 10
1189.551404
 20
1698.668286
 30
0.0
 11
1192.051404
 21
1701.168286
 31
0.0
  0
LINE
  5
EF
330
D6
100
AcDbEntity
  8
LC-004-005-----0
 62
     7
370
    25
100
AcDbLine
 10
1221.404818
 20
1730.5217
 30
0.0
 11
1223.972918
 21
1733.0898
 31
0.0
  0
LINE
  5
F0
330
D6
100
AcDbEntity
  8
LC-004-005-----0
 62
     7
370
    25
100
AcDbLine
 10
1168.3382
 20
1698.668286
 30
0.0
 11
1170.8382
 21
1701.168286
 31
0.0
  0
LINE
  5
F1
330
D6
100
AcDbEntity
  8
LC-004-005-----0
 62
     7
370
    25
100
AcDbLine
 10
1199.630802
 20
1729.960888
 30
0.0
 11
1202.198816
 21
1732.528902
 31
0.0
  0
LINE
  5
F2
330
D6
100
AcDbEntity
  8
LC-004-005-----0
 62
     7
370
    25
100
AcDbLine
 10
1147.124997
 20
1698.668286
 30
0.0
 11
1149.624997
 21
1701.168286
 31
0.0
  0
LINE
  5
F3
330
D6
100
AcDbEntity
  8
LC-004-005-----0
 62
     7
370
    25
100
AcDbLine
 10
1177.856786
 20
1729.400076
 30
0.0
 11
1180.424715
 21
1731.968004
 31
0.0
  0
LINE
  5
F4
330
D6
100
AcDbEntity
  8
LC-004-005-----0
 62
     7
370
    25
100
AcDbLine
 10
1125.911793
 20
1698.668286
 30
0.0
 11
1128.411793
 21
1701.168286
 31
0.0
  0
LINE
  5
F5
330
D6
100
AcDbEntity
  8
LC-004-005-----0
 62
     7
370
    25
100
AcDbLine
 10
1156.082771
 20
1728.839264
 30
0.0
 11
1158.650613
 21
1731.407106
 31
0.0
  0
LINE
  5
F6
330
D6
100
AcDbEntity
  8
LC-004-005-----0
 62
     7
370
    25
100
AcDbLine
 10
1104.69859
 20
1698.668286
 30
0.0
 11
1107.19859
 21
1701.168286
 31
0.0
  0
LINE
  5
F7
330
D6
100
AcDbEntity
  8
LC-004-005-----0
 62
     7
370
    25
100
AcDbLine
 10
1134.308755
 20
1728.278452
 30
0.0
 11
1136.876512
 21
1730.846208
 31
0.0
  0
LINE
  5
F8
330
D6
100
AcDbEntity
  8
LC-004-005-----0
 62
     7
370
    25
100
AcDbLine
 10
1083.485386
 20
1698.668286
 30
0.0
 11
1085.985386
 21
1701.168286
 31
0.0
  0
LINE
  5
F9
330
D6
100
AcDbEntity
  8
LC-004-005-----0
 62
     7
370
    25
100
AcDbLine
 10
1112.53474
 20
1727.717639
 30
0.0
 11
1115.102411
 21
1730.28531
 31
0.0
  0
LINE
  5
FA
330
D6
100
AcDbEntity
  8
LC-004-005-----0
 62
     7
370
    25
100
AcDbLine
 10
1062.272183
 20
1698.668286
 30
0.0
 11
1064.772183
 21
1701.168286
 31
0.0
  0
LINE
  5
FB
330
D6
100
AcDbEntity
  8
LC-004-005-----0
 62
     7
370
    25
100
AcDbLine
 10
1090.760724
 20
1727.156827
 30
0.0
 11
1093.328309
 21
1729.724412
 31
0.0
  0
LINE
  5
FC
330
D6
100
AcDbEntity
  8
LC-004-005-----0
 62
     7
370
    25
100
AcDbLine
 10
1041.05898
 20
1698.668286
 30
0.0
 11
1043.55898
 21
1701.168286
 31
0.0
  0
LINE
  5
FD
330
D6
100
AcDbEntity
  8
LC-004-005-----0
 62
     7
370
    25
100
AcDbLine
 10
1068.986709
 20
1726.596015
 30
0.0
 11
1071.554208
 21
1729.163514
 31
0.0
  0
LINE
  5
FE
330
D6
100
AcDbEntity
  8
LC-004-005-----0
 62
     7
370
    25
100
AcDbLine
 10
1019.845776
 20
1698.668286
 30
0.0
 11
1022.345776
 21
1701.168286
 31
0.0
  0
LINE
  5
FF
330
D6
100
AcDbEntity
  8
LC-004-005-----0
 62
     7
370
    25
100
AcDbLine
 10
1047.212693
 20
1726.035203
 30
0.0
 11
1049.780106
 21
1728.602616
 31
0.0
  0
LINE
  5
100
330
D6
100
AcDbEntity
  8
LC-004-005-----0
 62
     7
370
    25
100
AcDbLine
 10
998.632573
 20
1698.668286
 30
0.0
 11
1001.132573
 21
1701.168286
 31
0.0
  0
LINE
  5
101
330
D6
100
AcDbEntity
  8
LC-004-005-----0
 62
     7
370
    25
100
AcDbLine
 10
1025.438678
 20
1725.474391
 30
0.0
 11
1028.006005
 21
1728.041718
 31
0.0
  0
LINE
  5
102
330
D6
100
AcDbEntity
  8
LC-004-005-----0
 62
     7
370
    25
100
AcDbLine
 10
977.419369
 20
1698.668286
 30
0.0
 11
979.919369
 21
1701.168286
 31
0.0
  0
LINE
  5
103
330
D6
100
AcDbEntity
  8
LC-004-005-----0
 62
     7
370
    25
100
AcDbLine
 10
1003.664662
 20
1724.913579
 30
0.0
 11
1006.231904
 21
1727.48082
 31
0.0
  0
LINE
  5
104
330
D6
100
AcDbEntity
  8
LC-004-005-----0
 62
     7
370
    25
100
AcDbLine
 10
956.206166
 20
1698.668286
 30
0.0
 11
958.706166
 21
1701.168286
 31
0.0
  0
LINE
  5
105
330
D6
100
AcDbEntity
  8
LC-004-005-----0
 62
     7
370
    25
100
AcDbLine
 10
981.890647
 20
1724.352767
 30
0.0
 11
984.457802
 21
1726.919922
 31
0.0
  0
LINE
  5
106
330
D6
100
AcDbEntity
  8
LC-004-005-----0
 62
     7
370
    25
100
AcDbLine
 10
934.992962
 20
1698.668286
 30
0.0
 11
937.492962
 21
1701.168286
 31
0.0
  0
LINE
  5
107
330
D6
100
AcDbEntity
  8
LC-004-005-----0
 62
     7
370
    25
100
AcDbLine
 10
960.116631
 20
1723.791955
 30
0.0
 11
962.683701
 21
1726.359025
 31
0.0
  0
LINE
  5
108
330
D6
100
AcDbEntity
  8
LC-004-005-----0
 62
     7
370
    25
100
AcDbLine
 10
913.779759
 20
1698.668286
 30
0.0
 11
916.279759
 21
1701.168286
 31
0.0
  0
LINE
  5
109
330
D6
100
AcDbEntity
  8
LC-004-005-----0
 62
     7
370
    25
100
AcDbLine
 10
938.342615
 20
1723.231143
 30
0.0
 11
940.909599
 21
1725.798127
 31
0.0
  0
LINE
  5
10A
330
D6
100
AcDbEntity
  8
LC-004-005-----0
 62
     7
370
    25
100
AcDbLine
 10
892.566556
 20
1698.668286
 30
0.0
 11
895.066556
 21
1701.168286
 31
0.0
  0
LINE
  5
10B
330
D6
100
AcDbEntity
  8
LC-004-005-----0
 62
     7
370
    25
100
AcDbLine
 10
916.5686
 20
1722.67033
 30
0.0
 11
919.135498
 21
1725.237229
 31
0.0
  0
LINE
  5
10C
330
D6
100
AcDbEntity
  8
LC-004-005-----0
 62
     7
370
    25
100
AcDbLine
 10
871.353352
 20
1698.668286
 30
0.0
 11
873.853352
 21
1701.168286
 31
0.0
  0
LINE
  5
10D
330
D6
100
AcDbEntity
  8
LC-004-005-----0
 62
     7
370
    25
100
AcDbLine
 10
894.794584
 20
1722.109518
 30
0.0
 11
897.361397
 21
1724.676331
 31
0.0
  0
LINE
  5
10E
330
D6
100
AcDbEntity
  8
LC-004-005-----0
 62
     7
370
    25
100
AcDbLine
 10
850.140149
 20
1698.668286
 30
0.0
 11
852.640149
 21
1701.168286
 31
0.0
  0
LINE
  5
10F
330
D6
100
AcDbEntity
  8
LC-004-005-----0
 62
     7
370
    25
100
AcDbLine
 10
873.020569
 20
1721.548706
 30
0.0
 11
875.587295
 21
1724.115433
 31
0.0
  0
LINE
  5
110
330
D6
100
AcDbEntity
  8
LC-004-005-----0
 62
     7
370
    25
100
AcDbLine
 10
828.926945
 20
1698.668286
 30
0.0
 11
831.426945
 21
1701.168286
 31
0.0
  0
LINE
  5
111
330
D6
100
AcDbEntity
  8
LC-004-005-----0
 62
     7
370
    25
100
AcDbLine
 10
851.246553
 20
1720.987894
 30
0.0
 11
853.813194
 21
1723.554535
 31
0.0
  0
LINE
  5
112
330
D6
100
AcDbEntity
  8
LC-004-005-----0
 62
     7
370
    25
100
AcDbLine
 10
807.713742
 20
1698.668286
 30
0.0
 11
810.213742
 21
1701.168286
 31
0.0
  0
LINE
  5
113
330
D6
100
AcDbEntity
  8
LC-004-005-----0
 62
     7
370
    25
100
AcDbLine
 10
829.472538
 20
1720.427082
 30
0.0
 11
832.039092
 21
1722.993637
 31
0.0
  0
LINE
  5
114
330
D6
100
AcDbEntity
  8
LC-004-005-----0
 62
     7
370
    25
100
AcDbLine
 10
786.500538
 20
1698.668286
 30
0.0
 11
789.000538
 21
1701.168286
 31
0.0
  0
LINE
  5
115
330
D6
100
AcDbEntity
  8
LC-004-005-----0
 62
     7
370
    25
100
AcDbLine
 10
807.698522
 20
1719.86627
 30
0.0
 11
810.264991
 21
1722.432739
 31
0.0
  0
LINE
  5
116
330
D6
100
AcDbEntity
  8
LC-004-005-----0
 62
     7
370
    25
100
AcDbLine
 10
765.287335
 20
1698.668286
 30
0.0
 11
767.787335
 21
1701.168286
 31
0.0
  0
LINE
  5
117
330
D6
100
AcDbEntity
  8
LC-004-005-----0
 62
     7
370
    25
100
AcDbLine
 10
785.924507
 20
1719.305458
 30
0.0
 11
788.49089
 21
1721.871841
 31
0.0
  0
LINE
  5
118
330
D6
100
AcDbEntity
  8
LC-004-005-----0
 62
     7
370
    25
100
AcDbLine
 10
764.580077
 20
1719.174231
 30
0.0
 11
767.079059
 21
1721.673213
 31
0.0
  0
LINE
  5
119
330
D6
100
AcDbEntity
  8
LC-004-005-----0
 62
     7
370
    25
100
AcDbLine
 10
616.794911
 20
1698.668286
 30
0.0
 11
619.294911
 21
1701.168286
 31
0.0
  0
LINE
  5
11A
330
D6
100
AcDbEntity
  8
LC-004-005-----0
 62
     7
370
    25
100
AcDbLine
 10
595.581707
 20
1698.668286
 30
0.0
 11
598.081707
 21
1701.168286
 31
0.0
  0
LINE
  5
11B
330
D6
100
AcDbEntity
  8
LC-004-005-----0
 62
     7
370
    25
100
AcDbLine
 10
616.091848
 20
1719.178427
 30
0.0
 11
617.283236
 21
1720.369814
 31
0.0
  0
LINE
  5
11C
330
D6
100
AcDbEntity
  8
LC-004-005-----0
 62
     7
370
    25
100
AcDbLine
 10
574.368504
 20
1698.668286
 30
0.0
 11
576.868504
 21
1701.168286
 31
0.0
  0
LINE
  5
11D
330
D6
100
AcDbEntity
  8
LC-004-005-----0
 62
     7
370
    25
100
AcDbLine
 10
595.008984
 20
1719.308766
 30
0.0
 11
597.446428
 21
1721.74621
 31
0.0
  0
LINE
  5
11E
330
D6
100
AcDbEntity
  8
LC-004-005-----0
 62
     7
370
    25
100
AcDbLine
 10
553.155301
 20
1698.668286
 30
0.0
 11
555.655301
 21
1701.168286
 31
0.0
  0
LINE
  5
11F
330
D6
100
AcDbEntity
  8
LC-004-005-----0
 62
     7
370
    25
100
AcDbLine
 10
574.328428
 20
1719.841414
 30
0.0
 11
576.765951
 21
1722.278936
 31
0.0
  0
LINE
  5
120
330
D6
100
AcDbEntity
  8
LC-004-005-----0
 62
     7
370
    25
100
AcDbLine
 10
531.942097
 20
1698.668286
 30
0.0
 11
534.442097
 21
1701.168286
 31
0.0
  0
LINE
  5
121
330
D6
100
AcDbEntity
  8
LC-004-005-----0
 62
     7
370
    25
100
AcDbLine
 10
553.647873
 20
1720.374062
 30
0.0
 11
556.085474
 21
1722.811663
 31
0.0
  0
LINE
  5
122
330
D6
100
AcDbEntity
  8
LC-004-005-----0
 62
     7
370
    25
100
AcDbLine
 10
510.728894
 20
1698.668286
 30
0.0
 11
513.228894
 21
1701.168286
 31
0.0
  0
LINE
  5
123
330
D6
100
AcDbEntity
  8
LC-004-005-----0
 62
     7
370
    25
100
AcDbLine
 10
532.967317
 20
1720.906709
 30
0.0
 11
535.404997
 21
1723.344389
 31
0.0
  0
LINE
  5
124
330
D6
100
AcDbEntity
  8
LC-004-005-----0
 62
     7
370
    25
100
AcDbLine
 10
489.51569
 20
1698.668286
 30
0.0
 11
492.01569
 21
1701.168286
 31
0.0
  0
LINE
  5
125
330
D6
100
AcDbEntity
  8
LC-004-005-----0
 62
     7
370
    25
100
AcDbLine
 10
512.286761
 20
1721.439357
 30
0.0
 11
514.72452
 21
1723.877115
 31
0.0
  0
LINE
  5
126
330
D6
100
AcDbEntity
  8
LC-004-005-----0
 62
     7
370
    25
100
AcDbLine
 10
468.302487
 20
1698.668286
 30
0.0
 11
470.802487
 21
1701.168286
 31
0.0
  0
LINE
  5
127
330
D6
100
AcDbEntity
  8
LC-004-005-----0
 62
     7
370
    25
100
AcDbLine
 10
491.606205
 20
1721.972004
 30
0.0
 11
494.044043
 21
1724.409842
 31
0.0
  0
LINE
  5
128
330
D6
100
AcDbEntity
  8
LC-004-005-----0
 62
     7
370
    25
100
AcDbLine
 10
447.089283
 20
1698.668286
 30
0.0
 11
449.589283
 21
1701.168286
 31
0.0
  0
LINE
  5
129
330
D6
100
AcDbEntity
  8
LC-004-005-----0
 62
     7
370
    25
100
AcDbLine
 10
470.925649
 20
1722.504652
 30
0.0
 11
473.363565
 21
1724.942568
 31
0.0
  0
LINE
  5
12A
330
D6
100
AcDbEntity
  8
LC-004-005-----0
 62
     7
370
    25
100
AcDbLine
 10
425.87608
 20
1698.668286
 30
0.0
 11
428.37608
 21
1701.168286
 31
0.0
  0
LINE
  5
12B
330
D6
100
AcDbEntity
  8
LC-004-005-----0
 62
     7
370
    25
100
AcDbLine
 10
450.245093
 20
1723.0373
 30
0.0
 11
452.683088
 21
1725.475295
 31
0.0
  0
LINE
  5
12C
330
D6
100
AcDbEntity
  8
LC-004-005-----0
 62
     7
370
    25
100
AcDbLine
 10
404.662877
 20
1698.668286
 30
0.0
 11
407.162877
 21
1701.168286
 31
0.0
  0
LINE
  5
12D
330
D6
100
AcDbEntity
  8
LC-004-005-----0
 62
     7
370
    25
100
AcDbLine
 10
429.564538
 20
1723.569947
 30
0.0
 11
432.002611
 21
1726.008021
 31
0.0
  0
LINE
  5
12E
330
D6
100
AcDbEntity
  8
LC-004-005-----0
 62
     7
370
    25
100
AcDbLine
 10
383.449673
 20
1698.668286
 30
0.0
 11
385.949673
 21
1701.168286
 31
0.0
  0
LINE
  5
12F
330
D6
100
AcDbEntity
  8
LC-004-005-----0
 62
     7
370
    25
100
AcDbLine
 10
408.883982
 20
1724.102595
 30
0.0
 11
411.322134
 21
1726.540747
 31
0.0
  0
LINE
  5
130
330
D6
100
AcDbEntity
  8
LC-004-005-----0
 62
     7
370
    25
100
AcDbLine
 10
362.23647
 20
1698.668286
 30
0.0
 11
364.73647
 21
1701.168286
 31
0.0
  0
LINE
  5
131
330
D6
100
AcDbEntity
  8
LC-004-005-----0
 62
     7
370
    25
100
AcDbLine
 10
388.203426
 20
1724.635242
 30
0.0
 11
390.641657
 21
1727.073474
 31
0.0
  0
LINE
  5
132
330
D6
100
AcDbEntity
  8
LC-004-005-----0
 62
     7
370
    25
100
AcDbLine
 10
341.023266
 20
1698.668286
 30
0.0
 11
343.523266
 21
1701.168286
 31
0.0
  0
LINE
  5
133
330
D6
100
AcDbEntity
  8
LC-004-005-----0
 62
     7
370
    25
100
AcDbLine
 10
367.52287
 20
1725.16789
 30
0.0
 11
369.96118
 21
1727.6062
 31
0.0
  0
LINE
  5
134
330
D6
100
AcDbEntity
  8
LC-004-005-----0
 62
     7
370
    25
100
AcDbLine
 10
319.810063
 20
1698.668286
 30
0.0
 11
322.310063
 21
1701.168286
 31
0.0
  0
LINE
  5
135
330
D6
100
AcDbEntity
  8
LC-004-005-----0
 62
     7
370
    25
100
AcDbLine
 10
346.842314
 20
1725.700538
 30
0.0
 11
349.280703
 21
1728.138926
 31
0.0
  0
LINE
  5
136
330
D6
100
AcDbEntity
  8
LC-004-005-----0
 62
     7
370
    25
100
AcDbLine
 10
298.596859
 20
1698.668286
 30
0.0
 11
301.096859
 21
1701.168286
 31
0.0
  0
LINE
  5
137
330
D6
100
AcDbEntity
  8
LC-004-005-----0
 62
     7
370
    25
100
AcDbLine
 10
326.161758
 20
1726.233185
 30
0.0
 11
328.600226
 21
1728.671653
 31
0.0
  0
LINE
  5
138
330
D6
100
AcDbEntity
  8
LC-004-005-----0
 62
     7
370
    25
100
AcDbLine
 10
277.383656
 20
1698.668286
 30
0.0
 11
279.883656
 21
1701.168286
 31
0.0
  0
LINE
  5
139
330
D6
100
AcDbEntity
  8
LC-004-005-----0
 62
     7
370
    25
100
AcDbLine
 10
305.481203
 20
1726.765833
 30
0.0
 11
307.919749
 21
1729.204379
 31
0.0
  0
LINE
  5
13A
330
D6
100
AcDbEntity
  8
LC-004-005-----0
 62
     7
370
    25
100
AcDbLine
 10
256.170452
 20
1698.668286
 30
0.0
 11
258.670452
 21
1701.168286
 31
0.0
  0
LINE
  5
13B
330
D6
100
AcDbEntity
  8
LC-004-005-----0
 62
     7
370
    25
100
AcDbLine
 10
284.800647
 20
1727.29848
 30
0.0
 11
287.239272
 21
1729.737105
 31
0.0
  0
LINE
  5
13C
330
D6
100
AcDbEntity
  8
LC-004-005-----0
 62
     7
370
    25
100
AcDbLine
 10
234.957249
 20
1698.668286
 30
0.0
 11
237.457249
 21
1701.168286
 31
0.0
  0
LINE
  5
13D
330
D6
100
AcDbEntity
  8
LC-004-005-----0
 62
     7
370
    25
100
AcDbLine
 10
264.120091
 20
1727.831128
 30
0.0
 11
266.558795
 21
1730.269832
 31
0.0
  0
LINE
  5
13E
330
D6
100
AcDbEntity
  8
LC-004-005-----0
 62
     7
370
    25
100
AcDbLine
 10
213.744046
 20
1698.668286
 30
0.0
 11
216.244046
 21
1701.168286
 31
0.0
  0
LINE
  5
13F
330
D6
100
AcDbEntity
  8
LC-004-005-----0
 62
     7
370
    25
100
AcDbLine
 10
243.439535
 20
1728.363776
 30
0.0
 11
245.878318
 21
1730.802558
 31
0.0
  0
LINE
  5
140
330
D6
100
AcDbEntity
  8
LC-004-005-----0
 62
     7
370
    25
100
AcDbLine
 10
192.530842
 20
1698.668286
 30
0.0
 11
195.030842
 21
1701.168286
 31
0.0
  0
LINE
  5
141
330
D6
100
AcDbEntity
  8
LC-004-005-----0
 62
     7
370
    25
100
AcDbLine
 10
222.758979
 20
1728.896423
 30
0.0
 11
225.19784
 21
1731.335284
 31
0.0
  0
LINE
  5
142
330
D6
100
AcDbEntity
  8
LC-004-005-----0
 62
     7
370
    25
100
AcDbLine
 10
171.317639
 20
1698.668286
 30
0.0
 11
173.817639
 21
1701.168286
 31
0.0
  0
LINE
  5
143
330
D6
100
AcDbEntity
  8
LC-004-005-----0
 62
     7
370
    25
100
AcDbLine
 10
202.078424
 20
1729.429071
 30
0.0
 11
204.517363
 21
1731.868011
 31
0.0
  0
LINE
  5
144
330
D6
100
AcDbEntity
  8
LC-004-005-----0
 62
     7
370
    25
100
AcDbLine
 10
150.104435
 20
1698.668286
 30
0.0
 11
152.604435
 21
1701.168286
 31
0.0
  0
LINE
  5
145
330
D6
100
AcDbEntity
  8
LC-004-005-----0
 62
     7
370
    25
100
AcDbLine
 10
181.397868
 20
1729.961719
 30
0.0
 11
183.836886
 21
1732.400737
 31
0.0
  0
LINE
  5
146
330
D6
100
AcDbEntity
  8
LC-004-005-----0
 62
     7
370
    25
100
AcDbLine
 10
128.891232
 20
1698.668286
 30
0.0
 11
131.391232
 21
1701.168286
 31
0.0
  0
LINE
  5
147
330
D6
100
AcDbEntity
  8
LC-004-005-----0
 62
     7
370
    25
100
AcDbLine
 10
160.717312
 20
1730.494366
 30
0.0
 11
163.156409
 21
1732.933463
 31
0.0
  0
LINE
  5
148
330
D6
100
AcDbEntity
  8
LC-004-005-----0
 62
     7
370
    25
100
AcDbLine
 10
107.678028
 20
1698.668286
 30
0.0
 11
110.178028
 21
1701.168286
 31
0.0
  0
LINE
  5
149
330
D6
100
AcDbEntity
  8
LC-004-005-----0
 62
     7
370
    25
100
AcDbLine
 10
140.036756
 20
1731.027014
 30
0.0
 11
142.475932
 21
1733.46619
 31
0.0
  0
LINE
  5
14A
330
D6
100
AcDbEntity
  8
LC-004-005-----0
 62
     7
370
    25
100
AcDbLine
 10
86.464825
 20
1698.668286
 30
0.0
 11
88.964825
 21
1701.168286
 31
0.0
  0
LINE
  5
14B
330
D6
100
AcDbEntity
  8
LC-004-005-----0
 62
     7
370
    25
100
AcDbLine
 10
119.3562
 20
1731.559661
 30
0.0
 11
121.795455
 21
1733.998916
 31
0.0
  0
LINE
  5
14C
330
D6
100
AcDbEntity
  8
LC-004-005-----0
 62
     7
370
    25
100
AcDbLine
 10
65.251622
 20
1698.668286
 30
0.0
 11
67.751622
 21
1701.168286
 31
0.0
  0
LINE
  5
14D
330
D6
100
AcDbEntity
  8
LC-004-005-----0
 62
     7
370
    25
100
AcDbLine
 10
98.675644
 20
1732.092309
 30
0.0
 11
101.114978
 21
1734.531642
 31
0.0
  0
LINE
  5
14E
330
D6
100
AcDbEntity
  8
LC-004-005-----0
 62
     7
370
    25
100
AcDbLine
 10
44.038418
 20
1698.668286
 30
0.0
 11
46.538418
 21
1701.168286
 31
0.0
  0
LINE
  5
14F
330
D6
100
AcDbEntity
  8
LC-004-005-----0
 62
     7
370
    25
100
AcDbLine
 10
77.995089
 20
1732.624957
 30
0.0
 11
80.434501
 21
1735.064369
 31
0.0
  0
LINE
  5
150
330
D6
100
AcDbEntity
  8
LC-004-005-----0
 62
     7
370
    25
100
AcDbLine
 10
22.825215
 20
1698.668286
 30
0.0
 11
25.325215
 21
1701.168286
 31
0.0
  0
LINE
  5
151
330
D6
100
AcDbEntity
  8
LC-004-005-----0
 62
     7
370
    25
100
AcDbLine
 10
57.314533
 20
1733.157604
 30
0.0
 11
59.754024
 21
1735.597095
 31
0.0
  0
LINE
  5
152
330
D6
100
AcDbEntity
  8
LC-004-005-----0
 62
     7
370
    25
100
AcDbLine
 10
1.612011
 20
1698.668286
 30
0.0
 11
4.112011
 21
1701.168286
 31
0.0
  0
LINE
  5
153
330
D6
100
AcDbEntity
  8
LC-004-005-----0
 62
     7
370
    25
100
AcDbLine
 10
36.633977
 20
1733.690252
 30
0.0
 11
39.073547
 21
1736.129822
 31
0.0
  0
LINE
  5
154
330
D6
100
AcDbEntity
  8
LC-004-005-----0
 62
     7
370
    25
100
AcDbLine
 10
-19.601192
 20
1698.668286
 30
0.0
 11
-17.101192
 21
1701.168286
 31
0.0
  0
LINE
  5
155
330
D6
100
AcDbEntity
  8
LC-004-005-----0
 62
     7
370
    25
100
AcDbLine
 10
15.953421
 20
1734.222899
 30
0.0
 11
18.39307
 21
1736.662548
 31
0.0
  0
LINE
  5
156
330
D6
100
AcDbEntity
  8
LC-004-005-----0
 62
     7
370
    25
100
AcDbLine
 10
-40.814396
 20
1698.668286
 30
0.0
 11
-38.314396
 21
1701.168286
 31
0.0
  0
LINE
  5
157
330
D6
100
AcDbEntity
  8
LC-004-005-----0
 62
     7
370
    25
100
AcDbLine
 10
-4.727135
 20
1734.755547
 30
0.0
 11
-2.287407
 21
1737.195274
 31
0.0
  0
LINE
  5
158
330
D6
100
AcDbEntity
  8
LC-004-005-----0
 62
     7
370
    25
100
AcDbLine
 10
-25.407691
 20
1735.288195
 30
0.0
 11
-22.967885
 21
1737.728001
 31
0.0
  0
LINE
  5
159
330
D6
100
AcDbEntity
  8
LC-004-005-----0
 62
     7
370
    25
100
AcDbLine
 10
-46.088246
 20
1735.820842
 30
0.0
 11
-43.648362
 21
1738.260727
 31
0.0
  0
ENDBLK
  5
D8
330
D6
100
AcDbEntity
  8
0
100
AcDbBlockEnd
  0
BLOCK
  5
15D
330
15C
100
AcDbEntity
  8
0
100
AcDbBlockBegin
  2
*X46
 70
     1
 71
     0
 10
0.0
 20
0.0
 30
0.0
  3
*X46
  1

  4
*X4
  0
LINE
  5
15F
330
15C
100
AcDbEntity
  8
LC-004-005-----0
 62
     7
370
    25
100
AcDbLine
 10
619.294911
 20
1701.168286
 30
0.0
 11
625.06636
 21
1706.939735
 31
0.0
  0
LINE
  5
160
330
15C
100
AcDbEntity
  8
LC-004-005-----0
 62
     7
370
    25
100
AcDbLine
 10
598.081707
 20
1701.168286
 30
0.0
 11
614.590911
 21
1717.67749
 31
0.0
  0
LINE
  5
161
330
15C
100
AcDbEntity
  8
LC-004-005-----0
 62
     7
370
    25
100
AcDbLine
 10
576.868504
 20
1701.168286
 30
0.0
 11
595.008944
 21
1719.308726
 31
0.0
  0
LINE
  5
162
330
15C
100
AcDbEntity
  8
LC-004-005-----0
 62
     7
370
    25
100
AcDbLine
 10
555.655301
 20
1701.168286
 30
0.0
 11
574.328389
 21
1719.841375
 31
0.0
  0
LINE
  5
163
330
15C
100
AcDbEntity
  8
LC-004-005-----0
 62
     7
370
    25
100
AcDbLine
 10
534.442097
 20
1701.168286
 30
0.0
 11
553.647834
 21
1720.374023
 31
0.0
  0
LINE
  5
164
330
15C
100
AcDbEntity
  8
LC-004-005-----0
 62
     7
370
    25
100
AcDbLine
 10
513.228894
 20
1701.168286
 30
0.0
 11
532.96728
 21
1720.906672
 31
0.0
  0
LINE
  5
165
330
15C
100
AcDbEntity
  8
LC-004-005-----0
 62
     7
370
    25
100
AcDbLine
 10
492.01569
 20
1701.168286
 30
0.0
 11
512.286725
 21
1721.439321
 31
0.0
  0
LINE
  5
166
330
15C
100
AcDbEntity
  8
LC-004-005-----0
 62
     7
370
    25
100
AcDbLine
 10
470.802487
 20
1701.168286
 30
0.0
 11
491.606171
 21
1721.97197
 31
0.0
  0
LINE
  5
167
330
15C
100
AcDbEntity
  8
LC-004-005-----0
 62
     7
370
    25
100
AcDbLine
 10
449.589283
 20
1701.168286
 30
0.0
 11
470.925616
 21
1722.504619
 31
0.0
  0
LINE
  5
168
330
15C
100
AcDbEntity
  8
LC-004-005-----0
 62
     7
370
    25
100
AcDbLine
 10
428.37608
 20
1701.168286
 30
0.0
 11
450.245062
 21
1723.037268
 31
0.0
  0
LINE
  5
169
330
15C
100
AcDbEntity
  8
LC-004-005-----0
 62
     7
370
    25
100
AcDbLine
 10
407.162877
 20
1701.168286
 30
0.0
 11
429.564507
 21
1723.569917
 31
0.0
  0
LINE
  5
16A
330
15C
100
AcDbEntity
  8
LC-004-005-----0
 62
     7
370
    25
100
AcDbLine
 10
385.949673
 20
1701.168286
 30
0.0
 11
408.883953
 21
1724.102566
 31
0.0
  0
LINE
  5
16B
330
15C
100
AcDbEntity
  8
LC-004-005-----0
 62
     7
370
    25
100
AcDbLine
 10
364.73647
 20
1701.168286
 30
0.0
 11
388.203398
 21
1724.635215
 31
0.0
  0
LINE
  5
16C
330
15C
100
AcDbEntity
  8
LC-004-005-----0
 62
     7
370
    25
100
AcDbLine
 10
343.523266
 20
1701.168286
 30
0.0
 11
367.522844
 21
1725.167863
 31
0.0
  0
LINE
  5
16D
330
15C
100
AcDbEntity
  8
LC-004-005-----0
 62
     7
370
    25
100
AcDbLine
 10
322.310063
 20
1701.168286
 30
0.0
 11
346.842289
 21
1725.700512
 31
0.0
  0
LINE
  5
16E
330
15C
100
AcDbEntity
  8
LC-004-005-----0
 62
     7
370
    25
100
AcDbLine
 10
301.096859
 20
1701.168286
 30
0.0
 11
326.161735
 21
1726.233161
 31
0.0
  0
LINE
  5
16F
330
15C
100
AcDbEntity
  8
LC-004-005-----0
 62
     7
370
    25
100
AcDbLine
 10
279.883656
 20
1701.168286
 30
0.0
 11
305.48118
 21
1726.76581
 31
0.0
  0
LINE
  5
170
330
15C
100
AcDbEntity
  8
LC-004-005-----0
 62
     7
370
    25
100
AcDbLine
 10
258.670452
 20
1701.168286
 30
0.0
 11
284.800625
 21
1727.298459
 31
0.0
  0
LINE
  5
171
330
15C
100
AcDbEntity
  8
LC-004-005-----0
 62
     7
370
    25
100
AcDbLine
 10
237.457249
 20
1701.168286
 30
0.0
 11
264.120071
 21
1727.831108
 31
0.0
  0
LINE
  5
172
330
15C
100
AcDbEntity
  8
LC-004-005-----0
 62
     7
370
    25
100
AcDbLine
 10
216.244046
 20
1701.168286
 30
0.0
 11
243.439516
 21
1728.363757
 31
0.0
  0
LINE
  5
173
330
15C
100
AcDbEntity
  8
LC-004-005-----0
 62
     7
370
    25
100
AcDbLine
 10
195.030842
 20
1701.168286
 30
0.0
 11
222.758962
 21
1728.896406
 31
0.0
  0
LINE
  5
174
330
15C
100
AcDbEntity
  8
LC-004-005-----0
 62
     7
370
    25
100
AcDbLine
 10
173.817639
 20
1701.168286
 30
0.0
 11
202.078407
 21
1729.429055
 31
0.0
  0
LINE
  5
175
330
15C
100
AcDbEntity
  8
LC-004-005-----0
 62
     7
370
    25
100
AcDbLine
 10
152.604435
 20
1701.168286
 30
0.0
 11
181.397853
 21
1729.961704
 31
0.0
  0
LINE
  5
176
330
15C
100
AcDbEntity
  8
LC-004-005-----0
 62
     7
370
    25
100
AcDbLine
 10
131.391232
 20
1701.168286
 30
0.0
 11
160.717298
 21
1730.494352
 31
0.0
  0
LINE
  5
177
330
15C
100
AcDbEntity
  8
LC-004-005-----0
 62
     7
370
    25
100
AcDbLine
 10
110.178028
 20
1701.168286
 30
0.0
 11
140.036744
 21
1731.027001
 31
0.0
  0
LINE
  5
178
330
15C
100
AcDbEntity
  8
LC-004-005-----0
 62
     7
370
    25
100
AcDbLine
 10
88.964825
 20
1701.168286
 30
0.0
 11
119.356189
 21
1731.55965
 31
0.0
  0
LINE
  5
179
330
15C
100
AcDbEntity
  8
LC-004-005-----0
 62
     7
370
    25
100
AcDbLine
 10
67.751622
 20
1701.168286
 30
0.0
 11
98.675635
 21
1732.092299
 31
0.0
  0
LINE
  5
17A
330
15C
100
AcDbEntity
  8
LC-004-005-----0
 62
     7
370
    25
100
AcDbLine
 10
46.538418
 20
1701.168286
 30
0.0
 11
77.99508
 21
1732.624948
 31
0.0
  0
LINE
  5
17B
330
15C
100
AcDbEntity
  8
LC-004-005-----0
 62
     7
370
    25
100
AcDbLine
 10
25.325215
 20
1701.168286
 30
0.0
 11
57.314525
 21
1733.157597
 31
0.0
  0
LINE
  5
17C
330
15C
100
AcDbEntity
  8
LC-004-005-----0
 62
     7
370
    25
100
AcDbLine
 10
4.112011
 20
1701.168286
 30
0.0
 11
36.633971
 21
1733.690246
 31
0.0
  0
LINE
  5
17D
330
15C
100
AcDbEntity
  8
LC-004-005-----0
 62
     7
370
    25
100
AcDbLine
 10
-17.101192
 20
1701.168286
 30
0.0
 11
15.953416
 21
1734.222895
 31
0.0
  0
LINE
  5
17E
330
15C
100
AcDbEntity
  8
LC-004-005-----0
 62
     7
370
    25
100
AcDbLine
 10
-38.314396
 20
1701.168286
 30
0.0
 11
-4.727138
 21
1734.755544
 31
0.0
  0
LINE
  5
17F
330
15C
100
AcDbEntity
  8
LC-004-005-----0
 62
     7
370
    25
100
AcDbLine
 10
-59.469838
 20
1701.226047
 30
0.0
 11
-25.407693
 21
1735.288192
 31
0.0
  0
LINE
  5
180
330
15C
100
AcDbEntity
  8
LC-004-005-----0
 62
     7
370
    25
100
AcDbLine
 10
-59.469838
 20
1722.439251
 30
0.0
 11
-46.088247
 21
1735.820841
 31
0.0
  0
ENDBLK
  5
15E
330
15C
100
AcDbEntity
  8
0
100
AcDbBlockEnd
  0
BLOCK
  5
184
330
183
100
AcDbEntity
  8
0
100
AcDbBlockBegin
  2
*X57
 70
     1
 71
     0
 10
0.0
 20
0.0
 30
0.0
  3
*X57
  1

  4
*X5
  0
LINE
  5
186
330
183
100
AcDbEntity
  8
LC-004-005-----0
 62
     7
370
    25
100
AcDbLine
 10
1425.396641
 20
1701.168286
 30
0.0
 11
1440.530162
 21
1716.301807
 31
0.0
  0
LINE
  5
187
330
183
100
AcDbEntity
  8
LC-004-005-----0
 62
     7
370
    25
100
AcDbLine
 10
1404.183438
 20
1701.168286
 30
0.0
 11
1439.144973
 21
1736.129821
 31
0.0
  0
LINE
  5
188
330
183
100
AcDbEntity
  8
LC-004-005-----0
 62
     7
370
    25
100
AcDbLine
 10
1382.970235
 20
1701.168286
 30
0.0
 11
1417.370957
 21
1735.569009
 31
0.0
  0
LINE
  5
189
330
183
100
AcDbEntity
  8
LC-004-005-----0
 62
     7
370
    25
100
AcDbLine
 10
1361.757031
 20
1701.168286
 30
0.0
 11
1395.596942
 21
1735.008197
 31
0.0
  0
LINE
  5
18A
330
183
100
AcDbEntity
  8
LC-004-005-----0
 62
     7
370
    25
100
AcDbLine
 10
1340.543828
 20
1701.168286
 30
0.0
 11
1373.822926
 21
1734.447385
 31
0.0
  0
LINE
  5
18B
330
183
100
AcDbEntity
  8
LC-004-005-----0
 62
     7
370
    25
100
AcDbLine
 10
1319.330624
 20
1701.168286
 30
0.0
 11
1352.048911
 21
1733.886573
 31
0.0
  0
LINE
  5
18C
330
183
100
AcDbEntity
  8
LC-004-005-----0
 62
     7
370
    25
100
AcDbLine
 10
1298.117421
 20
1701.168286
 30
0.0
 11
1330.274895
 21
1733.32576
 31
0.0
  0
LINE
  5
18D
330
183
100
AcDbEntity
  8
LC-004-005-----0
 62
     7
370
    25
100
AcDbLine
 10
1276.904217
 20
1701.168286
 30
0.0
 11
1308.50088
 21
1732.764948
 31
0.0
  0
LINE
  5
18E
330
183
100
AcDbEntity
  8
LC-004-005-----0
 62
     7
370
    25
100
AcDbLine
 10
1255.691014
 20
1701.168286
 30
0.0
 11
1286.726864
 21
1732.204136
 31
0.0
  0
LINE
  5
18F
330
183
100
AcDbEntity
  8
LC-004-005-----0
 62
     7
370
    25
100
AcDbLine
 10
1234.477811
 20
1701.168286
 30
0.0
 11
1264.952849
 21
1731.643324
 31
0.0
  0
LINE
  5
190
330
183
100
AcDbEntity
  8
LC-004-005-----0
 62
     7
370
    25
100
AcDbLine
 10
1213.264607
 20
1701.168286
 30
0.0
 11
1243.178833
 21
1731.082512
 31
0.0
  0
LINE
  5
191
330
183
100
AcDbEntity
  8
LC-004-005-----0
 62
     7
370
    25
100
AcDbLine
 10
1192.051404
 20
1701.168286
 30
0.0
 11
1221.404818
 21
1730.5217
 31
0.0
  0
LINE
  5
192
330
183
100
AcDbEntity
  8
LC-004-005-----0
 62
     7
370
    25
100
AcDbLine
 10
1170.8382
 20
1701.168286
 30
0.0
 11
1199.630802
 21
1729.960888
 31
0.0
  0
LINE
  5
193
330
183
100
AcDbEntity
  8
LC-004-005-----0
 62
     7
370
    25
100
AcDbLine
 10
1149.624997
 20
1701.168286
 30
0.0
 11
1177.856786
 21
1729.400076
 31
0.0
  0
LINE
  5
194
330
183
100
AcDbEntity
  8
LC-004-005-----0
 62
     7
370
    25
100
AcDbLine
 10
1128.411793
 20
1701.168286
 30
0.0
 11
1156.082771
 21
1728.839264
 31
0.0
  0
LINE
  5
195
330
183
100
AcDbEntity
  8
LC-004-005-----0
 62
     7
370
    25
100
AcDbLine
 10
1107.19859
 20
1701.168286
 30
0.0
 11
1134.308755
 21
1728.278452
 31
0.0
  0
LINE
  5
196
330
183
100
AcDbEntity
  8
LC-004-005-----0
 62
     7
370
    25
100
AcDbLine
 10
1085.985386
 20
1701.168286
 30
0.0
 11
1112.53474
 21
1727.717639
 31
0.0
  0
LINE
  5
197
330
183
100
AcDbEntity
  8
LC-004-005-----0
 62
     7
370
    25
100
AcDbLine
 10
1064.772183
 20
1701.168286
 30
0.0
 11
1090.760724
 21
1727.156827
 31
0.0
  0
LINE
  5
198
330
183
100
AcDbEntity
  8
LC-004-005-----0
 62
     7
370
    25
100
AcDbLine
 10
1043.55898
 20
1701.168286
 30
0.0
 11
1068.986709
 21
1726.596015
 31
0.0
  0
LINE
  5
199
330
183
100
AcDbEntity
  8
LC-004-005-----0
 62
     7
370
    25
100
AcDbLine
 10
1022.345776
 20
1701.168286
 30
0.0
 11
1047.212693
 21
1726.035203
 31
0.0
  0
LINE
  5
19A
330
183
100
AcDbEntity
  8
LC-004-005-----0
 62
     7
370
    25
100
AcDbLine
 10
1001.132573
 20
1701.168286
 30
0.0
 11
1025.438678
 21
1725.474391
 31
0.0
  0
LINE
  5
19B
330
183
100
AcDbEntity
  8
LC-004-005-----0
 62
     7
370
    25
100
AcDbLine
 10
979.919369
 20
1701.168286
 30
0.0
 11
1003.664662
 21
1724.913579
 31
0.0
  0
LINE
  5
19C
330
183
100
AcDbEntity
  8
LC-004-005-----0
 62
     7
370
    25
100
AcDbLine
 10
958.706166
 20
1701.168286
 30
0.0
 11
981.890647
 21
1724.352767
 31
0.0
  0
LINE
  5
19D
330
183
100
AcDbEntity
  8
LC-004-005-----0
 62
     7
370
    25
100
AcDbLine
 10
937.492962
 20
1701.168286
 30
0.0
 11
960.116631
 21
1723.791955
 31
0.0
  0
LINE
  5
19E
330
183
100
AcDbEntity
  8
LC-004-005-----0
 62
     7
370
    25
100
AcDbLine
 10
916.279759
 20
1701.168286
 30
0.0
 11
938.342615
 21
1723.231143
 31
0.0
  0
LINE
  5
19F
330
183
100
AcDbEntity
  8
LC-004-005-----0
 62
     7
370
    25
100
AcDbLine
 10
895.066556
 20
1701.168286
 30
0.0
 11
916.5686
 21
1722.67033
 31
0.0
  0
LINE
  5
1A0
330
183
100
AcDbEntity
  8
LC-004-005-----0
 62
     7
370
    25
100
AcDbLine
 10
873.853352
 20
1701.168286
 30
0.0
 11
894.794584
 21
1722.109518
 31
0.0
  0
LINE
  5
1A1
330
183
100
AcDbEntity
  8
LC-004-005-----0
 62
     7
370
    25
100
AcDbLine
 10
852.640149
 20
1701.168286
 30
0.0
 11
873.020569
 21
1721.548706
 31
0.0
  0
LINE
  5
1A2
330
183
100
AcDbEntity
  8
LC-004-005-----0
 62
     7
370
    25
100
AcDbLine
 10
831.426945
 20
1701.168286
 30
0.0
 11
851.246553
 21
1720.987894
 31
0.0
  0
LINE
  5
1A3
330
183
100
AcDbEntity
  8
LC-004-005-----0
 62
     7
370
    25
100
AcDbLine
 10
810.213742
 20
1701.168286
 30
0.0
 11
829.472538
 21
1720.427082
 31
0.0
  0
LINE
  5
1A4
330
183
100
AcDbEntity
  8
LC-004-005-----0
 62
     7
370
    25
100
AcDbLine
 10
789.000538
 20
1701.168286
 30
0.0
 11
807.698522
 21
1719.86627
 31
0.0
  0
LINE
  5
1A5
330
183
100
AcDbEntity
  8
LC-004-005-----0
 62
     7
370
    25
100
AcDbLine
 10
767.787335
 20
1701.168286
 30
0.0
 11
785.924507
 21
1719.305458
 31
0.0
  0
ENDBLK
  5
185
330
183
100
AcDbEntity
  8
0
100
AcDbBlockEnd
  0
ENDSEC
  0
SECTION
  2
ENTITIES
  0
LINE
  5
31
330
1F
100
AcDbEntity
  8
LC-001-002-----0
 62
     7
370
    50
100
AcDbLine
 10
-59.469838
 20
1504.898001
 30
0.0
 11
1440.530162
 21
1504.898001
 31
0.0
  0
LINE
  5
32
330
1F
100
AcDbEntity
  8
LC-001-002-----0
 62
     7
370
    50
100
AcDbLine
 10
1440.530162
 20
1504.898001
 30
0.0
 11
1440.530162
 21
4.898001
 31
0.0
  0
LINE
  5
33
330
1F
100
AcDbEntity
  8
LC-001-002-----0
 62
     7
370
    50
100
AcDbLine
 10
1440.530162
 20
4.898001
 30
0.0
 11
-59.469838
 21
4.898001
 31
0.0
  0
LINE
  5
34
330
1F
100
AcDbEntity
  8
LC-001-002-----0
 62
     7
370
    50
100
AcDbLine
 10
-59.469838
 20
4.898001
 30
0.0
 11
-59.469838
 21
1504.898001
 31
0.0
  0
LINE
  5
35
330
1F
100
AcDbEntity
  8
LC-001-002-----0
 62
     7
370
    50
100
AcDbLine
 10
-59.469838
 20
1504.898001
 30
0.0
 11
639.088144
 21
806.34002
 31
0.0
  0
LINE
  5
36
330
1F
100
AcDbEntity
  8
LC-001-002-----0
 62
     7
370
    50
100
AcDbLine
 10
1440.530162
 20
1504.898001
 30
0.0
 11
741.97218
 21
806.34002
 31
0.0
  0
LINE
  5
37
330
1F
100
AcDbEntity
  8
LC-001-002-----0
 62
     7
370
    50
100
AcDbLine
 10
741.97218
 20
703.455983
 30
0.0
 11
1440.530162
 21
4.898001
 31
0.0
  0
LINE
  5
38
330
1F
100
AcDbEntity
  8
LC-001-002-----0
 62
     7
370
    50
100
AcDbLine
 10
639.088144
 20
703.455983
 30
0.0
 11
-59.469838
 21
4.898001
 31
0.0
  0
LINE
  5
3B
102
{ACAD_REACTORS
330
1A7
102
}
330
1F
100
AcDbEntity
  8
LC-002-006-MLN-0
 62
     7
370
    25
100
AcDbLine
 10
690.530162
 20
827.648001
 30
0.0
 11
690.530162
 21
682.148001
 31
0.0
  0
LINE
  5
3C
102
{ACAD_REACTORS
330
1A7
102
}
330
1F
100
AcDbEntity
  8
LC-002-006-MLN-0
 62
     7
370
    25
100
AcDbLine
 10
617.780162
 20
754.898001
 30
0.0
 11
763.280162
 21
754.898001
 31
0.0
  0
CIRCLE
  5
3D
102
{ACAD_REACTORS
330
1A7
102
}
330
1F
100
AcDbEntity
  8
LC-001-002-----0
 62
     7
370
    50
100
AcDbCircle
 10
690.530162
 20
754.898001
 30
0.0
 40
56.50000000000023
  0
CIRCLE
  5
3E
102
{ACAD_REACTORS
330
1A7
102
}
330
1F
100
AcDbEntity
  8
LC-001-002-----0
 62
     7
370
    50
100
AcDbCircle
 10
690.530162
 20
754.898001
 30
0.0
 40
59.75000000000023
  0
CIRCLE
  5
3F
102
{ACAD_REACTORS
330
1A7
102
}
330
1F
100
AcDbEntity
  8
LC-001-002-----0
 62
     7
370
    50
100
AcDbCircle
 10
690.530162
 20
754.898001
 30
0.0
 40
62.25000000000023
  0
CIRCLE
  5
40
102
{ACAD_REACTORS
330
1A7
102
}
330
1F
100
AcDbEntity
  8
LC-001-002-----0
 62
     7
370
    50
100
AcDbCircle
 10
690.530162
 20
754.898001
 30
0.0
 40
66.00000000000023
  0
CIRCLE
  5
41
102
{ACAD_REACTORS
330
1A7
102
}
330
1F
100
AcDbEntity
  8
LC-001-002-----0
 62
     7
370
    50
100
AcDbCircle
 10
690.530162
 20
754.898001
 30
0.0
 40
67.00000000000023
  0
CIRCLE
  5
42
102
{ACAD_REACTORS
330
1A7
102
}
330
1F
100
AcDbEntity
  8
LC-001-002-----0
 62
     7
370
    50
100
AcDbCircle
 10
690.530162
 20
754.898001
 30
0.0
 40
72.75000000000023
  0
DIMENSION
  5
46
330
1F
100
AcDbEntity
  8
LC-003-003-----0
 62
     7
370
    25
100
AcDbDimension
  2
*D1
 10
1440.530162
 20
1576.0
 30
0.0
 11
654.409202
 21
1653.0
 31
0.0
 70
   160
 71
     5
 42
1500.0
  3
LC-DIM-L-0140-02-02
100
AcDbAlignedDimension
 13
-59.469838
 23
1504.898001
 33
0.0
 14
1440.530162
 24
1504.898001
 34
0.0
100
AcDbRotatedDimension
  0
LINE
  5
54
330
1F
100
AcDbEntity
  8
LC-001-002-----0
 62
     7
370
    50
100
AcDbLine
 10
-59.469838
 20
1701.168286
 30
0.0
 11
632.530162
 21
1701.168286
 31
0.0
  0
LINE
  5
55
330
1F
100
AcDbEntity
  8
LC-001-002-----0
 62
     7
370
    50
100
AcDbLine
 10
600.280162
 20
1719.174231
 30
0.0
 11
600.142752
 21
1719.176362
 31
0.0
  0
LINE
  5
56
330
1F
100
AcDbEntity
  8
LC-001-002-----0
 62
     7
370
    50
100
AcDbLine
 10
617.283236
 20
1719.178427
 30
0.0
 11
617.283236
 21
1721.673213
 31
0.0
  0
LINE
  5
57
330
1F
100
AcDbEntity
  8
LC-001-002-----0
 62
     7
370
    50
100
AcDbLine
 10
-59.469838
 20
1698.668286
 30
0.0
 11
1440.530162
 21
1698.668286
 31
0.0
  0
LINE
  5
58
330
1F
100
AcDbEntity
  8
LC-001-002-----0
 62
     7
370
    50
100
AcDbLine
 10
-59.469838
 20
1738.668286
 30
0.0
 11
1440.530162
 21
1738.668286
 31
0.0
  0
LINE
  5
59
330
1F
100
AcDbEntity
  8
LC-001-002-----0
 62
     7
370
    50
100
AcDbLine
 10
-59.469838
 20
1738.668286
 30
0.0
 11
-59.469838
 21
1698.668286
 31
0.0
  0
LINE
  5
5A
330
1F
100
AcDbEntity
  8
LC-001-002-----0
 62
     7
370
    50
100
AcDbLine
 10
1440.530162
 20
1738.668286
 30
0.0
 11
1440.530162
 21
1698.668286
 31
0.0
  0
LINE
  5
5B
330
1F
100
AcDbEntity
  8
LC-001-002-----0
 62
     7
370
    50
100
AcDbLine
 10
780.780162
 20
1719.174231
 30
0.0
 11
763.926166
 21
1719.174231
 31
0.0
  0
LINE
  5
5C
330
1F
100
AcDbEntity
  8
LC-001-002-----0
 62
     7
370
    50
100
AcDbLine
 10
600.16219
 20
1719.175998
 30
0.0
 11
-59.469838
 21
1736.165498
 31
0.0
  0
LINE
  5
5D
330
1F
100
AcDbEntity
  8
LC-001-002-----0
 62
     7
370
    50
100
AcDbLine
 10
600.280162
 20
1721.673213
 30
0.0
 11
690.530162
 21
1721.673213
 31
0.0
  0
LINE
  5
5E
330
1F
100
AcDbEntity
  8
LC-001-002-----0
 62
     7
370
    50
100
AcDbLine
 10
600.280162
 20
1721.673213
 30
0.0
 11
-59.469838
 21
1738.668286
 31
0.0
  0
DIMENSION
  5
5F
330
1F
100
AcDbEntity
  8
LC-003-003-----0
 62
     7
370
    25
100
AcDbDimension
  2
*D2
 10
-151.241718
 20
1698.668286
 30
0.0
 11
-228.241718
 21
1573.9
 31
0.0
 70
   160
 71
     5
 42
40.0
 53
90.0
  3
LC-DIM-L-0140-02-02
100
AcDbAlignedDimension
 13
-59.469838
 23
1738.668286
 33
0.0
 14
-59.469838
 24
1698.668286
 34
0.0
 50
90.0
100
AcDbRotatedDimension
  0
INSERT
  5
79
330
1F
100
AcDbEntity
  8
LC-004-005-----0
 62
     7
370
    25
100
AcDbBlockReference
  2
*X13
 10
0.0
 20
0.0
 30
0.0
  0
LINE
  5
7A
330
1F
100
AcDbEntity
  8
LC-001-002-----0
 62
     7
370
    50
100
AcDbLine
 10
606.530162
 20
1698.670256
 30
0.0
 11
774.530162
 21
1698.670256
 31
0.0
  0
LINE
  5
7B
330
1F
100
AcDbEntity
  8
LC-001-002-----0
 62
     7
370
    50
100
AcDbLine
 10
606.530162
 20
1697.670256
 30
0.0
 11
774.530162
 21
1697.670256
 31
0.0
  0
LINE
  5
7C
330
1F
100
AcDbEntity
  8
LC-001-002-----0
 62
     7
370
    50
100
AcDbLine
 10
606.530162
 20
1698.670256
 30
0.0
 11
606.530162
 21
1697.670256
 31
0.0
  0
LINE
  5
7D
330
1F
100
AcDbEntity
  8
LC-001-002-----0
 62
     7
370
    50
100
AcDbLine
 10
774.530162
 20
1698.670256
 30
0.0
 11
774.530162
 21
1697.670256
 31
0.0
  0
LINE
  5
7E
330
1F
100
AcDbEntity
  8
LC-001-002-----0
 62
     7
370
    50
100
AcDbLine
 10
634.030162
 20
1698.670256
 30
0.0
 11
634.030162
 21
1697.670256
 31
0.0
  0
LINE
  5
7F
330
1F
100
AcDbEntity
  8
LC-001-002-----0
 62
     7
370
    50
100
AcDbLine
 10
747.030162
 20
1698.670256
 30
0.0
 11
747.030162
 21
1697.670256
 31
0.0
  0
LINE
  5
80
330
1F
100
AcDbEntity
  8
LC-001-002-----0
 62
     7
370
    50
100
AcDbLine
 10
624.530162
 20
1712.675246
 30
0.0
 11
756.530162
 21
1712.675246
 31
0.0
  0
LINE
  5
81
330
1F
100
AcDbEntity
  8
LC-001-002-----0
 62
     7
370
    50
100
AcDbLine
 10
690.530162
 20
1719.174231
 30
0.0
 11
600.280162
 21
1719.174231
 31
0.0
  0
LINE
  5
82
330
1F
100
AcDbEntity
  8
LC-001-002-----0
 62
     7
370
    50
100
AcDbLine
 10
757.530162
 20
1713.675246
 30
0.0
 11
756.530162
 21
1712.675246
 31
0.0
  0
LINE
  5
83
330
1F
100
AcDbEntity
  8
LC-001-002-----0
 62
     7
370
    50
100
AcDbLine
 10
628.280162
 20
1709.482147
 30
0.0
 11
690.530162
 21
1709.482147
 31
0.0
  0
LINE
  5
84
330
1F
100
AcDbEntity
  8
LC-001-002-----0
 62
     7
370
    50
100
AcDbLine
 10
623.530162
 20
1713.675246
 30
0.0
 11
624.530162
 21
1712.675246
 31
0.0
  0
LINE
  5
85
330
1F
100
AcDbEntity
  8
LC-001-002-----0
 62
     7
370
    50
100
AcDbLine
 10
615.280162
 20
1713.174231
 30
0.0
 11
632.530162
 21
1702.184768
 31
0.0
  0
LINE
  5
86
330
1F
100
AcDbEntity
  8
LC-001-002-----0
 62
     7
370
    50
100
AcDbLine
 10
624.530162
 20
1712.675246
 30
0.0
 11
624.530162
 21
1711.871161
 31
0.0
  0
ARC
  5
88
330
1F
100
AcDbEntity
  8
LC-005-002-RND-0
 62
     7
370
    50
100
AcDbCircle
 10
631.030162
 20
1704.153138
 30
0.0
 40
3.0
100
AcDbArc
 50
0.0
 51
57.499998
  0
LINE
  5
89
330
1F
100
AcDbEntity
  8
LC-001-002-----0
 62
     7
370
    50
100
AcDbLine
 10
632.530162
 20
1702.184768
 30
0.0
 11
632.530162
 21
1698.670256
 31
0.0
  0
LINE
  5
8A
330
1F
100
AcDbEntity
  8
LC-001-002-----0
 62
     7
370
    50
100
AcDbLine
 10
616.98508
 20
1719.174231
 30
0.0
 11
617.283236
 21
1719.174231
 31
0.0
  0
LINE
  5
8B
330
1F
100
AcDbEntity
  8
LC-001-002-----0
 62
     7
370
    50
100
AcDbLine
 10
630.780162
 20
1707.869472
 30
0.0
 11
632.642061
 21
1706.683312
 31
0.0
  0
LINE
  5
8C
330
1F
100
AcDbEntity
  8
LC-001-002-----0
 62
     7
370
    50
100
AcDbLine
 10
624.530162
 20
1711.871161
 30
0.0
 11
628.280162
 21
1709.482147
 31
0.0
  0
LINE
  5
8D
330
1F
100
AcDbEntity
  8
LC-001-002-----0
 62
     7
370
    50
100
AcDbLine
 10
617.780162
 20
1713.675246
 30
0.0
 11
623.530162
 21
1713.675246
 31
0.0
  0
LINE
  5
8E
330
1F
100
AcDbEntity
  8
LC-001-002-----0
 62
     7
370
    50
100
AcDbLine
 10
624.530162
 20
1711.871161
 30
0.0
 11
690.530162
 21
1711.871161
 31
0.0
  0
LINE
  5
8F
330
1F
100
AcDbEntity
  8
LC-001-002-----0
 62
     7
370
    50
100
AcDbLine
 10
617.780162
 20
1713.675246
 30
0.0
 11
617.780162
 21
1718.677305
 31
0.0
  0
LINE
  5
90
330
1F
100
AcDbEntity
  8
LC-001-002-----0
 62
     7
370
    50
100
AcDbLine
 10
630.780162
 20
1707.869472
 30
0.0
 11
630.780162
 21
1707.170524
 31
0.0
  0
LINE
  5
91
330
1F
100
AcDbEntity
  8
LC-001-002-----0
 62
     7
370
    50
100
AcDbLine
 10
630.780162
 20
1707.170524
 30
0.0
 11
628.280162
 21
1707.170524
 31
0.0
  0
ARC
  5
92
330
1F
100
AcDbEntity
  8
LC-001-002-----0
 62
     7
370
    50
100
AcDbCircle
 10
617.283236
 20
1718.677305
 30
0.0
 40
0.4969262295080625
100
AcDbArc
 50
0.0
 51
90.0
  0
LINE
  5
93
330
1F
100
AcDbEntity
  8
LC-001-002-----0
 62
     7
370
    50
100
AcDbLine
 10
628.280162
 20
1709.482147
 30
0.0
 11
628.280162
 21
1707.170524
 31
0.0
  0
LINE
  5
94
330
1F
100
AcDbEntity
  8
LC-001-002-----0
 62
     7
370
    50
100
AcDbLine
 10
600.280162
 20
1717.67749
 30
0.0
 11
615.280162
 21
1717.67749
 31
0.0
  0
LINE
  5
95
330
1F
100
AcDbEntity
  8
LC-001-002-----0
 62
     7
370
    50
100
AcDbLine
 10
615.280162
 20
1717.67749
 30
0.0
 11
615.280162
 21
1713.174231
 31
0.0
  0
LINE
  5
96
330
1F
100
AcDbEntity
  8
LC-001-002-----0
 62
     7
370
    50
100
AcDbLine
 10
634.030162
 20
1704.153138
 30
0.0
 11
634.030162
 21
1698.670256
 31
0.0
  0
LINE
  5
97
330
1F
100
AcDbEntity
  8
LC-001-002-----0
 62
     7
370
    50
100
AcDbLine
 10
690.530162
 20
1698.670256
 30
0.0
 11
632.530162
 21
1698.670256
 31
0.0
  0
LINE
  5
98
330
1F
100
AcDbEntity
  8
LC-001-002-----0
 62
     7
370
    50
100
AcDbLine
 10
630.780162
 20
1707.869472
 30
0.0
 11
690.530162
 21
1707.869472
 31
0.0
  0
LINE
  5
99
330
1F
100
AcDbEntity
  8
LC-004-005-----0
 62
     7
370
    25
100
AcDbLine
 10
635.847136
 20
1705.798994
 30
0.0
 11
690.530162
 21
1705.798994
 31
0.0
  0
LINE
  5
9A
330
1F
100
AcDbEntity
  8
LC-002-006-MLN-0
 62
     7
370
    25
100
AcDbLine
 10
690.530162
 20
1719.174231
 30
0.0
 11
690.530162
 21
1698.670256
 31
0.0
  0
LINE
  5
9B
330
1F
100
AcDbEntity
  8
LC-001-002-----0
 62
     7
370
    50
100
AcDbLine
 10
600.280162
 20
1719.174231
 30
0.0
 11
600.280162
 21
1717.67749
 31
0.0
  0
LINE
  5
9C
330
1F
100
AcDbEntity
  8
LC-001-002-----0
 62
     7
370
    50
100
AcDbLine
 10
623.530162
 20
1713.675246
 30
0.0
 11
690.530162
 21
1713.675246
 31
0.0
  0
LINE
  5
9D
330
1F
100
AcDbEntity
  8
LC-001-002-----0
 62
     7
370
    50
100
AcDbLine
 10
765.780162
 20
1713.174231
 30
0.0
 11
748.530162
 21
1702.184768
 31
0.0
  0
LINE
  5
9E
330
1F
100
AcDbEntity
  8
LC-001-002-----0
 62
     7
370
    50
100
AcDbLine
 10
756.530162
 20
1712.675246
 30
0.0
 11
756.530162
 21
1711.871161
 31
0.0
  0
ARC
  5
9F
330
1F
100
AcDbEntity
  8
LC-005-002-RND-0
 62
     7
370
    50
100
AcDbCircle
 10
750.030162
 20
1704.153138
 30
0.0
 40
2.999999999999981
100
AcDbArc
 50
122.500002
 51
180.0
  0
LINE
  5
A0
330
1F
100
AcDbEntity
  8
LC-001-002-----0
 62
     7
370
    50
100
AcDbLine
 10
748.530162
 20
1702.184768
 30
0.0
 11
748.530162
 21
1698.670256
 31
0.0
  0
LINE
  5
A1
330
1F
100
AcDbEntity
  8
LC-001-002-----0
 62
     7
370
    50
100
AcDbLine
 10
764.075244
 20
1719.174231
 30
0.0
 11
763.777088
 21
1719.174231
 31
0.0
  0
LINE
  5
A2
330
1F
100
AcDbEntity
  8
LC-001-002-----0
 62
     7
370
    50
100
AcDbLine
 10
750.280162
 20
1707.869472
 30
0.0
 11
748.418263
 21
1706.683312
 31
0.0
  0
LINE
  5
A3
330
1F
100
AcDbEntity
  8
LC-001-002-----0
 62
     7
370
    50
100
AcDbLine
 10
756.530162
 20
1711.871161
 30
0.0
 11
752.780162
 21
1709.482147
 31
0.0
  0
LINE
  5
A4
330
1F
100
AcDbEntity
  8
LC-001-002-----0
 62
     7
370
    50
100
AcDbLine
 10
763.280162
 20
1713.675246
 30
0.0
 11
757.530162
 21
1713.675246
 31
0.0
  0
LINE
  5
A5
330
1F
100
AcDbEntity
  8
LC-001-002-----0
 62
     7
370
    50
100
AcDbLine
 10
763.280162
 20
1713.675246
 30
0.0
 11
763.280162
 21
1718.677305
 31
0.0
  0
LINE
  5
A6
330
1F
100
AcDbEntity
  8
LC-001-002-----0
 62
     7
370
    50
100
AcDbLine
 10
750.280162
 20
1707.869472
 30
0.0
 11
750.280162
 21
1707.170524
 31
0.0
  0
LINE
  5
A7
330
1F
100
AcDbEntity
  8
LC-001-002-----0
 62
     7
370
    50
100
AcDbLine
 10
750.280162
 20
1707.170524
 30
0.0
 11
752.780162
 21
1707.170524
 31
0.0
  0
ARC
  5
A8
330
1F
100
AcDbEntity
  8
LC-001-002-----0
 62
     7
370
    50
100
AcDbCircle
 10
763.777088
 20
1718.677305
 30
0.0
 40
0.4969262295082899
100
AcDbArc
 50
90.0
 51
180.0
  0
LINE
  5
A9
330
1F
100
AcDbEntity
  8
LC-001-002-----0
 62
     7
370
    50
100
AcDbLine
 10
752.780162
 20
1709.482147
 30
0.0
 11
752.780162
 21
1707.170524
 31
0.0
  0
LINE
  5
AA
330
1F
100
AcDbEntity
  8
LC-001-002-----0
 62
     7
370
    50
100
AcDbLine
 10
780.780162
 20
1717.67749
 30
0.0
 11
765.780162
 21
1717.67749
 31
0.0
  0
LINE
  5
AB
330
1F
100
AcDbEntity
  8
LC-001-002-----0
 62
     7
370
    50
100
AcDbLine
 10
765.780162
 20
1717.67749
 30
0.0
 11
765.780162
 21
1713.174231
 31
0.0
  0
LINE
  5
AC
330
1F
100
AcDbEntity
  8
LC-001-002-----0
 62
     7
370
    50
100
AcDbLine
 10
747.030162
 20
1704.153138
 30
0.0
 11
747.030162
 21
1698.670256
 31
0.0
  0
LINE
  5
AD
330
1F
100
AcDbEntity
  8
LC-001-002-----0
 62
     7
370
    50
100
AcDbLine
 10
780.780162
 20
1719.174231
 30
0.0
 11
780.780162
 21
1717.67749
 31
0.0
  0
LINE
  5
AE
330
1F
100
AcDbEntity
  8
LC-001-002-----0
 62
     7
370
    50
100
AcDbLine
 10
757.530162
 20
1713.675246
 30
0.0
 11
690.530162
 21
1713.675246
 31
0.0
  0
LINE
  5
AF
330
1F
100
AcDbEntity
  8
LC-001-002-----0
 62
     7
370
    50
100
AcDbLine
 10
756.530162
 20
1711.871161
 30
0.0
 11
690.530162
 21
1711.871161
 31
0.0
  0
LINE
  5
B0
330
1F
100
AcDbEntity
  8
LC-001-002-----0
 62
     7
370
    50
100
AcDbLine
 10
752.780162
 20
1709.482147
 30
0.0
 11
690.530162
 21
1709.482147
 31
0.0
  0
LINE
  5
B1
330
1F
100
AcDbEntity
  8
LC-001-002-----0
 62
     7
370
    50
100
AcDbLine
 10
750.280162
 20
1707.869472
 30
0.0
 11
690.530162
 21
1707.869472
 31
0.0
  0
LINE
  5
B2
330
1F
100
AcDbEntity
  8
LC-004-005-----0
 62
     7
370
    25
100
AcDbLine
 10
745.213188
 20
1705.798994
 30
0.0
 11
690.530162
 21
1705.798994
 31
0.0
  0
LINE
  5
B3
330
1F
100
AcDbEntity
  8
LC-001-002-----0
 62
     7
370
    50
100
AcDbLine
 10
690.530162
 20
1698.670256
 30
0.0
 11
748.530162
 21
1698.670256
 31
0.0
  0
LINE
  5
B4
330
1F
100
AcDbEntity
  8
LC-001-002-----0
 62
     7
370
    50
100
AcDbLine
 10
690.530162
 20
1719.174231
 30
0.0
 11
780.780162
 21
1719.174231
 31
0.0
  0
INSERT
  5
C6
330
1F
100
AcDbEntity
  8
LC-004-005-----0
 62
     7
370
    25
100
AcDbBlockReference
  2
*X24
 10
0.0
 20
0.0
 30
0.0
  0
LINE
  5
C7
330
1F
100
AcDbEntity
  8
LC-001-002-----0
 62
     7
370
    50
100
AcDbLine
 10
632.530162
 20
1702.184768
 30
0.0
 11
632.530162
 21
1698.668286
 31
0.0
  0
LINE
  5
C8
330
1F
100
AcDbEntity
  8
LC-001-002-----0
 62
     7
370
    50
100
AcDbLine
 10
615.280162
 20
1717.67749
 30
0.0
 11
615.280162
 21
1713.174231
 31
0.0
  0
LINE
  5
C9
330
1F
100
AcDbEntity
  8
LC-001-002-----0
 62
     7
370
    50
100
AcDbLine
 10
600.280162
 20
1717.67749
 30
0.0
 11
615.280162
 21
1717.67749
 31
0.0
  0
LINE
  5
CA
330
1F
100
AcDbEntity
  8
LC-001-002-----0
 62
     7
370
    50
100
AcDbLine
 10
600.280162
 20
1719.178427
 30
0.0
 11
600.280162
 21
1717.67749
 31
0.0
  0
LINE
  5
CB
330
1F
100
AcDbEntity
  8
LC-001-002-----0
 62
     7
370
    50
100
AcDbLine
 10
780.780162
 20
1719.174231
 30
0.0
 11
780.780162
 21
1717.67749
 31
0.0
  0
LINE
  5
CC
330
1F
100
AcDbEntity
  8
LC-001-002-----0
 62
     7
370
    50
100
AcDbLine
 10
780.780162
 20
1717.67749
 30
0.0
 11
765.780162
 21
1717.67749
 31
0.0
  0
LINE
  5
CD
330
1F
100
AcDbEntity
  8
LC-001-002-----0
 62
     7
370
    50
100
AcDbLine
 10
765.780162
 20
1717.67749
 30
0.0
 11
765.780162
 21
1713.174231
 31
0.0
  0
LINE
  5
CE
330
1F
100
AcDbEntity
  8
LC-001-002-----0
 62
     7
370
    50
100
AcDbLine
 10
765.780162
 20
1713.174231
 30
0.0
 11
748.530162
 21
1702.184768
 31
0.0
  0
LINE
  5
CF
330
1F
100
AcDbEntity
  8
LC-001-002-----0
 62
     7
370
    50
100
AcDbLine
 10
748.530162
 20
1702.184768
 30
0.0
 11
748.530162
 21
1698.668286
 31
0.0
  0
LINE
  5
D0
330
1F
100
AcDbEntity
  8
LC-001-002-----0
 62
     7
370
    50
100
AcDbLine
 10
617.283236
 20
1719.178427
 30
0.0
 11
600.280162
 21
1719.178427
 31
0.0
  0
LINE
  5
D1
330
1F
100
AcDbEntity
  8
LC-001-002-----0
 62
     7
370
    50
100
AcDbLine
 10
1440.530162
 20
1701.168286
 30
0.0
 11
748.530162
 21
1701.168286
 31
0.0
  0
LINE
  5
D2
330
1F
100
AcDbEntity
  8
LC-001-002-----0
 62
     7
370
    50
100
AcDbLine
 10
780.780162
 20
1721.673213
 30
0.0
 11
1440.530162
 21
1738.668286
 31
0.0
  0
LINE
  5
D3
330
1F
100
AcDbEntity
  8
LC-001-002-----0
 62
     7
370
    50
100
AcDbLine
 10
780.898134
 20
1719.175998
 30
0.0
 11
1440.530162
 21
1736.165498
 31
0.0
  0
LINE
  5
D4
330
1F
100
AcDbEntity
  8
LC-001-002-----0
 62
     7
370
    50
100
AcDbLine
 10
763.777088
 20
1719.178427
 30
0.0
 11
763.777088
 21
1721.673213
 31
0.0
  0
LINE
  5
D5
330
1F
100
AcDbEntity
  8
LC-001-002-----0
 62
     7
370
    50
100
AcDbLine
 10
780.780162
 20
1721.673213
 30
0.0
 11
690.530162
 21
1721.673213
 31
0.0
  0
INSERT
  5
15A
330
1F
100
AcDbEntity
  8
LC-004-005-----0
 62
     7
370
    25
100
AcDbBlockReference
  2
*X35
 10
0.0
 20
0.0
 30
0.0
  0
LINE
  5
15B
330
1F
100
AcDbEntity
  8
LC-001-002-----0
 62
     7
370
    50
100
AcDbLine
 10
615.280162
 20
1713.174231
 30
0.0
 11
632.530162
 21
1702.184768
 31
0.0
  0
INSERT
  5
181
330
1F
100
AcDbEntity
  8
LC-004-005-----0
 62
     7
370
    25
100
AcDbBlockReference
  2
*X46
 10
0.0
 20
0.0
 30
0.0
  0
LINE
  5
182
330
1F
100
AcDbEntity
  8
LC-001-002-----0
 62
     7
370
    50
100
AcDbLine
 10
1440.530162
 20
1701.168286
 30
0.0
 11
748.530162
 21
1701.168286
 31
0.0
  0
INSERT
  5
1A6
330
1F
100
AcDbEntity
  8
LC-004-005-----0
 62
     7
370
    25
100
AcDbBlockReference
  2
*X57
 10
0.0
 20
0.0
 30
0.0
  0
ENDSEC
  0
SECTION
  2
OBJECTS
  0
DICTIONARY
  5
C
330
0
100
AcDbDictionary
281
     1
  3
ACAD_GROUP
350
D
  3
ACAD_LAYOUT
350
1A
  3
ACAD_MLINESTYLE
350
17
  3
ACAD_PLOTSETTINGS
350
19
  3
ACAD_PLOTSTYLENAME
350
E
  0
DICTIONARY
  5
D
102
{ACAD_REACTORS
330
C
102
}
330
C
100
AcDbDictionary
281
     1
  3
LCGROUP16
350
1A7
  0
DICTIONARY
  5
1A
102
{ACAD_REACTORS
330
C
102
}
330
C
100
AcDbDictionary
281
     1
  3
Layout1
350
1E
  3
Layout2
350
26
  3
Model
350
22
  0
DICTIONARY
  5
17
102
{ACAD_REACTORS
330
C
102
}
330
C
100
AcDbDictionary
281
     1
  3
Standard
350
18
  0
DICTIONARY
  5
19
102
{ACAD_REACTORS
330
C
102
}
330
C
100
AcDbDictionary
281
     1
  0
ACDBDICTIONARYWDFLT
  5
E
102
{ACAD_REACTORS
330
C
102
}
330
C
100
AcDbDictionary
281
     1
  3
Normal
350
F
100
AcDbDictionaryWithDefault
340
F
  0
GROUP
  5
1A7
102
{ACAD_REACTORS
330
D
102
}
330
D
100
AcDbGroup
300
GRP16
 70
     1
 71
     1
340
3B
340
3C
340
3D
340
3E
340
3F
340
40
340
41
340
42
  0
LAYOUT
  5
1E
102
{ACAD_REACTORS
330
1A
102
}
330
1A
100
AcDbPlotSettings
  1

  2

  4

  6

 40
0.0
 41
0.0
 42
0.0
 43
0.0
 44
0.0
 45
0.0
 46
0.0
 47
0.0
 48
0.0
 49
0.0
140
0.0
141
0.0
142
1.0
143
1.0
 70
   688
 72
     0
 73
     0
 74
     5
  7

 75
    16
147
1.0
148
0.0
149
0.0
100
AcDbLayout
  1
Layout1
 70
     1
 71
     1
 10
-502.444058
 20
-111.81
 11
2467.555942
 21
1988.19
 12
0.0
 22
0.0
 32
0.0
 14
-502.444058
 24
-111.81
 34
0.0
 15
2467.555942
 25
1988.19
 35
0.0
146
0.0
 13
0.0
 23
0.0
 33
0.0
 16
1.0
 26
0.0
 36
0.0
 17
0.0
 27
1.0
 37
0.0
 76
     0
330
1B
  0
LAYOUT
  5
26
102
{ACAD_REACTORS
330
1A
102
}
330
1A
100
AcDbPlotSettings
  1

  2

  4

  6

 40
0.0
 41
0.0
 42
0.0
 43
0.0
 44
0.0
 45
0.0
 46
0.0
 47
0.0
 48
0.0
 49
0.0
140
0.0
141
0.0
142
1.0
143
1.0
 70
   688
 72
     0
 73
     0
 74
     5
  7

 75
    16
147
1.0
148
0.0
149
0.0
100
AcDbLayout
  1
Layout2
 70
     1
 71
     2
 10
0.0
 20
0.0
 11
0.0
 21
0.0
 12
0.0
 22
0.0
 32
0.0
 14
0.0
 24
0.0
 34
0.0
 15
0.0
 25
0.0
 35
0.0
146
0.0
 13
0.0
 23
0.0
 33
0.0
 16
1.0
 26
0.0
 36
0.0
 17
0.0
 27
1.0
 37
0.0
 76
     0
330
23
  0
LAYOUT
  5
22
102
{ACAD_REACTORS
330
1A
102
}
330
1A
100
AcDbPlotSettings
  1

  2

  4

  6

 40
0.0
 41
0.0
 42
0.0
 43
0.0
 44
0.0
 45
0.0
 46
0.0
 47
0.0
 48
0.0
 49
0.0
140
0.0
141
0.0
142
1.0
143
1.0
 70
  1776
 72
     0
 73
     0
 74
     0
  7

 75
     0
147
1.0
148
0.0
149
0.0
100
AcDbLayout
  1
Model
 70
     1
 71
     0
 10
-502.444058
 20
-111.81
 11
2467.555942
 21
1988.19
 12
-83.476687
 22
95.6
 32
0.0
 14
-502.444058
 24
-111.81
 34
0.0
 15
2467.555942
 25
1988.19
 35
0.0
146
0.0
 13
0.0
 23
0.0
 33
0.0
 16
1.0
 26
0.0
 36
0.0
 17
0.0
 27
1.0
 37
0.0
 76
     0
330
1F
  0
MLINESTYLE
  5
18
102
{ACAD_REACTORS
330
17
102
}
330
17
100
AcDbMlineStyle
  2
Standard
 70
     0
  3

 62
   256
 51
90.0
 52
90.0
 71
     2
 49
0.5
 62
   256
  6
BYLAYER
 49
-0.5
 62
   256
  6
BYLAYER
  0
ACDBPLACEHOLDER
  5
F
102
{ACAD_REACTORS
330
E
102
}
330
E
  0
ENDSEC
  0
EOF
