  0
SECTION
  2
HEADER
  9
$ACADVER
  1
AC1027
  9
$ACADMAINTVER
 70
     8
  9
$DWGCODEPAGE
  3
ANSI_1252
  9
$REQUIREDVERSIONS
160
                 0
  9
$LASTSAVEDBY
  1
dpt1
  9
$INSBASE
 10
78.995776
 20
114.292015
 30
0.0
  9
$EXTMIN
 10
112.661814
 20
241.2
 30
0.0
  9
$EXTMAX
 10
589030646.339239
 20
485.838574
 30
0.0
  9
$LIMMIN
 10
-131.004224
 20
-34.207985
  9
$LIMMAX
 10
708.995776
 20
559.792015
  9
$ORTHOMODE
 70
     0
  9
$REGENMODE
 70
     1
  9
$FILLMODE
 70
     1
  9
$QTEXTMODE
 70
     0
  9
$MIRRTEXT
 70
     1
  9
$LTSCALE
 40
2.0
  9
$ATTMODE
 70
     1
  9
$TEXTSIZE
 40
0.0
  9
$TRACEWID
 40
0.05
  9
$TEXTSTYLE
  7
STANDARD
  9
$CLAYER
  8
0
  9
$CELTYPE
  6
ByLayer
  9
$CECOLOR
 62
     7
  9
$CELTSCALE
 40
1.0
  9
$DISPSILH
 70
     0
  9
$DIMSCALE
 40
2.0
  9
$DIMASZ
 40
3.5
  9
$DIMEXO
 40
0.0625
  9
$DIMDLI
 40
0.38
  9
$DIMRND
 40
0.0
  9
$DIMDLE
 40
0.0
  9
$DIMEXE
 40
0.18
  9
$DIMTP
 40
0.0
  9
$DIMTM
 40
0.0
  9
$DIMTXT
 40
3.5
  9
$DIMCEN
 40
0.09
  9
$DIMTSZ
 40
0.0
  9
$DIMTOL
 70
     0
  9
$DIMLIM
 70
     0
  9
$DIMTIH
 70
     1
  9
$DIMTOH
 70
     1
  9
$DIMSE1
 70
     0
  9
$DIMSE2
 70
     0
  9
$DIMTAD
 70
     1
  9
$DIMZIN
 70
     0
  9
$DIMBLK
  1

  9
$DIMASO
 70
     1
  9
$DIMSHO
 70
     1
  9
$DIMPOST
  1

  9
$DIMAPOST
  1

  9
$DIMALT
 70
     0
  9
$DIMALTD
 70
     2
  9
$DIMALTF
 40
25.4
  9
$DIMLFAC
 40
1.0
  9
$DIMTOFL
 70
     0
  9
$DIMTVP
 40
0.0
  9
$DIMTIX
 70
     0
  9
$DIMSOXD
 70
     0
  9
$DIMSAH
 70
     0
  9
$DIMBLK1
  1

  9
$DIMBLK2
  1

  9
$DIMSTYLE
  2
STANDARD
  9
$DIMCLRD
 70
     0
  9
$DIMCLRE
 70
     0
  9
$DIMCLRT
 70
     0
  9
$DIMTFAC
 40
1.0
  9
$DIMGAP
 40
0.09
  9
$DIMJUST
 70
     0
  9
$DIMSD1
 70
     0
  9
$DIMSD2
 70
     0
  9
$DIMTOLJ
 70
     1
  9
$DIMTZIN
 70
     0
  9
$DIMALTZ
 70
     0
  9
$DIMALTTZ
 70
     0
  9
$DIMUPT
 70
     0
  9
$DIMDEC
 70
     2
  9
$DIMTDEC
 70
     2
  9
$DIMALTU
 70
     2
  9
$DIMALTTD
 70
     2
  9
$DIMTXSTY
  7
STANDARD
  9
$DIMAUNIT
 70
     0
  9
$DIMADEC
 70
     0
  9
$DIMALTRND
 40
0.0
  9
$DIMAZIN
 70
     0
  9
$DIMDSEP
 70
    46
  9
$DIMATFIT
 70
     3
  9
$DIMFRAC
 70
     0
  9
$DIMLDRBLK
  1

  9
$DIMLUNIT
 70
     2
  9
$DIMLWD
 70
    -2
  9
$DIMLWE
 70
    -2
  9
$DIMTMOVE
 70
     2
  9
$DIMFXL
 40
1.0
  9
$DIMFXLON
 70
     0
  9
$DIMJOGANG
 40
0.7853981633974483
  9
$DIMTFILL
 70
     0
  9
$DIMTFILLCLR
 70
     0
  9
$DIMARCSYM
 70
     0
  9
$DIMLTYPE
  6

  9
$DIMLTEX1
  6

  9
$DIMLTEX2
  6

  9
$DIMTXTDIRECTION
 70
     0
  9
$LUNITS
 70
     2
  9
$LUPREC
 70
     2
  9
$SKETCHINC
 40
0.1
  9
$FILLETRAD
 40
0.0
  9
$AUNITS
 70
     0
  9
$AUPREC
 70
     0
  9
$MENU
  1
acad
  9
$ELEVATION
 40
0.0
  9
$PELEVATION
 40
0.0
  9
$THICKNESS
 40
0.0
  9
$LIMCHECK
 70
     0
  9
$CHAMFERA
 40
0.0
  9
$CHAMFERB
 40
0.0
  9
$CHAMFERC
 40
0.0
  9
$CHAMFERD
 40
0.0
  9
$SKPOLY
 70
     0
  9
$TDCREATE
 40
2447893.0
  9
$TDUCREATE
 40
2447892.916666667
  9
$TDUPDATE
 40
2457260.228501377
  9
$TDUUPDATE
 40
2457260.145168044
  9
$TDINDWG
 40
0.0001397801
  9
$TDUSRTIMER
 40
2457260.14502956
  9
$USRTIMER
 70
     1
  9
$ANGBASE
 50
0.0
  9
$ANGDIR
 70
     0
  9
$PDMODE
 70
     0
  9
$PDSIZE
 40
0.0
  9
$PLINEWID
 40
0.0
  9
$SPLFRAME
 70
     0
  9
$SPLINETYPE
 70
     6
  9
$SPLINESEGS
 70
     8
  9
$HANDSEED
  5
3B2
  9
$SURFTAB1
 70
     6
  9
$SURFTAB2
 70
     6
  9
$SURFTYPE
 70
     6
  9
$SURFU
 70
     6
  9
$SURFV
 70
     6
  9
$UCSBASE
  2

  9
$UCSNAME
  2

  9
$UCSORG
 10
0.0
 20
0.0
 30
0.0
  9
$UCSXDIR
 10
1.0
 20
0.0
 30
0.0
  9
$UCSYDIR
 10
0.0
 20
1.0
 30
0.0
  9
$UCSORTHOREF
  2

  9
$UCSORTHOVIEW
 70
     0
  9
$UCSORGTOP
 10
0.0
 20
0.0
 30
0.0
  9
$UCSORGBOTTOM
 10
0.0
 20
0.0
 30
0.0
  9
$UCSORGLEFT
 10
0.0
 20
0.0
 30
0.0
  9
$UCSORGRIGHT
 10
0.0
 20
0.0
 30
0.0
  9
$UCSORGFRONT
 10
0.0
 20
0.0
 30
0.0
  9
$UCSORGBACK
 10
0.0
 20
0.0
 30
0.0
  9
$PUCSBASE
  2

  9
$PUCSNAME
  2

  9
$PUCSORG
 10
0.0
 20
0.0
 30
0.0
  9
$PUCSXDIR
 10
1.0
 20
0.0
 30
0.0
  9
$PUCSYDIR
 10
0.0
 20
1.0
 30
0.0
  9
$PUCSORTHOREF
  2

  9
$PUCSORTHOVIEW
 70
     0
  9
$PUCSORGTOP
 10
0.0
 20
0.0
 30
0.0
  9
$PUCSORGBOTTOM
 10
0.0
 20
0.0
 30
0.0
  9
$PUCSORGLEFT
 10
0.0
 20
0.0
 30
0.0
  9
$PUCSORGRIGHT
 10
0.0
 20
0.0
 30
0.0
  9
$PUCSORGFRONT
 10
0.0
 20
0.0
 30
0.0
  9
$PUCSORGBACK
 10
0.0
 20
0.0
 30
0.0
  9
$USERI1
 70
     0
  9
$USERI2
 70
     0
  9
$USERI3
 70
     0
  9
$USERI4
 70
     0
  9
$USERI5
 70
     0
  9
$USERR1
 40
0.0
  9
$USERR2
 40
0.0
  9
$USERR3
 40
0.0
  9
$USERR4
 40
0.0
  9
$USERR5
 40
0.0
  9
$WORLDVIEW
 70
     1
  9
$SHADEDGE
 70
     3
  9
$SHADEDIF
 70
    70
  9
$TILEMODE
 70
     1
  9
$MAXACTVP
 70
    16
  9
$PINSBASE
 10
0.0
 20
0.0
 30
0.0
  9
$PLIMCHECK
 70
     0
  9
$PEXTMIN
 10
1.000000000000000E+20
 20
1.000000000000000E+20
 30
1.000000000000000E+20
  9
$PEXTMAX
 10
-1.000000000000000E+20
 20
-1.000000000000000E+20
 30
-1.000000000000000E+20
  9
$PLIMMIN
 10
0.0
 20
0.0
  9
$PLIMMAX
 10
0.0
 20
0.0
  9
$UNITMODE
 70
     0
  9
$VISRETAIN
 70
     0
  9
$PLINEGEN
 70
     1
  9
$PSLTSCALE
 70
     0
  9
$TREEDEPTH
 70
  3020
  9
$CMLSTYLE
  2
Standard
  9
$CMLJUST
 70
     0
  9
$CMLSCALE
 40
1.0
  9
$PROXYGRAPHICS
 70
     1
  9
$MEASUREMENT
 70
     0
  9
$CELWEIGHT
370
    -1
  9
$ENDCAPS
280
     0
  9
$JOINSTYLE
280
     0
  9
$LWDISPLAY
290
     0
  9
$INSUNITS
 70
     0
  9
$HYPERLINKBASE
  1

  9
$STYLESHEET
  1

  9
$XEDIT
290
     1
  9
$CEPSNTYPE
380
     0
  9
$PSTYLEMODE
290
     1
  9
$FINGERPRINTGUID
  2
{B4815CA3-6CAE-4575-8D1D-383E54EFCBDA}
  9
$VERSIONGUID
  2
{FAEB1C32-E019-11D5-929B-00C0DF256EC4}
  9
$EXTNAMES
290
     1
  9
$PSVPSCALE
 40
0.0
  9
$OLESTARTUP
290
     0
  9
$SORTENTS
280
   127
  9
$INDEXCTL
280
     0
  9
$HIDETEXT
280
     1
  9
$XCLIPFRAME
280
     2
  9
$HALOGAP
280
     0
  9
$OBSCOLOR
 70
   257
  9
$OBSLTYPE
280
     0
  9
$INTERSECTIONDISPLAY
280
     0
  9
$INTERSECTIONCOLOR
 70
   257
  9
$DIMASSOC
280
     2
  9
$PROJECTNAME
  1

  9
$CAMERADISPLAY
290
     0
  9
$LENSLENGTH
 40
50.0
  9
$CAMERAHEIGHT
 40
0.0
  9
$STEPSPERSEC
 40
2.0
  9
$STEPSIZE
 40
6.0
  9
$3DDWFPREC
 40
2.0
  9
$PSOLWIDTH
 40
0.25
  9
$PSOLHEIGHT
 40
4.0
  9
$LOFTANG1
 40
1.570796326794897
  9
$LOFTANG2
 40
1.570796326794897
  9
$LOFTMAG1
 40
0.0
  9
$LOFTMAG2
 40
0.0
  9
$LOFTPARAM
 70
     7
  9
$LOFTNORMALS
280
     1
  9
$LATITUDE
 40
37.795
  9
$LONGITUDE
 40
-122.394
  9
$NORTHDIRECTION
 40
0.0
  9
$TIMEZONE
 70
 -8000
  9
$LIGHTGLYPHDISPLAY
280
     1
  9
$TILEMODELIGHTSYNCH
280
     1
  9
$SOLIDHIST
280
     0
  9
$SHOWHIST
280
     1
  9
$DWFFRAME
280
     2
  9
$DGNFRAME
280
     2
  9
$REALWORLDSCALE
290
     1
  9
$INTERFERECOLOR
 62
   256
  9
$CSHADOW
280
     0
  9
$SHADOWPLANELOCATION
 40
0.0
  0
ENDSEC
  0
SECTION
  2
CLASSES
  0
CLASS
  1
ACDBDICTIONARYWDFLT
  2
AcDbDictionaryWithDefault
  3
ObjectDBX Classes
 90
        0
 91
        5
280
     0
281
     0
  0
CLASS
  1
MATERIAL
  2
AcDbMaterial
  3
ObjectDBX Classes
 90
     1153
 91
        5
280
     0
281
     0
  0
CLASS
  1
SCALE
  2
AcDbScale
  3
ObjectDBX Classes
 90
     1153
 91
        5
280
     0
281
     0
  0
CLASS
  1
VISUALSTYLE
  2
AcDbVisualStyle
  3
ObjectDBX Classes
 90
     4095
 91
        5
280
     0
281
     0
  0
CLASS
  1
TABLESTYLE
  2
AcDbTableStyle
  3
ObjectDBX Classes
 90
     4095
 91
        5
280
     0
281
     0
  0
CLASS
  1
MLEADERSTYLE
  2
AcDbMLeaderStyle
  3
ACDB_MLEADERSTYLE_CLASS
 90
     4095
 91
        5
280
     0
281
     0
  0
CLASS
  1
SUN
  2
AcDbSun
  3
SCENEOE
 90
     1153
 91
        5
280
     0
281
     0
  0
CLASS
  1
RASTERVARIABLES
  2
AcDbRasterVariables
  3
ISM
 90
        0
 91
        5
280
     0
281
     0
  0
CLASS
  1
DICTIONARYVAR
  2
AcDbDictionaryVar
  3
ObjectDBX Classes
 90
        0
 91
        5
280
     0
281
     0
  0
CLASS
  1
CELLSTYLEMAP
  2
AcDbCellStyleMap
  3
ObjectDBX Classes
 90
     1152
 91
        5
280
     0
281
     0
  0
ENDSEC
  0
SECTION
  2
TABLES
  0
TABLE
  2
VPORT
  5
30F
330
0
100
AcDbSymbolTable
 70
     1
  0
VPORT
  5
326
330
30F
100
AcDbSymbolTableRecord
100
AcDbViewportTableRecord
  2
*ACTIVE
 70
     0
 10
0.0
 20
0.0
 11
1.0
 21
1.0
 12
420.0
 22
297.0
 13
0.0
 23
0.0
 14
1.0
 24
1.0
 15
0.0
 25
0.0
 16
0.0
 26
0.0
 36
1.0
 17
-131.004224
 27
-34.207985
 37
0.0
 40
594.0
 41
1.604229
 42
50.0
 43
0.0
 44
0.0
 50
0.0
 51
0.0
 71
     0
 72
   100
 73
     1
 74
     1
 75
     0
 76
     0
 77
     0
 78
     0
281
     0
 65
     0
110
0.0
120
0.0
130
0.0
111
1.0
121
0.0
131
0.0
112
0.0
122
1.0
132
0.0
 79
     0
146
0.0
348
38D
 60
     3
 61
     5
292
     1
282
     1
141
0.0
142
0.0
 63
   256
361
3A6
  0
ENDTAB
  0
TABLE
  2
LTYPE
  5
30C
330
0
100
AcDbSymbolTable
 70
     4
  0
LTYPE
  5
31A
330
30C
100
AcDbSymbolTableRecord
100
AcDbLinetypeTableRecord
  2
ByBlock
 70
     0
  3

 72
    65
 73
     0
 40
0.0
  0
LTYPE
  5
31B
330
30C
100
AcDbSymbolTableRecord
100
AcDbLinetypeTableRecord
  2
ByLayer
 70
     0
  3

 72
    65
 73
     0
 40
0.0
  0
LTYPE
  5
31C
330
30C
100
AcDbSymbolTableRecord
100
AcDbLinetypeTableRecord
  2
CONTINUOUS
 70
     0
  3
Solid line
 72
    65
 73
     0
 40
0.0
  0
LTYPE
  5
328
330
30C
100
AcDbSymbolTableRecord
100
AcDbLinetypeTableRecord
  2
DASHED
 70
     0
  3
__ __ __ __ __
 72
    65
 73
     2
 40
6.25
 49
5.0
 74
     0
 49
-1.25
 74
     0
  0
LTYPE
  5
329
330
30C
100
AcDbSymbolTableRecord
100
AcDbLinetypeTableRecord
  2
DASHDOT
 70
     0
  3
__ . __ . __ . __ . __
 72
    65
 73
     4
 40
7.5
 49
5.0
 74
     0
 49
-1.25
 74
     0
 49
0.0
 74
     0
 49
-1.25
 74
     0
  0
LTYPE
  5
32A
330
30C
100
AcDbSymbolTableRecord
100
AcDbLinetypeTableRecord
  2
CENTER
 70
     0
  3
__ . __ . __ . __ . __
 72
    65
 73
     4
 40
7.5
 49
5.0
 74
     0
 49
-1.25
 74
     0
 49
0.0
 74
     0
 49
-1.25
 74
     0
  0
ENDTAB
  0
TABLE
  2
LAYER
  5
309
330
0
100
AcDbSymbolTable
 70
    13
  0
LAYER
  5
317
330
309
100
AcDbSymbolTableRecord
100
AcDbLayerTableRecord
  2
0
 70
     0
 62
     7
  6
CONTINUOUS
370
    -3
390
316
347
32F
348
0
  0
LAYER
  5
330
330
309
100
AcDbSymbolTableRecord
100
AcDbLayerTableRecord
  2
LC-INFO-1-2-MM-A3-0
 70
     1
 62
    -1
  6
CONTINUOUS
370
    -3
390
316
347
32F
348
0
  0
LAYER
  5
331
330
309
100
AcDbSymbolTableRecord
100
AcDbLayerTableRecord
  2
LC-005-005-----0
 70
     0
 62
     2
  6
CONTINUOUS
370
    -3
390
316
347
32F
348
0
  0
LAYER
  5
332
330
309
100
AcDbSymbolTableRecord
100
AcDbLayerTableRecord
  2
LC-009-003-MTH-0
 70
     0
 62
     2
  6
CONTINUOUS
370
    -3
390
316
347
32F
348
0
  0
LAYER
  5
333
330
309
100
AcDbSymbolTableRecord
100
AcDbLayerTableRecord
  2
LC-010-003-MTG-0
 70
     0
 62
     2
  6
CONTINUOUS
370
    -3
390
316
347
32F
348
0
  0
LAYER
  5
334
330
309
100
AcDbSymbolTableRecord
100
AcDbLayerTableRecord
  2
LC-008-003-----0
 70
     0
 62
     2
  6
CONTINUOUS
370
    -3
390
316
347
32F
348
0
  0
LAYER
  5
335
330
309
100
AcDbSymbolTableRecord
100
AcDbLayerTableRecord
  2
LC-006-000-----0
 70
     0
 62
     7
  6
CONTINUOUS
370
    -3
390
316
347
32F
348
0
  0
LAYER
  5
336
330
309
100
AcDbSymbolTableRecord
100
AcDbLayerTableRecord
  2
LC-001-002-----0
 70
     0
 62
     1
  6
CONTINUOUS
370
    -3
390
316
347
32F
348
0
  0
LAYER
  5
337
330
309
100
AcDbSymbolTableRecord
100
AcDbLayerTableRecord
  2
LC-002-100-D03-0
 70
     0
 62
     1
  6
CONTINUOUS
370
    -3
390
316
347
32F
348
0
  0
LAYER
  5
338
330
309
100
AcDbSymbolTableRecord
100
AcDbLayerTableRecord
  2
LC-003-100-D01-0
 70
     0
 62
     1
  6
CONTINUOUS
370
    -3
390
316
347
32F
348
0
  0
LAYER
  5
339
330
309
100
AcDbSymbolTableRecord
100
AcDbLayerTableRecord
  2
LC-004-002-RND-0
 70
     0
 62
     1
  6
CONTINUOUS
370
    -3
390
316
347
32F
348
0
  0
LAYER
  5
33A
330
309
100
AcDbSymbolTableRecord
100
AcDbLayerTableRecord
  2
LC-007-006-MLN-0
 70
     0
 62
     2
  6
CENTER
370
    -3
390
316
347
32F
348
0
  0
LAYER
  5
33B
330
309
100
AcDbSymbolTableRecord
100
AcDbLayerTableRecord
  2
LC-000
 70
     0
 62
     7
  6
CONTINUOUS
370
    -3
390
316
347
32F
348
0
  0
ENDTAB
  0
TABLE
  2
STYLE
  5
30A
330
0
100
AcDbSymbolTable
 70
     4
  0
STYLE
  5
318
330
30A
100
AcDbSymbolTableRecord
100
AcDbTextStyleTableRecord
  2
STANDARD
 70
     0
 40
0.0
 41
1.0
 50
0.0
 71
     0
 42
0.0
  3
txt
  4

  0
STYLE
  5
33D
330
30A
100
AcDbSymbolTableRecord
100
AcDbTextStyleTableRecord
  2
LC-STANDARD
 70
     0
 40
0.0
 41
1.0
 50
0.0
 71
     0
 42
3.5
  3
MONOTXT
  4

  0
STYLE
  5
33E
330
30A
100
AcDbSymbolTableRecord
100
AcDbTextStyleTableRecord
  2
LC-TXTSTYLE-150-400-0-0-D2
 70
     0
 40
0.0
 41
1.0
 50
15.0
 71
     0
 42
3.5
  3
MONOTXT
  4

  0
STYLE
  5
33F
330
30A
100
AcDbSymbolTableRecord
100
AcDbTextStyleTableRecord
  2
LC-TXTSTYLE-150-400-0-0-D3
 70
     0
 40
0.0
 41
1.0
 50
15.0
 71
     0
 42
3.5
  3
MONOTXT
  4

  0
ENDTAB
  0
TABLE
  2
VIEW
  5
30D
330
0
100
AcDbSymbolTable
 70
     0
  0
ENDTAB
  0
TABLE
  2
UCS
  5
30E
330
0
100
AcDbSymbolTable
 70
     0
  0
ENDTAB
  0
TABLE
  2
APPID
  5
310
330
0
100
AcDbSymbolTable
 70
     1
  0
APPID
  5
319
330
310
100
AcDbSymbolTableRecord
100
AcDbRegAppTableRecord
  2
ACAD
 70
     0
  0
ENDTAB
  0
TABLE
  2
DIMSTYLE
  5
311
330
0
100
AcDbSymbolTable
 70
     3
100
AcDbDimStyleTable
  0
DIMSTYLE
105
341
330
311
100
AcDbSymbolTableRecord
100
AcDbDimStyleTableRecord
  2
STANDARD
 70
     0
178
     0
340
318
  0
DIMSTYLE
105
342
330
311
100
AcDbSymbolTableRecord
100
AcDbDimStyleTableRecord
  2
LC-STANDARD
 70
     0
 41
3.5
 42
0.0
 43
7.5
 44
1.8
 73
     0
 74
     0
 77
     1
 78
     8
140
3.5
141
0.0
146
0.71
147
1.5
172
     1
178
     3
340
318
  0
DIMSTYLE
105
343
330
311
100
AcDbSymbolTableRecord
100
AcDbDimStyleTableRecord
  2
LC-DIM-L-0090-02-02
 70
     0
 40
2.0
 41
3.5
 42
0.0
 43
7.5
 44
1.8
 73
     0
 74
     0
 77
     1
 78
     8
140
9.0
141
0.0
146
0.71
147
1.5
176
     2
177
     2
178
     6
340
318
  0
ENDTAB
  0
TABLE
  2
BLOCK_RECORD
  5
308
330
0
100
AcDbSymbolTable
 70
    15
  0
BLOCK_RECORD
  5
323
330
308
100
AcDbSymbolTableRecord
100
AcDbBlockTableRecord
  2
*Model_Space
340
324
 70
     0
280
     1
281
     0
  0
BLOCK_RECORD
  5
321
330
308
100
AcDbSymbolTableRecord
100
AcDbBlockTableRecord
  2
*Paper_Space
340
322
 70
     0
280
     1
281
     0
  0
BLOCK_RECORD
  5
345
330
308
100
AcDbSymbolTableRecord
100
AcDbBlockTableRecord
  2
*X0
340
0
102
{BLKREFS
331
18F
102
}
 70
     0
280
     1
281
     0
  0
BLOCK_RECORD
  5
347
330
308
100
AcDbSymbolTableRecord
100
AcDbBlockTableRecord
  2
*X1
340
0
102
{BLKREFS
331
190
102
}
 70
     0
280
     1
281
     0
  0
BLOCK_RECORD
  5
349
330
308
100
AcDbSymbolTableRecord
100
AcDbBlockTableRecord
  2
BLK1
340
0
102
{BLKREFS
331
192
102
}
 70
     0
280
     1
281
     0
  0
BLOCK_RECORD
  5
34B
330
308
100
AcDbSymbolTableRecord
100
AcDbBlockTableRecord
  2
*X3
340
0
102
{BLKREFS
331
193
102
}
 70
     0
280
     1
281
     0
  0
BLOCK_RECORD
  5
34D
330
308
100
AcDbSymbolTableRecord
100
AcDbBlockTableRecord
  2
*X4
340
0
102
{BLKREFS
331
194
102
}
 70
     0
280
     1
281
     0
  0
BLOCK_RECORD
  5
34F
330
308
100
AcDbSymbolTableRecord
100
AcDbBlockTableRecord
  2
*X5
340
0
102
{BLKREFS
331
195
102
}
 70
     0
280
     1
281
     0
  0
BLOCK_RECORD
  5
351
330
308
100
AcDbSymbolTableRecord
100
AcDbBlockTableRecord
  2
*X6
340
0
102
{BLKREFS
331
196
102
}
 70
     0
280
     1
281
     0
  0
BLOCK_RECORD
  5
353
330
308
100
AcDbSymbolTableRecord
100
AcDbBlockTableRecord
  2
*X7
340
0
102
{BLKREFS
331
197
102
}
 70
     0
280
     1
281
     0
  0
BLOCK_RECORD
  5
355
330
308
100
AcDbSymbolTableRecord
100
AcDbBlockTableRecord
  2
BLK2
340
0
102
{BLKREFS
331
198
102
}
 70
     0
280
     1
281
     0
  0
BLOCK_RECORD
  5
357
330
308
100
AcDbSymbolTableRecord
100
AcDbBlockTableRecord
  2
BLK3
340
0
102
{BLKREFS
331
199
102
}
 70
     0
280
     1
281
     0
  0
BLOCK_RECORD
  5
359
330
308
100
AcDbSymbolTableRecord
100
AcDbBlockTableRecord
  2
BLK4
340
0
102
{BLKREFS
331
19A
102
}
 70
     0
280
     1
281
     0
  0
BLOCK_RECORD
  5
35B
330
308
100
AcDbSymbolTableRecord
100
AcDbBlockTableRecord
  2
*D11
340
0
 70
     0
280
     1
281
     0
  0
BLOCK_RECORD
  5
35D
330
308
100
AcDbSymbolTableRecord
100
AcDbBlockTableRecord
  2
*D12
340
0
 70
     0
280
     1
281
     0
  0
BLOCK_RECORD
  5
35F
330
308
100
AcDbSymbolTableRecord
100
AcDbBlockTableRecord
  2
*D13
340
0
 70
     0
280
     1
281
     0
  0
BLOCK_RECORD
  5
361
330
308
100
AcDbSymbolTableRecord
100
AcDbBlockTableRecord
  2
*D14
340
0
 70
     0
280
     1
281
     0
  0
ENDTAB
  0
ENDSEC
  0
SECTION
  2
BLOCKS
  0
BLOCK
  5
384
330
323
100
AcDbEntity
  8
0
100
AcDbBlockBegin
  2
*Model_Space
 70
     0
 10
0.0
 20
0.0
 30
0.0
  3
*Model_Space
  1
*Model_Space
  0
ENDBLK
  5
385
330
323
100
AcDbEntity
  8
0
100
AcDbBlockEnd
  0
BLOCK
  5
386
330
321
100
AcDbEntity
 67
     1
  8
0
100
AcDbBlockBegin
  2
*Paper_Space
 70
     0
 10
0.0
 20
0.0
 30
0.0
  3
*Paper_Space
  1
*Paper_Space
  0
ENDBLK
  5
387
330
321
100
AcDbEntity
 67
     1
  8
0
100
AcDbBlockEnd
  0
BLOCK
  5
344
330
345
100
AcDbEntity
  8
0
100
AcDbBlockBegin
  2
*X0
 70
     1
 10
178.21908
 20
392.032409
 30
0.0
  3
*X0
  1
*X0
  0
LINE
  5
27
330
345
100
AcDbEntity
  8
LC-005-005-----0
  6
DASHED
100
AcDbLine
 10
182.743485
 20
392.047092
 30
0.0
 11
183.10852
 21
392.412127
 31
0.0
  0
LINE
  5
28
330
345
100
AcDbEntity
  8
LC-005-005-----0
  6
DASHED
100
AcDbLine
 10
185.649397
 20
394.953004
 30
0.0
 11
186.490587
 21
395.794195
 31
0.0
  0
LINE
  5
29
330
345
100
AcDbEntity
  8
LC-005-005-----0
  6
DASHED
100
AcDbLine
 10
180.038085
 20
392.170119
 30
0.0
 11
182.72288
 21
394.854914
 31
0.0
  0
LINE
  5
2A
330
345
100
AcDbEntity
  8
LC-005-005-----0
  6
DASHED
100
AcDbLine
 10
183.187616
 20
395.319651
 30
0.0
 11
185.455311
 21
397.587346
 31
0.0
  0
LINE
  5
2B
330
345
100
AcDbEntity
  8
LC-005-005-----0
  6
Continuous
100
AcDbLine
 10
178.81908
 20
396.607968
 30
0.0
 11
183.06196
 21
400.850848
 31
0.0
  0
LINE
  5
2C
330
345
100
AcDbEntity
  8
LC-005-005-----0
  6
Continuous
100
AcDbLine
 10
178.823125
 20
399.440441
 30
0.0
 11
179.727361
 21
400.344677
 31
0.0
  0
ENDBLK
  5
2D
330
345
100
AcDbEntity
  8
0
100
AcDbBlockEnd
  0
BLOCK
  5
346
330
347
100
AcDbEntity
  8
0
100
AcDbBlockBegin
  2
*X1
 70
     1
 10
273.346635
 20
392.032409
 30
0.0
  3
*X1
  1
*X1
  0
LINE
  5
30
330
347
100
AcDbEntity
  8
LC-005-005-----0
  6
DASHED
100
AcDbLine
 10
278.895324
 20
392.032409
 30
0.0
 11
281.246635
 21
394.38372
 31
0.0
  0
LINE
  5
31
330
347
100
AcDbEntity
  8
LC-005-005-----0
  6
DASHED
100
AcDbLine
 10
277.013557
 20
392.979069
 30
0.0
 11
281.388903
 21
397.354415
 31
0.0
  0
LINE
  5
32
330
347
100
AcDbEntity
  8
LC-005-005-----0
  6
Continuous
100
AcDbLine
 10
273.412461
 20
395.034828
 30
0.0
 11
279.010834
 21
400.633201
 31
0.0
  0
ENDBLK
  5
33
330
347
100
AcDbEntity
  8
0
100
AcDbBlockEnd
  0
BLOCK
  5
348
330
349
100
AcDbEntity
  8
0
100
AcDbBlockBegin
  2
BLK1
 70
     0
 10
0.0
 20
0.0
 30
0.0
  3
BLK1
  1
BLK1
  0
ENDBLK
  5
36
330
349
100
AcDbEntity
  8
0
100
AcDbBlockEnd
  0
BLOCK
  5
34A
330
34B
100
AcDbEntity
  8
0
100
AcDbBlockBegin
  2
*X3
 70
     1
 10
112.661814
 20
352.032015
 30
0.0
  3
*X3
  1
*X3
  0
LINE
  5
39
330
34B
100
AcDbEntity
  8
LC-005-005-----0
  6
Continuous
100
AcDbLine
 10
182.326387
 20
352.032015
 30
0.0
 11
183.326387
 21
353.032015
 31
0.0
  0
LINE
  5
3A
330
34B
100
AcDbEntity
  8
LC-005-005-----0
  6
Continuous
100
AcDbLine
 10
179.49796
 20
352.032015
 30
0.0
 11
180.49796
 21
353.032015
 31
0.0
  0
LINE
  5
3B
330
34B
100
AcDbEntity
  8
LC-005-005-----0
  6
Continuous
100
AcDbLine
 10
176.669533
 20
352.032015
 30
0.0
 11
177.669533
 21
353.032015
 31
0.0
  0
LINE
  5
3C
330
34B
100
AcDbEntity
  8
LC-005-005-----0
  6
Continuous
100
AcDbLine
 10
173.841106
 20
352.032015
 30
0.0
 11
174.841106
 21
353.032015
 31
0.0
  0
LINE
  5
3D
330
34B
100
AcDbEntity
  8
LC-005-005-----0
  6
Continuous
100
AcDbLine
 10
171.012679
 20
352.032015
 30
0.0
 11
172.012679
 21
353.032015
 31
0.0
  0
LINE
  5
3E
330
34B
100
AcDbEntity
  8
LC-005-005-----0
  6
Continuous
100
AcDbLine
 10
168.184252
 20
352.032015
 30
0.0
 11
169.184252
 21
353.032015
 31
0.0
  0
LINE
  5
3F
330
34B
100
AcDbEntity
  8
LC-005-005-----0
  6
Continuous
100
AcDbLine
 10
165.59256
 20
352.26875
 30
0.0
 11
166.416844
 21
353.093035
 31
0.0
  0
LINE
  5
40
330
34B
100
AcDbEntity
  8
LC-005-005-----0
  6
Continuous
100
AcDbLine
 10
163.790674
 20
353.295292
 30
0.0
 11
164.499305
 21
354.003922
 31
0.0
  0
LINE
  5
41
330
34B
100
AcDbEntity
  8
LC-005-005-----0
  6
Continuous
100
AcDbLine
 10
162.58277
 20
354.915814
 30
0.0
 11
163.347929
 21
355.680973
 31
0.0
  0
LINE
  5
42
330
34B
100
AcDbEntity
  8
LC-005-005-----0
  6
Continuous
100
AcDbLine
 10
161.922543
 20
357.084015
 30
0.0
 11
162.73904
 21
357.900511
 31
0.0
  0
LINE
  5
43
330
34B
100
AcDbEntity
  8
LC-005-005-----0
  6
Continuous
100
AcDbLine
 10
161.324826
 20
359.314725
 30
0.0
 11
162.141323
 21
360.131221
 31
0.0
  0
LINE
  5
44
330
34B
100
AcDbEntity
  8
LC-005-005-----0
  6
Continuous
100
AcDbLine
 10
160.727109
 20
361.545435
 30
0.0
 11
161.543606
 21
362.361932
 31
0.0
  0
LINE
  5
45
330
34B
100
AcDbEntity
  8
LC-005-005-----0
  6
Continuous
100
AcDbLine
 10
160.129392
 20
363.776145
 30
0.0
 11
160.945889
 21
364.592642
 31
0.0
  0
LINE
  5
46
330
34B
100
AcDbEntity
  8
LC-005-005-----0
  6
Continuous
100
AcDbLine
 10
159.531675
 20
366.006855
 30
0.0
 11
160.348172
 21
366.823352
 31
0.0
  0
LINE
  5
47
330
34B
100
AcDbEntity
  8
LC-005-005-----0
  6
Continuous
100
AcDbLine
 10
158.933958
 20
368.237565
 30
0.0
 11
159.750455
 21
369.054062
 31
0.0
  0
LINE
  5
48
330
34B
100
AcDbEntity
  8
LC-005-005-----0
  6
Continuous
100
AcDbLine
 10
158.336241
 20
370.468276
 30
0.0
 11
159.152738
 21
371.284772
 31
0.0
  0
LINE
  5
49
330
34B
100
AcDbEntity
  8
LC-005-005-----0
  6
Continuous
100
AcDbLine
 10
157.738524
 20
372.698986
 30
0.0
 11
158.555021
 21
373.515482
 31
0.0
  0
LINE
  5
4A
330
34B
100
AcDbEntity
  8
LC-005-005-----0
  6
Continuous
100
AcDbLine
 10
157.140807
 20
374.929696
 30
0.0
 11
157.957304
 21
375.746192
 31
0.0
  0
LINE
  5
4B
330
34B
100
AcDbEntity
  8
LC-005-005-----0
  6
Continuous
100
AcDbLine
 10
156.54309
 20
377.160406
 30
0.0
 11
157.359587
 21
377.976903
 31
0.0
  0
LINE
  5
4C
330
34B
100
AcDbEntity
  8
LC-005-005-----0
  6
Continuous
100
AcDbLine
 10
155.945373
 20
379.391116
 30
0.0
 11
156.76187
 21
380.207613
 31
0.0
  0
LINE
  5
4D
330
34B
100
AcDbEntity
  8
LC-005-005-----0
  6
Continuous
100
AcDbLine
 10
155.347656
 20
381.621826
 30
0.0
 11
156.164153
 21
382.438323
 31
0.0
  0
LINE
  5
4E
330
34B
100
AcDbEntity
  8
LC-005-005-----0
  6
Continuous
100
AcDbLine
 10
154.749939
 20
383.852536
 30
0.0
 11
155.566436
 21
384.669033
 31
0.0
  0
LINE
  5
4F
330
34B
100
AcDbEntity
  8
LC-005-005-----0
  6
Continuous
100
AcDbLine
 10
154.152222
 20
386.083247
 30
0.0
 11
154.968719
 21
386.899743
 31
0.0
  0
LINE
  5
50
330
34B
100
AcDbEntity
  8
LC-005-005-----0
  6
Continuous
100
AcDbLine
 10
153.554505
 20
388.313957
 30
0.0
 11
154.371002
 21
389.130453
 31
0.0
  0
LINE
  5
51
330
34B
100
AcDbEntity
  8
LC-005-005-----0
  6
Continuous
100
AcDbLine
 10
152.956788
 20
390.544667
 30
0.0
 11
153.773285
 21
391.361163
 31
0.0
  0
LINE
  5
52
330
34B
100
AcDbEntity
  8
LC-005-005-----0
  6
Continuous
100
AcDbLine
 10
152.359071
 20
392.775377
 30
0.0
 11
153.175568
 21
393.591874
 31
0.0
  0
LINE
  5
53
330
34B
100
AcDbEntity
  8
LC-005-005-----0
  6
Continuous
100
AcDbLine
 10
151.761354
 20
395.006087
 30
0.0
 11
152.577851
 21
395.822584
 31
0.0
  0
LINE
  5
54
330
34B
100
AcDbEntity
  8
LC-005-005-----0
  6
Continuous
100
AcDbLine
 10
151.163637
 20
397.236797
 30
0.0
 11
151.980134
 21
398.053294
 31
0.0
  0
LINE
  5
55
330
34B
100
AcDbEntity
  8
LC-005-005-----0
  6
Continuous
100
AcDbLine
 10
150.56592
 20
399.467507
 30
0.0
 11
151.382417
 21
400.284004
 31
0.0
  0
LINE
  5
56
330
34B
100
AcDbEntity
  8
LC-005-005-----0
  6
Continuous
100
AcDbLine
 10
149.968204
 20
401.698218
 30
0.0
 11
150.7847
 21
402.514714
 31
0.0
  0
LINE
  5
57
330
34B
100
AcDbEntity
  8
LC-005-005-----0
  6
Continuous
100
AcDbLine
 10
149.370487
 20
403.928928
 30
0.0
 11
150.186983
 21
404.745424
 31
0.0
  0
LINE
  5
58
330
34B
100
AcDbEntity
  8
LC-005-005-----0
  6
Continuous
100
AcDbLine
 10
148.77277
 20
406.159638
 30
0.0
 11
149.589266
 21
406.976134
 31
0.0
  0
LINE
  5
59
330
34B
100
AcDbEntity
  8
LC-005-005-----0
  6
Continuous
100
AcDbLine
 10
148.175053
 20
408.390348
 30
0.0
 11
148.991549
 21
409.206845
 31
0.0
  0
LINE
  5
5A
330
34B
100
AcDbEntity
  8
LC-005-005-----0
  6
Continuous
100
AcDbLine
 10
147.577336
 20
410.621058
 30
0.0
 11
148.393832
 21
411.437555
 31
0.0
  0
LINE
  5
5B
330
34B
100
AcDbEntity
  8
LC-005-005-----0
  6
Continuous
100
AcDbLine
 10
146.979619
 20
412.851768
 30
0.0
 11
147.796115
 21
413.668265
 31
0.0
  0
LINE
  5
5C
330
34B
100
AcDbEntity
  8
LC-005-005-----0
  6
Continuous
100
AcDbLine
 10
146.381902
 20
415.082478
 30
0.0
 11
147.198398
 21
415.898975
 31
0.0
  0
LINE
  5
5D
330
34B
100
AcDbEntity
  8
LC-005-005-----0
  6
Continuous
100
AcDbLine
 10
145.784185
 20
417.313189
 30
0.0
 11
146.600681
 21
418.129685
 31
0.0
  0
LINE
  5
5E
330
34B
100
AcDbEntity
  8
LC-005-005-----0
  6
Continuous
100
AcDbLine
 10
145.186468
 20
419.543899
 30
0.0
 11
146.002964
 21
420.360395
 31
0.0
  0
LINE
  5
5F
330
34B
100
AcDbEntity
  8
LC-005-005-----0
  6
Continuous
100
AcDbLine
 10
144.588751
 20
421.774609
 30
0.0
 11
145.405247
 21
422.591105
 31
0.0
  0
LINE
  5
60
330
34B
100
AcDbEntity
  8
LC-005-005-----0
  6
Continuous
100
AcDbLine
 10
143.991034
 20
424.005319
 30
0.0
 11
144.80753
 21
424.821816
 31
0.0
  0
LINE
  5
61
330
34B
100
AcDbEntity
  8
LC-005-005-----0
  6
Continuous
100
AcDbLine
 10
143.393317
 20
426.236029
 30
0.0
 11
144.209813
 21
427.052526
 31
0.0
  0
LINE
  5
62
330
34B
100
AcDbEntity
  8
LC-005-005-----0
  6
Continuous
100
AcDbLine
 10
142.7956
 20
428.466739
 30
0.0
 11
143.612096
 21
429.283236
 31
0.0
  0
LINE
  5
63
330
34B
100
AcDbEntity
  8
LC-005-005-----0
  6
Continuous
100
AcDbLine
 10
142.197883
 20
430.697449
 30
0.0
 11
143.014379
 21
431.513946
 31
0.0
  0
LINE
  5
64
330
34B
100
AcDbEntity
  8
LC-005-005-----0
  6
Continuous
100
AcDbLine
 10
141.600166
 20
432.92816
 30
0.0
 11
142.416662
 21
433.744656
 31
0.0
  0
LINE
  5
65
330
34B
100
AcDbEntity
  8
LC-005-005-----0
  6
Continuous
100
AcDbLine
 10
141.002449
 20
435.15887
 30
0.0
 11
141.818945
 21
435.975366
 31
0.0
  0
LINE
  5
66
330
34B
100
AcDbEntity
  8
LC-005-005-----0
  6
Continuous
100
AcDbLine
 10
140.404732
 20
437.38958
 30
0.0
 11
141.221228
 21
438.206076
 31
0.0
  0
LINE
  5
67
330
34B
100
AcDbEntity
  8
LC-005-005-----0
  6
Continuous
100
AcDbLine
 10
139.807015
 20
439.62029
 30
0.0
 11
140.622453
 21
440.435728
 31
0.0
  0
LINE
  5
68
330
34B
100
AcDbEntity
  8
LC-005-005-----0
  6
Continuous
100
AcDbLine
 10
138.92112
 20
441.562822
 30
0.0
 11
139.631084
 21
442.272786
 31
0.0
  0
LINE
  5
69
330
34B
100
AcDbEntity
  8
LC-005-005-----0
  6
Continuous
100
AcDbLine
 10
137.285246
 20
442.755375
 30
0.0
 11
138.042522
 21
443.512652
 31
0.0
  0
LINE
  5
6A
330
34B
100
AcDbEntity
  8
LC-005-005-----0
  6
Continuous
100
AcDbLine
 10
134.733458
 20
443.032015
 30
0.0
 11
135.733458
 21
444.032015
 31
0.0
  0
LINE
  5
6B
330
34B
100
AcDbEntity
  8
LC-005-005-----0
  6
Continuous
100
AcDbLine
 10
131.905031
 20
443.032015
 30
0.0
 11
132.905031
 21
444.032015
 31
0.0
  0
LINE
  5
6C
330
34B
100
AcDbEntity
  8
LC-005-005-----0
  6
Continuous
100
AcDbLine
 10
129.076604
 20
443.032015
 30
0.0
 11
130.076604
 21
444.032015
 31
0.0
  0
LINE
  5
6D
330
34B
100
AcDbEntity
  8
LC-005-005-----0
  6
Continuous
100
AcDbLine
 10
126.248177
 20
443.032015
 30
0.0
 11
127.248177
 21
444.032015
 31
0.0
  0
LINE
  5
6E
330
34B
100
AcDbEntity
  8
LC-005-005-----0
  6
Continuous
100
AcDbLine
 10
123.41975
 20
443.032015
 30
0.0
 11
124.41975
 21
444.032015
 31
0.0
  0
LINE
  5
6F
330
34B
100
AcDbEntity
  8
LC-005-005-----0
  6
Continuous
100
AcDbLine
 10
120.591323
 20
443.032015
 30
0.0
 11
121.591323
 21
444.032015
 31
0.0
  0
LINE
  5
70
330
34B
100
AcDbEntity
  8
LC-005-005-----0
  6
Continuous
100
AcDbLine
 10
117.762896
 20
443.032015
 30
0.0
 11
118.762896
 21
444.032015
 31
0.0
  0
LINE
  5
71
330
34B
100
AcDbEntity
  8
LC-005-005-----0
  6
Continuous
100
AcDbLine
 10
114.934468
 20
443.032015
 30
0.0
 11
115.934468
 21
444.032015
 31
0.0
  0
LINE
  5
72
330
34B
100
AcDbEntity
  8
LC-005-005-----0
  6
Continuous
100
AcDbLine
 10
112.661814
 20
443.587788
 30
0.0
 11
113.106041
 21
444.032015
 31
0.0
  0
ENDBLK
  5
73
330
34B
100
AcDbEntity
  8
0
100
AcDbBlockEnd
  0
BLOCK
  5
34C
330
34D
100
AcDbEntity
  8
0
100
AcDbBlockBegin
  2
*X4
 70
     1
 10
160.782857
 20
307.032015
 30
0.0
  3
*X4
  1
*X4
  0
LINE
  5
76
330
34D
100
AcDbEntity
  8
LC-005-005-----0
  6
Continuous
100
AcDbLine
 10
267.434035
 20
307.032015
 30
0.0
 11
268.172813
 21
307.770793
 31
0.0
  0
LINE
  5
77
330
34D
100
AcDbEntity
  8
LC-005-005-----0
  6
Continuous
100
AcDbLine
 10
272.794079
 20
312.392059
 30
0.0
 11
273.532857
 21
313.130837
 31
0.0
  0
LINE
  5
78
330
34D
100
AcDbEntity
  8
LC-005-005-----0
  6
Continuous
100
AcDbLine
 10
265.032857
 20
307.459264
 30
0.0
 11
265.305608
 21
307.732015
 31
0.0
  0
LINE
  5
79
330
34D
100
AcDbEntity
  8
LC-005-005-----0
  6
Continuous
100
AcDbLine
 10
272.832857
 20
315.259264
 30
0.0
 11
273.532857
 21
315.959264
 31
0.0
  0
LINE
  5
7A
330
34D
100
AcDbEntity
  8
LC-005-005-----0
  6
Continuous
100
AcDbLine
 10
272.832857
 20
318.087691
 30
0.0
 11
273.532857
 21
318.787691
 31
0.0
  0
LINE
  5
7B
330
34D
100
AcDbEntity
  8
LC-005-005-----0
  6
Continuous
100
AcDbLine
 10
272.832857
 20
320.916118
 30
0.0
 11
273.532857
 21
321.616118
 31
0.0
  0
LINE
  5
7C
330
34D
100
AcDbEntity
  8
LC-005-005-----0
  6
Continuous
100
AcDbLine
 10
272.832857
 20
323.744546
 30
0.0
 11
273.532857
 21
324.444546
 31
0.0
  0
LINE
  5
7D
330
34D
100
AcDbEntity
  8
LC-005-005-----0
  6
Continuous
100
AcDbLine
 10
272.832857
 20
326.572973
 30
0.0
 11
273.532857
 21
327.272973
 31
0.0
  0
LINE
  5
7E
330
34D
100
AcDbEntity
  8
LC-005-005-----0
  6
Continuous
100
AcDbLine
 10
272.832857
 20
329.4014
 30
0.0
 11
273.532857
 21
330.1014
 31
0.0
  0
LINE
  5
7F
330
34D
100
AcDbEntity
  8
LC-005-005-----0
  6
Continuous
100
AcDbLine
 10
294.612702
 20
351.181245
 30
0.0
 11
295.798599
 21
352.367141
 31
0.0
  0
LINE
  5
80
330
34D
100
AcDbEntity
  8
LC-005-005-----0
  6
Continuous
100
AcDbLine
 10
297.947731
 20
354.516273
 30
0.0
 11
299.133628
 21
355.70217
 31
0.0
  0
LINE
  5
81
330
34D
100
AcDbEntity
  8
LC-005-005-----0
  6
Continuous
100
AcDbLine
 10
272.832857
 20
332.229827
 30
0.0
 11
273.532857
 21
332.929827
 31
0.0
  0
LINE
  5
82
330
34D
100
AcDbEntity
  8
LC-005-005-----0
  6
Continuous
100
AcDbLine
 10
291.635045
 20
351.032015
 30
0.0
 11
292.335045
 21
351.732015
 31
0.0
  0
LINE
  5
83
330
34D
100
AcDbEntity
  8
LC-005-005-----0
  6
Continuous
100
AcDbLine
 10
272.832857
 20
335.058254
 30
0.0
 11
273.532857
 21
335.758254
 31
0.0
  0
LINE
  5
84
330
34D
100
AcDbEntity
  8
LC-005-005-----0
  6
Continuous
100
AcDbLine
 10
288.806618
 20
351.032015
 30
0.0
 11
289.506618
 21
351.732015
 31
0.0
  0
LINE
  5
85
330
34D
100
AcDbEntity
  8
LC-005-005-----0
  6
Continuous
100
AcDbLine
 10
272.832857
 20
337.886681
 30
0.0
 11
273.532857
 21
338.586681
 31
0.0
  0
LINE
  5
86
330
34D
100
AcDbEntity
  8
LC-005-005-----0
  6
Continuous
100
AcDbLine
 10
285.978191
 20
351.032015
 30
0.0
 11
286.678191
 21
351.732015
 31
0.0
  0
LINE
  5
87
330
34D
100
AcDbEntity
  8
LC-005-005-----0
  6
Continuous
100
AcDbLine
 10
272.832857
 20
340.715108
 30
0.0
 11
273.532857
 21
341.415108
 31
0.0
  0
LINE
  5
88
330
34D
100
AcDbEntity
  8
LC-005-005-----0
  6
Continuous
100
AcDbLine
 10
283.149764
 20
351.032015
 30
0.0
 11
283.849764
 21
351.732015
 31
0.0
  0
LINE
  5
89
330
34D
100
AcDbEntity
  8
LC-005-005-----0
  6
Continuous
100
AcDbLine
 10
272.832857
 20
343.543535
 30
0.0
 11
273.532857
 21
344.243535
 31
0.0
  0
LINE
  5
8A
330
34D
100
AcDbEntity
  8
LC-005-005-----0
  6
Continuous
100
AcDbLine
 10
280.321337
 20
351.032015
 30
0.0
 11
281.021337
 21
351.732015
 31
0.0
  0
LINE
  5
8B
330
34D
100
AcDbEntity
  8
LC-005-005-----0
  6
Continuous
100
AcDbLine
 10
272.843659
 20
346.382765
 30
0.0
 11
273.674472
 21
347.213577
 31
0.0
  0
LINE
  5
8C
330
34D
100
AcDbEntity
  8
LC-005-005-----0
  6
Continuous
100
AcDbLine
 10
277.351295
 20
350.8904
 30
0.0
 11
278.182108
 21
351.721213
 31
0.0
  0
LINE
  5
8D
330
34D
100
AcDbEntity
  8
LC-005-005-----0
  6
Continuous
100
AcDbLine
 10
193.89493
 20
307.032015
 30
0.0
 11
194.59493
 21
307.732015
 31
0.0
  0
LINE
  5
8E
330
34D
100
AcDbEntity
  8
LC-005-005-----0
  6
Continuous
100
AcDbLine
 10
191.213385
 20
307.178897
 30
0.0
 11
191.815302
 21
307.780814
 31
0.0
  0
LINE
  5
8F
330
34D
100
AcDbEntity
  8
LC-005-005-----0
  6
Continuous
100
AcDbLine
 10
189.22938
 20
308.023319
 30
0.0
 11
189.736075
 21
308.530014
 31
0.0
  0
LINE
  5
90
330
34D
100
AcDbEntity
  8
LC-005-005-----0
  6
Continuous
100
AcDbLine
 10
187.765947
 20
309.388313
 30
0.0
 11
188.265905
 21
309.888272
 31
0.0
  0
LINE
  5
91
330
34D
100
AcDbEntity
  8
LC-005-005-----0
  6
Continuous
100
AcDbLine
 10
186.802556
 20
311.25335
 30
0.0
 11
187.372523
 21
311.823317
 31
0.0
  0
LINE
  5
92
330
34D
100
AcDbEntity
  8
LC-005-005-----0
  6
Continuous
100
AcDbLine
 10
186.532857
 20
313.812078
 30
0.0
 11
187.232857
 21
314.512078
 31
0.0
  0
LINE
  5
93
330
34D
100
AcDbEntity
  8
LC-005-005-----0
  6
Continuous
100
AcDbLine
 10
186.532857
 20
316.640505
 30
0.0
 11
187.232857
 21
317.340505
 31
0.0
  0
LINE
  5
94
330
34D
100
AcDbEntity
  8
LC-005-005-----0
  6
Continuous
100
AcDbLine
 10
186.532857
 20
319.468932
 30
0.0
 11
187.232857
 21
320.168932
 31
0.0
  0
LINE
  5
95
330
34D
100
AcDbEntity
  8
LC-005-005-----0
  6
Continuous
100
AcDbLine
 10
186.532857
 20
322.297359
 30
0.0
 11
187.232857
 21
322.997359
 31
0.0
  0
LINE
  5
96
330
34D
100
AcDbEntity
  8
LC-005-005-----0
  6
Continuous
100
AcDbLine
 10
186.532857
 20
325.125786
 30
0.0
 11
187.232857
 21
325.825786
 31
0.0
  0
LINE
  5
97
330
34D
100
AcDbEntity
  8
LC-005-005-----0
  6
Continuous
100
AcDbLine
 10
186.532857
 20
327.954214
 30
0.0
 11
187.232857
 21
328.654214
 31
0.0
  0
LINE
  5
98
330
34D
100
AcDbEntity
  8
LC-005-005-----0
  6
Continuous
100
AcDbLine
 10
186.532857
 20
330.782641
 30
0.0
 11
187.232857
 21
331.482641
 31
0.0
  0
LINE
  5
99
330
34D
100
AcDbEntity
  8
LC-005-005-----0
  6
Continuous
100
AcDbLine
 10
186.532857
 20
333.611068
 30
0.0
 11
187.232857
 21
334.311068
 31
0.0
  0
LINE
  5
9A
330
34D
100
AcDbEntity
  8
LC-005-005-----0
  6
Continuous
100
AcDbLine
 10
186.532857
 20
336.439495
 30
0.0
 11
187.232857
 21
337.139495
 31
0.0
  0
LINE
  5
9B
330
34D
100
AcDbEntity
  8
LC-005-005-----0
  6
Continuous
100
AcDbLine
 10
186.532857
 20
339.267922
 30
0.0
 11
187.232857
 21
339.967922
 31
0.0
  0
LINE
  5
9C
330
34D
100
AcDbEntity
  8
LC-005-005-----0
  6
Continuous
100
AcDbLine
 10
186.532857
 20
342.096349
 30
0.0
 11
187.232857
 21
342.796349
 31
0.0
  0
LINE
  5
9D
330
34D
100
AcDbEntity
  8
LC-005-005-----0
  6
Continuous
100
AcDbLine
 10
186.532857
 20
344.924776
 30
0.0
 11
187.232857
 21
345.624776
 31
0.0
  0
LINE
  5
9E
330
34D
100
AcDbEntity
  8
LC-005-005-----0
  6
Continuous
100
AcDbLine
 10
186.30473
 20
347.525076
 30
0.0
 11
186.854294
 21
348.07464
 31
0.0
  0
LINE
  5
9F
330
34D
100
AcDbEntity
  8
LC-005-005-----0
  6
Continuous
100
AcDbLine
 10
185.286404
 20
349.335178
 30
0.0
 11
185.782262
 21
349.831036
 31
0.0
  0
LINE
  5
A0
330
34D
100
AcDbEntity
  8
LC-005-005-----0
  6
Continuous
100
AcDbLine
 10
183.673435
 20
350.550635
 30
0.0
 11
184.194969
 21
351.07217
 31
0.0
  0
LINE
  5
A1
330
34D
100
AcDbEntity
  8
LC-005-005-----0
  6
Continuous
100
AcDbLine
 10
181.326387
 20
351.032015
 30
0.0
 11
182.006661
 21
351.712289
 31
0.0
  0
LINE
  5
A2
330
34D
100
AcDbEntity
  8
LC-005-005-----0
  6
Continuous
100
AcDbLine
 10
178.49796
 20
351.032015
 30
0.0
 11
179.19796
 21
351.732015
 31
0.0
  0
LINE
  5
A3
330
34D
100
AcDbEntity
  8
LC-005-005-----0
  6
Continuous
100
AcDbLine
 10
175.669533
 20
351.032015
 30
0.0
 11
176.369533
 21
351.732015
 31
0.0
  0
LINE
  5
A4
330
34D
100
AcDbEntity
  8
LC-005-005-----0
  6
Continuous
100
AcDbLine
 10
172.841106
 20
351.032015
 30
0.0
 11
173.541106
 21
351.732015
 31
0.0
  0
LINE
  5
A5
330
34D
100
AcDbEntity
  8
LC-005-005-----0
  6
Continuous
100
AcDbLine
 10
170.012679
 20
351.032015
 30
0.0
 11
170.712679
 21
351.732015
 31
0.0
  0
LINE
  5
A6
330
34D
100
AcDbEntity
  8
LC-005-005-----0
  6
Continuous
100
AcDbLine
 10
167.184252
 20
351.032015
 30
0.0
 11
167.884252
 21
351.732015
 31
0.0
  0
LINE
  5
A7
330
34D
100
AcDbEntity
  8
LC-005-005-----0
  6
Continuous
100
AcDbLine
 10
164.721163
 20
351.397353
 30
0.0
 11
165.27488
 21
351.95107
 31
0.0
  0
LINE
  5
A8
330
34D
100
AcDbEntity
  8
LC-005-005-----0
  6
Continuous
100
AcDbLine
 10
162.928851
 20
352.433468
 30
0.0
 11
163.425997
 21
352.930614
 31
0.0
  0
LINE
  5
A9
330
34D
100
AcDbEntity
  8
LC-005-005-----0
  6
Continuous
100
AcDbLine
 10
161.628207
 20
353.961252
 30
0.0
 11
162.141004
 21
354.474048
 31
0.0
  0
LINE
  5
AA
330
34D
100
AcDbEntity
  8
LC-005-005-----0
  6
Continuous
100
AcDbLine
 10
160.867323
 20
356.028794
 30
0.0
 11
161.496101
 21
356.657573
 31
0.0
  0
ENDBLK
  5
AB
330
34D
100
AcDbEntity
  8
0
100
AcDbBlockEnd
  0
BLOCK
  5
34E
330
34F
100
AcDbEntity
  8
0
100
AcDbBlockBegin
  2
*X5
 70
     1
 10
148.187488
 20
351.732015
 30
0.0
  3
*X5
  1
*X5
  0
LINE
  5
AE
330
34F
100
AcDbEntity
  8
LC-005-005-----0
  6
Continuous
100
AcDbLine
 10
308.879232
 20
359.79092
 30
0.0
 11
309.303496
 21
360.215184
 31
0.0
  0
LINE
  5
AF
330
34F
100
AcDbEntity
  8
LC-005-005-----0
  6
Continuous
100
AcDbLine
 10
305.015529
 20
358.755644
 30
0.0
 11
305.439793
 21
359.179908
 31
0.0
  0
LINE
  5
B0
330
34F
100
AcDbEntity
  8
LC-005-005-----0
  6
Continuous
100
AcDbLine
 10
295.798599
 20
352.367141
 30
0.0
 11
297.947731
 21
354.516273
 31
0.0
  0
LINE
  5
B1
330
34F
100
AcDbEntity
  8
LC-005-005-----0
  6
Continuous
100
AcDbLine
 10
301.151825
 20
357.720368
 30
0.0
 11
301.576089
 21
358.144632
 31
0.0
  0
LINE
  5
B2
330
34F
100
AcDbEntity
  8
LC-005-005-----0
  6
Continuous
100
AcDbLine
 10
292.335045
 20
351.732015
 30
0.0
 11
292.635045
 21
352.032015
 31
0.0
  0
LINE
  5
B3
330
34F
100
AcDbEntity
  8
LC-005-005-----0
  6
Continuous
100
AcDbLine
 10
167.884252
 20
351.732015
 30
0.0
 11
168.184252
 21
352.032015
 31
0.0
  0
LINE
  5
B4
330
34F
100
AcDbEntity
  8
LC-005-005-----0
  6
Continuous
100
AcDbLine
 10
165.27488
 20
351.95107
 30
0.0
 11
165.518361
 21
352.194552
 31
0.0
  0
LINE
  5
B5
330
34F
100
AcDbEntity
  8
LC-005-005-----0
  6
Continuous
100
AcDbLine
 10
163.425997
 20
352.930614
 30
0.0
 11
163.639247
 21
353.143864
 31
0.0
  0
LINE
  5
B6
330
34F
100
AcDbEntity
  8
LC-005-005-----0
  6
Continuous
100
AcDbLine
 10
162.141004
 20
354.474048
 30
0.0
 11
162.3624
 21
354.695445
 31
0.0
  0
LINE
  5
B7
330
34F
100
AcDbEntity
  8
LC-005-005-----0
  6
Continuous
100
AcDbLine
 10
161.496101
 20
356.657573
 30
0.0
 11
161.783613
 21
356.945085
 31
0.0
  0
LINE
  5
B8
330
34F
100
AcDbEntity
  8
LC-005-005-----0
  6
Continuous
100
AcDbLine
 10
159.557905
 20
357.547804
 30
0.0
 11
159.802854
 21
357.792753
 31
0.0
  0
LINE
  5
B9
330
34F
100
AcDbEntity
  8
LC-005-005-----0
  6
Continuous
100
AcDbLine
 10
157.327195
 20
358.145521
 30
0.0
 11
157.572144
 21
358.39047
 31
0.0
  0
LINE
  5
BA
330
34F
100
AcDbEntity
  8
LC-005-005-----0
  6
Continuous
100
AcDbLine
 10
155.096485
 20
358.743238
 30
0.0
 11
155.341434
 21
358.988187
 31
0.0
  0
LINE
  5
BB
330
34F
100
AcDbEntity
  8
LC-005-005-----0
  6
Continuous
100
AcDbLine
 10
152.865775
 20
359.340955
 30
0.0
 11
153.110724
 21
359.585904
 31
0.0
  0
LINE
  5
BC
330
34F
100
AcDbEntity
  8
LC-005-005-----0
  6
Continuous
100
AcDbLine
 10
150.635065
 20
359.938672
 30
0.0
 11
150.880014
 21
360.183621
 31
0.0
  0
LINE
  5
BD
330
34F
100
AcDbEntity
  8
LC-005-005-----0
  6
Continuous
100
AcDbLine
 10
148.404355
 20
360.536389
 30
0.0
 11
148.649304
 21
360.781338
 31
0.0
  0
ENDBLK
  5
BE
330
34F
100
AcDbEntity
  8
0
100
AcDbBlockEnd
  0
BLOCK
  5
350
330
351
100
AcDbEntity
  8
0
100
AcDbBlockBegin
  2
*X6
 70
     1
 10
175.282857
 20
353.032015
 30
0.0
  3
*X6
  1
*X6
  0
LINE
  5
C1
330
351
100
AcDbEntity
  8
LC-005-005-----0
  6
Continuous
100
AcDbLine
 10
181.282857
 20
353.289869
 30
0.0
 11
181.540712
 21
353.032015
 31
0.0
  0
LINE
  5
C2
330
351
100
AcDbEntity
  8
LC-005-005-----0
  6
Continuous
100
AcDbLine
 10
180.139986
 20
357.261168
 30
0.0
 11
184.282857
 21
353.118296
 31
0.0
  0
LINE
  5
C3
330
351
100
AcDbEntity
  8
LC-005-005-----0
  6
Continuous
100
AcDbLine
 10
181.282857
 20
358.946723
 30
0.0
 11
184.282857
 21
355.946723
 31
0.0
  0
LINE
  5
C4
330
351
100
AcDbEntity
  8
LC-005-005-----0
  6
Continuous
100
AcDbLine
 10
181.282857
 20
361.775151
 30
0.0
 11
184.282857
 21
358.775151
 31
0.0
  0
LINE
  5
C5
330
351
100
AcDbEntity
  8
LC-005-005-----0
  6
Continuous
100
AcDbLine
 10
181.282857
 20
364.603578
 30
0.0
 11
184.282857
 21
361.603578
 31
0.0
  0
LINE
  5
C6
330
351
100
AcDbEntity
  8
LC-005-005-----0
  6
Continuous
100
AcDbLine
 10
181.282857
 20
367.432005
 30
0.0
 11
184.282857
 21
364.432005
 31
0.0
  0
LINE
  5
C7
330
351
100
AcDbEntity
  8
LC-005-005-----0
  6
Continuous
100
AcDbLine
 10
181.282857
 20
370.260432
 30
0.0
 11
184.282857
 21
367.260432
 31
0.0
  0
LINE
  5
C8
330
351
100
AcDbEntity
  8
LC-005-005-----0
  6
Continuous
100
AcDbLine
 10
181.282857
 20
373.088859
 30
0.0
 11
184.282857
 21
370.088859
 31
0.0
  0
LINE
  5
C9
330
351
100
AcDbEntity
  8
LC-005-005-----0
  6
Continuous
100
AcDbLine
 10
181.282857
 20
375.917286
 30
0.0
 11
184.282857
 21
372.917286
 31
0.0
  0
LINE
  5
CA
330
351
100
AcDbEntity
  8
LC-005-005-----0
  6
Continuous
100
AcDbLine
 10
181.282857
 20
378.745713
 30
0.0
 11
184.282857
 21
375.745713
 31
0.0
  0
LINE
  5
CB
330
351
100
AcDbEntity
  8
LC-005-005-----0
  6
Continuous
100
AcDbLine
 10
181.282857
 20
381.57414
 30
0.0
 11
184.282857
 21
378.57414
 31
0.0
  0
LINE
  5
CC
330
351
100
AcDbEntity
  8
LC-005-005-----0
  6
Continuous
100
AcDbLine
 10
181.282857
 20
384.402568
 30
0.0
 11
184.282857
 21
381.402568
 31
0.0
  0
LINE
  5
CD
330
351
100
AcDbEntity
  8
LC-005-005-----0
  6
Continuous
100
AcDbLine
 10
175.282857
 20
393.230995
 30
0.0
 11
184.282857
 21
384.230995
 31
0.0
  0
LINE
  5
CE
330
351
100
AcDbEntity
  8
LC-005-005-----0
  6
Continuous
100
AcDbLine
 10
175.282857
 20
396.059422
 30
0.0
 11
184.282857
 21
387.059422
 31
0.0
  0
LINE
  5
CF
330
351
100
AcDbEntity
  8
LC-005-005-----0
  6
Continuous
100
AcDbLine
 10
175.282857
 20
398.887849
 30
0.0
 11
178.511648
 21
395.659058
 31
0.0
  0
LINE
  5
D0
330
351
100
AcDbEntity
  8
LC-005-005-----0
  6
Continuous
100
AcDbLine
 10
182.138297
 20
392.032409
 30
0.0
 11
184.282857
 21
389.887849
 31
0.0
  0
LINE
  5
D1
330
351
100
AcDbEntity
  8
LC-005-005-----0
  6
Continuous
100
AcDbLine
 10
175.282857
 20
401.716276
 30
0.0
 11
178.328865
 21
398.670269
 31
0.0
  0
LINE
  5
D2
330
351
100
AcDbEntity
  8
LC-005-005-----0
  6
Continuous
100
AcDbLine
 10
178.568411
 20
398.430722
 30
0.0
 11
178.81908
 21
398.180054
 31
0.0
  0
LINE
  5
D3
330
351
100
AcDbEntity
  8
LC-005-005-----0
  6
Continuous
100
AcDbLine
 10
175.646136
 20
404.181425
 30
0.0
 11
179.176491
 21
400.651069
 31
0.0
  0
LINE
  5
D4
330
351
100
AcDbEntity
  8
LC-005-005-----0
  6
Continuous
100
AcDbLine
 10
177.623973
 20
405.032015
 30
0.0
 11
180.211767
 21
402.44422
 31
0.0
  0
LINE
  5
D5
330
351
100
AcDbEntity
  8
LC-005-005-----0
  6
Continuous
100
AcDbLine
 10
178.532857
 20
406.951557
 30
0.0
 11
181.247043
 21
404.237371
 31
0.0
  0
LINE
  5
D6
330
351
100
AcDbEntity
  8
LC-005-005-----0
  6
Continuous
100
AcDbLine
 10
178.711055
 20
409.601787
 30
0.0
 11
181.532857
 21
406.779985
 31
0.0
  0
LINE
  5
D7
330
351
100
AcDbEntity
  8
LC-005-005-----0
  6
Continuous
100
AcDbLine
 10
181.109254
 20
410.032015
 30
0.0
 11
181.532857
 21
409.608412
 31
0.0
  0
LINE
  5
D8
330
351
100
AcDbEntity
  8
LC-005-005-----0
  6
Continuous
100
AcDbLine
 10
275.782857
 20
354.956391
 30
0.0
 11
277.707234
 21
353.032015
 31
0.0
  0
LINE
  5
D9
330
351
100
AcDbEntity
  8
LC-005-005-----0
  6
Continuous
100
AcDbLine
 10
275.782857
 20
357.784819
 30
0.0
 11
278.782857
 21
354.784819
 31
0.0
  0
LINE
  5
DA
330
351
100
AcDbEntity
  8
LC-005-005-----0
  6
Continuous
100
AcDbLine
 10
275.782857
 20
360.613246
 30
0.0
 11
278.782857
 21
357.613246
 31
0.0
  0
LINE
  5
DB
330
351
100
AcDbEntity
  8
LC-005-005-----0
  6
Continuous
100
AcDbLine
 10
279.114088
 20
357.282015
 30
0.0
 11
280.282857
 21
356.113246
 31
0.0
  0
LINE
  5
DC
330
351
100
AcDbEntity
  8
LC-005-005-----0
  6
Continuous
100
AcDbLine
 10
275.782857
 20
363.441673
 30
0.0
 11
278.782857
 21
360.441673
 31
0.0
  0
LINE
  5
DD
330
351
100
AcDbEntity
  8
LC-005-005-----0
  6
Continuous
100
AcDbLine
 10
275.782857
 20
366.2701
 30
0.0
 11
278.782857
 21
363.2701
 31
0.0
  0
LINE
  5
DE
330
351
100
AcDbEntity
  8
LC-005-005-----0
  6
Continuous
100
AcDbLine
 10
275.782857
 20
369.098527
 30
0.0
 11
278.782857
 21
366.098527
 31
0.0
  0
LINE
  5
DF
330
351
100
AcDbEntity
  8
LC-005-005-----0
  6
Continuous
100
AcDbLine
 10
275.782857
 20
371.926954
 30
0.0
 11
278.782857
 21
368.926954
 31
0.0
  0
LINE
  5
E0
330
351
100
AcDbEntity
  8
LC-005-005-----0
  6
Continuous
100
AcDbLine
 10
275.782857
 20
374.755381
 30
0.0
 11
278.782857
 21
371.755381
 31
0.0
  0
LINE
  5
E1
330
351
100
AcDbEntity
  8
LC-005-005-----0
  6
Continuous
100
AcDbLine
 10
275.782857
 20
377.583808
 30
0.0
 11
278.782857
 21
374.583808
 31
0.0
  0
LINE
  5
E2
330
351
100
AcDbEntity
  8
LC-005-005-----0
  6
Continuous
100
AcDbLine
 10
275.782857
 20
380.412236
 30
0.0
 11
278.782857
 21
377.412236
 31
0.0
  0
LINE
  5
E3
330
351
100
AcDbEntity
  8
LC-005-005-----0
  6
Continuous
100
AcDbLine
 10
275.782857
 20
383.240663
 30
0.0
 11
278.782857
 21
380.240663
 31
0.0
  0
LINE
  5
E4
330
351
100
AcDbEntity
  8
LC-005-005-----0
  6
Continuous
100
AcDbLine
 10
275.782857
 20
386.06909
 30
0.0
 11
278.782857
 21
383.06909
 31
0.0
  0
LINE
  5
E5
330
351
100
AcDbEntity
  8
LC-005-005-----0
  6
Continuous
100
AcDbLine
 10
275.782857
 20
388.897517
 30
0.0
 11
278.782857
 21
385.897517
 31
0.0
  0
LINE
  5
E6
330
351
100
AcDbEntity
  8
LC-005-005-----0
  6
Continuous
100
AcDbLine
 10
275.782857
 20
391.725944
 30
0.0
 11
279.961596
 21
387.547205
 31
0.0
  0
LINE
  5
E7
330
351
100
AcDbEntity
  8
LC-005-005-----0
  6
Continuous
100
AcDbLine
 10
278.30482
 20
392.032409
 30
0.0
 11
281.754747
 21
388.582482
 31
0.0
  0
LINE
  5
E8
330
351
100
AcDbEntity
  8
LC-005-005-----0
  6
Continuous
100
AcDbLine
 10
280.77974
 20
392.385916
 30
0.0
 11
283.547898
 21
389.617758
 31
0.0
  0
LINE
  5
E9
330
351
100
AcDbEntity
  8
LC-005-005-----0
  6
Continuous
100
AcDbLine
 10
281.246635
 20
394.747448
 30
0.0
 11
284.766201
 21
391.227882
 31
0.0
  0
LINE
  5
EA
330
351
100
AcDbEntity
  8
LC-005-005-----0
  6
Continuous
100
AcDbLine
 10
281.246635
 20
397.575875
 30
0.0
 11
281.576272
 21
397.246238
 31
0.0
  0
LINE
  5
EB
330
351
100
AcDbEntity
  8
LC-005-005-----0
  6
Continuous
100
AcDbLine
 10
281.834112
 20
396.988398
 30
0.0
 11
284.782857
 21
394.039653
 31
0.0
  0
LINE
  5
EC
330
351
100
AcDbEntity
  8
LC-005-005-----0
  6
Continuous
100
AcDbLine
 10
280.738081
 20
400.912856
 30
0.0
 11
284.782857
 21
396.86808
 31
0.0
  0
LINE
  5
ED
330
351
100
AcDbEntity
  8
LC-005-005-----0
  6
Continuous
100
AcDbLine
 10
278.532857
 20
405.946507
 30
0.0
 11
284.782857
 21
399.696507
 31
0.0
  0
LINE
  5
EE
330
351
100
AcDbEntity
  8
LC-005-005-----0
  6
Continuous
100
AcDbLine
 10
278.532857
 20
408.774934
 30
0.0
 11
281.532857
 21
405.774934
 31
0.0
  0
LINE
  5
EF
330
351
100
AcDbEntity
  8
LC-005-005-----0
  6
Continuous
100
AcDbLine
 10
282.275776
 20
405.032015
 30
0.0
 11
284.782857
 21
402.524934
 31
0.0
  0
LINE
  5
F0
330
351
100
AcDbEntity
  8
LC-005-005-----0
  6
Continuous
100
AcDbLine
 10
280.104204
 20
410.032015
 30
0.0
 11
281.532857
 21
408.603361
 31
0.0
  0
ENDBLK
  5
F1
330
351
100
AcDbEntity
  8
0
100
AcDbBlockEnd
  0
BLOCK
  5
352
330
353
100
AcDbEntity
  8
0
100
AcDbBlockBegin
  2
*X7
 70
     1
 10
161.782857
 20
307.732015
 30
0.0
  3
*X7
  1
*X7
  0
LINE
  5
F4
330
353
100
AcDbEntity
  8
LC-005-005-----0
  6
Continuous
100
AcDbLine
 10
265.305608
 20
307.732015
 30
0.0
 11
272.832857
 21
315.259264
 31
0.0
  0
LINE
  5
F5
330
353
100
AcDbEntity
  8
LC-005-005-----0
  6
Continuous
100
AcDbLine
 10
265.032857
 20
315.944546
 30
0.0
 11
272.832857
 21
323.744546
 31
0.0
  0
LINE
  5
F6
330
353
100
AcDbEntity
  8
LC-005-005-----0
  6
Continuous
100
AcDbLine
 10
265.032857
 20
324.429827
 30
0.0
 11
272.832857
 21
332.229827
 31
0.0
  0
LINE
  5
F7
330
353
100
AcDbEntity
  8
LC-005-005-----0
  6
Continuous
100
AcDbLine
 10
292.635045
 20
352.032015
 30
0.0
 11
297.635045
 21
357.032015
 31
0.0
  0
LINE
  5
F8
330
353
100
AcDbEntity
  8
LC-005-005-----0
  6
Continuous
100
AcDbLine
 10
265.032857
 20
332.915108
 30
0.0
 11
272.832857
 21
340.715108
 31
0.0
  0
LINE
  5
F9
330
353
100
AcDbEntity
  8
LC-005-005-----0
  6
Continuous
100
AcDbLine
 10
283.849764
 20
351.732015
 30
0.0
 11
289.149764
 21
357.032015
 31
0.0
  0
LINE
  5
FA
330
353
100
AcDbEntity
  8
LC-005-005-----0
  6
Continuous
100
AcDbLine
 10
265.032857
 20
341.40039
 30
0.0
 11
276.664482
 21
353.032015
 31
0.0
  0
LINE
  5
FB
330
353
100
AcDbEntity
  8
LC-005-005-----0
  6
Continuous
100
AcDbLine
 10
278.782857
 20
355.15039
 30
0.0
 11
278.914482
 21
355.282015
 31
0.0
  0
LINE
  5
FC
330
353
100
AcDbEntity
  8
LC-005-005-----0
  6
Continuous
100
AcDbLine
 10
280.282857
 20
356.65039
 30
0.0
 11
280.664482
 21
357.032015
 31
0.0
  0
LINE
  5
FD
330
353
100
AcDbEntity
  8
LC-005-005-----0
  6
Continuous
100
AcDbLine
 10
265.032857
 20
349.885671
 30
0.0
 11
272.179201
 21
357.032015
 31
0.0
  0
LINE
  5
FE
330
353
100
AcDbEntity
  8
LC-005-005-----0
  6
Continuous
100
AcDbLine
 10
189.736075
 20
308.530014
 30
0.0
 11
195.032857
 21
313.826797
 31
0.0
  0
LINE
  5
FF
330
353
100
AcDbEntity
  8
LC-005-005-----0
  6
Continuous
100
AcDbLine
 10
187.232857
 20
314.512078
 30
0.0
 11
195.032857
 21
322.312078
 31
0.0
  0
LINE
  5
100
330
353
100
AcDbEntity
  8
LC-005-005-----0
  6
Continuous
100
AcDbLine
 10
187.232857
 20
322.997359
 30
0.0
 11
195.032857
 21
330.797359
 31
0.0
  0
LINE
  5
101
330
353
100
AcDbEntity
  8
LC-005-005-----0
  6
Continuous
100
AcDbLine
 10
187.232857
 20
331.482641
 30
0.0
 11
195.032857
 21
339.282641
 31
0.0
  0
LINE
  5
102
330
353
100
AcDbEntity
  8
LC-005-005-----0
  6
Continuous
100
AcDbLine
 10
187.232857
 20
339.967922
 30
0.0
 11
195.032857
 21
347.767922
 31
0.0
  0
LINE
  5
103
330
353
100
AcDbEntity
  8
LC-005-005-----0
  6
Continuous
100
AcDbLine
 10
186.854294
 20
348.07464
 30
0.0
 11
195.032857
 21
356.253203
 31
0.0
  0
LINE
  5
104
330
353
100
AcDbEntity
  8
LC-005-005-----0
  6
Continuous
100
AcDbLine
 10
182.006661
 20
351.712289
 30
0.0
 11
183.326387
 21
353.032015
 31
0.0
  0
LINE
  5
105
330
353
100
AcDbEntity
  8
LC-005-005-----0
  6
Continuous
100
AcDbLine
 10
184.282857
 20
353.988485
 30
0.0
 11
187.326387
 21
357.032015
 31
0.0
  0
LINE
  5
106
330
353
100
AcDbEntity
  8
LC-005-005-----0
  6
Continuous
100
AcDbLine
 10
173.541106
 20
351.732015
 30
0.0
 11
178.841106
 21
357.032015
 31
0.0
  0
LINE
  5
107
330
353
100
AcDbEntity
  8
LC-005-005-----0
  6
Continuous
100
AcDbLine
 10
165.518361
 20
352.194552
 30
0.0
 11
170.355825
 21
357.032015
 31
0.0
  0
LINE
  5
108
330
353
100
AcDbEntity
  8
LC-005-005-----0
  6
Continuous
100
AcDbLine
 10
161.783613
 20
356.945085
 30
0.0
 11
161.870543
 21
357.032015
 31
0.0
  0
LINE
  5
109
330
353
100
AcDbEntity
  8
LC-005-005-----0
  6
Continuous
100
AcDbLine
 10
297.998055
 20
355.368611
 30
0.0
 11
296.334651
 21
357.032015
 31
0.0
  0
LINE
  5
10A
330
353
100
AcDbEntity
  8
LC-005-005-----0
  6
Continuous
100
AcDbLine
 10
292.84937
 20
352.032015
 30
0.0
 11
287.84937
 21
357.032015
 31
0.0
  0
LINE
  5
10B
330
353
100
AcDbEntity
  8
LC-005-005-----0
  6
Continuous
100
AcDbLine
 10
284.664088
 20
351.732015
 30
0.0
 11
280.282857
 21
356.113246
 31
0.0
  0
LINE
  5
10C
330
353
100
AcDbEntity
  8
LC-005-005-----0
  6
Continuous
100
AcDbLine
 10
276.538932
 20
351.37189
 30
0.0
 11
270.878807
 21
357.032015
 31
0.0
  0
LINE
  5
10D
330
353
100
AcDbEntity
  8
LC-005-005-----0
  6
Continuous
100
AcDbLine
 10
272.858064
 20
346.567476
 30
0.0
 11
265.032857
 21
354.392683
 31
0.0
  0
LINE
  5
10E
330
353
100
AcDbEntity
  8
LC-005-005-----0
  6
Continuous
100
AcDbLine
 10
272.832857
 20
338.107402
 30
0.0
 11
265.032857
 21
345.907402
 31
0.0
  0
LINE
  5
10F
330
353
100
AcDbEntity
  8
LC-005-005-----0
  6
Continuous
100
AcDbLine
 10
272.832857
 20
329.62212
 30
0.0
 11
265.032857
 21
337.42212
 31
0.0
  0
LINE
  5
110
330
353
100
AcDbEntity
  8
LC-005-005-----0
  6
Continuous
100
AcDbLine
 10
272.832857
 20
321.136839
 30
0.0
 11
265.032857
 21
328.936839
 31
0.0
  0
LINE
  5
111
330
353
100
AcDbEntity
  8
LC-005-005-----0
  6
Continuous
100
AcDbLine
 10
272.820088
 20
312.664327
 30
0.0
 11
265.032857
 21
320.451557
 31
0.0
  0
LINE
  5
112
330
353
100
AcDbEntity
  8
LC-005-005-----0
  6
Continuous
100
AcDbLine
 10
269.046407
 20
307.952727
 30
0.0
 11
265.032857
 21
311.966276
 31
0.0
  0
LINE
  5
113
330
353
100
AcDbEntity
  8
LC-005-005-----0
  6
Continuous
100
AcDbLine
 10
195.032857
 20
356.510432
 30
0.0
 11
194.511274
 21
357.032015
 31
0.0
  0
LINE
  5
114
330
353
100
AcDbEntity
  8
LC-005-005-----0
  6
Continuous
100
AcDbLine
 10
195.032857
 20
348.025151
 30
0.0
 11
186.025993
 21
357.032015
 31
0.0
  0
LINE
  5
115
330
353
100
AcDbEntity
  8
LC-005-005-----0
  6
Continuous
100
AcDbLine
 10
195.032857
 20
339.539869
 30
0.0
 11
187.028642
 21
347.544085
 31
0.0
  0
LINE
  5
116
330
353
100
AcDbEntity
  8
LC-005-005-----0
  6
Continuous
100
AcDbLine
 10
183.044928
 20
351.527799
 30
0.0
 11
181.540712
 21
353.032015
 31
0.0
  0
LINE
  5
117
330
353
100
AcDbEntity
  8
LC-005-005-----0
  6
Continuous
100
AcDbLine
 10
181.282857
 20
353.289869
 30
0.0
 11
177.540712
 21
357.032015
 31
0.0
  0
LINE
  5
118
330
353
100
AcDbEntity
  8
LC-005-005-----0
  6
Continuous
100
AcDbLine
 10
195.032857
 20
331.054588
 30
0.0
 11
187.232857
 21
338.854588
 31
0.0
  0
LINE
  5
119
330
353
100
AcDbEntity
  8
LC-005-005-----0
  6
Continuous
100
AcDbLine
 10
174.35543
 20
351.732015
 30
0.0
 11
169.05543
 21
357.032015
 31
0.0
  0
LINE
  5
11A
330
353
100
AcDbEntity
  8
LC-005-005-----0
  6
Continuous
100
AcDbLine
 10
195.032857
 20
322.569306
 30
0.0
 11
187.232857
 21
330.369306
 31
0.0
  0
LINE
  5
11B
330
353
100
AcDbEntity
  8
LC-005-005-----0
  6
Continuous
100
AcDbLine
 10
165.364864
 20
352.237299
 30
0.0
 11
161.988142
 21
355.614022
 31
0.0
  0
LINE
  5
11C
330
353
100
AcDbEntity
  8
LC-005-005-----0
  6
Continuous
100
AcDbLine
 10
195.032857
 20
314.084025
 30
0.0
 11
187.232857
 21
321.884025
 31
0.0
  0
LINE
  5
11D
330
353
100
AcDbEntity
  8
LC-005-005-----0
  6
Continuous
100
AcDbLine
 10
192.899586
 20
307.732015
 30
0.0
 11
187.232857
 21
313.398744
 31
0.0
  0
ENDBLK
  5
11E
330
353
100
AcDbEntity
  8
0
100
AcDbBlockEnd
  0
BLOCK
  5
354
330
355
100
AcDbEntity
  8
0
100
AcDbBlockBegin
  2
BLK2
 70
     0
 10
0.0
 20
0.0
 30
0.0
  3
BLK2
  1
BLK2
  0
ENDBLK
  5
121
330
355
100
AcDbEntity
  8
0
100
AcDbBlockEnd
  0
BLOCK
  5
356
330
357
100
AcDbEntity
  8
0
100
AcDbBlockBegin
  2
BLK3
 70
     0
 10
0.0
 20
0.0
 30
0.0
  3
BLK3
  1
BLK3
  0
ENDBLK
  5
124
330
357
100
AcDbEntity
  8
0
100
AcDbBlockEnd
  0
BLOCK
  5
358
330
359
100
AcDbEntity
  8
0
100
AcDbBlockBegin
  2
BLK4
 70
     0
 10
0.0
 20
0.0
 30
0.0
  3
BLK4
  1
BLK4
  0
ENDBLK
  5
127
330
359
100
AcDbEntity
  8
0
100
AcDbBlockEnd
  0
BLOCK
  5
35A
330
35B
100
AcDbEntity
  8
0
100
AcDbBlockBegin
  2
*D11
 70
     1
 10
0.0
 20
0.0
 30
0.0
  3
*D11
  1
*D11
  0
LINE
  5
12B
330
35B
100
AcDbEntity
  8
LC-009-003-MTH-0
  6
Continuous
100
AcDbLine
 10
298.282857
 20
357.032015
 30
0.0
 11
332.8
 21
357.032015
 31
0.0
  0
LINE
  5
12C
330
35B
100
AcDbEntity
  8
LC-009-003-MTH-0
  6
Continuous
100
AcDbLine
 10
278.532857
 20
410.032015
 30
0.0
 11
332.8
 21
410.032015
 31
0.0
  0
LINE
  5
12E
330
35B
100
AcDbEntity
  8
LC-010-003-MTG-0
  6
Continuous
100
AcDbLine
 10
322.0
 20
357.032015
 30
0.0
 11
322.0
 21
410.032015
 31
0.0
  0
LINE
  5
130
330
35B
100
AcDbEntity
  8
LC-008-003-----0
  6
Continuous
100
AcDbLine
 10
319.650529
 20
374.878022
 30
0.0
 11
322.0
 21
357.032015
 31
0.0
  0
LINE
  5
131
330
35B
100
AcDbEntity
  8
LC-008-003-----0
  6
Continuous
100
AcDbLine
 10
322.0
 20
357.032015
 30
0.0
 11
324.349471
 21
374.878022
 31
0.0
  0
LINE
  5
132
330
35B
100
AcDbEntity
  8
LC-008-003-----0
  6
Continuous
100
AcDbLine
 10
324.349471
 20
374.878022
 30
0.0
 11
319.650529
 21
374.878022
 31
0.0
  0
LINE
  5
133
330
35B
100
AcDbEntity
  8
LC-008-003-----0
  6
Continuous
100
AcDbLine
 10
320.261391
 20
374.91806
 30
0.0
 11
322.0
 21
361.712015
 31
0.0
  0
LINE
  5
134
330
35B
100
AcDbEntity
  8
LC-008-003-----0
  6
Continuous
100
AcDbLine
 10
322.0
 20
361.712015
 30
0.0
 11
323.738609
 21
374.91806
 31
0.0
  0
LINE
  5
135
330
35B
100
AcDbEntity
  8
LC-008-003-----0
  6
Continuous
100
AcDbLine
 10
320.872254
 20
374.958098
 30
0.0
 11
322.0
 21
366.392015
 31
0.0
  0
LINE
  5
136
330
35B
100
AcDbEntity
  8
LC-008-003-----0
  6
Continuous
100
AcDbLine
 10
322.0
 20
366.392015
 30
0.0
 11
323.127746
 21
374.958098
 31
0.0
  0
LINE
  5
137
330
35B
100
AcDbEntity
  8
LC-008-003-----0
  6
Continuous
100
AcDbLine
 10
321.483116
 20
374.998136
 30
0.0
 11
322.0
 21
371.072015
 31
0.0
  0
LINE
  5
138
330
35B
100
AcDbEntity
  8
LC-008-003-----0
  6
Continuous
100
AcDbLine
 10
322.0
 20
371.072015
 30
0.0
 11
322.516884
 21
374.998136
 31
0.0
  0
LINE
  5
139
330
35B
100
AcDbEntity
  8
LC-008-003-----0
  6
Continuous
100
AcDbLine
 10
324.349471
 20
392.186007
 30
0.0
 11
322.0
 21
410.032015
 31
0.0
  0
LINE
  5
13A
330
35B
100
AcDbEntity
  8
LC-008-003-----0
  6
Continuous
100
AcDbLine
 10
322.0
 20
410.032015
 30
0.0
 11
319.650529
 21
392.186007
 31
0.0
  0
LINE
  5
13B
330
35B
100
AcDbEntity
  8
LC-008-003-----0
  6
Continuous
100
AcDbLine
 10
319.650529
 20
392.186007
 30
0.0
 11
324.349471
 21
392.186007
 31
0.0
  0
LINE
  5
13C
330
35B
100
AcDbEntity
  8
LC-008-003-----0
  6
Continuous
100
AcDbLine
 10
323.738609
 20
392.145969
 30
0.0
 11
322.0
 21
405.352015
 31
0.0
  0
LINE
  5
13D
330
35B
100
AcDbEntity
  8
LC-008-003-----0
  6
Continuous
100
AcDbLine
 10
322.0
 20
405.352015
 30
0.0
 11
320.261391
 21
392.145969
 31
0.0
  0
LINE
  5
13E
330
35B
100
AcDbEntity
  8
LC-008-003-----0
  6
Continuous
100
AcDbLine
 10
323.127746
 20
392.105931
 30
0.0
 11
322.0
 21
400.672015
 31
0.0
  0
LINE
  5
13F
330
35B
100
AcDbEntity
  8
LC-008-003-----0
  6
Continuous
100
AcDbLine
 10
322.0
 20
400.672015
 30
0.0
 11
320.872254
 21
392.105931
 31
0.0
  0
LINE
  5
140
330
35B
100
AcDbEntity
  8
LC-008-003-----0
  6
Continuous
100
AcDbLine
 10
322.516884
 20
392.065893
 30
0.0
 11
322.0
 21
395.992015
 31
0.0
  0
LINE
  5
141
330
35B
100
AcDbEntity
  8
LC-008-003-----0
  6
Continuous
100
AcDbLine
 10
322.0
 20
395.992015
 30
0.0
 11
321.483116
 21
392.065893
 31
0.0
  0
TEXT
  5
142
330
35B
100
AcDbEntity
  8
LC-008-003-----0
  6
Continuous
 62
     6
100
AcDbText
 10
311.568001
 20
369.192733
 30
0.0
 40
18.0
  1
53
 50
90.0
 41
0.8
 51
15.0
 72
     1
 11
311.568001
 21
381.192733
 31
0.0
100
AcDbText
  0
ENDBLK
  5
143
330
35B
100
AcDbEntity
  8
0
100
AcDbBlockEnd
  0
BLOCK
  5
35C
330
35D
100
AcDbEntity
  8
0
100
AcDbBlockBegin
  2
*D12
 70
     1
 10
0.0
 20
0.0
 30
0.0
  3
*D12
  1
*D12
  0
LINE
  5
146
330
35D
100
AcDbEntity
  8
LC-009-003-MTH-0
  6
Continuous
100
AcDbLine
 10
195.032857
 20
307.032015
 30
0.0
 11
195.032857
 21
241.2
 31
0.0
  0
LINE
  5
147
330
35D
100
AcDbEntity
  8
LC-009-003-MTH-0
  6
Continuous
100
AcDbLine
 10
265.032857
 20
307.032015
 30
0.0
 11
265.032857
 21
241.2
 31
0.0
  0
LINE
  5
148
330
35D
100
AcDbEntity
  8
LC-010-003-MTG-0
  6
Continuous
100
AcDbLine
 10
195.032857
 20
252.0
 30
0.0
 11
265.032857
 21
252.0
 31
0.0
  0
LINE
  5
149
330
35D
100
AcDbEntity
  8
LC-008-003-----0
  6
Continuous
100
AcDbLine
 10
212.878865
 20
254.349471
 30
0.0
 11
195.032857
 21
252.0
 31
0.0
  0
LINE
  5
14A
330
35D
100
AcDbEntity
  8
LC-008-003-----0
  6
Continuous
100
AcDbLine
 10
195.032857
 20
252.0
 30
0.0
 11
212.878865
 21
249.650529
 31
0.0
  0
LINE
  5
14B
330
35D
100
AcDbEntity
  8
LC-008-003-----0
  6
Continuous
100
AcDbLine
 10
212.878865
 20
249.650529
 30
0.0
 11
212.878865
 21
254.349471
 31
0.0
  0
LINE
  5
14C
330
35D
100
AcDbEntity
  8
LC-008-003-----0
  6
Continuous
100
AcDbLine
 10
212.918903
 20
253.738609
 30
0.0
 11
199.712857
 21
252.0
 31
0.0
  0
LINE
  5
14D
330
35D
100
AcDbEntity
  8
LC-008-003-----0
  6
Continuous
100
AcDbLine
 10
199.712857
 20
252.0
 30
0.0
 11
212.918903
 21
250.261391
 31
0.0
  0
LINE
  5
14E
330
35D
100
AcDbEntity
  8
LC-008-003-----0
  6
Continuous
100
AcDbLine
 10
212.958941
 20
253.127746
 30
0.0
 11
204.392857
 21
252.0
 31
0.0
  0
LINE
  5
14F
330
35D
100
AcDbEntity
  8
LC-008-003-----0
  6
Continuous
100
AcDbLine
 10
204.392857
 20
252.0
 30
0.0
 11
212.958941
 21
250.872254
 31
0.0
  0
LINE
  5
150
330
35D
100
AcDbEntity
  8
LC-008-003-----0
  6
Continuous
100
AcDbLine
 10
212.998979
 20
252.516884
 30
0.0
 11
209.072857
 21
252.0
 31
0.0
  0
LINE
  5
151
330
35D
100
AcDbEntity
  8
LC-008-003-----0
  6
Continuous
100
AcDbLine
 10
209.072857
 20
252.0
 30
0.0
 11
212.998979
 21
251.483116
 31
0.0
  0
LINE
  5
152
330
35D
100
AcDbEntity
  8
LC-008-003-----0
  6
Continuous
100
AcDbLine
 10
247.18685
 20
249.650529
 30
0.0
 11
265.032857
 21
252.0
 31
0.0
  0
LINE
  5
153
330
35D
100
AcDbEntity
  8
LC-008-003-----0
  6
Continuous
100
AcDbLine
 10
265.032857
 20
252.0
 30
0.0
 11
247.18685
 21
254.349471
 31
0.0
  0
LINE
  5
154
330
35D
100
AcDbEntity
  8
LC-008-003-----0
  6
Continuous
100
AcDbLine
 10
247.18685
 20
254.349471
 30
0.0
 11
247.18685
 21
249.650529
 31
0.0
  0
LINE
  5
155
330
35D
100
AcDbEntity
  8
LC-008-003-----0
  6
Continuous
100
AcDbLine
 10
247.146812
 20
250.261391
 30
0.0
 11
260.352857
 21
252.0
 31
0.0
  0
LINE
  5
156
330
35D
100
AcDbEntity
  8
LC-008-003-----0
  6
Continuous
100
AcDbLine
 10
260.352857
 20
252.0
 30
0.0
 11
247.146812
 21
253.738609
 31
0.0
  0
LINE
  5
157
330
35D
100
AcDbEntity
  8
LC-008-003-----0
  6
Continuous
100
AcDbLine
 10
247.106774
 20
250.872254
 30
0.0
 11
255.672857
 21
252.0
 31
0.0
  0
LINE
  5
158
330
35D
100
AcDbEntity
  8
LC-008-003-----0
  6
Continuous
100
AcDbLine
 10
255.672857
 20
252.0
 30
0.0
 11
247.106774
 21
253.127746
 31
0.0
  0
LINE
  5
159
330
35D
100
AcDbEntity
  8
LC-008-003-----0
  6
Continuous
100
AcDbLine
 10
247.066736
 20
251.483116
 30
0.0
 11
250.992857
 21
252.0
 31
0.0
  0
LINE
  5
15A
330
35D
100
AcDbEntity
  8
LC-008-003-----0
  6
Continuous
100
AcDbLine
 10
250.992857
 20
252.0
 30
0.0
 11
247.066736
 21
252.516884
 31
0.0
  0
TEXT
  5
15B
330
35D
100
AcDbEntity
  8
LC-008-003-----0
  6
Continuous
 62
     6
100
AcDbText
 10
214.828103
 20
262.431999
 30
0.0
 40
18.0
  1
Ø70
 41
0.8
 51
15.0
 72
     1
 11
232.828103
 21
262.431999
 31
0.0
100
AcDbText
  0
ENDBLK
  5
15C
330
35D
100
AcDbEntity
  8
0
100
AcDbBlockEnd
  0
BLOCK
  5
35E
330
35F
100
AcDbEntity
  8
0
100
AcDbBlockBegin
  2
*D13
 70
     1
 10
0.0
 20
0.0
 30
0.0
  3
*D13
  1
*D13
  0
LINE
  5
15F
330
35F
100
AcDbEntity
  8
LC-009-003-MTH-0
  6
Continuous
100
AcDbLine
 10
267.532857
 20
307.032015
 30
0.0
 11
370.8
 21
307.032015
 31
0.0
  0
LINE
  5
160
330
35F
100
AcDbEntity
  8
LC-009-003-MTH-0
  6
Continuous
100
AcDbLine
 10
279.532857
 20
410.032015
 30
0.0
 11
370.8
 21
410.032015
 31
0.0
  0
LINE
  5
161
330
35F
100
AcDbEntity
  8
LC-010-003-MTG-0
  6
Continuous
100
AcDbLine
 10
360.0
 20
307.032015
 30
0.0
 11
360.0
 21
410.032015
 31
0.0
  0
LINE
  5
162
330
35F
100
AcDbEntity
  8
LC-008-003-----0
  6
Continuous
100
AcDbLine
 10
357.650529
 20
324.878022
 30
0.0
 11
360.0
 21
307.032015
 31
0.0
  0
LINE
  5
163
330
35F
100
AcDbEntity
  8
LC-008-003-----0
  6
Continuous
100
AcDbLine
 10
360.0
 20
307.032015
 30
0.0
 11
362.349471
 21
324.878022
 31
0.0
  0
LINE
  5
164
330
35F
100
AcDbEntity
  8
LC-008-003-----0
  6
Continuous
100
AcDbLine
 10
362.349471
 20
324.878022
 30
0.0
 11
357.650529
 21
324.878022
 31
0.0
  0
LINE
  5
165
330
35F
100
AcDbEntity
  8
LC-008-003-----0
  6
Continuous
100
AcDbLine
 10
358.261391
 20
324.91806
 30
0.0
 11
360.0
 21
311.712015
 31
0.0
  0
LINE
  5
166
330
35F
100
AcDbEntity
  8
LC-008-003-----0
  6
Continuous
100
AcDbLine
 10
360.0
 20
311.712015
 30
0.0
 11
361.738609
 21
324.91806
 31
0.0
  0
LINE
  5
167
330
35F
100
AcDbEntity
  8
LC-008-003-----0
  6
Continuous
100
AcDbLine
 10
358.872254
 20
324.958098
 30
0.0
 11
360.0
 21
316.392015
 31
0.0
  0
LINE
  5
168
330
35F
100
AcDbEntity
  8
LC-008-003-----0
  6
Continuous
100
AcDbLine
 10
360.0
 20
316.392015
 30
0.0
 11
361.127746
 21
324.958098
 31
0.0
  0
LINE
  5
169
330
35F
100
AcDbEntity
  8
LC-008-003-----0
  6
Continuous
100
AcDbLine
 10
359.483116
 20
324.998136
 30
0.0
 11
360.0
 21
321.072015
 31
0.0
  0
LINE
  5
16A
330
35F
100
AcDbEntity
  8
LC-008-003-----0
  6
Continuous
100
AcDbLine
 10
360.0
 20
321.072015
 30
0.0
 11
360.516884
 21
324.998136
 31
0.0
  0
LINE
  5
16B
330
35F
100
AcDbEntity
  8
LC-008-003-----0
  6
Continuous
100
AcDbLine
 10
362.349471
 20
392.186007
 30
0.0
 11
360.0
 21
410.032015
 31
0.0
  0
LINE
  5
16C
330
35F
100
AcDbEntity
  8
LC-008-003-----0
  6
Continuous
100
AcDbLine
 10
360.0
 20
410.032015
 30
0.0
 11
357.650529
 21
392.186007
 31
0.0
  0
LINE
  5
16D
330
35F
100
AcDbEntity
  8
LC-008-003-----0
  6
Continuous
100
AcDbLine
 10
357.650529
 20
392.186007
 30
0.0
 11
362.349471
 21
392.186007
 31
0.0
  0
LINE
  5
16E
330
35F
100
AcDbEntity
  8
LC-008-003-----0
  6
Continuous
100
AcDbLine
 10
361.738609
 20
392.145969
 30
0.0
 11
360.0
 21
405.352015
 31
0.0
  0
LINE
  5
16F
330
35F
100
AcDbEntity
  8
LC-008-003-----0
  6
Continuous
100
AcDbLine
 10
360.0
 20
405.352015
 30
0.0
 11
358.261391
 21
392.145969
 31
0.0
  0
LINE
  5
170
330
35F
100
AcDbEntity
  8
LC-008-003-----0
  6
Continuous
100
AcDbLine
 10
361.127746
 20
392.105931
 30
0.0
 11
360.0
 21
400.672015
 31
0.0
  0
LINE
  5
171
330
35F
100
AcDbEntity
  8
LC-008-003-----0
  6
Continuous
100
AcDbLine
 10
360.0
 20
400.672015
 30
0.0
 11
358.872254
 21
392.105931
 31
0.0
  0
LINE
  5
172
330
35F
100
AcDbEntity
  8
LC-008-003-----0
  6
Continuous
100
AcDbLine
 10
360.516884
 20
392.065893
 30
0.0
 11
360.0
 21
395.992015
 31
0.0
  0
LINE
  5
173
330
35F
100
AcDbEntity
  8
LC-008-003-----0
  6
Continuous
100
AcDbLine
 10
360.0
 20
395.992015
 30
0.0
 11
359.483116
 21
392.065893
 31
0.0
  0
TEXT
  5
174
330
35F
100
AcDbEntity
  8
LC-008-003-----0
  6
Continuous
 62
     6
100
AcDbText
 10
349.568001
 20
343.777261
 30
0.0
 40
18.0
  1
103
 50
90.0
 41
0.9
 51
15.0
 72
     1
 11
349.568001
 21
361.327261
 31
0.0
100
AcDbText
  0
ENDBLK
  5
175
330
35F
100
AcDbEntity
  8
0
100
AcDbBlockEnd
  0
BLOCK
  5
360
330
361
100
AcDbEntity
  8
0
100
AcDbBlockBegin
  2
*D14
 70
     1
 10
0.0
 20
0.0
 30
0.0
  3
*D14
  1
*D14
  0
LINE
  5
178
330
361
100
AcDbEntity
  8
LC-009-003-MTH-0
  6
Continuous
100
AcDbLine
 10
184.282857
 20
400.932409
 30
0.0
 11
184.282857
 21
458.8
 31
0.0
  0
LINE
  5
179
330
361
100
AcDbEntity
  8
LC-009-003-MTH-0
  6
Continuous
100
AcDbLine
 10
275.782857
 20
400.932409
 30
0.0
 11
275.782857
 21
458.8
 31
0.0
  0
LINE
  5
17A
330
361
100
AcDbEntity
  8
LC-010-003-MTG-0
  6
Continuous
100
AcDbLine
 10
184.282857
 20
448.0
 30
0.0
 11
275.782857
 21
448.0
 31
0.0
  0
LINE
  5
17B
330
361
100
AcDbEntity
  8
LC-008-003-----0
  6
Continuous
100
AcDbLine
 10
202.128865
 20
450.349471
 30
0.0
 11
184.282857
 21
448.0
 31
0.0
  0
LINE
  5
17C
330
361
100
AcDbEntity
  8
LC-008-003-----0
  6
Continuous
100
AcDbLine
 10
184.282857
 20
448.0
 30
0.0
 11
202.128865
 21
445.650529
 31
0.0
  0
LINE
  5
17D
330
361
100
AcDbEntity
  8
LC-008-003-----0
  6
Continuous
100
AcDbLine
 10
202.128865
 20
445.650529
 30
0.0
 11
202.128865
 21
450.349471
 31
0.0
  0
LINE
  5
17E
330
361
100
AcDbEntity
  8
LC-008-003-----0
  6
Continuous
100
AcDbLine
 10
202.168903
 20
449.738609
 30
0.0
 11
188.962857
 21
448.0
 31
0.0
  0
LINE
  5
17F
330
361
100
AcDbEntity
  8
LC-008-003-----0
  6
Continuous
100
AcDbLine
 10
188.962857
 20
448.0
 30
0.0
 11
202.168903
 21
446.261391
 31
0.0
  0
LINE
  5
180
330
361
100
AcDbEntity
  8
LC-008-003-----0
  6
Continuous
100
AcDbLine
 10
202.208941
 20
449.127746
 30
0.0
 11
193.642857
 21
448.0
 31
0.0
  0
LINE
  5
181
330
361
100
AcDbEntity
  8
LC-008-003-----0
  6
Continuous
100
AcDbLine
 10
193.642857
 20
448.0
 30
0.0
 11
202.208941
 21
446.872254
 31
0.0
  0
LINE
  5
182
330
361
100
AcDbEntity
  8
LC-008-003-----0
  6
Continuous
100
AcDbLine
 10
202.248979
 20
448.516884
 30
0.0
 11
198.322857
 21
448.0
 31
0.0
  0
LINE
  5
183
330
361
100
AcDbEntity
  8
LC-008-003-----0
  6
Continuous
100
AcDbLine
 10
198.322857
 20
448.0
 30
0.0
 11
202.248979
 21
447.483116
 31
0.0
  0
LINE
  5
184
330
361
100
AcDbEntity
  8
LC-008-003-----0
  6
Continuous
100
AcDbLine
 10
257.93685
 20
445.650529
 30
0.0
 11
275.782857
 21
448.0
 31
0.0
  0
LINE
  5
185
330
361
100
AcDbEntity
  8
LC-008-003-----0
  6
Continuous
100
AcDbLine
 10
275.782857
 20
448.0
 30
0.0
 11
257.93685
 21
450.349471
 31
0.0
  0
LINE
  5
186
330
361
100
AcDbEntity
  8
LC-008-003-----0
  6
Continuous
100
AcDbLine
 10
257.93685
 20
450.349471
 30
0.0
 11
257.93685
 21
445.650529
 31
0.0
  0
LINE
  5
187
330
361
100
AcDbEntity
  8
LC-008-003-----0
  6
Continuous
100
AcDbLine
 10
257.896812
 20
446.261391
 30
0.0
 11
271.102857
 21
448.0
 31
0.0
  0
LINE
  5
188
330
361
100
AcDbEntity
  8
LC-008-003-----0
  6
Continuous
100
AcDbLine
 10
271.102857
 20
448.0
 30
0.0
 11
257.896812
 21
449.738609
 31
0.0
  0
LINE
  5
189
330
361
100
AcDbEntity
  8
LC-008-003-----0
  6
Continuous
100
AcDbLine
 10
257.856774
 20
446.872254
 30
0.0
 11
266.422857
 21
448.0
 31
0.0
  0
LINE
  5
18A
330
361
100
AcDbEntity
  8
LC-008-003-----0
  6
Continuous
100
AcDbLine
 10
266.422857
 20
448.0
 30
0.0
 11
257.856774
 21
449.127746
 31
0.0
  0
LINE
  5
18B
330
361
100
AcDbEntity
  8
LC-008-003-----0
  6
Continuous
100
AcDbLine
 10
257.816736
 20
447.483116
 30
0.0
 11
261.742857
 21
448.0
 31
0.0
  0
LINE
  5
18C
330
361
100
AcDbEntity
  8
LC-008-003-----0
  6
Continuous
100
AcDbLine
 10
261.742857
 20
448.0
 30
0.0
 11
257.816736
 21
448.516884
 31
0.0
  0
TEXT
  5
18D
330
361
100
AcDbEntity
  8
LC-008-003-----0
  6
Continuous
 62
     6
100
AcDbText
 10
201.778103
 20
458.431999
 30
0.0
 40
18.0
  1
Ø91,5
 41
0.9
 51
15.0
 72
     1
 11
232.828103
 21
458.431999
 31
0.0
100
AcDbText
  0
ENDBLK
  5
18E
330
361
100
AcDbEntity
  8
0
100
AcDbBlockEnd
  0
ENDSEC
  0
SECTION
  2
ENTITIES
  0
INSERT
  5
18F
330
323
100
AcDbEntity
  8
0
100
AcDbBlockReference
  2
*X0
 10
178.21908
 20
392.032409
 30
0.0
  0
INSERT
  5
190
330
323
100
AcDbEntity
  8
0
100
AcDbBlockReference
  2
*X1
 10
273.346635
 20
392.032409
 30
0.0
  0
INSERT
  5
192
330
323
100
AcDbEntity
  8
0
100
AcDbBlockReference
  2
BLK1
 10
0.0
 20
0.0
 30
0.0
  0
INSERT
  5
193
330
323
100
AcDbEntity
  8
0
100
AcDbBlockReference
  2
*X3
 10
112.661814
 20
352.032015
 30
0.0
  0
INSERT
  5
194
330
323
100
AcDbEntity
  8
0
100
AcDbBlockReference
  2
*X4
 10
160.782857
 20
307.032015
 30
0.0
  0
INSERT
  5
195
330
323
100
AcDbEntity
  8
0
100
AcDbBlockReference
  2
*X5
 10
148.187488
 20
351.732015
 30
0.0
  0
INSERT
  5
196
330
323
100
AcDbEntity
  8
0
100
AcDbBlockReference
  2
*X6
 10
175.282857
 20
353.032015
 30
0.0
  0
INSERT
  5
197
330
323
100
AcDbEntity
  8
0
100
AcDbBlockReference
  2
*X7
 10
161.782857
 20
307.732015
 30
0.0
  0
INSERT
  5
198
330
323
100
AcDbEntity
  8
0
100
AcDbBlockReference
  2
BLK2
 10
0.0
 20
0.0
 30
0.0
  0
INSERT
  5
199
330
323
100
AcDbEntity
  8
0
100
AcDbBlockReference
  2
BLK3
 10
0.0
 20
0.0
 30
0.0
  0
INSERT
  5
19A
330
323
100
AcDbEntity
  8
0
100
AcDbBlockReference
  2
BLK4
 10
0.0
 20
0.0
 30
0.0
  0
DIMENSION
  5
19B
330
323
100
AcDbEntity
  8
0
100
AcDbDimension
280
     0
  2
*D11
 10
322.0
 20
378.397488
 30
0.0
 11
322.0
 21
378.397488
 31
0.0
 70
    32
 71
     5
 42
-1.0
 73
     0
 74
     0
 75
     0
  3
LC-DIM-L-0090-02-02
100
AcDbAlignedDimension
 13
278.532857
 23
410.032015
 33
0.0
 14
298.282857
 24
357.032015
 34
0.0
 50
90.0
100
AcDbRotatedDimension
  0
DIMENSION
  5
19C
330
323
100
AcDbEntity
  8
0
100
AcDbDimension
280
     0
  2
*D12
 10
230.032857
 20
252.0
 30
0.0
 11
230.032857
 21
252.0
 31
0.0
 70
    32
  1
%%c<>
 71
     5
 42
-1.0
 73
     0
 74
     0
 75
     0
  3
LC-DIM-L-0090-02-02
100
AcDbAlignedDimension
 13
195.032857
 23
307.032015
 33
0.0
 14
265.032857
 24
307.032015
 34
0.0
100
AcDbRotatedDimension
  0
DIMENSION
  5
19D
330
323
100
AcDbEntity
  8
0
100
AcDbDimension
280
     0
  2
*D13
 10
360.0
 20
358.532015
 30
0.0
 11
360.0
 21
358.532015
 31
0.0
 70
    32
 71
     5
 42
-1.0
 73
     0
 74
     0
 75
     0
  3
LC-DIM-L-0090-02-02
100
AcDbAlignedDimension
 13
279.532857
 23
410.032015
 33
0.0
 14
267.532857
 24
307.032015
 34
0.0
 50
90.0
100
AcDbRotatedDimension
  0
DIMENSION
  5
19E
330
323
100
AcDbEntity
  8
0
100
AcDbDimension
280
     0
  2
*D14
 10
230.032857
 20
448.0
 30
0.0
 11
230.032857
 21
448.0
 31
0.0
 70
    32
  1
%%c<>
 71
     5
 42
-1.0
 73
     0
 74
     0
 75
     0
  3
LC-DIM-L-0090-02-02
100
AcDbAlignedDimension
 13
184.282857
 23
392.032409
 33
0.0
 14
275.782857
 24
392.032409
 34
0.0
100
AcDbRotatedDimension
  0
LINE
  5
1A0
330
323
100
AcDbEntity
  8
LC-001-002-----0
  6
Continuous
100
AcDbLine
 10
278.532857
 20
404.732416
 30
0.0
 11
230.032857
 21
404.732416
 31
0.0
  0
LINE
  5
1A2
330
323
100
AcDbEntity
  8
LC-002-100-D03-0
  6
Continuous
100
AcDbLine
 10
283.782857
 20
389.753412
 30
0.0
 11
278.782857
 21
386.86666
 31
0.0
  0
LINE
  5
1A3
330
323
100
AcDbEntity
  8
LC-002-100-D03-0
  6
Continuous
100
AcDbLine
 10
280.532857
 20
410.032015
 30
0.0
 11
278.532857
 21
410.032015
 31
0.0
  0
LINE
  5
1A4
330
323
100
AcDbEntity
  8
LC-002-100-D03-0
  6
Continuous
100
AcDbLine
 10
278.532857
 20
410.032015
 30
0.0
 11
230.032857
 21
410.032015
 31
0.0
  0
LINE
  5
1A6
330
323
100
AcDbEntity
  8
LC-003-100-D01-0
  6
Continuous
100
AcDbLine
 10
275.782857
 20
353.032015
 30
0.0
 11
278.782857
 21
353.032015
 31
0.0
  0
ARC
  5
1A8
330
323
100
AcDbEntity
  8
LC-004-002-RND-0
  6
Continuous
100
AcDbCircle
 10
182.623203
 20
392.532409
 30
0.0
 40
0.5
100
AcDbArc
 50
270.0
 51
10.0
  0
ARC
  5
1A9
330
323
100
AcDbEntity
  8
LC-004-002-RND-0
  6
Continuous
100
AcDbCircle
 10
183.576606
 20
395.197824
 30
0.0
 40
0.3
100
AcDbArc
 50
75.0
 51
120.0
  0
ARC
  5
1AA
330
323
100
AcDbEntity
  8
LC-004-002-RND-0
  6
Continuous
100
AcDbCircle
 10
183.022018
 20
394.877632
 30
0.0
 40
0.3
100
AcDbArc
 50
120.0
 51
190.0
  0
LINE
  5
1AB
330
323
100
AcDbEntity
  8
LC-001-002-----0
  6
Continuous
100
AcDbLine
 10
178.81908
 20
396.628264
 30
0.0
 11
178.81908
 21
395.836554
 31
0.0
  0
LINE
  5
1AC
330
323
100
AcDbEntity
  8
LC-001-002-----0
  6
Continuous
100
AcDbLine
 10
182.872018
 20
395.13744
 30
0.0
 11
183.426606
 21
395.457631
 31
0.0
  0
ARC
  5
1AD
330
323
100
AcDbEntity
  8
LC-001-002-----0
  6
Continuous
100
AcDbCircle
 10
178.31908
 20
397.032409
 30
0.0
 40
0.1
100
AcDbArc
 50
120.0
 51
240.0
  0
LINE
  5
1AE
330
323
100
AcDbEntity
  8
LC-001-002-----0
  6
Continuous
100
AcDbLine
 10
186.656658
 20
395.506553
 30
0.0
 11
184.015353
 21
400.081426
 31
0.0
  0
LINE
  5
1AF
330
323
100
AcDbEntity
  8
LC-001-002-----0
  6
Continuous
100
AcDbLine
 10
186.132563
 20
394.82354
 30
0.0
 11
183.654252
 21
395.487602
 31
0.0
  0
ARC
  5
1B0
330
323
100
AcDbEntity
  8
LC-001-002-----0
  6
Continuous
100
AcDbCircle
 10
186.253154
 20
395.27359
 30
0.0
 40
0.465926
100
AcDbArc
 50
255.0
 51
30.0
  0
LINE
  5
1B1
330
323
100
AcDbEntity
  8
LC-001-002-----0
  6
Continuous
100
AcDbLine
 10
178.26908
 20
397.119011
 30
0.0
 11
178.81908
 21
397.436554
 31
0.0
  0
LINE
  5
1B2
330
323
100
AcDbEntity
  8
LC-001-002-----0
  6
Continuous
100
AcDbLine
 10
179.47706
 20
400.290276
 30
0.0
 11
181.959301
 21
400.829768
 31
0.0
  0
ARC
  5
1B3
330
323
100
AcDbEntity
  8
LC-001-002-----0
  6
Continuous
100
AcDbCircle
 10
182.541407
 20
399.230443
 30
0.0
 40
1.701966
100
AcDbArc
 50
30.0
 51
110.0
  0
LINE
  5
1B4
330
323
100
AcDbEntity
  8
LC-001-002-----0
  6
Continuous
100
AcDbLine
 10
178.26908
 20
396.945806
 30
0.0
 11
178.81908
 21
396.628264
 31
0.0
  0
ARC
  5
1B5
330
323
100
AcDbEntity
  8
LC-001-002-----0
  6
Continuous
100
AcDbCircle
 10
178.31908
 20
395.432409
 30
0.0
 40
0.1
100
AcDbArc
 50
120.0
 51
240.0
  0
LINE
  5
1B6
330
323
100
AcDbEntity
  8
LC-001-002-----0
  6
Continuous
100
AcDbLine
 10
183.115607
 20
392.619233
 30
0.0
 11
182.726576
 21
394.825538
 31
0.0
  0
ARC
  5
1B7
330
323
100
AcDbEntity
  8
LC-004-002-RND-0
  6
Continuous
100
AcDbCircle
 10
277.442512
 20
392.532409
 30
0.0
 40
0.5
100
AcDbArc
 50
170.0
 51
270.0
  0
ARC
  5
1B8
330
323
100
AcDbEntity
  8
LC-004-002-RND-0
  6
Continuous
100
AcDbCircle
 10
276.489109
 20
395.197824
 30
0.0
 40
0.3
100
AcDbArc
 50
60.0
 51
105.0
  0
ARC
  5
1B9
330
323
100
AcDbEntity
  8
LC-004-002-RND-0
  6
Continuous
100
AcDbCircle
 10
277.043697
 20
394.877632
 30
0.0
 40
0.3
100
AcDbArc
 50
349.9999999999999
 51
60.0
  0
LINE
  5
1BA
330
323
100
AcDbEntity
  8
LC-001-002-----0
  6
Continuous
100
AcDbLine
 10
281.246635
 20
396.628264
 30
0.0
 11
281.246635
 21
395.836554
 31
0.0
  0
LINE
  5
1BB
330
323
100
AcDbEntity
  8
LC-001-002-----0
  6
Continuous
100
AcDbLine
 10
178.26908
 20
395.519011
 30
0.0
 11
178.81908
 21
395.836554
 31
0.0
  0
LINE
  5
1BC
330
323
100
AcDbEntity
  8
LC-001-002-----0
  6
Continuous
100
AcDbLine
 10
180.81908
 20
392.032409
 30
0.0
 11
179.645432
 21
392.239355
 31
0.0
  0
LINE
  5
1BD
330
323
100
AcDbEntity
  8
LC-001-002-----0
  6
Continuous
100
AcDbLine
 10
178.81908
 20
399.350583
 30
0.0
 11
178.81908
 21
398.978819
 31
0.0
  0
ARC
  5
1BE
330
323
100
AcDbEntity
  8
LC-004-002-RND-0
  6
Continuous
100
AcDbCircle
 10
179.81908
 20
399.350583
 30
0.0
 40
1.0
100
AcDbArc
 50
110.0
 51
180.0
  0
ARC
  5
1BF
330
323
100
AcDbEntity
  8
LC-004-002-RND-0
  6
Continuous
100
AcDbCircle
 10
179.81908
 20
393.224162
 30
0.0
 40
1.0
100
AcDbArc
 50
180.0
 51
260.0
  0
LINE
  5
1C0
330
323
100
AcDbEntity
  8
LC-001-002-----0
  6
Continuous
100
AcDbLine
 10
180.81908
 20
392.032409
 30
0.0
 11
182.623203
 21
392.032409
 31
0.0
  0
LINE
  5
1C1
330
323
100
AcDbEntity
  8
LC-001-002-----0
  6
Continuous
100
AcDbLine
 10
178.26908
 20
395.345806
 30
0.0
 11
178.81908
 21
395.028264
 31
0.0
  0
ARC
  5
1C2
330
323
100
AcDbEntity
  8
LC-001-002-----0
  6
Continuous
100
AcDbCircle
 10
178.31908
 20
393.832409
 30
0.0
 40
0.1
100
AcDbArc
 50
120.0
 51
240.0
  0
LINE
  5
1C3
330
323
100
AcDbEntity
  8
LC-001-002-----0
  6
Continuous
100
AcDbLine
 10
178.26908
 20
393.919011
 30
0.0
 11
178.81908
 21
394.236554
 31
0.0
  0
LINE
  5
1C4
330
323
100
AcDbEntity
  8
LC-001-002-----0
  6
Continuous
100
AcDbLine
 10
178.26908
 20
393.745806
 30
0.0
 11
178.81908
 21
393.428264
 31
0.0
  0
LINE
  5
1C5
330
323
100
AcDbEntity
  8
LC-001-002-----0
  6
Continuous
100
AcDbLine
 10
178.81908
 20
395.028264
 30
0.0
 11
178.81908
 21
394.236554
 31
0.0
  0
LINE
  5
1C6
330
323
100
AcDbEntity
  8
LC-001-002-----0
  6
Continuous
100
AcDbLine
 10
178.81908
 20
393.428264
 30
0.0
 11
178.81908
 21
393.224162
 31
0.0
  0
ARC
  5
1C7
330
323
100
AcDbEntity
  8
LC-001-002-----0
  6
Continuous
100
AcDbCircle
 10
178.41908
 20
398.632409
 30
0.0
 40
0.1
100
AcDbArc
 50
120.0
 51
240.0
  0
LINE
  5
1C8
330
323
100
AcDbEntity
  8
LC-001-002-----0
  6
Continuous
100
AcDbLine
 10
178.36908
 20
398.719011
 30
0.0
 11
178.81908
 21
398.978819
 31
0.0
  0
LINE
  5
1C9
330
323
100
AcDbEntity
  8
LC-001-002-----0
  6
Continuous
100
AcDbLine
 10
178.36908
 20
398.545806
 30
0.0
 11
178.81908
 21
398.285999
 31
0.0
  0
LINE
  5
1CA
330
323
100
AcDbEntity
  8
LC-001-002-----0
  6
Continuous
100
AcDbLine
 10
178.81908
 20
398.285999
 30
0.0
 11
178.81908
 21
397.436554
 31
0.0
  0
LINE
  5
1CB
330
323
100
AcDbEntity
  8
LC-001-002-----0
  6
Continuous
100
AcDbLine
 10
277.193697
 20
395.13744
 30
0.0
 11
276.639109
 21
395.457631
 31
0.0
  0
ARC
  5
1CC
330
323
100
AcDbEntity
  8
LC-001-002-----0
  6
Continuous
100
AcDbCircle
 10
281.746635
 20
397.032409
 30
0.0
 40
0.1
100
AcDbArc
 50
300.0
 51
60.0
  0
LINE
  5
1CD
330
323
100
AcDbEntity
  8
LC-001-002-----0
  6
Continuous
100
AcDbLine
 10
273.409057
 20
395.506553
 30
0.0
 11
276.050361
 21
400.081426
 31
0.0
  0
LINE
  5
1CE
330
323
100
AcDbEntity
  8
LC-001-002-----0
  6
Continuous
100
AcDbLine
 10
273.933151
 20
394.82354
 30
0.0
 11
276.411463
 21
395.487602
 31
0.0
  0
ARC
  5
1CF
330
323
100
AcDbEntity
  8
LC-001-002-----0
  6
Continuous
100
AcDbCircle
 10
273.812561
 20
395.27359
 30
0.0
 40
0.465926
100
AcDbArc
 50
150.0
 51
285.0
  0
LINE
  5
1D0
330
323
100
AcDbEntity
  8
LC-001-002-----0
  6
Continuous
100
AcDbLine
 10
281.796635
 20
397.119011
 30
0.0
 11
281.246635
 21
397.436554
 31
0.0
  0
LINE
  5
1D1
330
323
100
AcDbEntity
  8
LC-001-002-----0
  6
Continuous
100
AcDbLine
 10
280.588655
 20
400.290276
 30
0.0
 11
278.106414
 21
400.829768
 31
0.0
  0
ARC
  5
1D2
330
323
100
AcDbEntity
  8
LC-001-002-----0
  6
Continuous
100
AcDbCircle
 10
277.524307
 20
399.230443
 30
0.0
 40
1.701966
100
AcDbArc
 50
70.0
 51
150.0
  0
LINE
  5
1D3
330
323
100
AcDbEntity
  8
LC-001-002-----0
  6
Continuous
100
AcDbLine
 10
281.796635
 20
396.945806
 30
0.0
 11
281.246635
 21
396.628264
 31
0.0
  0
ARC
  5
1D4
330
323
100
AcDbEntity
  8
LC-001-002-----0
  6
Continuous
100
AcDbCircle
 10
281.746635
 20
395.432409
 30
0.0
 40
0.1
100
AcDbArc
 50
300.0
 51
60.0
  0
LINE
  5
1D5
330
323
100
AcDbEntity
  8
LC-001-002-----0
  6
Continuous
100
AcDbLine
 10
276.950108
 20
392.619233
 30
0.0
 11
277.339139
 21
394.825538
 31
0.0
  0
LINE
  5
1D6
330
323
100
AcDbEntity
  8
LC-001-002-----0
  6
Continuous
100
AcDbLine
 10
281.796635
 20
395.519011
 30
0.0
 11
281.246635
 21
395.836554
 31
0.0
  0
LINE
  5
1D7
330
323
100
AcDbEntity
  8
LC-001-002-----0
  6
Continuous
100
AcDbLine
 10
279.246635
 20
392.032409
 30
0.0
 11
280.420283
 21
392.239355
 31
0.0
  0
LINE
  5
1D8
330
323
100
AcDbEntity
  8
LC-001-002-----0
  6
Continuous
100
AcDbLine
 10
281.246635
 20
399.350583
 30
0.0
 11
281.246635
 21
398.978819
 31
0.0
  0
ARC
  5
1D9
330
323
100
AcDbEntity
  8
LC-004-002-RND-0
  6
Continuous
100
AcDbCircle
 10
280.246635
 20
399.350583
 30
0.0
 40
1.0
100
AcDbArc
 50
0.0
 51
70.0
  0
ARC
  5
1DA
330
323
100
AcDbEntity
  8
LC-004-002-RND-0
  6
Continuous
100
AcDbCircle
 10
280.246635
 20
393.224162
 30
0.0
 40
1.0
100
AcDbArc
 50
280.0
 51
0.0
  0
LINE
  5
1DB
330
323
100
AcDbEntity
  8
LC-001-002-----0
  6
Continuous
100
AcDbLine
 10
279.246635
 20
392.032409
 30
0.0
 11
277.442512
 21
392.032409
 31
0.0
  0
LINE
  5
1DC
330
323
100
AcDbEntity
  8
LC-001-002-----0
  6
Continuous
100
AcDbLine
 10
281.796635
 20
395.345806
 30
0.0
 11
281.246635
 21
395.028264
 31
0.0
  0
ARC
  5
1DD
330
323
100
AcDbEntity
  8
LC-001-002-----0
  6
Continuous
100
AcDbCircle
 10
281.746635
 20
393.832409
 30
0.0
 40
0.1
100
AcDbArc
 50
300.0
 51
60.0
  0
LINE
  5
1DE
330
323
100
AcDbEntity
  8
LC-001-002-----0
  6
Continuous
100
AcDbLine
 10
281.796635
 20
393.919011
 30
0.0
 11
281.246635
 21
394.236554
 31
0.0
  0
LINE
  5
1DF
330
323
100
AcDbEntity
  8
LC-001-002-----0
  6
Continuous
100
AcDbLine
 10
281.796635
 20
393.745806
 30
0.0
 11
281.246635
 21
393.428264
 31
0.0
  0
LINE
  5
1E0
330
323
100
AcDbEntity
  8
LC-001-002-----0
  6
Continuous
100
AcDbLine
 10
281.246635
 20
395.028264
 30
0.0
 11
281.246635
 21
394.236554
 31
0.0
  0
LINE
  5
1E1
330
323
100
AcDbEntity
  8
LC-001-002-----0
  6
Continuous
100
AcDbLine
 10
281.246635
 20
393.428264
 30
0.0
 11
281.246635
 21
393.224162
 31
0.0
  0
ARC
  5
1E2
330
323
100
AcDbEntity
  8
LC-001-002-----0
  6
Continuous
100
AcDbCircle
 10
281.646635
 20
398.632409
 30
0.0
 40
0.1
100
AcDbArc
 50
300.0
 51
60.0
  0
LINE
  5
1E3
330
323
100
AcDbEntity
  8
LC-001-002-----0
  6
Continuous
100
AcDbLine
 10
281.696635
 20
398.719011
 30
0.0
 11
281.246635
 21
398.978819
 31
0.0
  0
LINE
  5
1E4
330
323
100
AcDbEntity
  8
LC-001-002-----0
  6
Continuous
100
AcDbLine
 10
281.696635
 20
398.545806
 30
0.0
 11
281.246635
 21
398.285999
 31
0.0
  0
LINE
  5
1E5
330
323
100
AcDbEntity
  8
LC-001-002-----0
  6
Continuous
100
AcDbLine
 10
281.246635
 20
398.285999
 30
0.0
 11
281.246635
 21
397.436554
 31
0.0
  0
LINE
  5
1E6
330
323
100
AcDbEntity
  8
LC-001-002-----0
  6
Continuous
100
AcDbLine
 10
182.541407
 20
400.932409
 30
0.0
 11
277.524307
 21
400.932409
 31
0.0
  0
LINE
  5
1E7
330
323
100
AcDbEntity
  8
LC-001-002-----0
  6
Continuous
100
AcDbLine
 10
182.623203
 20
392.032409
 30
0.0
 11
277.442512
 21
392.032409
 31
0.0
  0
LINE
  5
1E8
330
323
100
AcDbEntity
  8
LC-001-002-----0
  6
Continuous
100
AcDbLine
 10
273.812561
 20
394.807664
 30
0.0
 11
186.253154
 21
394.807664
 31
0.0
  0
LINE
  5
1E9
330
323
100
AcDbEntity
  8
LC-001-002-----0
  6
Continuous
100
AcDbLine
 10
186.532857
 20
346.032015
 30
0.0
 11
186.532857
 21
313.032015
 31
0.0
  0
LINE
  5
1EA
330
323
100
AcDbEntity
  8
LC-001-002-----0
  6
Continuous
100
AcDbLine
 10
273.532857
 20
313.032015
 30
0.0
 11
273.532857
 21
346.032015
 31
0.0
  0
LINE
  5
1EB
330
323
100
AcDbEntity
  8
LC-001-002-----0
  6
Continuous
100
AcDbLine
 10
192.532857
 20
307.032015
 30
0.0
 11
230.032857
 21
307.032015
 31
0.0
  0
LINE
  5
1EC
330
323
100
AcDbEntity
  8
LC-001-002-----0
  6
Continuous
100
AcDbLine
 10
166.782857
 20
351.032015
 30
0.0
 11
181.532857
 21
351.032015
 31
0.0
  0
LINE
  5
1ED
330
323
100
AcDbEntity
  8
LC-001-002-----0
  6
Continuous
100
AcDbLine
 10
230.032857
 20
307.032015
 30
0.0
 11
267.532857
 21
307.032015
 31
0.0
  0
LINE
  5
1EE
330
323
100
AcDbEntity
  8
LC-001-002-----0
  6
Continuous
100
AcDbLine
 10
278.532857
 20
351.032015
 30
0.0
 11
293.282901
 21
351.032015
 31
0.0
  0
ARC
  5
1EF
330
323
100
AcDbEntity
  8
LC-004-002-RND-0
  6
Continuous
100
AcDbCircle
 10
192.532857
 20
313.032015
 30
0.0
 40
6.0
100
AcDbArc
 50
180.0
 51
270.0
  0
ARC
  5
1F0
330
323
100
AcDbEntity
  8
LC-004-002-RND-0
  6
Continuous
100
AcDbCircle
 10
267.532857
 20
313.032015
 30
0.0
 40
6.0
100
AcDbArc
 50
270.0
 51
0.0
  0
ARC
  5
1F1
330
323
100
AcDbEntity
  8
LC-004-002-RND-0
  6
Continuous
100
AcDbCircle
 10
181.532857
 20
346.032015
 30
0.0
 40
5.0
100
AcDbArc
 50
0.0
 51
90.0
  0
ARC
  5
1F2
330
323
100
AcDbEntity
  8
LC-004-002-RND-0
  6
Continuous
100
AcDbCircle
 10
278.532857
 20
346.032015
 30
0.0
 40
5.0
100
AcDbArc
 50
90.0
 51
180.0
  0
LINE
  5
1F3
330
323
100
AcDbEntity
  8
LC-001-002-----0
  6
Continuous
100
AcDbLine
 10
299.282857
 20
357.032015
 30
0.0
 11
280.21587
 21
357.032015
 31
0.0
  0
ARC
  5
1F4
330
323
100
AcDbEntity
  8
LC-004-002-RND-0
  6
Continuous
100
AcDbCircle
 10
293.282857
 20
357.032015
 30
0.0
 40
6.0
100
AcDbArc
 50
270.0
 51
0.0
  0
LINE
  5
1F5
330
323
100
AcDbEntity
  8
LC-001-002-----0
  6
Continuous
100
AcDbLine
 10
265.032857
 20
307.032015
 30
0.0
 11
265.032857
 21
307.732015
 31
0.0
  0
LINE
  5
1F6
330
323
100
AcDbEntity
  8
LC-001-002-----0
  6
Continuous
100
AcDbLine
 10
195.032857
 20
307.032015
 30
0.0
 11
195.032857
 21
307.732015
 31
0.0
  0
LINE
  5
1FA
330
323
100
AcDbEntity
  8
LC-007-006-MLN-0
  6
DASHDOT
100
AcDbLine
 10
230.032857
 20
297.032015
 30
0.0
 11
230.032857
 21
420.032015
 31
0.0
  0
LINE
  5
1FB
330
323
100
AcDbEntity
  8
LC-001-002-----0
  6
Continuous
100
AcDbLine
 10
161.482857
 20
357.032015
 30
0.0
 11
160.782857
 21
357.032015
 31
0.0
  0
LINE
  5
1FC
330
323
100
AcDbEntity
  8
LC-001-002-----0
  6
Continuous
100
AcDbLine
 10
167.112857
 20
353.032015
 30
0.0
 11
184.282857
 21
353.032015
 31
0.0
  0
LINE
  5
1FD
330
323
100
AcDbEntity
  8
LC-001-002-----0
  6
Continuous
100
AcDbLine
 10
184.282857
 20
353.032015
 30
0.0
 11
184.282857
 21
352.032015
 31
0.0
  0
ARC
  5
1FE
330
323
100
AcDbEntity
  8
LC-001-002-----0
  6
Continuous
100
AcDbCircle
 10
167.112857
 20
357.032015
 30
0.0
 40
4.0
100
AcDbArc
 50
195.0
 51
270.0
  0
ARC
  5
1FF
330
323
100
AcDbEntity
  8
LC-001-002-----0
  6
Continuous
100
AcDbCircle
 10
167.112857
 20
357.032015
 30
0.0
 40
5.0
100
AcDbArc
 50
195.0
 51
270.0
  0
LINE
  5
200
330
323
100
AcDbEntity
  8
LC-001-002-----0
  6
Continuous
100
AcDbLine
 10
112.661814
 20
443.032015
 30
0.0
 11
112.661814
 21
444.032015
 31
0.0
  0
LINE
  5
201
330
323
100
AcDbEntity
  8
LC-001-002-----0
  6
Continuous
100
AcDbLine
 10
135.823538
 20
443.032015
 30
0.0
 11
112.661814
 21
443.032015
 31
0.0
  0
LINE
  5
202
330
323
100
AcDbEntity
  8
LC-001-002-----0
  6
Continuous
100
AcDbLine
 10
163.249154
 20
355.996739
 30
0.0
 11
140.653167
 21
440.32611
 31
0.0
  0
ARC
  5
203
330
323
100
AcDbEntity
  8
LC-004-002-RND-0
  6
Continuous
100
AcDbCircle
 10
135.823538
 20
439.032015
 30
0.0
 40
4.0
100
AcDbArc
 50
15.0
 51
90.0
  0
ARC
  5
204
330
323
100
AcDbEntity
  8
LC-004-002-RND-0
  6
Continuous
100
AcDbCircle
 10
135.823538
 20
439.032015
 30
0.0
 40
5.0
100
AcDbArc
 50
15.0
 51
90.0
  0
LINE
  5
205
330
323
100
AcDbEntity
  8
LC-001-002-----0
  6
Continuous
100
AcDbLine
 10
135.823538
 20
444.032015
 30
0.0
 11
112.661814
 21
444.032015
 31
0.0
  0
LINE
  5
206
330
323
100
AcDbEntity
  8
LC-001-002-----0
  6
Continuous
100
AcDbLine
 10
162.283228
 20
355.73792
 30
0.0
 11
139.687241
 21
440.067291
 31
0.0
  0
LINE
  5
207
330
323
100
AcDbEntity
  8
LC-001-002-----0
  6
Continuous
100
AcDbLine
 10
167.112857
 20
352.032015
 30
0.0
 11
184.282857
 21
352.032015
 31
0.0
  0
LINE
  5
208
330
323
100
AcDbEntity
  8
LC-001-002-----0
  6
Continuous
100
AcDbLine
 10
273.247966
 20
444.032015
 30
0.0
 11
294.780557
 21
444.032015
 31
0.0
  0
LINE
  5
209
330
323
100
AcDbEntity
  8
LC-001-002-----0
  6
Continuous
100
AcDbLine
 10
285.755986
 20
443.032015
 30
0.0
 11
294.780557
 21
443.032015
 31
0.0
  0
LINE
  5
20A
330
323
100
AcDbEntity
  8
LC-001-002-----0
  6
Continuous
100
AcDbLine
 10
294.780557
 20
443.032015
 30
0.0
 11
294.780557
 21
444.032015
 31
0.0
  0
LINE
  5
20B
330
323
100
AcDbEntity
  8
LC-001-002-----0
  6
Continuous
100
AcDbLine
 10
280.4166
 20
439.695956
 30
0.0
 11
276.442385
 21
410.032015
 31
0.0
  0
LINE
  5
20C
330
323
100
AcDbEntity
  8
LC-001-002-----0
  6
Continuous
100
AcDbLine
 10
280.800263
 20
438.695956
 30
0.0
 11
276.960023
 21
410.032015
 31
0.0
  0
LINE
  5
20D
330
323
100
AcDbEntity
  8
LC-001-002-----0
  6
Continuous
100
AcDbLine
 10
268.292244
 20
439.695956
 30
0.0
 11
264.31803
 21
410.032015
 31
0.0
  0
ARC
  5
20E
330
323
100
AcDbEntity
  8
LC-004-002-RND-0
  6
Continuous
100
AcDbCircle
 10
285.755986
 20
438.032015
 30
0.0
 40
5.0
100
AcDbArc
 50
90.0
 51
172.36926
  0
ARC
  5
20F
330
323
100
AcDbEntity
  8
LC-004-002-RND-0
  6
Continuous
100
AcDbCircle
 10
273.247966
 20
439.032015
 30
0.0
 40
5.0
100
AcDbArc
 50
90.0
 51
172.36926
  0
ARC
  5
210
330
323
100
AcDbEntity
  8
LC-004-002-RND-0
  6
Continuous
100
AcDbCircle
 10
285.372322
 20
439.032015
 30
0.0
 40
5.0
100
AcDbArc
 50
90.0
 51
172.36926
  0
ARC
  5
211
330
323
100
AcDbEntity
  8
LC-001-002-----0
  6
Continuous
100
AcDbCircle
 10
166.782857
 20
357.032015
 30
0.0
 40
5.3
100
AcDbArc
 50
180.0
 51
270.0
  0
LINE
  5
212
330
323
100
AcDbEntity
  8
LC-001-002-----0
  6
Continuous
100
AcDbLine
 10
187.232857
 20
346.032015
 30
0.0
 11
187.232857
 21
313.032015
 31
0.0
  0
ARC
  5
213
330
323
100
AcDbEntity
  8
LC-001-002-----0
  6
Continuous
100
AcDbCircle
 10
192.532857
 20
313.032015
 30
0.0
 40
5.3
100
AcDbArc
 50
180.0
 51
270.0
  0
ARC
  5
214
330
323
100
AcDbEntity
  8
LC-001-002-----0
  6
Continuous
100
AcDbCircle
 10
267.532857
 20
313.032015
 30
0.0
 40
5.3
100
AcDbArc
 50
270.0
 51
0.0
  0
LINE
  5
215
330
323
100
AcDbEntity
  8
LC-001-002-----0
  6
Continuous
100
AcDbLine
 10
267.532857
 20
307.732015
 30
0.0
 11
265.032857
 21
307.732015
 31
0.0
  0
LINE
  5
216
330
323
100
AcDbEntity
  8
LC-001-002-----0
  6
Continuous
100
AcDbLine
 10
278.532857
 20
351.732015
 30
0.0
 11
293.282901
 21
351.732015
 31
0.0
  0
ARC
  5
217
330
323
100
AcDbEntity
  8
LC-001-002-----0
  6
Continuous
100
AcDbCircle
 10
293.282857
 20
357.032015
 30
0.0
 40
5.3
100
AcDbArc
 50
270.0
 51
0.0
  0
ARC
  5
218
330
323
100
AcDbEntity
  8
LC-001-002-----0
  6
Continuous
100
AcDbCircle
 10
166.782857
 20
357.032015
 30
0.0
 40
5.0
100
AcDbArc
 50
177.37729
 51
270.0
  0
LINE
  5
219
330
323
100
AcDbEntity
  8
LC-001-002-----0
  6
Continuous
100
AcDbLine
 10
161.482857
 20
357.032015
 30
0.0
 11
148.187488
 21
360.594498
 31
0.0
  0
LINE
  5
21A
330
323
100
AcDbEntity
  8
LC-001-002-----0
  6
Continuous
100
AcDbLine
 10
161.788095
 20
357.26081
 30
0.0
 11
148.265133
 21
360.884276
 31
0.0
  0
ARC
  5
21B
330
323
100
AcDbEntity
  8
LC-001-002-----0
  6
Continuous
100
AcDbCircle
 10
166.782857
 20
357.032015
 30
0.0
 40
5.3
100
AcDbArc
 50
180.0
 51
270.0
  0
LINE
  5
21C
330
323
100
AcDbEntity
  8
LC-001-002-----0
  6
Continuous
100
AcDbLine
 10
166.782857
 20
351.732015
 30
0.0
 11
181.532857
 21
351.732015
 31
0.0
  0
LINE
  5
21D
330
323
100
AcDbEntity
  8
LC-001-002-----0
  6
Continuous
100
AcDbLine
 10
148.187488
 20
360.594498
 30
0.0
 11
148.265133
 21
360.884276
 31
0.0
  0
LINE
  5
21E
330
323
100
AcDbEntity
  8
LC-001-002-----0
  6
Continuous
100
AcDbLine
 10
293.282857
 20
352.032015
 30
0.0
 11
290.282857
 21
352.032015
 31
0.0
  0
ARC
  5
21F
330
323
100
AcDbEntity
  8
LC-001-002-----0
  6
Continuous
100
AcDbCircle
 10
293.282857
 20
357.032015
 30
0.0
 40
5.0
100
AcDbArc
 50
270.0
 51
2.62271
  0
LINE
  5
220
330
323
100
AcDbEntity
  8
LC-001-002-----0
  6
Continuous
100
AcDbLine
 10
298.582857
 20
357.032015
 30
0.0
 11
311.878227
 21
360.594498
 31
0.0
  0
LINE
  5
221
330
323
100
AcDbEntity
  8
LC-001-002-----0
  6
Continuous
100
AcDbLine
 10
298.27762
 20
357.26081
 30
0.0
 11
311.800581
 21
360.884276
 31
0.0
  0
ARC
  5
222
330
323
100
AcDbEntity
  8
LC-001-002-----0
  6
Continuous
100
AcDbCircle
 10
293.282857
 20
357.032015
 30
0.0
 40
5.3
100
AcDbArc
 50
270.0
 51
0.0
  0
LINE
  5
223
330
323
100
AcDbEntity
  8
LC-001-002-----0
  6
Continuous
100
AcDbLine
 10
293.282857
 20
351.732015
 30
0.0
 11
278.532857
 21
351.732015
 31
0.0
  0
LINE
  5
224
330
323
100
AcDbEntity
  8
LC-001-002-----0
  6
Continuous
100
AcDbLine
 10
311.878227
 20
360.594498
 30
0.0
 11
311.800581
 21
360.884276
 31
0.0
  0
LINE
  5
225
330
323
100
AcDbEntity
  8
LC-001-002-----0
  6
Continuous
100
AcDbLine
 10
148.265133
 20
360.884276
 30
0.0
 11
160.904266
 21
360.884276
 31
0.0
  0
LINE
  5
226
330
323
100
AcDbEntity
  8
LC-007-006-MLN-0
  6
DASHDOT
100
AcDbLine
 10
589030646.339239
 20
274.726188
 30
0.0
 11
540987783.903075
 21
276.808485
 31
0.0
  0
LINE
  5
227
330
323
100
AcDbEntity
  8
LC-001-002-----0
  6
Continuous
100
AcDbLine
 10
284.782857
 20
391.485462
 30
0.0
 11
284.782857
 21
403.032015
 31
0.0
  0
LINE
  5
228
330
323
100
AcDbEntity
  8
LC-001-002-----0
  6
Continuous
100
AcDbLine
 10
281.532857
 20
405.032015
 30
0.0
 11
281.532857
 21
409.032015
 31
0.0
  0
LINE
  5
229
330
323
100
AcDbEntity
  8
LC-001-002-----0
  6
Continuous
100
AcDbLine
 10
282.782857
 20
405.032015
 30
0.0
 11
281.532857
 21
405.032015
 31
0.0
  0
LINE
  5
22A
330
323
100
AcDbEntity
  8
LC-001-002-----0
  6
Continuous
100
AcDbLine
 10
278.532857
 20
404.732416
 30
0.0
 11
278.532857
 21
410.032015
 31
0.0
  0
LINE
  5
22B
330
323
100
AcDbEntity
  8
LC-001-002-----0
  6
Continuous
100
AcDbLine
 10
281.246635
 20
400.032015
 30
0.0
 11
280.965046
 21
400.032015
 31
0.0
  0
LINE
  5
22C
330
323
100
AcDbEntity
  8
LC-001-002-----0
  6
Continuous
100
AcDbLine
 10
278.532857
 20
404.732416
 30
0.0
 11
281.246635
 21
400.032015
 31
0.0
  0
LINE
  5
22D
330
323
100
AcDbEntity
  8
LC-001-002-----0
  6
Continuous
100
AcDbLine
 10
281.246635
 20
400.032015
 30
0.0
 11
281.246635
 21
398.978819
 31
0.0
  0
LINE
  5
22E
330
323
100
AcDbEntity
  8
LC-001-002-----0
  6
Continuous
100
AcDbLine
 10
281.246635
 20
398.285999
 30
0.0
 11
281.246635
 21
397.436554
 31
0.0
  0
LINE
  5
22F
330
323
100
AcDbEntity
  8
LC-001-002-----0
  6
Continuous
100
AcDbLine
 10
281.246635
 20
396.628264
 30
0.0
 11
281.246635
 21
395.836554
 31
0.0
  0
LINE
  5
230
330
323
100
AcDbEntity
  8
LC-001-002-----0
  6
Continuous
100
AcDbLine
 10
281.246635
 20
395.028264
 30
0.0
 11
281.246635
 21
394.236554
 31
0.0
  0
LINE
  5
231
330
323
100
AcDbEntity
  8
LC-001-002-----0
  6
Continuous
100
AcDbLine
 10
275.782857
 20
353.032015
 30
0.0
 11
275.782857
 21
392.032409
 31
0.0
  0
ARC
  5
232
330
323
100
AcDbEntity
  8
LC-004-002-RND-0
  6
Continuous
100
AcDbCircle
 10
282.782857
 20
403.032015
 30
0.0
 40
2.0
100
AcDbArc
 50
0.0
 51
90.0
  0
ARC
  5
233
330
323
100
AcDbEntity
  8
LC-002-100-D03-0
  6
Continuous
100
AcDbCircle
 10
282.782857
 20
391.485462
 30
0.0
 40
2.0
100
AcDbArc
 50
299.9999989999999
 51
0.0
  0
LINE
  5
234
330
323
100
AcDbEntity
  8
LC-001-002-----0
  6
Continuous
100
AcDbLine
 10
181.532857
 20
404.732416
 30
0.0
 11
230.032857
 21
404.732416
 31
0.0
  0
LINE
  5
235
330
323
100
AcDbEntity
  8
LC-002-100-D03-0
  6
Continuous
100
AcDbLine
 10
176.282857
 20
389.753412
 30
0.0
 11
181.282857
 21
386.86666
 31
0.0
  0
LINE
  5
236
330
323
100
AcDbEntity
  8
LC-002-100-D03-0
  6
Continuous
100
AcDbLine
 10
179.532857
 20
410.032015
 30
0.0
 11
181.532857
 21
410.032015
 31
0.0
  0
LINE
  5
237
330
323
100
AcDbEntity
  8
LC-002-100-D03-0
  6
Continuous
100
AcDbLine
 10
181.532857
 20
410.032015
 30
0.0
 11
230.032857
 21
410.032015
 31
0.0
  0
LINE
  5
238
330
323
100
AcDbEntity
  8
LC-001-002-----0
  6
Continuous
100
AcDbLine
 10
175.282857
 20
391.485462
 30
0.0
 11
175.282857
 21
403.032015
 31
0.0
  0
LINE
  5
239
330
323
100
AcDbEntity
  8
LC-001-002-----0
  6
Continuous
100
AcDbLine
 10
181.282857
 20
353.032015
 30
0.0
 11
181.282857
 21
355.282015
 31
0.0
  0
LINE
  5
23A
330
323
100
AcDbEntity
  8
LC-001-002-----0
  6
Continuous
100
AcDbLine
 10
178.532857
 20
405.032015
 30
0.0
 11
178.532857
 21
409.032015
 31
0.0
  0
LINE
  5
23B
330
323
100
AcDbEntity
  8
LC-001-002-----0
  6
Continuous
100
AcDbLine
 10
177.282857
 20
405.032015
 30
0.0
 11
178.532857
 21
405.032015
 31
0.0
  0
LINE
  5
23C
330
323
100
AcDbEntity
  8
LC-001-002-----0
  6
Continuous
100
AcDbLine
 10
181.532857
 20
404.732416
 30
0.0
 11
181.532857
 21
410.032015
 31
0.0
  0
LINE
  5
23D
330
323
100
AcDbEntity
  8
LC-001-002-----0
  6
Continuous
100
AcDbLine
 10
178.81908
 20
400.032015
 30
0.0
 11
179.100669
 21
400.032015
 31
0.0
  0
LINE
  5
23E
330
323
100
AcDbEntity
  8
LC-001-002-----0
  6
Continuous
100
AcDbLine
 10
181.532857
 20
404.732416
 30
0.0
 11
178.81908
 21
400.032015
 31
0.0
  0
LINE
  5
23F
330
323
100
AcDbEntity
  8
LC-001-002-----0
  6
Continuous
100
AcDbLine
 10
178.81908
 20
400.032015
 30
0.0
 11
178.81908
 21
399.350583
 31
0.0
  0
LINE
  5
240
330
323
100
AcDbEntity
  8
LC-001-002-----0
  6
Continuous
100
AcDbLine
 10
178.81908
 20
398.285999
 30
0.0
 11
178.81908
 21
397.436554
 31
0.0
  0
LINE
  5
241
330
323
100
AcDbEntity
  8
LC-001-002-----0
  6
Continuous
100
AcDbLine
 10
178.81908
 20
396.628264
 30
0.0
 11
178.81908
 21
395.836554
 31
0.0
  0
LINE
  5
242
330
323
100
AcDbEntity
  8
LC-001-002-----0
  6
Continuous
100
AcDbLine
 10
178.81908
 20
395.028264
 30
0.0
 11
178.81908
 21
394.236554
 31
0.0
  0
LINE
  5
243
330
323
100
AcDbEntity
  8
LC-001-002-----0
  6
Continuous
100
AcDbLine
 10
184.282857
 20
353.032015
 30
0.0
 11
184.282857
 21
392.032409
 31
0.0
  0
ARC
  5
244
330
323
100
AcDbEntity
  8
LC-004-002-RND-0
  6
Continuous
100
AcDbCircle
 10
177.282857
 20
403.032015
 30
0.0
 40
2.0
100
AcDbArc
 50
90.0
 51
180.0
  0
ARC
  5
245
330
323
100
AcDbEntity
  8
LC-002-100-D03-0
  6
Continuous
100
AcDbCircle
 10
177.282857
 20
391.485462
 30
0.0
 40
2.0
100
AcDbArc
 50
180.0
 51
240.000001
  0
ARC
  5
246
330
323
100
AcDbEntity
  8
LC-003-100-D01-0
  6
Continuous
100
AcDbCircle
 10
279.246635
 20
394.032409
 30
0.0
 40
2.0
100
AcDbArc
 50
270.0
 51
289.9999999999999
  0
ARC
  5
247
330
323
100
AcDbEntity
  8
LC-004-002-RND-0
  6
Continuous
100
AcDbCircle
 10
180.81908
 20
394.032409
 30
0.0
 40
2.0
100
AcDbArc
 50
250.0
 51
270.0
  0
LINE
  5
248
330
323
100
AcDbEntity
  8
LC-001-002-----0
  6
Continuous
100
AcDbLine
 10
278.782857
 20
357.282015
 30
0.0
 11
279.782857
 21
357.282015
 31
0.0
  0
LINE
  5
249
330
323
100
AcDbEntity
  8
LC-001-002-----0
  6
Continuous
100
AcDbLine
 10
278.782857
 20
355.282015
 30
0.0
 11
279.782857
 21
355.282015
 31
0.0
  0
LINE
  5
24A
330
323
100
AcDbEntity
  8
LC-001-002-----0
  6
Continuous
100
AcDbLine
 10
280.282857
 20
355.782015
 30
0.0
 11
280.282857
 21
356.782015
 31
0.0
  0
ARC
  5
24B
330
323
100
AcDbEntity
  8
LC-004-002-RND-0
  6
Continuous
100
AcDbCircle
 10
279.782857
 20
356.782015
 30
0.0
 40
0.5
100
AcDbArc
 50
0.0
 51
90.0
  0
LINE
  5
24C
330
323
100
AcDbEntity
  8
LC-001-002-----0
  6
Continuous
100
AcDbLine
 10
278.782857
 20
357.282015
 30
0.0
 11
278.782857
 21
386.86666
 31
0.0
  0
LINE
  5
24D
330
323
100
AcDbEntity
  8
LC-001-002-----0
  6
Continuous
100
AcDbLine
 10
181.282857
 20
357.282015
 30
0.0
 11
180.282857
 21
357.282015
 31
0.0
  0
LINE
  5
24E
330
323
100
AcDbEntity
  8
LC-001-002-----0
  6
Continuous
100
AcDbLine
 10
179.782857
 20
355.782015
 30
0.0
 11
179.782857
 21
356.782015
 31
0.0
  0
ARC
  5
24F
330
323
100
AcDbEntity
  8
LC-004-002-RND-0
  6
Continuous
100
AcDbCircle
 10
180.282857
 20
356.782015
 30
0.0
 40
0.5
100
AcDbArc
 50
90.0
 51
180.0
  0
LINE
  5
250
330
323
100
AcDbEntity
  8
LC-001-002-----0
  6
Continuous
100
AcDbLine
 10
181.282857
 20
357.224775
 30
0.0
 11
181.282857
 21
386.86666
 31
0.0
  0
ARC
  5
251
330
323
100
AcDbEntity
  8
LC-002-100-D03-0
  6
Continuous
100
AcDbCircle
 10
280.532857
 20
409.032015
 30
0.0
 40
1.0
100
AcDbArc
 50
0.0
 51
90.0
  0
ARC
  5
252
330
323
100
AcDbEntity
  8
LC-002-100-D03-0
  6
Continuous
100
AcDbCircle
 10
179.532857
 20
409.032015
 30
0.0
 40
1.0
100
AcDbArc
 50
90.0
 51
180.0
  0
ARC
  5
253
330
323
100
AcDbEntity
  8
LC-001-002-----0
  6
Continuous
100
AcDbCircle
 10
293.282857
 20
357.032015
 30
0.0
 40
5.0
100
AcDbArc
 50
270.0
 51
0.0
  0
LINE
  5
254
330
323
100
AcDbEntity
  8
LC-001-002-----0
  6
Continuous
100
AcDbLine
 10
290.282857
 20
351.732015
 30
0.0
 11
290.282857
 21
352.032015
 31
0.0
  0
LINE
  5
255
330
323
100
AcDbEntity
  8
LC-001-002-----0
  6
Continuous
100
AcDbLine
 10
290.282857
 20
351.732015
 30
0.0
 11
278.532857
 21
351.732015
 31
0.0
  0
ARC
  5
256
330
323
100
AcDbEntity
  8
LC-001-002-----0
  6
Continuous
100
AcDbCircle
 10
278.532857
 20
346.032015
 30
0.0
 40
5.7
100
AcDbArc
 50
90.0
 51
180.0
  0
LINE
  5
257
330
323
100
AcDbEntity
  8
LC-001-002-----0
  6
Continuous
100
AcDbLine
 10
272.832857
 20
313.032015
 30
0.0
 11
272.832857
 21
346.032015
 31
0.0
  0
ARC
  5
258
330
323
100
AcDbEntity
  8
LC-001-002-----0
  6
Continuous
100
AcDbCircle
 10
267.532857
 20
313.032015
 30
0.0
 40
5.3
100
AcDbArc
 50
270.0
 51
0.0
  0
LINE
  5
259
330
323
100
AcDbEntity
  8
LC-003-100-D01-0
  6
Continuous
100
AcDbLine
 10
275.782857
 20
353.032015
 30
0.0
 11
278.782857
 21
353.032015
 31
0.0
  0
LINE
  5
25A
330
323
100
AcDbEntity
  8
LC-001-002-----0
  6
Continuous
100
AcDbLine
 10
275.782857
 20
353.032015
 30
0.0
 11
275.782857
 21
357.032015
 31
0.0
  0
LINE
  5
25B
330
323
100
AcDbEntity
  8
LC-001-002-----0
  6
Continuous
100
AcDbLine
 10
278.782857
 20
353.032015
 30
0.0
 11
278.782857
 21
355.282015
 31
0.0
  0
LINE
  5
25C
330
323
100
AcDbEntity
  8
LC-001-002-----0
  6
Continuous
100
AcDbLine
 10
278.782857
 20
355.282015
 30
0.0
 11
279.782857
 21
355.282015
 31
0.0
  0
ARC
  5
25D
330
323
100
AcDbEntity
  8
LC-004-002-RND-0
  6
Continuous
100
AcDbCircle
 10
279.782857
 20
355.782015
 30
0.0
 40
0.5
100
AcDbArc
 50
270.0
 51
0.0
  0
LINE
  5
25E
330
323
100
AcDbEntity
  8
LC-001-002-----0
  6
Continuous
100
AcDbLine
 10
280.282857
 20
355.782015
 30
0.0
 11
280.282857
 21
356.782015
 31
0.0
  0
ARC
  5
25F
330
323
100
AcDbEntity
  8
LC-004-002-RND-0
  6
Continuous
100
AcDbCircle
 10
279.782857
 20
356.782015
 30
0.0
 40
0.5
100
AcDbArc
 50
0.0
 51
30.0
  0
LINE
  5
260
330
323
100
AcDbEntity
  8
LC-001-002-----0
  6
Continuous
100
AcDbLine
 10
265.032857
 20
357.032015
 30
0.0
 11
265.032857
 21
307.732015
 31
0.0
  0
LINE
  5
261
330
323
100
AcDbEntity
  8
LC-001-002-----0
  6
Continuous
100
AcDbLine
 10
267.532857
 20
307.732015
 30
0.0
 11
230.032857
 21
307.732015
 31
0.0
  0
LINE
  5
262
330
323
100
AcDbEntity
  8
LC-001-002-----0
  6
Continuous
100
AcDbLine
 10
298.282857
 20
357.032015
 30
0.0
 11
280.21587
 21
357.032015
 31
0.0
  0
LINE
  5
263
330
323
100
AcDbEntity
  8
LC-001-002-----0
  6
Continuous
100
AcDbLine
 10
293.282857
 20
352.032015
 30
0.0
 11
290.282857
 21
352.032015
 31
0.0
  0
LINE
  5
264
330
323
100
AcDbEntity
  8
LC-001-002-----0
  6
Continuous
100
AcDbLine
 10
275.782857
 20
357.032015
 30
0.0
 11
230.032857
 21
357.032015
 31
0.0
  0
ARC
  5
265
330
323
100
AcDbEntity
  8
LC-001-002-----0
  6
Continuous
100
AcDbCircle
 10
166.782857
 20
357.032015
 30
0.0
 40
5.0
100
AcDbArc
 50
180.0
 51
270.0
  0
LINE
  5
266
330
323
100
AcDbEntity
  8
LC-001-002-----0
  6
Continuous
100
AcDbLine
 10
169.782857
 20
351.732015
 30
0.0
 11
181.532857
 21
351.732015
 31
0.0
  0
ARC
  5
267
330
323
100
AcDbEntity
  8
LC-001-002-----0
  6
Continuous
100
AcDbCircle
 10
181.532857
 20
346.032015
 30
0.0
 40
5.7
100
AcDbArc
 50
0.0
 51
90.0
  0
LINE
  5
268
330
323
100
AcDbEntity
  8
LC-001-002-----0
  6
Continuous
100
AcDbLine
 10
187.232857
 20
313.032015
 30
0.0
 11
187.232857
 21
346.032015
 31
0.0
  0
ARC
  5
269
330
323
100
AcDbEntity
  8
LC-001-002-----0
  6
Continuous
100
AcDbCircle
 10
192.532857
 20
313.032015
 30
0.0
 40
5.3
100
AcDbArc
 50
180.0
 51
270.0
  0
LINE
  5
26A
330
323
100
AcDbEntity
  8
LC-001-002-----0
  6
Continuous
100
AcDbLine
 10
184.282857
 20
353.032015
 30
0.0
 11
184.282857
 21
357.032015
 31
0.0
  0
LINE
  5
26B
330
323
100
AcDbEntity
  8
LC-001-002-----0
  6
Continuous
100
AcDbLine
 10
181.282857
 20
353.032015
 30
0.0
 11
181.282857
 21
355.282015
 31
0.0
  0
LINE
  5
26C
330
323
100
AcDbEntity
  8
LC-001-002-----0
  6
Continuous
100
AcDbLine
 10
181.282857
 20
355.282015
 30
0.0
 11
180.282857
 21
355.282015
 31
0.0
  0
ARC
  5
26D
330
323
100
AcDbEntity
  8
LC-004-002-RND-0
  6
Continuous
100
AcDbCircle
 10
180.282857
 20
355.782015
 30
0.0
 40
0.5
100
AcDbArc
 50
180.0
 51
270.0
  0
LINE
  5
26E
330
323
100
AcDbEntity
  8
LC-001-002-----0
  6
Continuous
100
AcDbLine
 10
179.782857
 20
355.782015
 30
0.0
 11
179.782857
 21
356.782015
 31
0.0
  0
ARC
  5
26F
330
323
100
AcDbEntity
  8
LC-004-002-RND-0
  6
Continuous
100
AcDbCircle
 10
180.282857
 20
356.782015
 30
0.0
 40
0.5
100
AcDbArc
 50
150.0
 51
180.0
  0
LINE
  5
270
330
323
100
AcDbEntity
  8
LC-001-002-----0
  6
Continuous
100
AcDbLine
 10
195.032857
 20
357.032015
 30
0.0
 11
195.032857
 21
307.732015
 31
0.0
  0
LINE
  5
271
330
323
100
AcDbEntity
  8
LC-001-002-----0
  6
Continuous
100
AcDbLine
 10
192.532857
 20
307.732015
 30
0.0
 11
230.032857
 21
307.732015
 31
0.0
  0
LINE
  5
272
330
323
100
AcDbEntity
  8
LC-001-002-----0
  6
Continuous
100
AcDbLine
 10
161.782857
 20
357.032015
 30
0.0
 11
161.936476
 21
357.032015
 31
0.0
  0
LINE
  5
273
330
323
100
AcDbEntity
  8
LC-001-002-----0
  6
Continuous
100
AcDbLine
 10
166.782857
 20
352.032015
 30
0.0
 11
169.782857
 21
352.032015
 31
0.0
  0
LINE
  5
274
330
323
100
AcDbEntity
  8
LC-001-002-----0
  6
Continuous
100
AcDbLine
 10
184.282857
 20
357.032015
 30
0.0
 11
230.032857
 21
357.032015
 31
0.0
  0
ARC
  5
275
330
323
100
AcDbEntity
  8
LC-001-002-----0
  6
Continuous
100
AcDbCircle
 10
166.782857
 20
357.032015
 30
0.0
 40
6.0
100
AcDbArc
 50
180.0
 51
270.0
  0
LINE
  5
276
330
323
100
AcDbEntity
  8
LC-007-006-MLN-0
  6
DASHDOT
100
AcDbLine
 10
512.813948
 20
467.377385
 30
0.0
 11
512.813948
 21
283.686645
 31
0.0
  0
LINE
  5
277
330
323
100
AcDbEntity
  8
LC-007-006-MLN-0
  6
DASHDOT
100
AcDbLine
 10
385.442904
 20
375.532015
 30
0.0
 11
604.659317
 21
375.532015
 31
0.0
  0
CIRCLE
  5
278
330
323
100
AcDbEntity
  8
LC-001-002-----0
  6
Continuous
100
AcDbCircle
 10
512.813948
 20
375.532015
 30
0.0
 40
35.0
  0
CIRCLE
  5
279
330
323
100
AcDbEntity
  8
LC-001-002-----0
  6
Continuous
100
AcDbCircle
 10
512.813948
 20
375.532015
 30
0.0
 40
43.41006
  0
LINE
  5
27A
330
323
100
AcDbEntity
  8
LC-001-002-----0
  6
Continuous
100
AcDbLine
 10
395.442904
 20
383.032015
 30
0.0
 11
458.580079
 21
383.032015
 31
0.0
  0
LINE
  5
27B
330
323
100
AcDbEntity
  8
LC-001-002-----0
  6
Continuous
100
AcDbLine
 10
395.442904
 20
368.032015
 30
0.0
 11
458.580079
 21
368.032015
 31
0.0
  0
LINE
  5
27C
330
323
100
AcDbEntity
  8
LC-007-006-MLN-0
  6
DASHDOT
100
AcDbLine
 10
507.813948
 20
366.871761
 30
0.0
 11
576.499469
 21
485.838574
 31
0.0
  0
LINE
  5
27D
330
323
100
AcDbEntity
  8
LC-007-006-MLN-0
  6
DASHDOT
100
AcDbLine
 10
507.813948
 20
384.192269
 30
0.0
 11
576.499469
 21
265.225456
 31
0.0
  0
LINE
  5
27E
330
323
100
AcDbEntity
  8
LC-001-002-----0
  6
Continuous
100
AcDbLine
 10
395.442904
 20
383.032015
 30
0.0
 11
395.442904
 21
368.032015
 31
0.0
  0
LINE
  5
27F
330
323
100
AcDbEntity
  8
LC-001-002-----0
  6
Continuous
100
AcDbLine
 10
565.004279
 20
270.13571
 30
0.0
 11
533.435691
 21
324.814107
 31
0.0
  0
LINE
  5
280
330
323
100
AcDbEntity
  8
LC-001-002-----0
  6
Continuous
100
AcDbLine
 10
577.99466
 20
277.63571
 30
0.0
 11
546.426072
 21
332.314107
 31
0.0
  0
LINE
  5
281
330
323
100
AcDbEntity
  8
LC-001-002-----0
  6
Continuous
100
AcDbLine
 10
565.004279
 20
270.13571
 30
0.0
 11
577.99466
 21
277.63571
 31
0.0
  0
LINE
  5
282
330
323
100
AcDbEntity
  8
LC-001-002-----0
  6
Continuous
100
AcDbLine
 10
577.99466
 20
473.42832
 30
0.0
 11
546.426072
 21
418.749923
 31
0.0
  0
LINE
  5
283
330
323
100
AcDbEntity
  8
LC-001-002-----0
  6
Continuous
100
AcDbLine
 10
565.004279
 20
480.92832
 30
0.0
 11
533.435691
 21
426.249923
 31
0.0
  0
LINE
  5
284
330
323
100
AcDbEntity
  8
LC-001-002-----0
  6
Continuous
100
AcDbLine
 10
577.99466
 20
473.42832
 30
0.0
 11
565.004279
 21
480.92832
 31
0.0
  0
LINE
  5
285
330
323
100
AcDbEntity
  8
LC-008-003-----0
  6
Continuous
100
AcDbLine
 10
422.441263
 20
383.032015
 30
0.0
 11
422.441263
 21
368.032015
 31
0.0
  0
LINE
  5
286
330
323
100
AcDbEntity
  8
LC-008-003-----0
  6
Continuous
100
AcDbLine
 10
446.806701
 20
383.032015
 30
0.0
 11
446.806701
 21
368.032015
 31
0.0
  0
LINE
  5
287
330
323
100
AcDbEntity
  8
LC-008-003-----0
  6
Continuous
100
AcDbLine
 10
551.505099
 20
293.516974
 30
0.0
 11
564.49548
 21
301.016974
 31
0.0
  0
LINE
  5
288
330
323
100
AcDbEntity
  8
LC-008-003-----0
  6
Continuous
100
AcDbLine
 10
564.49548
 20
450.047055
 30
0.0
 11
551.505099
 21
457.547055
 31
0.0
  0
LINE
  5
289
330
323
100
AcDbEntity
  8
LC-008-003-----0
  6
Continuous
100
AcDbLine
 10
539.32238
 20
314.618063
 30
0.0
 11
552.312761
 21
322.118063
 31
0.0
  0
LINE
  5
28A
330
323
100
AcDbEntity
  8
LC-008-003-----0
  6
Continuous
100
AcDbLine
 10
552.312761
 20
428.945967
 30
0.0
 11
539.32238
 21
436.445967
 31
0.0
  0
ARC
  5
28B
330
323
100
AcDbEntity
  8
LC-001-002-----0
  6
Continuous
100
AcDbCircle
 10
512.813948
 20
375.532015
 30
0.0
 40
81.84537
100
AcDbArc
 50
65.257744
 51
69.824987
  0
ARC
  5
28C
330
323
100
AcDbEntity
  8
LC-001-002-----0
  6
Continuous
100
AcDbCircle
 10
512.813948
 20
375.532015
 30
0.0
 40
68.244763
100
AcDbArc
 50
66.309467
 51
173.690533
  0
ARC
  5
28D
330
323
100
AcDbEntity
  8
LC-001-002-----0
  6
Continuous
100
AcDbCircle
 10
512.813948
 20
375.532015
 30
0.0
 40
60.25
100
AcDbArc
 50
67.150804
 51
172.849196
  0
ARC
  5
28E
330
323
100
AcDbEntity
  8
LC-001-002-----0
  6
Continuous
100
AcDbCircle
 10
512.813948
 20
375.532015
 30
0.0
 40
60.25
100
AcDbArc
 50
307.150804
 51
52.849196
  0
ARC
  5
28F
330
323
100
AcDbEntity
  8
LC-001-002-----0
  6
Continuous
100
AcDbCircle
 10
512.813948
 20
375.532015
 30
0.0
 40
68.244763
100
AcDbArc
 50
306.309467
 51
53.690533
  0
ARC
  5
290
330
323
100
AcDbEntity
  8
LC-001-002-----0
  6
Continuous
100
AcDbCircle
 10
512.813948
 20
375.532015
 30
0.0
 40
81.84537
100
AcDbArc
 50
305.2577440000001
 51
309.824987
  0
ARC
  5
291
330
323
100
AcDbEntity
  8
LC-001-002-----0
  6
Continuous
100
AcDbCircle
 10
512.813948
 20
375.532015
 30
0.0
 40
60.25
100
AcDbArc
 50
187.150804
 51
292.8491960000001
  0
ARC
  5
292
330
323
100
AcDbEntity
  8
LC-001-002-----0
  6
Continuous
100
AcDbCircle
 10
512.813948
 20
375.532015
 30
0.0
 40
68.244763
100
AcDbArc
 50
186.309467
 51
293.6905330000001
  0
ARC
  5
293
330
323
100
AcDbEntity
  8
LC-001-002-----0
  6
Continuous
100
AcDbCircle
 10
512.813948
 20
375.532015
 30
0.0
 40
81.84537
100
AcDbArc
 50
185.257744
 51
189.824987
  0
LINE
  5
294
330
323
100
AcDbEntity
  8
LC-001-002-----0
  6
Continuous
100
AcDbLine
 10
581.058252
 20
375.282015
 30
0.0
 11
594.658936
 21
375.282015
 31
0.0
  0
LINE
  5
295
330
323
100
AcDbEntity
  8
LC-001-002-----0
  6
Continuous
100
AcDbLine
 10
581.058252
 20
375.782015
 30
0.0
 11
594.658936
 21
375.782015
 31
0.0
  0
ARC
  5
296
330
323
100
AcDbEntity
  8
LC-001-002-----0
  6
Continuous
100
AcDbCircle
 10
512.813948
 20
375.532015
 30
0.0
 40
81.84537
100
AcDbArc
 50
0.175013
 51
9.824987
  0
LINE
  5
297
330
323
100
AcDbEntity
  8
LC-001-002-----0
  6
Continuous
100
AcDbLine
 10
580.06488
 20
387.136312
 30
0.0
 11
593.458938
 21
389.498046
 31
0.0
  0
LINE
  5
298
330
323
100
AcDbEntity
  8
LC-001-002-----0
  6
Continuous
100
AcDbLine
 10
579.978056
 20
387.628716
 30
0.0
 11
593.372114
 21
389.99045
 31
0.0
  0
LINE
  5
299
330
323
100
AcDbEntity
  8
LC-001-002-----0
  6
Continuous
100
AcDbLine
 10
577.028122
 20
398.638019
 30
0.0
 11
589.808584
 21
403.289726
 31
0.0
  0
LINE
  5
29A
330
323
100
AcDbEntity
  8
LC-001-002-----0
  6
Continuous
100
AcDbLine
 10
576.857112
 20
399.107865
 30
0.0
 11
589.637574
 21
403.759573
 31
0.0
  0
LINE
  5
29B
330
323
100
AcDbEntity
  8
LC-001-002-----0
  6
Continuous
100
AcDbLine
 10
572.040249
 20
409.437661
 30
0.0
 11
583.818786
 21
416.238003
 31
0.0
  0
LINE
  5
29C
330
323
100
AcDbEntity
  8
LC-001-002-----0
  6
Continuous
100
AcDbLine
 10
571.790249
 20
409.870674
 30
0.0
 11
583.568786
 21
416.671015
 31
0.0
  0
LINE
  5
29D
330
323
100
AcDbEntity
  8
LC-001-002-----0
  6
Continuous
100
AcDbLine
 10
565.252815
 20
419.207097
 30
0.0
 11
575.671543
 21
427.949448
 31
0.0
  0
LINE
  5
29E
330
323
100
AcDbEntity
  8
LC-001-002-----0
  6
Continuous
100
AcDbLine
 10
564.931421
 20
419.590119
 30
0.0
 11
575.350149
 21
428.33247
 31
0.0
  0
LINE
  5
29F
330
323
100
AcDbEntity
  8
LC-001-002-----0
  6
Continuous
100
AcDbLine
 10
556.872052
 20
427.649488
 30
0.0
 11
565.614403
 21
438.068216
 31
0.0
  0
LINE
  5
2A0
330
323
100
AcDbEntity
  8
LC-001-002-----0
  6
Continuous
100
AcDbLine
 10
556.48903
 20
427.970882
 30
0.0
 11
565.231381
 21
438.38961
 31
0.0
  0
LINE
  5
2A1
330
323
100
AcDbEntity
  8
LC-001-002-----0
  6
Continuous
100
AcDbLine
 10
536.389798
 20
439.575179
 30
0.0
 11
541.041505
 21
452.355641
 31
0.0
  0
LINE
  5
2A2
330
323
100
AcDbEntity
  8
LC-001-002-----0
  6
Continuous
100
AcDbLine
 10
535.919951
 20
439.746189
 30
0.0
 11
540.571659
 21
452.526651
 31
0.0
  0
LINE
  5
2A3
330
323
100
AcDbEntity
  8
LC-001-002-----0
  6
Continuous
100
AcDbLine
 10
524.910649
 20
442.696123
 30
0.0
 11
527.272383
 21
456.090182
 31
0.0
  0
LINE
  5
2A4
330
323
100
AcDbEntity
  8
LC-001-002-----0
  6
Continuous
100
AcDbLine
 10
524.418245
 20
442.782947
 30
0.0
 11
526.779979
 21
456.177006
 31
0.0
  0
LINE
  5
2A5
330
323
100
AcDbEntity
  8
LC-001-002-----0
  6
Continuous
100
AcDbLine
 10
513.063948
 20
443.776319
 30
0.0
 11
513.063948
 21
457.377003
 31
0.0
  0
LINE
  5
2A6
330
323
100
AcDbEntity
  8
LC-001-002-----0
  6
Continuous
100
AcDbLine
 10
512.563948
 20
443.776319
 30
0.0
 11
512.563948
 21
457.377003
 31
0.0
  0
LINE
  5
2A7
330
323
100
AcDbEntity
  8
LC-001-002-----0
  6
Continuous
100
AcDbLine
 10
501.20965
 20
442.782947
 30
0.0
 11
498.847917
 21
456.177006
 31
0.0
  0
LINE
  5
2A8
330
323
100
AcDbEntity
  8
LC-001-002-----0
  6
Continuous
100
AcDbLine
 10
500.717247
 20
442.696123
 30
0.0
 11
498.355513
 21
456.090182
 31
0.0
  0
LINE
  5
2A9
330
323
100
AcDbEntity
  8
LC-001-002-----0
  6
Continuous
100
AcDbLine
 10
489.707944
 20
439.746189
 30
0.0
 11
485.056236
 21
452.526651
 31
0.0
  0
LINE
  5
2AA
330
323
100
AcDbEntity
  8
LC-001-002-----0
  6
Continuous
100
AcDbLine
 10
489.238098
 20
439.575179
 30
0.0
 11
484.58639
 21
452.355641
 31
0.0
  0
LINE
  5
2AB
330
323
100
AcDbEntity
  8
LC-001-002-----0
  6
Continuous
100
AcDbLine
 10
478.908302
 20
434.758316
 30
0.0
 11
472.10796
 21
446.536854
 31
0.0
  0
LINE
  5
2AC
330
323
100
AcDbEntity
  8
LC-001-002-----0
  6
Continuous
100
AcDbLine
 10
478.475289
 20
434.508316
 30
0.0
 11
471.674947
 21
446.286854
 31
0.0
  0
LINE
  5
2AD
330
323
100
AcDbEntity
  8
LC-001-002-----0
  6
Continuous
100
AcDbLine
 10
469.138865
 20
427.970882
 30
0.0
 11
460.396515
 21
438.38961
 31
0.0
  0
LINE
  5
2AE
330
323
100
AcDbEntity
  8
LC-001-002-----0
  6
Continuous
100
AcDbLine
 10
468.755843
 20
427.649488
 30
0.0
 11
460.013492
 21
438.068216
 31
0.0
  0
LINE
  5
2AF
330
323
100
AcDbEntity
  8
LC-001-002-----0
  6
Continuous
100
AcDbLine
 10
460.696474
 20
419.590119
 30
0.0
 11
450.277746
 21
428.33247
 31
0.0
  0
LINE
  5
2B0
330
323
100
AcDbEntity
  8
LC-001-002-----0
  6
Continuous
100
AcDbLine
 10
460.37508
 20
419.207097
 30
0.0
 11
449.956352
 21
427.949448
 31
0.0
  0
LINE
  5
2B1
330
323
100
AcDbEntity
  8
LC-001-002-----0
  6
Continuous
100
AcDbLine
 10
453.837646
 20
409.870674
 30
0.0
 11
442.059109
 21
416.671015
 31
0.0
  0
LINE
  5
2B2
330
323
100
AcDbEntity
  8
LC-001-002-----0
  6
Continuous
100
AcDbLine
 10
453.587646
 20
409.437661
 30
0.0
 11
441.809109
 21
416.238003
 31
0.0
  0
LINE
  5
2B3
330
323
100
AcDbEntity
  8
LC-001-002-----0
  6
Continuous
100
AcDbLine
 10
448.770783
 20
399.107865
 30
0.0
 11
435.990321
 21
403.759573
 31
0.0
  0
LINE
  5
2B4
330
323
100
AcDbEntity
  8
LC-001-002-----0
  6
Continuous
100
AcDbLine
 10
448.599773
 20
398.638019
 30
0.0
 11
435.819311
 21
403.289726
 31
0.0
  0
LINE
  5
2B5
330
323
100
AcDbEntity
  8
LC-001-002-----0
  6
Continuous
100
AcDbLine
 10
445.649839
 20
387.628716
 30
0.0
 11
432.255781
 21
389.99045
 31
0.0
  0
LINE
  5
2B6
330
323
100
AcDbEntity
  8
LC-001-002-----0
  6
Continuous
100
AcDbLine
 10
445.563015
 20
387.136312
 30
0.0
 11
432.168957
 21
389.498046
 31
0.0
  0
LINE
  5
2B7
330
323
100
AcDbEntity
  8
LC-001-002-----0
  6
Continuous
100
AcDbLine
 10
445.563015
 20
363.927718
 30
0.0
 11
432.168957
 21
361.565984
 31
0.0
  0
LINE
  5
2B8
330
323
100
AcDbEntity
  8
LC-001-002-----0
  6
Continuous
100
AcDbLine
 10
445.649839
 20
363.435314
 30
0.0
 11
432.255781
 21
361.07358
 31
0.0
  0
LINE
  5
2B9
330
323
100
AcDbEntity
  8
LC-001-002-----0
  6
Continuous
100
AcDbLine
 10
448.599773
 20
352.426011
 30
0.0
 11
435.819311
 21
347.774303
 31
0.0
  0
LINE
  5
2BA
330
323
100
AcDbEntity
  8
LC-001-002-----0
  6
Continuous
100
AcDbLine
 10
448.770783
 20
351.956165
 30
0.0
 11
435.990321
 21
347.304457
 31
0.0
  0
LINE
  5
2BB
330
323
100
AcDbEntity
  8
LC-001-002-----0
  6
Continuous
100
AcDbLine
 10
453.587646
 20
341.626369
 30
0.0
 11
441.809109
 21
334.826027
 31
0.0
  0
LINE
  5
2BC
330
323
100
AcDbEntity
  8
LC-001-002-----0
  6
Continuous
100
AcDbLine
 10
453.837646
 20
341.193356
 30
0.0
 11
442.059109
 21
334.393014
 31
0.0
  0
LINE
  5
2BD
330
323
100
AcDbEntity
  8
LC-001-002-----0
  6
Continuous
100
AcDbLine
 10
460.37508
 20
331.856933
 30
0.0
 11
449.956352
 21
323.114582
 31
0.0
  0
LINE
  5
2BE
330
323
100
AcDbEntity
  8
LC-001-002-----0
  6
Continuous
100
AcDbLine
 10
460.696474
 20
331.47391
 30
0.0
 11
450.277746
 21
322.73156
 31
0.0
  0
LINE
  5
2BF
330
323
100
AcDbEntity
  8
LC-001-002-----0
  6
Continuous
100
AcDbLine
 10
468.755843
 20
323.414541
 30
0.0
 11
460.013492
 21
312.995813
 31
0.0
  0
LINE
  5
2C0
330
323
100
AcDbEntity
  8
LC-001-002-----0
  6
Continuous
100
AcDbLine
 10
469.138865
 20
323.093148
 30
0.0
 11
460.396515
 21
312.67442
 31
0.0
  0
LINE
  5
2C1
330
323
100
AcDbEntity
  8
LC-001-002-----0
  6
Continuous
100
AcDbLine
 10
478.475289
 20
316.555713
 30
0.0
 11
471.674947
 21
304.777176
 31
0.0
  0
LINE
  5
2C2
330
323
100
AcDbEntity
  8
LC-001-002-----0
  6
Continuous
100
AcDbLine
 10
478.908302
 20
316.305713
 30
0.0
 11
472.10796
 21
304.527176
 31
0.0
  0
LINE
  5
2C3
330
323
100
AcDbEntity
  8
LC-001-002-----0
  6
Continuous
100
AcDbLine
 10
489.238098
 20
311.48885
 30
0.0
 11
484.58639
 21
298.708389
 31
0.0
  0
LINE
  5
2C4
330
323
100
AcDbEntity
  8
LC-001-002-----0
  6
Continuous
100
AcDbLine
 10
489.707944
 20
311.31784
 30
0.0
 11
485.056236
 21
298.537379
 31
0.0
  0
LINE
  5
2C5
330
323
100
AcDbEntity
  8
LC-001-002-----0
  6
Continuous
100
AcDbLine
 10
500.717247
 20
308.367907
 30
0.0
 11
498.355513
 21
294.973848
 31
0.0
  0
LINE
  5
2C6
330
323
100
AcDbEntity
  8
LC-001-002-----0
  6
Continuous
100
AcDbLine
 10
501.20965
 20
308.281082
 30
0.0
 11
498.847917
 21
294.887024
 31
0.0
  0
LINE
  5
2C7
330
323
100
AcDbEntity
  8
LC-001-002-----0
  6
Continuous
100
AcDbLine
 10
512.563948
 20
307.28771
 30
0.0
 11
512.563948
 21
293.687027
 31
0.0
  0
LINE
  5
2C8
330
323
100
AcDbEntity
  8
LC-001-002-----0
  6
Continuous
100
AcDbLine
 10
513.063948
 20
307.28771
 30
0.0
 11
513.063948
 21
293.687027
 31
0.0
  0
LINE
  5
2C9
330
323
100
AcDbEntity
  8
LC-001-002-----0
  6
Continuous
100
AcDbLine
 10
524.418245
 20
308.281082
 30
0.0
 11
526.779979
 21
294.887024
 31
0.0
  0
LINE
  5
2CA
330
323
100
AcDbEntity
  8
LC-001-002-----0
  6
Continuous
100
AcDbLine
 10
524.910649
 20
308.367907
 30
0.0
 11
527.272383
 21
294.973848
 31
0.0
  0
LINE
  5
2CB
330
323
100
AcDbEntity
  8
LC-001-002-----0
  6
Continuous
100
AcDbLine
 10
535.919951
 20
311.31784
 30
0.0
 11
540.571659
 21
298.537379
 31
0.0
  0
LINE
  5
2CC
330
323
100
AcDbEntity
  8
LC-001-002-----0
  6
Continuous
100
AcDbLine
 10
536.389798
 20
311.48885
 30
0.0
 11
541.041505
 21
298.708389
 31
0.0
  0
LINE
  5
2CD
330
323
100
AcDbEntity
  8
LC-001-002-----0
  6
Continuous
100
AcDbLine
 10
556.48903
 20
323.093148
 30
0.0
 11
565.231381
 21
312.67442
 31
0.0
  0
LINE
  5
2CE
330
323
100
AcDbEntity
  8
LC-001-002-----0
  6
Continuous
100
AcDbLine
 10
556.872052
 20
323.414541
 30
0.0
 11
565.614403
 21
312.995813
 31
0.0
  0
LINE
  5
2CF
330
323
100
AcDbEntity
  8
LC-001-002-----0
  6
Continuous
100
AcDbLine
 10
564.931421
 20
331.47391
 30
0.0
 11
575.350149
 21
322.73156
 31
0.0
  0
LINE
  5
2D0
330
323
100
AcDbEntity
  8
LC-001-002-----0
  6
Continuous
100
AcDbLine
 10
565.252815
 20
331.856933
 30
0.0
 11
575.671543
 21
323.114582
 31
0.0
  0
LINE
  5
2D1
330
323
100
AcDbEntity
  8
LC-001-002-----0
  6
Continuous
100
AcDbLine
 10
571.790249
 20
341.193356
 30
0.0
 11
583.568786
 21
334.393014
 31
0.0
  0
LINE
  5
2D2
330
323
100
AcDbEntity
  8
LC-001-002-----0
  6
Continuous
100
AcDbLine
 10
572.040249
 20
341.626369
 30
0.0
 11
583.818786
 21
334.826027
 31
0.0
  0
LINE
  5
2D3
330
323
100
AcDbEntity
  8
LC-001-002-----0
  6
Continuous
100
AcDbLine
 10
576.857112
 20
351.956165
 30
0.0
 11
589.637574
 21
347.304457
 31
0.0
  0
LINE
  5
2D4
330
323
100
AcDbEntity
  8
LC-001-002-----0
  6
Continuous
100
AcDbLine
 10
577.028122
 20
352.426011
 30
0.0
 11
589.808584
 21
347.774303
 31
0.0
  0
LINE
  5
2D5
330
323
100
AcDbEntity
  8
LC-001-002-----0
  6
Continuous
100
AcDbLine
 10
579.978056
 20
363.435314
 30
0.0
 11
593.372114
 21
361.07358
 31
0.0
  0
LINE
  5
2D6
330
323
100
AcDbEntity
  8
LC-001-002-----0
  6
Continuous
100
AcDbLine
 10
580.06488
 20
363.927718
 30
0.0
 11
593.458938
 21
361.565984
 31
0.0
  0
ARC
  5
2D7
330
323
100
AcDbEntity
  8
LC-001-002-----0
  6
Continuous
100
AcDbCircle
 10
512.813948
 20
375.532015
 30
0.0
 40
81.84537
100
AcDbArc
 50
10.175013
 51
19.824987
  0
ARC
  5
2D8
330
323
100
AcDbEntity
  8
LC-001-002-----0
  6
Continuous
100
AcDbCircle
 10
512.813948
 20
375.532015
 30
0.0
 40
81.84537
100
AcDbArc
 50
20.175013
 51
29.824987
  0
ARC
  5
2D9
330
323
100
AcDbEntity
  8
LC-001-002-----0
  6
Continuous
100
AcDbCircle
 10
512.813948
 20
375.532015
 30
0.0
 40
81.84537
100
AcDbArc
 50
30.175013
 51
39.82498700000001
  0
ARC
  5
2DA
330
323
100
AcDbEntity
  8
LC-001-002-----0
  6
Continuous
100
AcDbCircle
 10
512.813948
 20
375.532015
 30
0.0
 40
81.84537
100
AcDbArc
 50
40.175013
 51
49.82498700000001
  0
ARC
  5
2DB
330
323
100
AcDbEntity
  8
LC-001-002-----0
  6
Continuous
100
AcDbCircle
 10
512.813948
 20
375.532015
 30
0.0
 40
81.84537
100
AcDbArc
 50
50.17501300000001
 51
54.742256
  0
ARC
  5
2DC
330
323
100
AcDbEntity
  8
LC-001-002-----0
  6
Continuous
100
AcDbCircle
 10
512.813948
 20
375.532015
 30
0.0
 40
81.84537
100
AcDbArc
 50
70.17501299999999
 51
79.824987
  0
ARC
  5
2DD
330
323
100
AcDbEntity
  8
LC-001-002-----0
  6
Continuous
100
AcDbCircle
 10
512.813948
 20
375.532015
 30
0.0
 40
81.84537
100
AcDbArc
 50
80.175013
 51
89.824987
  0
ARC
  5
2DE
330
323
100
AcDbEntity
  8
LC-001-002-----0
  6
Continuous
100
AcDbCircle
 10
512.813948
 20
375.532015
 30
0.0
 40
81.84537
100
AcDbArc
 50
90.175013
 51
99.82498699999998
  0
ARC
  5
2DF
330
323
100
AcDbEntity
  8
LC-001-002-----0
  6
Continuous
100
AcDbCircle
 10
512.813948
 20
375.532015
 30
0.0
 40
81.84537
100
AcDbArc
 50
100.175013
 51
109.824987
  0
ARC
  5
2E0
330
323
100
AcDbEntity
  8
LC-001-002-----0
  6
Continuous
100
AcDbCircle
 10
512.813948
 20
375.532015
 30
0.0
 40
81.84537
100
AcDbArc
 50
110.175013
 51
119.824987
  0
ARC
  5
2E1
330
323
100
AcDbEntity
  8
LC-001-002-----0
  6
Continuous
100
AcDbCircle
 10
512.813948
 20
375.532015
 30
0.0
 40
81.84537
100
AcDbArc
 50
120.175013
 51
129.824987
  0
ARC
  5
2E2
330
323
100
AcDbEntity
  8
LC-001-002-----0
  6
Continuous
100
AcDbCircle
 10
512.813948
 20
375.532015
 30
0.0
 40
81.84537
100
AcDbArc
 50
130.175013
 51
139.824987
  0
ARC
  5
2E3
330
323
100
AcDbEntity
  8
LC-001-002-----0
  6
Continuous
100
AcDbCircle
 10
512.813948
 20
375.532015
 30
0.0
 40
81.84537
100
AcDbArc
 50
140.175013
 51
149.824987
  0
ARC
  5
2E4
330
323
100
AcDbEntity
  8
LC-001-002-----0
  6
Continuous
100
AcDbCircle
 10
512.813948
 20
375.532015
 30
0.0
 40
81.84537
100
AcDbArc
 50
150.175013
 51
159.824987
  0
ARC
  5
2E5
330
323
100
AcDbEntity
  8
LC-001-002-----0
  6
Continuous
100
AcDbCircle
 10
512.813948
 20
375.532015
 30
0.0
 40
81.84537
100
AcDbArc
 50
160.175013
 51
169.824987
  0
ARC
  5
2E6
330
323
100
AcDbEntity
  8
LC-001-002-----0
  6
Continuous
100
AcDbCircle
 10
512.813948
 20
375.532015
 30
0.0
 40
81.84537
100
AcDbArc
 50
170.175013
 51
174.742256
  0
ARC
  5
2E7
330
323
100
AcDbEntity
  8
LC-001-002-----0
  6
Continuous
100
AcDbCircle
 10
512.813948
 20
375.532015
 30
0.0
 40
81.84537
100
AcDbArc
 50
190.175013
 51
199.824987
  0
ARC
  5
2E8
330
323
100
AcDbEntity
  8
LC-001-002-----0
  6
Continuous
100
AcDbCircle
 10
512.813948
 20
375.532015
 30
0.0
 40
81.84537
100
AcDbArc
 50
200.175013
 51
209.824987
  0
ARC
  5
2E9
330
323
100
AcDbEntity
  8
LC-001-002-----0
  6
Continuous
100
AcDbCircle
 10
512.813948
 20
375.532015
 30
0.0
 40
81.84537
100
AcDbArc
 50
210.175013
 51
219.824987
  0
ARC
  5
2EA
330
323
100
AcDbEntity
  8
LC-001-002-----0
  6
Continuous
100
AcDbCircle
 10
512.813948
 20
375.532015
 30
0.0
 40
81.84537
100
AcDbArc
 50
220.175013
 51
229.824987
  0
ARC
  5
2EB
330
323
100
AcDbEntity
  8
LC-001-002-----0
  6
Continuous
100
AcDbCircle
 10
512.813948
 20
375.532015
 30
0.0
 40
81.84537
100
AcDbArc
 50
230.175013
 51
239.824987
  0
ARC
  5
2EC
330
323
100
AcDbEntity
  8
LC-001-002-----0
  6
Continuous
100
AcDbCircle
 10
512.813948
 20
375.532015
 30
0.0
 40
81.84537
100
AcDbArc
 50
240.175013
 51
249.824987
  0
ARC
  5
2ED
330
323
100
AcDbEntity
  8
LC-001-002-----0
  6
Continuous
100
AcDbCircle
 10
512.813948
 20
375.532015
 30
0.0
 40
81.84537
100
AcDbArc
 50
250.175013
 51
259.824987
  0
ARC
  5
2EE
330
323
100
AcDbEntity
  8
LC-001-002-----0
  6
Continuous
100
AcDbCircle
 10
512.813948
 20
375.532015
 30
0.0
 40
81.84537
100
AcDbArc
 50
260.1750129999999
 51
269.824987
  0
ARC
  5
2EF
330
323
100
AcDbEntity
  8
LC-001-002-----0
  6
Continuous
100
AcDbCircle
 10
512.813948
 20
375.532015
 30
0.0
 40
81.84537
100
AcDbArc
 50
280.175013
 51
289.824987
  0
ARC
  5
2F0
330
323
100
AcDbEntity
  8
LC-001-002-----0
  6
Continuous
100
AcDbCircle
 10
512.813948
 20
375.532015
 30
0.0
 40
81.84537
100
AcDbArc
 50
270.175013
 51
279.824987
  0
ARC
  5
2F1
330
323
100
AcDbEntity
  8
LC-001-002-----0
  6
Continuous
100
AcDbCircle
 10
512.813948
 20
375.532015
 30
0.0
 40
81.84537
100
AcDbArc
 50
290.175013
 51
294.742256
  0
ARC
  5
2F2
330
323
100
AcDbEntity
  8
LC-001-002-----0
  6
Continuous
100
AcDbCircle
 10
512.813948
 20
375.532015
 30
0.0
 40
81.84537
100
AcDbArc
 50
310.175013
 51
319.824987
  0
ARC
  5
2F3
330
323
100
AcDbEntity
  8
LC-001-002-----0
  6
Continuous
100
AcDbCircle
 10
512.813948
 20
375.532015
 30
0.0
 40
81.84537
100
AcDbArc
 50
320.175013
 51
329.824987
  0
ARC
  5
2F4
330
323
100
AcDbEntity
  8
LC-001-002-----0
  6
Continuous
100
AcDbCircle
 10
512.813948
 20
375.532015
 30
0.0
 40
81.84537
100
AcDbArc
 50
330.1750129999999
 51
339.824987
  0
ARC
  5
2F5
330
323
100
AcDbEntity
  8
LC-001-002-----0
  6
Continuous
100
AcDbCircle
 10
512.813948
 20
375.532015
 30
0.0
 40
81.84537
100
AcDbArc
 50
340.175013
 51
349.824987
  0
ARC
  5
2F6
330
323
100
AcDbEntity
  8
LC-001-002-----0
  6
Continuous
100
AcDbCircle
 10
512.813948
 20
375.532015
 30
0.0
 40
81.84537
100
AcDbArc
 50
350.1750129999999
 51
359.824987
  0
CIRCLE
  5
2F7
330
323
100
AcDbEntity
  8
LC-001-002-----0
  6
Continuous
100
AcDbCircle
 10
512.813948
 20
375.532015
 30
0.0
 40
48.5
  0
CIRCLE
  5
2F8
330
323
100
AcDbEntity
  8
LC-001-002-----0
  6
Continuous
100
AcDbCircle
 10
512.813948
 20
375.532015
 30
0.0
 40
51.5
  0
CIRCLE
  5
2F9
330
323
100
AcDbEntity
  8
LC-001-002-----0
  6
Continuous
100
AcDbCircle
 10
512.813948
 20
375.532015
 30
0.0
 40
54.75
  0
LINE
  5
2FA
330
323
100
AcDbEntity
  8
LC-001-002-----0
  6
Continuous
100
AcDbLine
 10
161.939542
 20
360.884276
 30
0.0
 11
181.282857
 21
360.884276
 31
0.0
  0
LINE
  5
2FB
330
323
100
AcDbEntity
  8
LC-001-002-----0
  6
Continuous
100
AcDbLine
 10
278.782857
 20
360.884276
 30
0.0
 11
311.800581
 21
360.884276
 31
0.0
  0
LINE
  5
2FC
330
323
100
AcDbEntity
  8
LC-001-002-----0
  6
Continuous
100
AcDbLine
 10
181.282857
 20
357.26081
 30
0.0
 11
180.138789
 21
357.26081
 31
0.0
  0
LINE
  5
2FD
330
323
100
AcDbEntity
  8
LC-001-002-----0
  6
Continuous
100
AcDbLine
 10
275.782857
 20
357.032015
 30
0.0
 11
230.032857
 21
357.032015
 31
0.0
  0
LINE
  5
2FE
330
323
100
AcDbEntity
  8
LC-001-002-----0
  6
Continuous
100
AcDbLine
 10
162.971753
 20
357.032015
 30
0.0
 11
179.849845
 21
357.032015
 31
0.0
  0
VIEWPORT
  5
300
330
321
100
AcDbEntity
 67
     1
  8
LC-000
100
AcDbViewport
 10
420.0
 20
297.0
 30
0.0
 40
840.0
 41
594.0
 68
     1
 69
     1
 12
420.0
 22
297.0
 13
0.0
 23
0.0
 14
1.0
 24
1.0
 15
0.0
 25
0.0
 16
0.0
 26
0.0
 36
1.0
 17
0.0
 27
0.0
 37
0.0
 42
50.0
 43
0.0
 44
0.0
 45
594.0
 50
0.0
 51
0.0
 72
   100
 90
   557216
  1

281
     0
 71
     0
 74
     0
110
0.0
120
0.0
130
0.0
111
1.0
121
0.0
131
0.0
112
0.0
122
1.0
132
0.0
 79
     0
146
0.0
170
     0
 61
     5
348
38D
292
     1
282
     1
141
0.0
142
0.0
 63
   256
  0
VIEWPORT
  5
301
330
321
100
AcDbEntity
 67
     1
  8
0
100
AcDbViewport
 10
0.0
 20
0.0
 30
0.0
 40
0.0
 41
0.0
 68
     2
 69
     2
 12
0.0
 22
0.0
 13
0.0
 23
0.0
 14
0.5
 24
0.5
 15
0.5
 25
0.5
 16
0.0
 26
0.0
 36
1.0
 17
0.0
 27
0.0
 37
0.0
 42
50.0
 43
0.0
 44
0.0
 45
594.0
 50
0.0
 51
0.0
 72
   100
 90
   557088
  1

281
     0
 71
     0
 74
     0
110
0.0
120
0.0
130
0.0
111
1.0
121
0.0
131
0.0
112
0.0
122
1.0
132
0.0
 79
     0
146
0.0
170
     0
 61
     5
348
38D
292
     1
282
     1
141
0.0
142
0.0
 63
   256
  0
ENDSEC
  0
SECTION
  2
OBJECTS
  0
DICTIONARY
  5
313
330
0
100
AcDbDictionary
281
     1
  3
ACAD_DETAILVIEWSTYLE
350
3B0
  3
ACAD_GROUP
350
314
  3
ACAD_IMAGE_VARS
350
3A7
  3
ACAD_LAYOUT
350
320
  3
ACAD_MATERIAL
350
32C
  3
ACAD_MLEADERSTYLE
350
3A3
  3
ACAD_MLINESTYLE
350
31D
  3
ACAD_PLOTSETTINGS
350
31F
  3
ACAD_PLOTSTYLENAME
350
315
  3
ACAD_SCALELIST
350
362
  3
ACAD_SECTIONVIEWSTYLE
350
3B1
  3
ACAD_TABLESTYLE
350
3A1
  3
ACAD_VISUALSTYLE
350
388
  3
ACDB_RECOMPOSE_DATA
350
3AC
  3
AcDbVariableDictionary
350
3A8
  3
APPDATA
350
3A5
  0
SUN
  5
3A6
330
326
100
AcDbSun
 90
        1
290
     0
 63
     7
421
 16777215
 40
1.0
291
     1
 91
  2455826
 92
 54000000
292
     0
 70
     2
 71
   256
280
     1
  0
DICTIONARY
  5
3B0
102
{ACAD_REACTORS
330
313
102
}
330
313
100
AcDbDictionary
281
     1
  0
DICTIONARY
  5
314
102
{ACAD_REACTORS
330
313
102
}
330
313
100
AcDbDictionary
281
     1
  0
RASTERVARIABLES
  5
3A7
102
{ACAD_REACTORS
330
313
102
}
330
313
100
AcDbRasterVariables
 90
        0
 70
     1
 71
     1
 72
     0
  0
DICTIONARY
  5
320
102
{ACAD_REACTORS
330
313
102
}
330
313
100
AcDbDictionary
281
     1
  3
Blatt 1
350
322
  3
Model
350
324
  0
DICTIONARY
  5
32C
102
{ACAD_REACTORS
330
313
102
}
330
313
100
AcDbDictionary
281
     1
  3
ByBlock
350
32E
  3
ByLayer
350
32D
  3
Global
350
32F
  0
DICTIONARY
  5
3A3
102
{ACAD_REACTORS
330
313
102
}
330
313
100
AcDbDictionary
281
     1
  3
Standard
350
3A4
  0
DICTIONARY
  5
31D
102
{ACAD_REACTORS
330
313
102
}
330
313
100
AcDbDictionary
281
     1
  3
Standard
350
31E
  0
DICTIONARY
  5
31F
102
{ACAD_REACTORS
330
313
102
}
330
313
100
AcDbDictionary
281
     1
  0
ACDBDICTIONARYWDFLT
  5
315
102
{ACAD_REACTORS
330
313
102
}
330
313
100
AcDbDictionary
281
     1
  3
Normal
350
316
100
AcDbDictionaryWithDefault
340
316
  0
DICTIONARY
  5
362
102
{ACAD_REACTORS
330
313
102
}
330
313
100
AcDbDictionary
281
     1
  3
A0
350
363
  3
A1
350
364
  3
A2
350
365
  3
A3
350
366
  3
A4
350
367
  3
A5
350
368
  3
A6
350
369
  3
A7
350
36A
  3
A8
350
36B
  3
A9
350
36C
  3
B0
350
36D
  3
B1
350
36E
  3
B2
350
36F
  3
B3
350
370
  3
B4
350
371
  3
B5
350
372
  3
B6
350
373
  3
B7
350
374
  3
B8
350
375
  3
B9
350
376
  3
C0
350
377
  3
C1
350
378
  3
C2
350
379
  3
C3
350
37A
  3
C4
350
37B
  3
C5
350
37C
  3
C6
350
37D
  3
C7
350
37E
  3
C8
350
37F
  3
C9
350
380
  3
D0
350
381
  3
D1
350
382
  3
D2
350
383
  0
DICTIONARY
  5
3B1
102
{ACAD_REACTORS
330
313
102
}
330
313
100
AcDbDictionary
281
     1
  0
DICTIONARY
  5
3A1
102
{ACAD_REACTORS
330
313
102
}
330
313
100
AcDbDictionary
281
     1
  3
Standard
350
3A2
  0
DICTIONARY
  5
388
102
{ACAD_REACTORS
330
313
102
}
330
313
100
AcDbDictionary
281
     1
  3
2dWireframe
350
38D
  3
Basic
350
390
  3
Brighten
350
394
  3
ColorChange
350
398
  3
Conceptual
350
392
  3
Dim
350
393
  3
EdgeColorOff
350
39B
  3
Facepattern
350
397
  3
Flat
350
389
  3
FlatWithEdges
350
38A
  3
Gouraud
350
38B
  3
GouraudWithEdges
350
38C
  3
Hidden
350
38F
  3
JitterOff
350
399
  3
Linepattern
350
396
  3
OverhangOff
350
39A
  3
Realistic
350
391
  3
Shaded
350
3A0
  3
Shaded with edges
350
39F
  3
Shades of Gray
350
39C
  3
Sketchy
350
39D
  3
Thicken
350
395
  3
Wireframe
350
38E
  3
X-Ray
350
39E
  0
XRECORD
  5
3AC
102
{ACAD_REACTORS
330
313
102
}
330
313
100
AcDbXrecord
280
     1
 90
        1
330
3A2
  0
DICTIONARY
  5
3A8
102
{ACAD_REACTORS
330
313
102
}
330
313
100
AcDbDictionary
281
     1
  3
CANNOSCALE
350
3A9
  3
CMLEADERSTYLE
350
3AE
  3
CTABLESTYLE
350
3AD
  3
MSLTSCALE
350
3AF
  0
DICTIONARY
  5
3A5
102
{ACAD_REACTORS
330
313
102
}
330
313
100
AcDbDictionary
281
     1
  0
LAYOUT
  5
322
102
{ACAD_REACTORS
330
320
102
}
330
320
100
AcDbPlotSettings
  1

  2
none_device
  4

  6

 40
0.0
 41
0.0
 42
0.0
 43
0.0
 44
0.0
 45
0.0
 46
0.0
 47
0.0
 48
0.0
 49
0.0
140
0.0
141
0.0
142
1.0
143
1.0
 70
   688
 72
     0
 73
     0
 74
     5
  7

 75
    16
 76
     0
 77
     2
 78
   300
147
1.0
148
0.0
149
0.0
100
AcDbLayout
  1
Blatt 1
 70
     0
 71
     1
 10
0.0
 20
0.0
 11
0.0
 21
0.0
 12
0.0
 22
0.0
 32
0.0
 14
1.000000000000000E+20
 24
1.000000000000000E+20
 34
1.000000000000000E+20
 15
-1.000000000000000E+20
 25
-1.000000000000000E+20
 35
-1.000000000000000E+20
146
0.0
 13
0.0
 23
0.0
 33
0.0
 16
1.0
 26
0.0
 36
0.0
 17
0.0
 27
1.0
 37
0.0
 76
     0
330
321
331
300
  0
LAYOUT
  5
324
102
{ACAD_REACTORS
330
320
102
}
330
320
100
AcDbPlotSettings
  1

  2
none_device
  4
Letter_(8.50_x_11.00_Inches)
  6

 40
6.35
 41
6.35
 42
6.35
 43
6.35
 44
215.9
 45
279.4
 46
0.0
 47
0.0
 48
0.0
 49
0.0
140
0.0
141
0.0
142
1.0
143
1.0
 70
  1712
 72
     0
 73
     0
 74
     0
  7

 75
     0
 76
     0
 77
     2
 78
   300
147
1.0
148
0.0
149
0.0
100
AcDbLayout
  1
Model
 70
     1
 71
     0
 10
0.0
 20
0.0
 11
12.0
 21
9.0
 12
78.995776
 22
114.292015
 32
0.0
 14
112.661814
 24
241.2
 34
0.0
 15
589030646.339239
 25
485.838574
 35
0.0
146
0.0
 13
0.0
 23
0.0
 33
0.0
 16
1.0
 26
0.0
 36
0.0
 17
0.0
 27
1.0
 37
0.0
 76
     0
330
323
331
326
  0
MATERIAL
  5
32E
102
{ACAD_REACTORS
330
32C
102
}
330
32C
100
AcDbMaterial
  1
ByBlock
 72
     1
 94
      127
  0
MATERIAL
  5
32D
102
{ACAD_REACTORS
330
32C
102
}
330
32C
100
AcDbMaterial
  1
ByLayer
 72
     1
 94
      127
  0
MATERIAL
  5
32F
102
{ACAD_REACTORS
330
32C
102
}
330
32C
100
AcDbMaterial
  1
Global
 72
     1
 94
      127
  0
MLEADERSTYLE
  5
3A4
102
{ACAD_REACTORS
330
3A3
102
}
330
3A3
100
AcDbMLeaderStyle
179
     2
170
     2
171
     1
172
     0
 90
        2
 40
0.0
 41
0.0
173
     1
 91
-1056964608
340
31A
 92
       -2
290
     1
 42
0.09
291
     1
 43
0.36
  3
Standard
341
0
 44
0.18
300

342
318
174
     1
178
     6
175
     1
176
     0
 93
-1056964608
 45
0.18
292
     0
297
     0
 46
0.18
343
0
 94
-1056964608
 47
1.0
 49
1.0
140
1.0
293
     1
141
0.0
294
     1
177
     0
142
1.0
295
     0
296
     0
143
0.125
271
     0
272
     9
273
     9
298
     0
  0
MLINESTYLE
  5
31E
102
{ACAD_REACTORS
330
31D
102
}
330
31D
100
AcDbMlineStyle
  2
Standard
 70
     0
  3

 62
   256
 51
90.0
 52
90.0
 71
     2
 49
0.5
 62
   256
  6
BYLAYER
 49
-0.5
 62
   256
  6
BYLAYER
  0
ACDBPLACEHOLDER
  5
316
102
{ACAD_REACTORS
330
315
102
}
330
315
  0
SCALE
  5
363
102
{ACAD_REACTORS
330
362
102
}
330
362
100
AcDbScale
 70
     0
300
1:1
140
1.0
141
1.0
290
     1
  0
SCALE
  5
364
102
{ACAD_REACTORS
330
362
102
}
330
362
100
AcDbScale
 70
     0
300
1:2
140
1.0
141
2.0
290
     0
  0
SCALE
  5
365
102
{ACAD_REACTORS
330
362
102
}
330
362
100
AcDbScale
 70
     0
300
1:4
140
1.0
141
4.0
290
     0
  0
SCALE
  5
366
102
{ACAD_REACTORS
330
362
102
}
330
362
100
AcDbScale
 70
     0
300
1:5
140
1.0
141
5.0
290
     0
  0
SCALE
  5
367
102
{ACAD_REACTORS
330
362
102
}
330
362
100
AcDbScale
 70
     0
300
1:8
140
1.0
141
8.0
290
     0
  0
SCALE
  5
368
102
{ACAD_REACTORS
330
362
102
}
330
362
100
AcDbScale
 70
     0
300
1:10
140
1.0
141
10.0
290
     0
  0
SCALE
  5
369
102
{ACAD_REACTORS
330
362
102
}
330
362
100
AcDbScale
 70
     0
300
1:16
140
1.0
141
16.0
290
     0
  0
SCALE
  5
36A
102
{ACAD_REACTORS
330
362
102
}
330
362
100
AcDbScale
 70
     0
300
1:20
140
1.0
141
20.0
290
     0
  0
SCALE
  5
36B
102
{ACAD_REACTORS
330
362
102
}
330
362
100
AcDbScale
 70
     0
300
1:30
140
1.0
141
30.0
290
     0
  0
SCALE
  5
36C
102
{ACAD_REACTORS
330
362
102
}
330
362
100
AcDbScale
 70
     0
300
1:40
140
1.0
141
40.0
290
     0
  0
SCALE
  5
36D
102
{ACAD_REACTORS
330
362
102
}
330
362
100
AcDbScale
 70
     0
300
1:50
140
1.0
141
50.0
290
     0
  0
SCALE
  5
36E
102
{ACAD_REACTORS
330
362
102
}
330
362
100
AcDbScale
 70
     0
300
1:100
140
1.0
141
100.0
290
     0
  0
SCALE
  5
36F
102
{ACAD_REACTORS
330
362
102
}
330
362
100
AcDbScale
 70
     0
300
2:1
140
2.0
141
1.0
290
     0
  0
SCALE
  5
370
102
{ACAD_REACTORS
330
362
102
}
330
362
100
AcDbScale
 70
     0
300
4:1
140
4.0
141
1.0
290
     0
  0
SCALE
  5
371
102
{ACAD_REACTORS
330
362
102
}
330
362
100
AcDbScale
 70
     0
300
8:1
140
8.0
141
1.0
290
     0
  0
SCALE
  5
372
102
{ACAD_REACTORS
330
362
102
}
330
362
100
AcDbScale
 70
     0
300
10:1
140
10.0
141
1.0
290
     0
  0
SCALE
  5
373
102
{ACAD_REACTORS
330
362
102
}
330
362
100
AcDbScale
 70
     0
300
100:1
140
100.0
141
1.0
290
     0
  0
SCALE
  5
374
102
{ACAD_REACTORS
330
362
102
}
330
362
100
AcDbScale
 70
     0
300
1/128" = 1'-0"
140
0.0078125
141
12.0
290
     0
  0
SCALE
  5
375
102
{ACAD_REACTORS
330
362
102
}
330
362
100
AcDbScale
 70
     0
300
1/64" = 1'-0"
140
0.015625
141
12.0
290
     0
  0
SCALE
  5
376
102
{ACAD_REACTORS
330
362
102
}
330
362
100
AcDbScale
 70
     0
300
1/32" = 1'-0"
140
0.03125
141
12.0
290
     0
  0
SCALE
  5
377
102
{ACAD_REACTORS
330
362
102
}
330
362
100
AcDbScale
 70
     0
300
1/16" = 1'-0"
140
0.0625
141
12.0
290
     0
  0
SCALE
  5
378
102
{ACAD_REACTORS
330
362
102
}
330
362
100
AcDbScale
 70
     0
300
3/32" = 1'-0"
140
0.09375
141
12.0
290
     0
  0
SCALE
  5
379
102
{ACAD_REACTORS
330
362
102
}
330
362
100
AcDbScale
 70
     0
300
1/8" = 1'-0"
140
0.125
141
12.0
290
     0
  0
SCALE
  5
37A
102
{ACAD_REACTORS
330
362
102
}
330
362
100
AcDbScale
 70
     0
300
3/16" = 1'-0"
140
0.1875
141
12.0
290
     0
  0
SCALE
  5
37B
102
{ACAD_REACTORS
330
362
102
}
330
362
100
AcDbScale
 70
     0
300
1/4" = 1'-0"
140
0.25
141
12.0
290
     0
  0
SCALE
  5
37C
102
{ACAD_REACTORS
330
362
102
}
330
362
100
AcDbScale
 70
     0
300
3/8" = 1'-0"
140
0.375
141
12.0
290
     0
  0
SCALE
  5
37D
102
{ACAD_REACTORS
330
362
102
}
330
362
100
AcDbScale
 70
     0
300
1/2" = 1'-0"
140
0.5
141
12.0
290
     0
  0
SCALE
  5
37E
102
{ACAD_REACTORS
330
362
102
}
330
362
100
AcDbScale
 70
     0
300
3/4" = 1'-0"
140
0.75
141
12.0
290
     0
  0
SCALE
  5
37F
102
{ACAD_REACTORS
330
362
102
}
330
362
100
AcDbScale
 70
     0
300
1" = 1'-0"
140
1.0
141
12.0
290
     0
  0
SCALE
  5
380
102
{ACAD_REACTORS
330
362
102
}
330
362
100
AcDbScale
 70
     0
300
1-1/2" = 1'-0"
140
1.5
141
12.0
290
     0
  0
SCALE
  5
381
102
{ACAD_REACTORS
330
362
102
}
330
362
100
AcDbScale
 70
     0
300
3" = 1'-0"
140
3.0
141
12.0
290
     0
  0
SCALE
  5
382
102
{ACAD_REACTORS
330
362
102
}
330
362
100
AcDbScale
 70
     0
300
6" = 1'-0"
140
6.0
141
12.0
290
     0
  0
SCALE
  5
383
102
{ACAD_REACTORS
330
362
102
}
330
362
100
AcDbScale
 70
     0
300
1'-0" = 1'-0"
140
12.0
141
12.0
290
     0
  0
TABLESTYLE
  5
3A2
102
{ACAD_REACTORS
330
3A1
102
}
102
{ACAD_XDICTIONARY
360
3AA
102
}
330
3A1
100
AcDbTableStyle
  3
Standard
 70
     0
 71
     0
 40
0.06
 41
0.06
280
     0
281
     0
  7
STANDARD
140
0.18
170
     2
 62
     0
 63
   257
283
     0
 90
        4
 91
        0
  1

274
    -2
284
     1
 64
     0
275
    -2
285
     1
 65
     0
276
    -2
286
     1
 66
     0
277
    -2
287
     1
 67
     0
278
    -2
288
     1
 68
     0
279
    -2
289
     1
 69
     0
  7
STANDARD
140
0.25
170
     5
 62
     0
 63
   257
283
     0
 90
        4
 91
        0
  1

274
    -2
284
     1
 64
     0
275
    -2
285
     1
 65
     0
276
    -2
286
     1
 66
     0
277
    -2
287
     1
 67
     0
278
    -2
288
     1
 68
     0
279
    -2
289
     1
 69
     0
  7
STANDARD
140
0.18
170
     5
 62
     0
 63
   257
283
     0
 90
        4
 91
        0
  1

274
    -2
284
     1
 64
     0
275
    -2
285
     1
 65
     0
276
    -2
286
     1
 66
     0
277
    -2
287
     1
 67
     0
278
    -2
288
     1
 68
     0
279
    -2
289
     1
 69
     0
  0
VISUALSTYLE
  5
38D
102
{ACAD_REACTORS
330
388
102
}
330
388
100
AcDbVisualStyle
  2
2dWireframe
 70
     4
177
     3
291
     0
 70
    58
 90
        0
176
     1
 90
        2
176
     1
 90
        0
176
     1
 90
        0
176
     1
 40
0.6
176
     1
 40
30.0
176
     1
 62
     7
420
 16777215
176
     1
 90
        1
176
     1
 90
        4
176
     1
 62
     7
176
     1
 62
   257
176
     1
 90
        1
176
     1
 90
        1
176
     1
 40
1.0
176
     1
 90
        0
176
     1
 62
   257
176
     1
 40
1.0
176
     1
 90
        1
176
     1
 90
        6
176
     1
 90
        2
176
     1
 62
     7
176
     1
 90
        5
176
     1
 90
        0
176
     1
 90
        0
176
     1
290
     0
176
     1
 90
        1
176
     1
 40
0.0
176
     1
 90
        0
176
     1
290
     1
176
     1
290
     1
176
     1
290
     0
176
     1
290
     0
176
     1
290
     0
176
     1
290
     0
176
     1
290
     0
176
     1
290
     0
176
     1
290
     0
176
     1
 90
       50
176
     1
 40
0.0
176
     1
 40
1.0
176
     1
 90
        0
176
     1
 62
    18
420
        0
176
     1
 90
       50
176
     1
 90
        3
176
     1
 62
     5
420
      255
176
     1
290
     0
176
     1
 90
       50
176
     1
 90
       50
176
     1
 90
       50
176
     1
290
     0
176
     1
 90
       50
176
     1
 62
   256
176
     0
 40
1.0
176
     0
 90
        2
176
     1
  1
strokes_ogs.tif
176
     1
290
     0
176
     1
 40
1.0
176
     1
 40
1.0
176
     1
  0
VISUALSTYLE
  5
390
102
{ACAD_REACTORS
330
388
102
}
330
388
100
AcDbVisualStyle
  2
Basic
 70
     7
177
     3
291
     1
 70
    58
 90
        1
176
     1
 90
        0
176
     1
 90
        1
176
     1
 90
        0
176
     1
 40
0.6
176
     1
 40
30.0
176
     1
 62
     7
420
 16777215
176
     1
 90
        0
176
     1
 90
        4
176
     1
 62
     7
176
     1
 62
   257
176
     1
 90
        1
176
     1
 90
        1
176
     1
 40
1.0
176
     1
 90
        8
176
     1
 62
     7
176
     1
 40
1.0
176
     1
 90
        1
176
     1
 90
        6
176
     1
 90
        2
176
     1
 62
     7
176
     1
 90
        5
176
     1
 90
        0
176
     1
 90
        0
176
     1
290
     0
176
     1
 90
        1
176
     1
 40
0.0
176
     1
 90
        0
176
     1
290
     0
176
     1
290
     1
176
     1
290
     1
176
     1
290
     0
176
     1
290
     0
176
     1
290
     0
176
     1
290
     0
176
     1
290
     0
176
     1
290
     0
176
     1
 90
       50
176
     1
 40
0.0
176
     1
 40
1.0
176
     1
 90
        0
176
     1
 62
    18
420
        0
176
     1
 90
       50
176
     1
 90
        3
176
     1
 62
     5
420
      255
176
     1
290
     0
176
     1
 90
       50
176
     1
 90
       50
176
     1
 90
       50
176
     1
290
     0
176
     1
 90
       50
176
     1
 62
   256
176
     0
 40
1.0
176
     0
 90
        2
176
     1
  1
strokes_ogs.tif
176
     1
290
     0
176
     1
 40
1.0
176
     1
 40
1.0
176
     1
  0
VISUALSTYLE
  5
394
102
{ACAD_REACTORS
330
388
102
}
330
388
100
AcDbVisualStyle
  2
Brighten
 70
    12
177
     3
291
     1
 70
    58
 90
        2
176
     1
 90
        2
176
     1
 90
        0
176
     1
 90
        0
176
     1
 40
0.6
176
     1
 40
30.0
176
     1
 62
     7
420
 16777215
176
     1
 90
        1
176
     1
 90
        4
176
     1
 62
     7
176
     1
 62
   257
176
     1
 90
        1
176
     1
 90
        1
176
     1
 40
1.0
176
     1
 90
        8
176
     1
 62
     7
176
     1
 40
1.0
176
     1
 90
        1
176
     1
 90
        6
176
     1
 90
        2
176
     1
 62
     7
176
     1
 90
        5
176
     1
 90
        0
176
     1
 90
        0
176
     1
290
     0
176
     1
 90
        1
176
     1
 40
50.0
176
     1
 90
        0
176
     1
290
     0
176
     1
290
     1
176
     1
290
     1
176
     1
290
     0
176
     1
290
     0
176
     1
290
     0
176
     1
290
     0
176
     1
290
     0
176
     1
290
     0
176
     1
 90
       50
176
     1
 40
0.0
176
     1
 40
1.0
176
     1
 90
        0
176
     1
 62
    18
420
        0
176
     1
 90
       50
176
     1
 90
        3
176
     1
 62
     5
420
      255
176
     1
290
     0
176
     1
 90
       50
176
     1
 90
       50
176
     1
 90
       50
176
     1
290
     0
176
     1
 90
       50
176
     1
 62
   256
176
     0
 40
1.0
176
     0
 90
        2
176
     1
  1
strokes_ogs.tif
176
     1
290
     0
176
     1
 40
1.0
176
     1
 40
1.0
176
     1
  0
VISUALSTYLE
  5
398
102
{ACAD_REACTORS
330
388
102
}
330
388
100
AcDbVisualStyle
  2
ColorChange
 70
    16
177
     3
291
     1
 70
    58
 90
        2
176
     1
 90
        2
176
     1
 90
        3
176
     1
 90
        0
176
     1
 40
0.6
176
     1
 40
30.0
176
     1
 62
     8
420
  8421504
176
     1
 90
        1
176
     1
 90
        4
176
     1
 62
     7
176
     1
 62
   257
176
     1
 90
        1
176
     1
 90
        1
176
     1
 40
1.0
176
     1
 90
        8
176
     1
 62
     8
420
  8421504
176
     1
 40
1.0
176
     1
 90
        1
176
     1
 90
        6
176
     1
 90
        2
176
     1
 62
     7
176
     1
 90
        5
176
     1
 90
        0
176
     1
 90
        0
176
     1
290
     0
176
     1
 90
        1
176
     1
 40
0.0
176
     1
 90
        0
176
     1
290
     0
176
     1
290
     1
176
     1
290
     1
176
     1
290
     0
176
     1
290
     0
176
     1
290
     0
176
     1
290
     0
176
     1
290
     0
176
     1
290
     0
176
     1
 90
       50
176
     1
 40
0.0
176
     1
 40
1.0
176
     1
 90
        0
176
     1
 62
    18
420
        0
176
     1
 90
       50
176
     1
 90
        3
176
     1
 62
     5
420
      255
176
     1
290
     0
176
     1
 90
       50
176
     1
 90
       50
176
     1
 90
       50
176
     1
290
     0
176
     1
 90
       50
176
     1
 62
   256
176
     0
 40
1.0
176
     0
 90
        2
176
     1
  1
strokes_ogs.tif
176
     1
290
     0
176
     1
 40
1.0
176
     1
 40
1.0
176
     1
  0
VISUALSTYLE
  5
392
102
{ACAD_REACTORS
330
388
102
}
330
388
100
AcDbVisualStyle
  2
Conceptual
 70
     9
177
     3
291
     0
 70
    58
 90
        3
176
     1
 90
        2
176
     1
 90
        0
176
     1
 90
        0
176
     1
 40
0.6
176
     1
 40
30.0
176
     1
 62
     7
420
 16777215
176
     1
 90
        2
176
     1
 90
        2
176
     1
 62
     7
176
     1
 62
   257
176
     1
 90
        1
176
     1
 90
        1
176
     1
 40
179.0
176
     1
 90
        8
176
     1
 62
     7
176
     1
 40
1.0
176
     1
 90
        1
176
     1
 90
        6
176
     1
 90
        2
176
     1
 62
     7
176
     1
 90
        3
176
     1
 90
        0
176
     1
 90
        0
176
     1
290
     0
176
     1
 90
        1
176
     1
 40
0.0
176
     1
 90
        0
176
     1
290
     0
176
     1
290
     1
176
     1
290
     1
176
     1
290
     0
176
     1
290
     0
176
     1
290
     0
176
     1
290
     0
176
     1
290
     0
176
     1
290
     0
176
     1
 90
       50
176
     1
 40
0.0
176
     1
 40
1.0
176
     1
 90
        0
176
     1
 62
    18
420
        0
176
     1
 90
       50
176
     1
 90
        3
176
     1
 62
     5
420
      255
176
     1
290
     0
176
     1
 90
       50
176
     1
 90
       50
176
     1
 90
       50
176
     1
290
     0
176
     1
 90
       50
176
     1
 62
   256
176
     0
 40
1.0
176
     0
 90
        2
176
     1
  1
strokes_ogs.tif
176
     1
290
     0
176
     1
 40
1.0
176
     1
 40
1.0
176
     1
  0
VISUALSTYLE
  5
393
102
{ACAD_REACTORS
330
388
102
}
330
388
100
AcDbVisualStyle
  2
Dim
 70
    11
177
     3
291
     1
 70
    58
 90
        2
176
     1
 90
        2
176
     1
 90
        0
176
     1
 90
        0
176
     1
 40
0.6
176
     1
 40
30.0
176
     1
 62
     7
420
 16777215
176
     1
 90
        1
176
     1
 90
        4
176
     1
 62
     7
176
     1
 62
   257
176
     1
 90
        1
176
     1
 90
        1
176
     1
 40
1.0
176
     1
 90
        8
176
     1
 62
     7
176
     1
 40
1.0
176
     1
 90
        1
176
     1
 90
        6
176
     1
 90
        2
176
     1
 62
     7
176
     1
 90
        5
176
     1
 90
        0
176
     1
 90
        0
176
     1
290
     0
176
     1
 90
        1
176
     1
 40
-50.0
176
     1
 90
        0
176
     1
290
     0
176
     1
290
     1
176
     1
290
     1
176
     1
290
     0
176
     1
290
     0
176
     1
290
     0
176
     1
290
     0
176
     1
290
     0
176
     1
290
     0
176
     1
 90
       50
176
     1
 40
0.0
176
     1
 40
1.0
176
     1
 90
        0
176
     1
 62
    18
420
        0
176
     1
 90
       50
176
     1
 90
        3
176
     1
 62
     5
420
      255
176
     1
290
     0
176
     1
 90
       50
176
     1
 90
       50
176
     1
 90
       50
176
     1
290
     0
176
     1
 90
       50
176
     1
 62
   256
176
     0
 40
1.0
176
     0
 90
        2
176
     1
  1
strokes_ogs.tif
176
     1
290
     0
176
     1
 40
1.0
176
     1
 40
1.0
176
     1
  0
VISUALSTYLE
  5
39B
102
{ACAD_REACTORS
330
388
102
}
330
388
100
AcDbVisualStyle
  2
EdgeColorOff
 70
    22
177
     3
291
     1
 70
    58
 90
        2
176
     0
 90
        2
176
     0
 90
        0
176
     0
 90
        0
176
     0
 40
0.6
176
     0
 40
30.0
176
     0
 62
     7
420
 16777215
176
     0
 90
        1
176
     0
 90
        4
176
     0
 62
     7
176
     0
 62
   257
176
     0
 90
        1
176
     0
 90
        1
176
     0
 40
1.0
176
     0
 90
        8
176
     2
 62
     7
176
     0
 40
1.0
176
     0
 90
        1
176
     0
 90
        6
176
     0
 90
        2
176
     0
 62
     7
176
     0
 90
        5
176
     0
 90
        0
176
     0
 90
        0
176
     0
290
     0
176
     0
 90
        1
176
     0
 40
0.0
176
     0
 90
        0
176
     0
290
     0
176
     0
290
     1
176
     0
290
     1
176
     0
290
     0
176
     0
290
     0
176
     0
290
     0
176
     0
290
     0
176
     0
290
     0
176
     0
290
     0
176
     0
 90
       50
176
     0
 40
0.0
176
     0
 40
1.0
176
     0
 90
        0
176
     0
 62
    18
420
        0
176
     0
 90
       50
176
     0
 90
        3
176
     0
 62
     5
420
      255
176
     0
290
     0
176
     0
 90
       50
176
     0
 90
       50
176
     0
 90
       50
176
     0
290
     0
176
     0
 90
       50
176
     0
 62
   256
176
     0
 40
1.0
176
     0
 90
        2
176
     0
  1
strokes_ogs.tif
176
     0
290
     0
176
     0
 40
1.0
176
     0
 40
1.0
176
     0
  0
VISUALSTYLE
  5
397
102
{ACAD_REACTORS
330
388
102
}
330
388
100
AcDbVisualStyle
  2
Facepattern
 70
    15
177
     3
291
     1
 70
    58
 90
        2
176
     1
 90
        2
176
     1
 90
        0
176
     1
 90
        0
176
     1
 40
0.6
176
     1
 40
30.0
176
     1
 62
     7
420
 16777215
176
     1
 90
        1
176
     1
 90
        4
176
     1
 62
     7
176
     1
 62
   257
176
     1
 90
        1
176
     1
 90
        1
176
     1
 40
1.0
176
     1
 90
        8
176
     1
 62
     7
176
     1
 40
1.0
176
     1
 90
        1
176
     1
 90
        6
176
     1
 90
        2
176
     1
 62
     7
176
     1
 90
        5
176
     1
 90
        0
176
     1
 90
        0
176
     1
290
     0
176
     1
 90
        1
176
     1
 40
0.0
176
     1
 90
        0
176
     1
290
     0
176
     1
290
     1
176
     1
290
     1
176
     1
290
     0
176
     1
290
     0
176
     1
290
     0
176
     1
290
     0
176
     1
290
     0
176
     1
290
     0
176
     1
 90
       50
176
     1
 40
0.0
176
     1
 40
1.0
176
     1
 90
        0
176
     1
 62
    18
420
        0
176
     1
 90
       50
176
     1
 90
        3
176
     1
 62
     5
420
      255
176
     1
290
     0
176
     1
 90
       50
176
     1
 90
       50
176
     1
 90
       50
176
     1
290
     0
176
     1
 90
       50
176
     1
 62
   256
176
     0
 40
1.0
176
     0
 90
        2
176
     1
  1
strokes_ogs.tif
176
     1
290
     0
176
     1
 40
1.0
176
     1
 40
1.0
176
     1
  0
VISUALSTYLE
  5
389
102
{ACAD_REACTORS
330
388
102
}
330
388
100
AcDbVisualStyle
  2
Flat
 70
     0
177
     3
291
     1
 70
    58
 90
        2
176
     1
 90
        1
176
     1
 90
        1
176
     1
 90
        2
176
     1
 40
0.6
176
     1
 40
30.0
176
     1
 62
     7
420
 16777215
176
     1
 90
        0
176
     1
 90
        0
176
     1
 62
     7
176
     1
 62
   257
176
     1
 90
        1
176
     1
 90
        1
176
     1
 40
1.0
176
     1
 90
        8
176
     1
 62
     7
176
     1
 40
1.0
176
     1
 90
        1
176
     1
 90
        6
176
     1
 90
        2
176
     1
 62
     7
176
     1
 90
        5
176
     1
 90
        0
176
     1
 90
        0
176
     1
290
     0
176
     1
 90
       13
176
     1
 40
0.0
176
     1
 90
        0
176
     1
290
     0
176
     1
290
     1
176
     1
290
     1
176
     1
290
     0
176
     1
290
     0
176
     1
290
     0
176
     1
290
     0
176
     1
290
     0
176
     1
290
     0
176
     1
 90
       50
176
     1
 40
0.0
176
     1
 40
1.0
176
     1
 90
        0
176
     1
 62
    18
420
        0
176
     1
 90
       50
176
     1
 90
        3
176
     1
 62
     5
420
      255
176
     1
290
     0
176
     1
 90
       50
176
     1
 90
       50
176
     1
 90
       50
176
     1
290
     0
176
     1
 90
       50
176
     1
 62
   256
176
     0
 40
1.0
176
     0
 90
        2
176
     1
  1
strokes_ogs.tif
176
     1
290
     0
176
     1
 40
1.0
176
     1
 40
1.0
176
     1
  0
VISUALSTYLE
  5
38A
102
{ACAD_REACTORS
330
388
102
}
330
388
100
AcDbVisualStyle
  2
FlatWithEdges
 70
     1
177
     3
291
     1
 70
    58
 90
        2
176
     1
 90
        1
176
     1
 90
        1
176
     1
 90
        2
176
     1
 40
0.6
176
     1
 40
30.0
176
     1
 62
     7
420
 16777215
176
     1
 90
        1
176
     1
 90
        0
176
     1
 62
     7
176
     1
 62
   257
176
     1
 90
        1
176
     1
 90
        1
176
     1
 40
1.0
176
     1
 90
        0
176
     1
 62
   257
176
     1
 40
1.0
176
     1
 90
        1
176
     1
 90
        6
176
     1
 90
        2
176
     1
 62
     7
176
     1
 90
        5
176
     1
 90
        0
176
     1
 90
        0
176
     1
290
     0
176
     1
 90
       13
176
     1
 40
0.0
176
     1
 90
        0
176
     1
290
     0
176
     1
290
     1
176
     1
290
     1
176
     1
290
     0
176
     1
290
     0
176
     1
290
     0
176
     1
290
     0
176
     1
290
     0
176
     1
290
     0
176
     1
 90
       50
176
     1
 40
0.0
176
     1
 40
1.0
176
     1
 90
        0
176
     1
 62
    18
420
        0
176
     1
 90
       50
176
     1
 90
        3
176
     1
 62
     5
420
      255
176
     1
290
     0
176
     1
 90
       50
176
     1
 90
       50
176
     1
 90
       50
176
     1
290
     0
176
     1
 90
       50
176
     1
 62
   256
176
     0
 40
1.0
176
     0
 90
        2
176
     1
  1
strokes_ogs.tif
176
     1
290
     0
176
     1
 40
1.0
176
     1
 40
1.0
176
     1
  0
VISUALSTYLE
  5
38B
102
{ACAD_REACTORS
330
388
102
}
330
388
100
AcDbVisualStyle
  2
Gouraud
 70
     2
177
     3
291
     1
 70
    58
 90
        2
176
     1
 90
        2
176
     1
 90
        1
176
     1
 90
        2
176
     1
 40
0.6
176
     1
 40
30.0
176
     1
 62
     7
420
 16777215
176
     1
 90
        0
176
     1
 90
        0
176
     1
 62
     7
176
     1
 62
   257
176
     1
 90
        1
176
     1
 90
        1
176
     1
 40
1.0
176
     1
 90
        0
176
     1
 62
     7
176
     1
 40
1.0
176
     1
 90
        1
176
     1
 90
        6
176
     1
 90
        2
176
     1
 62
     7
176
     1
 90
        5
176
     1
 90
        0
176
     1
 90
        0
176
     1
290
     0
176
     1
 90
       13
176
     1
 40
0.0
176
     1
 90
        0
176
     1
290
     0
176
     1
290
     1
176
     1
290
     1
176
     1
290
     0
176
     1
290
     0
176
     1
290
     0
176
     1
290
     0
176
     1
290
     0
176
     1
290
     0
176
     1
 90
       50
176
     1
 40
0.0
176
     1
 40
1.0
176
     1
 90
        0
176
     1
 62
    18
420
        0
176
     1
 90
       50
176
     1
 90
        3
176
     1
 62
     5
420
      255
176
     1
290
     0
176
     1
 90
       50
176
     1
 90
       50
176
     1
 90
       50
176
     1
290
     0
176
     1
 90
       50
176
     1
 62
   256
176
     0
 40
1.0
176
     0
 90
        2
176
     1
  1
strokes_ogs.tif
176
     1
290
     0
176
     1
 40
1.0
176
     1
 40
1.0
176
     1
  0
VISUALSTYLE
  5
38C
102
{ACAD_REACTORS
330
388
102
}
330
388
100
AcDbVisualStyle
  2
GouraudWithEdges
 70
     3
177
     3
291
     1
 70
    58
 90
        2
176
     1
 90
        2
176
     1
 90
        1
176
     1
 90
        2
176
     1
 40
0.6
176
     1
 40
30.0
176
     1
 62
     7
420
 16777215
176
     1
 90
        1
176
     1
 90
        0
176
     1
 62
     7
176
     1
 62
   257
176
     1
 90
        1
176
     1
 90
        1
176
     1
 40
1.0
176
     1
 90
        0
176
     1
 62
   257
176
     1
 40
1.0
176
     1
 90
        1
176
     1
 90
        6
176
     1
 90
        2
176
     1
 62
     7
176
     1
 90
        5
176
     1
 90
        0
176
     1
 90
        0
176
     1
290
     0
176
     1
 90
       13
176
     1
 40
0.0
176
     1
 90
        0
176
     1
290
     0
176
     1
290
     1
176
     1
290
     1
176
     1
290
     0
176
     1
290
     0
176
     1
290
     0
176
     1
290
     0
176
     1
290
     0
176
     1
290
     0
176
     1
 90
       50
176
     1
 40
0.0
176
     1
 40
1.0
176
     1
 90
        0
176
     1
 62
    18
420
        0
176
     1
 90
       50
176
     1
 90
        3
176
     1
 62
     5
420
      255
176
     1
290
     0
176
     1
 90
       50
176
     1
 90
       50
176
     1
 90
       50
176
     1
290
     0
176
     1
 90
       50
176
     1
 62
   256
176
     0
 40
1.0
176
     0
 90
        2
176
     1
  1
strokes_ogs.tif
176
     1
290
     0
176
     1
 40
1.0
176
     1
 40
1.0
176
     1
  0
VISUALSTYLE
  5
38F
102
{ACAD_REACTORS
330
388
102
}
330
388
100
AcDbVisualStyle
  2
Hidden
 70
     6
177
     3
291
     0
 70
    58
 90
        1
176
     1
 90
        2
176
     1
 90
        2
176
     1
 90
        0
176
     1
 40
0.6
176
     1
 40
30.0
176
     1
 62
     7
420
 16777215
176
     1
 90
        2
176
     1
 90
        2
176
     1
 62
     7
176
     1
 62
   257
176
     1
 90
        2
176
     1
 90
        1
176
     1
 40
40.0
176
     1
 90
        0
176
     1
 62
   257
176
     1
 40
1.0
176
     1
 90
        1
176
     1
 90
        6
176
     1
 90
        2
176
     1
 62
     7
176
     1
 90
        3
176
     1
 90
        0
176
     1
 90
        0
176
     1
290
     0
176
     1
 90
        1
176
     1
 40
0.0
176
     1
 90
        0
176
     1
290
     0
176
     1
290
     1
176
     1
290
     1
176
     1
290
     0
176
     1
290
     0
176
     1
290
     0
176
     1
290
     0
176
     1
290
     0
176
     1
290
     0
176
     1
 90
       50
176
     1
 40
0.0
176
     1
 40
1.0
176
     1
 90
        0
176
     1
 62
    18
420
        0
176
     1
 90
       50
176
     1
 90
        3
176
     1
 62
     5
420
      255
176
     1
290
     0
176
     1
 90
       50
176
     1
 90
       50
176
     1
 90
       50
176
     1
290
     0
176
     1
 90
       50
176
     1
 62
   256
176
     0
 40
1.0
176
     0
 90
        2
176
     1
  1
strokes_ogs.tif
176
     1
290
     0
176
     1
 40
1.0
176
     1
 40
1.0
176
     1
  0
VISUALSTYLE
  5
399
102
{ACAD_REACTORS
330
388
102
}
330
388
100
AcDbVisualStyle
  2
JitterOff
 70
    20
177
     3
291
     1
 70
    58
 90
        2
176
     0
 90
        2
176
     0
 90
        0
176
     0
 90
        0
176
     0
 40
0.6
176
     0
 40
30.0
176
     0
 62
     7
420
 16777215
176
     0
 90
        1
176
     0
 90
        4
176
     0
 62
     7
176
     0
 62
   257
176
     0
 90
        1
176
     0
 90
        1
176
     0
 40
1.0
176
     0
 90
       10
176
     2
 62
     7
176
     0
 40
1.0
176
     0
 90
        1
176
     0
 90
        6
176
     0
 90
        2
176
     0
 62
     7
176
     0
 90
        5
176
     0
 90
        0
176
     0
 90
        0
176
     0
290
     0
176
     0
 90
        1
176
     0
 40
0.0
176
     0
 90
        0
176
     0
290
     0
176
     0
290
     1
176
     0
290
     1
176
     0
290
     0
176
     0
290
     0
176
     0
290
     0
176
     0
290
     0
176
     0
290
     0
176
     0
290
     0
176
     0
 90
       50
176
     0
 40
0.0
176
     0
 40
1.0
176
     0
 90
        0
176
     0
 62
    18
420
        0
176
     0
 90
       50
176
     0
 90
        3
176
     0
 62
     5
420
      255
176
     0
290
     0
176
     0
 90
       50
176
     0
 90
       50
176
     0
 90
       50
176
     0
290
     0
176
     0
 90
       50
176
     0
 62
   256
176
     0
 40
1.0
176
     0
 90
        2
176
     0
  1
strokes_ogs.tif
176
     0
290
     0
176
     0
 40
1.0
176
     0
 40
1.0
176
     0
  0
VISUALSTYLE
  5
396
102
{ACAD_REACTORS
330
388
102
}
330
388
100
AcDbVisualStyle
  2
Linepattern
 70
    14
177
     3
291
     1
 70
    58
 90
        2
176
     1
 90
        2
176
     1
 90
        0
176
     1
 90
        0
176
     1
 40
0.6
176
     1
 40
30.0
176
     1
 62
     7
420
 16777215
176
     1
 90
        1
176
     1
 90
        4
176
     1
 62
     7
176
     1
 62
   257
176
     1
 90
        7
176
     1
 90
        7
176
     1
 40
1.0
176
     1
 90
        8
176
     1
 62
     7
176
     1
 40
1.0
176
     1
 90
        1
176
     1
 90
        6
176
     1
 90
        2
176
     1
 62
     7
176
     1
 90
        5
176
     1
 90
        0
176
     1
 90
        0
176
     1
290
     0
176
     1
 90
        1
176
     1
 40
0.0
176
     1
 90
        0
176
     1
290
     0
176
     1
290
     1
176
     1
290
     1
176
     1
290
     0
176
     1
290
     0
176
     1
290
     0
176
     1
290
     0
176
     1
290
     0
176
     1
290
     0
176
     1
 90
       50
176
     1
 40
0.0
176
     1
 40
1.0
176
     1
 90
        0
176
     1
 62
    18
420
        0
176
     1
 90
       50
176
     1
 90
        3
176
     1
 62
     5
420
      255
176
     1
290
     0
176
     1
 90
       50
176
     1
 90
       50
176
     1
 90
       50
176
     1
290
     0
176
     1
 90
       50
176
     1
 62
   256
176
     0
 40
1.0
176
     0
 90
        2
176
     1
  1
strokes_ogs.tif
176
     1
290
     0
176
     1
 40
1.0
176
     1
 40
1.0
176
     1
  0
VISUALSTYLE
  5
39A
102
{ACAD_REACTORS
330
388
102
}
330
388
100
AcDbVisualStyle
  2
OverhangOff
 70
    21
177
     3
291
     1
 70
    58
 90
        2
176
     0
 90
        2
176
     0
 90
        0
176
     0
 90
        0
176
     0
 40
0.6
176
     0
 40
30.0
176
     0
 62
     7
420
 16777215
176
     0
 90
        1
176
     0
 90
        4
176
     0
 62
     7
176
     0
 62
   257
176
     0
 90
        1
176
     0
 90
        1
176
     0
 40
1.0
176
     0
 90
        9
176
     2
 62
     7
176
     0
 40
1.0
176
     0
 90
        1
176
     0
 90
        6
176
     0
 90
        2
176
     0
 62
     7
176
     0
 90
        5
176
     0
 90
        0
176
     0
 90
        0
176
     0
290
     0
176
     0
 90
        1
176
     0
 40
0.0
176
     0
 90
        0
176
     0
290
     0
176
     0
290
     1
176
     0
290
     1
176
     0
290
     0
176
     0
290
     0
176
     0
290
     0
176
     0
290
     0
176
     0
290
     0
176
     0
290
     0
176
     0
 90
       50
176
     0
 40
0.0
176
     0
 40
1.0
176
     0
 90
        0
176
     0
 62
    18
420
        0
176
     0
 90
       50
176
     0
 90
        3
176
     0
 62
     5
420
      255
176
     0
290
     0
176
     0
 90
       50
176
     0
 90
       50
176
     0
 90
       50
176
     0
290
     0
176
     0
 90
       50
176
     0
 62
   256
176
     0
 40
1.0
176
     0
 90
        2
176
     0
  1
strokes_ogs.tif
176
     0
290
     0
176
     0
 40
1.0
176
     0
 40
1.0
176
     0
  0
VISUALSTYLE
  5
391
102
{ACAD_REACTORS
330
388
102
}
330
388
100
AcDbVisualStyle
  2
Realistic
 70
     8
177
     3
291
     0
 70
    58
 90
        2
176
     1
 90
        3
176
     1
 90
        0
176
     1
 90
        2
176
     1
 40
0.6
176
     1
 40
30.0
176
     1
 62
     7
420
 16777215
176
     1
 90
        0
176
     1
 90
        0
176
     1
 62
     7
176
     1
 62
   257
176
     1
 90
        1
176
     1
 90
        1
176
     1
 40
1.0
176
     1
 90
        8
176
     1
 62
   257
176
     1
 40
1.0
176
     1
 90
        1
176
     1
 90
        6
176
     1
 90
        2
176
     1
 62
     7
176
     1
 90
        3
176
     1
 90
        0
176
     1
 90
        0
176
     1
290
     0
176
     1
 90
       13
176
     1
 40
0.0
176
     1
 90
        0
176
     1
290
     0
176
     1
290
     1
176
     1
290
     1
176
     1
290
     0
176
     1
290
     0
176
     1
290
     0
176
     1
290
     0
176
     1
290
     0
176
     1
290
     0
176
     1
 90
       50
176
     1
 40
0.0
176
     1
 40
1.0
176
     1
 90
        0
176
     1
 62
    18
420
        0
176
     1
 90
       50
176
     1
 90
        3
176
     1
 62
     5
420
      255
176
     1
290
     0
176
     1
 90
       50
176
     1
 90
       50
176
     1
 90
       50
176
     1
290
     0
176
     1
 90
       50
176
     1
 62
   256
176
     0
 40
1.0
176
     0
 90
        2
176
     1
  1
strokes_ogs.tif
176
     1
290
     0
176
     1
 40
1.0
176
     1
 40
1.0
176
     1
  0
VISUALSTYLE
  5
3A0
102
{ACAD_REACTORS
330
388
102
}
330
388
100
AcDbVisualStyle
  2
Shaded
 70
    27
177
     3
291
     0
 70
    58
 90
        2
176
     1
 90
        2
176
     1
 90
        1
176
     1
 90
        2
176
     1
 40
0.6
176
     1
 40
30.0
176
     1
 62
     7
420
 16777215
176
     1
 90
        0
176
     1
 90
        4
176
     1
 62
     7
176
     1
 62
   257
176
     1
 90
        1
176
     1
 90
        1
176
     1
 40
1.0
176
     1
 90
        8
176
     1
 62
   257
176
     1
 40
1.0
176
     1
 90
        1
176
     1
 90
        6
176
     1
 90
        2
176
     1
 62
     8
420
  7895160
176
     1
 90
        3
176
     1
 90
        0
176
     1
 90
        0
176
     1
290
     0
176
     1
 90
        5
176
     1
 40
0.0
176
     1
 90
        0
176
     1
290
     0
176
     1
290
     1
176
     1
290
     1
176
     1
290
     0
176
     1
290
     0
176
     1
290
     0
176
     1
290
     0
176
     1
290
     0
176
     1
290
     0
176
     1
 90
       50
176
     1
 40
0.0
176
     1
 40
1.0
176
     1
 90
        0
176
     1
 62
    18
420
        0
176
     1
 90
       50
176
     1
 90
        3
176
     1
 62
     5
420
      255
176
     1
290
     0
176
     1
 90
       50
176
     1
 90
       50
176
     1
 90
       50
176
     1
290
     0
176
     1
 90
       50
176
     1
 62
   256
176
     0
 40
1.0
176
     0
 90
        2
176
     1
  1
strokes_ogs.tif
176
     1
290
     0
176
     1
 40
1.0
176
     1
 40
1.0
176
     1
  0
VISUALSTYLE
  5
39F
102
{ACAD_REACTORS
330
388
102
}
330
388
100
AcDbVisualStyle
  2
Shaded with edges
 70
    26
177
     3
291
     0
 70
    58
 90
        2
176
     1
 90
        2
176
     1
 90
        1
176
     1
 90
        2
176
     1
 40
0.6
176
     1
 40
30.0
176
     1
 62
     7
420
 16777215
176
     1
 90
        1
176
     1
 90
       10
176
     1
 62
     7
176
     1
 62
   257
176
     1
 90
        2
176
     1
 90
        1
176
     1
 40
1.0
176
     1
 90
        8
176
     1
 62
   257
176
     1
 40
1.0
176
     1
 90
        1
176
     1
 90
        6
176
     1
 90
        2
176
     1
 62
     7
176
     1
 90
        3
176
     1
 90
        0
176
     1
 90
        0
176
     1
290
     0
176
     1
 90
        5
176
     1
 40
0.0
176
     1
 90
        0
176
     1
290
     0
176
     1
290
     1
176
     1
290
     1
176
     1
290
     0
176
     1
290
     0
176
     1
290
     0
176
     1
290
     0
176
     1
290
     0
176
     1
290
     0
176
     1
 90
       50
176
     1
 40
0.0
176
     1
 40
1.0
176
     1
 90
        0
176
     1
 62
    18
420
        0
176
     1
 90
       50
176
     1
 90
        3
176
     1
 62
     5
420
      255
176
     1
290
     0
176
     1
 90
       50
176
     1
 90
       50
176
     1
 90
       50
176
     1
290
     0
176
     1
 90
       50
176
     1
 62
   256
176
     0
 40
1.0
176
     0
 90
        2
176
     1
  1
strokes_ogs.tif
176
     1
290
     0
176
     1
 40
1.0
176
     1
 40
1.0
176
     1
  0
VISUALSTYLE
  5
39C
102
{ACAD_REACTORS
330
388
102
}
330
388
100
AcDbVisualStyle
  2
Shades of Gray
 70
    23
177
     3
291
     0
 70
    58
 90
        2
176
     1
 90
        2
176
     1
 90
        3
176
     1
 90
        0
176
     1
 40
0.6
176
     1
 40
30.0
176
     1
 62
     7
420
 16777215
176
     1
 90
        2
176
     1
 90
        2
176
     1
 62
     7
176
     1
 62
     7
176
     1
 90
        1
176
     1
 90
        1
176
     1
 40
40.0
176
     1
 90
        8
176
     1
 62
     7
176
     1
 40
1.0
176
     1
 90
        1
176
     1
 90
        6
176
     1
 90
        2
176
     1
 62
     7
176
     1
 90
        3
176
     1
 90
        0
176
     1
 90
        0
176
     1
290
     0
176
     1
 90
        1
176
     1
 40
0.0
176
     1
 90
        0
176
     1
290
     0
176
     1
290
     1
176
     1
290
     1
176
     1
290
     0
176
     1
290
     0
176
     1
290
     0
176
     1
290
     0
176
     1
290
     0
176
     1
290
     0
176
     1
 90
       50
176
     1
 40
0.0
176
     1
 40
1.0
176
     1
 90
        0
176
     1
 62
    18
420
        0
176
     1
 90
       50
176
     1
 90
        3
176
     1
 62
     5
420
      255
176
     1
290
     0
176
     1
 90
       50
176
     1
 90
       50
176
     1
 90
       50
176
     1
290
     0
176
     1
 90
       50
176
     1
 62
   256
176
     0
 40
1.0
176
     0
 90
        2
176
     1
  1
strokes_ogs.tif
176
     1
290
     0
176
     1
 40
1.0
176
     1
 40
1.0
176
     1
  0
VISUALSTYLE
  5
39D
102
{ACAD_REACTORS
330
388
102
}
330
388
100
AcDbVisualStyle
  2
Sketchy
 70
    24
177
     3
291
     0
 70
    58
 90
        1
176
     1
 90
        2
176
     1
 90
        2
176
     1
 90
        0
176
     1
 40
0.6
176
     1
 40
30.0
176
     1
 62
     7
420
 16777215
176
     1
 90
        2
176
     1
 90
        2
176
     1
 62
     7
176
     1
 62
     7
176
     1
 90
        1
176
     1
 90
        1
176
     1
 40
40.0
176
     1
 90
       11
176
     1
 62
     7
176
     1
 40
1.0
176
     1
 90
        1
176
     1
 90
        6
176
     1
 90
        2
176
     1
 62
     7
176
     1
 90
        6
176
     1
 90
        0
176
     1
 90
        0
176
     1
290
     0
176
     1
 90
        1
176
     1
 40
0.0
176
     1
 90
        0
176
     1
290
     0
176
     1
290
     1
176
     1
290
     1
176
     1
290
     0
176
     1
290
     0
176
     1
290
     0
176
     1
290
     0
176
     1
290
     0
176
     1
290
     0
176
     1
 90
       50
176
     1
 40
0.0
176
     1
 40
1.0
176
     1
 90
        0
176
     1
 62
    18
420
        0
176
     1
 90
       50
176
     1
 90
        3
176
     1
 62
     5
420
      255
176
     1
290
     0
176
     1
 90
       50
176
     1
 90
       50
176
     1
 90
       50
176
     1
290
     0
176
     1
 90
       50
176
     1
 62
   256
176
     0
 40
1.0
176
     0
 90
        2
176
     1
  1
strokes_ogs.tif
176
     1
290
     0
176
     1
 40
1.0
176
     1
 40
1.0
176
     1
  0
VISUALSTYLE
  5
395
102
{ACAD_REACTORS
330
388
102
}
330
388
100
AcDbVisualStyle
  2
Thicken
 70
    13
177
     3
291
     1
 70
    58
 90
        2
176
     1
 90
        2
176
     1
 90
        0
176
     1
 90
        0
176
     1
 40
0.6
176
     1
 40
30.0
176
     1
 62
     7
420
 16777215
176
     1
 90
        1
176
     1
 90
        4
176
     1
 62
     7
176
     1
 62
   257
176
     1
 90
        1
176
     1
 90
        1
176
     1
 40
1.0
176
     1
 90
       12
176
     1
 62
     7
176
     1
 40
1.0
176
     1
 90
        1
176
     1
 90
        6
176
     1
 90
        2
176
     1
 62
     7
176
     1
 90
        5
176
     1
 90
        0
176
     1
 90
        0
176
     1
290
     0
176
     1
 90
        1
176
     1
 40
0.0
176
     1
 90
        0
176
     1
290
     0
176
     1
290
     1
176
     1
290
     1
176
     1
290
     0
176
     1
290
     0
176
     1
290
     0
176
     1
290
     0
176
     1
290
     0
176
     1
290
     0
176
     1
 90
       50
176
     1
 40
0.0
176
     1
 40
1.0
176
     1
 90
        0
176
     1
 62
    18
420
        0
176
     1
 90
       50
176
     1
 90
        3
176
     1
 62
     5
420
      255
176
     1
290
     0
176
     1
 90
       50
176
     1
 90
       50
176
     1
 90
       50
176
     1
290
     0
176
     1
 90
       50
176
     1
 62
   256
176
     0
 40
1.0
176
     0
 90
        2
176
     1
  1
strokes_ogs.tif
176
     1
290
     0
176
     1
 40
1.0
176
     1
 40
1.0
176
     1
  0
VISUALSTYLE
  5
38E
102
{ACAD_REACTORS
330
388
102
}
330
388
100
AcDbVisualStyle
  2
Wireframe
 70
     5
177
     3
291
     0
 70
    58
 90
        0
176
     1
 90
        2
176
     1
 90
        0
176
     1
 90
        0
176
     1
 40
0.6
176
     1
 40
30.0
176
     1
 62
     7
420
 16777215
176
     1
 90
        1
176
     1
 90
        4
176
     1
 62
     7
176
     1
 62
   257
176
     1
 90
        1
176
     1
 90
        1
176
     1
 40
1.0
176
     1
 90
        0
176
     1
 62
   257
176
     1
 40
1.0
176
     1
 90
        1
176
     1
 90
        6
176
     1
 90
        2
176
     1
 62
     7
176
     1
 90
        3
176
     1
 90
        0
176
     1
 90
        0
176
     1
290
     0
176
     1
 90
        1
176
     1
 40
0.0
176
     1
 90
        0
176
     1
290
     0
176
     1
290
     1
176
     1
290
     1
176
     1
290
     0
176
     1
290
     0
176
     1
290
     0
176
     1
290
     0
176
     1
290
     0
176
     1
290
     0
176
     1
 90
       50
176
     1
 40
0.0
176
     1
 40
1.0
176
     1
 90
        0
176
     1
 62
    18
420
        0
176
     1
 90
       50
176
     1
 90
        3
176
     1
 62
     5
420
      255
176
     1
290
     0
176
     1
 90
       50
176
     1
 90
       50
176
     1
 90
       50
176
     1
290
     0
176
     1
 90
       50
176
     1
 62
   256
176
     0
 40
1.0
176
     0
 90
        2
176
     1
  1
strokes_ogs.tif
176
     1
290
     0
176
     1
 40
1.0
176
     1
 40
1.0
176
     1
  0
VISUALSTYLE
  5
39E
102
{ACAD_REACTORS
330
388
102
}
330
388
100
AcDbVisualStyle
  2
X-Ray
 70
    25
177
     3
291
     0
 70
    58
 90
        2
176
     1
 90
        2
176
     1
 90
        1
176
     1
 90
        1
176
     1
 40
0.5
176
     1
 40
30.0
176
     1
 62
     7
420
 16777215
176
     1
 90
        1
176
     1
 90
        0
176
     1
 62
     7
176
     1
 62
   257
176
     1
 90
        1
176
     1
 90
        1
176
     1
 40
1.0
176
     1
 90
        8
176
     1
 62
     7
176
     1
 40
1.0
176
     1
 90
        1
176
     1
 90
        6
176
     1
 90
        2
176
     1
 62
     7
176
     1
 90
        3
176
     1
 90
        0
176
     1
 90
        0
176
     1
290
     0
176
     1
 90
       13
176
     1
 40
0.0
176
     1
 90
        0
176
     1
290
     0
176
     1
290
     1
176
     1
290
     1
176
     1
290
     0
176
     1
290
     0
176
     1
290
     0
176
     1
290
     0
176
     1
290
     0
176
     1
290
     0
176
     1
 90
       50
176
     1
 40
0.0
176
     1
 40
1.0
176
     1
 90
        0
176
     1
 62
    18
420
        0
176
     1
 90
       50
176
     1
 90
        3
176
     1
 62
     5
420
      255
176
     1
290
     0
176
     1
 90
       50
176
     1
 90
       50
176
     1
 90
       50
176
     1
290
     0
176
     1
 90
       50
176
     1
 62
   256
176
     0
 40
1.0
176
     0
 90
        2
176
     1
  1
strokes_ogs.tif
176
     1
290
     0
176
     1
 40
1.0
176
     1
 40
1.0
176
     1
  0
DICTIONARYVAR
  5
3A9
102
{ACAD_REACTORS
330
3A8
102
}
330
3A8
100
DictionaryVariables
280
     0
  1
1:1
  0
DICTIONARYVAR
  5
3AE
102
{ACAD_REACTORS
330
3A8
102
}
330
3A8
100
DictionaryVariables
280
     0
  1
Standard
  0
DICTIONARYVAR
  5
3AD
102
{ACAD_REACTORS
330
3A8
102
}
330
3A8
100
DictionaryVariables
280
     0
  1
Standard
  0
DICTIONARYVAR
  5
3AF
102
{ACAD_REACTORS
330
3A8
102
}
330
3A8
100
DictionaryVariables
280
     0
  1
0
  0
DICTIONARY
  5
3AA
330
3A2
100
AcDbDictionary
280
     1
281
     1
  3
ACAD_ROUNDTRIP_2008_TABLESTYLE_CELLSTYLEMAP
360
3AB
  0
CELLSTYLEMAP
  5
3AB
102
{ACAD_REACTORS
330
3AA
102
}
330
3AA
100
AcDbCellStyleMap
 90
        3
300
CELLSTYLE
  1
TABLEFORMAT_BEGIN
 90
        5
170
     1
 91
        0
 92
    32768
 62
   257
 93
        1
300
CONTENTFORMAT
  1
CONTENTFORMAT_BEGIN
 90
        0
 91
        0
 92
        4
 93
        0
300

 40
0.0
140
1.0
 94
        5
 62
     0
340
318
144
0.25
309
CONTENTFORMAT_END
171
     1
301
MARGIN
  1
CELLMARGIN_BEGIN
 40
0.06
 40
0.06
 40
0.06
 40
0.06
 40
0.06
 40
0.06
309
CELLMARGIN_END
 94
        6
 95
        1
302
GRIDFORMAT
  1
GRIDFORMAT_BEGIN
 90
        0
 91
        1
 62
     0
 92
       -2
340
31A
 93
        0
 40
0.045
309
GRIDFORMAT_END
 95
        2
302
GRIDFORMAT
  1
GRIDFORMAT_BEGIN
 90
        0
 91
        1
 62
     0
 92
       -2
340
31A
 93
        0
 40
0.045
309
GRIDFORMAT_END
 95
        4
302
GRIDFORMAT
  1
GRIDFORMAT_BEGIN
 90
        0
 91
        1
 62
     0
 92
       -2
340
31A
 93
        0
 40
0.045
309
GRIDFORMAT_END
 95
        8
302
GRIDFORMAT
  1
GRIDFORMAT_BEGIN
 90
        0
 91
        1
 62
     0
 92
       -2
340
31A
 93
        0
 40
0.045
309
GRIDFORMAT_END
 95
       16
302
GRIDFORMAT
  1
GRIDFORMAT_BEGIN
 90
        0
 91
        1
 62
     0
 92
       -2
340
31A
 93
        0
 40
0.045
309
GRIDFORMAT_END
 95
       32
302
GRIDFORMAT
  1
GRIDFORMAT_BEGIN
 90
        0
 91
        1
 62
     0
 92
       -2
340
31A
 93
        0
 40
0.045
309
GRIDFORMAT_END
309
TABLEFORMAT_END
  1
CELLSTYLE_BEGIN
 90
        1
 91
        1
300
_TITLE
309
CELLSTYLE_END
300
CELLSTYLE
  1
TABLEFORMAT_BEGIN
 90
        5
170
     1
 91
        0
 92
        0
 62
   257
 93
        1
300
CONTENTFORMAT
  1
CONTENTFORMAT_BEGIN
 90
        0
 91
        0
 92
        4
 93
        0
300

 40
0.0
140
1.0
 94
        5
 62
     0
340
318
144
0.18
309
CONTENTFORMAT_END
171
     1
301
MARGIN
  1
CELLMARGIN_BEGIN
 40
0.06
 40
0.06
 40
0.06
 40
0.06
 40
0.06
 40
0.06
309
CELLMARGIN_END
 94
        6
 95
        1
302
GRIDFORMAT
  1
GRIDFORMAT_BEGIN
 90
        0
 91
        1
 62
     0
 92
       -2
340
31A
 93
        0
 40
0.045
309
GRIDFORMAT_END
 95
        2
302
GRIDFORMAT
  1
GRIDFORMAT_BEGIN
 90
        0
 91
        1
 62
     0
 92
       -2
340
31A
 93
        0
 40
0.045
309
GRIDFORMAT_END
 95
        4
302
GRIDFORMAT
  1
GRIDFORMAT_BEGIN
 90
        0
 91
        1
 62
     0
 92
       -2
340
31A
 93
        0
 40
0.045
309
GRIDFORMAT_END
 95
        8
302
GRIDFORMAT
  1
GRIDFORMAT_BEGIN
 90
        0
 91
        1
 62
     0
 92
       -2
340
31A
 93
        0
 40
0.045
309
GRIDFORMAT_END
 95
       16
302
GRIDFORMAT
  1
GRIDFORMAT_BEGIN
 90
        0
 91
        1
 62
     0
 92
       -2
340
31A
 93
        0
 40
0.045
309
GRIDFORMAT_END
 95
       32
302
GRIDFORMAT
  1
GRIDFORMAT_BEGIN
 90
        0
 91
        1
 62
     0
 92
       -2
340
31A
 93
        0
 40
0.045
309
GRIDFORMAT_END
309
TABLEFORMAT_END
  1
CELLSTYLE_BEGIN
 90
        2
 91
        1
300
_HEADER
309
CELLSTYLE_END
300
CELLSTYLE
  1
TABLEFORMAT_BEGIN
 90
        5
170
     1
 91
        0
 92
        0
 62
   257
 93
        1
300
CONTENTFORMAT
  1
CONTENTFORMAT_BEGIN
 90
        0
 91
        0
 92
        4
 93
        0
300

 40
0.0
140
1.0
 94
        2
 62
     0
340
318
144
0.18
309
CONTENTFORMAT_END
171
     1
301
MARGIN
  1
CELLMARGIN_BEGIN
 40
0.06
 40
0.06
 40
0.06
 40
0.06
 40
0.06
 40
0.06
309
CELLMARGIN_END
 94
        6
 95
        1
302
GRIDFORMAT
  1
GRIDFORMAT_BEGIN
 90
        0
 91
        1
 62
     0
 92
       -2
340
31A
 93
        0
 40
0.045
309
GRIDFORMAT_END
 95
        2
302
GRIDFORMAT
  1
GRIDFORMAT_BEGIN
 90
        0
 91
        1
 62
     0
 92
       -2
340
31A
 93
        0
 40
0.045
309
GRIDFORMAT_END
 95
        4
302
GRIDFORMAT
  1
GRIDFORMAT_BEGIN
 90
        0
 91
        1
 62
     0
 92
       -2
340
31A
 93
        0
 40
0.045
309
GRIDFORMAT_END
 95
        8
302
GRIDFORMAT
  1
GRIDFORMAT_BEGIN
 90
        0
 91
        1
 62
     0
 92
       -2
340
31A
 93
        0
 40
0.045
309
GRIDFORMAT_END
 95
       16
302
GRIDFORMAT
  1
GRIDFORMAT_BEGIN
 90
        0
 91
        1
 62
     0
 92
       -2
340
31A
 93
        0
 40
0.045
309
GRIDFORMAT_END
 95
       32
302
GRIDFORMAT
  1
GRIDFORMAT_BEGIN
 90
        0
 91
        1
 62
     0
 92
       -2
340
31A
 93
        0
 40
0.045
309
GRIDFORMAT_END
309
TABLEFORMAT_END
  1
CELLSTYLE_BEGIN
 90
        3
 91
        2
300
_DATA
309
CELLSTYLE_END
  0
ENDSEC
  0
EOF
