  0
SECTION
  2
HEADER
  9
$ACADVER
  1
AC1027
  9
$ACADMAINTVER
 70
   105
  9
$DWGCODEPAGE
  3
ANSI_1252
  9
$REQUIREDVERSIONS
160
                 0
  9
$INSBASE
 10
0.0
 20
0.0
 30
0.0
  9
$EXTMIN
 10
0.0
 20
0.0
 30
0.0
  9
$EXTMAX
 10
840.0
 20
594.0
 30
0.0
  9
$LIMMIN
 10
0.0
 20
0.0
  9
$LIMMAX
 10
840.0
 20
594.0
  9
$ORTHOMODE
 70
     0
  9
$REGENMODE
 70
     1
  9
$FILLMODE
 70
     1
  9
$QTEXTMODE
 70
     0
  9
$MIRRTEXT
 70
     1
  9
$LTSCALE
 40
2.0
  9
$ATTMODE
 70
     1
  9
$TEXTSIZE
 40
7.0
  9
$TRACEWID
 40
1.0
  9
$TEXTSTYLE
  7
Standard
  9
$CLAYER
  8
0
  9
$CELTYPE
  6
ByLayer
  9
$CECOLOR
 62
   256
  9
$CELTSCALE
 40
1.0
  9
$DISPSILH
 70
     0
  9
$DIMSCALE
 40
1.0
  9
$DIMASZ
 40
14.0
  9
$DIMEXO
 40
2.0
  9
$DIMDLI
 40
3.75
  9
$DIMRND
 40
0.0
  9
$DIMDLE
 40
0.0
  9
$DIMEXE
 40
2.0
  9
$DIMTP
 40
0.0
  9
$DIMTM
 40
0.0
  9
$DIMTXT
 40
14.0
  9
$DIMCEN
 40
2.5
  9
$DIMTSZ
 40
0.0
  9
$DIMTOL
 70
     0
  9
$DIMLIM
 70
     0
  9
$DIMTIH
 70
     1
  9
$DIMTOH
 70
     1
  9
$DIMSE1
 70
     0
  9
$DIMSE2
 70
     0
  9
$DIMTAD
 70
     1
  9
$DIMZIN
 70
     1
  9
$DIMBLK
  1

  9
$DIMASO
 70
     1
  9
$DIMSHO
 70
     1
  9
$DIMPOST
  1

  9
$DIMAPOST
  1

  9
$DIMALT
 70
     0
  9
$DIMALTD
 70
     3
  9
$DIMALTF
 40
0.0393700787
  9
$DIMLFAC
 40
1.0
  9
$DIMTOFL
 70
     1
  9
$DIMTVP
 40
0.0
  9
$DIMTIX
 70
     0
  9
$DIMSOXD
 70
     0
  9
$DIMSAH
 70
     0
  9
$DIMBLK1
  1

  9
$DIMBLK2
  1

  9
$DIMSTYLE
  2
ISO-25
  9
$DIMCLRD
 70
     0
  9
$DIMCLRE
 70
     0
  9
$DIMCLRT
 70
     0
  9
$DIMTFAC
 40
1.0
  9
$DIMGAP
 40
3.048
  9
$DIMJUST
 70
     0
  9
$DIMSD1
 70
     0
  9
$DIMSD2
 70
     0
  9
$DIMTOLJ
 70
     0
  9
$DIMTZIN
 70
     1
  9
$DIMALTZ
 70
     0
  9
$DIMALTTZ
 70
     0
  9
$DIMUPT
 70
     0
  9
$DIMDEC
 70
     2
  9
$DIMTDEC
 70
     2
  9
$DIMALTU
 70
     2
  9
$DIMALTTD
 70
     3
  9
$DIMTXSTY
  7
Standard
  9
$DIMAUNIT
 70
     0
  9
$DIMADEC
 70
     2
  9
$DIMALTRND
 40
0.0
  9
$DIMAZIN
 70
     0
  9
$DIMDSEP
 70
    44
  9
$DIMATFIT
 70
     3
  9
$DIMFRAC
 70
     0
  9
$DIMLDRBLK
  1

  9
$DIMLUNIT
 70
     2
  9
$DIMLWD
 70
    -2
  9
$DIMLWE
 70
    -2
  9
$DIMTMOVE
 70
     0
  9
$DIMFXL
 40
1.0
  9
$DIMFXLON
 70
     0
  9
$DIMJOGANG
 40
0.7853981634
  9
$DIMTFILL
 70
     0
  9
$DIMTFILLCLR
 70
     0
  9
$DIMARCSYM
 70
     0
  9
$DIMLTYPE
  6

  9
$DIMLTEX1
  6

  9
$DIMLTEX2
  6

  9
$DIMTXTDIRECTION
 70
     0
  9
$LUNITS
 70
     2
  9
$LUPREC
 70
     2
  9
$SKETCHINC
 40
1.0
  9
$FILLETRAD
 40
10.0
  9
$AUNITS
 70
     0
  9
$AUPREC
 70
     2
  9
$MENU
  1
.
  9
$ELEVATION
 40
0.0
  9
$PELEVATION
 40
0.0
  9
$THICKNESS
 40
0.0
  9
$LIMCHECK
 70
     0
  9
$CHAMFERA
 40
0.0
  9
$CHAMFERB
 40
0.0
  9
$CHAMFERC
 40
0.0
  9
$CHAMFERD
 40
0.0
  9
$SKPOLY
 70
     0
  9
$TDCREATE
 40
2458897.41103015
  9
$TDUCREATE
 40
2458897.369363484
  9
$TDUPDATE
 40
2458897.4110325
  9
$TDUUPDATE
 40
2458897.369365833
  9
$TDINDWG
 40
0.0000000116
  9
$TDUSRTIMER
 40
0.0000000116
  9
$USRTIMER
 70
     1
  9
$ANGBASE
 50
0.0
  9
$ANGDIR
 70
     0
  9
$PDMODE
 70
     0
  9
$PDSIZE
 40
-1.0
  9
$PLINEWID
 40
0.0
  9
$SPLFRAME
 70
     0
  9
$SPLINETYPE
 70
     6
  9
$SPLINESEGS
 70
     8
  9
$HANDSEED
  5
354
  9
$SURFTAB1
 70
     6
  9
$SURFTAB2
 70
     6
  9
$SURFTYPE
 70
     6
  9
$SURFU
 70
     6
  9
$SURFV
 70
     6
  9
$UCSBASE
  2

  9
$UCSNAME
  2

  9
$UCSORG
 10
0.0
 20
0.0
 30
0.0
  9
$UCSXDIR
 10
1.0
 20
0.0
 30
0.0
  9
$UCSYDIR
 10
0.0
 20
1.0
 30
0.0
  9
$UCSORTHOREF
  2

  9
$UCSORTHOVIEW
 70
     0
  9
$UCSORGTOP
 10
0.0
 20
0.0
 30
0.0
  9
$UCSORGBOTTOM
 10
0.0
 20
0.0
 30
0.0
  9
$UCSORGLEFT
 10
0.0
 20
0.0
 30
0.0
  9
$UCSORGRIGHT
 10
0.0
 20
0.0
 30
0.0
  9
$UCSORGFRONT
 10
0.0
 20
0.0
 30
0.0
  9
$UCSORGBACK
 10
0.0
 20
0.0
 30
0.0
  9
$PUCSBASE
  2

  9
$PUCSNAME
  2

  9
$PUCSORG
 10
0.0
 20
0.0
 30
0.0
  9
$PUCSXDIR
 10
1.0
 20
0.0
 30
0.0
  9
$PUCSYDIR
 10
0.0
 20
1.0
 30
0.0
  9
$PUCSORTHOREF
  2

  9
$PUCSORTHOVIEW
 70
     0
  9
$PUCSORGTOP
 10
0.0
 20
0.0
 30
0.0
  9
$PUCSORGBOTTOM
 10
0.0
 20
0.0
 30
0.0
  9
$PUCSORGLEFT
 10
0.0
 20
0.0
 30
0.0
  9
$PUCSORGRIGHT
 10
0.0
 20
0.0
 30
0.0
  9
$PUCSORGFRONT
 10
0.0
 20
0.0
 30
0.0
  9
$PUCSORGBACK
 10
0.0
 20
0.0
 30
0.0
  9
$USERI1
 70
     0
  9
$USERI2
 70
     0
  9
$USERI3
 70
     0
  9
$USERI4
 70
     0
  9
$USERI5
 70
     0
  9
$USERR1
 40
0.0
  9
$USERR2
 40
0.0
  9
$USERR3
 40
0.0
  9
$USERR4
 40
0.0
  9
$USERR5
 40
0.0
  9
$WORLDVIEW
 70
     1
  9
$SHADEDGE
 70
     3
  9
$SHADEDIF
 70
    70
  9
$TILEMODE
 70
     1
  9
$MAXACTVP
 70
    64
  9
$PINSBASE
 10
0.0
 20
0.0
 30
0.0
  9
$PLIMCHECK
 70
     0
  9
$PEXTMIN
 10
1.0000000000E+20
 20
1.0000000000E+20
 30
1.0000000000E+20
  9
$PEXTMAX
 10
-1.0000000000E+20
 20
-1.0000000000E+20
 30
-1.0000000000E+20
  9
$PLIMMIN
 10
0.0
 20
0.0
  9
$PLIMMAX
 10
420.0
 20
297.0
  9
$UNITMODE
 70
     0
  9
$VISRETAIN
 70
     1
  9
$PLINEGEN
 70
     0
  9
$PSLTSCALE
 70
     1
  9
$TREEDEPTH
 70
  3020
  9
$CMLSTYLE
  2
Standard
  9
$CMLJUST
 70
     0
  9
$CMLSCALE
 40
20.0
  9
$PROXYGRAPHICS
 70
     1
  9
$MEASUREMENT
 70
     1
  9
$CELWEIGHT
370
    -1
  9
$ENDCAPS
280
     0
  9
$JOINSTYLE
280
     0
  9
$LWDISPLAY
290
     1
  9
$INSUNITS
 70
     4
  9
$HYPERLINKBASE
  1

  9
$STYLESHEET
  1

  9
$XEDIT
290
     1
  9
$CEPSNTYPE
380
     0
  9
$PSTYLEMODE
290
     1
  9
$FINGERPRINTGUID
  2
{5414ADF2-6EE8-4BF4-963D-2D14FEDC26C4}
  9
$VERSIONGUID
  2
{FAEB1C32-E019-11D5-929B-00C0DF256EC4}
  9
$EXTNAMES
290
     1
  9
$PSVPSCALE
 40
0.0
  9
$OLESTARTUP
290
     0
  9
$SORTENTS
280
   127
  9
$INDEXCTL
280
     0
  9
$HIDETEXT
280
     1
  9
$XCLIPFRAME
280
     2
  9
$HALOGAP
280
     0
  9
$OBSCOLOR
 70
   257
  9
$OBSLTYPE
280
     0
  9
$INTERSECTIONDISPLAY
280
     0
  9
$INTERSECTIONCOLOR
 70
   257
  9
$DIMASSOC
280
     2
  9
$PROJECTNAME
  1

  9
$CAMERADISPLAY
290
     0
  9
$LENSLENGTH
 40
50.0
  9
$CAMERAHEIGHT
 40
0.0
  9
$STEPSPERSEC
 40
2.0
  9
$STEPSIZE
 40
6.0
  9
$3DDWFPREC
 40
2.0
  9
$PSOLWIDTH
 40
5.0
  9
$PSOLHEIGHT
 40
80.0
  9
$LOFTANG1
 40
1.5707963268
  9
$LOFTANG2
 40
1.5707963268
  9
$LOFTMAG1
 40
0.0
  9
$LOFTMAG2
 40
0.0
  9
$LOFTPARAM
 70
     7
  9
$LOFTNORMALS
280
     1
  9
$LATITUDE
 40
37.795
  9
$LONGITUDE
 40
-122.394
  9
$NORTHDIRECTION
 40
0.0
  9
$TIMEZONE
 70
 -8000
  9
$LIGHTGLYPHDISPLAY
280
     1
  9
$TILEMODELIGHTSYNCH
280
     1
  9
$CMATERIAL
347
44
  9
$SOLIDHIST
280
     0
  9
$SHOWHIST
280
     1
  9
$DWFFRAME
280
     2
  9
$DGNFRAME
280
     2
  9
$REALWORLDSCALE
290
     1
  9
$INTERFERECOLOR
 62
   256
  9
$CSHADOW
280
     0
  9
$SHADOWPLANELOCATION
 40
0.0
  0
ENDSEC
  0
SECTION
  2
CLASSES
  0
CLASS
  1
ACDBDICTIONARYWDFLT
  2
AcDbDictionaryWithDefault
  3
ObjectDBX Classes
 90
        0
 91
        4
280
     0
281
     0
  0
CLASS
  1
VISUALSTYLE
  2
AcDbVisualStyle
  3
ObjectDBX Classes
 90
     4095
 91
        4
280
     0
281
     0
  0
CLASS
  1
MATERIAL
  2
AcDbMaterial
  3
ObjectDBX Classes
 90
     1153
 91
        4
280
     0
281
     0
  0
CLASS
  1
SCALE
  2
AcDbScale
  3
ObjectDBX Classes
 90
     1153
 91
        4
280
     0
281
     0
  0
CLASS
  1
TABLESTYLE
  2
AcDbTableStyle
  3
ObjectDBX Classes
 90
     4095
 91
        4
280
     0
281
     0
  0
CLASS
  1
MLEADERSTYLE
  2
AcDbMLeaderStyle
  3
ACDB_MLEADERSTYLE_CLASS
 90
     4095
 91
        4
280
     0
281
     0
  0
CLASS
  1
SUN
  2
AcDbSun
  3
SCENEOE
 90
     1153
 91
        4
280
     0
281
     0
  0
CLASS
  1
DICTIONARYVAR
  2
AcDbDictionaryVar
  3
ObjectDBX Classes
 90
        0
 91
        4
280
     0
281
     0
  0
CLASS
  1
CELLSTYLEMAP
  2
AcDbCellStyleMap
  3
ObjectDBX Classes
 90
     1152
 91
        4
280
     0
281
     0
  0
ENDSEC
  0
SECTION
  2
TABLES
  0
TABLE
  2
VPORT
  5
8
330
0
100
AcDbSymbolTable
 70
     1
  0
VPORT
  5
29
330
8
100
AcDbSymbolTableRecord
100
AcDbViewportTableRecord
  2
*Active
 70
     0
 10
0.0
 20
0.0
 11
1.0
 21
1.0
 12
420.0
 22
297.0
 13
0.0
 23
0.0
 14
10.0
 24
10.0
 15
10.0
 25
10.0
 16
0.0
 26
0.0
 36
1.0
 17
0.0
 27
0.0
 37
0.0
 40
594.0
 41
1.4141414141
 42
50.0
 43
0.0
 44
0.0
 50
0.0
 51
0.0
 71
     0
 72
  2000
 73
     1
 74
     3
 75
     0
 76
     0
 77
     0
 78
     0
281
     0
 65
     1
110
0.0
120
0.0
130
0.0
111
1.0
121
0.0
131
0.0
112
0.0
122
1.0
132
0.0
 79
     0
146
0.0
348
2F
 60
     3
 61
     5
292
     1
282
     1
141
0.0
142
0.0
 63
   250
361
6D
  0
ENDTAB
  0
TABLE
  2
LTYPE
  5
5
330
0
100
AcDbSymbolTable
 70
     8
  0
LTYPE
  5
14
330
5
100
AcDbSymbolTableRecord
100
AcDbLinetypeTableRecord
  2
ByBlock
 70
     0
  3

 72
    65
 73
     0
 40
0.0
  0
LTYPE
  5
15
330
5
100
AcDbSymbolTableRecord
100
AcDbLinetypeTableRecord
  2
ByLayer
 70
     0
  3

 72
    65
 73
     0
 40
0.0
  0
LTYPE
  5
16
330
5
100
AcDbSymbolTableRecord
100
AcDbLinetypeTableRecord
  2
Continuous
 70
     0
  3
Solid line
 72
    65
 73
     0
 40
0.0
  0
LTYPE
  5
6E
330
5
100
AcDbSymbolTableRecord
100
AcDbLinetypeTableRecord
  2
SLD-Durchgehend
 70
     0
  3
SolidWorks Line Style
 72
    65
 73
     0
 40
0.0
  0
LTYPE
  5
6F
330
5
100
AcDbSymbolTableRecord
100
AcDbLinetypeTableRecord
  2
SLD-Gestrichelt
 70
     0
  3
SolidWorks Line Style
 72
    65
 73
     2
 40
1.905
 49
1.27
 74
     0
 49
-0.635
 74
     0
  0
LTYPE
  5
70
330
5
100
AcDbSymbolTableRecord
100
AcDbLinetypeTableRecord
  2
SLD-Phantom
 70
     0
  3
SolidWorks Line Style
 72
    65
 73
     6
 40
12.7
 49
6.35
 74
     0
 49
-1.27
 74
     0
 49
1.27
 74
     0
 49
-1.27
 74
     0
 49
1.27
 74
     0
 49
-1.27
 74
     0
  0
LTYPE
  5
71
330
5
100
AcDbSymbolTableRecord
100
AcDbLinetypeTableRecord
  2
SLD-Kette
 70
     0
  3
SolidWorks Line Style
 72
    65
 73
     4
 40
10.16
 49
6.35
 74
     0
 49
-1.27
 74
     0
 49
1.27
 74
     0
 49
-1.27
 74
     0
  0
LTYPE
  5
72
330
5
100
AcDbSymbolTableRecord
100
AcDbLinetypeTableRecord
  2
SLD-Punktstrich
 70
     0
  3
SolidWorks Line Style
 72
    65
 73
     4
 40
19.05
 49
15.24
 74
     0
 49
-1.27
 74
     0
 49
1.27
 74
     0
 49
-1.27
 74
     0
  0
LTYPE
  5
73
330
5
100
AcDbSymbolTableRecord
100
AcDbLinetypeTableRecord
  2
SLD-Naht
 70
     0
  3
SolidWorks Line Style
 72
    65
 73
     2
 40
0.635
 49
0.0
 74
     0
 49
-0.635
 74
     0
  0
LTYPE
  5
74
330
5
100
AcDbSymbolTableRecord
100
AcDbLinetypeTableRecord
  2
SLD-Dicke-Dünne-Kette
 70
     0
  3
SolidWorks Line Style
 72
    65
 73
     4
 40
10.16
 49
6.35
 74
     0
 49
-1.27
 74
     0
 49
1.27
 74
     0
 49
-1.27
 74
     0
  0
ENDTAB
  0
TABLE
  2
LAYER
  5
2
330
0
100
AcDbSymbolTable
 70
     1
  0
LAYER
  5
10
330
2
100
AcDbSymbolTableRecord
100
AcDbLayerTableRecord
  2
0
 70
     0
 62
     7
  6
Continuous
370
    -3
390
F
347
46
348
0
  0
ENDTAB
  0
TABLE
  2
STYLE
  5
3
330
0
100
AcDbSymbolTable
 70
     3
  0
STYLE
  5
11
330
3
100
AcDbSymbolTableRecord
100
AcDbTextStyleTableRecord
  2
Standard
 70
     0
 40
0.0
 41
1.0
 50
0.0
 71
     0
 42
7.0
  3
txt
  4

  0
STYLE
  5
225
330
3
100
AcDbSymbolTableRecord
100
AcDbTextStyleTableRecord
  2
SLDTEXTSTYLE0
 70
     0
 40
0.0
 41
0.75
 50
0.0
 71
     0
 42
7.0
  3
TXT
  4

  0
STYLE
  5
315
330
3
100
AcDbSymbolTableRecord
100
AcDbTextStyleTableRecord
  2
SLDTEXTSTYLE1
 70
     0
 40
0.0
 41
0.605
 50
0.0
 71
     0
 42
7.0
  3
TXT
  4

  0
ENDTAB
  0
TABLE
  2
VIEW
  5
6
330
0
100
AcDbSymbolTable
 70
     0
  0
ENDTAB
  0
TABLE
  2
UCS
  5
7
330
0
100
AcDbSymbolTable
 70
     0
  0
ENDTAB
  0
TABLE
  2
APPID
  5
9
330
0
100
AcDbSymbolTable
 70
     1
  0
APPID
  5
12
330
9
100
AcDbSymbolTableRecord
100
AcDbRegAppTableRecord
  2
ACAD
 70
     0
  0
ENDTAB
  0
TABLE
  2
DIMSTYLE
  5
A
330
0
100
AcDbSymbolTable
 70
     3
100
AcDbDimStyleTable
  0
DIMSTYLE
105
27
330
A
100
AcDbSymbolTableRecord
100
AcDbDimStyleTableRecord
  2
ISO-25
 70
     0
 41
2.5
 42
0.625
 43
3.75
 44
1.25
 73
     0
 74
     0
 77
     1
 78
     8
140
2.5
141
2.5
143
0.0393700787
147
0.625
171
     3
172
     1
178
     0
271
     2
272
     2
274
     3
278
    44
283
     0
284
     8
340
11
  0
DIMSTYLE
105
316
102
{ACAD_REACTORS
330
314
330
328
330
33F
102
}
330
A
100
AcDbSymbolTableRecord
100
AcDbDimStyleTableRecord
  2
SLDDIMSTYLE0
 70
     0
 41
14.0
 44
0.0
 45
0.000000001
 73
     0
 74
     0
 77
     1
 78
    12
 79
     3
140
14.0
147
3.5
173
     1
178
     0
271
     0
272
     0
276
     2
284
    12
340
315
  0
DIMSTYLE
105
333
102
{ACAD_REACTORS
330
332
102
}
330
A
100
AcDbSymbolTableRecord
100
AcDbDimStyleTableRecord
  2
SLDDIMSTYLE1
 70
     0
 41
14.0
 44
0.0
 45
0.000000001
 73
     0
 74
     0
 77
     1
 78
    12
 79
     3
140
14.0
147
3.5
172
     1
173
     1
178
     0
271
     0
272
     0
276
     2
284
    12
289
     0
340
315
  0
ENDTAB
  0
TABLE
  2
BLOCK_RECORD
  5
1
330
0
100
AcDbSymbolTable
 70
     6
  0
BLOCK_RECORD
  5
1F
330
1
100
AcDbSymbolTableRecord
100
AcDbBlockTableRecord
  2
*Model_Space
340
22
 70
     0
280
     1
281
     0
  0
BLOCK_RECORD
  5
1B
330
1
100
AcDbSymbolTableRecord
100
AcDbBlockTableRecord
  2
*Paper_Space
340
1E
 70
     0
280
     1
281
     0
  0
BLOCK_RECORD
  5
23
330
1
100
AcDbSymbolTableRecord
100
AcDbBlockTableRecord
  2
*Paper_Space0
340
26
 70
     0
280
     1
281
     0
  0
BLOCK_RECORD
  5
317
330
1
100
AcDbSymbolTableRecord
100
AcDbBlockTableRecord
  2
_D
340
0
 70
     0
280
     1
281
     0
  0
BLOCK_RECORD
  5
31F
330
1
100
AcDbSymbolTableRecord
100
AcDbBlockTableRecord
  2
SW_SYMBOL_MOD_BOX
340
0
102
{BLKREFS
331
326
102
}
 70
     0
280
     1
281
     0
  0
BLOCK_RECORD
  5
329
330
1
100
AcDbSymbolTableRecord
100
AcDbBlockTableRecord
  2
_D_1
340
0
 70
     0
280
     1
281
     0
  0
BLOCK_RECORD
  5
334
330
1
100
AcDbSymbolTableRecord
100
AcDbBlockTableRecord
  2
_D_2
340
0
 70
     0
280
     1
281
     0
  0
BLOCK_RECORD
  5
340
330
1
100
AcDbSymbolTableRecord
100
AcDbBlockTableRecord
  2
_D_3
340
0
 70
     0
280
     1
281
     0
  0
ENDTAB
  0
ENDSEC
  0
SECTION
  2
BLOCKS
  0
BLOCK
  5
20
330
1F
100
AcDbEntity
  8
0
100
AcDbBlockBegin
  2
*Model_Space
 70
     0
 10
0.0
 20
0.0
 30
0.0
  3
*Model_Space
  1

  0
ENDBLK
  5
21
330
1F
100
AcDbEntity
  8
0
100
AcDbBlockEnd
  0
BLOCK
  5
1C
330
1B
100
AcDbEntity
 67
     1
  8
0
100
AcDbBlockBegin
  2
*Paper_Space
 70
     0
 10
0.0
 20
0.0
 30
0.0
  3
*Paper_Space
  1

  0
ENDBLK
  5
1D
330
1B
100
AcDbEntity
 67
     1
  8
0
100
AcDbBlockEnd
  0
BLOCK
  5
24
330
23
100
AcDbEntity
  8
0
100
AcDbBlockBegin
  2
*Paper_Space0
 70
     0
 10
0.0
 20
0.0
 30
0.0
  3
*Paper_Space0
  1

  0
ENDBLK
  5
25
330
23
100
AcDbEntity
  8
0
100
AcDbBlockEnd
  0
BLOCK
  5
318
330
317
100
AcDbEntity
  8
0
100
AcDbBlockBegin
  2
_D
 70
     0
 10
0.0
 20
0.0
 30
0.0
  3
_D
  1

  0
SOLID
  5
31A
330
317
100
AcDbEntity
  8
0
  6
SLD-Durchgehend
 62
     7
370
    18
100
AcDbTrace
 10
320.1618920813
 20
489.3495303678
 30
0.0
 11
334.1618920813
 21
487.1956842139
 31
0.0
 12
334.1618920813
 22
491.5033765216
 32
0.0
 13
334.1618920813
 23
491.5033765216
 33
0.0
  0
SOLID
  5
31B
330
317
100
AcDbEntity
  8
0
  6
SLD-Durchgehend
 62
     7
370
    18
100
AcDbTrace
 10
469.6618920813
 20
489.3495303678
 30
0.0
 11
455.6618920813
 21
491.5033765216
 31
0.0
 12
455.6618920813
 22
487.1956842139
 32
0.0
 13
455.6618920813
 23
487.1956842139
 33
0.0
  0
LINE
  5
31C
330
317
100
AcDbEntity
  8
0
  6
SLD-Durchgehend
 62
     7
370
    18
100
AcDbLine
 10
320.1618920813
 20
472.0309320252
 30
0.0
 11
320.1618920813
 21
491.3495303678
 31
0.0
  0
LINE
  5
31D
330
317
100
AcDbEntity
  8
0
  6
SLD-Durchgehend
 62
     7
370
    18
100
AcDbLine
 10
469.6618920813
 20
472.0309320252
 30
0.0
 11
469.6618920813
 21
491.3495303678
 31
0.0
  0
LINE
  5
31E
330
317
100
AcDbEntity
  8
0
  6
SLD-Durchgehend
 62
     7
370
    18
100
AcDbLine
 10
320.1618920813
 20
489.3495303678
 30
0.0
 11
469.6618920813
 21
489.3495303678
 31
0.0
  0
INSERT
  5
326
330
317
100
AcDbEntity
  8
0
  6
SLD-Durchgehend
 62
     7
370
    18
100
AcDbBlockReference
  2
SW_SYMBOL_MOD_BOX
 10
370.2725665498
 20
491.3730045462
 30
0.0
 41
0.0090234742
 42
0.0090234742
 43
0.0090234742
  0
MTEXT
  5
327
330
317
100
AcDbEntity
  8
0
  6
SLD-Durchgehend
 62
     7
370
    18
100
AcDbMText
 10
389.610066064
 20
507.4937013508
 30
0.0
 40
14.0
 41
0.0
 46
0.0
 71
     1
 72
     1
  1
150
  7
SLDTEXTSTYLE1
 73
     1
 44
1.0
  0
ENDBLK
  5
319
330
317
100
AcDbEntity
  8
0
100
AcDbBlockEnd
  0
BLOCK
  5
320
330
31F
100
AcDbEntity
  8
0
100
AcDbBlockBegin
  2
SW_SYMBOL_MOD_BOX
 70
     0
 10
0.0
 20
0.0
 30
0.0
  3
SW_SYMBOL_MOD_BOX
  1

  0
LINE
  5
322
330
31F
100
AcDbEntity
  8
0
  6
SLD-Durchgehend
 62
     0
370
    18
100
AcDbLine
 10
400.0
 20
400.0
 30
0.0
 11
1600.0
 21
400.0
 31
0.0
  0
LINE
  5
323
330
31F
100
AcDbEntity
  8
0
  6
SLD-Durchgehend
 62
     0
370
    18
100
AcDbLine
 10
400.0
 20
400.0
 30
0.0
 11
400.0
 21
1600.0
 31
0.0
  0
LINE
  5
324
330
31F
100
AcDbEntity
  8
0
  6
SLD-Durchgehend
 62
     0
370
    18
100
AcDbLine
 10
400.0
 20
1600.0
 30
0.0
 11
1600.0
 21
1600.0
 31
0.0
  0
LINE
  5
325
330
31F
100
AcDbEntity
  8
0
  6
SLD-Durchgehend
 62
     0
370
    18
100
AcDbLine
 10
1600.0
 20
1600.0
 30
0.0
 11
1600.0
 21
400.0
 31
0.0
  0
ENDBLK
  5
321
330
31F
100
AcDbEntity
  8
0
100
AcDbBlockEnd
  0
BLOCK
  5
32A
330
329
100
AcDbEntity
  8
0
100
AcDbBlockBegin
  2
_D_1
 70
     0
 10
0.0
 20
0.0
 30
0.0
  3
_D_1
  1

  0
SOLID
  5
32C
330
329
100
AcDbEntity
  8
0
  6
SLD-Durchgehend
 62
     7
370
    18
100
AcDbTrace
 10
332.6618920813
 20
416.9309320252
 30
0.0
 11
346.6618920813
 21
414.7770858714
 31
0.0
 12
346.6618920813
 22
419.0847781791
 32
0.0
 13
346.6618920813
 23
419.0847781791
 33
0.0
  0
SOLID
  5
32D
330
329
100
AcDbEntity
  8
0
  6
SLD-Durchgehend
 62
     7
370
    18
100
AcDbTrace
 10
457.6618920813
 20
416.9309320252
 30
0.0
 11
443.6618920813
 21
419.0847781791
 31
0.0
 12
443.6618920813
 22
414.7770858714
 32
0.0
 13
443.6618920813
 23
414.7770858714
 33
0.0
  0
LINE
  5
32E
330
329
100
AcDbEntity
  8
0
  6
SLD-Durchgehend
 62
     7
370
    18
100
AcDbLine
 10
332.6618920813
 20
435.1809320252
 30
0.0
 11
332.6618920813
 21
414.9309320252
 31
0.0
  0
LINE
  5
32F
330
329
100
AcDbEntity
  8
0
  6
SLD-Durchgehend
 62
     7
370
    18
100
AcDbLine
 10
457.6618920813
 20
435.7881139691
 30
0.0
 11
457.6618920813
 21
414.9309320252
 31
0.0
  0
LINE
  5
330
330
329
100
AcDbEntity
  8
0
  6
SLD-Durchgehend
 62
     7
370
    18
100
AcDbLine
 10
332.6618920813
 20
416.9309320252
 30
0.0
 11
457.6618920813
 21
416.9309320252
 31
0.0
  0
MTEXT
  5
331
330
329
100
AcDbEntity
  8
0
  6
SLD-Durchgehend
 62
     7
370
    18
100
AcDbMText
 10
379.9413153756
 20
434.977880382
 30
0.0
 40
14.0
 41
0.0
 46
0.0
 71
     1
 72
     1
  1
125
  7
SLDTEXTSTYLE1
 73
     1
 44
1.0
  0
ENDBLK
  5
32B
330
329
100
AcDbEntity
  8
0
100
AcDbBlockEnd
  0
BLOCK
  5
335
330
334
100
AcDbEntity
  8
0
100
AcDbBlockBegin
  2
_D_2
 70
     0
 10
0.0
 20
0.0
 30
0.0
  3
_D_2
  1

  0
SOLID
  5
337
330
334
100
AcDbEntity
  8
0
  6
SLD-Durchgehend
 62
     7
370
    18
100
AcDbTrace
 10
479.5223834709
 20
475.9309320252
 30
0.0
 11
481.6762296247
 21
489.9309320252
 31
0.0
 12
477.368537317
 22
489.9309320252
 32
0.0
 13
477.368537317
 23
489.9309320252
 33
0.0
  0
SOLID
  5
338
330
334
100
AcDbEntity
  8
0
  6
SLD-Durchgehend
 62
     7
370
    18
100
AcDbTrace
 10
479.5223834709
 20
467.9309320252
 30
0.0
 11
477.368537317
 21
453.9309320252
 31
0.0
 12
481.6762296247
 22
453.9309320252
 32
0.0
 13
481.6762296247
 23
453.9309320252
 33
0.0
  0
LINE
  5
339
330
334
100
AcDbEntity
  8
0
  6
SLD-Durchgehend
 62
     7
370
    18
100
AcDbLine
 10
468.9118920813
 20
475.9309320252
 30
0.0
 11
481.5223834709
 21
475.9309320252
 31
0.0
  0
LINE
  5
33A
330
334
100
AcDbEntity
  8
0
  6
SLD-Durchgehend
 62
     7
370
    18
100
AcDbLine
 10
470.6618920813
 20
467.9309320252
 30
0.0
 11
481.5223834709
 21
467.9309320252
 31
0.0
  0
LINE
  5
33B
330
334
100
AcDbEntity
  8
0
  6
SLD-Durchgehend
 62
     7
370
    18
100
AcDbLine
 10
479.5223834709
 20
475.9309320252
 30
0.0
 11
479.5223834709
 21
502.8540089483
 31
0.0
  0
LINE
  5
33C
330
334
100
AcDbEntity
  8
0
  6
SLD-Durchgehend
 62
     7
370
    18
100
AcDbLine
 10
479.5223834709
 20
475.9309320252
 30
0.0
 11
479.5223834709
 21
467.9309320252
 31
0.0
  0
LINE
  5
33D
330
334
100
AcDbEntity
  8
0
  6
SLD-Durchgehend
 62
     7
370
    18
100
AcDbLine
 10
479.5223834709
 20
467.9309320252
 30
0.0
 11
479.5223834709
 21
443.807839044
 31
0.0
  0
MTEXT
  5
33E
330
334
100
AcDbEntity
  8
0
  6
SLD-Durchgehend
 62
     7
370
    18
100
AcDbMText
 10
461.4754351141
 20
443.807839044
 30
0.0
 40
14.0
 41
0.0
 46
0.0
 71
     1
 72
     1
  1
8
  7
SLDTEXTSTYLE1
 11
-1.237326553584439E-14
 21
1.0
 31
0.0
 73
     1
 44
1.0
  0
ENDBLK
  5
336
330
334
100
AcDbEntity
  8
0
100
AcDbBlockEnd
  0
BLOCK
  5
341
330
340
100
AcDbEntity
  8
0
100
AcDbBlockBegin
  2
_D_3
 70
     0
 10
0.0
 20
0.0
 30
0.0
  3
_D_3
  1

  0
SOLID
  5
343
330
340
100
AcDbEntity
  8
0
  6
SLD-Durchgehend
 62
     7
370
    18
100
AcDbTrace
 10
502.1618920813
 20
475.9309320252
 30
0.0
 11
500.0080459274
 21
461.9309320252
 31
0.0
 12
504.3157382351
 22
461.9309320252
 32
0.0
 13
504.3157382351
 23
461.9309320252
 33
0.0
  0
SOLID
  5
344
330
340
100
AcDbEntity
  8
0
  6
SLD-Durchgehend
 62
     7
370
    18
100
AcDbTrace
 10
502.1618920813
 20
436.9309320252
 30
0.0
 11
504.3157382351
 21
450.9309320252
 31
0.0
 12
500.0080459274
 22
450.9309320252
 32
0.0
 13
500.0080459274
 23
450.9309320252
 33
0.0
  0
LINE
  5
345
330
340
100
AcDbEntity
  8
0
  6
SLD-Durchgehend
 62
     7
370
    18
100
AcDbLine
 10
468.9118920813
 20
475.9309320252
 30
0.0
 11
504.1618920813
 21
475.9309320252
 31
0.0
  0
LINE
  5
346
330
340
100
AcDbEntity
  8
0
  6
SLD-Durchgehend
 62
     7
370
    18
100
AcDbLine
 10
459.4118920813
 20
436.9309320252
 30
0.0
 11
504.1618920813
 21
436.9309320252
 31
0.0
  0
LINE
  5
347
330
340
100
AcDbEntity
  8
0
  6
SLD-Durchgehend
 62
     7
370
    18
100
AcDbLine
 10
502.1618920813
 20
475.9309320252
 30
0.0
 11
502.1618920813
 21
436.9309320252
 31
0.0
  0
MTEXT
  5
348
330
340
100
AcDbEntity
  8
0
  6
SLD-Durchgehend
 62
     7
370
    18
100
AcDbMText
 10
484.1149437245
 20
446.6638956022
 30
0.0
 40
14.0
 41
0.0
 46
0.0
 71
     1
 72
     1
  1
39
  7
SLDTEXTSTYLE1
 11
-7.044195017643634E-15
 21
1.0
 31
0.0
 73
     1
 44
1.0
  0
ENDBLK
  5
342
330
340
100
AcDbEntity
  8
0
100
AcDbBlockEnd
  0
ENDSEC
  0
SECTION
  2
ENTITIES
  0
SPLINE
  5
75
330
1F
100
AcDbEntity
  8
0
  6
SLD-Durchgehend
 62
     7
370
    25
100
AcDbSpline
210
0.0
220
0.0
230
1.0
 70
     8
 71
     3
 72
    11
 73
     7
 74
     0
 42
0.000000001
 43
0.00000001
 40
0.0
 40
0.0
 40
0.0
 40
0.0
 40
0.2747250492094305
 40
0.5494453099087232
 40
0.7708824127484634
 40
1.0
 40
1.0
 40
1.0
 40
1.0
 10
424.8658615600035
 20
267.8457621718718
 30
0.0
 10
424.8580101945445
 20
267.9014537221908
 30
0.0
 10
424.8423076004777
 20
268.0128358521144
 30
0.0
 10
424.7376498070496
 20
268.1360956532652
 30
0.0
 10
424.6115652940633
 20
268.2145495047984
 30
0.0
 10
424.521017527434
 20
268.2279164038913
 30
0.0
 10
424.4749718724285
 20
268.2347137844015
 30
0.0
  0
LINE
  5
76
330
1F
100
AcDbEntity
  8
0
  6
SLD-Durchgehend
 62
     7
370
    25
100
AcDbLine
 10
423.72112751
 20
268.2347137844
 30
0.0
 11
423.72112751
 21
265.9473841799
 31
0.0
  0
LINE
  5
77
330
1F
100
AcDbEntity
  8
0
  6
SLD-Durchgehend
 62
     7
370
    25
100
AcDbLine
 10
423.72112751
 20
265.9473841799
 30
0.0
 11
424.4795163243
 21
265.9473841799
 31
0.0
  0
SPLINE
  5
78
330
1F
100
AcDbEntity
  8
0
  6
SLD-Durchgehend
 62
     7
370
    25
100
AcDbSpline
210
0.0
220
0.0
230
1.0
 70
     8
 71
     3
 72
    11
 73
     7
 74
     0
 42
0.000000001
 43
0.00000001
 40
0.0
 40
0.0
 40
0.0
 40
0.0
 40
0.2812497544593578
 40
0.5529773269316957
 40
0.7707968828816539
 40
1.0
 40
1.0
 40
1.0
 40
1.0
 10
424.4795163242587
 20
265.9473841799117
 30
0.0
 10
424.5320418686252
 20
265.9532863856315
 30
0.0
 10
424.6353146169884
 20
265.9648909680007
 30
0.0
 10
424.7554836476372
 20
266.0515461332622
 30
0.0
 10
424.8350823213995
 20
266.1611597400955
 30
0.0
 10
424.8554291015954
 20
266.242148192176
 30
0.0
 10
424.8658615600035
 20
266.2836736153498
 30
0.0
  0
SPLINE
  5
79
330
1F
100
AcDbEntity
  8
0
  6
SLD-Durchgehend
 62
     7
370
    25
100
AcDbSpline
210
0.0
220
0.0
230
1.0
 70
     8
 71
     3
 72
     9
 73
     5
 74
     0
 42
0.000000001
 43
0.00000001
 40
0.0
 40
0.0
 40
0.0
 40
0.0
 40
0.5611492448852823
 40
1.0
 40
1.0
 40
1.0
 40
1.0
 10
424.4356759904445
 20
265.0875474832089
 30
0.0
 10
424.4484735443057
 20
265.0871374160398
 30
0.0
 10
424.4712795161176
 20
265.0864066529266
 30
0.0
 10
424.4940967291974
 20
265.0863631601299
 30
0.0
 10
424.5041100803871
 20
265.0863440732832
 30
0.0
  0
LINE
  5
7A
330
1F
100
AcDbEntity
  8
0
  6
SLD-Durchgehend
 62
     7
370
    25
100
AcDbLine
 10
422.8618920813
 20
265.0875474832
 30
0.0
 11
424.4356759904
 21
265.0875474832
 31
0.0
  0
LINE
  5
7B
330
1F
100
AcDbEntity
  8
0
  6
SLD-Durchgehend
 62
     7
370
    25
100
AcDbLine
 10
422.8618920813
 20
269.0859967921
 30
0.0
 11
422.8618920813
 21
265.0875474832
 31
0.0
  0
LINE
  5
7C
330
1F
100
AcDbEntity
  8
0
  6
SLD-Durchgehend
 62
     7
370
    25
100
AcDbLine
 10
424.5280352827
 20
269.0859967921
 30
0.0
 11
422.8618920813
 21
269.0859967921
 31
0.0
  0
SPLINE
  5
7D
330
1F
100
AcDbEntity
  8
0
  6
SLD-Durchgehend
 62
     7
370
    25
100
AcDbSpline
210
0.0
220
0.0
230
1.0
 70
     8
 71
     3
 72
    12
 73
     8
 74
     0
 42
0.000000001
 43
0.00000001
 40
0.0
 40
0.0
 40
0.0
 40
0.0
 40
0.2177775398264644
 40
0.3984647405276028
 40
0.5601427979986222
 40
0.7588538422332998
 40
1.0
 40
1.0
 40
1.0
 40
1.0
 10
425.674172766327
 20
267.8859941882036
 30
0.0
 10
425.6685349157037
 20
268.0246290865387
 30
0.0
 10
425.6582194135286
 20
268.2782875622345
 30
0.0
 10
425.5425002489689
 20
268.6216834936949
 30
0.0
 10
425.3202078060943
 20
268.8944724305562
 30
0.0
 10
424.9627670972692
 20
269.0646015338455
 30
0.0
 10
424.6819756491099
 20
269.0784206410347
 30
0.0
 10
424.5280352826699
 20
269.085996792084
 30
0.0
  0
LINE
  5
7E
330
1F
100
AcDbEntity
  8
0
  6
SLD-Durchgehend
 62
     7
370
    25
100
AcDbLine
 10
425.6741727663
 20
266.2545355144
 30
0.0
 11
425.6741727663
 21
267.8859941882
 31
0.0
  0
SPLINE
  5
7F
330
1F
100
AcDbEntity
  8
0
  6
SLD-Durchgehend
 62
     7
370
    25
100
AcDbSpline
210
0.0
220
0.0
230
1.0
 70
     8
 71
     3
 72
     9
 73
     5
 74
     0
 42
0.000000001
 43
0.00000001
 40
0.0
 40
0.0
 40
0.0
 40
0.0
 40
0.5967093862650626
 40
0.9999999999999999
 40
0.9999999999999999
 40
0.9999999999999999
 40
0.9999999999999999
 10
424.5041100803871
 20
265.0863440732832
 30
0.0
 10
424.6814179574195
 20
265.0953331452416
 30
0.0
 10
424.9785607225808
 20
265.1103975504031
 30
0.0
 10
425.2242834953128
 20
265.273370379133
 30
0.0
 10
425.3233811831366
 20
265.3390957912536
 30
0.0
  0
LINE
  5
80
330
1F
100
AcDbEntity
  8
0
  6
SLD-Durchgehend
 62
     7
370
    25
100
AcDbLine
 10
424.4749718724
 20
268.2347137844
 30
0.0
 11
423.72112751
 21
268.2347137844
 31
0.0
  0
LINE
  5
81
330
1F
100
AcDbEntity
  8
0
  6
SLD-Durchgehend
 62
     7
370
    25
100
AcDbLine
 10
424.86586156
 20
266.2836736153
 30
0.0
 11
424.86586156
 21
267.8457621719
 31
0.0
  0
SPLINE
  5
82
330
1F
100
AcDbEntity
  8
0
  6
SLD-Durchgehend
 62
     7
370
    25
100
AcDbSpline
210
0.0
220
0.0
230
1.0
 70
     8
 71
     3
 72
    10
 73
     6
 74
     0
 42
0.000000001
 43
0.00000001
 40
0.0
 40
0.0
 40
0.0
 40
0.0
 40
0.2528872714856183
 40
0.5184621175552778
 40
1.0
 40
1.0
 40
1.0
 40
1.0
 10
425.3233811831366
 20
265.3390957912536
 30
0.0
 10
425.3835332398797
 20
265.3999908951617
 30
0.0
 10
425.5068552344235
 20
265.5248362633588
 30
0.0
 10
425.6475106120141
 20
265.8389131033267
 30
0.0
 10
425.6637232233774
 20
266.091643041979
 30
0.0
 10
425.674172766327
 20
266.2545355143519
 30
0.0
  0
SPLINE
  5
83
330
1F
100
AcDbEntity
  8
0
  6
SLD-Durchgehend
 62
     7
370
    25
100
AcDbSpline
210
0.0
220
0.0
230
1.0
 70
     8
 71
     3
 72
    12
 73
     8
 74
     0
 42
0.000000001
 43
0.00000001
 40
0.0
 40
0.0
 40
0.0
 40
0.0
 40
0.2114134532755175
 40
0.3895527681210756
 40
0.552316964903287
 40
0.7549862544514439
 40
1.0
 40
1.0
 40
1.0
 40
1.0
 10
429.3222980511235
 20
267.8867958286423
 30
0.0
 10
429.3157170972736
 20
268.0241321842921
 30
0.0
 10
429.3035909588969
 20
268.2771896727258
 30
0.0
 10
429.1776930387115
 20
268.6199182180653
 30
0.0
 10
428.9419203169403
 20
268.8922321357638
 30
0.0
 10
428.5707109525328
 20
269.0634070363272
 30
0.0
 10
428.2793063824063
 20
269.0780063627642
 30
0.0
 10
428.1198227308062
 20
269.085996470435
 30
0.0
  0
LINE
  5
84
330
1F
100
AcDbEntity
  8
0
  6
SLD-Durchgehend
 62
     7
370
    25
100
AcDbLine
 10
429.3222980511
 20
265.0815324459
 30
0.0
 11
429.3222980511
 21
267.8867958286
 31
0.0
  0
LINE
  5
85
330
1F
100
AcDbEntity
  8
0
  6
SLD-Durchgehend
 62
     7
370
    25
100
AcDbLine
 10
428.4635303232
 20
265.0815324459
 30
0.0
 11
429.3222980511
 21
265.0815324459
 31
0.0
  0
LINE
  5
86
330
1F
100
AcDbEntity
  8
0
  6
SLD-Durchgehend
 62
     7
370
    25
100
AcDbLine
 10
428.4635303232
 20
266.0287833318
 30
0.0
 11
428.4635303232
 21
265.0815324459
 31
0.0
  0
LINE
  5
87
330
1F
100
AcDbEntity
  8
0
  6
SLD-Durchgehend
 62
     7
370
    25
100
AcDbLine
 10
427.2941359314
 20
265.0875471616
 30
0.0
 11
427.2941359314
 21
266.0287833318
 31
0.0
  0
LINE
  5
88
330
1F
100
AcDbEntity
  8
0
  6
SLD-Durchgehend
 62
     7
370
    25
100
AcDbLine
 10
426.4357691768
 20
265.0875471616
 30
0.0
 11
427.2941359314
 21
265.0875471616
 31
0.0
  0
SPLINE
  5
89
330
1F
100
AcDbEntity
  8
0
  6
SLD-Durchgehend
 62
     7
370
    25
100
AcDbSpline
210
0.0
220
0.0
230
1.0
 70
     8
 71
     3
 72
    12
 73
     8
 74
     0
 42
0.000000001
 43
0.00000001
 40
0.0
 40
0.0
 40
0.0
 40
0.0
 40
0.2125693766514638
 40
0.3914658534855894
 40
0.5543778792716566
 40
0.7563584015614689
 40
1.0
 40
1.0
 40
1.0
 40
1.0
 10
427.6323634418385
 20
269.085996470435
 30
0.0
 10
427.4957910536463
 20
269.0799186845531
 30
0.0
 10
427.2442805710527
 20
269.0687258886999
 30
0.0
 10
426.9033508639815
 20
268.9461597964122
 30
0.0
 10
426.6317430808265
 20
268.7155094469591
 30
0.0
 10
426.459808060558
 20
268.3508159369361
 30
0.0
 10
426.4442664644337
 20
268.0639530221355
 30
0.0
 10
426.4357691768308
 20
267.9071122015305
 30
0.0
  0
LINE
  5
8A
330
1F
100
AcDbEntity
  8
0
  6
SLD-Durchgehend
 62
     7
370
    25
100
AcDbLine
 10
427.2941359314
 20
266.0287833318
 30
0.0
 11
428.4635303232
 21
266.0287833318
 31
0.0
  0
LINE
  5
8B
330
1F
100
AcDbEntity
  8
0
  6
SLD-Durchgehend
 62
     7
370
    25
100
AcDbLine
 10
426.4357691768
 20
267.9071122015
 30
0.0
 11
426.4357691768
 21
265.0875471616
 31
0.0
  0
LINE
  5
8C
330
1F
100
AcDbEntity
  8
0
  6
SLD-Durchgehend
 62
     7
370
    25
100
AcDbLine
 10
428.4637976363
 20
266.8824719742
 30
0.0
 11
428.4637976363
 21
267.8271833135
 31
0.0
  0
LINE
  5
8D
330
1F
100
AcDbEntity
  8
0
  6
SLD-Durchgehend
 62
     7
370
    25
100
AcDbLine
 10
427.2942695917
 20
266.8824719742
 30
0.0
 11
428.4637976363
 21
266.8824719742
 31
0.0
  0
LINE
  5
8E
330
1F
100
AcDbEntity
  8
0
  6
SLD-Durchgehend
 62
     7
370
    25
100
AcDbLine
 10
427.2942695917
 20
267.8630042867
 30
0.0
 11
427.2942695917
 21
266.8824719742
 31
0.0
  0
SPLINE
  5
8F
330
1F
100
AcDbEntity
  8
0
  6
SLD-Durchgehend
 62
     7
370
    25
100
AcDbSpline
210
0.0
220
0.0
230
1.0
 70
     8
 71
     3
 72
    11
 73
     7
 74
     0
 42
0.000000001
 43
0.00000001
 40
0.0
 40
0.0
 40
0.0
 40
0.0
 40
0.2919495674567613
 40
0.566071701334768
 40
0.7792501675821207
 40
1.0
 40
1.0
 40
1.0
 40
1.0
 10
427.6832212042328
 20
268.2317731866971
 30
0.0
 10
427.6249748983105
 20
268.2250303132341
 30
0.0
 10
427.512039004015
 20
268.2119563090959
 30
0.0
 10
427.38439196365
 20
268.1147786978511
 30
0.0
 10
427.3077727432026
 20
267.9933012027191
 30
0.0
 10
427.2988226969454
 20
267.9069388875572
 30
0.0
 10
427.2942695917031
 20
267.8630042867075
 30
0.0
  0
LINE
  5
90
330
1F
100
AcDbEntity
  8
0
  6
SLD-Durchgehend
 62
     7
370
    25
100
AcDbLine
 10
428.0749128539
 20
268.2317731867
 30
0.0
 11
427.6832212042
 21
268.2317731867
 31
0.0
  0
LINE
  5
91
330
1F
100
AcDbEntity
  8
0
  6
SLD-Durchgehend
 62
     7
370
    25
100
AcDbLine
 10
428.1198227308
 20
269.0859964704
 30
0.0
 11
427.6323634418
 21
269.0859964704
 31
0.0
  0
SPLINE
  5
92
330
1F
100
AcDbEntity
  8
0
  6
SLD-Durchgehend
 62
     7
370
    25
100
AcDbSpline
210
0.0
220
0.0
230
1.0
 70
     8
 71
     3
 72
    11
 73
     7
 74
     0
 42
0.000000001
 43
0.00000001
 40
0.0
 40
0.0
 40
0.0
 40
0.0
 40
0.2923590658637901
 40
0.5666087142990042
 40
0.7800972401032034
 40
1.0
 40
1.0
 40
1.0
 40
1.0
 10
428.4637976362512
 20
267.8271833134574
 30
0.0
 10
428.4565481982238
 20
267.8882632054139
 30
0.0
 10
428.4424983696406
 20
268.0066395552247
 30
0.0
 10
428.3386666567835
 20
268.1390642788163
 30
0.0
 10
428.210943289467
 20
268.2178000210777
 30
0.0
 10
428.1207015280977
 20
268.2270697339335
 30
0.0
 10
428.0749128538955
 20
268.2317731866971
 30
0.0
  0
LINE
  5
93
330
1F
100
AcDbEntity
  8
0
  6
SLD-Durchgehend
 62
     7
370
    25
100
AcDbLine
 10
445.3497776943
 20
267.548501488
 30
0.0
 11
445.3497776943
 21
267.8421532724
 31
0.0
  0
SPLINE
  5
94
330
1F
100
AcDbEntity
  8
0
  6
SLD-Durchgehend
 62
     7
370
    25
100
AcDbSpline
210
0.0
220
0.0
230
1.0
 70
     8
 71
     3
 72
    11
 73
     7
 74
     0
 42
0.000000001
 43
0.00000001
 40
0.0
 40
0.0
 40
0.0
 40
0.0
 40
0.2709510930982724
 40
0.5362243368417792
 40
0.7543071012679028
 40
1.0
 40
1.0
 40
1.0
 40
1.0
 10
445.3497776943068
 20
267.8421532724276
 30
0.0
 10
445.3436724031212
 20
267.8980397386759
 30
0.0
 10
445.3315897586862
 20
268.0086415559994
 30
0.0
 10
445.2364229757163
 20
268.1386797800847
 30
0.0
 10
445.1053379567647
 20
268.2182016120219
 30
0.0
 10
445.0096481233676
 20
268.2265490369314
 30
0.0
 10
444.9589548369058
 20
268.2309712246094
 30
0.0
  0
LINE
  5
95
330
1F
100
AcDbEntity
  8
0
  6
SLD-Durchgehend
 62
     7
370
    25
100
AcDbLine
 10
444.9589548369
 20
268.2309712246
 30
0.0
 11
444.2453422392
 21
268.2309712246
 31
0.0
  0
LINE
  5
96
330
1F
100
AcDbEntity
  8
0
  6
SLD-Durchgehend
 62
     7
370
    25
100
AcDbLine
 10
444.2453422392
 20
268.2309712246
 30
0.0
 11
444.2453422392
 21
267.1595498755
 31
0.0
  0
LINE
  5
97
330
1F
100
AcDbEntity
  8
0
  6
SLD-Durchgehend
 62
     7
370
    25
100
AcDbLine
 10
444.2453422392
 20
267.1595498755
 30
0.0
 11
444.9605587611
 21
267.1595498755
 31
0.0
  0
SPLINE
  5
98
330
1F
100
AcDbEntity
  8
0
  6
SLD-Durchgehend
 62
     7
370
    25
100
AcDbSpline
210
0.0
220
0.0
230
1.0
 70
     8
 71
     3
 72
    11
 73
     7
 74
     0
 42
0.000000001
 43
0.00000001
 40
0.0
 40
0.0
 40
0.0
 40
0.0
 40
0.2882526378998046
 40
0.5667226730080029
 40
0.7824309356463831
 40
0.9999999999999999
 40
0.9999999999999999
 40
0.9999999999999999
 40
0.9999999999999999
 10
444.9605587610811
 20
267.1595498754553
 30
0.0
 10
445.0183884764222
 20
267.1696928511741
 30
0.0
 10
445.1320853053432
 20
267.1896345743565
 30
0.0
 10
445.2575288548065
 20
267.2933536974544
 30
0.0
 10
445.335331269123
 20
267.4171340979702
 30
0.0
 10
445.3449484515664
 20
267.5045871627124
 30
0.0
 10
445.3497776943068
 20
267.548501487985
 30
0.0
  0
LINE
  5
99
330
1F
100
AcDbEntity
  8
0
  6
SLD-Durchgehend
 62
     7
370
    25
100
AcDbLine
 10
446.1618920813
 20
265.0830027097
 30
0.0
 11
446.1618920813
 21
266.2578771986
 31
0.0
  0
LINE
  5
9A
330
1F
100
AcDbEntity
  8
0
  6
SLD-Durchgehend
 62
     7
370
    25
100
AcDbLine
 10
444.265920033
 20
266.3519740532
 30
0.0
 11
444.9728496259
 21
266.3519740532
 31
0.0
  0
LINE
  5
9B
330
1F
100
AcDbEntity
  8
0
  6
SLD-Durchgehend
 62
     7
370
    25
100
AcDbLine
 10
444.2656802834
 20
265.0839383322
 30
0.0
 11
444.265920033
 21
266.3519740532
 31
0.0
  0
LINE
  5
9C
330
1F
100
AcDbEntity
  8
0
  6
SLD-Durchgehend
 62
     7
370
    25
100
AcDbLine
 10
443.4066175353
 20
265.0839383322
 30
0.0
 11
444.2656802834
 21
265.0839383322
 31
0.0
  0
LINE
  5
9D
330
1F
100
AcDbEntity
  8
0
  6
SLD-Durchgehend
 62
     7
370
    25
100
AcDbLine
 10
443.4066175353
 20
269.0823876715
 30
0.0
 11
443.4066175353
 21
265.0839383322
 31
0.0
  0
LINE
  5
9E
330
1F
100
AcDbEntity
  8
0
  6
SLD-Durchgehend
 62
     7
370
    25
100
AcDbLine
 10
445.0807135267
 20
269.0823876715
 30
0.0
 11
443.4066175353
 21
269.0823876715
 31
0.0
  0
SPLINE
  5
9F
330
1F
100
AcDbEntity
  8
0
  6
SLD-Durchgehend
 62
     7
370
    25
100
AcDbSpline
210
0.0
220
0.0
230
1.0
 70
     8
 71
     3
 72
    13
 73
     9
 74
     0
 42
0.000000001
 43
0.00000001
 40
0.0
 40
0.0
 40
0.0
 40
0.0
 40
0.1941657261233314
 40
0.3470249713928881
 40
0.4706668946820234
 40
0.5811375112837301
 40
0.7664103779903053
 40
0.9999999999999999
 40
0.9999999999999999
 40
0.9999999999999999
 40
0.9999999999999999
 10
446.1608227985058
 20
267.9615119935574
 30
0.0
 10
446.1579430997926
 20
268.0804507534311
 30
0.0
 10
446.1527963244915
 20
268.2930254470539
 30
0.0
 10
446.0940933065216
 20
268.5770630799048
 30
0.0
 10
445.9894004570896
 20
268.7935711152026
 30
0.0
 10
445.7991955729274
 20
268.9745892290004
 30
0.0
 10
445.4799813797805
 20
269.0753779805123
 30
0.0
 10
445.2236586185514
 20
269.0798780756825
 30
0.0
 10
445.0807135267351
 20
269.0823876714523
 30
0.0
  0
SPLINE
  5
A0
330
1F
100
AcDbEntity
  8
0
  6
SLD-Durchgehend
 62
     7
370
    25
100
AcDbSpline
210
0.0
220
0.0
230
1.0
 70
     8
 71
     3
 72
     9
 73
     5
 74
     0
 42
0.000000001
 43
0.00000001
 40
0.0
 40
0.0
 40
0.0
 40
0.0
 40
0.5019771459250512
 40
1.0
 40
1.0
 40
1.0
 40
1.0
 10
446.1616247605934
 20
267.372337179801
 30
0.0
 10
446.1615663072953
 20
267.4709213801964
 30
0.0
 10
446.1614498611611
 20
267.6673131904525
 30
0.0
 10
446.1610312676439
 20
267.8637045888244
 30
0.0
 10
446.1608227985058
 20
267.9615119935574
 30
0.0
  0
SPLINE
  5
A1
330
1F
100
AcDbEntity
  8
0
  6
SLD-Durchgehend
 62
     7
370
    25
100
AcDbSpline
210
0.0
220
0.0
230
1.0
 70
     8
 71
     3
 72
    11
 73
     7
 74
     0
 42
0.000000001
 43
0.00000001
 40
0.0
 40
0.0
 40
0.0
 40
0.0
 40
0.1992186042567492
 40
0.4625865760426298
 40
0.708637874285279
 40
0.9999999999999999
 40
0.9999999999999999
 40
0.9999999999999999
 40
0.9999999999999999
 10
445.8546069413561
 20
266.8197853013825
 30
0.0
 10
445.8907410587478
 20
266.8448481173966
 30
0.0
 10
445.9746446565312
 20
266.903044099088
 30
0.0
 10
446.0741367405269
 20
267.0261489715166
 30
0.0
 10
446.1484600691081
 20
267.1890071412594
 30
0.0
 10
446.1569966167044
 20
267.3078861595484
 30
0.0
 10
446.1616247605934
 20
267.372337179801
 30
0.0
  0
SPLINE
  5
A2
330
1F
100
AcDbEntity
  8
0
  6
SLD-Durchgehend
 62
     7
370
    25
100
AcDbSpline
210
0.0
220
0.0
230
1.0
 70
     8
 71
     3
 72
    12
 73
     8
 74
     0
 42
0.000000001
 43
0.00000001
 40
0.0
 40
0.0
 40
0.0
 40
0.0
 40
0.2586060014828554
 40
0.4768740222596336
 40
0.6654196460658716
 40
0.8538040147583607
 40
1.0
 40
1.0
 40
1.0
 40
1.0
 10
446.1618920812894
 20
266.2578771986077
 30
0.0
 10
446.1585683193905
 20
266.3159216178946
 30
0.0
 10
446.1524392438987
 20
266.4229565495526
 30
0.0
 10
446.1008360213291
 20
266.5648303010199
 30
0.0
 10
446.0284378937896
 20
266.6774233143001
 30
0.0
 10
445.9454826208758
 20
266.7618247925528
 30
0.0
 10
445.8822407045414
 20
266.8021604870916
 30
0.0
 10
445.8546069413561
 20
266.8197853013825
 30
0.0
  0
LINE
  5
A3
330
1F
100
AcDbEntity
  8
0
  6
SLD-Durchgehend
 62
     7
370
    25
100
AcDbLine
 10
445.3695535387
 20
265.0830027097
 30
0.0
 11
446.1618920813
 21
265.0830027097
 31
0.0
  0
LINE
  5
A4
330
1F
100
AcDbEntity
  8
0
  6
SLD-Durchgehend
 62
     7
370
    25
100
AcDbLine
 10
445.3694198783
 20
265.9463148971
 30
0.0
 11
445.3695535387
 21
265.0830027097
 31
0.0
  0
SPLINE
  5
A5
330
1F
100
AcDbEntity
  8
0
  6
SLD-Durchgehend
 62
     7
370
    25
100
AcDbSpline
210
0.0
220
0.0
230
1.0
 70
     8
 71
     3
 72
    13
 73
     9
 74
     0
 42
0.000000001
 43
0.00000001
 40
0.0
 40
0.0
 40
0.0
 40
0.0
 40
0.1786987827384264
 40
0.3258270793141556
 40
0.4518927463934492
 40
0.5696190978301053
 40
0.7655101285646113
 40
0.9999999999999999
 40
0.9999999999999999
 40
0.9999999999999999
 40
0.9999999999999999
 10
444.9728496259408
 20
266.3519740531514
 30
0.0
 10
445.0120656314194
 20
266.3506669727805
 30
0.0
 10
445.0835694006765
 20
266.3482837322617
 30
0.0
 10
445.1803700145388
 20
266.3232713998319
 30
0.0
 10
445.2561953786266
 20
266.2808820129944
 30
0.0
 10
445.3220750651526
 20
266.2083968288879
 30
0.0
 10
445.3645175551674
 20
266.0923027736861
 30
0.0
 10
445.3676909030386
 20
265.9978026143872
 30
0.0
 10
445.3694198783036
 20
265.9463148971281
 30
0.0
  0
SPLINE
  5
A6
330
1F
100
AcDbEntity
  8
0
  6
SLD-Durchgehend
 62
     7
370
    25
100
AcDbSpline
210
0.0
220
0.0
230
1.0
 70
     8
 71
     3
 72
    10
 73
     6
 74
     0
 42
0.000000001
 43
0.00000001
 40
0.0
 40
0.0
 40
0.0
 40
0.0
 40
0.2312025287502984
 40
0.4918310759405046
 40
0.9999999999999999
 40
0.9999999999999999
 40
0.9999999999999999
 40
0.9999999999999999
 10
436.3303774147518
 20
268.128721209301
 30
0.0
 10
436.3364578321966
 20
268.1337542058114
 30
0.0
 10
436.3493925447632
 20
268.1444607672938
 30
0.0
 10
436.3830085368036
 20
268.1525269888756
 30
0.0
 10
436.4088984018514
 20
268.1530012382887
 30
0.0
 10
436.4260113937087
 20
268.1533147133234
 30
0.0
  0
SPLINE
  5
A7
330
1F
100
AcDbEntity
  8
0
  6
SLD-Durchgehend
 62
     7
370
    25
100
AcDbSpline
210
0.0
220
0.0
230
1.0
 70
     8
 71
     3
 72
    10
 73
     6
 74
     0
 42
0.000000001
 43
0.00000001
 40
0.0
 40
0.0
 40
0.0
 40
0.0
 40
0.6958504163507512
 40
0.859955815471611
 40
1.0
 40
1.0
 40
1.0
 40
1.0
 10
436.3071873443827
 20
267.9853036559524
 30
0.0
 10
436.3064722680062
 20
268.019678655165
 30
0.0
 10
436.3055885520895
 20
268.0621604584164
 30
0.0
 10
436.3171268299178
 20
268.1110132797496
 30
0.0
 10
436.3261998069586
 20
268.1231383021749
 30
0.0
 10
436.3303774147518
 20
268.1287212093009
 30
0.0
  0
LINE
  5
A8
330
1F
100
AcDbEntity
  8
0
  6
SLD-Durchgehend
 62
     7
370
    25
100
AcDbLine
 10
436.3071873444
 20
265.0842056529
 30
0.0
 11
436.3071873444
 21
267.985303656
 31
0.0
  0
LINE
  5
A9
330
1F
100
AcDbEntity
  8
0
  6
SLD-Durchgehend
 62
     7
370
    25
100
AcDbLine
 10
435.4537660227
 20
265.0842056529
 30
0.0
 11
436.3071873444
 21
265.0842056529
 31
0.0
  0
LINE
  5
AA
330
1F
100
AcDbEntity
  8
0
  6
SLD-Durchgehend
 62
     7
370
    25
100
AcDbLine
 10
435.4505581744
 20
267.8834543199
 30
0.0
 11
435.4537660227
 21
265.0842056529
 31
0.0
  0
SPLINE
  5
AB
330
1F
100
AcDbEntity
  8
0
  6
SLD-Durchgehend
 62
     7
370
    25
100
AcDbSpline
210
0.0
220
0.0
230
1.0
 70
     8
 71
     3
 72
    14
 73
    10
 74
     0
 42
0.000000001
 43
0.00000001
 40
0.0
 40
0.0
 40
0.0
 40
0.0
 40
0.1668439206458612
 40
0.3025425056681485
 40
0.4150564027276221
 40
0.519161969458747
 40
0.6413065304085606
 40
0.7970413868896135
 40
1.0
 40
1.0
 40
1.0
 40
1.0
 10
436.5871389431605
 20
269.0826549617363
 30
0.0
 10
436.4770655233451
 20
269.0813023773531
 30
0.0
 10
436.2774664722709
 20
269.0788497002232
 30
0.0
 10
436.0053291434722
 20
269.041229902034
 30
0.0
 10
435.7844902614072
 20
268.9580192500216
 30
0.0
 10
435.6153598439697
 20
268.8028093900942
 30
0.0
 10
435.510457400918
 20
268.5683094891464
 30
0.0
 10
435.4570145434774
 20
268.2541021895736
 30
0.0
 10
435.4528912481078
 20
268.0173916450053
 30
0.0
 10
435.4505581743817
 20
267.8834543199437
 30
0.0
  0
LINE
  5
AC
330
1F
100
AcDbEntity
  8
0
  6
SLD-Durchgehend
 62
     7
370
    25
100
AcDbLine
 10
437.0009524381
 20
269.0826549617
 30
0.0
 11
436.5871389432
 21
269.0826549617
 31
0.0
  0
SPLINE
  5
AD
330
1F
100
AcDbEntity
  8
0
  6
SLD-Durchgehend
 62
     7
370
    25
100
AcDbSpline
210
0.0
220
0.0
230
1.0
 70
     8
 71
     3
 72
    11
 73
     7
 74
     0
 42
0.000000001
 43
0.00000001
 40
0.0
 40
0.0
 40
0.0
 40
0.0
 40
0.1991911293572148
 40
0.4625571095361287
 40
0.7086041765618437
 40
1.0
 40
1.0
 40
1.0
 40
1.0
 10
437.5531701656686
 20
268.7756371424989
 30
0.0
 10
437.5281208548128
 20
268.8117476157012
 30
0.0
 10
437.469951914947
 20
268.8956025351564
 30
0.0
 10
437.3469813061691
 20
268.9951224992894
 30
0.0
 10
437.1842142541772
 20
269.0694842873903
 30
0.0
 10
437.0653820151885
 20
269.0780245319169
 30
0.0
 10
437.00095243812
 20
269.0826549617363
 30
0.0
  0
SPLINE
  5
AE
330
1F
100
AcDbEntity
  8
0
  6
SLD-Durchgehend
 62
     7
370
    25
100
AcDbSpline
210
0.0
220
0.0
230
1.0
 70
     8
 71
     3
 72
    12
 73
     8
 74
     0
 42
0.000000001
 43
0.00000001
 40
0.0
 40
0.0
 40
0.0
 40
0.0
 40
0.258513958917703
 40
0.4767397343402743
 40
0.665291103250883
 40
0.8537276706446636
 40
1.0
 40
1.0
 40
1.0
 40
1.0
 10
438.1148109477476
 20
269.0829222824322
 30
0.0
 10
438.0568091905508
 20
269.0795979715151
 30
0.0
 10
437.9498449769625
 20
269.0734674278874
 30
0.0
 10
437.8080641243699
 20
269.0218590071504
 30
0.0
 10
437.6955290220562
 20
268.9494587971387
 30
0.0
 10
437.6111564461906
 20
268.8665005218359
 30
0.0
 10
437.5708045095105
 20
268.8032698180118
 30
0.0
 10
437.5531701656686
 20
268.7756371424989
 30
0.0
  0
LINE
  5
AF
330
1F
100
AcDbEntity
  8
0
  6
SLD-Durchgehend
 62
     7
370
    25
100
AcDbLine
 10
438.5285570946
 20
269.0829222824
 30
0.0
 11
438.1148109477
 21
269.0829222824
 31
0.0
  0
SPLINE
  5
B0
330
1F
100
AcDbEntity
  8
0
  6
SLD-Durchgehend
 62
     7
370
    25
100
AcDbSpline
210
0.0
220
0.0
230
1.0
 70
     8
 71
     3
 72
    14
 73
    10
 74
     0
 42
0.000000001
 43
0.00000001
 40
0.0
 40
0.0
 40
0.0
 40
0.0
 40
0.1948363021374171
 40
0.3461853534454085
 40
0.4655428980217867
 40
0.5700830422527732
 40
0.6859658879948687
 40
0.8260627731951057
 40
1.0
 40
1.0
 40
1.0
 40
1.0
 10
439.6653383538586
 20
267.8837216406396
 30
0.0
 10
439.6631790705426
 20
268.0122982810861
 30
0.0
 10
439.6593424535994
 20
268.2407533956079
 30
0.0
 10
439.6104489512576
 20
268.5452271211332
 30
0.0
 10
439.515828635374
 20
268.7781199835075
 30
0.0
 10
439.3559896366837
 20
268.9438605148035
 30
0.0
 10
439.1322665147495
 20
269.0373035867652
 30
0.0
 10
438.8505190137294
 20
269.0788075949526
 30
0.0
 10
438.6433203171152
 20
269.0814556034032
 30
0.0
 10
438.5285570945579
 20
269.0829222824322
 30
0.0
  0
LINE
  5
B1
330
1F
100
AcDbEntity
  8
0
  6
SLD-Durchgehend
 62
     7
370
    25
100
AcDbLine
 10
439.6653383539
 20
265.0842038132
 30
0.0
 11
439.6653383539
 21
267.8837216406
 31
0.0
  0
LINE
  5
B2
330
1F
100
AcDbEntity
  8
0
  6
SLD-Durchgehend
 62
     7
370
    25
100
AcDbLine
 10
438.8125853339
 20
265.0842038132
 30
0.0
 11
439.6653383539
 21
265.0842038132
 31
0.0
  0
LINE
  5
B3
330
1F
100
AcDbEntity
  8
0
  6
SLD-Durchgehend
 62
     7
370
    25
100
AcDbLine
 10
438.8125853339
 20
267.9846335145
 30
0.0
 11
438.8125853339
 21
265.0842038132
 31
0.0
  0
SPLINE
  5
B4
330
1F
100
AcDbEntity
  8
0
  6
SLD-Durchgehend
 62
     7
370
    25
100
AcDbSpline
210
0.0
220
0.0
230
1.0
 70
     8
 71
     3
 72
    10
 73
     6
 74
     0
 42
0.000000001
 43
0.00000001
 40
0.0
 40
0.0
 40
0.0
 40
0.0
 40
0.1807043028123289
 40
0.4132783874660821
 40
1.0
 40
1.0
 40
1.0
 40
1.0
 10
438.7893284334051
 20
268.128051067896
 30
0.0
 10
438.7944543385424
 20
268.1206270480927
 30
0.0
 10
438.806177500506
 20
268.1036480006374
 30
0.0
 10
438.8126147776506
 20
268.053570653156
 30
0.0
 10
438.8125976206081
 20
268.0134005210759
 30
0.0
 10
438.8125853339481
 20
267.9846335145475
 30
0.0
  0
LINE
  5
B5
330
1F
100
AcDbEntity
  8
0
  6
SLD-Durchgehend
 62
     7
370
    25
100
AcDbLine
 10
438.1103338658
 20
268.1525109116
 30
0.0
 11
438.6937612846
 21
268.1525109116
 31
0.0
  0
SPLINE
  5
B6
330
1F
100
AcDbEntity
  8
0
  6
SLD-Durchgehend
 62
     7
370
    25
100
AcDbSpline
210
0.0
220
0.0
230
1.0
 70
     8
 71
     3
 72
    10
 73
     6
 74
     0
 42
0.000000001
 43
0.00000001
 40
0.0
 40
0.0
 40
0.0
 40
0.0
 40
0.2440703980435882
 40
0.5018258422752154
 40
1.0
 40
1.0
 40
1.0
 40
1.0
 10
438.0206477723541
 20
268.1283183885919
 30
0.0
 10
438.0267468153692
 20
268.133204651181
 30
0.0
 10
438.0392868752155
 20
268.1432511494822
 30
0.0
 10
438.0705210692752
 20
268.1518262613749
 30
0.0
 10
438.0945188216288
 20
268.1522389444132
 30
0.0
 10
438.1103338658275
 20
268.1525109115706
 30
0.0
  0
SPLINE
  5
B7
330
1F
100
AcDbEntity
  8
0
  6
SLD-Durchgehend
 62
     7
370
    25
100
AcDbSpline
210
0.0
220
0.0
230
1.0
 70
     8
 71
     3
 72
    10
 73
     6
 74
     0
 42
0.000000001
 43
0.00000001
 40
0.0
 40
0.0
 40
0.0
 40
0.0
 40
0.6880866687026417
 40
0.8520806273578104
 40
1.0
 40
1.0
 40
1.0
 40
1.0
 10
437.9949181553741
 20
267.9839652128077
 30
0.0
 10
437.993987985799
 20
268.0184456648838
 30
0.0
 10
437.99283612585
 20
268.0611439564987
 30
0.0
 10
438.005527269461
 20
268.1106185234474
 30
0.0
 10
438.0157837962105
 20
268.1226246810205
 30
0.0
 10
438.0206477723541
 20
268.1283183885919
 30
0.0
  0
LINE
  5
B8
330
1F
100
AcDbEntity
  8
0
  6
SLD-Durchgehend
 62
     7
370
    25
100
AcDbLine
 10
437.9949181554
 20
265.0842039263
 30
0.0
 11
437.9949181554
 21
267.9839652128
 31
0.0
  0
LINE
  5
B9
330
1F
100
AcDbEntity
  8
0
  6
SLD-Durchgehend
 62
     7
370
    25
100
AcDbLine
 10
437.1247876928
 20
265.084205766
 30
0.0
 11
437.1294005722
 21
265.0842039263
 31
0.0
  0
LINE
  5
BA
330
1F
100
AcDbEntity
  8
0
  6
SLD-Durchgehend
 62
     7
370
    25
100
AcDbLine
 10
437.1294005722
 20
265.0842039263
 30
0.0
 11
437.9949181554
 21
265.0842039263
 31
0.0
  0
LINE
  5
BB
330
1F
100
AcDbEntity
  8
0
  6
SLD-Durchgehend
 62
     7
370
    25
100
AcDbLine
 10
437.1247876928
 20
267.9846353542
 30
0.0
 11
437.1247876928
 21
265.084205766
 31
0.0
  0
SPLINE
  5
BC
330
1F
100
AcDbEntity
  8
0
  6
SLD-Durchgehend
 62
     7
370
    25
100
AcDbSpline
210
0.0
220
0.0
230
1.0
 70
     8
 71
     3
 72
    10
 73
     6
 74
     0
 42
0.000000001
 43
0.00000001
 40
0.0
 40
0.0
 40
0.0
 40
0.0
 40
0.1894043484779664
 40
0.4199151876309253
 40
0.9999999999999999
 40
0.9999999999999999
 40
0.9999999999999999
 40
0.9999999999999999
 10
437.0989912456287
 20
268.1291221903448
 30
0.0
 10
437.1049498197996
 20
268.1215523834908
 30
0.0
 10
437.1181601595363
 20
268.1047698920066
 30
0.0
 10
437.1248988999585
 20
268.0537227370154
 30
0.0
 10
437.124834079854
 20
268.0134532908493
 30
0.0
 10
437.1247876927827
 20
267.9846353542126
 30
0.0
  0
SPLINE
  5
BD
330
1F
100
AcDbEntity
  8
0
  6
SLD-Durchgehend
 62
     7
370
    25
100
AcDbSpline
210
0.0
220
0.0
230
1.0
 70
     8
 71
     3
 72
     9
 73
     5
 74
     0
 42
0.000000001
 43
0.00000001
 40
0.0
 40
0.0
 40
0.0
 40
0.0
 40
0.6137454904782599
 40
0.9999999999999999
 40
0.9999999999999999
 40
0.9999999999999999
 40
0.9999999999999999
 10
437.0093719823294
 20
268.1533147133234
 30
0.0
 10
437.029385439674
 20
268.1535873862003
 30
0.0
 10
437.0619941637382
 20
268.1540316629912
 30
0.0
 10
437.0886826842346
 20
268.1360627601127
 30
0.0
 10
437.0989912456287
 20
268.1291221903448
 30
0.0
  0
LINE
  5
BE
330
1F
100
AcDbEntity
  8
0
  6
SLD-Durchgehend
 62
     7
370
    25
100
AcDbLine
 10
436.4260113937
 20
268.1533147133
 30
0.0
 11
437.0093719823
 21
268.1533147133
 31
0.0
  0
SPLINE
  5
BF
330
1F
100
AcDbEntity
  8
0
  6
SLD-Durchgehend
 62
     7
370
    25
100
AcDbSpline
210
0.0
220
0.0
230
1.0
 70
     8
 71
     3
 72
    10
 73
     6
 74
     0
 42
0.000000001
 43
0.00000001
 40
0.0
 40
0.0
 40
0.0
 40
0.0
 40
0.6237435782698854
 40
0.8187871131399247
 40
1.0
 40
1.0
 40
1.0
 40
1.0
 10
438.693761284622
 20
268.1525109115706
 30
0.0
 10
438.7149241127628
 20
268.1522424795729
 30
0.0
 10
438.7427045205504
 20
268.1518901093552
 30
0.0
 10
438.7750699942848
 20
268.1405046509074
 30
0.0
 10
438.7846935362452
 20
268.1320992723344
 30
0.0
 10
438.7893284334051
 20
268.128051067896
 30
0.0
  0
LINE
  5
C0
330
1F
100
AcDbEntity
  8
0
  6
SLD-Durchgehend
 62
     7
370
    25
100
AcDbLine
 10
430.1427052668
 20
265.0843393132
 30
0.0
 11
432.1881764017
 21
265.0843393132
 31
0.0
  0
LINE
  5
C1
330
1F
100
AcDbEntity
  8
0
  6
SLD-Durchgehend
 62
     7
370
    25
100
AcDbLine
 10
430.1427052668
 20
269.0830559428
 30
0.0
 11
430.1427052668
 21
265.0843393132
 31
0.0
  0
LINE
  5
C2
330
1F
100
AcDbEntity
  8
0
  6
SLD-Durchgehend
 62
     7
370
    25
100
AcDbLine
 10
431.0028764361
 20
269.0830559428
 30
0.0
 11
430.1427052668
 21
269.0830559428
 31
0.0
  0
LINE
  5
C3
330
1F
100
AcDbEntity
  8
0
  6
SLD-Durchgehend
 62
     7
370
    25
100
AcDbLine
 10
431.0028764361
 20
265.9440426712
 30
0.0
 11
431.0028764361
 21
269.0830559428
 31
0.0
  0
LINE
  5
C4
330
1F
100
AcDbEntity
  8
0
  6
SLD-Durchgehend
 62
     7
370
    25
100
AcDbLine
 10
432.1881764017
 20
265.9440426712
 30
0.0
 11
431.0028764361
 21
265.9440426712
 31
0.0
  0
LINE
  5
C5
330
1F
100
AcDbEntity
  8
0
  6
SLD-Durchgehend
 62
     7
370
    25
100
AcDbLine
 10
432.1881764017
 20
265.0843393132
 30
0.0
 11
432.1881764017
 21
265.9440426712
 31
0.0
  0
LINE
  5
C6
330
1F
100
AcDbEntity
  8
0
  6
SLD-Durchgehend
 62
     7
370
    25
100
AcDbLine
 10
432.7813610259
 20
265.0843393132
 30
0.0
 11
434.8268321607
 21
265.0843393132
 31
0.0
  0
LINE
  5
C7
330
1F
100
AcDbEntity
  8
0
  6
SLD-Durchgehend
 62
     7
370
    25
100
AcDbLine
 10
432.7813610259
 20
269.0830559428
 30
0.0
 11
432.7813610259
 21
265.0843393132
 31
0.0
  0
LINE
  5
C8
330
1F
100
AcDbEntity
  8
0
  6
SLD-Durchgehend
 62
     7
370
    25
100
AcDbLine
 10
433.6414653649
 20
269.0830559428
 30
0.0
 11
432.7813610259
 21
269.0830559428
 31
0.0
  0
LINE
  5
C9
330
1F
100
AcDbEntity
  8
0
  6
SLD-Durchgehend
 62
     7
370
    25
100
AcDbLine
 10
434.8268321607
 20
265.9440426712
 30
0.0
 11
433.6414653649
 21
265.9440426712
 31
0.0
  0
LINE
  5
CA
330
1F
100
AcDbEntity
  8
0
  6
SLD-Durchgehend
 62
     7
370
    25
100
AcDbLine
 10
434.8268321607
 20
265.0843393132
 30
0.0
 11
434.8268321607
 21
265.9440426712
 31
0.0
  0
LINE
  5
CB
330
1F
100
AcDbEntity
  8
0
  6
SLD-Durchgehend
 62
     7
370
    25
100
AcDbLine
 10
433.6414653649
 20
265.9440426712
 30
0.0
 11
433.6414653649
 21
269.0830559428
 31
0.0
  0
LINE
  5
CC
330
1F
100
AcDbEntity
  8
0
  6
SLD-Durchgehend
 62
     7
370
    25
100
AcDbLine
 10
440.4396311521
 20
265.0843393132
 30
0.0
 11
442.6172255409
 21
265.0843393132
 31
0.0
  0
LINE
  5
CD
330
1F
100
AcDbEntity
  8
0
  6
SLD-Durchgehend
 62
     7
370
    25
100
AcDbLine
 10
440.4396311521
 20
269.0830559428
 30
0.0
 11
440.4396311521
 21
265.0843393132
 31
0.0
  0
LINE
  5
CE
330
1F
100
AcDbEntity
  8
0
  6
SLD-Durchgehend
 62
     7
370
    25
100
AcDbLine
 10
442.6172255409
 20
269.0830559428
 30
0.0
 11
440.4396311521
 21
269.0830559428
 31
0.0
  0
LINE
  5
CF
330
1F
100
AcDbEntity
  8
0
  6
SLD-Durchgehend
 62
     7
370
    25
100
AcDbLine
 10
442.6172255409
 20
268.2234862451
 30
0.0
 11
442.6172255409
 21
269.0830559428
 31
0.0
  0
LINE
  5
D0
330
1F
100
AcDbEntity
  8
0
  6
SLD-Durchgehend
 62
     7
370
    25
100
AcDbLine
 10
441.2998691515
 20
268.2234862451
 30
0.0
 11
442.6172255409
 21
268.2234862451
 31
0.0
  0
LINE
  5
D1
330
1F
100
AcDbEntity
  8
0
  6
SLD-Durchgehend
 62
     7
370
    25
100
AcDbLine
 10
441.2998691515
 20
267.5136161372
 30
0.0
 11
441.2998691515
 21
268.2234862451
 31
0.0
  0
LINE
  5
D2
330
1F
100
AcDbEntity
  8
0
  6
SLD-Durchgehend
 62
     7
370
    25
100
AcDbLine
 10
442.6172255409
 20
267.5136161372
 30
0.0
 11
441.2998691515
 21
267.5136161372
 31
0.0
  0
LINE
  5
D3
330
1F
100
AcDbEntity
  8
0
  6
SLD-Durchgehend
 62
     7
370
    25
100
AcDbLine
 10
442.6172255409
 20
266.6540464395
 30
0.0
 11
442.6172255409
 21
267.5136161372
 31
0.0
  0
LINE
  5
D4
330
1F
100
AcDbEntity
  8
0
  6
SLD-Durchgehend
 62
     7
370
    25
100
AcDbLine
 10
441.2998691515
 20
266.6540464395
 30
0.0
 11
442.6172255409
 21
266.6540464395
 31
0.0
  0
LINE
  5
D5
330
1F
100
AcDbEntity
  8
0
  6
SLD-Durchgehend
 62
     7
370
    25
100
AcDbLine
 10
441.2998691515
 20
265.9440426712
 30
0.0
 11
441.2998691515
 21
266.6540464395
 31
0.0
  0
LINE
  5
D6
330
1F
100
AcDbEntity
  8
0
  6
SLD-Durchgehend
 62
     7
370
    25
100
AcDbLine
 10
442.6172255409
 20
265.9440426712
 30
0.0
 11
441.2998691515
 21
265.9440426712
 31
0.0
  0
LINE
  5
D7
330
1F
100
AcDbEntity
  8
0
  6
SLD-Durchgehend
 62
     7
370
    25
100
AcDbLine
 10
442.6172255409
 20
265.0843393132
 30
0.0
 11
442.6172255409
 21
265.9440426712
 31
0.0
  0
LINE
  5
D8
330
1F
100
AcDbEntity
  8
0
  6
SLD-Durchgehend
 62
     7
370
    25
100
AcDbLine
 10
405.6618920813
 20
302.0839383322
 30
0.0
 11
398.1618920813
 21
302.0839383322
 31
0.0
  0
LINE
  5
D9
330
1F
100
AcDbEntity
  8
0
  6
SLD-Durchgehend
 62
     7
370
    25
100
AcDbLine
 10
384.6618920813
 20
309.5839383322
 30
0.0
 11
392.1618920813
 21
309.5839383322
 31
0.0
  0
LINE
  5
DA
330
1F
100
AcDbEntity
  8
0
  6
SLD-Durchgehend
 62
     7
370
    25
100
AcDbLine
 10
384.6618920813
 20
302.0839383322
 30
0.0
 11
384.6618920813
 21
309.5839383322
 31
0.0
  0
LINE
  5
DB
330
1F
100
AcDbEntity
  8
0
  6
SLD-Durchgehend
 62
     7
370
    25
100
AcDbLine
 10
392.1618920813
 20
302.0839383322
 30
0.0
 11
384.6618920813
 21
302.0839383322
 31
0.0
  0
LINE
  5
DC
330
1F
100
AcDbEntity
  8
0
  6
SLD-Durchgehend
 62
     7
370
    25
100
AcDbLine
 10
392.1618920813
 20
309.5839383322
 30
0.0
 11
392.1618920813
 21
302.0839383322
 31
0.0
  0
LINE
  5
DD
330
1F
100
AcDbEntity
  8
0
  6
SLD-Durchgehend
 62
     7
370
    25
100
AcDbLine
 10
378.6618920813
 20
309.5839383322
 30
0.0
 11
378.6618920813
 21
302.0839383322
 31
0.0
  0
LINE
  5
DE
330
1F
100
AcDbEntity
  8
0
  6
SLD-Durchgehend
 62
     7
370
    25
100
AcDbLine
 10
392.1618920813
 20
342.5839383322
 30
0.0
 11
384.6618920813
 21
342.5839383322
 31
0.0
  0
LINE
  5
DF
330
1F
100
AcDbEntity
  8
0
  6
SLD-Durchgehend
 62
     7
370
    25
100
AcDbLine
 10
371.1618920813
 20
350.0839383322
 30
0.0
 11
378.6618920813
 21
350.0839383322
 31
0.0
  0
LINE
  5
E0
330
1F
100
AcDbEntity
  8
0
  6
SLD-Durchgehend
 62
     7
370
    25
100
AcDbLine
 10
371.1618920813
 20
342.5839383322
 30
0.0
 11
371.1618920813
 21
350.0839383322
 31
0.0
  0
LINE
  5
E1
330
1F
100
AcDbEntity
  8
0
  6
SLD-Durchgehend
 62
     7
370
    25
100
AcDbLine
 10
378.6618920813
 20
342.5839383322
 30
0.0
 11
371.1618920813
 21
342.5839383322
 31
0.0
  0
LINE
  5
E2
330
1F
100
AcDbEntity
  8
0
  6
SLD-Durchgehend
 62
     7
370
    25
100
AcDbLine
 10
378.6618920813
 20
350.0839383322
 30
0.0
 11
378.6618920813
 21
342.5839383322
 31
0.0
  0
LINE
  5
E3
330
1F
100
AcDbEntity
  8
0
  6
SLD-Durchgehend
 62
     7
370
    25
100
AcDbLine
 10
357.6618920813
 20
350.0839383322
 30
0.0
 11
365.1618920813
 21
350.0839383322
 31
0.0
  0
LINE
  5
E4
330
1F
100
AcDbEntity
  8
0
  6
SLD-Durchgehend
 62
     7
370
    25
100
AcDbLine
 10
357.6618920813
 20
342.5839383322
 30
0.0
 11
357.6618920813
 21
350.0839383322
 31
0.0
  0
LINE
  5
E5
330
1F
100
AcDbEntity
  8
0
  6
SLD-Durchgehend
 62
     7
370
    25
100
AcDbLine
 10
365.1618920813
 20
342.5839383322
 30
0.0
 11
357.6618920813
 21
342.5839383322
 31
0.0
  0
LINE
  5
E6
330
1F
100
AcDbEntity
  8
0
  6
SLD-Durchgehend
 62
     7
370
    25
100
AcDbLine
 10
365.1618920813
 20
350.0839383322
 30
0.0
 11
365.1618920813
 21
342.5839383322
 31
0.0
  0
LINE
  5
E7
330
1F
100
AcDbEntity
  8
0
  6
SLD-Durchgehend
 62
     7
370
    25
100
AcDbLine
 10
344.1618920813
 20
350.0839383322
 30
0.0
 11
351.6618920813
 21
350.0839383322
 31
0.0
  0
LINE
  5
E8
330
1F
100
AcDbEntity
  8
0
  6
SLD-Durchgehend
 62
     7
370
    25
100
AcDbLine
 10
344.1618920813
 20
342.5839383322
 30
0.0
 11
344.1618920813
 21
350.0839383322
 31
0.0
  0
LINE
  5
E9
330
1F
100
AcDbEntity
  8
0
  6
SLD-Durchgehend
 62
     7
370
    25
100
AcDbLine
 10
351.6618920813
 20
342.5839383322
 30
0.0
 11
344.1618920813
 21
342.5839383322
 31
0.0
  0
LINE
  5
EA
330
1F
100
AcDbEntity
  8
0
  6
SLD-Durchgehend
 62
     7
370
    25
100
AcDbLine
 10
351.6618920813
 20
350.0839383322
 30
0.0
 11
351.6618920813
 21
342.5839383322
 31
0.0
  0
LINE
  5
EB
330
1F
100
AcDbEntity
  8
0
  6
SLD-Durchgehend
 62
     7
370
    25
100
AcDbLine
 10
438.6618920813
 20
363.5839383322
 30
0.0
 11
446.1618920813
 21
363.5839383322
 31
0.0
  0
LINE
  5
EC
330
1F
100
AcDbEntity
  8
0
  6
SLD-Durchgehend
 62
     7
370
    25
100
AcDbLine
 10
438.6618920813
 20
356.0839383322
 30
0.0
 11
438.6618920813
 21
363.5839383322
 31
0.0
  0
LINE
  5
ED
330
1F
100
AcDbEntity
  8
0
  6
SLD-Durchgehend
 62
     7
370
    25
100
AcDbLine
 10
446.1618920813
 20
356.0839383322
 30
0.0
 11
438.6618920813
 21
356.0839383322
 31
0.0
  0
LINE
  5
EE
330
1F
100
AcDbEntity
  8
0
  6
SLD-Durchgehend
 62
     7
370
    25
100
AcDbLine
 10
425.1618920813
 20
363.5839383322
 30
0.0
 11
432.6618920813
 21
363.5839383322
 31
0.0
  0
LINE
  5
EF
330
1F
100
AcDbEntity
  8
0
  6
SLD-Durchgehend
 62
     7
370
    25
100
AcDbLine
 10
425.1618920813
 20
356.0839383322
 30
0.0
 11
425.1618920813
 21
363.5839383322
 31
0.0
  0
LINE
  5
F0
330
1F
100
AcDbEntity
  8
0
  6
SLD-Durchgehend
 62
     7
370
    25
100
AcDbLine
 10
432.6618920813
 20
356.0839383322
 30
0.0
 11
425.1618920813
 21
356.0839383322
 31
0.0
  0
LINE
  5
F1
330
1F
100
AcDbEntity
  8
0
  6
SLD-Durchgehend
 62
     7
370
    25
100
AcDbLine
 10
411.6618920813
 20
363.5839383322
 30
0.0
 11
419.1618920813
 21
363.5839383322
 31
0.0
  0
LINE
  5
F2
330
1F
100
AcDbEntity
  8
0
  6
SLD-Durchgehend
 62
     7
370
    25
100
AcDbLine
 10
411.6618920813
 20
356.0839383322
 30
0.0
 11
411.6618920813
 21
363.5839383322
 31
0.0
  0
LINE
  5
F3
330
1F
100
AcDbEntity
  8
0
  6
SLD-Durchgehend
 62
     7
370
    25
100
AcDbLine
 10
419.1618920813
 20
356.0839383322
 30
0.0
 11
411.6618920813
 21
356.0839383322
 31
0.0
  0
LINE
  5
F4
330
1F
100
AcDbEntity
  8
0
  6
SLD-Durchgehend
 62
     7
370
    25
100
AcDbLine
 10
398.1618920813
 20
363.5839383322
 30
0.0
 11
405.6618920813
 21
363.5839383322
 31
0.0
  0
LINE
  5
F5
330
1F
100
AcDbEntity
  8
0
  6
SLD-Durchgehend
 62
     7
370
    25
100
AcDbLine
 10
398.1618920813
 20
356.0839383322
 30
0.0
 11
398.1618920813
 21
363.5839383322
 31
0.0
  0
LINE
  5
F6
330
1F
100
AcDbEntity
  8
0
  6
SLD-Durchgehend
 62
     7
370
    25
100
AcDbLine
 10
405.6618920813
 20
356.0839383322
 30
0.0
 11
398.1618920813
 21
356.0839383322
 31
0.0
  0
LINE
  5
F7
330
1F
100
AcDbEntity
  8
0
  6
SLD-Durchgehend
 62
     7
370
    25
100
AcDbLine
 10
405.6618920813
 20
363.5839383322
 30
0.0
 11
405.6618920813
 21
356.0839383322
 31
0.0
  0
LINE
  5
F8
330
1F
100
AcDbEntity
  8
0
  6
SLD-Durchgehend
 62
     7
370
    25
100
AcDbLine
 10
384.6618920813
 20
363.5839383322
 30
0.0
 11
392.1618920813
 21
363.5839383322
 31
0.0
  0
LINE
  5
F9
330
1F
100
AcDbEntity
  8
0
  6
SLD-Durchgehend
 62
     7
370
    25
100
AcDbLine
 10
384.6618920813
 20
356.0839383322
 30
0.0
 11
384.6618920813
 21
363.5839383322
 31
0.0
  0
LINE
  5
FA
330
1F
100
AcDbEntity
  8
0
  6
SLD-Durchgehend
 62
     7
370
    25
100
AcDbLine
 10
392.1618920813
 20
356.0839383322
 30
0.0
 11
384.6618920813
 21
356.0839383322
 31
0.0
  0
LINE
  5
FB
330
1F
100
AcDbEntity
  8
0
  6
SLD-Durchgehend
 62
     7
370
    25
100
AcDbLine
 10
371.1618920813
 20
363.5839383322
 30
0.0
 11
378.6618920813
 21
363.5839383322
 31
0.0
  0
LINE
  5
FC
330
1F
100
AcDbEntity
  8
0
  6
SLD-Durchgehend
 62
     7
370
    25
100
AcDbLine
 10
438.6618920813
 20
369.5839383322
 30
0.0
 11
438.6618920813
 21
377.0839383322
 31
0.0
  0
LINE
  5
FD
330
1F
100
AcDbEntity
  8
0
  6
SLD-Durchgehend
 62
     7
370
    25
100
AcDbLine
 10
446.1618920813
 20
369.5839383322
 30
0.0
 11
438.6618920813
 21
369.5839383322
 31
0.0
  0
LINE
  5
FE
330
1F
100
AcDbEntity
  8
0
  6
SLD-Durchgehend
 62
     7
370
    25
100
AcDbLine
 10
425.1618920813
 20
377.0839383322
 30
0.0
 11
432.6618920813
 21
377.0839383322
 31
0.0
  0
LINE
  5
FF
330
1F
100
AcDbEntity
  8
0
  6
SLD-Durchgehend
 62
     7
370
    25
100
AcDbLine
 10
425.1618920813
 20
369.5839383322
 30
0.0
 11
425.1618920813
 21
377.0839383322
 31
0.0
  0
LINE
  5
100
330
1F
100
AcDbEntity
  8
0
  6
SLD-Durchgehend
 62
     7
370
    25
100
AcDbLine
 10
432.6618920813
 20
369.5839383322
 30
0.0
 11
425.1618920813
 21
369.5839383322
 31
0.0
  0
LINE
  5
101
330
1F
100
AcDbEntity
  8
0
  6
SLD-Durchgehend
 62
     7
370
    25
100
AcDbLine
 10
432.6618920813
 20
377.0839383322
 30
0.0
 11
432.6618920813
 21
369.5839383322
 31
0.0
  0
LINE
  5
102
330
1F
100
AcDbEntity
  8
0
  6
SLD-Durchgehend
 62
     7
370
    25
100
AcDbLine
 10
411.6618920813
 20
377.0839383322
 30
0.0
 11
419.1618920813
 21
377.0839383322
 31
0.0
  0
LINE
  5
103
330
1F
100
AcDbEntity
  8
0
  6
SLD-Durchgehend
 62
     7
370
    25
100
AcDbLine
 10
411.6618920813
 20
369.5839383322
 30
0.0
 11
411.6618920813
 21
377.0839383322
 31
0.0
  0
LINE
  5
104
330
1F
100
AcDbEntity
  8
0
  6
SLD-Durchgehend
 62
     7
370
    25
100
AcDbLine
 10
419.1618920813
 20
369.5839383322
 30
0.0
 11
411.6618920813
 21
369.5839383322
 31
0.0
  0
LINE
  5
105
330
1F
100
AcDbEntity
  8
0
  6
SLD-Durchgehend
 62
     7
370
    25
100
AcDbLine
 10
419.1618920813
 20
377.0839383322
 30
0.0
 11
419.1618920813
 21
369.5839383322
 31
0.0
  0
LINE
  5
106
330
1F
100
AcDbEntity
  8
0
  6
SLD-Durchgehend
 62
     7
370
    25
100
AcDbLine
 10
398.1618920813
 20
377.0839383322
 30
0.0
 11
405.6618920813
 21
377.0839383322
 31
0.0
  0
LINE
  5
107
330
1F
100
AcDbEntity
  8
0
  6
SLD-Durchgehend
 62
     7
370
    25
100
AcDbLine
 10
398.1618920813
 20
369.5839383322
 30
0.0
 11
398.1618920813
 21
377.0839383322
 31
0.0
  0
LINE
  5
108
330
1F
100
AcDbEntity
  8
0
  6
SLD-Durchgehend
 62
     7
370
    25
100
AcDbLine
 10
405.6618920813
 20
369.5839383322
 30
0.0
 11
398.1618920813
 21
369.5839383322
 31
0.0
  0
LINE
  5
109
330
1F
100
AcDbEntity
  8
0
  6
SLD-Durchgehend
 62
     7
370
    25
100
AcDbLine
 10
405.6618920813
 20
377.0839383322
 30
0.0
 11
405.6618920813
 21
369.5839383322
 31
0.0
  0
LINE
  5
10A
330
1F
100
AcDbEntity
  8
0
  6
SLD-Durchgehend
 62
     7
370
    25
100
AcDbLine
 10
384.6618920813
 20
377.0839383322
 30
0.0
 11
392.1618920813
 21
377.0839383322
 31
0.0
  0
LINE
  5
10B
330
1F
100
AcDbEntity
  8
0
  6
SLD-Durchgehend
 62
     7
370
    25
100
AcDbLine
 10
384.6618920813
 20
369.5839383322
 30
0.0
 11
384.6618920813
 21
377.0839383322
 31
0.0
  0
LINE
  5
10C
330
1F
100
AcDbEntity
  8
0
  6
SLD-Durchgehend
 62
     7
370
    25
100
AcDbLine
 10
392.1618920813
 20
369.5839383322
 30
0.0
 11
384.6618920813
 21
369.5839383322
 31
0.0
  0
LINE
  5
10D
330
1F
100
AcDbEntity
  8
0
  6
SLD-Durchgehend
 62
     7
370
    25
100
AcDbLine
 10
392.1618920813
 20
377.0839383322
 30
0.0
 11
392.1618920813
 21
369.5839383322
 31
0.0
  0
LINE
  5
10E
330
1F
100
AcDbEntity
  8
0
  6
SLD-Durchgehend
 62
     7
370
    25
100
AcDbLine
 10
371.1618920813
 20
377.0839383322
 30
0.0
 11
378.6618920813
 21
377.0839383322
 31
0.0
  0
LINE
  5
10F
330
1F
100
AcDbEntity
  8
0
  6
SLD-Durchgehend
 62
     7
370
    25
100
AcDbLine
 10
371.1618920813
 20
369.5839383322
 30
0.0
 11
371.1618920813
 21
377.0839383322
 31
0.0
  0
LINE
  5
110
330
1F
100
AcDbEntity
  8
0
  6
SLD-Durchgehend
 62
     7
370
    25
100
AcDbLine
 10
378.6618920813
 20
369.5839383322
 30
0.0
 11
371.1618920813
 21
369.5839383322
 31
0.0
  0
LINE
  5
111
330
1F
100
AcDbEntity
  8
0
  6
SLD-Durchgehend
 62
     7
370
    25
100
AcDbLine
 10
378.6618920813
 20
377.0839383322
 30
0.0
 11
378.6618920813
 21
369.5839383322
 31
0.0
  0
ARC
  5
112
330
1F
100
AcDbEntity
  8
0
  6
SLD-Durchgehend
 62
     7
370
    25
100
AcDbCircle
 10
329.1618920813
 20
392.0839383322
 30
0.0
 40
3.0
100
AcDbArc
 50
90.0
 51
180.0
  0
LINE
  5
113
330
1F
100
AcDbEntity
  8
0
  6
SLD-Durchgehend
 62
     7
370
    25
100
AcDbLine
 10
329.1618920813
 20
395.0839383322
 30
0.0
 11
461.1618920813
 21
395.0839383322
 31
0.0
  0
ARC
  5
114
330
1F
100
AcDbEntity
  8
0
  6
SLD-Durchgehend
 62
     7
370
    25
100
AcDbCircle
 10
461.1618920813
 20
392.0839383322
 30
0.0
 40
3.0
100
AcDbArc
 50
0.0
 51
90.0
  0
LINE
  5
115
330
1F
100
AcDbEntity
  8
0
  6
SLD-Durchgehend
 62
     7
370
    25
100
AcDbLine
 10
464.1618920813
 20
392.0839383322
 30
0.0
 11
464.1618920813
 21
260.0839383322
 31
0.0
  0
ARC
  5
116
330
1F
100
AcDbEntity
  8
0
  6
SLD-Durchgehend
 62
     7
370
    25
100
AcDbCircle
 10
461.1618920813
 20
260.0839383322
 30
0.0
 40
3.0
100
AcDbArc
 50
270.0
 51
0.0
  0
LINE
  5
117
330
1F
100
AcDbEntity
  8
0
  6
SLD-Durchgehend
 62
     7
370
    25
100
AcDbLine
 10
461.1618920813
 20
257.0839383322
 30
0.0
 11
329.1618920813
 21
257.0839383322
 31
0.0
  0
ARC
  5
118
330
1F
100
AcDbEntity
  8
0
  6
SLD-Durchgehend
 62
     7
370
    25
100
AcDbCircle
 10
329.1618920813
 20
260.0839383322
 30
0.0
 40
3.0
100
AcDbArc
 50
180.0
 51
270.0
  0
LINE
  5
119
330
1F
100
AcDbEntity
  8
0
  6
SLD-Durchgehend
 62
     7
370
    25
100
AcDbLine
 10
326.1618920813
 20
260.0839383322
 30
0.0
 11
326.1618920813
 21
392.0839383322
 31
0.0
  0
LINE
  5
11A
330
1F
100
AcDbEntity
  8
0
  6
SLD-Durchgehend
 62
     7
370
    25
100
AcDbLine
 10
344.1618920813
 20
369.5839383322
 30
0.0
 11
344.1618920813
 21
377.0839383322
 31
0.0
  0
LINE
  5
11B
330
1F
100
AcDbEntity
  8
0
  6
SLD-Durchgehend
 62
     7
370
    25
100
AcDbLine
 10
351.6618920813
 20
369.5839383322
 30
0.0
 11
344.1618920813
 21
369.5839383322
 31
0.0
  0
LINE
  5
11C
330
1F
100
AcDbEntity
  8
0
  6
SLD-Durchgehend
 62
     7
370
    25
100
AcDbLine
 10
351.6618920813
 20
377.0839383322
 30
0.0
 11
351.6618920813
 21
369.5839383322
 31
0.0
  0
LINE
  5
11D
330
1F
100
AcDbEntity
  8
0
  6
SLD-Durchgehend
 62
     7
370
    25
100
AcDbLine
 10
357.6618920813
 20
369.5839383322
 30
0.0
 11
357.6618920813
 21
377.0839383322
 31
0.0
  0
LINE
  5
11E
330
1F
100
AcDbEntity
  8
0
  6
SLD-Durchgehend
 62
     7
370
    25
100
AcDbLine
 10
365.1618920813
 20
369.5839383322
 30
0.0
 11
357.6618920813
 21
369.5839383322
 31
0.0
  0
LINE
  5
11F
330
1F
100
AcDbEntity
  8
0
  6
SLD-Durchgehend
 62
     7
370
    25
100
AcDbLine
 10
365.1618920813
 20
377.0839383322
 30
0.0
 11
365.1618920813
 21
369.5839383322
 31
0.0
  0
LINE
  5
120
330
1F
100
AcDbEntity
  8
0
  6
SLD-Durchgehend
 62
     7
370
    25
100
AcDbLine
 10
357.6618920813
 20
377.0839383322
 30
0.0
 11
365.1618920813
 21
377.0839383322
 31
0.0
  0
LINE
  5
121
330
1F
100
AcDbEntity
  8
0
  6
SLD-Durchgehend
 62
     7
370
    25
100
AcDbLine
 10
411.6618920813
 20
315.5839383322
 30
0.0
 11
411.6618920813
 21
323.0839383322
 31
0.0
  0
LINE
  5
122
330
1F
100
AcDbEntity
  8
0
  6
SLD-Durchgehend
 62
     7
370
    25
100
AcDbLine
 10
419.1618920813
 20
315.5839383322
 30
0.0
 11
411.6618920813
 21
315.5839383322
 31
0.0
  0
LINE
  5
123
330
1F
100
AcDbEntity
  8
0
  6
SLD-Durchgehend
 62
     7
370
    25
100
AcDbLine
 10
405.6618920813
 20
323.0839383322
 30
0.0
 11
405.6618920813
 21
315.5839383322
 31
0.0
  0
LINE
  5
124
330
1F
100
AcDbEntity
  8
0
  6
SLD-Durchgehend
 62
     7
370
    25
100
AcDbLine
 10
398.1618920813
 20
323.0839383322
 30
0.0
 11
405.6618920813
 21
323.0839383322
 31
0.0
  0
LINE
  5
125
330
1F
100
AcDbEntity
  8
0
  6
SLD-Durchgehend
 62
     7
370
    25
100
AcDbLine
 10
398.1618920813
 20
315.5839383322
 30
0.0
 11
398.1618920813
 21
323.0839383322
 31
0.0
  0
LINE
  5
126
330
1F
100
AcDbEntity
  8
0
  6
SLD-Durchgehend
 62
     7
370
    25
100
AcDbLine
 10
405.6618920813
 20
315.5839383322
 30
0.0
 11
398.1618920813
 21
315.5839383322
 31
0.0
  0
LINE
  5
127
330
1F
100
AcDbEntity
  8
0
  6
SLD-Durchgehend
 62
     7
370
    25
100
AcDbLine
 10
392.1618920813
 20
323.0839383322
 30
0.0
 11
392.1618920813
 21
315.5839383322
 31
0.0
  0
LINE
  5
128
330
1F
100
AcDbEntity
  8
0
  6
SLD-Durchgehend
 62
     7
370
    25
100
AcDbLine
 10
384.6618920813
 20
323.0839383322
 30
0.0
 11
392.1618920813
 21
323.0839383322
 31
0.0
  0
LINE
  5
129
330
1F
100
AcDbEntity
  8
0
  6
SLD-Durchgehend
 62
     7
370
    25
100
AcDbLine
 10
384.6618920813
 20
315.5839383322
 30
0.0
 11
384.6618920813
 21
323.0839383322
 31
0.0
  0
LINE
  5
12A
330
1F
100
AcDbEntity
  8
0
  6
SLD-Durchgehend
 62
     7
370
    25
100
AcDbLine
 10
392.1618920813
 20
315.5839383322
 30
0.0
 11
384.6618920813
 21
315.5839383322
 31
0.0
  0
LINE
  5
12B
330
1F
100
AcDbEntity
  8
0
  6
SLD-Durchgehend
 62
     7
370
    25
100
AcDbLine
 10
378.6618920813
 20
323.0839383322
 30
0.0
 11
378.6618920813
 21
315.5839383322
 31
0.0
  0
LINE
  5
12C
330
1F
100
AcDbEntity
  8
0
  6
SLD-Durchgehend
 62
     7
370
    25
100
AcDbLine
 10
432.6618920813
 20
363.5839383322
 30
0.0
 11
432.6618920813
 21
356.0839383322
 31
0.0
  0
LINE
  5
12D
330
1F
100
AcDbEntity
  8
0
  6
SLD-Durchgehend
 62
     7
370
    25
100
AcDbLine
 10
371.1618920813
 20
315.5839383322
 30
0.0
 11
371.1618920813
 21
323.0839383322
 31
0.0
  0
LINE
  5
12E
330
1F
100
AcDbEntity
  8
0
  6
SLD-Durchgehend
 62
     7
370
    25
100
AcDbLine
 10
378.6618920813
 20
315.5839383322
 30
0.0
 11
371.1618920813
 21
315.5839383322
 31
0.0
  0
LINE
  5
12F
330
1F
100
AcDbEntity
  8
0
  6
SLD-Durchgehend
 62
     7
370
    25
100
AcDbLine
 10
365.1618920813
 20
323.0839383322
 30
0.0
 11
365.1618920813
 21
315.5839383322
 31
0.0
  0
LINE
  5
130
330
1F
100
AcDbEntity
  8
0
  6
SLD-Durchgehend
 62
     7
370
    25
100
AcDbLine
 10
357.6618920813
 20
323.0839383322
 30
0.0
 11
365.1618920813
 21
323.0839383322
 31
0.0
  0
LINE
  5
131
330
1F
100
AcDbEntity
  8
0
  6
SLD-Durchgehend
 62
     7
370
    25
100
AcDbLine
 10
357.6618920813
 20
315.5839383322
 30
0.0
 11
357.6618920813
 21
323.0839383322
 31
0.0
  0
LINE
  5
132
330
1F
100
AcDbEntity
  8
0
  6
SLD-Durchgehend
 62
     7
370
    25
100
AcDbLine
 10
365.1618920813
 20
315.5839383322
 30
0.0
 11
357.6618920813
 21
315.5839383322
 31
0.0
  0
LINE
  5
133
330
1F
100
AcDbEntity
  8
0
  6
SLD-Durchgehend
 62
     7
370
    25
100
AcDbLine
 10
351.6618920813
 20
323.0839383322
 30
0.0
 11
351.6618920813
 21
315.5839383322
 31
0.0
  0
LINE
  5
134
330
1F
100
AcDbEntity
  8
0
  6
SLD-Durchgehend
 62
     7
370
    25
100
AcDbLine
 10
344.1618920813
 20
323.0839383322
 30
0.0
 11
351.6618920813
 21
323.0839383322
 31
0.0
  0
LINE
  5
135
330
1F
100
AcDbEntity
  8
0
  6
SLD-Durchgehend
 62
     7
370
    25
100
AcDbLine
 10
344.1618920813
 20
315.5839383322
 30
0.0
 11
344.1618920813
 21
323.0839383322
 31
0.0
  0
LINE
  5
136
330
1F
100
AcDbEntity
  8
0
  6
SLD-Durchgehend
 62
     7
370
    25
100
AcDbLine
 10
351.6618920813
 20
315.5839383322
 30
0.0
 11
344.1618920813
 21
315.5839383322
 31
0.0
  0
LINE
  5
137
330
1F
100
AcDbEntity
  8
0
  6
SLD-Durchgehend
 62
     7
370
    25
100
AcDbLine
 10
446.1618920813
 20
336.5839383322
 30
0.0
 11
446.1618920813
 21
329.0839383322
 31
0.0
  0
LINE
  5
138
330
1F
100
AcDbEntity
  8
0
  6
SLD-Durchgehend
 62
     7
370
    25
100
AcDbLine
 10
438.6618920813
 20
336.5839383322
 30
0.0
 11
446.1618920813
 21
336.5839383322
 31
0.0
  0
LINE
  5
139
330
1F
100
AcDbEntity
  8
0
  6
SLD-Durchgehend
 62
     7
370
    25
100
AcDbLine
 10
438.6618920813
 20
329.0839383322
 30
0.0
 11
438.6618920813
 21
336.5839383322
 31
0.0
  0
LINE
  5
13A
330
1F
100
AcDbEntity
  8
0
  6
SLD-Durchgehend
 62
     7
370
    25
100
AcDbLine
 10
446.1618920813
 20
329.0839383322
 30
0.0
 11
438.6618920813
 21
329.0839383322
 31
0.0
  0
LINE
  5
13B
330
1F
100
AcDbEntity
  8
0
  6
SLD-Durchgehend
 62
     7
370
    25
100
AcDbLine
 10
432.6618920813
 20
336.5839383322
 30
0.0
 11
432.6618920813
 21
329.0839383322
 31
0.0
  0
LINE
  5
13C
330
1F
100
AcDbEntity
  8
0
  6
SLD-Durchgehend
 62
     7
370
    25
100
AcDbLine
 10
378.6618920813
 20
363.5839383322
 30
0.0
 11
378.6618920813
 21
356.0839383322
 31
0.0
  0
LINE
  5
13D
330
1F
100
AcDbEntity
  8
0
  6
SLD-Durchgehend
 62
     7
370
    25
100
AcDbLine
 10
425.1618920813
 20
329.0839383322
 30
0.0
 11
425.1618920813
 21
336.5839383322
 31
0.0
  0
LINE
  5
13E
330
1F
100
AcDbEntity
  8
0
  6
SLD-Durchgehend
 62
     7
370
    25
100
AcDbLine
 10
371.1618920813
 20
356.0839383322
 30
0.0
 11
371.1618920813
 21
363.5839383322
 31
0.0
  0
LINE
  5
13F
330
1F
100
AcDbEntity
  8
0
  6
SLD-Durchgehend
 62
     7
370
    25
100
AcDbLine
 10
378.6618920813
 20
356.0839383322
 30
0.0
 11
371.1618920813
 21
356.0839383322
 31
0.0
  0
LINE
  5
140
330
1F
100
AcDbEntity
  8
0
  6
SLD-Durchgehend
 62
     7
370
    25
100
AcDbLine
 10
365.1618920813
 20
363.5839383322
 30
0.0
 11
365.1618920813
 21
356.0839383322
 31
0.0
  0
LINE
  5
141
330
1F
100
AcDbEntity
  8
0
  6
SLD-Durchgehend
 62
     7
370
    25
100
AcDbLine
 10
357.6618920813
 20
363.5839383322
 30
0.0
 11
365.1618920813
 21
363.5839383322
 31
0.0
  0
LINE
  5
142
330
1F
100
AcDbEntity
  8
0
  6
SLD-Durchgehend
 62
     7
370
    25
100
AcDbLine
 10
357.6618920813
 20
356.0839383322
 30
0.0
 11
357.6618920813
 21
363.5839383322
 31
0.0
  0
LINE
  5
143
330
1F
100
AcDbEntity
  8
0
  6
SLD-Durchgehend
 62
     7
370
    25
100
AcDbLine
 10
365.1618920813
 20
356.0839383322
 30
0.0
 11
357.6618920813
 21
356.0839383322
 31
0.0
  0
LINE
  5
144
330
1F
100
AcDbEntity
  8
0
  6
SLD-Durchgehend
 62
     7
370
    25
100
AcDbLine
 10
351.6618920813
 20
363.5839383322
 30
0.0
 11
351.6618920813
 21
356.0839383322
 31
0.0
  0
LINE
  5
145
330
1F
100
AcDbEntity
  8
0
  6
SLD-Durchgehend
 62
     7
370
    25
100
AcDbLine
 10
344.1618920813
 20
363.5839383322
 30
0.0
 11
351.6618920813
 21
363.5839383322
 31
0.0
  0
LINE
  5
146
330
1F
100
AcDbEntity
  8
0
  6
SLD-Durchgehend
 62
     7
370
    25
100
AcDbLine
 10
344.1618920813
 20
356.0839383322
 30
0.0
 11
344.1618920813
 21
363.5839383322
 31
0.0
  0
LINE
  5
147
330
1F
100
AcDbEntity
  8
0
  6
SLD-Durchgehend
 62
     7
370
    25
100
AcDbLine
 10
351.6618920813
 20
356.0839383322
 30
0.0
 11
344.1618920813
 21
356.0839383322
 31
0.0
  0
LINE
  5
148
330
1F
100
AcDbEntity
  8
0
  6
SLD-Durchgehend
 62
     7
370
    25
100
AcDbLine
 10
446.1618920813
 20
377.0839383322
 30
0.0
 11
446.1618920813
 21
369.5839383322
 31
0.0
  0
LINE
  5
149
330
1F
100
AcDbEntity
  8
0
  6
SLD-Durchgehend
 62
     7
370
    25
100
AcDbLine
 10
438.6618920813
 20
377.0839383322
 30
0.0
 11
446.1618920813
 21
377.0839383322
 31
0.0
  0
LINE
  5
14A
330
1F
100
AcDbEntity
  8
0
  6
SLD-Durchgehend
 62
     7
370
    25
100
AcDbLine
 10
425.1618920813
 20
309.5839383322
 30
0.0
 11
432.6618920813
 21
309.5839383322
 31
0.0
  0
LINE
  5
14B
330
1F
100
AcDbEntity
  8
0
  6
SLD-Durchgehend
 62
     7
370
    25
100
AcDbLine
 10
425.1618920813
 20
302.0839383322
 30
0.0
 11
425.1618920813
 21
309.5839383322
 31
0.0
  0
LINE
  5
14C
330
1F
100
AcDbEntity
  8
0
  6
SLD-Durchgehend
 62
     7
370
    25
100
AcDbLine
 10
432.6618920813
 20
302.0839383322
 30
0.0
 11
425.1618920813
 21
302.0839383322
 31
0.0
  0
LINE
  5
14D
330
1F
100
AcDbEntity
  8
0
  6
SLD-Durchgehend
 62
     7
370
    25
100
AcDbLine
 10
419.1618920813
 20
309.5839383322
 30
0.0
 11
419.1618920813
 21
302.0839383322
 31
0.0
  0
LINE
  5
14E
330
1F
100
AcDbEntity
  8
0
  6
SLD-Durchgehend
 62
     7
370
    25
100
AcDbLine
 10
411.6618920813
 20
309.5839383322
 30
0.0
 11
419.1618920813
 21
309.5839383322
 31
0.0
  0
LINE
  5
14F
330
1F
100
AcDbEntity
  8
0
  6
SLD-Durchgehend
 62
     7
370
    25
100
AcDbLine
 10
411.6618920813
 20
302.0839383322
 30
0.0
 11
411.6618920813
 21
309.5839383322
 31
0.0
  0
LINE
  5
150
330
1F
100
AcDbEntity
  8
0
  6
SLD-Durchgehend
 62
     7
370
    25
100
AcDbLine
 10
419.1618920813
 20
302.0839383322
 30
0.0
 11
411.6618920813
 21
302.0839383322
 31
0.0
  0
LINE
  5
151
330
1F
100
AcDbEntity
  8
0
  6
SLD-Durchgehend
 62
     7
370
    25
100
AcDbLine
 10
405.6618920813
 20
309.5839383322
 30
0.0
 11
405.6618920813
 21
302.0839383322
 31
0.0
  0
LINE
  5
152
330
1F
100
AcDbEntity
  8
0
  6
SLD-Durchgehend
 62
     7
370
    25
100
AcDbLine
 10
398.1618920813
 20
309.5839383322
 30
0.0
 11
405.6618920813
 21
309.5839383322
 31
0.0
  0
LINE
  5
153
330
1F
100
AcDbEntity
  8
0
  6
SLD-Durchgehend
 62
     7
370
    25
100
AcDbLine
 10
398.1618920813
 20
302.0839383322
 30
0.0
 11
398.1618920813
 21
309.5839383322
 31
0.0
  0
LINE
  5
154
330
1F
100
AcDbEntity
  8
0
  6
SLD-Durchgehend
 62
     7
370
    25
100
AcDbLine
 10
344.1618920813
 20
336.5839383322
 30
0.0
 11
351.6618920813
 21
336.5839383322
 31
0.0
  0
LINE
  5
155
330
1F
100
AcDbEntity
  8
0
  6
SLD-Durchgehend
 62
     7
370
    25
100
AcDbLine
 10
344.1618920813
 20
329.0839383322
 30
0.0
 11
344.1618920813
 21
336.5839383322
 31
0.0
  0
LINE
  5
156
330
1F
100
AcDbEntity
  8
0
  6
SLD-Durchgehend
 62
     7
370
    25
100
AcDbLine
 10
351.6618920813
 20
329.0839383322
 30
0.0
 11
344.1618920813
 21
329.0839383322
 31
0.0
  0
LINE
  5
157
330
1F
100
AcDbEntity
  8
0
  6
SLD-Durchgehend
 62
     7
370
    25
100
AcDbLine
 10
446.1618920813
 20
350.0839383322
 30
0.0
 11
446.1618920813
 21
342.5839383322
 31
0.0
  0
LINE
  5
158
330
1F
100
AcDbEntity
  8
0
  6
SLD-Durchgehend
 62
     7
370
    25
100
AcDbLine
 10
438.6618920813
 20
350.0839383322
 30
0.0
 11
446.1618920813
 21
350.0839383322
 31
0.0
  0
LINE
  5
159
330
1F
100
AcDbEntity
  8
0
  6
SLD-Durchgehend
 62
     7
370
    25
100
AcDbLine
 10
438.6618920813
 20
342.5839383322
 30
0.0
 11
438.6618920813
 21
350.0839383322
 31
0.0
  0
LINE
  5
15A
330
1F
100
AcDbEntity
  8
0
  6
SLD-Durchgehend
 62
     7
370
    25
100
AcDbLine
 10
446.1618920813
 20
342.5839383322
 30
0.0
 11
438.6618920813
 21
342.5839383322
 31
0.0
  0
LINE
  5
15B
330
1F
100
AcDbEntity
  8
0
  6
SLD-Durchgehend
 62
     7
370
    25
100
AcDbLine
 10
432.6618920813
 20
350.0839383322
 30
0.0
 11
432.6618920813
 21
342.5839383322
 31
0.0
  0
LINE
  5
15C
330
1F
100
AcDbEntity
  8
0
  6
SLD-Durchgehend
 62
     7
370
    25
100
AcDbLine
 10
425.1618920813
 20
350.0839383322
 30
0.0
 11
432.6618920813
 21
350.0839383322
 31
0.0
  0
LINE
  5
15D
330
1F
100
AcDbEntity
  8
0
  6
SLD-Durchgehend
 62
     7
370
    25
100
AcDbLine
 10
425.1618920813
 20
342.5839383322
 30
0.0
 11
425.1618920813
 21
350.0839383322
 31
0.0
  0
LINE
  5
15E
330
1F
100
AcDbEntity
  8
0
  6
SLD-Durchgehend
 62
     7
370
    25
100
AcDbLine
 10
432.6618920813
 20
342.5839383322
 30
0.0
 11
425.1618920813
 21
342.5839383322
 31
0.0
  0
LINE
  5
15F
330
1F
100
AcDbEntity
  8
0
  6
SLD-Durchgehend
 62
     7
370
    25
100
AcDbLine
 10
419.1618920813
 20
350.0839383322
 30
0.0
 11
419.1618920813
 21
342.5839383322
 31
0.0
  0
LINE
  5
160
330
1F
100
AcDbEntity
  8
0
  6
SLD-Durchgehend
 62
     7
370
    25
100
AcDbLine
 10
411.6618920813
 20
350.0839383322
 30
0.0
 11
419.1618920813
 21
350.0839383322
 31
0.0
  0
LINE
  5
161
330
1F
100
AcDbEntity
  8
0
  6
SLD-Durchgehend
 62
     7
370
    25
100
AcDbLine
 10
411.6618920813
 20
342.5839383322
 30
0.0
 11
411.6618920813
 21
350.0839383322
 31
0.0
  0
LINE
  5
162
330
1F
100
AcDbEntity
  8
0
  6
SLD-Durchgehend
 62
     7
370
    25
100
AcDbLine
 10
419.1618920813
 20
342.5839383322
 30
0.0
 11
411.6618920813
 21
342.5839383322
 31
0.0
  0
LINE
  5
163
330
1F
100
AcDbEntity
  8
0
  6
SLD-Durchgehend
 62
     7
370
    25
100
AcDbLine
 10
405.6618920813
 20
350.0839383322
 30
0.0
 11
405.6618920813
 21
342.5839383322
 31
0.0
  0
LINE
  5
164
330
1F
100
AcDbEntity
  8
0
  6
SLD-Durchgehend
 62
     7
370
    25
100
AcDbLine
 10
398.1618920813
 20
350.0839383322
 30
0.0
 11
405.6618920813
 21
350.0839383322
 31
0.0
  0
LINE
  5
165
330
1F
100
AcDbEntity
  8
0
  6
SLD-Durchgehend
 62
     7
370
    25
100
AcDbLine
 10
398.1618920813
 20
342.5839383322
 30
0.0
 11
398.1618920813
 21
350.0839383322
 31
0.0
  0
LINE
  5
166
330
1F
100
AcDbEntity
  8
0
  6
SLD-Durchgehend
 62
     7
370
    25
100
AcDbLine
 10
405.6618920813
 20
342.5839383322
 30
0.0
 11
398.1618920813
 21
342.5839383322
 31
0.0
  0
LINE
  5
167
330
1F
100
AcDbEntity
  8
0
  6
SLD-Durchgehend
 62
     7
370
    25
100
AcDbLine
 10
392.1618920813
 20
350.0839383322
 30
0.0
 11
392.1618920813
 21
342.5839383322
 31
0.0
  0
LINE
  5
168
330
1F
100
AcDbEntity
  8
0
  6
SLD-Durchgehend
 62
     7
370
    25
100
AcDbLine
 10
384.6618920813
 20
350.0839383322
 30
0.0
 11
392.1618920813
 21
350.0839383322
 31
0.0
  0
LINE
  5
169
330
1F
100
AcDbEntity
  8
0
  6
SLD-Durchgehend
 62
     7
370
    25
100
AcDbLine
 10
384.6618920813
 20
342.5839383322
 30
0.0
 11
384.6618920813
 21
350.0839383322
 31
0.0
  0
LINE
  5
16A
330
1F
100
AcDbEntity
  8
0
  6
SLD-Durchgehend
 62
     7
370
    25
100
AcDbLine
 10
371.1618920813
 20
275.0839383322
 30
0.0
 11
371.1618920813
 21
282.5839383322
 31
0.0
  0
LINE
  5
16B
330
1F
100
AcDbEntity
  8
0
  6
SLD-Durchgehend
 62
     7
370
    25
100
AcDbLine
 10
378.6618920813
 20
275.0839383322
 30
0.0
 11
371.1618920813
 21
275.0839383322
 31
0.0
  0
LINE
  5
16C
330
1F
100
AcDbEntity
  8
0
  6
SLD-Durchgehend
 62
     7
370
    25
100
AcDbLine
 10
365.1618920813
 20
282.5839383322
 30
0.0
 11
365.1618920813
 21
275.0839383322
 31
0.0
  0
LINE
  5
16D
330
1F
100
AcDbEntity
  8
0
  6
SLD-Durchgehend
 62
     7
370
    25
100
AcDbLine
 10
357.6618920813
 20
282.5839383322
 30
0.0
 11
365.1618920813
 21
282.5839383322
 31
0.0
  0
LINE
  5
16E
330
1F
100
AcDbEntity
  8
0
  6
SLD-Durchgehend
 62
     7
370
    25
100
AcDbLine
 10
357.6618920813
 20
275.0839383322
 30
0.0
 11
357.6618920813
 21
282.5839383322
 31
0.0
  0
LINE
  5
16F
330
1F
100
AcDbEntity
  8
0
  6
SLD-Durchgehend
 62
     7
370
    25
100
AcDbLine
 10
365.1618920813
 20
275.0839383322
 30
0.0
 11
357.6618920813
 21
275.0839383322
 31
0.0
  0
LINE
  5
170
330
1F
100
AcDbEntity
  8
0
  6
SLD-Durchgehend
 62
     7
370
    25
100
AcDbLine
 10
351.6618920813
 20
282.5839383322
 30
0.0
 11
351.6618920813
 21
275.0839383322
 31
0.0
  0
LINE
  5
171
330
1F
100
AcDbEntity
  8
0
  6
SLD-Durchgehend
 62
     7
370
    25
100
AcDbLine
 10
344.1618920813
 20
282.5839383322
 30
0.0
 11
351.6618920813
 21
282.5839383322
 31
0.0
  0
LINE
  5
172
330
1F
100
AcDbEntity
  8
0
  6
SLD-Durchgehend
 62
     7
370
    25
100
AcDbLine
 10
344.1618920813
 20
275.0839383322
 30
0.0
 11
344.1618920813
 21
282.5839383322
 31
0.0
  0
LINE
  5
173
330
1F
100
AcDbEntity
  8
0
  6
SLD-Durchgehend
 62
     7
370
    25
100
AcDbLine
 10
351.6618920813
 20
275.0839383322
 30
0.0
 11
344.1618920813
 21
275.0839383322
 31
0.0
  0
LINE
  5
174
330
1F
100
AcDbEntity
  8
0
  6
SLD-Durchgehend
 62
     7
370
    25
100
AcDbLine
 10
446.1618920813
 20
296.0839383322
 30
0.0
 11
446.1618920813
 21
288.5839383322
 31
0.0
  0
LINE
  5
175
330
1F
100
AcDbEntity
  8
0
  6
SLD-Durchgehend
 62
     7
370
    25
100
AcDbLine
 10
438.6618920813
 20
296.0839383322
 30
0.0
 11
446.1618920813
 21
296.0839383322
 31
0.0
  0
LINE
  5
176
330
1F
100
AcDbEntity
  8
0
  6
SLD-Durchgehend
 62
     7
370
    25
100
AcDbLine
 10
438.6618920813
 20
288.5839383322
 30
0.0
 11
438.6618920813
 21
296.0839383322
 31
0.0
  0
LINE
  5
177
330
1F
100
AcDbEntity
  8
0
  6
SLD-Durchgehend
 62
     7
370
    25
100
AcDbLine
 10
446.1618920813
 20
363.5839383322
 30
0.0
 11
446.1618920813
 21
356.0839383322
 31
0.0
  0
LINE
  5
178
330
1F
100
AcDbEntity
  8
0
  6
SLD-Durchgehend
 62
     7
370
    25
100
AcDbLine
 10
432.6618920813
 20
296.0839383322
 30
0.0
 11
432.6618920813
 21
288.5839383322
 31
0.0
  0
LINE
  5
179
330
1F
100
AcDbEntity
  8
0
  6
SLD-Durchgehend
 62
     7
370
    25
100
AcDbLine
 10
425.1618920813
 20
296.0839383322
 30
0.0
 11
432.6618920813
 21
296.0839383322
 31
0.0
  0
LINE
  5
17A
330
1F
100
AcDbEntity
  8
0
  6
SLD-Durchgehend
 62
     7
370
    25
100
AcDbLine
 10
425.1618920813
 20
288.5839383322
 30
0.0
 11
425.1618920813
 21
296.0839383322
 31
0.0
  0
LINE
  5
17B
330
1F
100
AcDbEntity
  8
0
  6
SLD-Durchgehend
 62
     7
370
    25
100
AcDbLine
 10
432.6618920813
 20
288.5839383322
 30
0.0
 11
425.1618920813
 21
288.5839383322
 31
0.0
  0
LINE
  5
17C
330
1F
100
AcDbEntity
  8
0
  6
SLD-Durchgehend
 62
     7
370
    25
100
AcDbLine
 10
419.1618920813
 20
296.0839383322
 30
0.0
 11
419.1618920813
 21
288.5839383322
 31
0.0
  0
LINE
  5
17D
330
1F
100
AcDbEntity
  8
0
  6
SLD-Durchgehend
 62
     7
370
    25
100
AcDbLine
 10
411.6618920813
 20
296.0839383322
 30
0.0
 11
419.1618920813
 21
296.0839383322
 31
0.0
  0
LINE
  5
17E
330
1F
100
AcDbEntity
  8
0
  6
SLD-Durchgehend
 62
     7
370
    25
100
AcDbLine
 10
411.6618920813
 20
288.5839383322
 30
0.0
 11
411.6618920813
 21
296.0839383322
 31
0.0
  0
LINE
  5
17F
330
1F
100
AcDbEntity
  8
0
  6
SLD-Durchgehend
 62
     7
370
    25
100
AcDbLine
 10
419.1618920813
 20
363.5839383322
 30
0.0
 11
419.1618920813
 21
356.0839383322
 31
0.0
  0
LINE
  5
180
330
1F
100
AcDbEntity
  8
0
  6
SLD-Durchgehend
 62
     7
370
    25
100
AcDbLine
 10
405.6618920813
 20
296.0839383322
 30
0.0
 11
405.6618920813
 21
288.5839383322
 31
0.0
  0
LINE
  5
181
330
1F
100
AcDbEntity
  8
0
  6
SLD-Durchgehend
 62
     7
370
    25
100
AcDbLine
 10
398.1618920813
 20
296.0839383322
 30
0.0
 11
405.6618920813
 21
296.0839383322
 31
0.0
  0
LINE
  5
182
330
1F
100
AcDbEntity
  8
0
  6
SLD-Durchgehend
 62
     7
370
    25
100
AcDbLine
 10
398.1618920813
 20
288.5839383322
 30
0.0
 11
398.1618920813
 21
296.0839383322
 31
0.0
  0
LINE
  5
183
330
1F
100
AcDbEntity
  8
0
  6
SLD-Durchgehend
 62
     7
370
    25
100
AcDbLine
 10
405.6618920813
 20
288.5839383322
 30
0.0
 11
398.1618920813
 21
288.5839383322
 31
0.0
  0
LINE
  5
184
330
1F
100
AcDbEntity
  8
0
  6
SLD-Durchgehend
 62
     7
370
    25
100
AcDbLine
 10
392.1618920813
 20
296.0839383322
 30
0.0
 11
392.1618920813
 21
288.5839383322
 31
0.0
  0
LINE
  5
185
330
1F
100
AcDbEntity
  8
0
  6
SLD-Durchgehend
 62
     7
370
    25
100
AcDbLine
 10
384.6618920813
 20
296.0839383322
 30
0.0
 11
392.1618920813
 21
296.0839383322
 31
0.0
  0
LINE
  5
186
330
1F
100
AcDbEntity
  8
0
  6
SLD-Durchgehend
 62
     7
370
    25
100
AcDbLine
 10
384.6618920813
 20
288.5839383322
 30
0.0
 11
384.6618920813
 21
296.0839383322
 31
0.0
  0
LINE
  5
187
330
1F
100
AcDbEntity
  8
0
  6
SLD-Durchgehend
 62
     7
370
    25
100
AcDbLine
 10
392.1618920813
 20
363.5839383322
 30
0.0
 11
392.1618920813
 21
356.0839383322
 31
0.0
  0
LINE
  5
188
330
1F
100
AcDbEntity
  8
0
  6
SLD-Durchgehend
 62
     7
370
    25
100
AcDbLine
 10
378.6618920813
 20
296.0839383322
 30
0.0
 11
378.6618920813
 21
288.5839383322
 31
0.0
  0
LINE
  5
189
330
1F
100
AcDbEntity
  8
0
  6
SLD-Durchgehend
 62
     7
370
    25
100
AcDbLine
 10
371.1618920813
 20
296.0839383322
 30
0.0
 11
378.6618920813
 21
296.0839383322
 31
0.0
  0
LINE
  5
18A
330
1F
100
AcDbEntity
  8
0
  6
SLD-Durchgehend
 62
     7
370
    25
100
AcDbLine
 10
371.1618920813
 20
288.5839383322
 30
0.0
 11
371.1618920813
 21
296.0839383322
 31
0.0
  0
LINE
  5
18B
330
1F
100
AcDbEntity
  8
0
  6
SLD-Durchgehend
 62
     7
370
    25
100
AcDbLine
 10
378.6618920813
 20
288.5839383322
 30
0.0
 11
371.1618920813
 21
288.5839383322
 31
0.0
  0
LINE
  5
18C
330
1F
100
AcDbEntity
  8
0
  6
SLD-Durchgehend
 62
     7
370
    25
100
AcDbLine
 10
365.1618920813
 20
296.0839383322
 30
0.0
 11
365.1618920813
 21
288.5839383322
 31
0.0
  0
LINE
  5
18D
330
1F
100
AcDbEntity
  8
0
  6
SLD-Durchgehend
 62
     7
370
    25
100
AcDbLine
 10
357.6618920813
 20
296.0839383322
 30
0.0
 11
365.1618920813
 21
296.0839383322
 31
0.0
  0
LINE
  5
18E
330
1F
100
AcDbEntity
  8
0
  6
SLD-Durchgehend
 62
     7
370
    25
100
AcDbLine
 10
357.6618920813
 20
288.5839383322
 30
0.0
 11
357.6618920813
 21
296.0839383322
 31
0.0
  0
LINE
  5
18F
330
1F
100
AcDbEntity
  8
0
  6
SLD-Durchgehend
 62
     7
370
    25
100
AcDbLine
 10
365.1618920813
 20
288.5839383322
 30
0.0
 11
357.6618920813
 21
288.5839383322
 31
0.0
  0
LINE
  5
190
330
1F
100
AcDbEntity
  8
0
  6
SLD-Durchgehend
 62
     7
370
    25
100
AcDbLine
 10
351.6618920813
 20
296.0839383322
 30
0.0
 11
351.6618920813
 21
288.5839383322
 31
0.0
  0
LINE
  5
191
330
1F
100
AcDbEntity
  8
0
  6
SLD-Durchgehend
 62
     7
370
    25
100
AcDbLine
 10
344.1618920813
 20
296.0839383322
 30
0.0
 11
351.6618920813
 21
296.0839383322
 31
0.0
  0
LINE
  5
192
330
1F
100
AcDbEntity
  8
0
  6
SLD-Durchgehend
 62
     7
370
    25
100
AcDbLine
 10
344.1618920813
 20
288.5839383322
 30
0.0
 11
344.1618920813
 21
296.0839383322
 31
0.0
  0
LINE
  5
193
330
1F
100
AcDbEntity
  8
0
  6
SLD-Durchgehend
 62
     7
370
    25
100
AcDbLine
 10
351.6618920813
 20
288.5839383322
 30
0.0
 11
344.1618920813
 21
288.5839383322
 31
0.0
  0
LINE
  5
194
330
1F
100
AcDbEntity
  8
0
  6
SLD-Durchgehend
 62
     7
370
    25
100
AcDbLine
 10
446.1618920813
 20
309.5839383322
 30
0.0
 11
446.1618920813
 21
302.0839383322
 31
0.0
  0
LINE
  5
195
330
1F
100
AcDbEntity
  8
0
  6
SLD-Durchgehend
 62
     7
370
    25
100
AcDbLine
 10
438.6618920813
 20
309.5839383322
 30
0.0
 11
446.1618920813
 21
309.5839383322
 31
0.0
  0
LINE
  5
196
330
1F
100
AcDbEntity
  8
0
  6
SLD-Durchgehend
 62
     7
370
    25
100
AcDbLine
 10
438.6618920813
 20
302.0839383322
 30
0.0
 11
438.6618920813
 21
309.5839383322
 31
0.0
  0
LINE
  5
197
330
1F
100
AcDbEntity
  8
0
  6
SLD-Durchgehend
 62
     7
370
    25
100
AcDbLine
 10
446.1618920813
 20
302.0839383322
 30
0.0
 11
438.6618920813
 21
302.0839383322
 31
0.0
  0
LINE
  5
198
330
1F
100
AcDbEntity
  8
0
  6
SLD-Durchgehend
 62
     7
370
    25
100
AcDbLine
 10
432.6618920813
 20
309.5839383322
 30
0.0
 11
432.6618920813
 21
302.0839383322
 31
0.0
  0
LINE
  5
199
330
1F
100
AcDbEntity
  8
0
  6
SLD-Durchgehend
 62
     7
370
    25
100
AcDbLine
 10
378.6618920813
 20
336.5839383322
 30
0.0
 11
378.6618920813
 21
329.0839383322
 31
0.0
  0
LINE
  5
19A
330
1F
100
AcDbEntity
  8
0
  6
SLD-Durchgehend
 62
     7
370
    25
100
AcDbLine
 10
371.1618920813
 20
336.5839383322
 30
0.0
 11
378.6618920813
 21
336.5839383322
 31
0.0
  0
LINE
  5
19B
330
1F
100
AcDbEntity
  8
0
  6
SLD-Durchgehend
 62
     7
370
    25
100
AcDbLine
 10
371.1618920813
 20
329.0839383322
 30
0.0
 11
371.1618920813
 21
336.5839383322
 31
0.0
  0
LINE
  5
19C
330
1F
100
AcDbEntity
  8
0
  6
SLD-Durchgehend
 62
     7
370
    25
100
AcDbLine
 10
378.6618920813
 20
329.0839383322
 30
0.0
 11
371.1618920813
 21
329.0839383322
 31
0.0
  0
LINE
  5
19D
330
1F
100
AcDbEntity
  8
0
  6
SLD-Durchgehend
 62
     7
370
    25
100
AcDbLine
 10
365.1618920813
 20
336.5839383322
 30
0.0
 11
365.1618920813
 21
329.0839383322
 31
0.0
  0
LINE
  5
19E
330
1F
100
AcDbEntity
  8
0
  6
SLD-Durchgehend
 62
     7
370
    25
100
AcDbLine
 10
357.6618920813
 20
336.5839383322
 30
0.0
 11
365.1618920813
 21
336.5839383322
 31
0.0
  0
LINE
  5
19F
330
1F
100
AcDbEntity
  8
0
  6
SLD-Durchgehend
 62
     7
370
    25
100
AcDbLine
 10
357.6618920813
 20
329.0839383322
 30
0.0
 11
357.6618920813
 21
336.5839383322
 31
0.0
  0
LINE
  5
1A0
330
1F
100
AcDbEntity
  8
0
  6
SLD-Durchgehend
 62
     7
370
    25
100
AcDbLine
 10
365.1618920813
 20
329.0839383322
 30
0.0
 11
357.6618920813
 21
329.0839383322
 31
0.0
  0
LINE
  5
1A1
330
1F
100
AcDbEntity
  8
0
  6
SLD-Durchgehend
 62
     7
370
    25
100
AcDbLine
 10
351.6618920813
 20
336.5839383322
 30
0.0
 11
351.6618920813
 21
329.0839383322
 31
0.0
  0
LINE
  5
1A2
330
1F
100
AcDbEntity
  8
0
  6
SLD-Durchgehend
 62
     7
370
    25
100
AcDbLine
 10
446.1618920813
 20
282.5839383322
 30
0.0
 11
446.1618920813
 21
275.0839383322
 31
0.0
  0
LINE
  5
1A3
330
1F
100
AcDbEntity
  8
0
  6
SLD-Durchgehend
 62
     7
370
    25
100
AcDbLine
 10
438.6618920813
 20
282.5839383322
 30
0.0
 11
446.1618920813
 21
282.5839383322
 31
0.0
  0
LINE
  5
1A4
330
1F
100
AcDbEntity
  8
0
  6
SLD-Durchgehend
 62
     7
370
    25
100
AcDbLine
 10
438.6618920813
 20
275.0839383322
 30
0.0
 11
438.6618920813
 21
282.5839383322
 31
0.0
  0
LINE
  5
1A5
330
1F
100
AcDbEntity
  8
0
  6
SLD-Durchgehend
 62
     7
370
    25
100
AcDbLine
 10
446.1618920813
 20
275.0839383322
 30
0.0
 11
438.6618920813
 21
275.0839383322
 31
0.0
  0
LINE
  5
1A6
330
1F
100
AcDbEntity
  8
0
  6
SLD-Durchgehend
 62
     7
370
    25
100
AcDbLine
 10
432.6618920813
 20
282.5839383322
 30
0.0
 11
432.6618920813
 21
275.0839383322
 31
0.0
  0
LINE
  5
1A7
330
1F
100
AcDbEntity
  8
0
  6
SLD-Durchgehend
 62
     7
370
    25
100
AcDbLine
 10
425.1618920813
 20
282.5839383322
 30
0.0
 11
432.6618920813
 21
282.5839383322
 31
0.0
  0
LINE
  5
1A8
330
1F
100
AcDbEntity
  8
0
  6
SLD-Durchgehend
 62
     7
370
    25
100
AcDbLine
 10
425.1618920813
 20
275.0839383322
 30
0.0
 11
425.1618920813
 21
282.5839383322
 31
0.0
  0
LINE
  5
1A9
330
1F
100
AcDbEntity
  8
0
  6
SLD-Durchgehend
 62
     7
370
    25
100
AcDbLine
 10
371.1618920813
 20
309.5839383322
 30
0.0
 11
378.6618920813
 21
309.5839383322
 31
0.0
  0
LINE
  5
1AA
330
1F
100
AcDbEntity
  8
0
  6
SLD-Durchgehend
 62
     7
370
    25
100
AcDbLine
 10
371.1618920813
 20
302.0839383322
 30
0.0
 11
371.1618920813
 21
309.5839383322
 31
0.0
  0
LINE
  5
1AB
330
1F
100
AcDbEntity
  8
0
  6
SLD-Durchgehend
 62
     7
370
    25
100
AcDbLine
 10
378.6618920813
 20
302.0839383322
 30
0.0
 11
371.1618920813
 21
302.0839383322
 31
0.0
  0
LINE
  5
1AC
330
1F
100
AcDbEntity
  8
0
  6
SLD-Durchgehend
 62
     7
370
    25
100
AcDbLine
 10
365.1618920813
 20
309.5839383322
 30
0.0
 11
365.1618920813
 21
302.0839383322
 31
0.0
  0
LINE
  5
1AD
330
1F
100
AcDbEntity
  8
0
  6
SLD-Durchgehend
 62
     7
370
    25
100
AcDbLine
 10
357.6618920813
 20
309.5839383322
 30
0.0
 11
365.1618920813
 21
309.5839383322
 31
0.0
  0
LINE
  5
1AE
330
1F
100
AcDbEntity
  8
0
  6
SLD-Durchgehend
 62
     7
370
    25
100
AcDbLine
 10
357.6618920813
 20
302.0839383322
 30
0.0
 11
357.6618920813
 21
309.5839383322
 31
0.0
  0
LINE
  5
1AF
330
1F
100
AcDbEntity
  8
0
  6
SLD-Durchgehend
 62
     7
370
    25
100
AcDbLine
 10
365.1618920813
 20
302.0839383322
 30
0.0
 11
357.6618920813
 21
302.0839383322
 31
0.0
  0
LINE
  5
1B0
330
1F
100
AcDbEntity
  8
0
  6
SLD-Durchgehend
 62
     7
370
    25
100
AcDbLine
 10
351.6618920813
 20
309.5839383322
 30
0.0
 11
351.6618920813
 21
302.0839383322
 31
0.0
  0
LINE
  5
1B1
330
1F
100
AcDbEntity
  8
0
  6
SLD-Durchgehend
 62
     7
370
    25
100
AcDbLine
 10
344.1618920813
 20
309.5839383322
 30
0.0
 11
351.6618920813
 21
309.5839383322
 31
0.0
  0
LINE
  5
1B2
330
1F
100
AcDbEntity
  8
0
  6
SLD-Durchgehend
 62
     7
370
    25
100
AcDbLine
 10
344.1618920813
 20
302.0839383322
 30
0.0
 11
344.1618920813
 21
309.5839383322
 31
0.0
  0
LINE
  5
1B3
330
1F
100
AcDbEntity
  8
0
  6
SLD-Durchgehend
 62
     7
370
    25
100
AcDbLine
 10
351.6618920813
 20
302.0839383322
 30
0.0
 11
344.1618920813
 21
302.0839383322
 31
0.0
  0
LINE
  5
1B4
330
1F
100
AcDbEntity
  8
0
  6
SLD-Durchgehend
 62
     7
370
    25
100
AcDbLine
 10
446.1618920813
 20
323.0839383322
 30
0.0
 11
446.1618920813
 21
315.5839383322
 31
0.0
  0
LINE
  5
1B5
330
1F
100
AcDbEntity
  8
0
  6
SLD-Durchgehend
 62
     7
370
    25
100
AcDbLine
 10
344.1618920813
 20
377.0839383322
 30
0.0
 11
351.6618920813
 21
377.0839383322
 31
0.0
  0
LINE
  5
1B6
330
1F
100
AcDbEntity
  8
0
  6
SLD-Durchgehend
 62
     7
370
    25
100
AcDbLine
 10
438.6618920813
 20
315.5839383322
 30
0.0
 11
438.6618920813
 21
323.0839383322
 31
0.0
  0
LINE
  5
1B7
330
1F
100
AcDbEntity
  8
0
  6
SLD-Durchgehend
 62
     7
370
    25
100
AcDbLine
 10
446.1618920813
 20
315.5839383322
 30
0.0
 11
438.6618920813
 21
315.5839383322
 31
0.0
  0
LINE
  5
1B8
330
1F
100
AcDbEntity
  8
0
  6
SLD-Durchgehend
 62
     7
370
    25
100
AcDbLine
 10
432.6618920813
 20
323.0839383322
 30
0.0
 11
432.6618920813
 21
315.5839383322
 31
0.0
  0
LINE
  5
1B9
330
1F
100
AcDbEntity
  8
0
  6
SLD-Durchgehend
 62
     7
370
    25
100
AcDbLine
 10
425.1618920813
 20
323.0839383322
 30
0.0
 11
432.6618920813
 21
323.0839383322
 31
0.0
  0
LINE
  5
1BA
330
1F
100
AcDbEntity
  8
0
  6
SLD-Durchgehend
 62
     7
370
    25
100
AcDbLine
 10
425.1618920813
 20
315.5839383322
 30
0.0
 11
425.1618920813
 21
323.0839383322
 31
0.0
  0
LINE
  5
1BB
330
1F
100
AcDbEntity
  8
0
  6
SLD-Durchgehend
 62
     7
370
    25
100
AcDbLine
 10
432.6618920813
 20
315.5839383322
 30
0.0
 11
425.1618920813
 21
315.5839383322
 31
0.0
  0
LINE
  5
1BC
330
1F
100
AcDbEntity
  8
0
  6
SLD-Durchgehend
 62
     7
370
    25
100
AcDbLine
 10
419.1618920813
 20
323.0839383322
 30
0.0
 11
419.1618920813
 21
315.5839383322
 31
0.0
  0
LINE
  5
1BD
330
1F
100
AcDbEntity
  8
0
  6
SLD-Durchgehend
 62
     7
370
    25
100
AcDbLine
 10
411.6618920813
 20
323.0839383322
 30
0.0
 11
419.1618920813
 21
323.0839383322
 31
0.0
  0
LINE
  5
1BE
330
1F
100
AcDbEntity
  8
0
  6
SLD-Durchgehend
 62
     7
370
    25
100
AcDbLine
 10
384.6618920813
 20
329.0839383322
 30
0.0
 11
384.6618920813
 21
336.5839383322
 31
0.0
  0
LINE
  5
1BF
330
1F
100
AcDbEntity
  8
0
  6
SLD-Durchgehend
 62
     7
370
    25
100
AcDbLine
 10
392.1618920813
 20
329.0839383322
 30
0.0
 11
384.6618920813
 21
329.0839383322
 31
0.0
  0
LINE
  5
1C0
330
1F
100
AcDbEntity
  8
0
  6
SLD-Durchgehend
 62
     7
370
    25
100
AcDbLine
 10
411.6618920813
 20
275.0839383322
 30
0.0
 11
411.6618920813
 21
282.5839383322
 31
0.0
  0
LINE
  5
1C1
330
1F
100
AcDbEntity
  8
0
  6
SLD-Durchgehend
 62
     7
370
    25
100
AcDbLine
 10
419.1618920813
 20
275.0839383322
 30
0.0
 11
411.6618920813
 21
275.0839383322
 31
0.0
  0
LINE
  5
1C2
330
1F
100
AcDbEntity
  8
0
  6
SLD-Durchgehend
 62
     7
370
    25
100
AcDbLine
 10
392.1618920813
 20
288.5839383322
 30
0.0
 11
384.6618920813
 21
288.5839383322
 31
0.0
  0
LINE
  5
1C3
330
1F
100
AcDbEntity
  8
0
  6
SLD-Durchgehend
 62
     7
370
    25
100
AcDbLine
 10
398.1618920813
 20
282.5839383322
 30
0.0
 11
405.6618920813
 21
282.5839383322
 31
0.0
  0
LINE
  5
1C4
330
1F
100
AcDbEntity
  8
0
  6
SLD-Durchgehend
 62
     7
370
    25
100
AcDbLine
 10
425.1618920813
 20
336.5839383322
 30
0.0
 11
432.6618920813
 21
336.5839383322
 31
0.0
  0
LINE
  5
1C5
330
1F
100
AcDbEntity
  8
0
  6
SLD-Durchgehend
 62
     7
370
    25
100
AcDbLine
 10
446.1618920813
 20
288.5839383322
 30
0.0
 11
438.6618920813
 21
288.5839383322
 31
0.0
  0
LINE
  5
1C6
330
1F
100
AcDbEntity
  8
0
  6
SLD-Durchgehend
 62
     7
370
    25
100
AcDbLine
 10
432.6618920813
 20
329.0839383322
 30
0.0
 11
425.1618920813
 21
329.0839383322
 31
0.0
  0
LINE
  5
1C7
330
1F
100
AcDbEntity
  8
0
  6
SLD-Durchgehend
 62
     7
370
    25
100
AcDbLine
 10
371.1618920813
 20
323.0839383322
 30
0.0
 11
378.6618920813
 21
323.0839383322
 31
0.0
  0
LINE
  5
1C8
330
1F
100
AcDbEntity
  8
0
  6
SLD-Durchgehend
 62
     7
370
    25
100
AcDbLine
 10
411.6618920813
 20
336.5839383322
 30
0.0
 11
419.1618920813
 21
336.5839383322
 31
0.0
  0
LINE
  5
1C9
330
1F
100
AcDbEntity
  8
0
  6
SLD-Durchgehend
 62
     7
370
    25
100
AcDbLine
 10
411.6618920813
 20
329.0839383322
 30
0.0
 11
411.6618920813
 21
336.5839383322
 31
0.0
  0
LINE
  5
1CA
330
1F
100
AcDbEntity
  8
0
  6
SLD-Durchgehend
 62
     7
370
    25
100
AcDbLine
 10
419.1618920813
 20
329.0839383322
 30
0.0
 11
411.6618920813
 21
329.0839383322
 31
0.0
  0
LINE
  5
1CB
330
1F
100
AcDbEntity
  8
0
  6
SLD-Durchgehend
 62
     7
370
    25
100
AcDbLine
 10
405.6618920813
 20
336.5839383322
 30
0.0
 11
405.6618920813
 21
329.0839383322
 31
0.0
  0
LINE
  5
1CC
330
1F
100
AcDbEntity
  8
0
  6
SLD-Durchgehend
 62
     7
370
    25
100
AcDbLine
 10
398.1618920813
 20
336.5839383322
 30
0.0
 11
405.6618920813
 21
336.5839383322
 31
0.0
  0
LINE
  5
1CD
330
1F
100
AcDbEntity
  8
0
  6
SLD-Durchgehend
 62
     7
370
    25
100
AcDbLine
 10
419.1618920813
 20
288.5839383322
 30
0.0
 11
411.6618920813
 21
288.5839383322
 31
0.0
  0
LINE
  5
1CE
330
1F
100
AcDbEntity
  8
0
  6
SLD-Durchgehend
 62
     7
370
    25
100
AcDbLine
 10
405.6618920813
 20
329.0839383322
 30
0.0
 11
398.1618920813
 21
329.0839383322
 31
0.0
  0
LINE
  5
1CF
330
1F
100
AcDbEntity
  8
0
  6
SLD-Durchgehend
 62
     7
370
    25
100
AcDbLine
 10
392.1618920813
 20
336.5839383322
 30
0.0
 11
392.1618920813
 21
329.0839383322
 31
0.0
  0
LINE
  5
1D0
330
1F
100
AcDbEntity
  8
0
  6
SLD-Durchgehend
 62
     7
370
    25
100
AcDbLine
 10
432.6618920813
 20
275.0839383322
 30
0.0
 11
425.1618920813
 21
275.0839383322
 31
0.0
  0
LINE
  5
1D1
330
1F
100
AcDbEntity
  8
0
  6
SLD-Durchgehend
 62
     7
370
    25
100
AcDbLine
 10
419.1618920813
 20
282.5839383322
 30
0.0
 11
419.1618920813
 21
275.0839383322
 31
0.0
  0
LINE
  5
1D2
330
1F
100
AcDbEntity
  8
0
  6
SLD-Durchgehend
 62
     7
370
    25
100
AcDbLine
 10
411.6618920813
 20
282.5839383322
 30
0.0
 11
419.1618920813
 21
282.5839383322
 31
0.0
  0
LINE
  5
1D3
330
1F
100
AcDbEntity
  8
0
  6
SLD-Durchgehend
 62
     7
370
    25
100
AcDbLine
 10
392.1618920813
 20
275.0839383322
 30
0.0
 11
384.6618920813
 21
275.0839383322
 31
0.0
  0
LINE
  5
1D4
330
1F
100
AcDbEntity
  8
0
  6
SLD-Durchgehend
 62
     7
370
    25
100
AcDbLine
 10
378.6618920813
 20
282.5839383322
 30
0.0
 11
378.6618920813
 21
275.0839383322
 31
0.0
  0
LINE
  5
1D5
330
1F
100
AcDbEntity
  8
0
  6
SLD-Durchgehend
 62
     7
370
    25
100
AcDbLine
 10
405.6618920813
 20
282.5839383322
 30
0.0
 11
405.6618920813
 21
275.0839383322
 31
0.0
  0
LINE
  5
1D6
330
1F
100
AcDbEntity
  8
0
  6
SLD-Durchgehend
 62
     7
370
    25
100
AcDbLine
 10
438.6618920813
 20
323.0839383322
 30
0.0
 11
446.1618920813
 21
323.0839383322
 31
0.0
  0
LINE
  5
1D7
330
1F
100
AcDbEntity
  8
0
  6
SLD-Durchgehend
 62
     7
370
    25
100
AcDbLine
 10
398.1618920813
 20
275.0839383322
 30
0.0
 11
398.1618920813
 21
282.5839383322
 31
0.0
  0
LINE
  5
1D8
330
1F
100
AcDbEntity
  8
0
  6
SLD-Durchgehend
 62
     7
370
    25
100
AcDbLine
 10
405.6618920813
 20
275.0839383322
 30
0.0
 11
398.1618920813
 21
275.0839383322
 31
0.0
  0
LINE
  5
1D9
330
1F
100
AcDbEntity
  8
0
  6
SLD-Durchgehend
 62
     7
370
    25
100
AcDbLine
 10
392.1618920813
 20
282.5839383322
 30
0.0
 11
392.1618920813
 21
275.0839383322
 31
0.0
  0
LINE
  5
1DA
330
1F
100
AcDbEntity
  8
0
  6
SLD-Durchgehend
 62
     7
370
    25
100
AcDbLine
 10
419.1618920813
 20
336.5839383322
 30
0.0
 11
419.1618920813
 21
329.0839383322
 31
0.0
  0
LINE
  5
1DB
330
1F
100
AcDbEntity
  8
0
  6
SLD-Durchgehend
 62
     7
370
    25
100
AcDbLine
 10
384.6618920813
 20
275.0839383322
 30
0.0
 11
384.6618920813
 21
282.5839383322
 31
0.0
  0
LINE
  5
1DC
330
1F
100
AcDbEntity
  8
0
  6
SLD-Durchgehend
 62
     7
370
    25
100
AcDbLine
 10
398.1618920813
 20
329.0839383322
 30
0.0
 11
398.1618920813
 21
336.5839383322
 31
0.0
  0
LINE
  5
1DD
330
1F
100
AcDbEntity
  8
0
  6
SLD-Durchgehend
 62
     7
370
    25
100
AcDbLine
 10
384.6618920813
 20
336.5839383322
 30
0.0
 11
392.1618920813
 21
336.5839383322
 31
0.0
  0
LINE
  5
1DE
330
1F
100
AcDbEntity
  8
0
  6
SLD-Durchgehend
 62
     7
370
    25
100
AcDbLine
 10
371.1618920813
 20
282.5839383322
 30
0.0
 11
378.6618920813
 21
282.5839383322
 31
0.0
  0
LINE
  5
1DF
330
1F
100
AcDbEntity
  8
0
  6
SLD-Durchgehend
 62
     7
370
    25
100
AcDbLine
 10
384.6618920813
 20
282.5839383322
 30
0.0
 11
392.1618920813
 21
282.5839383322
 31
0.0
  0
LWPOLYLINE
  5
1E0
330
1F
100
AcDbEntity
  8
0
  6
SLD-Durchgehend
 62
     7
370
    25
100
AcDbPolyline
 90
        3
 70
   128
 43
0.0
 10
446.1618920813
 20
279.0900823508
 10
444.1997473566
 20
277.0460830569
 10
442.1557480627
 20
275.0839383322
  0
ARC
  5
1E1
330
1F
100
AcDbEntity
  8
0
  6
SLD-Durchgehend
 62
     7
370
    25
100
AcDbCircle
 10
395.1618920813
 20
326.0839383322
 30
0.0
 40
67.85000000000002
100
AcDbArc
 50
311.2657901914
 51
318.7342098086
  0
LWPOLYLINE
  5
1E2
330
1F
100
AcDbEntity
  8
0
  6
SLD-Durchgehend
 62
     7
370
    25
100
AcDbPolyline
 90
        3
 70
   128
 43
0.0
 10
442.1557480627
 20
377.0839383322
 10
444.1997473566
 20
375.1217936075
 10
446.1618920813
 20
373.0777943136
  0
ARC
  5
1E3
330
1F
100
AcDbEntity
  8
0
  6
SLD-Durchgehend
 62
     7
370
    25
100
AcDbCircle
 10
395.1618920813
 20
326.0839383322
 30
0.0
 40
67.85000000000001
100
AcDbArc
 50
41.2657901914
 51
48.7342098086
  0
LWPOLYLINE
  5
1E4
330
1F
100
AcDbEntity
  8
0
  6
SLD-Durchgehend
 62
     7
370
    25
100
AcDbPolyline
 90
        3
 70
   128
 43
0.0
 10
344.1618920813
 20
373.0777943136
 10
346.124036806
 20
375.1217936075
 10
348.1680360999
 20
377.0839383322
  0
LWPOLYLINE
  5
1E5
330
1F
100
AcDbEntity
  8
0
  6
SLD-Durchgehend
 62
     7
370
    25
100
AcDbPolyline
 90
        3
 70
   128
 43
0.0
 10
348.1680360999
 20
275.0839383322
 10
346.124036806
 20
277.0460830569
 10
344.1618920813
 20
279.0900823508
  0
ARC
  5
1E6
330
1F
100
AcDbEntity
  8
0
  6
SLD-Durchgehend
 62
     7
370
    25
100
AcDbCircle
 10
395.1618920813
 20
326.0839383322
 30
0.0
 40
67.85000000000005
100
AcDbArc
 50
221.2657901914
 51
228.7342098086
  0
ARC
  5
1E7
330
1F
100
AcDbEntity
  8
0
  6
SLD-Durchgehend
 62
     7
370
    25
100
AcDbCircle
 10
395.1618920813
 20
326.0839383322
 30
0.0
 40
67.85000000000005
100
AcDbArc
 50
131.2657901914
 51
138.7342098086
  0
LINE
  5
1E8
330
1F
100
AcDbEntity
  8
0
  6
SLD-Durchgehend
 62
     7
370
    25
100
AcDbLine
 10
464.6618920813
 20
259.5839383322
 30
0.0
 11
464.6618920813
 21
392.5839383322
 31
0.0
  0
ARC
  5
1E9
330
1F
100
AcDbEntity
  8
0
  6
SLD-Durchgehend
 62
     7
370
    25
100
AcDbCircle
 10
328.6618920813
 20
259.5839383322
 30
0.0
 40
3.0
100
AcDbArc
 50
180.0
 51
270.0
  0
ARC
  5
1EA
330
1F
100
AcDbEntity
  8
0
  6
SLD-Durchgehend
 62
     7
370
    25
100
AcDbCircle
 10
461.6618920813
 20
259.5839383322
 30
0.0
 40
7.5
100
AcDbArc
 50
270.0
 51
0.0
  0
LINE
  5
1EB
330
1F
100
AcDbEntity
  8
0
  6
SLD-Durchgehend
 62
     7
370
    25
100
AcDbLine
 10
461.6618920813
 20
252.0839383322
 30
0.0
 11
328.6618920813
 21
252.0839383322
 31
0.0
  0
LINE
  5
1EC
330
1F
100
AcDbEntity
  8
0
  6
SLD-Durchgehend
 62
     7
370
    25
100
AcDbLine
 10
469.1618920813
 20
392.5839383322
 30
0.0
 11
469.1618920813
 21
259.5839383322
 31
0.0
  0
ARC
  5
1ED
330
1F
100
AcDbEntity
  8
0
  6
SLD-Durchgehend
 62
     7
370
    25
100
AcDbCircle
 10
461.6618920813
 20
259.5839383322
 30
0.0
 40
3.0
100
AcDbArc
 50
270.0
 51
0.0
  0
LINE
  5
1EE
330
1F
100
AcDbEntity
  8
0
  6
SLD-Durchgehend
 62
     7
370
    25
100
AcDbLine
 10
328.6618920813
 20
256.5839383322
 30
0.0
 11
461.6618920813
 21
256.5839383322
 31
0.0
  0
ARC
  5
1EF
330
1F
100
AcDbEntity
  8
0
  6
SLD-Durchgehend
 62
     7
370
    25
100
AcDbCircle
 10
328.6618920813
 20
259.5839383322
 30
0.0
 40
7.5
100
AcDbArc
 50
180.0
 51
270.0
  0
ARC
  5
1F0
330
1F
100
AcDbEntity
  8
0
  6
SLD-Durchgehend
 62
     7
370
    25
100
AcDbCircle
 10
461.6618920813
 20
392.5839383322
 30
0.0
 40
7.5
100
AcDbArc
 50
0.0
 51
90.0
  0
ARC
  5
1F1
330
1F
100
AcDbEntity
  8
0
  6
SLD-Durchgehend
 62
     7
370
    25
100
AcDbCircle
 10
461.6618920813
 20
392.5839383322
 30
0.0
 40
3.0
100
AcDbArc
 50
0.0
 51
90.0
  0
LINE
  5
1F2
330
1F
100
AcDbEntity
  8
0
  6
SLD-Durchgehend
 62
     7
370
    25
100
AcDbLine
 10
325.6618920813
 20
392.5839383322
 30
0.0
 11
325.6618920813
 21
259.5839383322
 31
0.0
  0
LINE
  5
1F3
330
1F
100
AcDbEntity
  8
0
  6
SLD-Durchgehend
 62
     7
370
    25
100
AcDbLine
 10
321.1618920813
 20
259.5839383322
 30
0.0
 11
321.1618920813
 21
392.5839383322
 31
0.0
  0
LINE
  5
1F4
330
1F
100
AcDbEntity
  8
0
  6
SLD-Durchgehend
 62
     7
370
    25
100
AcDbLine
 10
328.6618920813
 20
400.0839383322
 30
0.0
 11
461.6618920813
 21
400.0839383322
 31
0.0
  0
ARC
  5
1F5
330
1F
100
AcDbEntity
  8
0
  6
SLD-Durchgehend
 62
     7
370
    25
100
AcDbCircle
 10
328.6618920813
 20
392.5839383322
 30
0.0
 40
3.0
100
AcDbArc
 50
90.0
 51
180.0
  0
LINE
  5
1F6
330
1F
100
AcDbEntity
  8
0
  6
SLD-Durchgehend
 62
     7
370
    25
100
AcDbLine
 10
461.6618920813
 20
395.5839383322
 30
0.0
 11
328.6618920813
 21
395.5839383322
 31
0.0
  0
ARC
  5
1F7
330
1F
100
AcDbEntity
  8
0
  6
SLD-Durchgehend
 62
     7
370
    25
100
AcDbCircle
 10
328.6618920813
 20
392.5839383322
 30
0.0
 40
7.5
100
AcDbArc
 50
90.0
 51
180.0
  0
SPLINE
  5
1F8
330
1F
100
AcDbEntity
  8
0
  6
SLD-Durchgehend
 62
     7
370
    25
100
AcDbSpline
210
0.0
220
0.0
230
1.0
 70
     8
 71
     3
 72
    12
 73
     8
 74
     0
 42
0.000000001
 43
0.00000001
 40
0.0
 40
0.0
 40
0.0
 40
0.0
 40
0.2083196199554235
 40
0.4166960043772105
 40
0.622787607761085
 40
0.8205018315593088
 40
0.9999999999999999
 40
0.9999999999999999
 40
0.9999999999999999
 40
0.9999999999999999
 10
445.1618920812892
 20
400.0839383321652
 30
0.0
 10
445.1619638908154
 20
400.0894365048289
 30
0.0
 10
445.162107529435
 20
400.1004343483389
 30
0.0
 10
445.1586792999183
 20
400.186032243414
 30
0.0
 10
445.1393007821097
 20
400.3090484810654
 30
0.0
 10
445.0972580024499
 20
400.4510357154293
 30
0.0
 10
445.0502746967863
 20
400.5410870231188
 30
0.0
 10
445.0279174850737
 20
400.5839383321652
 30
0.0
  0
SPLINE
  5
1F9
330
1F
100
AcDbEntity
  8
0
  6
SLD-Durchgehend
 62
     7
370
    25
100
AcDbSpline
210
0.0
220
0.0
230
1.0
 70
     8
 71
     3
 72
    12
 73
     8
 74
     0
 42
0.000000001
 43
0.00000001
 40
0.0
 40
0.0
 40
0.0
 40
0.0
 40
0.2068558852825329
 40
0.4143789033041276
 40
0.6096791247023806
 40
0.8082841854431337
 40
0.9999999999999999
 40
0.9999999999999999
 40
0.9999999999999999
 40
0.9999999999999999
 10
430.2958666775048
 20
400.5839383321652
 30
0.0
 10
430.270382002003
 20
400.5342805978107
 30
0.0
 10
430.2193304601478
 20
400.4348049775046
 30
0.0
 10
430.1802394550079
 20
400.2882402552416
 30
0.0
 10
430.1642781412654
 20
400.1732942675183
 30
0.0
 10
430.1617400388332
 20
400.0980595947647
 30
0.0
 10
430.1618420003513
 20
400.0885897045083
 30
0.0
 10
430.1618920812892
 20
400.0839383321652
 30
0.0
  0
SPLINE
  5
1FA
330
1F
100
AcDbEntity
  8
0
  6
SLD-Durchgehend
 62
     7
370
    25
100
AcDbSpline
210
0.0
220
0.0
230
1.0
 70
     8
 71
     3
 72
    12
 73
     8
 74
     0
 42
0.000000001
 43
0.00000001
 40
0.0
 40
0.0
 40
0.0
 40
0.0
 40
0.2083196199554257
 40
0.4166960043772178
 40
0.6227876077610963
 40
0.8205018315593274
 40
1.0
 40
1.0
 40
1.0
 40
1.0
 10
469.1618920812893
 20
278.5839383321652
 30
0.0
 10
469.1673902539529
 20
278.5838665226391
 30
0.0
 10
469.1783880974629
 20
278.5837228840195
 30
0.0
 10
469.263985992538
 20
278.5871511135362
 30
0.0
 10
469.3870022301894
 20
278.6065296313448
 30
0.0
 10
469.5289894645533
 20
278.6485724110045
 30
0.0
 10
469.6190407722428
 20
278.6955557166681
 30
0.0
 10
469.6618920812893
 20
278.7179129283808
 30
0.0
  0
SPLINE
  5
1FB
330
1F
100
AcDbEntity
  8
0
  6
SLD-Durchgehend
 62
     7
370
    25
100
AcDbSpline
210
0.0
220
0.0
230
1.0
 70
     8
 71
     3
 72
    12
 73
     8
 74
     0
 42
0.000000001
 43
0.00000001
 40
0.0
 40
0.0
 40
0.0
 40
0.0
 40
0.2068558852825487
 40
0.4143789033041609
 40
0.6096791247023898
 40
0.8082841854432044
 40
1.0
 40
1.0
 40
1.0
 40
1.0
 10
469.6618920812893
 20
293.4499637359497
 30
0.0
 10
469.6122343469347
 20
293.4754484114515
 30
0.0
 10
469.5127587266286
 20
293.5264999533067
 30
0.0
 10
469.3661940043656
 20
293.5655909584465
 30
0.0
 10
469.2512480166422
 20
293.5815522721891
 30
0.0
 10
469.1760133438887
 20
293.5840903746212
 30
0.0
 10
469.1665434536323
 20
293.583988413103
 30
0.0
 10
469.1618920812893
 20
293.5839383321652
 30
0.0
  0
SPLINE
  5
1FC
330
1F
100
AcDbEntity
  8
0
  6
SLD-Durchgehend
 62
     7
370
    25
100
AcDbSpline
210
0.0
220
0.0
230
1.0
 70
     8
 71
     3
 72
    12
 73
     8
 74
     0
 42
0.000000001
 43
0.00000001
 40
0.0
 40
0.0
 40
0.0
 40
0.0
 40
0.2083196199554227
 40
0.4166960043772177
 40
0.6227876077610988
 40
0.8205018315593477
 40
1.0
 40
1.0
 40
1.0
 40
1.0
 10
321.1618920812892
 20
373.5839383321652
 30
0.0
 10
321.1563939086256
 20
373.5840101416915
 30
0.0
 10
321.1453960651157
 20
373.5841537803111
 30
0.0
 10
321.0597981700406
 20
373.5807255507943
 30
0.0
 10
320.9367819323892
 20
373.5613470329858
 30
0.0
 10
320.7947946980253
 20
373.519304253326
 30
0.0
 10
320.7047433903357
 20
373.4723209476624
 30
0.0
 10
320.6618920812893
 20
373.4499637359497
 30
0.0
  0
SPLINE
  5
1FD
330
1F
100
AcDbEntity
  8
0
  6
SLD-Durchgehend
 62
     7
370
    25
100
AcDbSpline
210
0.0
220
0.0
230
1.0
 70
     8
 71
     3
 72
    12
 73
     8
 74
     0
 42
0.000000001
 43
0.00000001
 40
0.0
 40
0.0
 40
0.0
 40
0.0
 40
0.2068558852825433
 40
0.4143789033041572
 40
0.6096791247023862
 40
0.8082841854432028
 40
1.0
 40
1.0
 40
1.0
 40
1.0
 10
320.6618920812893
 20
358.7179129283808
 30
0.0
 10
320.7115498156439
 20
358.692428252879
 30
0.0
 10
320.81102543595
 20
358.6413767110238
 30
0.0
 10
320.9575901582129
 20
358.602285705884
 30
0.0
 10
321.0725361459363
 20
358.5863243921414
 30
0.0
 10
321.1477708186898
 20
358.5837862897093
 30
0.0
 10
321.1572407089462
 20
358.5838882512274
 30
0.0
 10
321.1618920812893
 20
358.5839383321653
 30
0.0
  0
SPLINE
  5
1FE
330
1F
100
AcDbEntity
  8
0
  6
SLD-Durchgehend
 62
     7
370
    25
100
AcDbSpline
210
0.0
220
0.0
230
1.0
 70
     8
 71
     3
 72
    12
 73
     8
 74
     0
 42
0.000000001
 43
0.00000001
 40
0.0
 40
0.0
 40
0.0
 40
0.0
 40
0.2083196199554258
 40
0.4166960043772122
 40
0.6227876077610861
 40
0.8205018315593093
 40
1.0
 40
1.0
 40
1.0
 40
1.0
 10
360.1618920812893
 20
400.0839383321652
 30
0.0
 10
360.1619638908155
 20
400.0894365048289
 30
0.0
 10
360.1621075294351
 20
400.1004343483389
 30
0.0
 10
360.1586792999183
 20
400.1860322434139
 30
0.0
 10
360.1393007821098
 20
400.3090484810654
 30
0.0
 10
360.0972580024501
 20
400.4510357154293
 30
0.0
 10
360.0502746967863
 20
400.5410870231188
 30
0.0
 10
360.0279174850737
 20
400.5839383321652
 30
0.0
  0
SPLINE
  5
1FF
330
1F
100
AcDbEntity
  8
0
  6
SLD-Durchgehend
 62
     7
370
    25
100
AcDbSpline
210
0.0
220
0.0
230
1.0
 70
     8
 71
     3
 72
    12
 73
     8
 74
     0
 42
0.000000001
 43
0.00000001
 40
0.0
 40
0.0
 40
0.0
 40
0.0
 40
0.20685588528253
 40
0.4143789033041255
 40
0.6096791247023792
 40
0.8082841854431331
 40
0.9999999999999999
 40
0.9999999999999999
 40
0.9999999999999999
 40
0.9999999999999999
 10
345.2958666775049
 20
400.5839383321652
 30
0.0
 10
345.270382002003
 20
400.5342805978106
 30
0.0
 10
345.2193304601478
 20
400.4348049775045
 30
0.0
 10
345.180239455008
 20
400.2882402552417
 30
0.0
 10
345.1642781412655
 20
400.1732942675183
 30
0.0
 10
345.1617400388334
 20
400.0980595947647
 30
0.0
 10
345.1618420003514
 20
400.0885897045083
 30
0.0
 10
345.1618920812893
 20
400.0839383321652
 30
0.0
  0
SPLINE
  5
200
330
1F
100
AcDbEntity
  8
0
  6
SLD-Durchgehend
 62
     7
370
    25
100
AcDbSpline
210
0.0
220
0.0
230
1.0
 70
     8
 71
     3
 72
    12
 73
     8
 74
     0
 42
0.000000001
 43
0.00000001
 40
0.0
 40
0.0
 40
0.0
 40
0.0
 40
0.2083196199554372
 40
0.4166960043771688
 40
0.6227876077610952
 40
0.8205018315593237
 40
1.0
 40
1.0
 40
1.0
 40
1.0
 10
430.1618920812893
 20
252.0839383321653
 30
0.0
 10
430.1618202717631
 20
252.0784401595016
 30
0.0
 10
430.1616766331435
 20
252.0674423159916
 30
0.0
 10
430.1651048626603
 20
251.9818444209165
 30
0.0
 10
430.1844833804687
 20
251.8588281832652
 30
0.0
 10
430.2265261601285
 20
251.7168409489011
 30
0.0
 10
430.2735094657922
 20
251.6267896412116
 30
0.0
 10
430.2958666775049
 20
251.5839383321652
 30
0.0
  0
SPLINE
  5
201
330
1F
100
AcDbEntity
  8
0
  6
SLD-Durchgehend
 62
     7
370
    25
100
AcDbSpline
210
0.0
220
0.0
230
1.0
 70
     8
 71
     3
 72
    12
 73
     8
 74
     0
 42
0.000000001
 43
0.00000001
 40
0.0
 40
0.0
 40
0.0
 40
0.0
 40
0.2068558852825522
 40
0.4143789033041619
 40
0.6096791247023898
 40
0.8082841854432046
 40
0.9999999999999999
 40
0.9999999999999999
 40
0.9999999999999999
 40
0.9999999999999999
 10
445.0279174850737
 20
251.5839383321652
 30
0.0
 10
445.0534021605755
 20
251.6335960665199
 30
0.0
 10
445.1044537024308
 20
251.733071686826
 30
0.0
 10
445.1435447075705
 20
251.8796364090889
 30
0.0
 10
445.1595060213131
 20
251.9945823968123
 30
0.0
 10
445.1620441237452
 20
252.0698170695658
 30
0.0
 10
445.1619421622271
 20
252.0792869598222
 30
0.0
 10
445.1618920812892
 20
252.0839383321652
 30
0.0
  0
SPLINE
  5
202
330
1F
100
AcDbEntity
  8
0
  6
SLD-Durchgehend
 62
     7
370
    25
100
AcDbSpline
210
0.0
220
0.0
230
1.0
 70
     8
 71
     3
 72
    12
 73
     8
 74
     0
 42
0.000000001
 43
0.00000001
 40
0.0
 40
0.0
 40
0.0
 40
0.0
 40
0.2083196199554257
 40
0.4166960043772178
 40
0.6227876077610963
 40
0.8205018315593274
 40
1.0
 40
1.0
 40
1.0
 40
1.0
 10
469.1618920812893
 20
358.5839383321653
 30
0.0
 10
469.1673902539529
 20
358.5838665226391
 30
0.0
 10
469.1783880974629
 20
358.5837228840194
 30
0.0
 10
469.263985992538
 20
358.5871511135362
 30
0.0
 10
469.3870022301894
 20
358.6065296313448
 30
0.0
 10
469.5289894645533
 20
358.6485724110045
 30
0.0
 10
469.6190407722428
 20
358.6955557166682
 30
0.0
 10
469.6618920812893
 20
358.7179129283808
 30
0.0
  0
SPLINE
  5
203
330
1F
100
AcDbEntity
  8
0
  6
SLD-Durchgehend
 62
     7
370
    25
100
AcDbSpline
210
0.0
220
0.0
230
1.0
 70
     8
 71
     3
 72
    12
 73
     8
 74
     0
 42
0.000000001
 43
0.00000001
 40
0.0
 40
0.0
 40
0.0
 40
0.0
 40
0.2068558852825487
 40
0.4143789033041609
 40
0.6096791247023898
 40
0.8082841854432044
 40
1.0
 40
1.0
 40
1.0
 40
1.0
 10
469.6618920812893
 20
373.4499637359497
 30
0.0
 10
469.6122343469347
 20
373.4754484114515
 30
0.0
 10
469.5127587266286
 20
373.5264999533067
 30
0.0
 10
469.3661940043656
 20
373.5655909584465
 30
0.0
 10
469.2512480166422
 20
373.581552272189
 30
0.0
 10
469.1760133438887
 20
373.5840903746212
 30
0.0
 10
469.1665434536323
 20
373.5839884131031
 30
0.0
 10
469.1618920812893
 20
373.5839383321652
 30
0.0
  0
SPLINE
  5
204
330
1F
100
AcDbEntity
  8
0
  6
SLD-Durchgehend
 62
     7
370
    25
100
AcDbSpline
210
0.0
220
0.0
230
1.0
 70
     8
 71
     3
 72
    12
 73
     8
 74
     0
 42
0.000000001
 43
0.00000001
 40
0.0
 40
0.0
 40
0.0
 40
0.0
 40
0.2083196199554341
 40
0.416696004377223
 40
0.6227876077611006
 40
0.8205018315593262
 40
0.9999999999999999
 40
0.9999999999999999
 40
0.9999999999999999
 40
0.9999999999999999
 10
345.1618920812893
 20
252.0839383321653
 30
0.0
 10
345.1618202717631
 20
252.0784401595016
 30
0.0
 10
345.1616766331435
 20
252.0674423159915
 30
0.0
 10
345.1651048626602
 20
251.9818444209165
 30
0.0
 10
345.1844833804688
 20
251.8588281832651
 30
0.0
 10
345.2265261601286
 20
251.7168409489012
 30
0.0
 10
345.2735094657922
 20
251.6267896412116
 30
0.0
 10
345.2958666775049
 20
251.5839383321652
 30
0.0
  0
SPLINE
  5
205
330
1F
100
AcDbEntity
  8
0
  6
SLD-Durchgehend
 62
     7
370
    25
100
AcDbSpline
210
0.0
220
0.0
230
1.0
 70
     8
 71
     3
 72
    12
 73
     8
 74
     0
 42
0.000000001
 43
0.00000001
 40
0.0
 40
0.0
 40
0.0
 40
0.0
 40
0.206855885282534
 40
0.4143789033041334
 40
0.6096791247023786
 40
0.8082841854431978
 40
1.0
 40
1.0
 40
1.0
 40
1.0
 10
360.0279174850737
 20
251.5839383321652
 30
0.0
 10
360.0534021605755
 20
251.6335960665199
 30
0.0
 10
360.1044537024307
 20
251.733071686826
 30
0.0
 10
360.1435447075705
 20
251.8796364090888
 30
0.0
 10
360.1595060213131
 20
251.9945823968123
 30
0.0
 10
360.1620441237453
 20
252.0698170695658
 30
0.0
 10
360.1619421622271
 20
252.0792869598222
 30
0.0
 10
360.1618920812893
 20
252.0839383321652
 30
0.0
  0
SPLINE
  5
206
330
1F
100
AcDbEntity
  8
0
  6
SLD-Durchgehend
 62
     7
370
    25
100
AcDbSpline
210
0.0
220
0.0
230
1.0
 70
     8
 71
     3
 72
    12
 73
     8
 74
     0
 42
0.000000001
 43
0.00000001
 40
0.0
 40
0.0
 40
0.0
 40
0.0
 40
0.2083196199554217
 40
0.4166960043772156
 40
0.622787607761098
 40
0.8205018315593412
 40
1.0
 40
1.0
 40
1.0
 40
1.0
 10
321.1618920812892
 20
293.5839383321652
 30
0.0
 10
321.1563939086256
 20
293.5840101416915
 30
0.0
 10
321.1453960651156
 20
293.5841537803111
 30
0.0
 10
321.0597981700406
 20
293.5807255507943
 30
0.0
 10
320.9367819323892
 20
293.5613470329857
 30
0.0
 10
320.7947946980252
 20
293.519304253326
 30
0.0
 10
320.7047433903357
 20
293.4723209476624
 30
0.0
 10
320.6618920812893
 20
293.4499637359497
 30
0.0
  0
SPLINE
  5
207
330
1F
100
AcDbEntity
  8
0
  6
SLD-Durchgehend
 62
     7
370
    25
100
AcDbSpline
210
0.0
220
0.0
230
1.0
 70
     8
 71
     3
 72
    12
 73
     8
 74
     0
 42
0.000000001
 43
0.00000001
 40
0.0
 40
0.0
 40
0.0
 40
0.0
 40
0.2068558852825495
 40
0.4143789033041582
 40
0.6096791247023878
 40
0.8082841854432036
 40
1.0
 40
1.0
 40
1.0
 40
1.0
 10
320.6618920812893
 20
278.7179129283808
 30
0.0
 10
320.7115498156439
 20
278.692428252879
 30
0.0
 10
320.81102543595
 20
278.6413767110238
 30
0.0
 10
320.9575901582129
 20
278.602285705884
 30
0.0
 10
321.0725361459363
 20
278.5863243921414
 30
0.0
 10
321.1477708186898
 20
278.5837862897093
 30
0.0
 10
321.1572407089462
 20
278.5838882512274
 30
0.0
 10
321.1618920812893
 20
278.5839383321652
 30
0.0
  0
LINE
  5
208
330
1F
100
AcDbEntity
  8
0
  6
SLD-Durchgehend
 62
     7
370
    25
100
AcDbLine
 10
320.1618920813
 20
372.5839383322
 30
0.0
 11
320.1618920813
 21
359.5839383322
 31
0.0
  0
ARC
  5
209
330
1F
100
AcDbEntity
  8
0
  6
SLD-Durchgehend
 62
     7
370
    25
100
AcDbCircle
 10
321.1618920813
 20
372.5839383322
 30
0.0
 40
1.000000000000004
100
AcDbArc
 50
120.0
 51
180.0
  0
ARC
  5
20A
330
1F
100
AcDbEntity
  8
0
  6
SLD-Durchgehend
 62
     7
370
    25
100
AcDbCircle
 10
321.1618920813
 20
359.5839383322
 30
0.0
 40
1.000000000000082
100
AcDbArc
 50
180.0
 51
240.0
  0
LINE
  5
20B
330
1F
100
AcDbEntity
  8
0
  6
SLD-Durchgehend
 62
     7
370
    25
100
AcDbLine
 10
470.1618920813
 20
359.5839383322
 30
0.0
 11
470.1618920813
 21
372.5839383322
 31
0.0
  0
ARC
  5
20C
330
1F
100
AcDbEntity
  8
0
  6
SLD-Durchgehend
 62
     7
370
    25
100
AcDbCircle
 10
469.1618920813
 20
359.5839383322
 30
0.0
 40
1.000000000000033
100
AcDbArc
 50
300.0
 51
0.0
  0
ARC
  5
20D
330
1F
100
AcDbEntity
  8
0
  6
SLD-Durchgehend
 62
     7
370
    25
100
AcDbCircle
 10
469.1618920813
 20
372.5839383322
 30
0.0
 40
1.0
100
AcDbArc
 50
0.0
 51
60.0
  0
LINE
  5
20E
330
1F
100
AcDbEntity
  8
0
  6
SLD-Durchgehend
 62
     7
370
    25
100
AcDbLine
 10
431.1618920813
 20
251.0839383322
 30
0.0
 11
444.1618920813
 21
251.0839383322
 31
0.0
  0
ARC
  5
20F
330
1F
100
AcDbEntity
  8
0
  6
SLD-Durchgehend
 62
     7
370
    25
100
AcDbCircle
 10
431.1618920813
 20
252.0839383322
 30
0.0
 40
1.0
100
AcDbArc
 50
210.0
 51
270.0
  0
ARC
  5
210
330
1F
100
AcDbEntity
  8
0
  6
SLD-Durchgehend
 62
     7
370
    25
100
AcDbCircle
 10
444.1618920813
 20
252.0839383322
 30
0.0
 40
1.000000000000033
100
AcDbArc
 50
270.0
 51
330.0
  0
LINE
  5
211
330
1F
100
AcDbEntity
  8
0
  6
SLD-Durchgehend
 62
     7
370
    25
100
AcDbLine
 10
320.1618920813
 20
292.5839383322
 30
0.0
 11
320.1618920813
 21
279.5839383322
 31
0.0
  0
ARC
  5
212
330
1F
100
AcDbEntity
  8
0
  6
SLD-Durchgehend
 62
     7
370
    25
100
AcDbCircle
 10
321.1618920813
 20
292.5839383322
 30
0.0
 40
1.0
100
AcDbArc
 50
120.0
 51
180.0
  0
ARC
  5
213
330
1F
100
AcDbEntity
  8
0
  6
SLD-Durchgehend
 62
     7
370
    25
100
AcDbCircle
 10
321.1618920813
 20
279.5839383322
 30
0.0
 40
1.0
100
AcDbArc
 50
180.0
 51
240.0
  0
LINE
  5
214
330
1F
100
AcDbEntity
  8
0
  6
SLD-Durchgehend
 62
     7
370
    25
100
AcDbLine
 10
444.1618920813
 20
401.0839383322
 30
0.0
 11
431.1618920813
 21
401.0839383322
 31
0.0
  0
ARC
  5
215
330
1F
100
AcDbEntity
  8
0
  6
SLD-Durchgehend
 62
     7
370
    25
100
AcDbCircle
 10
444.1618920813
 20
400.0839383322
 30
0.0
 40
1.000000000000033
100
AcDbArc
 50
30.0
 51
90.0
  0
ARC
  5
216
330
1F
100
AcDbEntity
  8
0
  6
SLD-Durchgehend
 62
     7
370
    25
100
AcDbCircle
 10
431.1618920813
 20
400.0839383322
 30
0.0
 40
1.0
100
AcDbArc
 50
90.0
 51
150.0
  0
LINE
  5
217
330
1F
100
AcDbEntity
  8
0
  6
SLD-Durchgehend
 62
     7
370
    25
100
AcDbLine
 10
470.1618920813
 20
279.5839383322
 30
0.0
 11
470.1618920813
 21
292.5839383322
 31
0.0
  0
ARC
  5
218
330
1F
100
AcDbEntity
  8
0
  6
SLD-Durchgehend
 62
     7
370
    25
100
AcDbCircle
 10
469.1618920813
 20
279.5839383322
 30
0.0
 40
1.0
100
AcDbArc
 50
300.0
 51
0.0
  0
ARC
  5
219
330
1F
100
AcDbEntity
  8
0
  6
SLD-Durchgehend
 62
     7
370
    25
100
AcDbCircle
 10
469.1618920813
 20
292.5839383322
 30
0.0
 40
1.0
100
AcDbArc
 50
0.0
 51
60.0
  0
LINE
  5
21A
330
1F
100
AcDbEntity
  8
0
  6
SLD-Durchgehend
 62
     7
370
    25
100
AcDbLine
 10
359.1618920813
 20
401.0839383322
 30
0.0
 11
346.1618920813
 21
401.0839383322
 31
0.0
  0
ARC
  5
21B
330
1F
100
AcDbEntity
  8
0
  6
SLD-Durchgehend
 62
     7
370
    25
100
AcDbCircle
 10
359.1618920813
 20
400.0839383322
 30
0.0
 40
1.0
100
AcDbArc
 50
30.0
 51
90.0
  0
ARC
  5
21C
330
1F
100
AcDbEntity
  8
0
  6
SLD-Durchgehend
 62
     7
370
    25
100
AcDbCircle
 10
346.1618920813
 20
400.0839383322
 30
0.0
 40
1.0
100
AcDbArc
 50
90.0
 51
150.0
  0
LINE
  5
21D
330
1F
100
AcDbEntity
  8
0
  6
SLD-Durchgehend
 62
     7
370
    25
100
AcDbLine
 10
346.1618920813
 20
251.0839383322
 30
0.0
 11
359.1618920813
 21
251.0839383322
 31
0.0
  0
ARC
  5
21E
330
1F
100
AcDbEntity
  8
0
  6
SLD-Durchgehend
 62
     7
370
    25
100
AcDbCircle
 10
346.1618920813
 20
252.0839383322
 30
0.0
 40
1.0
100
AcDbArc
 50
210.0
 51
270.0
  0
ARC
  5
21F
330
1F
100
AcDbEntity
  8
0
  6
SLD-Durchgehend
 62
     7
370
    25
100
AcDbCircle
 10
359.1618920813
 20
252.0839383322
 30
0.0
 40
1.0
100
AcDbArc
 50
270.0
 51
330.0
  0
LINE
  5
220
330
1F
100
AcDbEntity
  8
0
  6
SLD-Phantom
 62
     7
370
    35
100
AcDbLine
 10
488.1618920813
 20
326.0839383322
 30
0.0
 11
302.1618920813
 21
326.0839383322
 31
0.0
  0
LINE
  5
221
330
1F
100
AcDbEntity
  8
0
  6
SLD-Durchgehend
 62
     7
370
    35
100
AcDbLine
 10
484.1618920813
 20
300.6839383322
 30
0.0
 11
484.1618920813
 21
326.0839383322
 31
0.0
  0
SOLID
  5
222
330
1F
100
AcDbEntity
  8
0
  6
SLD-Durchgehend
 62
     7
370
    35
100
AcDbTrace
 10
484.1618920813
 20
326.0839383322
 30
0.0
 11
482.1298920813
 21
313.3839383322
 31
0.0
 12
486.1938920813
 22
313.3839383322
 32
0.0
 13
486.1938920813
 23
313.3839383322
 33
0.0
  0
LINE
  5
223
330
1F
100
AcDbEntity
  8
0
  6
SLD-Durchgehend
 62
     7
370
    35
100
AcDbLine
 10
306.1618920813
 20
300.6839383322
 30
0.0
 11
306.1618920813
 21
326.0839383322
 31
0.0
  0
SOLID
  5
224
330
1F
100
AcDbEntity
  8
0
  6
SLD-Durchgehend
 62
     7
370
    35
100
AcDbTrace
 10
306.1618920813
 20
326.0839383322
 30
0.0
 11
304.1298920813
 21
313.3839383322
 31
0.0
 12
308.1938920813
 22
313.3839383322
 32
0.0
 13
308.1938920813
 23
313.3839383322
 33
0.0
  0
MTEXT
  5
226
330
1F
100
AcDbEntity
  8
0
  6
Continuous
 62
     7
100
AcDbMText
 10
486.065696122
 20
308.349982653
 30
0.0
 40
7.0
 41
0.0
 46
0.0
 71
     1
 72
     1
  1
A
  7
SLDTEXTSTYLE0
 73
     1
 44
1.0
  0
MTEXT
  5
227
330
1F
100
AcDbEntity
  8
0
  6
Continuous
 62
     7
100
AcDbMText
 10
299.4985779387
 20
308.349982653
 30
0.0
 40
7.0
 41
0.0
 46
0.0
 71
     1
 72
     1
  1
A
  7
SLDTEXTSTYLE0
 73
     1
 44
1.0
  0
LINE
  5
228
330
1F
100
AcDbEntity
  8
0
  6
SLD-Durchgehend
 62
     7
370
    25
100
AcDbLine
 10
464.1618920813
 20
475.4309320252
 30
0.0
 11
326.1618920813
 21
475.4309320252
 31
0.0
  0
LINE
  5
229
330
1F
100
AcDbEntity
  8
0
  6
SLD-Durchgehend
 62
     7
370
    25
100
AcDbLine
 10
464.1618920813
 20
475.4309320252
 30
0.0
 11
464.1618920813
 21
470.4309320252
 31
0.0
  0
LINE
  5
22A
330
1F
100
AcDbEntity
  8
0
  6
SLD-Durchgehend
 62
     7
370
    25
100
AcDbLine
 10
464.1618920813
 20
470.4309320252
 30
0.0
 11
326.1618920813
 21
470.4309320252
 31
0.0
  0
LINE
  5
22B
330
1F
100
AcDbEntity
  8
0
  6
SLD-Durchgehend
 62
     7
370
    25
100
AcDbLine
 10
326.1618920813
 20
470.4309320252
 30
0.0
 11
326.1618920813
 21
475.4309320252
 31
0.0
  0
ARC
  5
22C
330
1F
100
AcDbEntity
  8
0
  6
SLD-Durchgehend
 62
     7
370
    25
100
AcDbCircle
 10
456.6118920813
 20
452.7018492317
 30
0.0
 40
0.25
100
AcDbArc
 50
95.0000000005
 51
179.9999999998
  0
LINE
  5
22D
330
1F
100
AcDbEntity
  8
0
  6
SLD-Durchgehend
 62
     7
370
    25
100
AcDbLine
 10
456.5901031456
 20
452.9508979062
 30
0.0
 11
457.433681017
 21
453.0247014068
 31
0.0
  0
ARC
  5
22E
330
1F
100
AcDbEntity
  8
0
  6
SLD-Durchgehend
 62
     7
370
    25
100
AcDbCircle
 10
456.6118920813
 20
451.1600148187
 30
0.0
 40
0.25
100
AcDbArc
 50
180.0
 51
265.0
  0
ARC
  5
22F
330
1F
100
AcDbEntity
  8
0
  6
SLD-Durchgehend
 62
     7
370
    25
100
AcDbCircle
 10
457.4118920813
 20
450.5881139691
 30
0.0
 40
0.2500000000000485
100
AcDbArc
 50
0.0000000002
 51
85.0000000001
  0
LINE
  5
230
330
1F
100
AcDbEntity
  8
0
  6
SLD-Durchgehend
 62
     7
370
    25
100
AcDbLine
 10
457.433681017
 20
450.8371626437
 30
0.0
 11
456.5901031456
 21
450.9109661442
 31
0.0
  0
LINE
  5
231
330
1F
100
AcDbEntity
  8
0
  6
SLD-Durchgehend
 62
     7
370
    25
100
AcDbLine
 10
456.3618920813
 20
451.1600148187
 30
0.0
 11
456.3618920813
 21
452.7018492317
 31
0.0
  0
LINE
  5
232
330
1F
100
AcDbEntity
  8
0
  6
SLD-Durchgehend
 62
     7
370
    25
100
AcDbLine
 10
457.6618920813
 20
450.5881139691
 30
0.0
 11
457.6618920813
 21
450.0737500813
 31
0.0
  0
LINE
  5
233
330
1F
100
AcDbEntity
  8
0
  6
SLD-Durchgehend
 62
     7
370
    25
100
AcDbLine
 10
456.5901031456
 20
465.7508979062
 30
0.0
 11
457.433681017
 21
465.8247014068
 31
0.0
  0
ARC
  5
234
330
1F
100
AcDbEntity
  8
0
  6
SLD-Durchgehend
 62
     7
370
    25
100
AcDbCircle
 10
457.4118920813
 20
456.4737500813
 30
0.0
 40
0.25
100
AcDbArc
 50
275.0
 51
0.0
  0
ARC
  5
235
330
1F
100
AcDbEntity
  8
0
  6
SLD-Durchgehend
 62
     7
370
    25
100
AcDbCircle
 10
456.6118920813
 20
455.9018492317
 30
0.0
 40
0.25
100
AcDbArc
 50
95.0000000003
 51
179.9999999998
  0
LINE
  5
236
330
1F
100
AcDbEntity
  8
0
  6
SLD-Durchgehend
 62
     7
370
    25
100
AcDbLine
 10
456.5901031456
 20
456.1508979062
 30
0.0
 11
457.433681017
 21
456.2247014068
 31
0.0
  0
ARC
  5
237
330
1F
100
AcDbEntity
  8
0
  6
SLD-Durchgehend
 62
     7
370
    25
100
AcDbCircle
 10
456.6118920813
 20
454.3600148187
 30
0.0
 40
0.2500000000000167
100
AcDbArc
 50
180.0
 51
265.0
  0
ARC
  5
238
330
1F
100
AcDbEntity
  8
0
  6
SLD-Durchgehend
 62
     7
370
    25
100
AcDbCircle
 10
457.4118920813
 20
453.7881139691
 30
0.0
 40
0.2500000000000556
100
AcDbArc
 50
0.0000000002
 51
85.0000000002
  0
LINE
  5
239
330
1F
100
AcDbEntity
  8
0
  6
SLD-Durchgehend
 62
     7
370
    25
100
AcDbLine
 10
457.433681017
 20
454.0371626437
 30
0.0
 11
456.5901031456
 21
454.1109661442
 31
0.0
  0
LINE
  5
23A
330
1F
100
AcDbEntity
  8
0
  6
SLD-Durchgehend
 62
     7
370
    25
100
AcDbLine
 10
456.3618920813
 20
454.3600148187
 30
0.0
 11
456.3618920813
 21
455.9018492317
 31
0.0
  0
LINE
  5
23B
330
1F
100
AcDbEntity
  8
0
  6
SLD-Durchgehend
 62
     7
370
    25
100
AcDbLine
 10
457.6618920813
 20
453.7881139691
 30
0.0
 11
457.6618920813
 21
453.2737500813
 31
0.0
  0
LINE
  5
23C
330
1F
100
AcDbEntity
  8
0
  6
SLD-Durchgehend
 62
     7
370
    25
100
AcDbLine
 10
457.6618920813
 20
460.1881139691
 30
0.0
 11
457.6618920813
 21
459.6737500813
 31
0.0
  0
ARC
  5
23D
330
1F
100
AcDbEntity
  8
0
  6
SLD-Durchgehend
 62
     7
370
    25
100
AcDbCircle
 10
457.4118920813
 20
459.6737500813
 30
0.0
 40
0.2500000000000733
100
AcDbArc
 50
275.0
 51
0.0
  0
ARC
  5
23E
330
1F
100
AcDbEntity
  8
0
  6
SLD-Durchgehend
 62
     7
370
    25
100
AcDbCircle
 10
456.6118920813
 20
459.1018492317
 30
0.0
 40
0.25
100
AcDbArc
 50
95.0000000002
 51
179.9999999998
  0
LINE
  5
23F
330
1F
100
AcDbEntity
  8
0
  6
SLD-Durchgehend
 62
     7
370
    25
100
AcDbLine
 10
456.5901031456
 20
459.3508979062
 30
0.0
 11
457.433681017
 21
459.4247014068
 31
0.0
  0
ARC
  5
240
330
1F
100
AcDbEntity
  8
0
  6
SLD-Durchgehend
 62
     7
370
    25
100
AcDbCircle
 10
456.6118920813
 20
457.5600148187
 30
0.0
 40
0.25
100
AcDbArc
 50
180.0
 51
265.0
  0
ARC
  5
241
330
1F
100
AcDbEntity
  8
0
  6
SLD-Durchgehend
 62
     7
370
    25
100
AcDbCircle
 10
457.4118920813
 20
456.9881139691
 30
0.0
 40
0.2500000000001292
100
AcDbArc
 50
0.0000000002
 51
85.0000000003
  0
LINE
  5
242
330
1F
100
AcDbEntity
  8
0
  6
SLD-Durchgehend
 62
     7
370
    25
100
AcDbLine
 10
457.433681017
 20
457.2371626437
 30
0.0
 11
456.5901031456
 21
457.3109661442
 31
0.0
  0
LINE
  5
243
330
1F
100
AcDbEntity
  8
0
  6
SLD-Durchgehend
 62
     7
370
    25
100
AcDbLine
 10
456.3618920813
 20
457.5600148187
 30
0.0
 11
456.3618920813
 21
459.1018492317
 31
0.0
  0
LINE
  5
244
330
1F
100
AcDbEntity
  8
0
  6
SLD-Durchgehend
 62
     7
370
    25
100
AcDbLine
 10
457.6618920813
 20
456.9881139691
 30
0.0
 11
457.6618920813
 21
456.4737500813
 31
0.0
  0
ARC
  5
245
330
1F
100
AcDbEntity
  8
0
  6
SLD-Durchgehend
 62
     7
370
    25
100
AcDbCircle
 10
457.4118920813
 20
462.8737500813
 30
0.0
 40
0.25
100
AcDbArc
 50
275.0
 51
0.0
  0
ARC
  5
246
330
1F
100
AcDbEntity
  8
0
  6
SLD-Durchgehend
 62
     7
370
    25
100
AcDbCircle
 10
456.6118920813
 20
462.3018492317
 30
0.0
 40
0.25
100
AcDbArc
 50
95.0000000001
 51
179.9999999998
  0
LINE
  5
247
330
1F
100
AcDbEntity
  8
0
  6
SLD-Durchgehend
 62
     7
370
    25
100
AcDbLine
 10
456.5901031456
 20
462.5508979062
 30
0.0
 11
457.433681017
 21
462.6247014068
 31
0.0
  0
ARC
  5
248
330
1F
100
AcDbEntity
  8
0
  6
SLD-Durchgehend
 62
     7
370
    25
100
AcDbCircle
 10
456.6118920813
 20
460.7600148187
 30
0.0
 40
0.2500000000000167
100
AcDbArc
 50
180.0
 51
265.0
  0
ARC
  5
249
330
1F
100
AcDbEntity
  8
0
  6
SLD-Durchgehend
 62
     7
370
    25
100
AcDbCircle
 10
457.4118920813
 20
460.1881139691
 30
0.0
 40
0.2500000000001413
100
AcDbArc
 50
359.9999999998
 51
85.0000000004
  0
LINE
  5
24A
330
1F
100
AcDbEntity
  8
0
  6
SLD-Durchgehend
 62
     7
370
    25
100
AcDbLine
 10
457.433681017
 20
460.4371626437
 30
0.0
 11
456.5901031456
 21
460.5109661442
 31
0.0
  0
LINE
  5
24B
330
1F
100
AcDbEntity
  8
0
  6
SLD-Durchgehend
 62
     7
370
    25
100
AcDbLine
 10
456.3618920813
 20
460.7600148187
 30
0.0
 11
456.3618920813
 21
462.3018492317
 31
0.0
  0
LINE
  5
24C
330
1F
100
AcDbEntity
  8
0
  6
SLD-Durchgehend
 62
     7
370
    25
100
AcDbLine
 10
457.6618920813
 20
440.9881139691
 30
0.0
 11
457.6618920813
 21
440.4737500813
 31
0.0
  0
ARC
  5
24D
330
1F
100
AcDbEntity
  8
0
  6
SLD-Durchgehend
 62
     7
370
    25
100
AcDbCircle
 10
457.4118920813
 20
440.4737500813
 30
0.0
 40
0.2500000000000733
100
AcDbArc
 50
275.0
 51
0.0
  0
LINE
  5
24E
330
1F
100
AcDbEntity
  8
0
  6
SLD-Durchgehend
 62
     7
370
    25
100
AcDbLine
 10
457.6618920813
 20
463.3881139691
 30
0.0
 11
457.6618920813
 21
462.8737500813
 31
0.0
  0
LINE
  5
24F
330
1F
100
AcDbEntity
  8
0
  6
SLD-Durchgehend
 62
     7
370
    25
100
AcDbLine
 10
456.5901031456
 20
440.1508979062
 30
0.0
 11
457.433681017
 21
440.2247014068
 31
0.0
  0
ARC
  5
250
330
1F
100
AcDbEntity
  8
0
  6
SLD-Durchgehend
 62
     7
370
    25
100
AcDbCircle
 10
456.6118920813
 20
438.3600148187
 30
0.0
 40
0.25
100
AcDbArc
 50
180.0
 51
265.0
  0
ARC
  5
251
330
1F
100
AcDbEntity
  8
0
  6
SLD-Durchgehend
 62
     7
370
    25
100
AcDbCircle
 10
457.4118920813
 20
437.7881139691
 30
0.0
 40
0.2500000000000704
100
AcDbArc
 50
0.0000000002
 51
85.0000000002
  0
LINE
  5
252
330
1F
100
AcDbEntity
  8
0
  6
SLD-Durchgehend
 62
     7
370
    25
100
AcDbLine
 10
457.433681017
 20
438.0371626437
 30
0.0
 11
456.5901031456
 21
438.1109661442
 31
0.0
  0
LINE
  5
253
330
1F
100
AcDbEntity
  8
0
  6
SLD-Durchgehend
 62
     7
370
    25
100
AcDbLine
 10
456.3618920813
 20
438.3600148187
 30
0.0
 11
456.3618920813
 21
439.9018492317
 31
0.0
  0
LINE
  5
254
330
1F
100
AcDbEntity
  8
0
  6
SLD-Durchgehend
 62
     7
370
    25
100
AcDbLine
 10
457.6618920813
 20
437.7881139691
 30
0.0
 11
457.6618920813
 21
437.1809320252
 31
0.0
  0
ARC
  5
255
330
1F
100
AcDbEntity
  8
0
  6
SLD-Durchgehend
 62
     7
370
    25
100
AcDbCircle
 10
456.6118920813
 20
465.5018492317
 30
0.0
 40
0.2500000000000117
100
AcDbArc
 50
95.0
 51
179.9999999998
  0
ARC
  5
256
330
1F
100
AcDbEntity
  8
0
  6
SLD-Durchgehend
 62
     7
370
    25
100
AcDbCircle
 10
457.4118920813
 20
443.6737500813
 30
0.0
 40
0.2499999999999601
100
AcDbArc
 50
275.0
 51
0.0
  0
ARC
  5
257
330
1F
100
AcDbEntity
  8
0
  6
SLD-Durchgehend
 62
     7
370
    25
100
AcDbCircle
 10
456.6118920813
 20
443.1018492317
 30
0.0
 40
0.25
100
AcDbArc
 50
95.0000000002
 51
179.9999999998
  0
LINE
  5
258
330
1F
100
AcDbEntity
  8
0
  6
SLD-Durchgehend
 62
     7
370
    25
100
AcDbLine
 10
456.5901031456
 20
443.3508979062
 30
0.0
 11
457.433681017
 21
443.4247014068
 31
0.0
  0
ARC
  5
259
330
1F
100
AcDbEntity
  8
0
  6
SLD-Durchgehend
 62
     7
370
    25
100
AcDbCircle
 10
456.6118920813
 20
441.5600148187
 30
0.0
 40
0.2500000000000167
100
AcDbArc
 50
180.0
 51
265.0
  0
ARC
  5
25A
330
1F
100
AcDbEntity
  8
0
  6
SLD-Durchgehend
 62
     7
370
    25
100
AcDbCircle
 10
457.4118920813
 20
440.9881139691
 30
0.0
 40
0.2500000000001859
100
AcDbArc
 50
0.0000000002
 51
85.0000000003
  0
LINE
  5
25B
330
1F
100
AcDbEntity
  8
0
  6
SLD-Durchgehend
 62
     7
370
    25
100
AcDbLine
 10
457.433681017
 20
441.2371626437
 30
0.0
 11
456.5901031456
 21
441.3109661442
 31
0.0
  0
LINE
  5
25C
330
1F
100
AcDbEntity
  8
0
  6
SLD-Durchgehend
 62
     7
370
    25
100
AcDbLine
 10
456.3618920813
 20
441.5600148187
 30
0.0
 11
456.3618920813
 21
443.1018492317
 31
0.0
  0
LINE
  5
25D
330
1F
100
AcDbEntity
  8
0
  6
SLD-Durchgehend
 62
     7
370
    25
100
AcDbLine
 10
456.3618920813
 20
447.9600148187
 30
0.0
 11
456.3618920813
 21
449.5018492317
 31
0.0
  0
LINE
  5
25E
330
1F
100
AcDbEntity
  8
0
  6
SLD-Durchgehend
 62
     7
370
    25
100
AcDbLine
 10
457.6618920813
 20
447.3881139691
 30
0.0
 11
457.6618920813
 21
446.8737500813
 31
0.0
  0
ARC
  5
25F
330
1F
100
AcDbEntity
  8
0
  6
SLD-Durchgehend
 62
     7
370
    25
100
AcDbCircle
 10
457.4118920813
 20
446.8737500813
 30
0.0
 40
0.25
100
AcDbArc
 50
275.0
 51
0.0
  0
ARC
  5
260
330
1F
100
AcDbEntity
  8
0
  6
SLD-Durchgehend
 62
     7
370
    25
100
AcDbCircle
 10
456.6118920813
 20
446.3018492317
 30
0.0
 40
0.25
100
AcDbArc
 50
95.0000000001
 51
179.9999999998
  0
LINE
  5
261
330
1F
100
AcDbEntity
  8
0
  6
SLD-Durchgehend
 62
     7
370
    25
100
AcDbLine
 10
456.5901031456
 20
446.5508979062
 30
0.0
 11
457.433681017
 21
446.6247014068
 31
0.0
  0
ARC
  5
262
330
1F
100
AcDbEntity
  8
0
  6
SLD-Durchgehend
 62
     7
370
    25
100
AcDbCircle
 10
456.6118920813
 20
444.7600148187
 30
0.0
 40
0.2500000000000733
100
AcDbArc
 50
180.0
 51
265.0
  0
ARC
  5
263
330
1F
100
AcDbEntity
  8
0
  6
SLD-Durchgehend
 62
     7
370
    25
100
AcDbCircle
 10
457.4118920813
 20
444.1881139691
 30
0.0
 40
0.250000000000188
100
AcDbArc
 50
0.0000000002
 51
85.0000000004
  0
LINE
  5
264
330
1F
100
AcDbEntity
  8
0
  6
SLD-Durchgehend
 62
     7
370
    25
100
AcDbLine
 10
457.433681017
 20
444.4371626437
 30
0.0
 11
456.5901031456
 21
444.5109661442
 31
0.0
  0
LINE
  5
265
330
1F
100
AcDbEntity
  8
0
  6
SLD-Durchgehend
 62
     7
370
    25
100
AcDbLine
 10
456.3618920813
 20
444.7600148187
 30
0.0
 11
456.3618920813
 21
446.3018492317
 31
0.0
  0
ARC
  5
266
330
1F
100
AcDbEntity
  8
0
  6
SLD-Durchgehend
 62
     7
370
    25
100
AcDbCircle
 10
457.4118920813
 20
437.1809320252
 30
0.0
 40
0.25
100
AcDbArc
 50
270.0
 51
0.0
  0
LINE
  5
267
330
1F
100
AcDbEntity
  8
0
  6
SLD-Durchgehend
 62
     7
370
    25
100
AcDbLine
 10
457.6618920813
 20
444.1881139691
 30
0.0
 11
457.6618920813
 21
443.6737500813
 31
0.0
  0
ARC
  5
268
330
1F
100
AcDbEntity
  8
0
  6
SLD-Durchgehend
 62
     7
370
    25
100
AcDbCircle
 10
457.4118920813
 20
450.0737500813
 30
0.0
 40
0.2500000000000117
100
AcDbArc
 50
275.0
 51
0.0
  0
ARC
  5
269
330
1F
100
AcDbEntity
  8
0
  6
SLD-Durchgehend
 62
     7
370
    25
100
AcDbCircle
 10
456.6118920813
 20
449.5018492317
 30
0.0
 40
0.2500000000000167
100
AcDbArc
 50
95.0
 51
179.9999999998
  0
LINE
  5
26A
330
1F
100
AcDbEntity
  8
0
  6
SLD-Durchgehend
 62
     7
370
    25
100
AcDbLine
 10
456.5901031456
 20
449.7508979062
 30
0.0
 11
457.433681017
 21
449.8247014068
 31
0.0
  0
ARC
  5
26B
330
1F
100
AcDbEntity
  8
0
  6
SLD-Durchgehend
 62
     7
370
    25
100
AcDbCircle
 10
456.6118920813
 20
447.9600148187
 30
0.0
 40
0.25
100
AcDbArc
 50
180.0
 51
265.0
  0
ARC
  5
26C
330
1F
100
AcDbEntity
  8
0
  6
SLD-Durchgehend
 62
     7
370
    25
100
AcDbCircle
 10
457.4118920813
 20
447.3881139691
 30
0.0
 40
0.250000000000205
100
AcDbArc
 50
0.0000000002
 51
85.0000000006
  0
LINE
  5
26D
330
1F
100
AcDbEntity
  8
0
  6
SLD-Durchgehend
 62
     7
370
    25
100
AcDbLine
 10
457.433681017
 20
447.6371626437
 30
0.0
 11
456.5901031456
 21
447.7109661442
 31
0.0
  0
LINE
  5
26E
330
1F
100
AcDbEntity
  8
0
  6
SLD-Durchgehend
 62
     7
370
    25
100
AcDbLine
 10
457.6618920813
 20
467.6809320252
 30
0.0
 11
457.6618920813
 21
466.0737500813
 31
0.0
  0
LINE
  5
26F
330
1F
100
AcDbEntity
  8
0
  6
SLD-Durchgehend
 62
     7
370
    25
100
AcDbLine
 10
457.433681017
 20
463.6371626437
 30
0.0
 11
456.5901031456
 21
463.7109661442
 31
0.0
  0
ARC
  5
270
330
1F
100
AcDbEntity
  8
0
  6
SLD-Durchgehend
 62
     7
370
    25
100
AcDbCircle
 10
457.4118920813
 20
453.2737500813
 30
0.0
 40
0.25
100
AcDbArc
 50
275.0
 51
0.0
  0
ARC
  5
271
330
1F
100
AcDbEntity
  8
0
  6
SLD-Durchgehend
 62
     7
370
    25
100
AcDbCircle
 10
456.6118920813
 20
439.9018492317
 30
0.0
 40
0.25
100
AcDbArc
 50
95.0000000004
 51
179.9999999998
  0
ARC
  5
272
330
1F
100
AcDbEntity
  8
0
  6
SLD-Durchgehend
 62
     7
370
    25
100
AcDbCircle
 10
457.4118920813
 20
463.3881139691
 30
0.0
 40
0.25
100
AcDbArc
 50
0.0000000002
 51
84.9999999994
  0
ARC
  5
273
330
1F
100
AcDbEntity
  8
0
  6
SLD-Durchgehend
 62
     7
370
    25
100
AcDbCircle
 10
457.9118920813
 20
467.6809320252
 30
0.0
 40
0.25
100
AcDbArc
 50
90.0
 51
179.9999999998
  0
LINE
  5
274
330
1F
100
AcDbEntity
  8
0
  6
SLD-Durchgehend
 62
     7
370
    25
100
AcDbLine
 10
456.3618920813
 20
463.9600148187
 30
0.0
 11
456.3618920813
 21
465.5018492317
 31
0.0
  0
ARC
  5
275
330
1F
100
AcDbEntity
  8
0
  6
SLD-Durchgehend
 62
     7
370
    25
100
AcDbCircle
 10
456.6118920813
 20
463.9600148187
 30
0.0
 40
0.2500000000000216
100
AcDbArc
 50
180.0
 51
265.0
  0
ARC
  5
276
330
1F
100
AcDbEntity
  8
0
  6
SLD-Durchgehend
 62
     7
370
    25
100
AcDbCircle
 10
457.4118920813
 20
466.0737500813
 30
0.0
 40
0.2500000000000117
100
AcDbArc
 50
275.0
 51
360.0
  0
LINE
  5
277
330
1F
100
AcDbEntity
  8
0
  6
SLD-Durchgehend
 62
     7
370
    25
100
AcDbLine
 10
455.7618920813
 20
468.9309320252
 30
0.0
 11
453.5223113121
 21
468.9309320252
 31
0.0
  0
LINE
  5
278
330
1F
100
AcDbEntity
  8
0
  6
SLD-Durchgehend
 62
     7
370
    25
100
AcDbLine
 10
455.7618920813
 20
468.9309320252
 30
0.0
 11
455.7618920813
 21
436.9309320252
 31
0.0
  0
LINE
  5
279
330
1F
100
AcDbEntity
  8
0
  6
SLD-Durchgehend
 62
     7
370
    25
100
AcDbLine
 10
453.5223113121
 20
436.9309320252
 30
0.0
 11
455.7618920813
 21
436.9309320252
 31
0.0
  0
LINE
  5
27A
330
1F
100
AcDbEntity
  8
0
  6
SLD-Durchgehend
 62
     7
370
    25
100
AcDbLine
 10
336.8014728505
 20
468.9309320252
 30
0.0
 11
334.5618920813
 21
468.9309320252
 31
0.0
  0
LINE
  5
27B
330
1F
100
AcDbEntity
  8
0
  6
SLD-Durchgehend
 62
     7
370
    25
100
AcDbLine
 10
334.5618920813
 20
436.9309320252
 30
0.0
 11
334.5618920813
 21
468.9309320252
 31
0.0
  0
LINE
  5
27C
330
1F
100
AcDbEntity
  8
0
  6
SLD-Durchgehend
 62
     7
370
    25
100
AcDbLine
 10
334.5618920813
 20
436.9309320252
 30
0.0
 11
336.8014728505
 21
436.9309320252
 31
0.0
  0
ARC
  5
27D
330
1F
100
AcDbEntity
  8
0
  6
SLD-Durchgehend
 62
     7
370
    25
100
AcDbCircle
 10
332.9118920813
 20
437.1809320252
 30
0.0
 40
0.25
100
AcDbArc
 50
180.0
 51
270.0
  0
LINE
  5
27E
330
1F
100
AcDbEntity
  8
0
  6
SLD-Durchgehend
 62
     7
370
    25
100
AcDbLine
 10
332.6618920813
 20
462.8737500813
 30
0.0
 11
332.6618920813
 21
463.3881139691
 31
0.0
  0
ARC
  5
27F
330
1F
100
AcDbEntity
  8
0
  6
SLD-Durchgehend
 62
     7
370
    25
100
AcDbCircle
 10
332.4118920813
 20
467.6809320252
 30
0.0
 40
0.25
100
AcDbArc
 50
0.0
 51
90.0
  0
LINE
  5
280
330
1F
100
AcDbEntity
  8
0
  6
SLD-Durchgehend
 62
     7
370
    25
100
AcDbLine
 10
332.6618920813
 20
443.6737500813
 30
0.0
 11
332.6618920813
 21
444.1881139691
 31
0.0
  0
LINE
  5
281
330
1F
100
AcDbEntity
  8
0
  6
SLD-Durchgehend
 62
     7
370
    25
100
AcDbLine
 10
455.7618920813
 20
468.9309320252
 30
0.0
 11
457.2618920813
 21
470.4309320252
 31
0.0
  0
LINE
  5
282
330
1F
100
AcDbEntity
  8
0
  6
SLD-Durchgehend
 62
     7
370
    25
100
AcDbLine
 10
457.2618920813
 20
470.4309320252
 30
0.0
 11
460.4118920813
 21
470.4309320252
 31
0.0
  0
LINE
  5
283
330
1F
100
AcDbEntity
  8
0
  6
SLD-Durchgehend
 62
     7
370
    25
100
AcDbLine
 10
460.4118920813
 20
469.4309320252
 30
0.0
 11
460.4118920813
 21
470.4309320252
 31
0.0
  0
ARC
  5
284
330
1F
100
AcDbEntity
  8
0
  6
SLD-Durchgehend
 62
     7
370
    25
100
AcDbCircle
 10
469.6618995919
 20
471.530937336
 30
0.0
 40
1.500007510630038
100
AcDbArc
 50
180.0
 51
250.5285765081
  0
LINE
  5
285
330
1F
100
AcDbEntity
  8
0
  6
SLD-Durchgehend
 62
     7
370
    25
100
AcDbLine
 10
466.6618920813
 20
474.9309320252
 30
0.0
 11
467.1618920813
 21
474.9309320252
 31
0.0
  0
LINE
  5
286
330
1F
100
AcDbEntity
  8
0
  6
SLD-Durchgehend
 62
     7
370
    25
100
AcDbLine
 10
469.1618920813
 20
470.1167184629
 30
0.0
 11
469.1618920813
 21
468.4309320252
 31
0.0
  0
ARC
  5
287
330
1F
100
AcDbEntity
  8
0
  6
SLD-Durchgehend
 62
     7
370
    25
100
AcDbCircle
 10
468.6618920813
 20
468.4309320252
 30
0.0
 40
0.5
100
AcDbArc
 50
270.0
 51
0.0
  0
ARC
  5
288
330
1F
100
AcDbEntity
  8
0
  6
SLD-Durchgehend
 62
     7
370
    25
100
AcDbCircle
 10
467.1618920813
 20
473.9309320252
 30
0.0
 40
1.0
100
AcDbArc
 50
0.0
 51
90.0
  0
LINE
  5
289
330
1F
100
AcDbEntity
  8
0
  6
SLD-Durchgehend
 62
     7
370
    25
100
AcDbLine
 10
465.6618920813
 20
470.9309320252
 30
0.0
 11
465.6618920813
 21
473.9309320252
 31
0.0
  0
ARC
  5
28A
330
1F
100
AcDbEntity
  8
0
  6
SLD-Durchgehend
 62
     7
370
    25
100
AcDbCircle
 10
464.1618920813
 20
470.9309320252
 30
0.0
 40
1.500000000000057
100
AcDbArc
 50
270.0
 51
0.0
  0
ARC
  5
28B
330
1F
100
AcDbEntity
  8
0
  6
SLD-Durchgehend
 62
     7
370
    25
100
AcDbCircle
 10
466.6618920813
 20
473.9309320252
 30
0.0
 40
1.0
100
AcDbArc
 50
90.0
 51
180.0
  0
LINE
  5
28C
330
1F
100
AcDbEntity
  8
0
  6
SLD-Durchgehend
 62
     7
370
    25
100
AcDbLine
 10
460.4118920813
 20
469.4309320252
 30
0.0
 11
464.1618920813
 21
469.4309320252
 31
0.0
  0
LINE
  5
28D
330
1F
100
AcDbEntity
  8
0
  6
SLD-Durchgehend
 62
     7
370
    25
100
AcDbLine
 10
468.1618920813
 20
471.530937336
 30
0.0
 11
468.1618920813
 21
473.9309320252
 31
0.0
  0
LINE
  5
28E
330
1F
100
AcDbEntity
  8
0
  6
SLD-Durchgehend
 62
     7
370
    25
100
AcDbLine
 10
468.6618920813
 20
467.9309320252
 30
0.0
 11
457.9118920813
 21
467.9309320252
 31
0.0
  0
LINE
  5
28F
330
1F
100
AcDbEntity
  8
0
  6
SLD-Durchgehend
 62
     7
370
    25
100
AcDbLine
 10
457.4118920813
 20
436.9309320252
 30
0.0
 11
455.7618920813
 21
436.9309320252
 31
0.0
  0
LINE
  5
290
330
1F
100
AcDbEntity
  8
0
  6
SLD-Durchgehend
 62
     7
370
    25
100
AcDbLine
 10
332.6618920813
 20
440.4737500813
 30
0.0
 11
332.6618920813
 21
440.9881139691
 31
0.0
  0
LINE
  5
291
330
1F
100
AcDbEntity
  8
0
  6
SLD-Durchgehend
 62
     7
370
    25
100
AcDbLine
 10
332.6618920813
 20
459.6737500813
 30
0.0
 11
332.6618920813
 21
460.1881139691
 31
0.0
  0
LINE
  5
292
330
1F
100
AcDbEntity
  8
0
  6
SLD-Durchgehend
 62
     7
370
    25
100
AcDbLine
 10
332.6618920813
 20
446.8737500813
 30
0.0
 11
332.6618920813
 21
447.3881139691
 31
0.0
  0
LINE
  5
293
330
1F
100
AcDbEntity
  8
0
  6
SLD-Durchgehend
 62
     7
370
    25
100
AcDbLine
 10
332.6618920813
 20
456.4737500813
 30
0.0
 11
332.6618920813
 21
456.9881139691
 31
0.0
  0
LINE
  5
294
330
1F
100
AcDbEntity
  8
0
  6
SLD-Durchgehend
 62
     7
370
    25
100
AcDbLine
 10
332.6618920813
 20
437.1809320252
 30
0.0
 11
332.6618920813
 21
437.7881139691
 31
0.0
  0
LINE
  5
295
330
1F
100
AcDbEntity
  8
0
  6
SLD-Durchgehend
 62
     7
370
    25
100
AcDbLine
 10
332.6618920813
 20
453.2737500813
 30
0.0
 11
332.6618920813
 21
453.7881139691
 31
0.0
  0
LINE
  5
296
330
1F
100
AcDbEntity
  8
0
  6
SLD-Durchgehend
 62
     7
370
    25
100
AcDbLine
 10
333.9618920813
 20
439.9018492317
 30
0.0
 11
333.9618920813
 21
438.3600148187
 31
0.0
  0
ARC
  5
297
330
1F
100
AcDbEntity
  8
0
  6
SLD-Durchgehend
 62
     7
370
    25
100
AcDbCircle
 10
333.7118920813
 20
439.9018492317
 30
0.0
 40
0.2500000000000216
100
AcDbArc
 50
0.0
 51
85.0
  0
LINE
  5
298
330
1F
100
AcDbEntity
  8
0
  6
SLD-Durchgehend
 62
     7
370
    25
100
AcDbLine
 10
332.8901031456
 20
440.2247014068
 30
0.0
 11
333.733681017
 21
440.1508979062
 31
0.0
  0
ARC
  5
299
330
1F
100
AcDbEntity
  8
0
  6
SLD-Durchgehend
 62
     7
370
    25
100
AcDbCircle
 10
332.9118920813
 20
440.4737500813
 30
0.0
 40
0.2500000000000167
100
AcDbArc
 50
179.9999999992
 51
265.0
  0
ARC
  5
29A
330
1F
100
AcDbEntity
  8
0
  6
SLD-Durchgehend
 62
     7
370
    25
100
AcDbCircle
 10
332.9118920813
 20
440.9881139691
 30
0.0
 40
0.2500000000000167
100
AcDbArc
 50
95.0
 51
180.0
  0
LINE
  5
29B
330
1F
100
AcDbEntity
  8
0
  6
SLD-Durchgehend
 62
     7
370
    25
100
AcDbLine
 10
333.733681017
 20
441.3109661442
 30
0.0
 11
332.8901031456
 21
441.2371626437
 31
0.0
  0
ARC
  5
29C
330
1F
100
AcDbEntity
  8
0
  6
SLD-Durchgehend
 62
     7
370
    25
100
AcDbCircle
 10
333.7118920813
 20
441.5600148187
 30
0.0
 40
0.2500000000000216
100
AcDbArc
 50
275.0
 51
0.0000000008
  0
LINE
  5
29D
330
1F
100
AcDbEntity
  8
0
  6
SLD-Durchgehend
 62
     7
370
    25
100
AcDbLine
 10
333.9618920813
 20
443.1018492317
 30
0.0
 11
333.9618920813
 21
441.5600148187
 31
0.0
  0
ARC
  5
29E
330
1F
100
AcDbEntity
  8
0
  6
SLD-Durchgehend
 62
     7
370
    25
100
AcDbCircle
 10
333.7118920813
 20
443.1018492317
 30
0.0
 40
0.2500000000000216
100
AcDbArc
 50
0.0
 51
85.0
  0
LINE
  5
29F
330
1F
100
AcDbEntity
  8
0
  6
SLD-Durchgehend
 62
     7
370
    25
100
AcDbLine
 10
332.8901031456
 20
443.4247014068
 30
0.0
 11
333.733681017
 21
443.3508979062
 31
0.0
  0
ARC
  5
2A0
330
1F
100
AcDbEntity
  8
0
  6
SLD-Durchgehend
 62
     7
370
    25
100
AcDbCircle
 10
332.9118920813
 20
443.6737500813
 30
0.0
 40
0.25
100
AcDbArc
 50
179.9999999992
 51
265.0
  0
ARC
  5
2A1
330
1F
100
AcDbEntity
  8
0
  6
SLD-Durchgehend
 62
     7
370
    25
100
AcDbCircle
 10
332.9118920813
 20
444.1881139691
 30
0.0
 40
0.2500000000000733
100
AcDbArc
 50
95.0
 51
180.0
  0
LINE
  5
2A2
330
1F
100
AcDbEntity
  8
0
  6
SLD-Durchgehend
 62
     7
370
    25
100
AcDbLine
 10
333.733681017
 20
444.5109661442
 30
0.0
 11
332.8901031456
 21
444.4371626437
 31
0.0
  0
ARC
  5
2A3
330
1F
100
AcDbEntity
  8
0
  6
SLD-Durchgehend
 62
     7
370
    25
100
AcDbCircle
 10
333.7118920813
 20
444.7600148187
 30
0.0
 40
0.2500000000000216
100
AcDbArc
 50
275.0
 51
0.0000000008
  0
LINE
  5
2A4
330
1F
100
AcDbEntity
  8
0
  6
SLD-Durchgehend
 62
     7
370
    25
100
AcDbLine
 10
333.9618920813
 20
446.3018492317
 30
0.0
 11
333.9618920813
 21
444.7600148187
 31
0.0
  0
ARC
  5
2A5
330
1F
100
AcDbEntity
  8
0
  6
SLD-Durchgehend
 62
     7
370
    25
100
AcDbCircle
 10
333.7118920813
 20
446.3018492317
 30
0.0
 40
0.25
100
AcDbArc
 50
0.0
 51
85.0
  0
LINE
  5
2A6
330
1F
100
AcDbEntity
  8
0
  6
SLD-Durchgehend
 62
     7
370
    25
100
AcDbLine
 10
332.8901031456
 20
446.6247014068
 30
0.0
 11
333.733681017
 21
446.5508979062
 31
0.0
  0
ARC
  5
2A7
330
1F
100
AcDbEntity
  8
0
  6
SLD-Durchgehend
 62
     7
370
    25
100
AcDbCircle
 10
332.9118920813
 20
446.8737500813
 30
0.0
 40
0.2500000000000117
100
AcDbArc
 50
180.0000000008
 51
265.0
  0
ARC
  5
2A8
330
1F
100
AcDbEntity
  8
0
  6
SLD-Durchgehend
 62
     7
370
    25
100
AcDbCircle
 10
332.9118920813
 20
447.3881139691
 30
0.0
 40
0.2499999999999551
100
AcDbArc
 50
95.0
 51
180.0
  0
LINE
  5
2A9
330
1F
100
AcDbEntity
  8
0
  6
SLD-Durchgehend
 62
     7
370
    25
100
AcDbLine
 10
333.733681017
 20
447.7109661442
 30
0.0
 11
332.8901031456
 21
447.6371626437
 31
0.0
  0
ARC
  5
2AA
330
1F
100
AcDbEntity
  8
0
  6
SLD-Durchgehend
 62
     7
370
    25
100
AcDbCircle
 10
333.7118920813
 20
447.9600148187
 30
0.0
 40
0.2500000000000216
100
AcDbArc
 50
275.0
 51
0.0000000008
  0
LINE
  5
2AB
330
1F
100
AcDbEntity
  8
0
  6
SLD-Durchgehend
 62
     7
370
    25
100
AcDbLine
 10
333.9618920813
 20
449.5018492317
 30
0.0
 11
333.9618920813
 21
447.9600148187
 31
0.0
  0
ARC
  5
2AC
330
1F
100
AcDbEntity
  8
0
  6
SLD-Durchgehend
 62
     7
370
    25
100
AcDbCircle
 10
333.7118920813
 20
449.5018492317
 30
0.0
 40
0.2500000000000216
100
AcDbArc
 50
0.0
 51
85.0
  0
LINE
  5
2AD
330
1F
100
AcDbEntity
  8
0
  6
SLD-Durchgehend
 62
     7
370
    25
100
AcDbLine
 10
332.8901031456
 20
449.8247014068
 30
0.0
 11
333.733681017
 21
449.7508979062
 31
0.0
  0
ARC
  5
2AE
330
1F
100
AcDbEntity
  8
0
  6
SLD-Durchgehend
 62
     7
370
    25
100
AcDbCircle
 10
332.9118920813
 20
450.0737500813
 30
0.0
 40
0.2499999999999551
100
AcDbArc
 50
179.9999999992
 51
265.0
  0
LINE
  5
2AF
330
1F
100
AcDbEntity
  8
0
  6
SLD-Durchgehend
 62
     7
370
    25
100
AcDbLine
 10
332.6618920813
 20
450.0737500813
 30
0.0
 11
332.6618920813
 21
450.5881139691
 31
0.0
  0
ARC
  5
2B0
330
1F
100
AcDbEntity
  8
0
  6
SLD-Durchgehend
 62
     7
370
    25
100
AcDbCircle
 10
332.9118920813
 20
450.5881139691
 30
0.0
 40
0.2499999999999551
100
AcDbArc
 50
95.0
 51
180.0
  0
LINE
  5
2B1
330
1F
100
AcDbEntity
  8
0
  6
SLD-Durchgehend
 62
     7
370
    25
100
AcDbLine
 10
333.733681017
 20
450.9109661442
 30
0.0
 11
332.8901031456
 21
450.8371626437
 31
0.0
  0
ARC
  5
2B2
330
1F
100
AcDbEntity
  8
0
  6
SLD-Durchgehend
 62
     7
370
    25
100
AcDbCircle
 10
333.7118920813
 20
451.1600148187
 30
0.0
 40
0.25
100
AcDbArc
 50
275.0
 51
0.0000000008
  0
LINE
  5
2B3
330
1F
100
AcDbEntity
  8
0
  6
SLD-Durchgehend
 62
     7
370
    25
100
AcDbLine
 10
333.9618920813
 20
452.7018492317
 30
0.0
 11
333.9618920813
 21
451.1600148187
 31
0.0
  0
ARC
  5
2B4
330
1F
100
AcDbEntity
  8
0
  6
SLD-Durchgehend
 62
     7
370
    25
100
AcDbCircle
 10
333.7118920813
 20
452.7018492317
 30
0.0
 40
0.2500000000000216
100
AcDbArc
 50
0.0
 51
85.0
  0
LINE
  5
2B5
330
1F
100
AcDbEntity
  8
0
  6
SLD-Durchgehend
 62
     7
370
    25
100
AcDbLine
 10
332.8901031456
 20
453.0247014068
 30
0.0
 11
333.733681017
 21
452.9508979062
 31
0.0
  0
ARC
  5
2B6
330
1F
100
AcDbEntity
  8
0
  6
SLD-Durchgehend
 62
     7
370
    25
100
AcDbCircle
 10
332.9118920813
 20
453.2737500813
 30
0.0
 40
0.2499999999999551
100
AcDbArc
 50
179.9999999992
 51
265.0
  0
ARC
  5
2B7
330
1F
100
AcDbEntity
  8
0
  6
SLD-Durchgehend
 62
     7
370
    25
100
AcDbCircle
 10
332.9118920813
 20
453.7881139691
 30
0.0
 40
0.2500000000000117
100
AcDbArc
 50
95.0
 51
180.0
  0
LINE
  5
2B8
330
1F
100
AcDbEntity
  8
0
  6
SLD-Durchgehend
 62
     7
370
    25
100
AcDbLine
 10
333.733681017
 20
454.1109661442
 30
0.0
 11
332.8901031456
 21
454.0371626437
 31
0.0
  0
ARC
  5
2B9
330
1F
100
AcDbEntity
  8
0
  6
SLD-Durchgehend
 62
     7
370
    25
100
AcDbCircle
 10
333.7118920813
 20
454.3600148187
 30
0.0
 40
0.25
100
AcDbArc
 50
275.0
 51
0.0000000008
  0
LINE
  5
2BA
330
1F
100
AcDbEntity
  8
0
  6
SLD-Durchgehend
 62
     7
370
    25
100
AcDbLine
 10
333.9618920813
 20
455.9018492317
 30
0.0
 11
333.9618920813
 21
454.3600148187
 31
0.0
  0
ARC
  5
2BB
330
1F
100
AcDbEntity
  8
0
  6
SLD-Durchgehend
 62
     7
370
    25
100
AcDbCircle
 10
333.7118920813
 20
455.9018492317
 30
0.0
 40
0.25
100
AcDbArc
 50
0.0
 51
85.0
  0
LINE
  5
2BC
330
1F
100
AcDbEntity
  8
0
  6
SLD-Durchgehend
 62
     7
370
    25
100
AcDbLine
 10
332.8901031456
 20
456.2247014068
 30
0.0
 11
333.733681017
 21
456.1508979062
 31
0.0
  0
ARC
  5
2BD
330
1F
100
AcDbEntity
  8
0
  6
SLD-Durchgehend
 62
     7
370
    25
100
AcDbCircle
 10
332.9118920813
 20
456.4737500813
 30
0.0
 40
0.2500000000000117
100
AcDbArc
 50
179.9999999992
 51
265.0
  0
ARC
  5
2BE
330
1F
100
AcDbEntity
  8
0
  6
SLD-Durchgehend
 62
     7
370
    25
100
AcDbCircle
 10
332.9118920813
 20
456.9881139691
 30
0.0
 40
0.2499999999999551
100
AcDbArc
 50
95.0
 51
180.0
  0
LINE
  5
2BF
330
1F
100
AcDbEntity
  8
0
  6
SLD-Durchgehend
 62
     7
370
    25
100
AcDbLine
 10
333.733681017
 20
457.3109661442
 30
0.0
 11
332.8901031456
 21
457.2371626437
 31
0.0
  0
ARC
  5
2C0
330
1F
100
AcDbEntity
  8
0
  6
SLD-Durchgehend
 62
     7
370
    25
100
AcDbCircle
 10
333.7118920813
 20
457.5600148187
 30
0.0
 40
0.2500000000000167
100
AcDbArc
 50
275.0
 51
0.0000000008
  0
LINE
  5
2C1
330
1F
100
AcDbEntity
  8
0
  6
SLD-Durchgehend
 62
     7
370
    25
100
AcDbLine
 10
333.9618920813
 20
459.1018492317
 30
0.0
 11
333.9618920813
 21
457.5600148187
 31
0.0
  0
ARC
  5
2C2
330
1F
100
AcDbEntity
  8
0
  6
SLD-Durchgehend
 62
     7
370
    25
100
AcDbCircle
 10
333.7118920813
 20
459.1018492317
 30
0.0
 40
0.2500000000000783
100
AcDbArc
 50
0.0
 51
85.0
  0
LINE
  5
2C3
330
1F
100
AcDbEntity
  8
0
  6
SLD-Durchgehend
 62
     7
370
    25
100
AcDbLine
 10
332.8901031456
 20
459.4247014068
 30
0.0
 11
333.733681017
 21
459.3508979062
 31
0.0
  0
ARC
  5
2C4
330
1F
100
AcDbEntity
  8
0
  6
SLD-Durchgehend
 62
     7
370
    25
100
AcDbCircle
 10
332.9118920813
 20
459.6737500813
 30
0.0
 40
0.2500000000000117
100
AcDbArc
 50
179.9999999992
 51
265.0
  0
ARC
  5
2C5
330
1F
100
AcDbEntity
  8
0
  6
SLD-Durchgehend
 62
     7
370
    25
100
AcDbCircle
 10
332.9118920813
 20
460.1881139691
 30
0.0
 40
0.2499999999999551
100
AcDbArc
 50
95.0
 51
180.0
  0
LINE
  5
2C6
330
1F
100
AcDbEntity
  8
0
  6
SLD-Durchgehend
 62
     7
370
    25
100
AcDbLine
 10
333.733681017
 20
460.5109661442
 30
0.0
 11
332.8901031456
 21
460.4371626437
 31
0.0
  0
ARC
  5
2C7
330
1F
100
AcDbEntity
  8
0
  6
SLD-Durchgehend
 62
     7
370
    25
100
AcDbCircle
 10
333.7118920813
 20
460.7600148187
 30
0.0
 40
0.25
100
AcDbArc
 50
275.0
 51
0.0000000008
  0
LINE
  5
2C8
330
1F
100
AcDbEntity
  8
0
  6
SLD-Durchgehend
 62
     7
370
    25
100
AcDbLine
 10
333.9618920813
 20
462.3018492317
 30
0.0
 11
333.9618920813
 21
460.7600148187
 31
0.0
  0
ARC
  5
2C9
330
1F
100
AcDbEntity
  8
0
  6
SLD-Durchgehend
 62
     7
370
    25
100
AcDbCircle
 10
333.7118920813
 20
462.3018492317
 30
0.0
 40
0.2500000000000216
100
AcDbArc
 50
0.0
 51
85.0
  0
LINE
  5
2CA
330
1F
100
AcDbEntity
  8
0
  6
SLD-Durchgehend
 62
     7
370
    25
100
AcDbLine
 10
332.8901031456
 20
462.6247014068
 30
0.0
 11
333.733681017
 21
462.5508979062
 31
0.0
  0
ARC
  5
2CB
330
1F
100
AcDbEntity
  8
0
  6
SLD-Durchgehend
 62
     7
370
    25
100
AcDbCircle
 10
332.9118920813
 20
462.8737500813
 30
0.0
 40
0.2500000000000117
100
AcDbArc
 50
179.9999999992
 51
265.0
  0
ARC
  5
2CC
330
1F
100
AcDbEntity
  8
0
  6
SLD-Durchgehend
 62
     7
370
    25
100
AcDbCircle
 10
332.9118920813
 20
463.3881139691
 30
0.0
 40
0.2500000000000683
100
AcDbArc
 50
95.0
 51
180.0
  0
LINE
  5
2CD
330
1F
100
AcDbEntity
  8
0
  6
SLD-Durchgehend
 62
     7
370
    25
100
AcDbLine
 10
333.733681017
 20
463.7109661442
 30
0.0
 11
332.8901031456
 21
463.6371626437
 31
0.0
  0
ARC
  5
2CE
330
1F
100
AcDbEntity
  8
0
  6
SLD-Durchgehend
 62
     7
370
    25
100
AcDbCircle
 10
333.7118920813
 20
463.9600148187
 30
0.0
 40
0.2500000000000733
100
AcDbArc
 50
275.0
 51
0.0000000008
  0
LINE
  5
2CF
330
1F
100
AcDbEntity
  8
0
  6
SLD-Durchgehend
 62
     7
370
    25
100
AcDbLine
 10
333.9618920813
 20
465.5018492317
 30
0.0
 11
333.9618920813
 21
463.9600148187
 31
0.0
  0
ARC
  5
2D0
330
1F
100
AcDbEntity
  8
0
  6
SLD-Durchgehend
 62
     7
370
    25
100
AcDbCircle
 10
333.7118920813
 20
465.5018492317
 30
0.0
 40
0.25
100
AcDbArc
 50
0.0
 51
85.0
  0
LINE
  5
2D1
330
1F
100
AcDbEntity
  8
0
  6
SLD-Durchgehend
 62
     7
370
    25
100
AcDbLine
 10
332.8901031456
 20
465.8247014068
 30
0.0
 11
333.733681017
 21
465.7508979062
 31
0.0
  0
ARC
  5
2D2
330
1F
100
AcDbEntity
  8
0
  6
SLD-Durchgehend
 62
     7
370
    25
100
AcDbCircle
 10
332.9118920813
 20
466.0737500813
 30
0.0
 40
0.2500000000000117
100
AcDbArc
 50
179.9999999992
 51
265.0
  0
LINE
  5
2D3
330
1F
100
AcDbEntity
  8
0
  6
SLD-Durchgehend
 62
     7
370
    25
100
AcDbLine
 10
332.6618920813
 20
466.0737500813
 30
0.0
 11
332.6618920813
 21
467.6809320252
 31
0.0
  0
LINE
  5
2D4
330
1F
100
AcDbEntity
  8
0
  6
SLD-Durchgehend
 62
     7
370
    25
100
AcDbLine
 10
329.9118920813
 20
470.4309320252
 30
0.0
 11
329.9118920813
 21
469.4309320252
 31
0.0
  0
LINE
  5
2D5
330
1F
100
AcDbEntity
  8
0
  6
SLD-Durchgehend
 62
     7
370
    25
100
AcDbLine
 10
329.9118920813
 20
470.4309320252
 30
0.0
 11
333.0618920813
 21
470.4309320252
 31
0.0
  0
LINE
  5
2D6
330
1F
100
AcDbEntity
  8
0
  6
SLD-Durchgehend
 62
     7
370
    25
100
AcDbLine
 10
333.0618920813
 20
470.4309320252
 30
0.0
 11
334.5618920813
 21
468.9309320252
 31
0.0
  0
ARC
  5
2D7
330
1F
100
AcDbEntity
  8
0
  6
SLD-Durchgehend
 62
     7
370
    25
100
AcDbCircle
 10
332.9118920813
 20
437.7881139691
 30
0.0
 40
0.2500000000000167
100
AcDbArc
 50
95.0
 51
179.9999999992
  0
LINE
  5
2D8
330
1F
100
AcDbEntity
  8
0
  6
SLD-Durchgehend
 62
     7
370
    25
100
AcDbLine
 10
333.733681017
 20
438.1109661442
 30
0.0
 11
332.8901031456
 21
438.0371626437
 31
0.0
  0
ARC
  5
2D9
330
1F
100
AcDbEntity
  8
0
  6
SLD-Durchgehend
 62
     7
370
    25
100
AcDbCircle
 10
333.7118920813
 20
438.3600148187
 30
0.0
 40
0.2500000000000167
100
AcDbArc
 50
275.0
 51
0.0000000008
  0
LINE
  5
2DA
330
1F
100
AcDbEntity
  8
0
  6
SLD-Durchgehend
 62
     7
370
    25
100
AcDbLine
 10
323.1618920813
 20
474.9309320252
 30
0.0
 11
323.6618920813
 21
474.9309320252
 31
0.0
  0
ARC
  5
2DB
330
1F
100
AcDbEntity
  8
0
  6
SLD-Durchgehend
 62
     7
370
    25
100
AcDbCircle
 10
323.1618920813
 20
473.9309320252
 30
0.0
 40
1.0
100
AcDbArc
 50
90.0
 51
180.0
  0
LINE
  5
2DC
330
1F
100
AcDbEntity
  8
0
  6
SLD-Durchgehend
 62
     7
370
    25
100
AcDbLine
 10
321.1618920813
 20
468.4309320252
 30
0.0
 11
321.1618920813
 21
470.1167184629
 31
0.0
  0
ARC
  5
2DD
330
1F
100
AcDbEntity
  8
0
  6
SLD-Durchgehend
 62
     7
370
    25
100
AcDbCircle
 10
321.6618920813
 20
468.4309320252
 30
0.0
 40
0.5
100
AcDbArc
 50
180.0
 51
270.0
  0
ARC
  5
2DE
330
1F
100
AcDbEntity
  8
0
  6
SLD-Durchgehend
 62
     7
370
    25
100
AcDbCircle
 10
326.1618920813
 20
470.9309320252
 30
0.0
 40
1.5
100
AcDbArc
 50
180.0
 51
270.0
  0
ARC
  5
2DF
330
1F
100
AcDbEntity
  8
0
  6
SLD-Durchgehend
 62
     7
370
    25
100
AcDbCircle
 10
320.6618845707
 20
471.530937336
 30
0.0
 40
1.500007510629985
100
AcDbArc
 50
289.4714234919
 51
0.0
  0
LINE
  5
2E0
330
1F
100
AcDbEntity
  8
0
  6
SLD-Durchgehend
 62
     7
370
    25
100
AcDbLine
 10
324.6618920813
 20
473.9309320252
 30
0.0
 11
324.6618920813
 21
470.9309320252
 31
0.0
  0
ARC
  5
2E1
330
1F
100
AcDbEntity
  8
0
  6
SLD-Durchgehend
 62
     7
370
    25
100
AcDbCircle
 10
323.6618920813
 20
473.9309320252
 30
0.0
 40
1.0
100
AcDbArc
 50
0.0
 51
90.0
  0
LINE
  5
2E2
330
1F
100
AcDbEntity
  8
0
  6
SLD-Durchgehend
 62
     7
370
    25
100
AcDbLine
 10
326.1618920813
 20
469.4309320252
 30
0.0
 11
329.9118920813
 21
469.4309320252
 31
0.0
  0
LINE
  5
2E3
330
1F
100
AcDbEntity
  8
0
  6
SLD-Durchgehend
 62
     7
370
    25
100
AcDbLine
 10
322.1618920813
 20
473.9309320252
 30
0.0
 11
322.1618920813
 21
471.530937336
 31
0.0
  0
LINE
  5
2E4
330
1F
100
AcDbEntity
  8
0
  6
SLD-Durchgehend
 62
     7
370
    25
100
AcDbLine
 10
332.4118920813
 20
467.9309320252
 30
0.0
 11
321.6618920813
 21
467.9309320252
 31
0.0
  0
LINE
  5
2E5
330
1F
100
AcDbEntity
  8
0
  6
SLD-Durchgehend
 62
     7
370
    25
100
AcDbLine
 10
334.5618920813
 20
436.9309320252
 30
0.0
 11
332.9118920813
 21
436.9309320252
 31
0.0
  0
LINE
  5
2E6
330
1F
100
AcDbEntity
  8
0
  6
SLD-Durchgehend
 62
     7
370
    25
100
AcDbLine
 10
340.0061628583
 20
468.9309320252
 30
0.0
 11
336.8014728505
 21
468.9309320252
 31
0.0
  0
LINE
  5
2E7
330
1F
100
AcDbEntity
  8
0
  6
SLD-Durchgehend
 62
     7
370
    25
100
AcDbLine
 10
340.0061628583
 20
436.9309320252
 30
0.0
 11
336.8014728505
 21
436.9309320252
 31
0.0
  0
LINE
  5
2E8
330
1F
100
AcDbEntity
  8
0
  6
SLD-Durchgehend
 62
     7
370
    25
100
AcDbLine
 10
453.5223113121
 20
468.9309320252
 30
0.0
 11
450.3176213043
 21
468.9309320252
 31
0.0
  0
LINE
  5
2E9
330
1F
100
AcDbEntity
  8
0
  6
SLD-Durchgehend
 62
     7
370
    25
100
AcDbLine
 10
453.5223113121
 20
436.9309320252
 30
0.0
 11
450.3176213043
 21
436.9309320252
 31
0.0
  0
LINE
  5
2EA
330
1F
100
AcDbEntity
  8
0
  6
SLD-Durchgehend
 62
     7
370
    25
100
AcDbLine
 10
355.6464769389
 20
468.9309320252
 30
0.0
 11
340.0061628583
 21
468.9309320252
 31
0.0
  0
LINE
  5
2EB
330
1F
100
AcDbEntity
  8
0
  6
SLD-Durchgehend
 62
     7
370
    25
100
AcDbLine
 10
340.0061628583
 20
436.9309320252
 30
0.0
 11
355.6464769389
 21
436.9309320252
 31
0.0
  0
LINE
  5
2EC
330
1F
100
AcDbEntity
  8
0
  6
SLD-Durchgehend
 62
     7
370
    25
100
AcDbLine
 10
450.3176213043
 20
468.9309320252
 30
0.0
 11
434.6773072237
 21
468.9309320252
 31
0.0
  0
LINE
  5
2ED
330
1F
100
AcDbEntity
  8
0
  6
SLD-Durchgehend
 62
     7
370
    25
100
AcDbLine
 10
434.6773072237
 20
436.9309320252
 30
0.0
 11
450.3176213043
 21
436.9309320252
 31
0.0
  0
LINE
  5
2EE
330
1F
100
AcDbEntity
  8
0
  6
SLD-Durchgehend
 62
     7
370
    25
100
AcDbLine
 10
363.6296035946
 20
468.9309320252
 30
0.0
 11
355.6464769389
 21
468.9309320252
 31
0.0
  0
LINE
  5
2EF
330
1F
100
AcDbEntity
  8
0
  6
SLD-Durchgehend
 62
     7
370
    25
100
AcDbLine
 10
363.6296035946
 20
436.9309320252
 30
0.0
 11
355.6464769389
 21
436.9309320252
 31
0.0
  0
LINE
  5
2F0
330
1F
100
AcDbEntity
  8
0
  6
SLD-Durchgehend
 62
     7
370
    25
100
AcDbLine
 10
434.6773072237
 20
468.9309320252
 30
0.0
 11
426.694180568
 21
468.9309320252
 31
0.0
  0
LINE
  5
2F1
330
1F
100
AcDbEntity
  8
0
  6
SLD-Durchgehend
 62
     7
370
    25
100
AcDbLine
 10
434.6773072237
 20
436.9309320252
 30
0.0
 11
426.694180568
 21
436.9309320252
 31
0.0
  0
LINE
  5
2F2
330
1F
100
AcDbEntity
  8
0
  6
SLD-Durchgehend
 62
     7
370
    25
100
AcDbLine
 10
426.694180568
 20
468.9309320252
 30
0.0
 11
363.6296035946
 21
468.9309320252
 31
0.0
  0
LINE
  5
2F3
330
1F
100
AcDbEntity
  8
0
  6
SLD-Durchgehend
 62
     7
370
    25
100
AcDbLine
 10
363.6296035946
 20
436.9309320252
 30
0.0
 11
426.694180568
 21
436.9309320252
 31
0.0
  0
LINE
  5
2F4
330
1F
100
AcDbEntity
  8
0
  6
SLD-Durchgehend
 62
     7
370
    25
100
AcDbLine
 10
321.1618920813
 20
470.1167184629
 30
0.0
 11
321.1618920813
 21
473.6809320252
 31
0.0
  0
LINE
  5
2F5
330
1F
100
AcDbEntity
  8
0
  6
SLD-Durchgehend
 62
     7
370
    25
100
AcDbLine
 10
329.9118920813
 20
470.4309320252
 30
0.0
 11
326.1618920813
 21
470.4309320252
 31
0.0
  0
LINE
  5
2F6
330
1F
100
AcDbEntity
  8
0
  6
SLD-Durchgehend
 62
     7
370
    25
100
AcDbLine
 10
322.1618920813
 20
471.5309320252
 30
0.0
 11
322.1618920813
 21
473.9309320252
 31
0.0
  0
ARC
  5
2F7
330
1F
100
AcDbEntity
  8
0
  6
SLD-Durchgehend
 62
     7
370
    25
100
AcDbCircle
 10
326.1618920813
 20
470.9309320252
 30
0.0
 40
0.5
100
AcDbArc
 50
180.0
 51
270.0
  0
ARC
  5
2F8
330
1F
100
AcDbEntity
  8
0
  6
SLD-Durchgehend
 62
     7
370
    25
100
AcDbCircle
 10
323.4118920813
 20
473.6809320252
 30
0.0
 40
2.25
100
AcDbArc
 50
0.0
 51
90.0
  0
ARC
  5
2F9
330
1F
100
AcDbEntity
  8
0
  6
SLD-Durchgehend
 62
     7
370
    25
100
AcDbCircle
 10
323.4118920813
 20
473.6809320252
 30
0.0
 40
2.25
100
AcDbArc
 50
90.0
 51
180.0
  0
LINE
  5
2FA
330
1F
100
AcDbEntity
  8
0
  6
SLD-Durchgehend
 62
     7
370
    25
100
AcDbLine
 10
325.6618920813
 20
470.9309320252
 30
0.0
 11
325.6618920813
 21
473.6809320252
 31
0.0
  0
LINE
  5
2FB
330
1F
100
AcDbEntity
  8
0
  6
SLD-Durchgehend
 62
     7
370
    25
100
AcDbLine
 10
468.1618920813
 20
473.9309320252
 30
0.0
 11
468.1618920813
 21
471.5309320252
 31
0.0
  0
LINE
  5
2FC
330
1F
100
AcDbEntity
  8
0
  6
SLD-Durchgehend
 62
     7
370
    25
100
AcDbLine
 10
469.1618920813
 20
473.6809320252
 30
0.0
 11
469.1618920813
 21
470.1167184629
 31
0.0
  0
LINE
  5
2FD
330
1F
100
AcDbEntity
  8
0
  6
SLD-Durchgehend
 62
     7
370
    25
100
AcDbLine
 10
464.1618920813
 20
470.4309320252
 30
0.0
 11
460.4118920813
 21
470.4309320252
 31
0.0
  0
ARC
  5
2FE
330
1F
100
AcDbEntity
  8
0
  6
SLD-Durchgehend
 62
     7
370
    25
100
AcDbCircle
 10
464.1618920813
 20
470.9309320252
 30
0.0
 40
0.5
100
AcDbArc
 50
270.0
 51
0.0
  0
ARC
  5
2FF
330
1F
100
AcDbEntity
  8
0
  6
SLD-Durchgehend
 62
     7
370
    25
100
AcDbCircle
 10
466.9118920813
 20
473.6809320252
 30
0.0
 40
2.25
100
AcDbArc
 50
90.0
 51
180.0
  0
LINE
  5
300
330
1F
100
AcDbEntity
  8
0
  6
SLD-Durchgehend
 62
     7
370
    25
100
AcDbLine
 10
464.6618920813
 20
473.6809320252
 30
0.0
 11
464.6618920813
 21
470.9309320252
 31
0.0
  0
ARC
  5
301
330
1F
100
AcDbEntity
  8
0
  6
SLD-Durchgehend
 62
     7
370
    25
100
AcDbCircle
 10
466.9118920813
 20
473.6809320252
 30
0.0
 40
2.250000000000057
100
AcDbArc
 50
0.0
 51
90.0
  0
LINE
  5
302
330
1F
100
AcDbEntity
  8
0
  6
SLD-Durchgehend
 62
     7
370
    25
100
AcDbLine
 10
469.6618920813
 20
471.0309320252
 30
0.0
 11
470.1618920813
 21
471.0309320252
 31
0.0
  0
LINE
  5
303
330
1F
100
AcDbEntity
  8
0
  6
SLD-Durchgehend
 62
     7
370
    25
100
AcDbLine
 10
470.1618920813
 20
471.0309320252
 30
0.0
 11
470.1618920813
 21
470.0309320252
 31
0.0
  0
LINE
  5
304
330
1F
100
AcDbEntity
  8
0
  6
SLD-Durchgehend
 62
     7
370
    25
100
AcDbLine
 10
470.1618920813
 20
470.0309320252
 30
0.0
 11
469.6618920813
 21
470.0309320252
 31
0.0
  0
SPLINE
  5
305
330
1F
100
AcDbEntity
  8
0
  6
SLD-Durchgehend
 62
     7
370
    25
100
AcDbSpline
210
0.0
220
0.0
230
1.0
 70
     8
 71
     3
 72
    12
 73
     8
 74
     0
 42
0.000000001
 43
0.00000001
 40
0.0
 40
0.0
 40
0.0
 40
0.0
 40
0.2083196199554257
 40
0.4166960043772178
 40
0.6227876077610963
 40
0.8205018315593274
 40
1.0
 40
1.0
 40
1.0
 40
1.0
 10
469.1618920812893
 20
471.5309320252276
 30
0.0
 10
469.1673902539529
 20
471.474847457501
 30
0.0
 10
469.1783880974629
 20
471.3626630397111
 30
0.0
 10
469.263985992538
 20
471.2135896399249
 30
0.0
 10
469.3870022301894
 20
471.103131732094
 30
0.0
 10
469.5289894645533
 20
471.0404357956924
 30
0.0
 10
469.6190407722428
 20
471.0339962914948
 30
0.0
 10
469.6618920812893
 20
471.0309320252276
 30
0.0
  0
SPLINE
  5
306
330
1F
100
AcDbEntity
  8
0
  6
SLD-Durchgehend
 62
     7
370
    25
100
AcDbSpline
210
0.0
220
0.0
230
1.0
 70
     8
 71
     3
 72
     9
 73
     5
 74
     0
 42
0.000000001
 43
0.00000001
 40
0.0
 40
0.0
 40
0.0
 40
0.0
 40
0.5469769272425498
 40
1.0
 40
1.0
 40
1.0
 40
1.0
 10
469.1618920812893
 20
470.1167184628545
 30
0.0
 10
469.2561248958363
 20
470.0890346843827
 30
0.0
 10
469.4284042185165
 20
470.0384223512238
 30
0.0
 10
469.5890953094911
 20
470.0332673566909
 30
0.0
 10
469.6618920812893
 20
470.0309320252276
 30
0.0
  0
LINE
  5
307
330
1F
100
AcDbEntity
  8
0
  6
SLD-Durchgehend
 62
     7
370
    25
100
AcDbLine
 10
320.1618920813
 20
470.0309320252
 30
0.0
 11
320.1618920813
 21
471.0309320252
 31
0.0
  0
LINE
  5
308
330
1F
100
AcDbEntity
  8
0
  6
SLD-Durchgehend
 62
     7
370
    25
100
AcDbLine
 10
320.1618920813
 20
471.0309320252
 30
0.0
 11
320.6618920813
 21
471.0309320252
 31
0.0
  0
LINE
  5
309
330
1F
100
AcDbEntity
  8
0
  6
SLD-Durchgehend
 62
     7
370
    25
100
AcDbLine
 10
320.6618920813
 20
470.0309320252
 30
0.0
 11
320.1618920813
 21
470.0309320252
 31
0.0
  0
SPLINE
  5
30A
330
1F
100
AcDbEntity
  8
0
  6
SLD-Durchgehend
 62
     7
370
    25
100
AcDbSpline
210
0.0
220
0.0
230
1.0
 70
     8
 71
     3
 72
    12
 73
     8
 74
     0
 42
0.000000001
 43
0.00000001
 40
0.0
 40
0.0
 40
0.0
 40
0.0
 40
0.2068558852825433
 40
0.4143789033041572
 40
0.6096791247023862
 40
0.8082841854432028
 40
1.0
 40
1.0
 40
1.0
 40
1.0
 10
320.6618920812893
 20
471.0309320252276
 30
0.0
 10
320.7115498156439
 20
471.0350054439954
 30
0.0
 10
320.81102543595
 20
471.0431654187499
 30
0.0
 10
320.9575901582129
 20
471.1171615562443
 30
0.0
 10
321.0725361459363
 20
471.2317751527463
 30
0.0
 10
321.1477708186898
 20
471.3743483691234
 30
0.0
 10
321.1572407089462
 20
471.4793552712194
 30
0.0
 10
321.1618920812893
 20
471.5309320252276
 30
0.0
  0
SPLINE
  5
30B
330
1F
100
AcDbEntity
  8
0
  6
SLD-Durchgehend
 62
     7
370
    25
100
AcDbSpline
210
0.0
220
0.0
230
1.0
 70
     8
 71
     3
 72
     9
 73
     5
 74
     0
 42
0.000000001
 43
0.00000001
 40
0.0
 40
0.0
 40
0.0
 40
0.0
 40
0.5469840451096117
 40
1.0
 40
1.0
 40
1.0
 40
1.0
 10
320.6618920812892
 20
470.0309320252276
 30
0.0
 10
320.7506479020645
 20
470.0344873272448
 30
0.0
 10
320.912911905135
 20
470.0409871548888
 30
0.0
 10
321.0842659603443
 20
470.0931072349959
 30
0.0
 10
321.1618920812892
 20
470.1167184628545
 30
0.0
  0
LINE
  5
30C
330
1F
100
AcDbEntity
  8
0
  6
SLD-Durchgehend
 62
     7
370
    25
100
AcDbLine
 10
328.6618920813
 20
475.9309320252
 30
0.0
 11
323.4118920813
 21
475.9309320252
 31
0.0
  0
LINE
  5
30D
330
1F
100
AcDbEntity
  8
0
  6
SLD-Durchgehend
 62
     7
370
    25
100
AcDbLine
 10
466.9118920813
 20
475.9309320252
 30
0.0
 11
461.6618920813
 21
475.9309320252
 31
0.0
  0
LINE
  5
30E
330
1F
100
AcDbEntity
  8
0
  6
SLD-Durchgehend
 62
     7
370
    25
100
AcDbLine
 10
461.6618920813
 20
475.9309320252
 30
0.0
 11
328.6618920813
 21
475.9309320252
 31
0.0
  0
HATCH
  5
30F
330
1F
100
AcDbEntity
  8
0
  6
SLD-Durchgehend
 62
     7
370
    18
100
AcDbHatch
 10
0.0
 20
0.0
 30
0.0
210
0.0
220
0.0
230
1.0
  2
ANSI31
 70
     0
 71
     0
 91
        1
 92
        0
 93
       15
 72
     2
 10
467.1618920812892
 20
473.9309320252276
 40
1.0
 50
270.0000000000008
 51
360.0000000000008
 73
     0
 72
     1
 10
468.1618920812892
 20
473.9309320252276
 11
468.1618920812892
 21
471.5309320252276
 72
     2
 10
469.6618920812893
 20
471.5309320252276
 40
1.5
 50
180.0
 51
250.5287793655103
 73
     1
 72
     1
 10
469.1618920812893
 20
470.1167184628545
 11
469.1618920812893
 21
473.6809320252276
 72
     2
 10
466.9118920812892
 20
473.6809320252276
 40
2.25
 50
0.0
 51
90.0
 73
     1
 72
     2
 10
466.9118920812893
 20
473.6809320252276
 40
2.25
 50
90.00000000000146
 51
180.0
 73
     1
 72
     1
 10
464.6618920812893
 20
473.6809320252276
 11
464.6618920812893
 21
470.9309320252276
 72
     2
 10
464.1618920812893
 20
470.9309320252276
 40
0.5
 50
0.0
 51
90.0
 73
     0
 72
     1
 10
464.1618920812893
 20
470.4309320252276
 11
460.4118920812893
 21
470.4309320252276
 72
     1
 10
460.4118920812893
 20
470.4309320252276
 11
460.4118920812893
 21
469.4309320252276
 72
     1
 10
460.4118920812893
 20
469.4309320252276
 11
464.1618920812892
 21
469.4309320252276
 72
     2
 10
464.1618920812892
 20
470.9309320252276
 40
1.5
 50
270.0000000000008
 51
360.0000000000008
 73
     1
 72
     1
 10
465.6618920812893
 20
470.9309320252276
 11
465.6618920812893
 21
473.9309320252276
 72
     2
 10
466.6618920812893
 20
473.9309320252276
 40
1.0
 50
180.0
 51
270.0000000000008
 73
     0
 72
     1
 10
466.6618920812893
 20
474.9309320252276
 11
467.1618920812892
 21
474.9309320252276
 97
        0
 75
     0
 76
     1
 52
0.0
 41
2.0
 77
     0
 78
     1
 53
45.0
 43
0.0
 44
0.0
 45
-4.490128060534577
 46
4.490128060534577
 79
     0
 98
        1
 10
0.0
 20
0.0
  0
HATCH
  5
310
330
1F
100
AcDbEntity
  8
0
  6
SLD-Durchgehend
 62
     7
370
    18
100
AcDbHatch
 10
0.0
 20
0.0
 30
0.0
210
0.0
220
0.0
230
1.0
  2
ANSI31
 70
     0
 71
     0
 91
        1
 92
        0
 93
       15
 72
     2
 10
320.6618920812892
 20
471.5309320252276
 40
1.5
 50
289.4712206344913
 51
360.0000000000008
 73
     1
 72
     1
 10
322.1618920812893
 20
471.5309320252276
 11
322.1618920812893
 21
473.9309320252276
 72
     2
 10
323.1618920812893
 20
473.9309320252276
 40
1.0
 50
180.0
 51
270.0000000000008
 73
     0
 72
     1
 10
323.1618920812893
 20
474.9309320252276
 11
323.6618920812892
 21
474.9309320252276
 72
     2
 10
323.6618920812892
 20
473.9309320252276
 40
1.0
 50
270.0000000000008
 51
360.0000000000008
 73
     0
 72
     1
 10
324.6618920812892
 20
473.9309320252276
 11
324.6618920812892
 21
470.9309320252276
 72
     2
 10
326.1618920812893
 20
470.9309320252276
 40
1.5
 50
180.0
 51
270.0000000000008
 73
     1
 72
     1
 10
326.1618920812893
 20
469.4309320252276
 11
329.9118920812892
 21
469.4309320252276
 72
     1
 10
329.9118920812892
 20
469.4309320252276
 11
329.9118920812892
 21
470.4309320252276
 72
     1
 10
329.9118920812892
 20
470.4309320252276
 11
326.1618920812892
 21
470.4309320252276
 72
     2
 10
326.1618920812892
 20
470.9309320252276
 40
0.5
 50
90.0
 51
180.0
 73
     0
 72
     1
 10
325.6618920812892
 20
470.9309320252276
 11
325.6618920812892
 21
473.6809320252276
 72
     2
 10
323.4118920812892
 20
473.6809320252276
 40
2.25
 50
0.0
 51
89.99999999999855
 73
     1
 72
     2
 10
323.4118920812893
 20
473.6809320252276
 40
2.25
 50
90.0
 51
180.0
 73
     1
 72
     1
 10
321.1618920812893
 20
473.6809320252276
 11
321.1618920812892
 21
470.1167184628545
 97
        0
 75
     0
 76
     1
 52
0.0
 41
2.0
 77
     0
 78
     1
 53
45.0
 43
0.0
 44
0.0
 45
-4.490128060534577
 46
4.490128060534577
 79
     0
 98
        1
 10
0.0
 20
0.0
  0
HATCH
  5
311
330
1F
100
AcDbEntity
  8
0
  6
SLD-Durchgehend
 62
     7
370
    18
100
AcDbHatch
 10
0.0
 20
0.0
 30
0.0
210
0.0
220
0.0
230
1.0
  2
ANSI31
 70
     0
 71
     0
 91
        1
 92
        0
 93
       91
 72
     2
 10
333.7118920812893
 20
438.360014818732
 40
0.25
 50
0.0
 51
85.00000000000054
 73
     0
 72
     1
 10
333.7336810169762
 20
438.110966144209
 11
332.8901031456023
 21
438.0371626436625
 72
     2
 10
332.9118920812892
 20
437.7881139691395
 40
0.25
 50
94.99999999999946
 51
179.999999999987
 73
     1
 72
     1
 10
332.6618920812892
 20
437.7881139691396
 11
332.6618920812892
 21
437.1809320252276
 72
     2
 10
332.9118920812892
 20
437.1809320252276
 40
0.25
 50
180.0
 51
270.0000000000008
 73
     1
 72
     1
 10
332.9118920812892
 20
436.9309320252277
 11
334.5618920812893
 21
436.9309320252277
 72
     1
 10
334.5618920812893
 20
436.9309320252277
 11
334.5618920812892
 21
468.9309320252277
 72
     1
 10
334.5618920812892
 20
468.9309320252277
 11
333.0618920812893
 21
470.4309320252276
 72
     1
 10
333.0618920812893
 20
470.4309320252276
 11
329.9118920812892
 21
470.4309320252276
 72
     1
 10
329.9118920812892
 20
470.4309320252276
 11
329.9118920812892
 21
469.4309320252276
 72
     1
 10
329.9118920812892
 20
469.4309320252276
 11
326.1618920812892
 21
469.4309320252276
 72
     2
 10
326.1618920812892
 20
470.9309320252276
 40
1.5
 50
90.0
 51
180.0
 73
     0
 72
     1
 10
324.6618920812892
 20
470.9309320252276
 11
324.6618920812892
 21
473.9309320252276
 72
     2
 10
323.6618920812892
 20
473.9309320252276
 40
1.0
 50
0.0
 51
90.0
 73
     1
 72
     1
 10
323.6618920812892
 20
474.9309320252276
 11
323.1618920812892
 21
474.9309320252276
 72
     2
 10
323.1618920812892
 20
473.9309320252276
 40
1.0
 50
90.00000000000325
 51
180.0
 73
     1
 72
     1
 10
322.1618920812892
 20
473.9309320252276
 11
322.1618920812892
 21
471.530937336035
 72
     2
 10
320.6618845706593
 20
471.530937336035
 40
1.500007510629979
 50
0.0
 51
70.52857650811853
 73
     0
 72
     1
 10
321.1618920812892
 20
470.1167184628545
 11
321.1618920812892
 21
468.4309320252276
 72
     2
 10
321.6618920812892
 20
468.4309320252276
 40
0.5
 50
180.0
 51
270.0000000000008
 73
     1
 72
     1
 10
321.6618920812892
 20
467.9309320252276
 11
332.4118920812892
 21
467.9309320252276
 72
     2
 10
332.4118920812892
 20
467.6809320252277
 40
0.25
 50
270.0000000000008
 51
360.0000000000008
 73
     0
 72
     1
 10
332.6618920812892
 20
467.6809320252277
 11
332.6618920812892
 21
466.0737500813157
 72
     2
 10
332.9118920812891
 20
466.0737500813157
 40
0.25
 50
180.0
 51
265.0000000000144
 73
     1
 72
     1
 10
332.8901031456023
 20
465.8247014067927
 11
333.7336810169762
 21
465.7508979062462
 72
     2
 10
333.7118920812893
 20
465.5018492317233
 40
0.25
 50
275.0000000000014
 51
360.0000000000008
 73
     0
 72
     1
 10
333.9618920812893
 20
465.5018492317233
 11
333.9618920812893
 21
463.960014818732
 72
     2
 10
333.7118920812893
 20
463.960014818732
 40
0.25
 50
0.0
 51
85.00000000000169
 73
     0
 72
     1
 10
333.7336810169762
 20
463.710966144209
 11
332.8901031456023
 21
463.6371626436625
 72
     2
 10
332.9118920812891
 20
463.3881139691395
 40
0.25
 50
94.99999999998535
 51
180.0
 73
     1
 72
     1
 10
332.6618920812892
 20
463.3881139691395
 11
332.6618920812892
 21
462.8737500813157
 72
     2
 10
332.9118920812891
 20
462.8737500813157
 40
0.25
 50
180.0
 51
265.0000000000144
 73
     1
 72
     1
 10
332.8901031456023
 20
462.6247014067927
 11
333.7336810169763
 21
462.5508979062462
 72
     2
 10
333.7118920812893
 20
462.3018492317232
 40
0.25
 50
275.0000000000132
 51
360.0000000000008
 73
     0
 72
     1
 10
333.9618920812893
 20
462.3018492317232
 11
333.9618920812893
 21
460.760014818732
 72
     2
 10
333.7118920812893
 20
460.760014818732
 40
0.25
 50
0.0
 51
84.9999999999994
 73
     0
 72
     1
 10
333.7336810169762
 20
460.5109661442091
 11
332.8901031456023
 21
460.4371626436625
 72
     2
 10
332.9118920812891
 20
460.1881139691396
 40
0.25
 50
94.99999999998761
 51
180.0
 73
     1
 72
     1
 10
332.6618920812892
 20
460.1881139691396
 11
332.6618920812892
 21
459.6737500813157
 72
     2
 10
332.9118920812891
 20
459.6737500813157
 40
0.25
 50
180.0
 51
265.0000000000144
 73
     1
 72
     1
 10
332.8901031456023
 20
459.4247014067927
 11
333.7336810169763
 21
459.3508979062462
 72
     2
 10
333.7118920812893
 20
459.1018492317232
 40
0.25
 50
275.0000000000121
 51
360.0000000000008
 73
     0
 72
     1
 10
333.9618920812893
 20
459.1018492317232
 11
333.9618920812893
 21
457.560014818732
 72
     2
 10
333.7118920812893
 20
457.560014818732
 40
0.25
 50
0.0
 51
85.00000000000054
 73
     0
 72
     1
 10
333.7336810169762
 20
457.310966144209
 11
332.8901031456023
 21
457.2371626436625
 72
     2
 10
332.9118920812891
 20
456.9881139691396
 40
0.25
 50
94.99999999998761
 51
180.0
 73
     1
 72
     1
 10
332.6618920812892
 20
456.9881139691396
 11
332.6618920812892
 21
456.4737500813157
 72
     2
 10
332.9118920812891
 20
456.4737500813157
 40
0.25
 50
180.0
 51
265.0000000000144
 73
     1
 72
     1
 10
332.8901031456023
 20
456.2247014067927
 11
333.7336810169763
 21
456.1508979062462
 72
     2
 10
333.7118920812893
 20
455.9018492317233
 40
0.25
 50
275.0000000000144
 51
360.0000000000008
 73
     0
 72
     1
 10
333.9618920812893
 20
455.9018492317233
 11
333.9618920812893
 21
454.3600148187319
 72
     2
 10
333.7118920812893
 20
454.3600148187319
 40
0.25
 50
0.0
 51
84.99999999998643
 73
     0
 72
     1
 10
333.7336810169763
 20
454.110966144209
 11
332.8901031456023
 21
454.0371626436625
 72
     2
 10
332.9118920812891
 20
453.7881139691395
 40
0.25
 50
94.9999999999865
 51
180.0
 73
     1
 72
     1
 10
332.6618920812892
 20
453.7881139691395
 11
332.6618920812892
 21
453.2737500813157
 72
     2
 10
332.9118920812891
 20
453.2737500813157
 40
0.25
 50
179.999999999987
 51
265.0000000000132
 73
     1
 72
     1
 10
332.8901031456023
 20
453.0247014067928
 11
333.7336810169763
 21
452.9508979062462
 72
     2
 10
333.7118920812893
 20
452.7018492317233
 40
0.25
 50
275.0000000000132
 51
360.0000000000008
 73
     0
 72
     1
 10
333.9618920812893
 20
452.7018492317233
 11
333.9618920812893
 21
451.160014818732
 72
     2
 10
333.7118920812893
 20
451.160014818732
 40
0.25
 50
0.0
 51
84.99999999998643
 73
     0
 72
     1
 10
333.7336810169763
 20
450.9109661442091
 11
332.8901031456023
 21
450.8371626436625
 72
     2
 10
332.9118920812891
 20
450.5881139691396
 40
0.25
 50
94.99999999998761
 51
180.0
 73
     1
 72
     1
 10
332.6618920812892
 20
450.5881139691396
 11
332.6618920812892
 21
450.0737500813157
 72
     2
 10
332.9118920812891
 20
450.0737500813157
 40
0.25
 50
180.0
 51
265.0000000000132
 73
     1
 72
     1
 10
332.8901031456023
 20
449.8247014067928
 11
333.7336810169763
 21
449.7508979062462
 72
     2
 10
333.7118920812893
 20
449.5018492317233
 40
0.25
 50
275.0000000000132
 51
360.0000000000008
 73
     0
 72
     1
 10
333.9618920812893
 20
449.5018492317233
 11
333.9618920812893
 21
447.960014818732
 72
     2
 10
333.7118920812893
 20
447.960014818732
 40
0.25
 50
0.0
 51
84.99999999998757
 73
     0
 72
     1
 10
333.7336810169763
 20
447.710966144209
 11
332.8901031456023
 21
447.6371626436625
 72
     2
 10
332.9118920812891
 20
447.3881139691396
 40
0.25
 50
94.99999999998761
 51
180.0
 73
     1
 72
     1
 10
332.6618920812892
 20
447.3881139691396
 11
332.6618920812892
 21
446.8737500813156
 72
     2
 10
332.9118920812891
 20
446.8737500813157
 40
0.25
 50
180.0000000000138
 51
265.0000000000144
 73
     1
 72
     1
 10
332.8901031456023
 20
446.6247014067927
 11
333.7336810169763
 21
446.5508979062462
 72
     2
 10
333.7118920812893
 20
446.3018492317233
 40
0.25
 50
275.0000000000144
 51
360.0000000000008
 73
     0
 72
     1
 10
333.9618920812893
 20
446.3018492317233
 11
333.9618920812893
 21
444.760014818732
 72
     2
 10
333.7118920812893
 20
444.760014818732
 40
0.25
 50
0.0
 51
84.99999999998757
 73
     0
 72
     1
 10
333.7336810169763
 20
444.510966144209
 11
332.8901031456023
 21
444.4371626436625
 72
     2
 10
332.9118920812892
 20
444.1881139691395
 40
0.25
 50
94.99999999999832
 51
180.0
 73
     1
 72
     1
 10
332.6618920812892
 20
444.1881139691395
 11
332.6618920812892
 21
443.6737500813156
 72
     2
 10
332.9118920812892
 20
443.6737500813156
 40
0.25
 50
180.0
 51
265.0000000000002
 73
     1
 72
     1
 10
332.8901031456023
 20
443.4247014067927
 11
333.7336810169763
 21
443.3508979062462
 72
     2
 10
333.7118920812893
 20
443.1018492317232
 40
0.25
 50
275.0000000000132
 51
360.0000000000008
 73
     0
 72
     1
 10
333.9618920812893
 20
443.1018492317232
 11
333.9618920812893
 21
441.560014818732
 72
     2
 10
333.7118920812893
 20
441.560014818732
 40
0.25
 50
0.0
 51
84.99999999998757
 73
     0
 72
     1
 10
333.7336810169763
 20
441.310966144209
 11
332.8901031456023
 21
441.2371626436625
 72
     2
 10
332.9118920812892
 20
440.9881139691395
 40
0.25
 50
94.99999999999946
 51
180.0
 73
     1
 72
     1
 10
332.6618920812892
 20
440.9881139691395
 11
332.6618920812892
 21
440.4737500813157
 72
     2
 10
332.9118920812892
 20
440.4737500813157
 40
0.25
 50
180.0
 51
265.0000000000014
 73
     1
 72
     1
 10
332.8901031456023
 20
440.2247014067927
 11
333.7336810169763
 21
440.1508979062462
 72
     2
 10
333.7118920812893
 20
439.9018492317232
 40
0.25
 50
275.0000000000132
 51
360.0000000000008
 73
     0
 72
     1
 10
333.9618920812893
 20
439.9018492317232
 11
333.9618920812893
 21
438.360014818732
 97
        0
 75
     0
 76
     1
 52
0.0
 41
2.0
 77
     0
 78
     1
 53
45.0
 43
0.0
 44
0.0
 45
-4.490128060534577
 46
4.490128060534577
 79
     0
 98
        1
 10
0.0
 20
0.0
  0
HATCH
  5
312
330
1F
100
AcDbEntity
  8
0
  6
SLD-Durchgehend
 62
     7
370
    18
100
AcDbHatch
 10
0.0
 20
0.0
 30
0.0
210
0.0
220
0.0
230
1.0
  2
ANSI31
 70
     0
 71
     0
 91
        1
 92
        0
 93
       91
 72
     1
 10
469.1618920812892
 20
468.4309320252277
 11
469.1618920812892
 21
470.1167184628545
 72
     2
 10
469.6618995919192
 20
471.5309373360351
 40
1.500007510629979
 50
109.4714234918828
 51
180.0
 73
     0
 72
     1
 10
468.1618920812892
 20
471.5309373360351
 11
468.1618920812892
 21
473.9309320252276
 72
     2
 10
467.1618920812892
 20
473.9309320252276
 40
1.0
 50
0.0
 51
90.0
 73
     1
 72
     1
 10
467.1618920812892
 20
474.9309320252276
 11
466.6618920812892
 21
474.9309320252276
 72
     2
 10
466.6618920812892
 20
473.9309320252276
 40
1.0
 50
90.0
 51
180.0
 73
     1
 72
     1
 10
465.6618920812892
 20
473.9309320252276
 11
465.6618920812893
 21
470.9309320252276
 72
     2
 10
464.1618920812892
 20
470.9309320252276
 40
1.5
 50
0.0
 51
90.0
 73
     0
 72
     1
 10
464.1618920812892
 20
469.4309320252277
 11
460.4118920812893
 21
469.4309320252277
 72
     1
 10
460.4118920812893
 20
469.4309320252277
 11
460.4118920812893
 21
470.4309320252276
 72
     1
 10
460.4118920812893
 20
470.4309320252276
 11
457.2618920812893
 21
470.4309320252276
 72
     1
 10
457.2618920812893
 20
470.4309320252276
 11
455.7618920812893
 21
468.9309320252276
 72
     1
 10
455.7618920812893
 20
468.9309320252276
 11
455.7618920812893
 21
436.9309320252277
 72
     1
 10
455.7618920812893
 20
436.9309320252277
 11
457.4118920812894
 21
436.9309320252277
 72
     2
 10
457.4118920812894
 20
437.1809320252277
 40
0.25
 50
270.0000000000008
 51
360.0000000000008
 73
     1
 72
     1
 10
457.6618920812894
 20
437.1809320252277
 11
457.6618920812894
 21
437.7881139691396
 72
     2
 10
457.4118920812894
 20
437.7881139691396
 40
0.25
 50
0.0
 51
85.00000000015855
 73
     1
 72
     1
 10
457.4336810169756
 20
438.0371626436627
 11
456.5901031456023
 21
438.1109661442091
 72
     2
 10
456.6118920812892
 20
438.360014818732
 40
0.25
 50
95.0000000000006
 51
180.0
 73
     0
 72
     1
 10
456.3618920812892
 20
438.360014818732
 11
456.3618920812892
 21
439.9018492317233
 72
     2
 10
456.6118920812892
 20
439.9018492317233
 40
0.25
 50
180.0
 51
264.9999999996323
 73
     0
 72
     1
 10
456.5901031456007
 20
440.150897906246
 11
457.4336810169763
 21
440.2247014067927
 72
     2
 10
457.4118920812894
 20
440.4737500813158
 40
0.25
 50
274.9999999999991
 51
360.0000000000008
 73
     1
 72
     1
 10
457.6618920812894
 20
440.4737500813158
 11
457.6618920812894
 21
440.9881139691395
 72
     2
 10
457.4118920812894
 20
440.9881139691395
 40
0.25
 50
0.0
 51
85.00000000030471
 73
     1
 72
     1
 10
457.433681016975
 20
441.2371626436628
 11
456.5901031456023
 21
441.310966144209
 72
     2
 10
456.6118920812892
 20
441.560014818732
 40
0.25
 50
94.99999999999946
 51
180.0
 73
     0
 72
     1
 10
456.3618920812892
 20
441.560014818732
 11
456.3618920812892
 21
443.1018492317233
 72
     2
 10
456.6118920812892
 20
443.1018492317233
 40
0.25
 50
180.0
 51
264.9999999997632
 73
     0
 72
     1
 10
456.5901031456012
 20
443.350897906246
 11
457.4336810169763
 21
443.4247014067928
 72
     2
 10
457.4118920812894
 20
443.6737500813157
 40
0.25
 50
275.0000000000014
 51
360.0000000000008
 73
     1
 72
     1
 10
457.6618920812894
 20
443.6737500813157
 11
457.6618920812894
 21
444.1881139691395
 72
     2
 10
457.4118920812894
 20
444.1881139691395
 40
0.25
 50
0.0
 51
85.0000000004486
 73
     1
 72
     1
 10
457.4336810169744
 20
444.4371626436628
 11
456.5901031456023
 21
444.510966144209
 72
     2
 10
456.6118920812892
 20
444.760014818732
 40
0.25
 50
94.99999999999832
 51
180.0
 73
     0
 72
     1
 10
456.3618920812892
 20
444.760014818732
 11
456.3618920812892
 21
446.3018492317233
 72
     2
 10
456.6118920812892
 20
446.3018492317233
 40
0.25
 50
180.0
 51
264.9999999998952
 73
     0
 72
     1
 10
456.5901031456018
 20
446.5508979062461
 11
457.4336810169763
 21
446.6247014067928
 72
     2
 10
457.4118920812894
 20
446.8737500813157
 40
0.25
 50
275.0000000000014
 51
360.0000000000008
 73
     1
 72
     1
 10
457.6618920812894
 20
446.8737500813157
 11
457.6618920812894
 21
447.3881139691396
 72
     2
 10
457.4118920812894
 20
447.3881139691396
 40
0.25
 50
0.0
 51
85.00000000055357
 73
     1
 72
     1
 10
457.4336810169739
 20
447.6371626436629
 11
456.5901031456023
 21
447.7109661442091
 72
     2
 10
456.6118920812892
 20
447.960014818732
 40
0.25
 50
95.0000000000006
 51
180.0
 73
     0
 72
     1
 10
456.3618920812892
 20
447.960014818732
 11
456.3618920812892
 21
449.5018492317233
 72
     2
 10
456.6118920812892
 20
449.5018492317233
 40
0.25
 50
180.0
 51
265.0000000000014
 73
     0
 72
     1
 10
456.5901031456023
 20
449.7508979062462
 11
457.4336810169762
 21
449.8247014067928
 72
     2
 10
457.4118920812894
 20
450.0737500813157
 40
0.25
 50
274.9999999999873
 51
360.0000000000008
 73
     1
 72
     1
 10
457.6618920812894
 20
450.0737500813157
 11
457.6618920812894
 21
450.5881139691396
 72
     2
 10
457.4118920812894
 20
450.5881139691396
 40
0.25
 50
0.0000000000130276
 51
85.00000000006656
 73
     1
 72
     1
 10
457.433681016976
 20
450.8371626436626
 11
456.5901031456023
 21
450.9109661442091
 72
     2
 10
456.6118920812892
 20
451.160014818732
 40
0.25
 50
95.0000000000006
 51
180.0
 73
     0
 72
     1
 10
456.3618920812892
 20
451.160014818732
 11
456.3618920812892
 21
452.7018492317233
 72
     2
 10
456.6118920812892
 20
452.7018492317233
 40
0.25
 50
180.0
 51
264.9999999995392
 73
     0
 72
     1
 10
456.5901031456003
 20
452.9508979062459
 11
457.4336810169763
 21
453.0247014067928
 72
     2
 10
457.4118920812894
 20
453.2737500813157
 40
0.25
 50
275.0000000000014
 51
360.0000000000008
 73
     1
 72
     1
 10
457.6618920812894
 20
453.2737500813157
 11
457.6618920812894
 21
453.7881139691396
 72
     2
 10
457.4118920812894
 20
453.7881139691396
 40
0.25
 50
0.0
 51
85.00000000019747
 73
     1
 72
     1
 10
457.4336810169754
 20
454.0371626436627
 11
456.5901031456023
 21
454.110966144209
 72
     2
 10
456.6118920812892
 20
454.360014818732
 40
0.25
 50
94.99999999999946
 51
180.0
 73
     0
 72
     1
 10
456.3618920812892
 20
454.360014818732
 11
456.3618920812892
 21
455.9018492317233
 72
     2
 10
456.6118920812892
 20
455.9018492317233
 40
0.25
 50
180.0
 51
264.9999999996583
 73
     0
 72
     1
 10
456.5901031456008
 20
456.150897906246
 11
457.4336810169763
 21
456.2247014067928
 72
     2
 10
457.4118920812894
 20
456.4737500813157
 40
0.25
 50
275.0000000000014
 51
360.0000000000008
 73
     1
 72
     1
 10
457.6618920812894
 20
456.4737500813157
 11
457.6618920812894
 21
456.9881139691396
 72
     2
 10
457.4118920812894
 20
456.9881139691396
 40
0.25
 50
0.0
 51
85.00000000030359
 73
     1
 72
     1
 10
457.433681016975
 20
457.2371626436628
 11
456.5901031456023
 21
457.3109661442091
 72
     2
 10
456.6118920812892
 20
457.560014818732
 40
0.25
 50
95.0000000000006
 51
180.0
 73
     0
 72
     1
 10
456.3618920812892
 20
457.560014818732
 11
456.3618920812892
 21
459.1018492317233
 72
     2
 10
456.6118920812892
 20
459.1018492317233
 40
0.25
 50
180.0
 51
264.9999999997643
 73
     0
 72
     1
 10
456.5901031456012
 20
459.3508979062461
 11
457.4336810169763
 21
459.4247014067927
 72
     2
 10
457.4118920812894
 20
459.6737500813157
 40
0.25
 50
274.9999999999991
 51
360.0000000000008
 73
     1
 72
     1
 10
457.6618920812894
 20
459.6737500813157
 11
457.6618920812894
 21
460.1881139691396
 72
     2
 10
457.4118920812894
 20
460.1881139691396
 40
0.25
 50
359.9999999999878
 51
445.0000000004223
 73
     1
 72
     1
 10
457.4336810169744
 20
460.4371626436629
 11
456.5901031456023
 21
460.5109661442091
 72
     2
 10
456.6118920812892
 20
460.760014818732
 40
0.25
 50
94.99999999999946
 51
180.0
 73
     0
 72
     1
 10
456.3618920812892
 20
460.760014818732
 11
456.3618920812892
 21
462.3018492317233
 72
     2
 10
456.6118920812892
 20
462.3018492317233
 40
0.25
 50
180.0
 51
264.9999999998964
 73
     0
 72
     1
 10
456.5901031456018
 20
462.5508979062462
 11
457.4336810169762
 21
462.6247014067928
 72
     2
 10
457.4118920812894
 20
462.8737500813157
 40
0.25
 50
274.9999999999884
 51
360.0000000000008
 73
     1
 72
     1
 10
457.6618920812894
 20
462.8737500813157
 11
457.6618920812894
 21
463.3881139691396
 72
     2
 10
457.4118920812894
 20
463.3881139691396
 40
0.25
 50
0.0
 51
84.99999999938149
 73
     1
 72
     1
 10
457.4336810169789
 20
463.6371626436621
 11
456.5901031456022
 21
463.7109661442091
 72
     2
 10
456.6118920812892
 20
463.960014818732
 40
0.25
 50
95.00000000001243
 51
180.0
 73
     0
 72
     1
 10
456.3618920812892
 20
463.960014818732
 11
456.3618920812892
 21
465.5018492317233
 72
     2
 10
456.6118920812892
 20
465.5018492317233
 40
0.25
 50
180.0
 51
265.0000000000144
 73
     0
 72
     1
 10
456.5901031456023
 20
465.7508979062462
 11
457.4336810169762
 21
465.8247014067928
 72
     2
 10
457.4118920812894
 20
466.0737500813157
 40
0.25
 50
274.9999999999873
 51
359.9999999999878
 73
     1
 72
     1
 10
457.6618920812894
 20
466.0737500813157
 11
457.6618920812894
 21
467.6809320252277
 72
     2
 10
457.9118920812894
 20
467.6809320252277
 40
0.25
 50
180.0
 51
270.0000000000008
 73
     0
 72
     1
 10
457.9118920812894
 20
467.9309320252276
 11
468.6618920812893
 21
467.9309320252277
 72
     2
 10
468.6618920812892
 20
468.4309320252277
 40
0.5
 50
270.0000000000073
 51
360.0000000000008
 73
     1
 97
        0
 75
     0
 76
     1
 52
0.0
 41
2.0
 77
     0
 78
     1
 53
45.0
 43
0.0
 44
0.0
 45
-4.490128060534577
 46
4.490128060534577
 79
     0
 98
        1
 10
0.0
 20
0.0
  0
HATCH
  5
313
330
1F
100
AcDbEntity
  8
0
  6
SLD-Durchgehend
 62
     7
370
    18
100
AcDbHatch
 10
0.0
 20
0.0
 30
0.0
210
0.0
220
0.0
230
1.0
  2
ANSI31
 70
     0
 71
     0
 91
        1
 92
        0
 93
        4
 72
     1
 10
464.1618920812891
 20
470.4309320252277
 11
464.1618920812891
 21
475.4309320252277
 72
     1
 10
464.1618920812891
 20
475.4309320252277
 11
326.1618920812895
 21
475.4309320252277
 72
     1
 10
326.1618920812895
 20
475.4309320252277
 11
326.1618920812895
 21
470.4309320252277
 72
     1
 10
326.1618920812895
 20
470.4309320252277
 11
464.1618920812891
 21
470.4309320252277
 97
        0
 75
     0
 76
     1
 52
0.0
 41
2.0
 77
     0
 78
     1
 53
45.0
 43
0.0
 44
0.0
 45
-4.490128060534577
 46
4.490128060534577
 79
     0
 98
        1
 10
0.0
 20
0.0
  0
DIMENSION
  5
314
330
1F
100
AcDbEntity
  8
0
  6
SLD-Durchgehend
 62
     7
370
    18
100
AcDbDimension
280
     0
  2
_D
 10
469.6618920813
 20
489.3495303678
 30
0.0
 11
395.9829816449
 21
489.3495303678
 31
0.0
 70
   160
  1
{\fGDT;o}<>
 71
     2
 42
-1.0
 73
     0
 74
     0
 75
     0
  3
SLDDIMSTYLE0
100
AcDbAlignedDimension
 13
320.1618920813
 23
470.0309320252
 33
0.0
 14
469.6618920813
 24
470.0309320252
 34
0.0
100
AcDbRotatedDimension
  0
DIMENSION
  5
328
330
1F
100
AcDbEntity
  8
0
  6
SLD-Durchgehend
 62
     7
370
    18
100
AcDbDimension
280
     0
  2
_D_1
 10
457.6618920813
 20
416.9309320252
 30
0.0
 11
395.9829816449
 21
416.9309320252
 31
0.0
 70
   160
  1
<>
 71
     2
 42
-1.0
 73
     0
 74
     0
 75
     0
  3
SLDDIMSTYLE0
100
AcDbAlignedDimension
 13
332.6618920813
 23
437.1809320252
 33
0.0
 14
457.6618920813
 24
437.7881139691
 34
0.0
 50
0.0
100
AcDbRotatedDimension
  0
DIMENSION
  5
332
330
1F
100
AcDbEntity
  8
0
  6
SLD-Durchgehend
 62
     7
370
    18
100
AcDbDimension
280
     0
  2
_D_2
 10
479.5223834709
 20
467.9309320252
 30
0.0
 11
479.5223834709
 21
449.1550611338
 31
0.0
 70
   160
  1
<>
 71
     2
 42
-1.0
 73
     0
 74
     0
 75
     0
  3
SLDDIMSTYLE1
100
AcDbAlignedDimension
 13
466.9118920813
 23
475.9309320252
 33
0.0
 14
468.6618920813
 24
467.9309320252
 34
0.0
 50
90.0
100
AcDbRotatedDimension
  0
DIMENSION
  5
33F
330
1F
100
AcDbEntity
  8
0
  6
SLD-Durchgehend
 62
     7
370
    18
100
AcDbDimension
280
     0
  2
_D_3
 10
502.1618920813
 20
436.9309320252
 30
0.0
 11
502.1618920813
 21
457.3583397818
 31
0.0
 70
   160
  1
<>
 71
     2
 42
-1.0
 73
     0
 74
     0
 75
     0
  3
SLDDIMSTYLE0
100
AcDbAlignedDimension
 13
466.9118920813
 23
475.9309320252
 33
0.0
 14
457.4118920813
 24
436.9309320252
 34
0.0
 50
90.0
100
AcDbRotatedDimension
  0
LINE
  5
349
330
1F
100
AcDbEntity
  8
0
  6
SLD-Punktstrich
 62
     7
370
    18
100
AcDbLine
 10
395.1618920813
 20
472.9309320252
 30
0.0
 11
395.1618920813
 21
436.85709341
 31
0.0
  0
ENDSEC
  0
SECTION
  2
OBJECTS
  0
DICTIONARY
  5
C
330
0
100
AcDbDictionary
281
     1
  3
ACAD_DETAILVIEWSTYLE
350
351
  3
ACAD_GROUP
350
D
  3
ACAD_LAYOUT
350
1A
  3
ACAD_MATERIAL
350
43
  3
ACAD_MLEADERSTYLE
350
6B
  3
ACAD_MLINESTYLE
350
17
  3
ACAD_PLOTSETTINGS
350
19
  3
ACAD_PLOTSTYLENAME
350
E
  3
ACAD_SCALELIST
350
47
  3
ACAD_SECTIONVIEWSTYLE
350
352
  3
ACAD_TABLESTYLE
350
69
  3
ACAD_VISUALSTYLE
350
2A
  3
ACDB_RECOMPOSE_DATA
350
34E
  3
AcDbVariableDictionary
350
34A
  0
SUN
  5
6D
330
29
100
AcDbSun
 90
        1
290
     0
 63
     7
421
 16777215
 40
1.0
291
     1
 91
  2455826
 92
 54000000
292
     0
 70
     2
 71
   256
280
     1
  0
DICTIONARY
  5
351
102
{ACAD_REACTORS
330
C
102
}
330
C
100
AcDbDictionary
281
     1
  0
DICTIONARY
  5
D
102
{ACAD_REACTORS
330
C
102
}
330
C
100
AcDbDictionary
281
     1
  0
DICTIONARY
  5
1A
102
{ACAD_REACTORS
330
C
102
}
330
C
100
AcDbDictionary
281
     1
  3
Layout1
350
1E
  3
Layout2
350
26
  3
Model
350
22
  0
DICTIONARY
  5
43
102
{ACAD_REACTORS
330
C
102
}
330
C
100
AcDbDictionary
281
     1
  3
ByBlock
350
45
  3
ByLayer
350
44
  3
Global
350
46
  0
DICTIONARY
  5
6B
102
{ACAD_REACTORS
330
C
102
}
330
C
100
AcDbDictionary
281
     1
  3
Standard
350
6C
  0
DICTIONARY
  5
17
102
{ACAD_REACTORS
330
C
102
}
330
C
100
AcDbDictionary
281
     1
  3
Standard
350
18
  0
DICTIONARY
  5
19
102
{ACAD_REACTORS
330
C
102
}
330
C
100
AcDbDictionary
281
     1
  0
ACDBDICTIONARYWDFLT
  5
E
102
{ACAD_REACTORS
330
C
102
}
330
C
100
AcDbDictionary
281
     1
  3
Normal
350
F
100
AcDbDictionaryWithDefault
340
F
  0
DICTIONARY
  5
47
102
{ACAD_REACTORS
330
C
102
}
330
C
100
AcDbDictionary
281
     1
  3
A0
350
48
  3
A1
350
49
  3
A2
350
4A
  3
A3
350
4B
  3
A4
350
4C
  3
A5
350
4D
  3
A6
350
4E
  3
A7
350
4F
  3
A8
350
50
  3
A9
350
51
  3
B0
350
52
  3
B1
350
53
  3
B2
350
54
  3
B3
350
55
  3
B4
350
56
  3
B5
350
57
  3
B6
350
58
  3
B7
350
59
  3
B8
350
5A
  3
B9
350
5B
  3
C0
350
5C
  3
C1
350
5D
  3
C2
350
5E
  3
C3
350
5F
  3
C4
350
60
  3
C5
350
61
  3
C6
350
62
  3
C7
350
63
  3
C8
350
64
  3
C9
350
65
  3
D0
350
66
  3
D1
350
67
  3
D2
350
68
  0
DICTIONARY
  5
352
102
{ACAD_REACTORS
330
C
102
}
330
C
100
AcDbDictionary
281
     1
  0
DICTIONARY
  5
69
102
{ACAD_REACTORS
330
C
102
}
330
C
100
AcDbDictionary
281
     1
  3
Standard
350
6A
  0
DICTIONARY
  5
2A
102
{ACAD_REACTORS
330
C
102
}
330
C
100
AcDbDictionary
281
     1
  3
2dWireframe
350
2F
  3
Basic
350
32
  3
Brighten
350
36
  3
ColorChange
350
3A
  3
Conceptual
350
34
  3
Dim
350
35
  3
EdgeColorOff
350
3D
  3
Facepattern
350
39
  3
Flat
350
2B
  3
FlatWithEdges
350
2C
  3
Gouraud
350
2D
  3
GouraudWithEdges
350
2E
  3
Hidden
350
31
  3
JitterOff
350
3B
  3
Linepattern
350
38
  3
OverhangOff
350
3C
  3
Realistic
350
33
  3
Shaded
350
42
  3
Shaded with edges
350
41
  3
Shades of Gray
350
3E
  3
Sketchy
350
3F
  3
Thicken
350
37
  3
Wireframe
350
30
  3
X-Ray
350
40
  0
XRECORD
  5
34E
102
{ACAD_REACTORS
330
C
102
}
330
C
100
AcDbXrecord
280
     1
 90
        1
330
6A
  0
DICTIONARY
  5
34A
102
{ACAD_REACTORS
330
C
102
}
330
C
100
AcDbDictionary
281
     1
  3
CANNOSCALE
350
34B
  3
CMLEADERSTYLE
350
350
  3
CTABLESTYLE
350
34F
  3
SECTIONTHICKNESSINC
350
353
  0
LAYOUT
  5
1E
102
{ACAD_REACTORS
330
1A
102
}
330
1A
100
AcDbPlotSettings
  1

  2
none_device
  4

  6

 40
0.0
 41
0.0
 42
0.0
 43
0.0
 44
0.0
 45
0.0
 46
0.0
 47
0.0
 48
0.0
 49
0.0
140
0.0
141
0.0
142
1.0
143
1.0
 70
   688
 72
     1
 73
     0
 74
     5
  7

 75
    16
 76
     0
 77
     2
 78
   300
147
1.0
148
0.0
149
0.0
100
AcDbLayout
  1
Layout1
 70
     1
 71
     1
 10
0.0
 20
0.0
 11
420.0
 21
297.0
 12
0.0
 22
0.0
 32
0.0
 14
1.0000000000E+20
 24
1.0000000000E+20
 34
1.0000000000E+20
 15
-1.0000000000E+20
 25
-1.0000000000E+20
 35
-1.0000000000E+20
146
0.0
 13
0.0
 23
0.0
 33
0.0
 16
1.0
 26
0.0
 36
0.0
 17
0.0
 27
1.0
 37
0.0
 76
     0
330
1B
  0
LAYOUT
  5
26
102
{ACAD_REACTORS
330
1A
102
}
330
1A
100
AcDbPlotSettings
  1

  2
none_device
  4

  6

 40
0.0
 41
0.0
 42
0.0
 43
0.0
 44
0.0
 45
0.0
 46
0.0
 47
0.0
 48
0.0
 49
0.0
140
0.0
141
0.0
142
1.0
143
1.0
 70
   688
 72
     1
 73
     0
 74
     5
  7

 75
    16
 76
     0
 77
     2
 78
   300
147
1.0
148
0.0
149
0.0
100
AcDbLayout
  1
Layout2
 70
     1
 71
     2
 10
0.0
 20
0.0
 11
0.0
 21
0.0
 12
0.0
 22
0.0
 32
0.0
 14
0.0
 24
0.0
 34
0.0
 15
0.0
 25
0.0
 35
0.0
146
0.0
 13
0.0
 23
0.0
 33
0.0
 16
1.0
 26
0.0
 36
0.0
 17
0.0
 27
1.0
 37
0.0
 76
     0
330
23
  0
LAYOUT
  5
22
102
{ACAD_REACTORS
330
1A
102
}
330
1A
100
AcDbPlotSettings
  1

  2
none_device
  4
Letter_(8.50_x_11.00_Inches)
  6

 40
6.35
 41
6.35
 42
6.35000508
 43
6.35000508
 44
215.9
 45
279.4
 46
0.0
 47
0.0
 48
0.0
 49
0.0
140
0.0
141
0.0
142
1.0
143
1.0
 70
  1712
 72
     1
 73
     0
 74
     0
  7

 75
     0
 76
     0
 77
     2
 78
   300
147
1.0
148
0.0
149
0.0
100
AcDbLayout
  1
Model
 70
     1
 71
     0
 10
0.0
 20
0.0
 11
840.0
 21
594.0
 12
0.0
 22
0.0
 32
0.0
 14
0.0
 24
0.0
 34
0.0
 15
840.0
 25
594.0
 35
0.0
146
0.0
 13
0.0
 23
0.0
 33
0.0
 16
1.0
 26
0.0
 36
0.0
 17
0.0
 27
1.0
 37
0.0
 76
     0
330
1F
331
29
  0
MATERIAL
  5
45
102
{ACAD_REACTORS
330
43
102
}
330
43
100
AcDbMaterial
  1
ByBlock
 72
     1
 94
      127
  0
MATERIAL
  5
44
102
{ACAD_REACTORS
330
43
102
}
330
43
100
AcDbMaterial
  1
ByLayer
 72
     1
 94
      127
  0
MATERIAL
  5
46
102
{ACAD_REACTORS
330
43
102
}
330
43
100
AcDbMaterial
  1
Global
 72
     1
 94
      127
  0
MLEADERSTYLE
  5
6C
102
{ACAD_REACTORS
330
6B
102
}
330
6B
100
AcDbMLeaderStyle
179
     2
170
     2
171
     1
172
     0
 90
        2
 40
0.0
 41
0.0
173
     1
 91
-1056964608
340
14
 92
       -2
290
     1
 42
2.0
291
     1
 43
8.0
  3
Standard
341
0
 44
4.0
300

342
11
174
     1
178
     6
175
     1
176
     0
 93
-1056964608
 45
4.0
292
     0
297
     0
 46
4.0
343
0
 94
-1056964608
 47
1.0
 49
1.0
140
1.0
293
     1
141
0.0
294
     1
177
     0
142
1.0
295
     0
296
     0
143
3.75
271
     0
272
     9
273
     9
298
     0
  0
MLINESTYLE
  5
18
102
{ACAD_REACTORS
330
17
102
}
330
17
100
AcDbMlineStyle
  2
Standard
 70
     0
  3

 62
   256
 51
90.0
 52
90.0
 71
     2
 49
0.5
 62
   256
  6
BYLAYER
 49
-0.5
 62
   256
  6
BYLAYER
  0
ACDBPLACEHOLDER
  5
F
102
{ACAD_REACTORS
330
E
102
}
330
E
  0
SCALE
  5
48
102
{ACAD_REACTORS
330
47
102
}
330
47
100
AcDbScale
 70
     0
300
1:1
140
1.0
141
1.0
290
     1
  0
SCALE
  5
49
102
{ACAD_REACTORS
330
47
102
}
330
47
100
AcDbScale
 70
     0
300
1:2
140
1.0
141
2.0
290
     0
  0
SCALE
  5
4A
102
{ACAD_REACTORS
330
47
102
}
330
47
100
AcDbScale
 70
     0
300
1:4
140
1.0
141
4.0
290
     0
  0
SCALE
  5
4B
102
{ACAD_REACTORS
330
47
102
}
330
47
100
AcDbScale
 70
     0
300
1:5
140
1.0
141
5.0
290
     0
  0
SCALE
  5
4C
102
{ACAD_REACTORS
330
47
102
}
330
47
100
AcDbScale
 70
     0
300
1:8
140
1.0
141
8.0
290
     0
  0
SCALE
  5
4D
102
{ACAD_REACTORS
330
47
102
}
330
47
100
AcDbScale
 70
     0
300
1:10
140
1.0
141
10.0
290
     0
  0
SCALE
  5
4E
102
{ACAD_REACTORS
330
47
102
}
330
47
100
AcDbScale
 70
     0
300
1:16
140
1.0
141
16.0
290
     0
  0
SCALE
  5
4F
102
{ACAD_REACTORS
330
47
102
}
330
47
100
AcDbScale
 70
     0
300
1:20
140
1.0
141
20.0
290
     0
  0
SCALE
  5
50
102
{ACAD_REACTORS
330
47
102
}
330
47
100
AcDbScale
 70
     0
300
1:30
140
1.0
141
30.0
290
     0
  0
SCALE
  5
51
102
{ACAD_REACTORS
330
47
102
}
330
47
100
AcDbScale
 70
     0
300
1:40
140
1.0
141
40.0
290
     0
  0
SCALE
  5
52
102
{ACAD_REACTORS
330
47
102
}
330
47
100
AcDbScale
 70
     0
300
1:50
140
1.0
141
50.0
290
     0
  0
SCALE
  5
53
102
{ACAD_REACTORS
330
47
102
}
330
47
100
AcDbScale
 70
     0
300
1:100
140
1.0
141
100.0
290
     0
  0
SCALE
  5
54
102
{ACAD_REACTORS
330
47
102
}
330
47
100
AcDbScale
 70
     0
300
2:1
140
2.0
141
1.0
290
     0
  0
SCALE
  5
55
102
{ACAD_REACTORS
330
47
102
}
330
47
100
AcDbScale
 70
     0
300
4:1
140
4.0
141
1.0
290
     0
  0
SCALE
  5
56
102
{ACAD_REACTORS
330
47
102
}
330
47
100
AcDbScale
 70
     0
300
8:1
140
8.0
141
1.0
290
     0
  0
SCALE
  5
57
102
{ACAD_REACTORS
330
47
102
}
330
47
100
AcDbScale
 70
     0
300
10:1
140
10.0
141
1.0
290
     0
  0
SCALE
  5
58
102
{ACAD_REACTORS
330
47
102
}
330
47
100
AcDbScale
 70
     0
300
100:1
140
100.0
141
1.0
290
     0
  0
SCALE
  5
59
102
{ACAD_REACTORS
330
47
102
}
330
47
100
AcDbScale
 70
     0
300
1/128" = 1'-0"
140
0.0078125
141
12.0
290
     0
  0
SCALE
  5
5A
102
{ACAD_REACTORS
330
47
102
}
330
47
100
AcDbScale
 70
     0
300
1/64" = 1'-0"
140
0.015625
141
12.0
290
     0
  0
SCALE
  5
5B
102
{ACAD_REACTORS
330
47
102
}
330
47
100
AcDbScale
 70
     0
300
1/32" = 1'-0"
140
0.03125
141
12.0
290
     0
  0
SCALE
  5
5C
102
{ACAD_REACTORS
330
47
102
}
330
47
100
AcDbScale
 70
     0
300
1/16" = 1'-0"
140
0.0625
141
12.0
290
     0
  0
SCALE
  5
5D
102
{ACAD_REACTORS
330
47
102
}
330
47
100
AcDbScale
 70
     0
300
3/32" = 1'-0"
140
0.09375
141
12.0
290
     0
  0
SCALE
  5
5E
102
{ACAD_REACTORS
330
47
102
}
330
47
100
AcDbScale
 70
     0
300
1/8" = 1'-0"
140
0.125
141
12.0
290
     0
  0
SCALE
  5
5F
102
{ACAD_REACTORS
330
47
102
}
330
47
100
AcDbScale
 70
     0
300
3/16" = 1'-0"
140
0.1875
141
12.0
290
     0
  0
SCALE
  5
60
102
{ACAD_REACTORS
330
47
102
}
330
47
100
AcDbScale
 70
     0
300
1/4" = 1'-0"
140
0.25
141
12.0
290
     0
  0
SCALE
  5
61
102
{ACAD_REACTORS
330
47
102
}
330
47
100
AcDbScale
 70
     0
300
3/8" = 1'-0"
140
0.375
141
12.0
290
     0
  0
SCALE
  5
62
102
{ACAD_REACTORS
330
47
102
}
330
47
100
AcDbScale
 70
     0
300
1/2" = 1'-0"
140
0.5
141
12.0
290
     0
  0
SCALE
  5
63
102
{ACAD_REACTORS
330
47
102
}
330
47
100
AcDbScale
 70
     0
300
3/4" = 1'-0"
140
0.75
141
12.0
290
     0
  0
SCALE
  5
64
102
{ACAD_REACTORS
330
47
102
}
330
47
100
AcDbScale
 70
     0
300
1" = 1'-0"
140
1.0
141
12.0
290
     0
  0
SCALE
  5
65
102
{ACAD_REACTORS
330
47
102
}
330
47
100
AcDbScale
 70
     0
300
1-1/2" = 1'-0"
140
1.5
141
12.0
290
     0
  0
SCALE
  5
66
102
{ACAD_REACTORS
330
47
102
}
330
47
100
AcDbScale
 70
     0
300
3" = 1'-0"
140
3.0
141
12.0
290
     0
  0
SCALE
  5
67
102
{ACAD_REACTORS
330
47
102
}
330
47
100
AcDbScale
 70
     0
300
6" = 1'-0"
140
6.0
141
12.0
290
     0
  0
SCALE
  5
68
102
{ACAD_REACTORS
330
47
102
}
330
47
100
AcDbScale
 70
     0
300
1'-0" = 1'-0"
140
12.0
141
12.0
290
     0
  0
TABLESTYLE
  5
6A
102
{ACAD_REACTORS
330
69
102
}
102
{ACAD_XDICTIONARY
360
34C
102
}
330
69
100
AcDbTableStyle
  3
Standard
 70
     0
 71
     0
 40
0.06
 41
0.06
280
     0
281
     0
  7
Standard
140
4.5
170
     2
 62
     0
 63
   257
283
     0
 90
        4
 91
        0
  1

274
    -2
284
     1
 64
     0
275
    -2
285
     1
 65
     0
276
    -2
286
     1
 66
     0
277
    -2
287
     1
 67
     0
278
    -2
288
     1
 68
     0
279
    -2
289
     1
 69
     0
  7
Standard
140
6.0
170
     5
 62
     0
 63
   257
283
     0
 90
        4
 91
        0
  1

274
    -2
284
     1
 64
     0
275
    -2
285
     1
 65
     0
276
    -2
286
     1
 66
     0
277
    -2
287
     1
 67
     0
278
    -2
288
     1
 68
     0
279
    -2
289
     1
 69
     0
  7
Standard
140
4.5
170
     5
 62
     0
 63
   257
283
     0
 90
        4
 91
        0
  1

274
    -2
284
     1
 64
     0
275
    -2
285
     1
 65
     0
276
    -2
286
     1
 66
     0
277
    -2
287
     1
 67
     0
278
    -2
288
     1
 68
     0
279
    -2
289
     1
 69
     0
  0
VISUALSTYLE
  5
2F
102
{ACAD_REACTORS
330
2A
102
}
330
2A
100
AcDbVisualStyle
  2
2dWireframe
 70
     4
177
     3
291
     0
 70
    58
 90
        0
176
     1
 90
        2
176
     1
 90
        0
176
     1
 90
        0
176
     1
 40
0.6
176
     1
 40
30.0
176
     1
 62
     7
420
 16777215
176
     1
 90
        1
176
     1
 90
        4
176
     1
 62
     7
176
     1
 62
   257
176
     1
 90
        1
176
     1
 90
        1
176
     1
 40
1.0
176
     1
 90
        0
176
     1
 62
   257
176
     1
 40
1.0
176
     1
 90
        1
176
     1
 90
        6
176
     1
 90
        2
176
     1
 62
     7
176
     1
 90
        5
176
     1
 90
        0
176
     1
 90
        0
176
     1
290
     0
176
     1
 90
        1
176
     1
 40
0.0
176
     1
 90
        0
176
     1
290
     1
176
     1
290
     1
176
     1
290
     0
176
     1
290
     0
176
     1
290
     0
176
     1
290
     0
176
     1
290
     0
176
     1
290
     0
176
     1
290
     0
176
     1
 90
       50
176
     1
 40
0.0
176
     1
 40
1.0
176
     1
 90
        0
176
     1
 62
    18
420
        0
176
     1
 90
       50
176
     1
 90
        3
176
     1
 62
     5
420
      255
176
     1
290
     0
176
     1
 90
       50
176
     1
 90
       50
176
     1
 90
       50
176
     1
290
     0
176
     1
 90
       50
176
     1
 62
   256
176
     0
 40
1.0
176
     0
 90
        2
176
     1
  1
strokes_ogs.tif
176
     1
290
     0
176
     1
 40
1.0
176
     1
 40
1.0
176
     1
  0
VISUALSTYLE
  5
32
102
{ACAD_REACTORS
330
2A
102
}
330
2A
100
AcDbVisualStyle
  2
Basic
 70
     7
177
     3
291
     1
 70
    58
 90
        1
176
     1
 90
        0
176
     1
 90
        1
176
     1
 90
        0
176
     1
 40
0.6
176
     1
 40
30.0
176
     1
 62
     7
420
 16777215
176
     1
 90
        0
176
     1
 90
        4
176
     1
 62
     7
176
     1
 62
   257
176
     1
 90
        1
176
     1
 90
        1
176
     1
 40
1.0
176
     1
 90
        8
176
     1
 62
     7
176
     1
 40
1.0
176
     1
 90
        1
176
     1
 90
        6
176
     1
 90
        2
176
     1
 62
     7
176
     1
 90
        5
176
     1
 90
        0
176
     1
 90
        0
176
     1
290
     0
176
     1
 90
        1
176
     1
 40
0.0
176
     1
 90
        0
176
     1
290
     0
176
     1
290
     1
176
     1
290
     1
176
     1
290
     0
176
     1
290
     0
176
     1
290
     0
176
     1
290
     0
176
     1
290
     0
176
     1
290
     0
176
     1
 90
       50
176
     1
 40
0.0
176
     1
 40
1.0
176
     1
 90
        0
176
     1
 62
    18
420
        0
176
     1
 90
       50
176
     1
 90
        3
176
     1
 62
     5
420
      255
176
     1
290
     0
176
     1
 90
       50
176
     1
 90
       50
176
     1
 90
       50
176
     1
290
     0
176
     1
 90
       50
176
     1
 62
   256
176
     0
 40
1.0
176
     0
 90
        2
176
     1
  1
strokes_ogs.tif
176
     1
290
     0
176
     1
 40
1.0
176
     1
 40
1.0
176
     1
  0
VISUALSTYLE
  5
36
102
{ACAD_REACTORS
330
2A
102
}
330
2A
100
AcDbVisualStyle
  2
Brighten
 70
    12
177
     3
291
     1
 70
    58
 90
        2
176
     1
 90
        2
176
     1
 90
        0
176
     1
 90
        0
176
     1
 40
0.6
176
     1
 40
30.0
176
     1
 62
     7
420
 16777215
176
     1
 90
        1
176
     1
 90
        4
176
     1
 62
     7
176
     1
 62
   257
176
     1
 90
        1
176
     1
 90
        1
176
     1
 40
1.0
176
     1
 90
        8
176
     1
 62
     7
176
     1
 40
1.0
176
     1
 90
        1
176
     1
 90
        6
176
     1
 90
        2
176
     1
 62
     7
176
     1
 90
        5
176
     1
 90
        0
176
     1
 90
        0
176
     1
290
     0
176
     1
 90
        1
176
     1
 40
50.0
176
     1
 90
        0
176
     1
290
     0
176
     1
290
     1
176
     1
290
     1
176
     1
290
     0
176
     1
290
     0
176
     1
290
     0
176
     1
290
     0
176
     1
290
     0
176
     1
290
     0
176
     1
 90
       50
176
     1
 40
0.0
176
     1
 40
1.0
176
     1
 90
        0
176
     1
 62
    18
420
        0
176
     1
 90
       50
176
     1
 90
        3
176
     1
 62
     5
420
      255
176
     1
290
     0
176
     1
 90
       50
176
     1
 90
       50
176
     1
 90
       50
176
     1
290
     0
176
     1
 90
       50
176
     1
 62
   256
176
     0
 40
1.0
176
     0
 90
        2
176
     1
  1
strokes_ogs.tif
176
     1
290
     0
176
     1
 40
1.0
176
     1
 40
1.0
176
     1
  0
VISUALSTYLE
  5
3A
102
{ACAD_REACTORS
330
2A
102
}
330
2A
100
AcDbVisualStyle
  2
ColorChange
 70
    16
177
     3
291
     1
 70
    58
 90
        2
176
     1
 90
        2
176
     1
 90
        3
176
     1
 90
        0
176
     1
 40
0.6
176
     1
 40
30.0
176
     1
 62
     8
420
  8421504
176
     1
 90
        1
176
     1
 90
        4
176
     1
 62
     7
176
     1
 62
   257
176
     1
 90
        1
176
     1
 90
        1
176
     1
 40
1.0
176
     1
 90
        8
176
     1
 62
     8
420
  8421504
176
     1
 40
1.0
176
     1
 90
        1
176
     1
 90
        6
176
     1
 90
        2
176
     1
 62
     7
176
     1
 90
        5
176
     1
 90
        0
176
     1
 90
        0
176
     1
290
     0
176
     1
 90
        1
176
     1
 40
0.0
176
     1
 90
        0
176
     1
290
     0
176
     1
290
     1
176
     1
290
     1
176
     1
290
     0
176
     1
290
     0
176
     1
290
     0
176
     1
290
     0
176
     1
290
     0
176
     1
290
     0
176
     1
 90
       50
176
     1
 40
0.0
176
     1
 40
1.0
176
     1
 90
        0
176
     1
 62
    18
420
        0
176
     1
 90
       50
176
     1
 90
        3
176
     1
 62
     5
420
      255
176
     1
290
     0
176
     1
 90
       50
176
     1
 90
       50
176
     1
 90
       50
176
     1
290
     0
176
     1
 90
       50
176
     1
 62
   256
176
     0
 40
1.0
176
     0
 90
        2
176
     1
  1
strokes_ogs.tif
176
     1
290
     0
176
     1
 40
1.0
176
     1
 40
1.0
176
     1
  0
VISUALSTYLE
  5
34
102
{ACAD_REACTORS
330
2A
102
}
330
2A
100
AcDbVisualStyle
  2
Conceptual
 70
     9
177
     3
291
     0
 70
    58
 90
        3
176
     1
 90
        2
176
     1
 90
        0
176
     1
 90
        0
176
     1
 40
0.6
176
     1
 40
30.0
176
     1
 62
     7
420
 16777215
176
     1
 90
        2
176
     1
 90
        2
176
     1
 62
     7
176
     1
 62
   257
176
     1
 90
        1
176
     1
 90
        1
176
     1
 40
179.0
176
     1
 90
        8
176
     1
 62
     7
176
     1
 40
1.0
176
     1
 90
        1
176
     1
 90
        6
176
     1
 90
        2
176
     1
 62
     7
176
     1
 90
        3
176
     1
 90
        0
176
     1
 90
        0
176
     1
290
     0
176
     1
 90
        1
176
     1
 40
0.0
176
     1
 90
        0
176
     1
290
     0
176
     1
290
     1
176
     1
290
     1
176
     1
290
     0
176
     1
290
     0
176
     1
290
     0
176
     1
290
     0
176
     1
290
     0
176
     1
290
     0
176
     1
 90
       50
176
     1
 40
0.0
176
     1
 40
1.0
176
     1
 90
        0
176
     1
 62
    18
420
        0
176
     1
 90
       50
176
     1
 90
        3
176
     1
 62
     5
420
      255
176
     1
290
     0
176
     1
 90
       50
176
     1
 90
       50
176
     1
 90
       50
176
     1
290
     0
176
     1
 90
       50
176
     1
 62
   256
176
     0
 40
1.0
176
     0
 90
        2
176
     1
  1
strokes_ogs.tif
176
     1
290
     0
176
     1
 40
1.0
176
     1
 40
1.0
176
     1
  0
VISUALSTYLE
  5
35
102
{ACAD_REACTORS
330
2A
102
}
330
2A
100
AcDbVisualStyle
  2
Dim
 70
    11
177
     3
291
     1
 70
    58
 90
        2
176
     1
 90
        2
176
     1
 90
        0
176
     1
 90
        0
176
     1
 40
0.6
176
     1
 40
30.0
176
     1
 62
     7
420
 16777215
176
     1
 90
        1
176
     1
 90
        4
176
     1
 62
     7
176
     1
 62
   257
176
     1
 90
        1
176
     1
 90
        1
176
     1
 40
1.0
176
     1
 90
        8
176
     1
 62
     7
176
     1
 40
1.0
176
     1
 90
        1
176
     1
 90
        6
176
     1
 90
        2
176
     1
 62
     7
176
     1
 90
        5
176
     1
 90
        0
176
     1
 90
        0
176
     1
290
     0
176
     1
 90
        1
176
     1
 40
-50.0
176
     1
 90
        0
176
     1
290
     0
176
     1
290
     1
176
     1
290
     1
176
     1
290
     0
176
     1
290
     0
176
     1
290
     0
176
     1
290
     0
176
     1
290
     0
176
     1
290
     0
176
     1
 90
       50
176
     1
 40
0.0
176
     1
 40
1.0
176
     1
 90
        0
176
     1
 62
    18
420
        0
176
     1
 90
       50
176
     1
 90
        3
176
     1
 62
     5
420
      255
176
     1
290
     0
176
     1
 90
       50
176
     1
 90
       50
176
     1
 90
       50
176
     1
290
     0
176
     1
 90
       50
176
     1
 62
   256
176
     0
 40
1.0
176
     0
 90
        2
176
     1
  1
strokes_ogs.tif
176
     1
290
     0
176
     1
 40
1.0
176
     1
 40
1.0
176
     1
  0
VISUALSTYLE
  5
3D
102
{ACAD_REACTORS
330
2A
102
}
330
2A
100
AcDbVisualStyle
  2
EdgeColorOff
 70
    22
177
     3
291
     1
 70
    58
 90
        2
176
     0
 90
        2
176
     0
 90
        0
176
     0
 90
        0
176
     0
 40
0.6
176
     0
 40
30.0
176
     0
 62
     7
420
 16777215
176
     0
 90
        1
176
     0
 90
        4
176
     0
 62
     7
176
     0
 62
   257
176
     0
 90
        1
176
     0
 90
        1
176
     0
 40
1.0
176
     0
 90
        8
176
     2
 62
     7
176
     0
 40
1.0
176
     0
 90
        1
176
     0
 90
        6
176
     0
 90
        2
176
     0
 62
     7
176
     0
 90
        5
176
     0
 90
        0
176
     0
 90
        0
176
     0
290
     0
176
     0
 90
        1
176
     0
 40
0.0
176
     0
 90
        0
176
     0
290
     0
176
     0
290
     1
176
     0
290
     1
176
     0
290
     0
176
     0
290
     0
176
     0
290
     0
176
     0
290
     0
176
     0
290
     0
176
     0
290
     0
176
     0
 90
       50
176
     0
 40
0.0
176
     0
 40
1.0
176
     0
 90
        0
176
     0
 62
    18
420
        0
176
     0
 90
       50
176
     0
 90
        3
176
     0
 62
     5
420
      255
176
     0
290
     0
176
     0
 90
       50
176
     0
 90
       50
176
     0
 90
       50
176
     0
290
     0
176
     0
 90
       50
176
     0
 62
   256
176
     0
 40
1.0
176
     0
 90
        2
176
     0
  1
strokes_ogs.tif
176
     0
290
     0
176
     0
 40
1.0
176
     0
 40
1.0
176
     0
  0
VISUALSTYLE
  5
39
102
{ACAD_REACTORS
330
2A
102
}
330
2A
100
AcDbVisualStyle
  2
Facepattern
 70
    15
177
     3
291
     1
 70
    58
 90
        2
176
     1
 90
        2
176
     1
 90
        0
176
     1
 90
        0
176
     1
 40
0.6
176
     1
 40
30.0
176
     1
 62
     7
420
 16777215
176
     1
 90
        1
176
     1
 90
        4
176
     1
 62
     7
176
     1
 62
   257
176
     1
 90
        1
176
     1
 90
        1
176
     1
 40
1.0
176
     1
 90
        8
176
     1
 62
     7
176
     1
 40
1.0
176
     1
 90
        1
176
     1
 90
        6
176
     1
 90
        2
176
     1
 62
     7
176
     1
 90
        5
176
     1
 90
        0
176
     1
 90
        0
176
     1
290
     0
176
     1
 90
        1
176
     1
 40
0.0
176
     1
 90
        0
176
     1
290
     0
176
     1
290
     1
176
     1
290
     1
176
     1
290
     0
176
     1
290
     0
176
     1
290
     0
176
     1
290
     0
176
     1
290
     0
176
     1
290
     0
176
     1
 90
       50
176
     1
 40
0.0
176
     1
 40
1.0
176
     1
 90
        0
176
     1
 62
    18
420
        0
176
     1
 90
       50
176
     1
 90
        3
176
     1
 62
     5
420
      255
176
     1
290
     0
176
     1
 90
       50
176
     1
 90
       50
176
     1
 90
       50
176
     1
290
     0
176
     1
 90
       50
176
     1
 62
   256
176
     0
 40
1.0
176
     0
 90
        2
176
     1
  1
strokes_ogs.tif
176
     1
290
     0
176
     1
 40
1.0
176
     1
 40
1.0
176
     1
  0
VISUALSTYLE
  5
2B
102
{ACAD_REACTORS
330
2A
102
}
330
2A
100
AcDbVisualStyle
  2
Flat
 70
     0
177
     3
291
     1
 70
    58
 90
        2
176
     1
 90
        1
176
     1
 90
        1
176
     1
 90
        2
176
     1
 40
0.6
176
     1
 40
30.0
176
     1
 62
     7
420
 16777215
176
     1
 90
        0
176
     1
 90
        0
176
     1
 62
     7
176
     1
 62
   257
176
     1
 90
        1
176
     1
 90
        1
176
     1
 40
1.0
176
     1
 90
        8
176
     1
 62
     7
176
     1
 40
1.0
176
     1
 90
        1
176
     1
 90
        6
176
     1
 90
        2
176
     1
 62
     7
176
     1
 90
        5
176
     1
 90
        0
176
     1
 90
        0
176
     1
290
     0
176
     1
 90
       13
176
     1
 40
0.0
176
     1
 90
        0
176
     1
290
     0
176
     1
290
     1
176
     1
290
     1
176
     1
290
     0
176
     1
290
     0
176
     1
290
     0
176
     1
290
     0
176
     1
290
     0
176
     1
290
     0
176
     1
 90
       50
176
     1
 40
0.0
176
     1
 40
1.0
176
     1
 90
        0
176
     1
 62
    18
420
        0
176
     1
 90
       50
176
     1
 90
        3
176
     1
 62
     5
420
      255
176
     1
290
     0
176
     1
 90
       50
176
     1
 90
       50
176
     1
 90
       50
176
     1
290
     0
176
     1
 90
       50
176
     1
 62
   256
176
     0
 40
1.0
176
     0
 90
        2
176
     1
  1
strokes_ogs.tif
176
     1
290
     0
176
     1
 40
1.0
176
     1
 40
1.0
176
     1
  0
VISUALSTYLE
  5
2C
102
{ACAD_REACTORS
330
2A
102
}
330
2A
100
AcDbVisualStyle
  2
FlatWithEdges
 70
     1
177
     3
291
     1
 70
    58
 90
        2
176
     1
 90
        1
176
     1
 90
        1
176
     1
 90
        2
176
     1
 40
0.6
176
     1
 40
30.0
176
     1
 62
     7
420
 16777215
176
     1
 90
        1
176
     1
 90
        0
176
     1
 62
     7
176
     1
 62
   257
176
     1
 90
        1
176
     1
 90
        1
176
     1
 40
1.0
176
     1
 90
        0
176
     1
 62
   257
176
     1
 40
1.0
176
     1
 90
        1
176
     1
 90
        6
176
     1
 90
        2
176
     1
 62
     7
176
     1
 90
        5
176
     1
 90
        0
176
     1
 90
        0
176
     1
290
     0
176
     1
 90
       13
176
     1
 40
0.0
176
     1
 90
        0
176
     1
290
     0
176
     1
290
     1
176
     1
290
     1
176
     1
290
     0
176
     1
290
     0
176
     1
290
     0
176
     1
290
     0
176
     1
290
     0
176
     1
290
     0
176
     1
 90
       50
176
     1
 40
0.0
176
     1
 40
1.0
176
     1
 90
        0
176
     1
 62
    18
420
        0
176
     1
 90
       50
176
     1
 90
        3
176
     1
 62
     5
420
      255
176
     1
290
     0
176
     1
 90
       50
176
     1
 90
       50
176
     1
 90
       50
176
     1
290
     0
176
     1
 90
       50
176
     1
 62
   256
176
     0
 40
1.0
176
     0
 90
        2
176
     1
  1
strokes_ogs.tif
176
     1
290
     0
176
     1
 40
1.0
176
     1
 40
1.0
176
     1
  0
VISUALSTYLE
  5
2D
102
{ACAD_REACTORS
330
2A
102
}
330
2A
100
AcDbVisualStyle
  2
Gouraud
 70
     2
177
     3
291
     1
 70
    58
 90
        2
176
     1
 90
        2
176
     1
 90
        1
176
     1
 90
        2
176
     1
 40
0.6
176
     1
 40
30.0
176
     1
 62
     7
420
 16777215
176
     1
 90
        0
176
     1
 90
        0
176
     1
 62
     7
176
     1
 62
   257
176
     1
 90
        1
176
     1
 90
        1
176
     1
 40
1.0
176
     1
 90
        0
176
     1
 62
     7
176
     1
 40
1.0
176
     1
 90
        1
176
     1
 90
        6
176
     1
 90
        2
176
     1
 62
     7
176
     1
 90
        5
176
     1
 90
        0
176
     1
 90
        0
176
     1
290
     0
176
     1
 90
       13
176
     1
 40
0.0
176
     1
 90
        0
176
     1
290
     0
176
     1
290
     1
176
     1
290
     1
176
     1
290
     0
176
     1
290
     0
176
     1
290
     0
176
     1
290
     0
176
     1
290
     0
176
     1
290
     0
176
     1
 90
       50
176
     1
 40
0.0
176
     1
 40
1.0
176
     1
 90
        0
176
     1
 62
    18
420
        0
176
     1
 90
       50
176
     1
 90
        3
176
     1
 62
     5
420
      255
176
     1
290
     0
176
     1
 90
       50
176
     1
 90
       50
176
     1
 90
       50
176
     1
290
     0
176
     1
 90
       50
176
     1
 62
   256
176
     0
 40
1.0
176
     0
 90
        2
176
     1
  1
strokes_ogs.tif
176
     1
290
     0
176
     1
 40
1.0
176
     1
 40
1.0
176
     1
  0
VISUALSTYLE
  5
2E
102
{ACAD_REACTORS
330
2A
102
}
330
2A
100
AcDbVisualStyle
  2
GouraudWithEdges
 70
     3
177
     3
291
     1
 70
    58
 90
        2
176
     1
 90
        2
176
     1
 90
        1
176
     1
 90
        2
176
     1
 40
0.6
176
     1
 40
30.0
176
     1
 62
     7
420
 16777215
176
     1
 90
        1
176
     1
 90
        0
176
     1
 62
     7
176
     1
 62
   257
176
     1
 90
        1
176
     1
 90
        1
176
     1
 40
1.0
176
     1
 90
        0
176
     1
 62
   257
176
     1
 40
1.0
176
     1
 90
        1
176
     1
 90
        6
176
     1
 90
        2
176
     1
 62
     7
176
     1
 90
        5
176
     1
 90
        0
176
     1
 90
        0
176
     1
290
     0
176
     1
 90
       13
176
     1
 40
0.0
176
     1
 90
        0
176
     1
290
     0
176
     1
290
     1
176
     1
290
     1
176
     1
290
     0
176
     1
290
     0
176
     1
290
     0
176
     1
290
     0
176
     1
290
     0
176
     1
290
     0
176
     1
 90
       50
176
     1
 40
0.0
176
     1
 40
1.0
176
     1
 90
        0
176
     1
 62
    18
420
        0
176
     1
 90
       50
176
     1
 90
        3
176
     1
 62
     5
420
      255
176
     1
290
     0
176
     1
 90
       50
176
     1
 90
       50
176
     1
 90
       50
176
     1
290
     0
176
     1
 90
       50
176
     1
 62
   256
176
     0
 40
1.0
176
     0
 90
        2
176
     1
  1
strokes_ogs.tif
176
     1
290
     0
176
     1
 40
1.0
176
     1
 40
1.0
176
     1
  0
VISUALSTYLE
  5
31
102
{ACAD_REACTORS
330
2A
102
}
330
2A
100
AcDbVisualStyle
  2
Hidden
 70
     6
177
     3
291
     0
 70
    58
 90
        1
176
     1
 90
        2
176
     1
 90
        2
176
     1
 90
        0
176
     1
 40
0.6
176
     1
 40
30.0
176
     1
 62
     7
420
 16777215
176
     1
 90
        2
176
     1
 90
        2
176
     1
 62
     7
176
     1
 62
   257
176
     1
 90
        2
176
     1
 90
        1
176
     1
 40
40.0
176
     1
 90
        0
176
     1
 62
   257
176
     1
 40
1.0
176
     1
 90
        1
176
     1
 90
        6
176
     1
 90
        2
176
     1
 62
     7
176
     1
 90
        3
176
     1
 90
        0
176
     1
 90
        0
176
     1
290
     0
176
     1
 90
        1
176
     1
 40
0.0
176
     1
 90
        0
176
     1
290
     0
176
     1
290
     1
176
     1
290
     1
176
     1
290
     0
176
     1
290
     0
176
     1
290
     0
176
     1
290
     0
176
     1
290
     0
176
     1
290
     0
176
     1
 90
       50
176
     1
 40
0.0
176
     1
 40
1.0
176
     1
 90
        0
176
     1
 62
    18
420
        0
176
     1
 90
       50
176
     1
 90
        3
176
     1
 62
     5
420
      255
176
     1
290
     0
176
     1
 90
       50
176
     1
 90
       50
176
     1
 90
       50
176
     1
290
     0
176
     1
 90
       50
176
     1
 62
   256
176
     0
 40
1.0
176
     0
 90
        2
176
     1
  1
strokes_ogs.tif
176
     1
290
     0
176
     1
 40
1.0
176
     1
 40
1.0
176
     1
  0
VISUALSTYLE
  5
3B
102
{ACAD_REACTORS
330
2A
102
}
330
2A
100
AcDbVisualStyle
  2
JitterOff
 70
    20
177
     3
291
     1
 70
    58
 90
        2
176
     0
 90
        2
176
     0
 90
        0
176
     0
 90
        0
176
     0
 40
0.6
176
     0
 40
30.0
176
     0
 62
     7
420
 16777215
176
     0
 90
        1
176
     0
 90
        4
176
     0
 62
     7
176
     0
 62
   257
176
     0
 90
        1
176
     0
 90
        1
176
     0
 40
1.0
176
     0
 90
       10
176
     2
 62
     7
176
     0
 40
1.0
176
     0
 90
        1
176
     0
 90
        6
176
     0
 90
        2
176
     0
 62
     7
176
     0
 90
        5
176
     0
 90
        0
176
     0
 90
        0
176
     0
290
     0
176
     0
 90
        1
176
     0
 40
0.0
176
     0
 90
        0
176
     0
290
     0
176
     0
290
     1
176
     0
290
     1
176
     0
290
     0
176
     0
290
     0
176
     0
290
     0
176
     0
290
     0
176
     0
290
     0
176
     0
290
     0
176
     0
 90
       50
176
     0
 40
0.0
176
     0
 40
1.0
176
     0
 90
        0
176
     0
 62
    18
420
        0
176
     0
 90
       50
176
     0
 90
        3
176
     0
 62
     5
420
      255
176
     0
290
     0
176
     0
 90
       50
176
     0
 90
       50
176
     0
 90
       50
176
     0
290
     0
176
     0
 90
       50
176
     0
 62
   256
176
     0
 40
1.0
176
     0
 90
        2
176
     0
  1
strokes_ogs.tif
176
     0
290
     0
176
     0
 40
1.0
176
     0
 40
1.0
176
     0
  0
VISUALSTYLE
  5
38
102
{ACAD_REACTORS
330
2A
102
}
330
2A
100
AcDbVisualStyle
  2
Linepattern
 70
    14
177
     3
291
     1
 70
    58
 90
        2
176
     1
 90
        2
176
     1
 90
        0
176
     1
 90
        0
176
     1
 40
0.6
176
     1
 40
30.0
176
     1
 62
     7
420
 16777215
176
     1
 90
        1
176
     1
 90
        4
176
     1
 62
     7
176
     1
 62
   257
176
     1
 90
        7
176
     1
 90
        7
176
     1
 40
1.0
176
     1
 90
        8
176
     1
 62
     7
176
     1
 40
1.0
176
     1
 90
        1
176
     1
 90
        6
176
     1
 90
        2
176
     1
 62
     7
176
     1
 90
        5
176
     1
 90
        0
176
     1
 90
        0
176
     1
290
     0
176
     1
 90
        1
176
     1
 40
0.0
176
     1
 90
        0
176
     1
290
     0
176
     1
290
     1
176
     1
290
     1
176
     1
290
     0
176
     1
290
     0
176
     1
290
     0
176
     1
290
     0
176
     1
290
     0
176
     1
290
     0
176
     1
 90
       50
176
     1
 40
0.0
176
     1
 40
1.0
176
     1
 90
        0
176
     1
 62
    18
420
        0
176
     1
 90
       50
176
     1
 90
        3
176
     1
 62
     5
420
      255
176
     1
290
     0
176
     1
 90
       50
176
     1
 90
       50
176
     1
 90
       50
176
     1
290
     0
176
     1
 90
       50
176
     1
 62
   256
176
     0
 40
1.0
176
     0
 90
        2
176
     1
  1
strokes_ogs.tif
176
     1
290
     0
176
     1
 40
1.0
176
     1
 40
1.0
176
     1
  0
VISUALSTYLE
  5
3C
102
{ACAD_REACTORS
330
2A
102
}
330
2A
100
AcDbVisualStyle
  2
OverhangOff
 70
    21
177
     3
291
     1
 70
    58
 90
        2
176
     0
 90
        2
176
     0
 90
        0
176
     0
 90
        0
176
     0
 40
0.6
176
     0
 40
30.0
176
     0
 62
     7
420
 16777215
176
     0
 90
        1
176
     0
 90
        4
176
     0
 62
     7
176
     0
 62
   257
176
     0
 90
        1
176
     0
 90
        1
176
     0
 40
1.0
176
     0
 90
        9
176
     2
 62
     7
176
     0
 40
1.0
176
     0
 90
        1
176
     0
 90
        6
176
     0
 90
        2
176
     0
 62
     7
176
     0
 90
        5
176
     0
 90
        0
176
     0
 90
        0
176
     0
290
     0
176
     0
 90
        1
176
     0
 40
0.0
176
     0
 90
        0
176
     0
290
     0
176
     0
290
     1
176
     0
290
     1
176
     0
290
     0
176
     0
290
     0
176
     0
290
     0
176
     0
290
     0
176
     0
290
     0
176
     0
290
     0
176
     0
 90
       50
176
     0
 40
0.0
176
     0
 40
1.0
176
     0
 90
        0
176
     0
 62
    18
420
        0
176
     0
 90
       50
176
     0
 90
        3
176
     0
 62
     5
420
      255
176
     0
290
     0
176
     0
 90
       50
176
     0
 90
       50
176
     0
 90
       50
176
     0
290
     0
176
     0
 90
       50
176
     0
 62
   256
176
     0
 40
1.0
176
     0
 90
        2
176
     0
  1
strokes_ogs.tif
176
     0
290
     0
176
     0
 40
1.0
176
     0
 40
1.0
176
     0
  0
VISUALSTYLE
  5
33
102
{ACAD_REACTORS
330
2A
102
}
330
2A
100
AcDbVisualStyle
  2
Realistic
 70
     8
177
     3
291
     0
 70
    58
 90
        2
176
     1
 90
        3
176
     1
 90
        0
176
     1
 90
        2
176
     1
 40
0.6
176
     1
 40
30.0
176
     1
 62
     7
420
 16777215
176
     1
 90
        0
176
     1
 90
        0
176
     1
 62
     7
176
     1
 62
   257
176
     1
 90
        1
176
     1
 90
        1
176
     1
 40
1.0
176
     1
 90
        8
176
     1
 62
   257
176
     1
 40
1.0
176
     1
 90
        1
176
     1
 90
        6
176
     1
 90
        2
176
     1
 62
     7
176
     1
 90
        3
176
     1
 90
        0
176
     1
 90
        0
176
     1
290
     0
176
     1
 90
       13
176
     1
 40
0.0
176
     1
 90
        0
176
     1
290
     0
176
     1
290
     1
176
     1
290
     1
176
     1
290
     0
176
     1
290
     0
176
     1
290
     0
176
     1
290
     0
176
     1
290
     0
176
     1
290
     0
176
     1
 90
       50
176
     1
 40
0.0
176
     1
 40
1.0
176
     1
 90
        0
176
     1
 62
    18
420
        0
176
     1
 90
       50
176
     1
 90
        3
176
     1
 62
     5
420
      255
176
     1
290
     0
176
     1
 90
       50
176
     1
 90
       50
176
     1
 90
       50
176
     1
290
     0
176
     1
 90
       50
176
     1
 62
   256
176
     0
 40
1.0
176
     0
 90
        2
176
     1
  1
strokes_ogs.tif
176
     1
290
     0
176
     1
 40
1.0
176
     1
 40
1.0
176
     1
  0
VISUALSTYLE
  5
42
102
{ACAD_REACTORS
330
2A
102
}
330
2A
100
AcDbVisualStyle
  2
Shaded
 70
    27
177
     3
291
     0
 70
    58
 90
        2
176
     1
 90
        2
176
     1
 90
        1
176
     1
 90
        2
176
     1
 40
0.6
176
     1
 40
30.0
176
     1
 62
     7
420
 16777215
176
     1
 90
        0
176
     1
 90
        4
176
     1
 62
     7
176
     1
 62
   257
176
     1
 90
        1
176
     1
 90
        1
176
     1
 40
1.0
176
     1
 90
        8
176
     1
 62
   257
176
     1
 40
1.0
176
     1
 90
        1
176
     1
 90
        6
176
     1
 90
        2
176
     1
 62
     8
420
  7895160
176
     1
 90
        3
176
     1
 90
        0
176
     1
 90
        0
176
     1
290
     0
176
     1
 90
        5
176
     1
 40
0.0
176
     1
 90
        0
176
     1
290
     0
176
     1
290
     1
176
     1
290
     1
176
     1
290
     0
176
     1
290
     0
176
     1
290
     0
176
     1
290
     0
176
     1
290
     0
176
     1
290
     0
176
     1
 90
       50
176
     1
 40
0.0
176
     1
 40
1.0
176
     1
 90
        0
176
     1
 62
    18
420
        0
176
     1
 90
       50
176
     1
 90
        3
176
     1
 62
     5
420
      255
176
     1
290
     0
176
     1
 90
       50
176
     1
 90
       50
176
     1
 90
       50
176
     1
290
     0
176
     1
 90
       50
176
     1
 62
   256
176
     0
 40
1.0
176
     0
 90
        2
176
     1
  1
strokes_ogs.tif
176
     1
290
     0
176
     1
 40
1.0
176
     1
 40
1.0
176
     1
  0
VISUALSTYLE
  5
41
102
{ACAD_REACTORS
330
2A
102
}
330
2A
100
AcDbVisualStyle
  2
Shaded with edges
 70
    26
177
     3
291
     0
 70
    58
 90
        2
176
     1
 90
        2
176
     1
 90
        1
176
     1
 90
        2
176
     1
 40
0.6
176
     1
 40
30.0
176
     1
 62
     7
420
 16777215
176
     1
 90
        1
176
     1
 90
       10
176
     1
 62
     7
176
     1
 62
   257
176
     1
 90
        2
176
     1
 90
        1
176
     1
 40
1.0
176
     1
 90
        8
176
     1
 62
   257
176
     1
 40
1.0
176
     1
 90
        1
176
     1
 90
        6
176
     1
 90
        2
176
     1
 62
     7
176
     1
 90
        3
176
     1
 90
        0
176
     1
 90
        0
176
     1
290
     0
176
     1
 90
        5
176
     1
 40
0.0
176
     1
 90
        0
176
     1
290
     0
176
     1
290
     1
176
     1
290
     1
176
     1
290
     0
176
     1
290
     0
176
     1
290
     0
176
     1
290
     0
176
     1
290
     0
176
     1
290
     0
176
     1
 90
       50
176
     1
 40
0.0
176
     1
 40
1.0
176
     1
 90
        0
176
     1
 62
    18
420
        0
176
     1
 90
       50
176
     1
 90
        3
176
     1
 62
     5
420
      255
176
     1
290
     0
176
     1
 90
       50
176
     1
 90
       50
176
     1
 90
       50
176
     1
290
     0
176
     1
 90
       50
176
     1
 62
   256
176
     0
 40
1.0
176
     0
 90
        2
176
     1
  1
strokes_ogs.tif
176
     1
290
     0
176
     1
 40
1.0
176
     1
 40
1.0
176
     1
  0
VISUALSTYLE
  5
3E
102
{ACAD_REACTORS
330
2A
102
}
330
2A
100
AcDbVisualStyle
  2
Shades of Gray
 70
    23
177
     3
291
     0
 70
    58
 90
        2
176
     1
 90
        2
176
     1
 90
        3
176
     1
 90
        0
176
     1
 40
0.6
176
     1
 40
30.0
176
     1
 62
     7
420
 16777215
176
     1
 90
        2
176
     1
 90
        2
176
     1
 62
     7
176
     1
 62
     7
176
     1
 90
        1
176
     1
 90
        1
176
     1
 40
40.0
176
     1
 90
        8
176
     1
 62
     7
176
     1
 40
1.0
176
     1
 90
        1
176
     1
 90
        6
176
     1
 90
        2
176
     1
 62
     7
176
     1
 90
        3
176
     1
 90
        0
176
     1
 90
        0
176
     1
290
     0
176
     1
 90
        1
176
     1
 40
0.0
176
     1
 90
        0
176
     1
290
     0
176
     1
290
     1
176
     1
290
     1
176
     1
290
     0
176
     1
290
     0
176
     1
290
     0
176
     1
290
     0
176
     1
290
     0
176
     1
290
     0
176
     1
 90
       50
176
     1
 40
0.0
176
     1
 40
1.0
176
     1
 90
        0
176
     1
 62
    18
420
        0
176
     1
 90
       50
176
     1
 90
        3
176
     1
 62
     5
420
      255
176
     1
290
     0
176
     1
 90
       50
176
     1
 90
       50
176
     1
 90
       50
176
     1
290
     0
176
     1
 90
       50
176
     1
 62
   256
176
     0
 40
1.0
176
     0
 90
        2
176
     1
  1
strokes_ogs.tif
176
     1
290
     0
176
     1
 40
1.0
176
     1
 40
1.0
176
     1
  0
VISUALSTYLE
  5
3F
102
{ACAD_REACTORS
330
2A
102
}
330
2A
100
AcDbVisualStyle
  2
Sketchy
 70
    24
177
     3
291
     0
 70
    58
 90
        1
176
     1
 90
        2
176
     1
 90
        2
176
     1
 90
        0
176
     1
 40
0.6
176
     1
 40
30.0
176
     1
 62
     7
420
 16777215
176
     1
 90
        2
176
     1
 90
        2
176
     1
 62
     7
176
     1
 62
     7
176
     1
 90
        1
176
     1
 90
        1
176
     1
 40
40.0
176
     1
 90
       11
176
     1
 62
     7
176
     1
 40
1.0
176
     1
 90
        1
176
     1
 90
        6
176
     1
 90
        2
176
     1
 62
     7
176
     1
 90
        6
176
     1
 90
        0
176
     1
 90
        0
176
     1
290
     0
176
     1
 90
        1
176
     1
 40
0.0
176
     1
 90
        0
176
     1
290
     0
176
     1
290
     1
176
     1
290
     1
176
     1
290
     0
176
     1
290
     0
176
     1
290
     0
176
     1
290
     0
176
     1
290
     0
176
     1
290
     0
176
     1
 90
       50
176
     1
 40
0.0
176
     1
 40
1.0
176
     1
 90
        0
176
     1
 62
    18
420
        0
176
     1
 90
       50
176
     1
 90
        3
176
     1
 62
     5
420
      255
176
     1
290
     0
176
     1
 90
       50
176
     1
 90
       50
176
     1
 90
       50
176
     1
290
     0
176
     1
 90
       50
176
     1
 62
   256
176
     0
 40
1.0
176
     0
 90
        2
176
     1
  1
strokes_ogs.tif
176
     1
290
     0
176
     1
 40
1.0
176
     1
 40
1.0
176
     1
  0
VISUALSTYLE
  5
37
102
{ACAD_REACTORS
330
2A
102
}
330
2A
100
AcDbVisualStyle
  2
Thicken
 70
    13
177
     3
291
     1
 70
    58
 90
        2
176
     1
 90
        2
176
     1
 90
        0
176
     1
 90
        0
176
     1
 40
0.6
176
     1
 40
30.0
176
     1
 62
     7
420
 16777215
176
     1
 90
        1
176
     1
 90
        4
176
     1
 62
     7
176
     1
 62
   257
176
     1
 90
        1
176
     1
 90
        1
176
     1
 40
1.0
176
     1
 90
       12
176
     1
 62
     7
176
     1
 40
1.0
176
     1
 90
        1
176
     1
 90
        6
176
     1
 90
        2
176
     1
 62
     7
176
     1
 90
        5
176
     1
 90
        0
176
     1
 90
        0
176
     1
290
     0
176
     1
 90
        1
176
     1
 40
0.0
176
     1
 90
        0
176
     1
290
     0
176
     1
290
     1
176
     1
290
     1
176
     1
290
     0
176
     1
290
     0
176
     1
290
     0
176
     1
290
     0
176
     1
290
     0
176
     1
290
     0
176
     1
 90
       50
176
     1
 40
0.0
176
     1
 40
1.0
176
     1
 90
        0
176
     1
 62
    18
420
        0
176
     1
 90
       50
176
     1
 90
        3
176
     1
 62
     5
420
      255
176
     1
290
     0
176
     1
 90
       50
176
     1
 90
       50
176
     1
 90
       50
176
     1
290
     0
176
     1
 90
       50
176
     1
 62
   256
176
     0
 40
1.0
176
     0
 90
        2
176
     1
  1
strokes_ogs.tif
176
     1
290
     0
176
     1
 40
1.0
176
     1
 40
1.0
176
     1
  0
VISUALSTYLE
  5
30
102
{ACAD_REACTORS
330
2A
102
}
330
2A
100
AcDbVisualStyle
  2
Wireframe
 70
     5
177
     3
291
     0
 70
    58
 90
        0
176
     1
 90
        2
176
     1
 90
        0
176
     1
 90
        0
176
     1
 40
0.6
176
     1
 40
30.0
176
     1
 62
     7
420
 16777215
176
     1
 90
        1
176
     1
 90
        4
176
     1
 62
     7
176
     1
 62
   257
176
     1
 90
        1
176
     1
 90
        1
176
     1
 40
1.0
176
     1
 90
        0
176
     1
 62
   257
176
     1
 40
1.0
176
     1
 90
        1
176
     1
 90
        6
176
     1
 90
        2
176
     1
 62
     7
176
     1
 90
        3
176
     1
 90
        0
176
     1
 90
        0
176
     1
290
     0
176
     1
 90
        1
176
     1
 40
0.0
176
     1
 90
        0
176
     1
290
     0
176
     1
290
     1
176
     1
290
     1
176
     1
290
     0
176
     1
290
     0
176
     1
290
     0
176
     1
290
     0
176
     1
290
     0
176
     1
290
     0
176
     1
 90
       50
176
     1
 40
0.0
176
     1
 40
1.0
176
     1
 90
        0
176
     1
 62
    18
420
        0
176
     1
 90
       50
176
     1
 90
        3
176
     1
 62
     5
420
      255
176
     1
290
     0
176
     1
 90
       50
176
     1
 90
       50
176
     1
 90
       50
176
     1
290
     0
176
     1
 90
       50
176
     1
 62
   256
176
     0
 40
1.0
176
     0
 90
        2
176
     1
  1
strokes_ogs.tif
176
     1
290
     0
176
     1
 40
1.0
176
     1
 40
1.0
176
     1
  0
VISUALSTYLE
  5
40
102
{ACAD_REACTORS
330
2A
102
}
330
2A
100
AcDbVisualStyle
  2
X-Ray
 70
    25
177
     3
291
     0
 70
    58
 90
        2
176
     1
 90
        2
176
     1
 90
        1
176
     1
 90
        1
176
     1
 40
0.5
176
     1
 40
30.0
176
     1
 62
     7
420
 16777215
176
     1
 90
        1
176
     1
 90
        0
176
     1
 62
     7
176
     1
 62
   257
176
     1
 90
        1
176
     1
 90
        1
176
     1
 40
1.0
176
     1
 90
        8
176
     1
 62
     7
176
     1
 40
1.0
176
     1
 90
        1
176
     1
 90
        6
176
     1
 90
        2
176
     1
 62
     7
176
     1
 90
        3
176
     1
 90
        0
176
     1
 90
        0
176
     1
290
     0
176
     1
 90
       13
176
     1
 40
0.0
176
     1
 90
        0
176
     1
290
     0
176
     1
290
     1
176
     1
290
     1
176
     1
290
     0
176
     1
290
     0
176
     1
290
     0
176
     1
290
     0
176
     1
290
     0
176
     1
290
     0
176
     1
 90
       50
176
     1
 40
0.0
176
     1
 40
1.0
176
     1
 90
        0
176
     1
 62
    18
420
        0
176
     1
 90
       50
176
     1
 90
        3
176
     1
 62
     5
420
      255
176
     1
290
     0
176
     1
 90
       50
176
     1
 90
       50
176
     1
 90
       50
176
     1
290
     0
176
     1
 90
       50
176
     1
 62
   256
176
     0
 40
1.0
176
     0
 90
        2
176
     1
  1
strokes_ogs.tif
176
     1
290
     0
176
     1
 40
1.0
176
     1
 40
1.0
176
     1
  0
DICTIONARYVAR
  5
34B
102
{ACAD_REACTORS
330
34A
102
}
330
34A
100
DictionaryVariables
280
     0
  1
1:1
  0
DICTIONARYVAR
  5
350
102
{ACAD_REACTORS
330
34A
102
}
330
34A
100
DictionaryVariables
280
     0
  1
Standard
  0
DICTIONARYVAR
  5
34F
102
{ACAD_REACTORS
330
34A
102
}
330
34A
100
DictionaryVariables
280
     0
  1
Standard
  0
DICTIONARYVAR
  5
353
102
{ACAD_REACTORS
330
34A
102
}
330
34A
100
DictionaryVariables
280
     0
  1
6.000000
  0
DICTIONARY
  5
34C
330
6A
100
AcDbDictionary
280
     1
281
     1
  3
ACAD_ROUNDTRIP_2008_TABLESTYLE_CELLSTYLEMAP
360
34D
  0
CELLSTYLEMAP
  5
34D
102
{ACAD_REACTORS
330
34C
102
}
330
34C
100
AcDbCellStyleMap
 90
        3
300
CELLSTYLE
  1
TABLEFORMAT_BEGIN
 90
        5
170
     1
 91
        0
 92
    32768
 62
   257
 93
        1
300
CONTENTFORMAT
  1
CONTENTFORMAT_BEGIN
 90
        0
 91
        0
 92
        4
 93
        0
300

 40
0.0
140
1.0
 94
        5
 62
     0
340
11
144
6.0
309
CONTENTFORMAT_END
171
     1
301
MARGIN
  1
CELLMARGIN_BEGIN
 40
1.5
 40
1.5
 40
1.5
 40
1.5
 40
1.5
 40
1.5
309
CELLMARGIN_END
 94
        6
 95
        1
302
GRIDFORMAT
  1
GRIDFORMAT_BEGIN
 90
        0
 91
        1
 62
     0
 92
       -2
340
14
 93
        0
 40
0.045
309
GRIDFORMAT_END
 95
        2
302
GRIDFORMAT
  1
GRIDFORMAT_BEGIN
 90
        0
 91
        1
 62
     0
 92
       -2
340
14
 93
        0
 40
0.045
309
GRIDFORMAT_END
 95
        4
302
GRIDFORMAT
  1
GRIDFORMAT_BEGIN
 90
        0
 91
        1
 62
     0
 92
       -2
340
14
 93
        0
 40
0.045
309
GRIDFORMAT_END
 95
        8
302
GRIDFORMAT
  1
GRIDFORMAT_BEGIN
 90
        0
 91
        1
 62
     0
 92
       -2
340
14
 93
        0
 40
0.045
309
GRIDFORMAT_END
 95
       16
302
GRIDFORMAT
  1
GRIDFORMAT_BEGIN
 90
        0
 91
        1
 62
     0
 92
       -2
340
14
 93
        0
 40
0.045
309
GRIDFORMAT_END
 95
       32
302
GRIDFORMAT
  1
GRIDFORMAT_BEGIN
 90
        0
 91
        1
 62
     0
 92
       -2
340
14
 93
        0
 40
0.045
309
GRIDFORMAT_END
309
TABLEFORMAT_END
  1
CELLSTYLE_BEGIN
 90
        1
 91
        1
300
_TITLE
309
CELLSTYLE_END
300
CELLSTYLE
  1
TABLEFORMAT_BEGIN
 90
        5
170
     1
 91
        0
 92
        0
 62
   257
 93
        1
300
CONTENTFORMAT
  1
CONTENTFORMAT_BEGIN
 90
        0
 91
        0
 92
        4
 93
        0
300

 40
0.0
140
1.0
 94
        5
 62
     0
340
11
144
4.5
309
CONTENTFORMAT_END
171
     1
301
MARGIN
  1
CELLMARGIN_BEGIN
 40
1.5
 40
1.5
 40
1.5
 40
1.5
 40
1.5
 40
1.5
309
CELLMARGIN_END
 94
        6
 95
        1
302
GRIDFORMAT
  1
GRIDFORMAT_BEGIN
 90
        0
 91
        1
 62
     0
 92
       -2
340
14
 93
        0
 40
0.045
309
GRIDFORMAT_END
 95
        2
302
GRIDFORMAT
  1
GRIDFORMAT_BEGIN
 90
        0
 91
        1
 62
     0
 92
       -2
340
14
 93
        0
 40
0.045
309
GRIDFORMAT_END
 95
        4
302
GRIDFORMAT
  1
GRIDFORMAT_BEGIN
 90
        0
 91
        1
 62
     0
 92
       -2
340
14
 93
        0
 40
0.045
309
GRIDFORMAT_END
 95
        8
302
GRIDFORMAT
  1
GRIDFORMAT_BEGIN
 90
        0
 91
        1
 62
     0
 92
       -2
340
14
 93
        0
 40
0.045
309
GRIDFORMAT_END
 95
       16
302
GRIDFORMAT
  1
GRIDFORMAT_BEGIN
 90
        0
 91
        1
 62
     0
 92
       -2
340
14
 93
        0
 40
0.045
309
GRIDFORMAT_END
 95
       32
302
GRIDFORMAT
  1
GRIDFORMAT_BEGIN
 90
        0
 91
        1
 62
     0
 92
       -2
340
14
 93
        0
 40
0.045
309
GRIDFORMAT_END
309
TABLEFORMAT_END
  1
CELLSTYLE_BEGIN
 90
        2
 91
        1
300
_HEADER
309
CELLSTYLE_END
300
CELLSTYLE
  1
TABLEFORMAT_BEGIN
 90
        5
170
     1
 91
        0
 92
        0
 62
   257
 93
        1
300
CONTENTFORMAT
  1
CONTENTFORMAT_BEGIN
 90
        0
 91
        0
 92
        4
 93
        0
300

 40
0.0
140
1.0
 94
        2
 62
     0
340
11
144
4.5
309
CONTENTFORMAT_END
171
     1
301
MARGIN
  1
CELLMARGIN_BEGIN
 40
1.5
 40
1.5
 40
1.5
 40
1.5
 40
1.5
 40
1.5
309
CELLMARGIN_END
 94
        6
 95
        1
302
GRIDFORMAT
  1
GRIDFORMAT_BEGIN
 90
        0
 91
        1
 62
     0
 92
       -2
340
14
 93
        0
 40
0.045
309
GRIDFORMAT_END
 95
        2
302
GRIDFORMAT
  1
GRIDFORMAT_BEGIN
 90
        0
 91
        1
 62
     0
 92
       -2
340
14
 93
        0
 40
0.045
309
GRIDFORMAT_END
 95
        4
302
GRIDFORMAT
  1
GRIDFORMAT_BEGIN
 90
        0
 91
        1
 62
     0
 92
       -2
340
14
 93
        0
 40
0.045
309
GRIDFORMAT_END
 95
        8
302
GRIDFORMAT
  1
GRIDFORMAT_BEGIN
 90
        0
 91
        1
 62
     0
 92
       -2
340
14
 93
        0
 40
0.045
309
GRIDFORMAT_END
 95
       16
302
GRIDFORMAT
  1
GRIDFORMAT_BEGIN
 90
        0
 91
        1
 62
     0
 92
       -2
340
14
 93
        0
 40
0.045
309
GRIDFORMAT_END
 95
       32
302
GRIDFORMAT
  1
GRIDFORMAT_BEGIN
 90
        0
 91
        1
 62
     0
 92
       -2
340
14
 93
        0
 40
0.045
309
GRIDFORMAT_END
309
TABLEFORMAT_END
  1
CELLSTYLE_BEGIN
 90
        3
 91
        2
300
_DATA
309
CELLSTYLE_END
  0
ENDSEC
  0
EOF
