  0
SECTION
  2
HEADER
  9
$ACADVER
  1
AC1015
  9
$ACADMAINTVER
 70
     6
  9
$DWGCODEPAGE
  3
ANSI_1252
  9
$INSBASE
 10
0.0
 20
0.0
 30
0.0
  9
$EXTMIN
 10
-380.214593
 20
-247.177159
 30
0.0
  9
$EXTMAX
 10
807.785407
 20
592.822841
 30
0.0
  9
$LIMMIN
 10
-380.214593
 20
-247.177159
  9
$LIMMAX
 10
807.785407
 20
592.822841
  9
$ORTHOMODE
 70
     0
  9
$REGENMODE
 70
     1
  9
$FILLMODE
 70
     1
  9
$QTEXTMODE
 70
     0
  9
$MIRRTEXT
 70
     1
  9
$LTSCALE
 40
2.0
  9
$ATTMODE
 70
     1
  9
$TEXTSIZE
 40
2.5
  9
$TRACEWID
 40
1.0
  9
$TEXTSTYLE
  7
Standard
  9
$CLAYER
  8
0
  9
$CELTYPE
  6
ByLayer
  9
$CECOLOR
 62
     7
  9
$CELTSCALE
 40
1.0
  9
$DISPSILH
 70
     0
  9
$DIMSCALE
 40
2.0
  9
$DIMASZ
 40
3.5
  9
$DIMEXO
 40
0.625
  9
$DIMDLI
 40
3.75
  9
$DIMRND
 40
0.0
  9
$DIMDLE
 40
0.0
  9
$DIMEXE
 40
1.25
  9
$DIMTP
 40
0.0
  9
$DIMTM
 40
0.0
  9
$DIMTXT
 40
3.5
  9
$DIMCEN
 40
2.5
  9
$DIMTSZ
 40
0.0
  9
$DIMTOL
 70
     0
  9
$DIMLIM
 70
     0
  9
$DIMTIH
 70
     0
  9
$DIMTOH
 70
     0
  9
$DIMSE1
 70
     0
  9
$DIMSE2
 70
     0
  9
$DIMTAD
 70
     1
  9
$DIMZIN
 70
     8
  9
$DIMBLK
  1

  9
$DIMASO
 70
     1
  9
$DIMSHO
 70
     1
  9
$DIMPOST
  1

  9
$DIMAPOST
  1

  9
$DIMALT
 70
     0
  9
$DIMALTD
 70
     3
  9
$DIMALTF
 40
0.03937
  9
$DIMLFAC
 40
1.0
  9
$DIMTOFL
 70
     1
  9
$DIMTVP
 40
0.0
  9
$DIMTIX
 70
     0
  9
$DIMSOXD
 70
     0
  9
$DIMSAH
 70
     0
  9
$DIMBLK1
  1

  9
$DIMBLK2
  1

  9
$DIMSTYLE
  2
ISO-25
  9
$DIMCLRD
 70
     0
  9
$DIMCLRE
 70
     0
  9
$DIMCLRT
 70
     0
  9
$DIMTFAC
 40
1.0
  9
$DIMGAP
 40
0.625
  9
$DIMJUST
 70
     0
  9
$DIMSD1
 70
     0
  9
$DIMSD2
 70
     0
  9
$DIMTOLJ
 70
     0
  9
$DIMTZIN
 70
     8
  9
$DIMALTZ
 70
     0
  9
$DIMALTTZ
 70
     0
  9
$DIMUPT
 70
     0
  9
$DIMDEC
 70
     2
  9
$DIMTDEC
 70
     2
  9
$DIMALTU
 70
     2
  9
$DIMALTTD
 70
     3
  9
$DIMTXSTY
  7
Standard
  9
$DIMAUNIT
 70
     0
  9
$DIMADEC
 70
     0
  9
$DIMALTRND
 40
0.0
  9
$DIMAZIN
 70
     0
  9
$DIMDSEP
 70
    44
  9
$DIMATFIT
 70
     3
  9
$DIMFRAC
 70
     0
  9
$DIMLDRBLK
  1

  9
$DIMLUNIT
 70
     2
  9
$DIMLWD
 70
    -2
  9
$DIMLWE
 70
    -2
  9
$DIMTMOVE
 70
     0
  9
$LUNITS
 70
     2
  9
$LUPREC
 70
     4
  9
$SKETCHINC
 40
1.0
  9
$FILLETRAD
 40
10.0
  9
$AUNITS
 70
     0
  9
$AUPREC
 70
     0
  9
$MENU
  1
.
  9
$ELEVATION
 40
0.0
  9
$PELEVATION
 40
0.0
  9
$THICKNESS
 40
0.0
  9
$LIMCHECK
 70
     0
  9
$CHAMFERA
 40
10.0
  9
$CHAMFERB
 40
10.0
  9
$CHAMFERC
 40
20.0
  9
$CHAMFERD
 40
0.0
  9
$SKPOLY
 70
     0
  9
$TDCREATE
 40
2456014.434323056
  9
$TDUCREATE
 40
2456014.350989722
  9
$TDUPDATE
 40
2456014.434323067
  9
$TDUUPDATE
 40
2456014.350989734
  9
$TDINDWG
 40
0.0000000116
  9
$TDUSRTIMER
 40
0.0000000116
  9
$USRTIMER
 70
     1
  9
$ANGBASE
 50
0.0
  9
$ANGDIR
 70
     0
  9
$PDMODE
 70
     0
  9
$PDSIZE
 40
0.0
  9
$PLINEWID
 40
0.0
  9
$SPLFRAME
 70
     0
  9
$SPLINETYPE
 70
     6
  9
$SPLINESEGS
 70
     8
  9
$HANDSEED
  5
621
  9
$SURFTAB1
 70
     6
  9
$SURFTAB2
 70
     6
  9
$SURFTYPE
 70
     6
  9
$SURFU
 70
     6
  9
$SURFV
 70
     6
  9
$UCSBASE
  2

  9
$UCSNAME
  2

  9
$UCSORG
 10
0.0
 20
0.0
 30
0.0
  9
$UCSXDIR
 10
1.0
 20
0.0
 30
0.0
  9
$UCSYDIR
 10
0.0
 20
1.0
 30
0.0
  9
$UCSORTHOREF
  2

  9
$UCSORTHOVIEW
 70
     0
  9
$UCSORGTOP
 10
0.0
 20
0.0
 30
0.0
  9
$UCSORGBOTTOM
 10
0.0
 20
0.0
 30
0.0
  9
$UCSORGLEFT
 10
0.0
 20
0.0
 30
0.0
  9
$UCSORGRIGHT
 10
0.0
 20
0.0
 30
0.0
  9
$UCSORGFRONT
 10
0.0
 20
0.0
 30
0.0
  9
$UCSORGBACK
 10
0.0
 20
0.0
 30
0.0
  9
$PUCSBASE
  2

  9
$PUCSNAME
  2

  9
$PUCSORG
 10
0.0
 20
0.0
 30
0.0
  9
$PUCSXDIR
 10
1.0
 20
0.0
 30
0.0
  9
$PUCSYDIR
 10
0.0
 20
1.0
 30
0.0
  9
$PUCSORTHOREF
  2

  9
$PUCSORTHOVIEW
 70
     0
  9
$PUCSORGTOP
 10
0.0
 20
0.0
 30
0.0
  9
$PUCSORGBOTTOM
 10
0.0
 20
0.0
 30
0.0
  9
$PUCSORGLEFT
 10
0.0
 20
0.0
 30
0.0
  9
$PUCSORGRIGHT
 10
0.0
 20
0.0
 30
0.0
  9
$PUCSORGFRONT
 10
0.0
 20
0.0
 30
0.0
  9
$PUCSORGBACK
 10
0.0
 20
0.0
 30
0.0
  9
$USERI1
 70
     0
  9
$USERI2
 70
     0
  9
$USERI3
 70
     0
  9
$USERI4
 70
     0
  9
$USERI5
 70
     0
  9
$USERR1
 40
0.0
  9
$USERR2
 40
0.0
  9
$USERR3
 40
0.0
  9
$USERR4
 40
0.0
  9
$USERR5
 40
0.0
  9
$WORLDVIEW
 70
     1
  9
$SHADEDGE
 70
     3
  9
$SHADEDIF
 70
    70
  9
$TILEMODE
 70
     1
  9
$MAXACTVP
 70
    64
  9
$PINSBASE
 10
0.0
 20
0.0
 30
0.0
  9
$PLIMCHECK
 70
     0
  9
$PEXTMIN
 10
-380.214593
 20
-247.177159
 30
0.0
  9
$PEXTMAX
 10
807.785407
 20
592.822841
 30
0.0
  9
$PLIMMIN
 10
-380.214593
 20
-247.177159
  9
$PLIMMAX
 10
807.785407
 20
592.822841
  9
$UNITMODE
 70
     0
  9
$VISRETAIN
 70
     1
  9
$PLINEGEN
 70
     0
  9
$PSLTSCALE
 70
     1
  9
$TREEDEPTH
 70
  3020
  9
$CMLSTYLE
  2
Standard
  9
$CMLJUST
 70
     0
  9
$CMLSCALE
 40
20.0
  9
$PROXYGRAPHICS
 70
     1
  9
$MEASUREMENT
 70
     1
  9
$CELWEIGHT
370
    -1
  9
$ENDCAPS
280
     0
  9
$JOINSTYLE
280
     0
  9
$LWDISPLAY
290
     0
  9
$INSUNITS
 70
     4
  9
$HYPERLINKBASE
  1

  9
$STYLESHEET
  1

  9
$XEDIT
290
     1
  9
$CEPSNTYPE
380
     0
  9
$PSTYLEMODE
290
     1
  9
$FINGERPRINTGUID
  2
{FAEB1C30-E019-11D5-929B-00C0DF256EC4}
  9
$VERSIONGUID
  2
{FAEB1C32-E019-11D5-929B-00C0DF256EC4}
  9
$EXTNAMES
290
     1
  9
$PSVPSCALE
 40
0.0
  9
$OLESTARTUP
290
     0
  0
ENDSEC
  0
SECTION
  2
CLASSES
  0
CLASS
  1
ACDBDICTIONARYWDFLT
  2
AcDbDictionaryWithDefault
  3
ObjectDBX Classes
 90
        0
280
     0
281
     0
  0
CLASS
  1
ACDBPLACEHOLDER
  2
AcDbPlaceHolder
  3
ObjectDBX Classes
 90
        0
280
     0
281
     0
  0
CLASS
  1
LAYOUT
  2
AcDbLayout
  3
ObjectDBX Classes
 90
        0
280
     0
281
     0
  0
ENDSEC
  0
SECTION
  2
TABLES
  0
TABLE
  2
VPORT
  5
8
330
0
100
AcDbSymbolTable
 70
     2
  0
VPORT
  5
29
330
8
100
AcDbSymbolTableRecord
100
AcDbViewportTableRecord
  2
*ACTIVE
 70
     0
 10
0.0
 20
0.0
 11
1.0
 21
1.0
 12
213.785407
 22
172.822841
 13
0.0
 23
0.0
 14
1.0
 24
1.0
 15
0.0
 25
0.0
 16
0.0
 26
0.0
 36
1.0
 17
0.0
 27
0.0
 37
0.0
 40
840.0
 41
1.414286
 42
50.0
 43
0.0
 44
0.0
 50
0.0
 51
0.0
 71
    16
 72
   100
 73
     1
 74
     0
 75
     0
 76
     0
 77
     0
 78
     0
281
     0
 65
     0
110
0.0
120
0.0
130
0.0
111
1.0
121
0.0
131
0.0
112
0.0
122
1.0
132
0.0
 79
     0
146
0.0
  0
ENDTAB
  0
TABLE
  2
LTYPE
  5
5
330
0
100
AcDbSymbolTable
 70
     3
  0
LTYPE
  5
14
330
5
100
AcDbSymbolTableRecord
100
AcDbLinetypeTableRecord
  2
ByBlock
 70
     0
  3

 72
    65
 73
     0
 40
0.0
  0
LTYPE
  5
15
330
5
100
AcDbSymbolTableRecord
100
AcDbLinetypeTableRecord
  2
ByLayer
 70
     0
  3

 72
    65
 73
     0
 40
0.0
  0
LTYPE
  5
16
330
5
100
AcDbSymbolTableRecord
100
AcDbLinetypeTableRecord
  2
Continuous
 70
     0
  3
Solid line
 72
    65
 73
     0
 40
0.0
  0
LTYPE
  5
2A
330
5
100
AcDbSymbolTableRecord
100
AcDbLinetypeTableRecord
  2
DASHED
 70
     0
  3
__ __ __ __ __
 72
    65
 73
     2
 40
6.25
 49
5.0
 74
     4
 75
     0
340
0
 46
1.0
 50
0.0
 44
0.0
 45
0.0
 49
-1.25
 74
     4
 75
     0
340
0
 46
1.0
 50
0.0
 44
0.0
 45
0.0
  0
LTYPE
  5
E6
330
5
100
AcDbSymbolTableRecord
100
AcDbLinetypeTableRecord
  2
DASHDOT
 70
     0
  3
__ . __ . __ . __ . __
 72
    65
 73
     4
 40
7.5
 49
5.0
 74
     4
 75
     0
340
0
 46
1.0
 50
0.0
 44
0.0
 45
0.0
 49
-1.25
 74
     4
 75
     0
340
0
 46
1.0
 50
0.0
 44
0.0
 45
0.0
 49
0.0
 74
     4
 75
     0
340
0
 46
1.0
 50
0.0
 44
0.0
 45
0.0
 49
-1.25
 74
     4
 75
     0
340
0
 46
1.0
 50
0.0
 44
0.0
 45
0.0
  0
ENDTAB
  0
TABLE
  2
LAYER
  5
2
330
0
100
AcDbSymbolTable
 70
     9
  0
LAYER
  5
10
330
2
100
AcDbSymbolTableRecord
100
AcDbLayerTableRecord
  2
0
 70
     0
 62
     7
  6
Continuous
370
    -3
390
F
  0
LAYER
  5
2B
330
2
100
AcDbSymbolTableRecord
100
AcDbLayerTableRecord
  2
LC-INFO-1-2-mm-A2-0
 70
     1
 62
     7
  6
ByBlock
370
    -3
390
F
  0
LAYER
  5
2C
330
2
100
AcDbSymbolTableRecord
100
AcDbLayerTableRecord
  2
LC-CUT-HIDDEN
 70
     0
 62
     7
  6
DASHED
370
    -3
390
F
  0
LAYER
  5
2D
330
2
100
AcDbSymbolTableRecord
100
AcDbLayerTableRecord
  2
LC-VIEWPORT
 70
     0
 62
     7
  6
ByBlock
370
    -3
390
F
  0
LAYER
  5
2E
330
2
100
AcDbSymbolTableRecord
100
AcDbLayerTableRecord
  2
LC-3D-HIDDEN
 70
     0
 62
     9
  6
DASHED
370
    -3
390
F
  0
LAYER
  5
30
330
2
100
AcDbSymbolTableRecord
100
AcDbLayerTableRecord
  2
LC-001-002-----0
 70
     0
 62
     1
  6
ByBlock
370
    -3
390
F
  0
LAYER
  5
32
330
2
100
AcDbSymbolTableRecord
100
AcDbLayerTableRecord
  2
LC-002-100-D00-0
 70
     0
 62
     1
  6
ByBlock
370
    -3
390
F
  0
LAYER
  5
D9
330
2
100
AcDbSymbolTableRecord
100
AcDbLayerTableRecord
  2
Defpoints
 70
     0
 62
     7
  6
Continuous
290
     0
370
    -3
390
F
  0
LAYER
  5
606
330
2
100
AcDbSymbolTableRecord
100
AcDbLayerTableRecord
  2
LC-003-003-----0
 70
     0
 62
     2
  6
ByBlock
370
    -3
390
F
  0
ENDTAB
  0
TABLE
  2
STYLE
  5
3
330
0
100
AcDbSymbolTable
 70
     3
  0
STYLE
  5
11
330
3
100
AcDbSymbolTableRecord
100
AcDbTextStyleTableRecord
  2
Standard
 70
     0
 40
0.0
 41
1.0
 50
0.0
 71
     0
 42
2.5
  3
txt
  4

  0
STYLE
  5
2F
330
3
100
AcDbSymbolTableRecord
100
AcDbTextStyleTableRecord
  2
LCTX15-400-0-0-Arial
 70
     0
 40
0.0
 41
0.8
 50
0.0
 71
     0
 42
3.5
  3

  4

1001
ACAD
1000
Arial
1071
 16777218
  0
STYLE
  5
D6
330
3
100
AcDbSymbolTableRecord
100
AcDbTextStyleTableRecord
  2
LCTX15-400-0-0pDIN-Schrift
 70
     0
 40
2.5
 41
0.8
 50
15.0
 71
     0
 42
3.5
  3
STANDARD
  4

  0
ENDTAB
  0
TABLE
  2
VIEW
  5
6
330
0
100
AcDbSymbolTable
 70
     0
  0
ENDTAB
  0
TABLE
  2
UCS
  5
7
330
0
100
AcDbSymbolTable
 70
     0
  0
ENDTAB
  0
TABLE
  2
APPID
  5
9
330
0
100
AcDbSymbolTable
 70
     1
  0
APPID
  5
12
330
9
100
AcDbSymbolTableRecord
100
AcDbRegAppTableRecord
  2
ACAD
 70
     0
  0
ENDTAB
  0
TABLE
  2
DIMSTYLE
  5
A
330
0
100
AcDbSymbolTable
 70
     2
100
AcDbDimStyleTable
  0
DIMSTYLE
105
27
330
A
100
AcDbSymbolTableRecord
100
AcDbDimStyleTableRecord
  2
ISO-25
 70
     0
 41
2.5
 42
0.625
 43
3.75
 44
1.25
 73
     0
 74
     0
 77
     1
 78
     8
140
2.5
141
2.5
143
0.03937
147
0.625
171
     3
172
     1
271
     2
272
     2
274
     3
278
    44
283
     0
284
     8
340
11
  0
DIMSTYLE
105
D7
102
{ACAD_REACTORS
330
D8
330
1EE
330
1FC
330
20B
330
518
330
525
330
532
330
53F
330
54C
330
559
330
566
330
607
330
614
102
}
330
A
100
AcDbSymbolTableRecord
100
AcDbDimStyleTableRecord
  2
LC-DIM-L-0100-02-02
 70
     0
 40
2.0
 41
10.0
 42
0.0
 43
7.5
 44
1.8
 73
     0
 74
     0
 77
     1
 78
     8
 79
     2
140
10.0
141
0.0
146
0.71
147
1.5
176
     2
177
     2
178
     2
179
     2
271
     2
278
    44
289
     1
340
D6
  0
ENDTAB
  0
TABLE
  2
BLOCK_RECORD
  5
1
330
0
100
AcDbSymbolTable
 70
    48
  0
BLOCK_RECORD
  5
1F
330
1
100
AcDbSymbolTableRecord
100
AcDbBlockTableRecord
  2
*Model_Space
340
22
  0
BLOCK_RECORD
  5
1B
330
1
100
AcDbSymbolTableRecord
100
AcDbBlockTableRecord
  2
*Paper_Space
340
1E
  0
BLOCK_RECORD
  5
23
330
1
100
AcDbSymbolTableRecord
100
AcDbBlockTableRecord
  2
*Paper_Space0
340
26
  0
BLOCK_RECORD
  5
DA
330
1
100
AcDbSymbolTableRecord
100
AcDbBlockTableRecord
  2
*D1
340
0
  0
BLOCK_RECORD
  5
104
330
1
100
AcDbSymbolTableRecord
100
AcDbBlockTableRecord
  2
KLON1
340
0
102
{BLKREFS
331
109
102
}
  0
BLOCK_RECORD
  5
10B
330
1
100
AcDbSymbolTableRecord
100
AcDbBlockTableRecord
  2
KLON2
340
0
102
{BLKREFS
331
111
102
}
  0
BLOCK_RECORD
  5
112
330
1
100
AcDbSymbolTableRecord
100
AcDbBlockTableRecord
  2
KLON3
340
0
102
{BLKREFS
331
119
102
}
  0
BLOCK_RECORD
  5
11B
330
1
100
AcDbSymbolTableRecord
100
AcDbBlockTableRecord
  2
KLON4
340
0
102
{BLKREFS
331
120
102
}
  0
BLOCK_RECORD
  5
121
330
1
100
AcDbSymbolTableRecord
100
AcDbBlockTableRecord
  2
KLON5
340
0
102
{BLKREFS
331
126
102
}
  0
BLOCK_RECORD
  5
127
330
1
100
AcDbSymbolTableRecord
100
AcDbBlockTableRecord
  2
KLON6
340
0
102
{BLKREFS
331
12C
102
}
  0
BLOCK_RECORD
  5
12E
330
1
100
AcDbSymbolTableRecord
100
AcDbBlockTableRecord
  2
KLON7
340
0
102
{BLKREFS
331
135
102
}
  0
BLOCK_RECORD
  5
136
330
1
100
AcDbSymbolTableRecord
100
AcDbBlockTableRecord
  2
KLON8
340
0
102
{BLKREFS
331
13C
102
}
  0
BLOCK_RECORD
  5
14B
330
1
100
AcDbSymbolTableRecord
100
AcDbBlockTableRecord
  2
KLON9
340
0
102
{BLKREFS
331
150
102
}
  0
BLOCK_RECORD
  5
151
330
1
100
AcDbSymbolTableRecord
100
AcDbBlockTableRecord
  2
KLON10
340
0
102
{BLKREFS
331
156
102
}
  0
BLOCK_RECORD
  5
158
330
1
100
AcDbSymbolTableRecord
100
AcDbBlockTableRecord
  2
KLON11
340
0
102
{BLKREFS
331
15D
102
}
  0
BLOCK_RECORD
  5
15E
330
1
100
AcDbSymbolTableRecord
100
AcDbBlockTableRecord
  2
KLON12
340
0
102
{BLKREFS
331
163
102
}
  0
BLOCK_RECORD
  5
1EF
330
1
100
AcDbSymbolTableRecord
100
AcDbBlockTableRecord
  2
*D14
340
0
  0
BLOCK_RECORD
  5
1FD
330
1
100
AcDbSymbolTableRecord
100
AcDbBlockTableRecord
  2
*D15
340
0
  0
BLOCK_RECORD
  5
20C
330
1
100
AcDbSymbolTableRecord
100
AcDbBlockTableRecord
  2
*D16
340
0
  0
BLOCK_RECORD
  5
379
330
1
100
AcDbSymbolTableRecord
100
AcDbBlockTableRecord
  2
KLON13
340
0
102
{BLKREFS
331
389
102
}
  0
BLOCK_RECORD
  5
38A
330
1
100
AcDbSymbolTableRecord
100
AcDbBlockTableRecord
  2
KLON14
340
0
102
{BLKREFS
331
39D
102
}
  0
BLOCK_RECORD
  5
3A1
330
1
100
AcDbSymbolTableRecord
100
AcDbBlockTableRecord
  2
KLON15
340
0
102
{BLKREFS
331
3A6
102
}
  0
BLOCK_RECORD
  5
4BB
330
1
100
AcDbSymbolTableRecord
100
AcDbBlockTableRecord
  2
KLON16
340
0
102
{BLKREFS
331
4C4
102
}
  0
BLOCK_RECORD
  5
4C5
330
1
100
AcDbSymbolTableRecord
100
AcDbBlockTableRecord
  2
KLON17
340
0
102
{BLKREFS
331
4CE
102
}
  0
BLOCK_RECORD
  5
4E8
330
1
100
AcDbSymbolTableRecord
100
AcDbBlockTableRecord
  2
KLON18
340
0
102
{BLKREFS
331
4F0
102
}
  0
BLOCK_RECORD
  5
4F1
330
1
100
AcDbSymbolTableRecord
100
AcDbBlockTableRecord
  2
KLON19
340
0
102
{BLKREFS
331
4FD
102
}
  0
BLOCK_RECORD
  5
4FE
330
1
100
AcDbSymbolTableRecord
100
AcDbBlockTableRecord
  2
KLON20
340
0
102
{BLKREFS
331
50A
102
}
  0
BLOCK_RECORD
  5
519
330
1
100
AcDbSymbolTableRecord
100
AcDbBlockTableRecord
  2
*D25
340
0
  0
BLOCK_RECORD
  5
526
330
1
100
AcDbSymbolTableRecord
100
AcDbBlockTableRecord
  2
*D26
340
0
  0
BLOCK_RECORD
  5
533
330
1
100
AcDbSymbolTableRecord
100
AcDbBlockTableRecord
  2
*D27
340
0
  0
BLOCK_RECORD
  5
540
330
1
100
AcDbSymbolTableRecord
100
AcDbBlockTableRecord
  2
*D28
340
0
  0
BLOCK_RECORD
  5
54D
330
1
100
AcDbSymbolTableRecord
100
AcDbBlockTableRecord
  2
*D29
340
0
  0
BLOCK_RECORD
  5
55A
330
1
100
AcDbSymbolTableRecord
100
AcDbBlockTableRecord
  2
*D30
340
0
  0
BLOCK_RECORD
  5
567
330
1
100
AcDbSymbolTableRecord
100
AcDbBlockTableRecord
  2
*D31
340
0
  0
BLOCK_RECORD
  5
574
330
1
100
AcDbSymbolTableRecord
100
AcDbBlockTableRecord
  2
KLON21
340
0
102
{BLKREFS
331
579
102
}
  0
BLOCK_RECORD
  5
57B
330
1
100
AcDbSymbolTableRecord
100
AcDbBlockTableRecord
  2
KLON22
340
0
102
{BLKREFS
331
58A
102
}
  0
BLOCK_RECORD
  5
58B
330
1
100
AcDbSymbolTableRecord
100
AcDbBlockTableRecord
  2
KLON23
340
0
102
{BLKREFS
331
590
102
}
  0
BLOCK_RECORD
  5
592
330
1
100
AcDbSymbolTableRecord
100
AcDbBlockTableRecord
  2
KLON24
340
0
102
{BLKREFS
331
599
102
}
  0
BLOCK_RECORD
  5
59A
330
1
100
AcDbSymbolTableRecord
100
AcDbBlockTableRecord
  2
KLON25
340
0
102
{BLKREFS
331
5A1
102
}
  0
BLOCK_RECORD
  5
5A2
330
1
100
AcDbSymbolTableRecord
100
AcDbBlockTableRecord
  2
KLON26
340
0
102
{BLKREFS
331
5B0
102
}
  0
BLOCK_RECORD
  5
5B1
330
1
100
AcDbSymbolTableRecord
100
AcDbBlockTableRecord
  2
KLON27
340
0
102
{BLKREFS
331
5B7
102
}
  0
BLOCK_RECORD
  5
5B8
330
1
100
AcDbSymbolTableRecord
100
AcDbBlockTableRecord
  2
KLON28
340
0
102
{BLKREFS
331
5BE
102
}
  0
BLOCK_RECORD
  5
5BF
330
1
100
AcDbSymbolTableRecord
100
AcDbBlockTableRecord
  2
KLON29
340
0
102
{BLKREFS
331
5CE
102
}
  0
BLOCK_RECORD
  5
5CF
330
1
100
AcDbSymbolTableRecord
100
AcDbBlockTableRecord
  2
KLON30
340
0
102
{BLKREFS
331
5E0
102
}
  0
BLOCK_RECORD
  5
5E3
330
1
100
AcDbSymbolTableRecord
100
AcDbBlockTableRecord
  2
KLON31
340
0
102
{BLKREFS
331
5E8
102
}
  0
BLOCK_RECORD
  5
5EA
330
1
100
AcDbSymbolTableRecord
100
AcDbBlockTableRecord
  2
KLON32
340
0
102
{BLKREFS
331
5EF
102
}
  0
BLOCK_RECORD
  5
5F2
330
1
100
AcDbSymbolTableRecord
100
AcDbBlockTableRecord
  2
KLON33
340
0
102
{BLKREFS
331
5F7
102
}
  0
BLOCK_RECORD
  5
5FA
330
1
100
AcDbSymbolTableRecord
100
AcDbBlockTableRecord
  2
KLON34
340
0
102
{BLKREFS
331
5FF
102
}
  0
BLOCK_RECORD
  5
608
330
1
100
AcDbSymbolTableRecord
100
AcDbBlockTableRecord
  2
*D46
340
0
  0
BLOCK_RECORD
  5
615
330
1
100
AcDbSymbolTableRecord
100
AcDbBlockTableRecord
  2
*D47
340
0
  0
ENDTAB
  0
ENDSEC
  0
SECTION
  2
BLOCKS
  0
BLOCK
  5
20
330
1F
100
AcDbEntity
  8
0
100
AcDbBlockBegin
  2
*Model_Space
 70
     0
 71
     0
 10
0.0
 20
0.0
 30
0.0
  3
*Model_Space
  1

  0
ENDBLK
  5
21
330
1F
100
AcDbEntity
  8
0
100
AcDbBlockEnd
  0
BLOCK
  5
1C
330
1B
100
AcDbEntity
 67
     1
  8
0
100
AcDbBlockBegin
  2
*Paper_Space
 70
     0
 71
     0
 10
0.0
 20
0.0
 30
0.0
  3
*Paper_Space
  1

  0
ENDBLK
  5
1D
330
1B
100
AcDbEntity
 67
     1
  8
0
100
AcDbBlockEnd
  0
BLOCK
  5
24
330
23
100
AcDbEntity
  8
0
100
AcDbBlockBegin
  2
*Paper_Space0
 70
     0
 71
     0
 10
0.0
 20
0.0
 30
0.0
  3
*Paper_Space0
  1

  0
ENDBLK
  5
25
330
23
100
AcDbEntity
  8
0
100
AcDbBlockEnd
  0
BLOCK
  5
E4
330
DA
100
AcDbEntity
  8
0
100
AcDbBlockBegin
  2
*D1
 70
     1
 71
     0
 10
0.0
 20
0.0
 30
0.0
  3
*D1
  1

  0
LINE
  5
DB
330
DA
100
AcDbEntity
  8
LC-002-100-D00-0
 62
     2
370
    -2
100
AcDbLine
 10
602.087213
 20
196.360841
 30
0.0
 11
602.087213
 21
133.102841
 31
0.0
  0
LINE
  5
DC
330
DA
100
AcDbEntity
  8
LC-002-100-D00-0
 62
     2
370
    -2
100
AcDbLine
 10
683.087213
 20
196.360841
 30
0.0
 11
683.087213
 21
133.102841
 31
0.0
  0
LINE
  5
DD
330
DA
100
AcDbEntity
  8
LC-002-100-D00-0
 62
     2
370
    -2
100
AcDbLine
 10
622.087213
 20
136.702841
 30
0.0
 11
663.087213
 21
136.702841
 31
0.0
  0
SOLID
  5
DE
330
DA
100
AcDbEntity
  8
LC-002-100-D00-0
 62
     2
100
AcDbTrace
 10
622.087213
 20
140.036174
 30
0.0
 11
622.087213
 21
133.369508
 31
0.0
 12
602.087213
 22
136.702841
 32
0.0
 13
602.087213
 23
136.702841
 33
0.0
  0
SOLID
  5
DF
330
DA
100
AcDbEntity
  8
LC-002-100-D00-0
 62
     2
100
AcDbTrace
 10
663.087213
 20
133.369508
 30
0.0
 11
663.087213
 21
140.036174
 31
0.0
 12
683.087213
 22
136.702841
 32
0.0
 13
683.087213
 23
136.702841
 33
0.0
  0
MTEXT
  5
E0
330
DA
100
AcDbEntity
  8
LC-002-100-D00-0
 62
     2
100
AcDbMText
 10
652.959075
 20
158.702841
 30
0.0
 40
20.0
 41
0.0
 71
     5
 72
     1
  1
\A1;81
  7
LCTX15-400-0-0pDIN-Schrift
 73
     1
 44
1.0
  0
POINT
  5
E1
330
DA
100
AcDbEntity
  8
Defpoints
 62
     0
100
AcDbPoint
 10
602.087213
 20
196.360841
 30
0.0
  0
POINT
  5
E2
330
DA
100
AcDbEntity
  8
Defpoints
 62
     0
100
AcDbPoint
 10
683.087213
 20
196.360841
 30
0.0
  0
POINT
  5
E3
330
DA
100
AcDbEntity
  8
Defpoints
 62
     0
100
AcDbPoint
 10
683.087213
 20
136.702841
 30
0.0
  0
ENDBLK
  5
E5
330
DA
100
AcDbEntity
  8
0
100
AcDbBlockEnd
  0
BLOCK
  5
105
330
104
100
AcDbEntity
  8
0
100
AcDbBlockBegin
  2
KLON1
 70
     0
 71
     0
 10
0.0
 20
0.0
 30
0.0
  3
KLON1
  1

  4
KLON1
  0
LINE
  5
107
330
104
100
AcDbEntity
  8
LC-002-100-D00-0
 62
     7
370
    15
100
AcDbLine
 10
417.976636
 20
-34.424131
 30
0.0
 11
417.984041
 21
-34.462304
 31
0.0
  0
LINE
  5
108
330
104
100
AcDbEntity
  8
LC-002-100-D00-0
 62
     7
370
    15
100
AcDbLine
 10
417.984041
 20
-34.462304
 30
0.0
 11
418.002817
 21
-34.494788
 31
0.0
  0
ENDBLK
  5
106
330
104
100
AcDbEntity
  8
0
100
AcDbBlockEnd
  0
BLOCK
  5
10C
330
10B
100
AcDbEntity
  8
0
100
AcDbBlockBegin
  2
KLON2
 70
     0
 71
     0
 10
0.0
 20
0.0
 30
0.0
  3
KLON2
  1

  4
KLON2
  0
LINE
  5
10E
330
10B
100
AcDbEntity
  8
LC-002-100-D00-0
 62
     7
370
    15
100
AcDbLine
 10
418.002817
 20
-23.079326
 30
0.0
 11
418.000582
 21
-23.093612
 31
0.0
  0
LINE
  5
10F
330
10B
100
AcDbEntity
  8
LC-002-100-D00-0
 62
     7
370
    15
100
AcDbLine
 10
418.000582
 20
-23.093612
 30
0.0
 11
417.989287
 21
-23.16592
 31
0.0
  0
LINE
  5
110
330
10B
100
AcDbEntity
  8
LC-002-100-D00-0
 62
     7
370
    15
100
AcDbLine
 10
417.989287
 20
-23.16592
 30
0.0
 11
417.976636
 21
-23.246801
 31
0.0
  0
ENDBLK
  5
10D
330
10B
100
AcDbEntity
  8
0
100
AcDbBlockEnd
  0
BLOCK
  5
113
330
112
100
AcDbEntity
  8
0
100
AcDbBlockBegin
  2
KLON3
 70
     0
 71
     0
 10
0.0
 20
0.0
 30
0.0
  3
KLON3
  1

  4
KLON3
  0
LINE
  5
115
330
112
100
AcDbEntity
  8
LC-002-100-D00-0
 62
     7
370
    15
100
AcDbLine
 10
417.976636
 20
1.398537
 30
0.0
 11
417.989287
 21
1.317657
 31
0.0
  0
LINE
  5
116
330
112
100
AcDbEntity
  8
LC-002-100-D00-0
 62
     7
370
    15
100
AcDbLine
 10
417.989287
 20
1.317657
 30
0.0
 11
417.998063
 21
1.261448
 31
0.0
  0
LINE
  5
117
330
112
100
AcDbEntity
  8
LC-002-100-D00-0
 62
     7
370
    15
100
AcDbLine
 10
417.998063
 20
1.261448
 30
0.0
 11
418.000582
 21
1.245349
 31
0.0
  0
LINE
  5
118
330
112
100
AcDbEntity
  8
LC-002-100-D00-0
 62
     7
370
    15
100
AcDbLine
 10
418.000582
 20
1.245349
 30
0.0
 11
418.002817
 21
1.231063
 31
0.0
  0
ENDBLK
  5
114
330
112
100
AcDbEntity
  8
0
100
AcDbBlockEnd
  0
BLOCK
  5
11C
330
11B
100
AcDbEntity
  8
0
100
AcDbBlockBegin
  2
KLON4
 70
     0
 71
     0
 10
0.0
 20
0.0
 30
0.0
  3
KLON4
  1

  4
KLON4
  0
LINE
  5
11E
330
11B
100
AcDbEntity
  8
LC-002-100-D00-0
 62
     7
370
    15
100
AcDbLine
 10
417.976636
 20
12.561229
 30
0.0
 11
417.9872
 21
12.567139
 31
0.0
  0
LINE
  5
11F
330
11B
100
AcDbEntity
  8
LC-002-100-D00-0
 62
     7
370
    15
100
AcDbLine
 10
417.9872
 20
12.567139
 30
0.0
 11
418.002817
 21
12.575868
 31
0.0
  0
ENDBLK
  5
11D
330
11B
100
AcDbEntity
  8
0
100
AcDbBlockEnd
  0
BLOCK
  5
122
330
121
100
AcDbEntity
  8
0
100
AcDbBlockBegin
  2
KLON5
 70
     0
 71
     0
 10
0.0
 20
0.0
 30
0.0
  3
KLON5
  1

  4
KLON5
  0
LINE
  5
124
330
121
100
AcDbEntity
  8
LC-002-100-D00-0
 62
     7
370
    15
100
AcDbLine
 10
-65.970999
 20
-34.424131
 30
0.0
 11
-65.978405
 21
-34.462304
 31
0.0
  0
LINE
  5
125
330
121
100
AcDbEntity
  8
LC-002-100-D00-0
 62
     7
370
    15
100
AcDbLine
 10
-65.978405
 20
-34.462304
 30
0.0
 11
-65.997181
 21
-34.494788
 31
0.0
  0
ENDBLK
  5
123
330
121
100
AcDbEntity
  8
0
100
AcDbBlockEnd
  0
BLOCK
  5
128
330
127
100
AcDbEntity
  8
0
100
AcDbBlockBegin
  2
KLON6
 70
     0
 71
     0
 10
0.0
 20
0.0
 30
0.0
  3
KLON6
  1

  4
KLON6
  0
LINE
  5
12A
330
127
100
AcDbEntity
  8
LC-002-100-D00-0
 62
     7
370
    15
100
AcDbLine
 10
-65.970999
 20
12.561229
 30
0.0
 11
-65.981564
 21
12.567139
 31
0.0
  0
LINE
  5
12B
330
127
100
AcDbEntity
  8
LC-002-100-D00-0
 62
     7
370
    15
100
AcDbLine
 10
-65.981564
 20
12.567139
 30
0.0
 11
-65.997181
 21
12.575868
 31
0.0
  0
ENDBLK
  5
129
330
127
100
AcDbEntity
  8
0
100
AcDbBlockEnd
  0
BLOCK
  5
12F
330
12E
100
AcDbEntity
  8
0
100
AcDbBlockBegin
  2
KLON7
 70
     0
 71
     0
 10
0.0
 20
0.0
 30
0.0
  3
KLON7
  1

  4
KLON7
  0
LINE
  5
131
330
12E
100
AcDbEntity
  8
LC-002-100-D00-0
 62
     7
370
    15
100
AcDbLine
 10
-65.970999
 20
1.398537
 30
0.0
 11
-65.98365
 21
1.317657
 31
0.0
  0
LINE
  5
132
330
12E
100
AcDbEntity
  8
LC-002-100-D00-0
 62
     7
370
    15
100
AcDbLine
 10
-65.98365
 20
1.317657
 30
0.0
 11
-65.992427
 21
1.261448
 31
0.0
  0
LINE
  5
133
330
12E
100
AcDbEntity
  8
LC-002-100-D00-0
 62
     7
370
    15
100
AcDbLine
 10
-65.992427
 20
1.261448
 30
0.0
 11
-65.994945
 21
1.245349
 31
0.0
  0
LINE
  5
134
330
12E
100
AcDbEntity
  8
LC-002-100-D00-0
 62
     7
370
    15
100
AcDbLine
 10
-65.994945
 20
1.245349
 30
0.0
 11
-65.997181
 21
1.231063
 31
0.0
  0
ENDBLK
  5
130
330
12E
100
AcDbEntity
  8
0
100
AcDbBlockEnd
  0
BLOCK
  5
137
330
136
100
AcDbEntity
  8
0
100
AcDbBlockBegin
  2
KLON8
 70
     0
 71
     0
 10
0.0
 20
0.0
 30
0.0
  3
KLON8
  1

  4
KLON8
  0
LINE
  5
139
330
136
100
AcDbEntity
  8
LC-002-100-D00-0
 62
     7
370
    15
100
AcDbLine
 10
-65.997181
 20
-23.079326
 30
0.0
 11
-65.994945
 21
-23.093612
 31
0.0
  0
LINE
  5
13A
330
136
100
AcDbEntity
  8
LC-002-100-D00-0
 62
     7
370
    15
100
AcDbLine
 10
-65.994945
 20
-23.093612
 30
0.0
 11
-65.98365
 21
-23.16592
 31
0.0
  0
LINE
  5
13B
330
136
100
AcDbEntity
  8
LC-002-100-D00-0
 62
     7
370
    15
100
AcDbLine
 10
-65.98365
 20
-23.16592
 30
0.0
 11
-65.970999
 21
-23.246801
 31
0.0
  0
ENDBLK
  5
138
330
136
100
AcDbEntity
  8
0
100
AcDbBlockEnd
  0
BLOCK
  5
14C
330
14B
100
AcDbEntity
  8
0
100
AcDbBlockBegin
  2
KLON9
 70
     0
 71
     0
 10
0.0
 20
0.0
 30
0.0
  3
KLON9
  1

  4
KLON9
  0
LINE
  5
14E
330
14B
100
AcDbEntity
  8
LC-002-100-D00-0
 62
     7
370
    15
100
AcDbLine
 10
417.948115
 20
-23.257541
 30
0.0
 11
417.964268
 21
-23.251456
 31
0.0
  0
LINE
  5
14F
330
14B
100
AcDbEntity
  8
LC-002-100-D00-0
 62
     7
370
    15
100
AcDbLine
 10
417.964268
 20
-23.251456
 30
0.0
 11
417.976636
 21
-23.246801
 31
0.0
  0
ENDBLK
  5
14D
330
14B
100
AcDbEntity
  8
0
100
AcDbBlockEnd
  0
BLOCK
  5
152
330
151
100
AcDbEntity
  8
0
100
AcDbBlockBegin
  2
KLON10
 70
     0
 71
     0
 10
0.0
 20
0.0
 30
0.0
  3
KLON10
  1

  4
KLON10
  0
LINE
  5
154
330
151
100
AcDbEntity
  8
LC-002-100-D00-0
 62
     7
370
    15
100
AcDbLine
 10
-65.942478
 20
-23.257541
 30
0.0
 11
-65.958631
 21
-23.251456
 31
0.0
  0
LINE
  5
155
330
151
100
AcDbEntity
  8
LC-002-100-D00-0
 62
     7
370
    15
100
AcDbLine
 10
-65.958631
 20
-23.251456
 30
0.0
 11
-65.970999
 21
-23.246801
 31
0.0
  0
ENDBLK
  5
153
330
151
100
AcDbEntity
  8
0
100
AcDbBlockEnd
  0
BLOCK
  5
159
330
158
100
AcDbEntity
  8
0
100
AcDbBlockBegin
  2
KLON11
 70
     0
 71
     0
 10
0.0
 20
0.0
 30
0.0
  3
KLON11
  1

  4
KLON11
  0
LINE
  5
15B
330
158
100
AcDbEntity
  8
LC-002-100-D00-0
 62
     7
370
    15
100
AcDbLine
 10
417.948115
 20
1.409277
 30
0.0
 11
417.964268
 21
1.403193
 31
0.0
  0
LINE
  5
15C
330
158
100
AcDbEntity
  8
LC-002-100-D00-0
 62
     7
370
    15
100
AcDbLine
 10
417.964268
 20
1.403193
 30
0.0
 11
417.976636
 21
1.398537
 31
0.0
  0
ENDBLK
  5
15A
330
158
100
AcDbEntity
  8
0
100
AcDbBlockEnd
  0
BLOCK
  5
15F
330
15E
100
AcDbEntity
  8
0
100
AcDbBlockBegin
  2
KLON12
 70
     0
 71
     0
 10
0.0
 20
0.0
 30
0.0
  3
KLON12
  1

  4
KLON12
  0
LINE
  5
161
330
15E
100
AcDbEntity
  8
LC-002-100-D00-0
 62
     7
370
    15
100
AcDbLine
 10
-65.942478
 20
1.409277
 30
0.0
 11
-65.958631
 21
1.403193
 31
0.0
  0
LINE
  5
162
330
15E
100
AcDbEntity
  8
LC-002-100-D00-0
 62
     7
370
    15
100
AcDbLine
 10
-65.958631
 20
1.403193
 30
0.0
 11
-65.970999
 21
1.398537
 31
0.0
  0
ENDBLK
  5
160
330
15E
100
AcDbEntity
  8
0
100
AcDbBlockEnd
  0
BLOCK
  5
1FA
330
1EF
100
AcDbEntity
  8
0
100
AcDbBlockBegin
  2
*D14
 70
     1
 71
     0
 10
0.0
 20
0.0
 30
0.0
  3
*D14
  1

  0
LINE
  5
1F0
330
1EF
100
AcDbEntity
  8
LC-002-100-D00-0
 62
     2
370
    -2
100
AcDbLine
 10
471.002818
 20
35.075868
 30
0.0
 11
520.882717
 21
35.075868
 31
0.0
  0
LINE
  5
1F1
330
1EF
100
AcDbEntity
  8
LC-002-100-D00-0
 62
     2
370
    -2
100
AcDbLine
 10
471.002818
 20
33.575868
 30
0.0
 11
520.882717
 21
33.575868
 31
0.0
  0
LINE
  5
1F2
330
1EF
100
AcDbEntity
  8
LC-002-100-D00-0
 62
     2
370
    -2
100
AcDbLine
 10
517.282717
 20
55.075868
 30
0.0
 11
517.282717
 21
75.075868
 31
0.0
  0
LINE
  5
1F3
330
1EF
100
AcDbEntity
  8
LC-002-100-D00-0
 62
     2
370
    -2
100
AcDbLine
 10
517.282717
 20
13.575868
 30
0.0
 11
517.282717
 21
-3.129032
 31
0.0
  0
SOLID
  5
1F4
330
1EF
100
AcDbEntity
  8
LC-002-100-D00-0
 62
     2
100
AcDbTrace
 10
513.949383
 20
55.075868
 30
0.0
 11
520.61605
 21
55.075868
 31
0.0
 12
517.282717
 22
35.075868
 32
0.0
 13
517.282717
 23
35.075868
 33
0.0
  0
SOLID
  5
1F5
330
1EF
100
AcDbEntity
  8
LC-002-100-D00-0
 62
     2
100
AcDbTrace
 10
520.61605
 20
13.575868
 30
0.0
 11
513.949383
 21
13.575868
 31
0.0
 12
517.282717
 22
33.575868
 32
0.0
 13
517.282717
 23
33.575868
 33
0.0
  0
MTEXT
  5
1F6
330
1EF
100
AcDbEntity
  8
LC-002-100-D00-0
 62
     2
100
AcDbMText
 10
495.282717
 20
15.502841
 30
0.0
 40
20.0
 41
0.0
 71
     5
 72
     1
  1
\A1;1,5
  7
LCTX15-400-0-0pDIN-Schrift
 11
6.123031769111886E-17
 21
1.0
 31
0.0
 73
     1
 44
1.0
  0
POINT
  5
1F7
330
1EF
100
AcDbEntity
  8
Defpoints
 62
     0
100
AcDbPoint
 10
471.002818
 20
35.075868
 30
0.0
  0
POINT
  5
1F8
330
1EF
100
AcDbEntity
  8
Defpoints
 62
     0
100
AcDbPoint
 10
471.002818
 20
33.575868
 30
0.0
  0
POINT
  5
1F9
330
1EF
100
AcDbEntity
  8
Defpoints
 62
     0
100
AcDbPoint
 10
517.282717
 20
33.575868
 30
0.0
  0
ENDBLK
  5
1FB
330
1EF
100
AcDbEntity
  8
0
100
AcDbBlockEnd
  0
BLOCK
  5
209
330
1FD
100
AcDbEntity
  8
0
100
AcDbBlockBegin
  2
*D15
 70
     1
 71
     0
 10
0.0
 20
0.0
 30
0.0
  3
*D15
  1

  0
LINE
  5
1FE
330
1FD
100
AcDbEntity
  8
LC-002-100-D00-0
 62
     2
370
    -2
100
AcDbLine
 10
471.002818
 20
33.575868
 30
0.0
 11
560.279002
 21
33.575868
 31
0.0
  0
LINE
  5
1FF
330
1FD
100
AcDbEntity
  8
LC-002-100-D00-0
 62
     2
370
    -2
100
AcDbLine
 10
423.502818
 20
15.075868
 30
0.0
 11
560.279002
 21
15.075868
 31
0.0
  0
LINE
  5
200
330
1FD
100
AcDbEntity
  8
LC-002-100-D00-0
 62
     2
370
    -2
100
AcDbLine
 10
556.679002
 20
53.575868
 30
0.0
 11
556.679002
 21
73.575868
 31
0.0
  0
LINE
  5
201
330
1FD
100
AcDbEntity
  8
LC-002-100-D00-0
 62
     2
370
    -2
100
AcDbLine
 10
556.679002
 20
-4.924132
 30
0.0
 11
556.679002
 21
-24.924132
 31
0.0
  0
LINE
  5
202
330
1FD
100
AcDbEntity
  8
LC-002-100-D00-0
 62
     2
370
    -2
100
AcDbLine
 10
556.679002
 20
33.575868
 30
0.0
 11
556.679002
 21
15.075868
 31
0.0
  0
SOLID
  5
203
330
1FD
100
AcDbEntity
  8
LC-002-100-D00-0
 62
     2
100
AcDbTrace
 10
553.345669
 20
53.575868
 30
0.0
 11
560.012335
 21
53.575868
 31
0.0
 12
556.679002
 22
33.575868
 32
0.0
 13
556.679002
 23
33.575868
 33
0.0
  0
SOLID
  5
204
330
1FD
100
AcDbEntity
  8
LC-002-100-D00-0
 62
     2
100
AcDbTrace
 10
560.012335
 20
-4.924132
 30
0.0
 11
553.345669
 21
-4.924132
 31
0.0
 12
556.679002
 22
15.075868
 32
0.0
 13
556.679002
 23
15.075868
 33
0.0
  0
MTEXT
  5
205
330
1FD
100
AcDbEntity
  8
LC-002-100-D00-0
 62
     2
100
AcDbMText
 10
534.679002
 20
20.542841
 30
0.0
 40
20.0
 41
0.0
 71
     5
 72
     1
  1
\A1;18,5
  7
LCTX15-400-0-0pDIN-Schrift
 11
6.123031769111886E-17
 21
1.0
 31
0.0
 73
     1
 44
1.0
  0
POINT
  5
206
330
1FD
100
AcDbEntity
  8
Defpoints
 62
     0
100
AcDbPoint
 10
471.002818
 20
33.575868
 30
0.0
  0
POINT
  5
207
330
1FD
100
AcDbEntity
  8
Defpoints
 62
     0
100
AcDbPoint
 10
423.502818
 20
15.075868
 30
0.0
  0
POINT
  5
208
330
1FD
100
AcDbEntity
  8
Defpoints
 62
     0
100
AcDbPoint
 10
556.679002
 20
15.075868
 30
0.0
  0
ENDBLK
  5
20A
330
1FD
100
AcDbEntity
  8
0
100
AcDbBlockEnd
  0
BLOCK
  5
216
330
20C
100
AcDbEntity
  8
0
100
AcDbBlockBegin
  2
*D16
 70
     1
 71
     0
 10
0.0
 20
0.0
 30
0.0
  3
*D16
  1

  0
LINE
  5
20D
330
20C
100
AcDbEntity
  8
LC-002-100-D00-0
 62
     2
370
    -2
100
AcDbLine
 10
471.002818
 20
35.075868
 30
0.0
 11
599.675287
 21
35.075868
 31
0.0
  0
LINE
  5
20E
330
20C
100
AcDbEntity
  8
LC-002-100-D00-0
 62
     2
370
    -2
100
AcDbLine
 10
471.002818
 20
-88.424132
 30
0.0
 11
599.675287
 21
-88.424132
 31
0.0
  0
LINE
  5
20F
330
20C
100
AcDbEntity
  8
LC-002-100-D00-0
 62
     2
370
    -2
100
AcDbLine
 10
596.075287
 20
15.075868
 30
0.0
 11
596.075287
 21
-68.424132
 31
0.0
  0
SOLID
  5
210
330
20C
100
AcDbEntity
  8
LC-002-100-D00-0
 62
     2
100
AcDbTrace
 10
599.408621
 20
15.075868
 30
0.0
 11
592.741954
 21
15.075868
 31
0.0
 12
596.075287
 22
35.075868
 32
0.0
 13
596.075287
 23
35.075868
 33
0.0
  0
SOLID
  5
211
330
20C
100
AcDbEntity
  8
LC-002-100-D00-0
 62
     2
100
AcDbTrace
 10
592.741954
 20
-68.424132
 30
0.0
 11
599.408621
 21
-68.424132
 31
0.0
 12
596.075287
 22
-88.424132
 32
0.0
 13
596.075287
 23
-88.424132
 33
0.0
  0
MTEXT
  5
212
330
20C
100
AcDbEntity
  8
LC-002-100-D00-0
 62
     2
100
AcDbMText
 10
574.075287
 20
-18.097159
 30
0.0
 40
20.0
 41
0.0
 71
     5
 72
     1
  1
\A1;123,5
  7
LCTX15-400-0-0pDIN-Schrift
 11
6.123031769111886E-17
 21
1.0
 31
0.0
 73
     1
 44
1.0
  0
POINT
  5
213
330
20C
100
AcDbEntity
  8
Defpoints
 62
     0
100
AcDbPoint
 10
471.002818
 20
35.075868
 30
0.0
  0
POINT
  5
214
330
20C
100
AcDbEntity
  8
Defpoints
 62
     0
100
AcDbPoint
 10
471.002818
 20
-88.424132
 30
0.0
  0
POINT
  5
215
330
20C
100
AcDbEntity
  8
Defpoints
 62
     0
100
AcDbPoint
 10
596.075287
 20
-88.424132
 30
0.0
  0
ENDBLK
  5
217
330
20C
100
AcDbEntity
  8
0
100
AcDbBlockEnd
  0
BLOCK
  5
37A
330
379
100
AcDbEntity
  8
0
100
AcDbBlockBegin
  2
KLON13
 70
     0
 71
     0
 10
0.0
 20
0.0
 30
0.0
  3
KLON13
  1

  4
KLON13
  0
LINE
  5
37C
330
379
100
AcDbEntity
  8
LC-002-100-D00-0
 62
     7
370
    15
100
AcDbLine
 10
250.002831
 20
186.860838
 30
0.0
 11
250.000104
 21
186.860876
 31
0.0
  0
LINE
  5
37D
330
379
100
AcDbEntity
  8
LC-002-100-D00-0
 62
     7
370
    15
100
AcDbLine
 10
250.000104
 20
186.860876
 30
0.0
 11
249.995522
 21
186.861069
 31
0.0
  0
LINE
  5
37E
330
379
100
AcDbEntity
  8
LC-002-100-D00-0
 62
     7
370
    15
100
AcDbLine
 10
249.995522
 20
186.861069
 30
0.0
 11
249.986648
 21
186.861904
 31
0.0
  0
LINE
  5
37F
330
379
100
AcDbEntity
  8
LC-002-100-D00-0
 62
     7
370
    15
100
AcDbLine
 10
249.986648
 20
186.861904
 30
0.0
 11
249.984369
 21
186.862209
 31
0.0
  0
LINE
  5
380
330
379
100
AcDbEntity
  8
LC-002-100-D00-0
 62
     7
370
    15
100
AcDbLine
 10
249.984369
 20
186.862209
 30
0.0
 11
249.983795
 21
186.862291
 31
0.0
  0
LINE
  5
381
330
379
100
AcDbEntity
  8
LC-002-100-D00-0
 62
     7
370
    15
100
AcDbLine
 10
249.983795
 20
186.862291
 30
0.0
 11
249.983653
 21
186.862314
 31
0.0
  0
LINE
  5
382
330
379
100
AcDbEntity
  8
LC-002-100-D00-0
 62
     7
370
    15
100
AcDbLine
 10
249.983653
 20
186.862314
 30
0.0
 11
249.864474
 21
186.911584
 31
0.0
  0
LINE
  5
383
330
379
100
AcDbEntity
  8
LC-002-100-D00-0
 62
     7
370
    15
100
AcDbLine
 10
249.864474
 20
186.911584
 30
0.0
 11
249.023869
 21
187.72448
 31
0.0
  0
LINE
  5
384
330
379
100
AcDbEntity
  8
LC-002-100-D00-0
 62
     7
370
    15
100
AcDbLine
 10
249.023869
 20
187.72448
 30
0.0
 11
247.935191
 21
189.049804
 31
0.0
  0
LINE
  5
385
330
379
100
AcDbEntity
  8
LC-002-100-D00-0
 62
     7
370
    15
100
AcDbLine
 10
247.935191
 20
189.049804
 30
0.0
 11
246.509328
 21
190.952966
 31
0.0
  0
LINE
  5
386
330
379
100
AcDbEntity
  8
LC-002-100-D00-0
 62
     7
370
    15
100
AcDbLine
 10
246.509328
 20
190.952966
 30
0.0
 11
244.456984
 21
193.918624
 31
0.0
  0
LINE
  5
387
330
379
100
AcDbEntity
  8
LC-002-100-D00-0
 62
     7
370
    15
100
AcDbLine
 10
244.456984
 20
193.918624
 30
0.0
 11
242.086314
 21
197.559954
 31
0.0
  0
LINE
  5
388
330
379
100
AcDbEntity
  8
LC-002-100-D00-0
 62
     7
370
    15
100
AcDbLine
 10
242.086314
 20
197.559954
 30
0.0
 11
241.978124
 21
197.726333
 31
0.0
  0
ENDBLK
  5
37B
330
379
100
AcDbEntity
  8
0
100
AcDbBlockEnd
  0
BLOCK
  5
38B
330
38A
100
AcDbEntity
  8
0
100
AcDbBlockBegin
  2
KLON14
 70
     0
 71
     0
 10
0.0
 20
0.0
 30
0.0
  3
KLON14
  1

  4
KLON14
  0
LINE
  5
38D
330
38A
100
AcDbEntity
  8
LC-002-100-D00-0
 62
     7
370
    15
100
AcDbLine
 10
241.978124
 20
197.726333
 30
0.0
 11
241.236515
 21
200.104886
 31
0.0
  0
LINE
  5
38E
330
38A
100
AcDbEntity
  8
LC-002-100-D00-0
 62
     7
370
    15
100
AcDbLine
 10
241.236515
 20
200.104886
 30
0.0
 11
240.601778
 21
202.685313
 31
0.0
  0
LINE
  5
38F
330
38A
100
AcDbEntity
  8
LC-002-100-D00-0
 62
     7
370
    15
100
AcDbLine
 10
240.601778
 20
202.685313
 30
0.0
 11
240.082569
 21
205.817492
 31
0.0
  0
LINE
  5
390
330
38A
100
AcDbEntity
  8
LC-002-100-D00-0
 62
     7
370
    15
100
AcDbLine
 10
240.082569
 20
205.817492
 30
0.0
 11
239.84573
 21
209.154369
 31
0.0
  0
LINE
  5
391
330
38A
100
AcDbEntity
  8
LC-002-100-D00-0
 62
     7
370
    15
100
AcDbLine
 10
239.84573
 20
209.154369
 30
0.0
 11
239.93665
 21
212.424138
 31
0.0
  0
LINE
  5
392
330
38A
100
AcDbEntity
  8
LC-002-100-D00-0
 62
     7
370
    15
100
AcDbLine
 10
239.93665
 20
212.424138
 30
0.0
 11
240.348466
 21
215.715514
 31
0.0
  0
LINE
  5
393
330
38A
100
AcDbEntity
  8
LC-002-100-D00-0
 62
     7
370
    15
100
AcDbLine
 10
240.348466
 20
215.715514
 30
0.0
 11
240.99236
 21
218.708301
 31
0.0
  0
LINE
  5
394
330
38A
100
AcDbEntity
  8
LC-002-100-D00-0
 62
     7
370
    15
100
AcDbLine
 10
240.99236
 20
218.708301
 30
0.0
 11
241.83099
 21
221.55823
 31
0.0
  0
LINE
  5
395
330
38A
100
AcDbEntity
  8
LC-002-100-D00-0
 62
     7
370
    15
100
AcDbLine
 10
241.83099
 20
221.55823
 30
0.0
 11
242.89865
 21
224.469253
 31
0.0
  0
LINE
  5
396
330
38A
100
AcDbEntity
  8
LC-002-100-D00-0
 62
     7
370
    15
100
AcDbLine
 10
242.89865
 20
224.469253
 30
0.0
 11
244.022526
 21
227.079359
 31
0.0
  0
LINE
  5
397
330
38A
100
AcDbEntity
  8
LC-002-100-D00-0
 62
     7
370
    15
100
AcDbLine
 10
244.022526
 20
227.079359
 30
0.0
 11
245.170943
 21
229.456069
 31
0.0
  0
LINE
  5
398
330
38A
100
AcDbEntity
  8
LC-002-100-D00-0
 62
     7
370
    15
100
AcDbLine
 10
245.170943
 20
229.456069
 30
0.0
 11
246.14276
 21
231.310183
 31
0.0
  0
LINE
  5
399
330
38A
100
AcDbEntity
  8
LC-002-100-D00-0
 62
     7
370
    15
100
AcDbLine
 10
246.14276
 20
231.310183
 30
0.0
 11
246.684998
 21
232.296453
 31
0.0
  0
LINE
  5
39A
330
38A
100
AcDbEntity
  8
LC-002-100-D00-0
 62
     7
370
    15
100
AcDbLine
 10
246.684998
 20
232.296453
 30
0.0
 11
246.971696
 21
232.80598
 31
0.0
  0
LINE
  5
39B
330
38A
100
AcDbEntity
  8
LC-002-100-D00-0
 62
     7
370
    15
100
AcDbLine
 10
246.971696
 20
232.80598
 30
0.0
 11
247.002557
 21
232.860358
 31
0.0
  0
LINE
  5
39C
330
38A
100
AcDbEntity
  8
LC-002-100-D00-0
 62
     7
370
    15
100
AcDbLine
 10
247.002557
 20
232.860358
 30
0.0
 11
247.002832
 21
232.860842
 31
0.0
  0
ENDBLK
  5
38C
330
38A
100
AcDbEntity
  8
0
100
AcDbBlockEnd
  0
BLOCK
  5
3A2
330
3A1
100
AcDbEntity
  8
0
100
AcDbBlockBegin
  2
KLON15
 70
     0
 71
     0
 10
0.0
 20
0.0
 30
0.0
  3
KLON15
  1

  4
KLON15
  0
LINE
  5
3A4
330
3A1
100
AcDbEntity
  8
LC-002-100-D00-0
 62
     7
370
    15
100
AcDbLine
 10
241.320282
 20
196.360843
 30
0.0
 11
241.327062
 21
196.375118
 31
0.0
  0
LINE
  5
3A5
330
3A1
100
AcDbEntity
  8
LC-002-100-D00-0
 62
     7
370
    15
100
AcDbLine
 10
241.327062
 20
196.375118
 30
0.0
 11
241.978124
 21
197.726333
 31
0.0
  0
ENDBLK
  5
3A3
330
3A1
100
AcDbEntity
  8
0
100
AcDbBlockEnd
  0
BLOCK
  5
4BC
330
4BB
100
AcDbEntity
  8
0
100
AcDbBlockBegin
  2
KLON16
 70
     0
 71
     0
 10
0.0
 20
0.0
 30
0.0
  3
KLON16
  1

  4
KLON16
  0
LINE
  5
4BE
330
4BB
100
AcDbEntity
  8
LC-002-100-D00-0
 62
     7
370
    15
100
AcDbLine
 10
408.910513
 20
265.029005
 30
0.0
 11
411.466822
 21
265.122301
 31
0.0
  0
LINE
  5
4BF
330
4BB
100
AcDbEntity
  8
LC-002-100-D00-0
 62
     7
370
    15
100
AcDbLine
 10
411.466822
 20
265.122301
 30
0.0
 11
413.612619
 21
265.200615
 31
0.0
  0
LINE
  5
4C0
330
4BB
100
AcDbEntity
  8
LC-002-100-D00-0
 62
     7
370
    15
100
AcDbLine
 10
413.612619
 20
265.200615
 30
0.0
 11
415.342763
 21
265.263758
 31
0.0
  0
LINE
  5
4C1
330
4BB
100
AcDbEntity
  8
LC-002-100-D00-0
 62
     7
370
    15
100
AcDbLine
 10
415.342763
 20
265.263758
 30
0.0
 11
416.653097
 21
265.31158
 31
0.0
  0
LINE
  5
4C2
330
4BB
100
AcDbEntity
  8
LC-002-100-D00-0
 62
     7
370
    15
100
AcDbLine
 10
416.653097
 20
265.31158
 30
0.0
 11
417.54049
 21
265.343967
 31
0.0
  0
LINE
  5
4C3
330
4BB
100
AcDbEntity
  8
LC-002-100-D00-0
 62
     7
370
    15
100
AcDbLine
 10
417.54049
 20
265.343967
 30
0.0
 11
418.002829
 21
265.360841
 31
0.0
  0
ENDBLK
  5
4BD
330
4BB
100
AcDbEntity
  8
0
100
AcDbBlockEnd
  0
BLOCK
  5
4C6
330
4C5
100
AcDbEntity
  8
0
100
AcDbBlockBegin
  2
KLON17
 70
     0
 71
     0
 10
0.0
 20
0.0
 30
0.0
  3
KLON17
  1

  4
KLON17
  0
LINE
  5
4C8
330
4C5
100
AcDbEntity
  8
LC-002-100-D00-0
 62
     7
370
    15
100
AcDbLine
 10
-56.904853
 20
265.029005
 30
0.0
 11
-59.461162
 21
265.122301
 31
0.0
  0
LINE
  5
4C9
330
4C5
100
AcDbEntity
  8
LC-002-100-D00-0
 62
     7
370
    15
100
AcDbLine
 10
-59.461162
 20
265.122301
 30
0.0
 11
-61.606959
 21
265.200615
 31
0.0
  0
LINE
  5
4CA
330
4C5
100
AcDbEntity
  8
LC-002-100-D00-0
 62
     7
370
    15
100
AcDbLine
 10
-61.606959
 20
265.200615
 30
0.0
 11
-63.337103
 21
265.263758
 31
0.0
  0
LINE
  5
4CB
330
4C5
100
AcDbEntity
  8
LC-002-100-D00-0
 62
     7
370
    15
100
AcDbLine
 10
-63.337103
 20
265.263758
 30
0.0
 11
-64.647436
 21
265.31158
 31
0.0
  0
LINE
  5
4CC
330
4C5
100
AcDbEntity
  8
LC-002-100-D00-0
 62
     7
370
    15
100
AcDbLine
 10
-64.647436
 20
265.31158
 30
0.0
 11
-65.53483
 21
265.343967
 31
0.0
  0
LINE
  5
4CD
330
4C5
100
AcDbEntity
  8
LC-002-100-D00-0
 62
     7
370
    15
100
AcDbLine
 10
-65.53483
 20
265.343967
 30
0.0
 11
-65.997169
 21
265.360841
 31
0.0
  0
ENDBLK
  5
4C7
330
4C5
100
AcDbEntity
  8
0
100
AcDbBlockEnd
  0
BLOCK
  5
4E9
330
4E8
100
AcDbEntity
  8
0
100
AcDbBlockBegin
  2
KLON18
 70
     0
 71
     0
 10
0.0
 20
0.0
 30
0.0
  3
KLON18
  1

  4
KLON18
  0
LINE
  5
4EB
330
4E8
100
AcDbEntity
  8
LC-002-100-D00-0
 62
     7
370
    15
100
AcDbLine
 10
129.883215
 20
253.360839
 30
0.0
 11
129.896745
 21
253.202134
 31
0.0
  0
LINE
  5
4EC
330
4E8
100
AcDbEntity
  8
LC-002-100-D00-0
 62
     7
370
    15
100
AcDbLine
 10
129.896745
 20
253.202134
 30
0.0
 11
130.058668
 21
252.617715
 31
0.0
  0
LINE
  5
4ED
330
4E8
100
AcDbEntity
  8
LC-002-100-D00-0
 62
     7
370
    15
100
AcDbLine
 10
130.058668
 20
252.617715
 30
0.0
 11
130.308535
 21
252.17141
 31
0.0
  0
LINE
  5
4EE
330
4E8
100
AcDbEntity
  8
LC-002-100-D00-0
 62
     7
370
    15
100
AcDbLine
 10
130.308535
 20
252.17141
 30
0.0
 11
130.619835
 21
251.912659
 31
0.0
  0
LINE
  5
4EF
330
4E8
100
AcDbEntity
  8
LC-002-100-D00-0
 62
     7
370
    15
100
AcDbLine
 10
130.619835
 20
251.912659
 30
0.0
 11
130.757328
 21
251.868901
 31
0.0
  0
ENDBLK
  5
4EA
330
4E8
100
AcDbEntity
  8
0
100
AcDbBlockEnd
  0
BLOCK
  5
4F2
330
4F1
100
AcDbEntity
  8
0
100
AcDbBlockBegin
  2
KLON19
 70
     0
 71
     0
 10
0.0
 20
0.0
 30
0.0
  3
KLON19
  1

  4
KLON19
  0
LINE
  5
4F4
330
4F1
100
AcDbEntity
  8
LC-002-100-D00-0
 62
     7
370
    15
100
AcDbLine
 10
417.97547
 20
266.86084
 30
0.0
 11
417.97477
 21
266.898822
 31
0.0
  0
LINE
  5
4F5
330
4F1
100
AcDbEntity
  8
LC-002-100-D00-0
 62
     7
370
    15
100
AcDbLine
 10
417.97477
 20
266.898822
 30
0.0
 11
417.972714
 21
267.011609
 31
0.0
  0
LINE
  5
4F6
330
4F1
100
AcDbEntity
  8
LC-002-100-D00-0
 62
     7
370
    15
100
AcDbLine
 10
417.972714
 20
267.011609
 30
0.0
 11
417.969361
 21
267.195778
 31
0.0
  0
LINE
  5
4F7
330
4F1
100
AcDbEntity
  8
LC-002-100-D00-0
 62
     7
370
    15
100
AcDbLine
 10
417.969361
 20
267.195778
 30
0.0
 11
417.964801
 21
267.44573
 31
0.0
  0
LINE
  5
4F8
330
4F1
100
AcDbEntity
  8
LC-002-100-D00-0
 62
     7
370
    15
100
AcDbLine
 10
417.964801
 20
267.44573
 30
0.0
 11
417.959183
 21
267.753873
 31
0.0
  0
LINE
  5
4F9
330
4F1
100
AcDbEntity
  8
LC-002-100-D00-0
 62
     7
370
    15
100
AcDbLine
 10
417.959183
 20
267.753873
 30
0.0
 11
417.952671
 21
268.110841
 31
0.0
  0
LINE
  5
4FA
330
4F1
100
AcDbEntity
  8
LC-002-100-D00-0
 62
     7
370
    15
100
AcDbLine
 10
417.952671
 20
268.110841
 30
0.0
 11
417.945459
 21
268.505791
 31
0.0
  0
LINE
  5
4FB
330
4F1
100
AcDbEntity
  8
LC-002-100-D00-0
 62
     7
370
    15
100
AcDbLine
 10
417.945459
 20
268.505791
 30
0.0
 11
417.937785
 21
268.926721
 31
0.0
  0
LINE
  5
4FC
330
4F1
100
AcDbEntity
  8
LC-002-100-D00-0
 62
     7
370
    15
100
AcDbLine
 10
417.937785
 20
268.926721
 30
0.0
 11
417.929858
 21
269.360842
 31
0.0
  0
ENDBLK
  5
4F3
330
4F1
100
AcDbEntity
  8
0
100
AcDbBlockEnd
  0
BLOCK
  5
4FF
330
4FE
100
AcDbEntity
  8
0
100
AcDbBlockBegin
  2
KLON20
 70
     0
 71
     0
 10
0.0
 20
0.0
 30
0.0
  3
KLON20
  1

  4
KLON20
  0
LINE
  5
501
330
4FE
100
AcDbEntity
  8
LC-002-100-D00-0
 62
     7
370
    15
100
AcDbLine
 10
-65.96981
 20
266.86084
 30
0.0
 11
-65.96911
 21
266.898822
 31
0.0
  0
LINE
  5
502
330
4FE
100
AcDbEntity
  8
LC-002-100-D00-0
 62
     7
370
    15
100
AcDbLine
 10
-65.96911
 20
266.898822
 30
0.0
 11
-65.967053
 21
267.011609
 31
0.0
  0
LINE
  5
503
330
4FE
100
AcDbEntity
  8
LC-002-100-D00-0
 62
     7
370
    15
100
AcDbLine
 10
-65.967053
 20
267.011609
 30
0.0
 11
-65.963701
 21
267.195778
 31
0.0
  0
LINE
  5
504
330
4FE
100
AcDbEntity
  8
LC-002-100-D00-0
 62
     7
370
    15
100
AcDbLine
 10
-65.963701
 20
267.195778
 30
0.0
 11
-65.959141
 21
267.44573
 31
0.0
  0
LINE
  5
505
330
4FE
100
AcDbEntity
  8
LC-002-100-D00-0
 62
     7
370
    15
100
AcDbLine
 10
-65.959141
 20
267.44573
 30
0.0
 11
-65.953523
 21
267.753873
 31
0.0
  0
LINE
  5
506
330
4FE
100
AcDbEntity
  8
LC-002-100-D00-0
 62
     7
370
    15
100
AcDbLine
 10
-65.953523
 20
267.753873
 30
0.0
 11
-65.947011
 21
268.110841
 31
0.0
  0
LINE
  5
507
330
4FE
100
AcDbEntity
  8
LC-002-100-D00-0
 62
     7
370
    15
100
AcDbLine
 10
-65.947011
 20
268.110841
 30
0.0
 11
-65.939799
 21
268.505791
 31
0.0
  0
LINE
  5
508
330
4FE
100
AcDbEntity
  8
LC-002-100-D00-0
 62
     7
370
    15
100
AcDbLine
 10
-65.939799
 20
268.505791
 30
0.0
 11
-65.932125
 21
268.926721
 31
0.0
  0
LINE
  5
509
330
4FE
100
AcDbEntity
  8
LC-002-100-D00-0
 62
     7
370
    15
100
AcDbLine
 10
-65.932125
 20
268.926721
 30
0.0
 11
-65.924198
 21
269.360842
 31
0.0
  0
ENDBLK
  5
500
330
4FE
100
AcDbEntity
  8
0
100
AcDbBlockEnd
  0
BLOCK
  5
523
330
519
100
AcDbEntity
  8
0
100
AcDbBlockBegin
  2
*D25
 70
     1
 71
     0
 10
0.0
 20
0.0
 30
0.0
  3
*D25
  1

  0
LINE
  5
51A
330
519
100
AcDbEntity
  8
LC-002-100-D00-0
 62
     2
370
    -2
100
AcDbLine
 10
-123.99717
 20
332.360841
 30
0.0
 11
-123.99717
 21
405.328349
 31
0.0
  0
LINE
  5
51B
330
519
100
AcDbEntity
  8
LC-002-100-D00-0
 62
     2
370
    -2
100
AcDbLine
 10
476.00283
 20
332.360841
 30
0.0
 11
476.00283
 21
405.328349
 31
0.0
  0
LINE
  5
51C
330
519
100
AcDbEntity
  8
LC-002-100-D00-0
 62
     2
370
    -2
100
AcDbLine
 10
-103.99717
 20
401.728349
 30
0.0
 11
456.00283
 21
401.728349
 31
0.0
  0
SOLID
  5
51D
330
519
100
AcDbEntity
  8
LC-002-100-D00-0
 62
     2
100
AcDbTrace
 10
-103.99717
 20
405.061682
 30
0.0
 11
-103.99717
 21
398.395015
 31
0.0
 12
-123.99717
 22
401.728349
 32
0.0
 13
-123.99717
 23
401.728349
 33
0.0
  0
SOLID
  5
51E
330
519
100
AcDbEntity
  8
LC-002-100-D00-0
 62
     2
100
AcDbTrace
 10
456.00283
 20
398.395015
 30
0.0
 11
456.00283
 21
405.061682
 31
0.0
 12
476.00283
 22
401.728349
 32
0.0
 13
476.00283
 23
401.728349
 33
0.0
  0
MTEXT
  5
51F
330
519
100
AcDbEntity
  8
LC-002-100-D00-0
 62
     2
100
AcDbMText
 10
174.234328
 20
423.728349
 30
0.0
 40
20.0
 41
0.0
 71
     5
 72
     1
  1
\A1;600
  7
LCTX15-400-0-0pDIN-Schrift
 73
     1
 44
1.0
  0
POINT
  5
520
330
519
100
AcDbEntity
  8
Defpoints
 62
     0
100
AcDbPoint
 10
-123.99717
 20
332.360841
 30
0.0
  0
POINT
  5
521
330
519
100
AcDbEntity
  8
Defpoints
 62
     0
100
AcDbPoint
 10
476.00283
 20
332.360841
 30
0.0
  0
POINT
  5
522
330
519
100
AcDbEntity
  8
Defpoints
 62
     0
100
AcDbPoint
 10
476.00283
 20
401.728349
 30
0.0
  0
ENDBLK
  5
524
330
519
100
AcDbEntity
  8
0
100
AcDbBlockEnd
  0
BLOCK
  5
530
330
526
100
AcDbEntity
  8
0
100
AcDbBlockBegin
  2
*D26
 70
     1
 71
     0
 10
0.0
 20
0.0
 30
0.0
  3
*D26
  1

  0
LINE
  5
527
330
526
100
AcDbEntity
  8
LC-002-100-D00-0
 62
     2
370
    -2
100
AcDbLine
 10
-73.99717
 20
284.360841
 30
0.0
 11
-73.99717
 21
364.462896
 31
0.0
  0
LINE
  5
528
330
526
100
AcDbEntity
  8
LC-002-100-D00-0
 62
     2
370
    -2
100
AcDbLine
 10
426.00283
 20
284.360841
 30
0.0
 11
426.00283
 21
364.462896
 31
0.0
  0
LINE
  5
529
330
526
100
AcDbEntity
  8
LC-002-100-D00-0
 62
     2
370
    -2
100
AcDbLine
 10
-53.99717
 20
360.862896
 30
0.0
 11
406.00283
 21
360.862896
 31
0.0
  0
SOLID
  5
52A
330
526
100
AcDbEntity
  8
LC-002-100-D00-0
 62
     2
100
AcDbTrace
 10
-53.99717
 20
364.196229
 30
0.0
 11
-53.99717
 21
357.529563
 31
0.0
 12
-73.99717
 22
360.862896
 32
0.0
 13
-73.99717
 23
360.862896
 33
0.0
  0
SOLID
  5
52B
330
526
100
AcDbEntity
  8
LC-002-100-D00-0
 62
     2
100
AcDbTrace
 10
406.00283
 20
357.529563
 30
0.0
 11
406.00283
 21
364.196229
 31
0.0
 12
426.00283
 22
360.862896
 32
0.0
 13
426.00283
 23
360.862896
 33
0.0
  0
MTEXT
  5
52C
330
526
100
AcDbEntity
  8
LC-002-100-D00-0
 62
     2
100
AcDbMText
 10
173.624396
 20
382.862896
 30
0.0
 40
20.0
 41
0.0
 71
     5
 72
     1
  1
\A1;500
  7
LCTX15-400-0-0pDIN-Schrift
 73
     1
 44
1.0
  0
POINT
  5
52D
330
526
100
AcDbEntity
  8
Defpoints
 62
     0
100
AcDbPoint
 10
-73.99717
 20
284.360841
 30
0.0
  0
POINT
  5
52E
330
526
100
AcDbEntity
  8
Defpoints
 62
     0
100
AcDbPoint
 10
426.00283
 20
284.360841
 30
0.0
  0
POINT
  5
52F
330
526
100
AcDbEntity
  8
Defpoints
 62
     0
100
AcDbPoint
 10
426.00283
 20
360.862896
 30
0.0
  0
ENDBLK
  5
531
330
526
100
AcDbEntity
  8
0
100
AcDbBlockEnd
  0
BLOCK
  5
53D
330
533
100
AcDbEntity
  8
0
100
AcDbBlockBegin
  2
*D27
 70
     1
 71
     0
 10
0.0
 20
0.0
 30
0.0
  3
*D27
  1

  0
LINE
  5
534
330
533
100
AcDbEntity
  8
LC-002-100-D00-0
 62
     2
370
    -2
100
AcDbLine
 10
147.00283
 20
195.460841
 30
0.0
 11
37.669124
 21
195.460841
 31
0.0
  0
LINE
  5
535
330
533
100
AcDbEntity
  8
LC-002-100-D00-0
 62
     2
370
    -2
100
AcDbLine
 10
143.074465
 20
245.860841
 30
0.0
 11
37.669124
 21
245.860841
 31
0.0
  0
LINE
  5
536
330
533
100
AcDbEntity
  8
LC-002-100-D00-0
 62
     2
370
    -2
100
AcDbLine
 10
41.269124
 20
215.460841
 30
0.0
 11
41.269124
 21
225.860841
 31
0.0
  0
SOLID
  5
537
330
533
100
AcDbEntity
  8
LC-002-100-D00-0
 62
     2
100
AcDbTrace
 10
37.935791
 20
215.460841
 30
0.0
 11
44.602458
 21
215.460841
 31
0.0
 12
41.269124
 22
195.460841
 32
0.0
 13
41.269124
 23
195.460841
 33
0.0
  0
SOLID
  5
538
330
533
100
AcDbEntity
  8
LC-002-100-D00-0
 62
     2
100
AcDbTrace
 10
44.602458
 20
225.860841
 30
0.0
 11
37.935791
 21
225.860841
 31
0.0
 12
41.269124
 22
245.860841
 32
0.0
 13
41.269124
 23
245.860841
 33
0.0
  0
MTEXT
  5
539
330
533
100
AcDbEntity
  8
LC-002-100-D00-0
 62
     2
100
AcDbMText
 10
19.269124
 20
224.238099
 30
0.0
 40
20.0
 41
0.0
 71
     5
 72
     1
  1
\A1;50
  7
LCTX15-400-0-0pDIN-Schrift
 11
6.123031769111886E-17
 21
1.0
 31
0.0
 73
     1
 44
1.0
  0
POINT
  5
53A
330
533
100
AcDbEntity
  8
Defpoints
 62
     0
100
AcDbPoint
 10
147.00283
 20
195.460841
 30
0.0
  0
POINT
  5
53B
330
533
100
AcDbEntity
  8
Defpoints
 62
     0
100
AcDbPoint
 10
143.074465
 20
245.860841
 30
0.0
  0
POINT
  5
53C
330
533
100
AcDbEntity
  8
Defpoints
 62
     0
100
AcDbPoint
 10
41.269124
 20
245.860841
 30
0.0
  0
ENDBLK
  5
53E
330
533
100
AcDbEntity
  8
0
100
AcDbBlockEnd
  0
BLOCK
  5
54A
330
540
100
AcDbEntity
  8
0
100
AcDbBlockBegin
  2
*D28
 70
     1
 71
     0
 10
0.0
 20
0.0
 30
0.0
  3
*D28
  1

  0
LINE
  5
541
330
540
100
AcDbEntity
  8
LC-002-100-D00-0
 62
     2
370
    -2
100
AcDbLine
 10
102.00283
 20
196.360841
 30
0.0
 11
102.00283
 21
124.878755
 31
0.0
  0
LINE
  5
542
330
540
100
AcDbEntity
  8
LC-002-100-D00-0
 62
     2
370
    -2
100
AcDbLine
 10
250.00283
 20
236.610841
 30
0.0
 11
250.00283
 21
124.878755
 31
0.0
  0
LINE
  5
543
330
540
100
AcDbEntity
  8
LC-002-100-D00-0
 62
     2
370
    -2
100
AcDbLine
 10
122.00283
 20
128.478755
 30
0.0
 11
230.00283
 21
128.478755
 31
0.0
  0
SOLID
  5
544
330
540
100
AcDbEntity
  8
LC-002-100-D00-0
 62
     2
100
AcDbTrace
 10
122.00283
 20
131.812088
 30
0.0
 11
122.00283
 21
125.145421
 31
0.0
 12
102.00283
 22
128.478755
 32
0.0
 13
102.00283
 23
128.478755
 33
0.0
  0
SOLID
  5
545
330
540
100
AcDbEntity
  8
LC-002-100-D00-0
 62
     2
100
AcDbTrace
 10
230.00283
 20
125.145421
 30
0.0
 11
230.00283
 21
131.812088
 31
0.0
 12
250.00283
 22
128.478755
 32
0.0
 13
250.00283
 23
128.478755
 33
0.0
  0
MTEXT
  5
546
330
540
100
AcDbEntity
  8
LC-002-100-D00-0
 62
     2
100
AcDbMText
 10
174.234328
 20
150.478755
 30
0.0
 40
20.0
 41
0.0
 71
     5
 72
     1
  1
\A1;148
  7
LCTX15-400-0-0pDIN-Schrift
 73
     1
 44
1.0
  0
POINT
  5
547
330
540
100
AcDbEntity
  8
Defpoints
 62
     0
100
AcDbPoint
 10
102.00283
 20
196.360841
 30
0.0
  0
POINT
  5
548
330
540
100
AcDbEntity
  8
Defpoints
 62
     0
100
AcDbPoint
 10
250.00283
 20
236.610841
 30
0.0
  0
POINT
  5
549
330
540
100
AcDbEntity
  8
Defpoints
 62
     0
100
AcDbPoint
 10
250.00283
 20
128.478755
 30
0.0
  0
ENDBLK
  5
54B
330
540
100
AcDbEntity
  8
0
100
AcDbBlockEnd
  0
BLOCK
  5
557
330
54D
100
AcDbEntity
  8
0
100
AcDbBlockBegin
  2
*D29
 70
     1
 71
     0
 10
0.0
 20
0.0
 30
0.0
  3
*D29
  1

  0
LINE
  5
54E
330
54D
100
AcDbEntity
  8
LC-002-100-D00-0
 62
     2
370
    -2
100
AcDbLine
 10
102.00283
 20
196.360841
 30
0.0
 11
102.00283
 21
79.342841
 31
0.0
  0
LINE
  5
54F
330
54D
100
AcDbEntity
  8
LC-002-100-D00-0
 62
     2
370
    -2
100
AcDbLine
 10
385.502627
 20
185.798663
 30
0.0
 11
385.502627
 21
79.342841
 31
0.0
  0
LINE
  5
550
330
54D
100
AcDbEntity
  8
LC-002-100-D00-0
 62
     2
370
    -2
100
AcDbLine
 10
122.00283
 20
82.942841
 30
0.0
 11
365.502627
 21
82.942841
 31
0.0
  0
SOLID
  5
551
330
54D
100
AcDbEntity
  8
LC-002-100-D00-0
 62
     2
100
AcDbTrace
 10
122.00283
 20
86.276174
 30
0.0
 11
122.00283
 21
79.609508
 31
0.0
 12
102.00283
 22
82.942841
 32
0.0
 13
102.00283
 23
82.942841
 33
0.0
  0
SOLID
  5
552
330
54D
100
AcDbEntity
  8
LC-002-100-D00-0
 62
     2
100
AcDbTrace
 10
365.502627
 20
79.609508
 30
0.0
 11
365.502627
 21
86.276174
 31
0.0
 12
385.502627
 22
82.942841
 32
0.0
 13
385.502627
 23
82.942841
 33
0.0
  0
MTEXT
  5
553
330
54D
100
AcDbEntity
  8
LC-002-100-D00-0
 62
     2
100
AcDbMText
 10
240.049598
 20
104.942841
 30
0.0
 40
20.0
 41
0.0
 71
     5
 72
     1
  1
\A1;284
  7
LCTX15-400-0-0pDIN-Schrift
 73
     1
 44
1.0
  0
POINT
  5
554
330
54D
100
AcDbEntity
  8
Defpoints
 62
     0
100
AcDbPoint
 10
102.00283
 20
196.360841
 30
0.0
  0
POINT
  5
555
330
54D
100
AcDbEntity
  8
Defpoints
 62
     0
100
AcDbPoint
 10
385.502627
 20
185.798663
 30
0.0
  0
POINT
  5
556
330
54D
100
AcDbEntity
  8
Defpoints
 62
     0
100
AcDbPoint
 10
385.502627
 20
82.942841
 30
0.0
  0
ENDBLK
  5
558
330
54D
100
AcDbEntity
  8
0
100
AcDbBlockEnd
  0
BLOCK
  5
564
330
55A
100
AcDbEntity
  8
0
100
AcDbBlockBegin
  2
*D30
 70
     1
 71
     0
 10
0.0
 20
0.0
 30
0.0
  3
*D30
  1

  0
LINE
  5
55B
330
55A
100
AcDbEntity
  8
LC-002-100-D00-0
 62
     2
370
    -2
100
AcDbLine
 10
476.00283
 20
287.360841
 30
0.0
 11
496.077648
 21
287.360841
 31
0.0
  0
LINE
  5
55C
330
55A
100
AcDbEntity
  8
LC-002-100-D00-0
 62
     2
370
    -2
100
AcDbLine
 10
392.002627
 20
209.860841
 30
0.0
 11
496.077648
 21
209.860841
 31
0.0
  0
LINE
  5
55D
330
55A
100
AcDbEntity
  8
LC-002-100-D00-0
 62
     2
370
    -2
100
AcDbLine
 10
492.477648
 20
267.360841
 30
0.0
 11
492.477648
 21
229.860841
 31
0.0
  0
SOLID
  5
55E
330
55A
100
AcDbEntity
  8
LC-002-100-D00-0
 62
     2
100
AcDbTrace
 10
495.810981
 20
267.360841
 30
0.0
 11
489.144315
 21
267.360841
 31
0.0
 12
492.477648
 22
287.360841
 32
0.0
 13
492.477648
 23
287.360841
 33
0.0
  0
SOLID
  5
55F
330
55A
100
AcDbEntity
  8
LC-002-100-D00-0
 62
     2
100
AcDbTrace
 10
489.144315
 20
229.860841
 30
0.0
 11
495.810981
 21
229.860841
 31
0.0
 12
492.477648
 22
209.860841
 32
0.0
 13
492.477648
 23
209.860841
 33
0.0
  0
MTEXT
  5
560
330
55A
100
AcDbEntity
  8
LC-002-100-D00-0
 62
     2
100
AcDbMText
 10
470.477648
 20
243.382841
 30
0.0
 40
20.0
 41
0.0
 71
     5
 72
     1
  1
\A1;77,5
  7
LCTX15-400-0-0pDIN-Schrift
 11
6.123031769111886E-17
 21
1.0
 31
0.0
 73
     1
 44
1.0
  0
POINT
  5
561
330
55A
100
AcDbEntity
  8
Defpoints
 62
     0
100
AcDbPoint
 10
476.00283
 20
287.360841
 30
0.0
  0
POINT
  5
562
330
55A
100
AcDbEntity
  8
Defpoints
 62
     0
100
AcDbPoint
 10
392.002627
 20
209.860841
 30
0.0
  0
POINT
  5
563
330
55A
100
AcDbEntity
  8
Defpoints
 62
     0
100
AcDbPoint
 10
492.477648
 20
209.860841
 30
0.0
  0
ENDBLK
  5
565
330
55A
100
AcDbEntity
  8
0
100
AcDbBlockEnd
  0
BLOCK
  5
571
330
567
100
AcDbEntity
  8
0
100
AcDbBlockBegin
  2
*D31
 70
     1
 71
     0
 10
0.0
 20
0.0
 30
0.0
  3
*D31
  1

  0
LINE
  5
568
330
567
100
AcDbEntity
  8
LC-002-100-D00-0
 62
     2
370
    -2
100
AcDbLine
 10
476.00283
 20
287.360841
 30
0.0
 11
536.933055
 21
287.360841
 31
0.0
  0
LINE
  5
569
330
567
100
AcDbEntity
  8
LC-002-100-D00-0
 62
     2
370
    -2
100
AcDbLine
 10
230.02071
 20
177.360841
 30
0.0
 11
536.933055
 21
177.360841
 31
0.0
  0
LINE
  5
56A
330
567
100
AcDbEntity
  8
LC-002-100-D00-0
 62
     2
370
    -2
100
AcDbLine
 10
533.333055
 20
267.360841
 30
0.0
 11
533.333055
 21
197.360841
 31
0.0
  0
SOLID
  5
56B
330
567
100
AcDbEntity
  8
LC-002-100-D00-0
 62
     2
100
AcDbTrace
 10
536.666388
 20
267.360841
 30
0.0
 11
529.999722
 21
267.360841
 31
0.0
 12
533.333055
 22
287.360841
 32
0.0
 13
533.333055
 23
287.360841
 33
0.0
  0
SOLID
  5
56C
330
567
100
AcDbEntity
  8
LC-002-100-D00-0
 62
     2
100
AcDbTrace
 10
529.999722
 20
197.360841
 30
0.0
 11
536.666388
 21
197.360841
 31
0.0
 12
533.333055
 22
177.360841
 32
0.0
 13
533.333055
 23
177.360841
 33
0.0
  0
MTEXT
  5
56D
330
567
100
AcDbEntity
  8
LC-002-100-D00-0
 62
     2
100
AcDbMText
 10
511.333055
 20
235.822841
 30
0.0
 40
20.0
 41
0.0
 71
     5
 72
     1
  1
\A1;110
  7
LCTX15-400-0-0pDIN-Schrift
 11
6.123031769111886E-17
 21
1.0
 31
0.0
 73
     1
 44
1.0
  0
POINT
  5
56E
330
567
100
AcDbEntity
  8
Defpoints
 62
     0
100
AcDbPoint
 10
476.00283
 20
287.360841
 30
0.0
  0
POINT
  5
56F
330
567
100
AcDbEntity
  8
Defpoints
 62
     0
100
AcDbPoint
 10
230.02071
 20
177.360841
 30
0.0
  0
POINT
  5
570
330
567
100
AcDbEntity
  8
Defpoints
 62
     0
100
AcDbPoint
 10
533.333055
 20
177.360841
 30
0.0
  0
ENDBLK
  5
572
330
567
100
AcDbEntity
  8
0
100
AcDbBlockEnd
  0
BLOCK
  5
575
330
574
100
AcDbEntity
  8
0
100
AcDbBlockBegin
  2
KLON21
 70
     0
 71
     0
 10
0.0
 20
0.0
 30
0.0
  3
KLON21
  1

  4
KLON21
  0
LINE
  5
577
330
574
100
AcDbEntity
  8
LC-002-100-D00-0
 62
     7
370
    50
100
AcDbLine
 10
247.00283
 20
243.189393
 30
0.0
 11
250.00283
 21
246.189393
 31
0.0
  0
LINE
  5
578
330
574
100
AcDbEntity
  8
LC-002-100-D00-0
 62
     7
370
    50
100
AcDbLine
 10
241.00283
 20
259.640033
 30
0.0
 11
241.723638
 21
260.360841
 31
0.0
  0
ENDBLK
  5
576
330
574
100
AcDbEntity
  8
0
100
AcDbBlockEnd
  0
BLOCK
  5
57C
330
57B
100
AcDbEntity
  8
0
100
AcDbBlockBegin
  2
KLON22
 70
     0
 71
     0
 10
0.0
 20
0.0
 30
0.0
  3
KLON22
  1

  4
KLON22
  0
LINE
  5
57E
330
57B
100
AcDbEntity
  8
LC-002-100-D00-0
 62
     7
370
    25
100
AcDbLine
 10
274.20196
 20
180.585961
 30
0.0
 11
280.47684
 21
186.860841
 31
0.0
  0
LINE
  5
57F
330
57B
100
AcDbEntity
  8
LC-002-100-D00-0
 62
     7
370
    25
100
AcDbLine
 10
255.026201
 20
183.860841
 30
0.0
 11
258.026201
 21
186.860841
 31
0.0
  0
LINE
  5
580
330
57B
100
AcDbEntity
  8
LC-002-100-D00-0
 62
     7
370
    25
100
AcDbLine
 10
226.075562
 20
177.360841
 30
0.0
 11
229.075562
 21
180.360841
 31
0.0
  0
LINE
  5
581
330
57B
100
AcDbEntity
  8
LC-002-100-D00-0
 62
     7
370
    25
100
AcDbLine
 10
234.00283
 20
185.288109
 30
0.0
 11
235.575562
 21
186.860841
 31
0.0
  0
LINE
  5
582
330
57B
100
AcDbEntity
  8
LC-002-100-D00-0
 62
     7
370
    25
100
AcDbLine
 10
203.624923
 20
177.360841
 30
0.0
 11
206.624923
 21
180.360841
 31
0.0
  0
LINE
  5
583
330
57B
100
AcDbEntity
  8
LC-002-100-D00-0
 62
     7
370
    25
100
AcDbLine
 10
181.174283
 20
177.360841
 30
0.0
 11
184.174283
 21
180.360841
 31
0.0
  0
LINE
  5
584
330
57B
100
AcDbEntity
  8
LC-002-100-D00-0
 62
     7
370
    25
100
AcDbLine
 10
158.723644
 20
177.360841
 30
0.0
 11
161.723644
 21
180.360841
 31
0.0
  0
LINE
  5
585
330
57B
100
AcDbEntity
  8
LC-002-100-D00-0
 62
     7
370
    25
100
AcDbLine
 10
136.273004
 20
177.360841
 30
0.0
 11
139.273004
 21
180.360841
 31
0.0
  0
LINE
  5
586
330
57B
100
AcDbEntity
  8
LC-002-100-D00-0
 62
     7
370
    25
100
AcDbLine
 10
116.488162
 20
180.026638
 30
0.0
 11
118.64644
 21
182.184917
 31
0.0
  0
LINE
  5
587
330
57B
100
AcDbEntity
  8
LC-002-100-D00-0
 62
     7
370
    25
100
AcDbLine
 10
103.843181
 20
189.832298
 30
0.0
 11
106.045212
 21
192.034329
 31
0.0
  0
LINE
  5
588
330
57B
100
AcDbEntity
  8
LC-002-100-D00-0
 62
     7
370
    25
100
AcDbLine
 10
102.00283
 20
210.442588
 30
0.0
 11
105.00283
 21
213.442588
 31
0.0
  0
LINE
  5
589
330
57B
100
AcDbEntity
  8
LC-002-100-D00-0
 62
     7
370
    25
100
AcDbLine
 10
102.00283
 20
232.893229
 30
0.0
 11
105.00283
 21
235.893229
 31
0.0
  0
ENDBLK
  5
57D
330
57B
100
AcDbEntity
  8
0
100
AcDbBlockEnd
  0
BLOCK
  5
58C
330
58B
100
AcDbEntity
  8
0
100
AcDbBlockBegin
  2
KLON23
 70
     0
 71
     0
 10
0.0
 20
0.0
 30
0.0
  3
KLON23
  1

  4
KLON23
  0
LINE
  5
58E
330
58B
100
AcDbEntity
  8
LC-002-100-D00-0
 62
     7
370
    25
100
AcDbLine
 10
281.575558
 20
232.860841
 30
0.0
 11
285.000816
 21
236.286099
 31
0.0
  0
LINE
  5
58F
330
58B
100
AcDbEntity
  8
LC-002-100-D00-0
 62
     7
370
    25
100
AcDbLine
 10
259.124919
 20
232.860841
 30
0.0
 11
263.77569
 21
237.511613
 31
0.0
  0
ENDBLK
  5
58D
330
58B
100
AcDbEntity
  8
0
100
AcDbBlockEnd
  0
BLOCK
  5
593
330
592
100
AcDbEntity
  8
0
100
AcDbBlockBegin
  2
KLON24
 70
     0
 71
     0
 10
0.0
 20
0.0
 30
0.0
  3
KLON24
  1

  4
KLON24
  0
LINE
  5
595
330
592
100
AcDbEntity
  8
LC-002-100-D00-0
 62
     7
370
    25
100
AcDbLine
 10
203.50283
 20
199.689389
 30
0.0
 11
205.00283
 21
201.18939
 31
0.0
  0
LINE
  5
596
330
592
100
AcDbEntity
  8
LC-002-100-D00-0
 62
     7
370
    25
100
AcDbLine
 10
203.50283
 20
222.140031
 30
0.0
 11
205.00283
 21
223.640031
 31
0.0
  0
LINE
  5
597
330
592
100
AcDbEntity
  8
LC-002-100-D00-0
 62
     7
370
    25
100
AcDbLine
 10
203.50283
 20
244.590672
 30
0.0
 11
205.031649
 21
246.119491
 31
0.0
  0
LINE
  5
598
330
592
100
AcDbEntity
  8
LC-002-100-D00-0
 62
     7
370
    25
100
AcDbLine
 10
214.24418
 20
255.332022
 30
0.0
 11
220.272998
 21
261.360841
 31
0.0
  0
ENDBLK
  5
594
330
592
100
AcDbEntity
  8
0
100
AcDbBlockEnd
  0
BLOCK
  5
59B
330
59A
100
AcDbEntity
  8
0
100
AcDbBlockBegin
  2
KLON25
 70
     0
 71
     0
 10
0.0
 20
0.0
 30
0.0
  3
KLON25
  1

  4
KLON25
  0
LINE
  5
59D
330
59A
100
AcDbEntity
  8
LC-002-100-D00-0
 62
     7
370
    25
100
AcDbLine
 10
147.00283
 20
210.541309
 30
0.0
 11
148.50283
 21
212.041309
 31
0.0
  0
LINE
  5
59E
330
59A
100
AcDbEntity
  8
LC-002-100-D00-0
 62
     7
370
    25
100
AcDbLine
 10
147.00283
 20
232.99195
 30
0.0
 11
148.50283
 21
234.49195
 31
0.0
  0
LINE
  5
59F
330
59A
100
AcDbEntity
  8
LC-002-100-D00-0
 62
     7
370
    25
100
AcDbLine
 10
144.032905
 20
252.472666
 30
0.0
 11
148.50283
 21
256.942591
 31
0.0
  0
LINE
  5
5A0
330
59A
100
AcDbEntity
  8
LC-002-100-D00-0
 62
     7
370
    25
100
AcDbLine
 10
124.470441
 20
255.360841
 30
0.0
 11
130.47044
 21
261.360841
 31
0.0
  0
ENDBLK
  5
59C
330
59A
100
AcDbEntity
  8
0
100
AcDbBlockEnd
  0
BLOCK
  5
5A3
330
5A2
100
AcDbEntity
  8
0
100
AcDbBlockBegin
  2
KLON26
 70
     0
 71
     0
 10
0.0
 20
0.0
 30
0.0
  3
KLON26
  1

  4
KLON26
  0
LINE
  5
5A5
330
5A2
100
AcDbEntity
  8
LC-002-100-D00-0
 62
     7
370
    25
100
AcDbLine
 10
206.124923
 20
179.860841
 30
0.0
 11
207.624922
 21
181.360841
 31
0.0
  0
LINE
  5
5A6
330
5A2
100
AcDbEntity
  8
LC-002-100-D00-0
 62
     7
370
    25
100
AcDbLine
 10
215.50283
 20
189.238749
 30
0.0
 11
217.00283
 21
190.738749
 31
0.0
  0
LINE
  5
5A7
330
5A2
100
AcDbEntity
  8
LC-002-100-D00-0
 62
     7
370
    25
100
AcDbLine
 10
183.674283
 20
179.860841
 30
0.0
 11
185.174283
 21
181.360841
 31
0.0
  0
LINE
  5
5A8
330
5A2
100
AcDbEntity
  8
LC-002-100-D00-0
 62
     7
370
    25
100
AcDbLine
 10
215.50283
 20
211.68939
 30
0.0
 11
217.00283
 21
213.18939
 31
0.0
  0
LINE
  5
5A9
330
5A2
100
AcDbEntity
  8
LC-002-100-D00-0
 62
     7
370
    25
100
AcDbLine
 10
161.223644
 20
179.860841
 30
0.0
 11
162.723643
 21
181.360841
 31
0.0
  0
LINE
  5
5AA
330
5A2
100
AcDbEntity
  8
LC-002-100-D00-0
 62
     7
370
    25
100
AcDbLine
 10
215.50283
 20
234.140031
 30
0.0
 11
217.00283
 21
235.640032
 31
0.0
  0
LINE
  5
5AB
330
5A2
100
AcDbEntity
  8
LC-002-100-D00-0
 62
     7
370
    25
100
AcDbLine
 10
138.896856
 20
179.984693
 30
0.0
 11
140.273004
 21
181.360841
 31
0.0
  0
LINE
  5
5AC
330
5A2
100
AcDbEntity
  8
LC-002-100-D00-0
 62
     7
370
    25
100
AcDbLine
 10
135.00283
 20
198.541308
 30
0.0
 11
136.50283
 21
200.041308
 31
0.0
  0
LINE
  5
5AD
330
5A2
100
AcDbEntity
  8
LC-002-100-D00-0
 62
     7
370
    25
100
AcDbLine
 10
135.00283
 20
220.991949
 30
0.0
 11
136.50283
 21
222.491949
 31
0.0
  0
LINE
  5
5AE
330
5A2
100
AcDbEntity
  8
LC-002-100-D00-0
 62
     7
370
    25
100
AcDbLine
 10
135.00283
 20
243.44259
 30
0.0
 11
136.50283
 21
244.94259
 31
0.0
  0
LINE
  5
5AF
330
5A2
100
AcDbEntity
  8
LC-002-100-D00-0
 62
     7
370
    25
100
AcDbLine
 10
122.470441
 20
253.360841
 30
0.0
 11
124.470441
 21
255.360841
 31
0.0
  0
ENDBLK
  5
5A4
330
5A2
100
AcDbEntity
  8
0
100
AcDbBlockEnd
  0
BLOCK
  5
5B2
330
5B1
100
AcDbEntity
  8
0
100
AcDbBlockBegin
  2
KLON27
 70
     0
 71
     0
 10
0.0
 20
0.0
 30
0.0
  3
KLON27
  1

  4
KLON27
  0
LINE
  5
5B4
330
5B1
100
AcDbEntity
  8
LC-002-100-D00-0
 62
     7
370
    25
100
AcDbLine
 10
371.128116
 20
232.610841
 30
0.0
 11
373.378116
 21
234.860841
 31
0.0
  0
LINE
  5
5B5
330
5B1
100
AcDbEntity
  8
LC-002-100-D00-0
 62
     7
370
    25
100
AcDbLine
 10
286.977241
 20
238.262523
 30
0.0
 11
288.980272
 21
240.265554
 31
0.0
  0
LINE
  5
5B6
330
5B1
100
AcDbEntity
  8
LC-002-100-D00-0
 62
     7
370
    25
100
AcDbLine
 10
303.776179
 20
232.610841
 30
0.0
 11
306.026179
 21
234.860841
 31
0.0
  0
ENDBLK
  5
5B3
330
5B1
100
AcDbEntity
  8
0
100
AcDbBlockEnd
  0
BLOCK
  5
5B9
330
5B8
100
AcDbEntity
  8
0
100
AcDbBlockBegin
  2
KLON28
 70
     0
 71
     0
 10
0.0
 20
0.0
 30
0.0
  3
KLON28
  1

  4
KLON28
  0
LINE
  5
5BB
330
5B8
100
AcDbEntity
  8
LC-002-100-D00-0
 62
     7
370
    25
100
AcDbLine
 10
323.37812
 20
184.860841
 30
0.0
 11
325.628119
 21
187.110841
 31
0.0
  0
LINE
  5
5BC
330
5B8
100
AcDbEntity
  8
LC-002-100-D00-0
 62
     7
370
    25
100
AcDbLine
 10
345.82876
 20
184.860841
 30
0.0
 11
348.078759
 21
187.110841
 31
0.0
  0
LINE
  5
5BD
330
5B8
100
AcDbEntity
  8
LC-002-100-D00-0
 62
     7
370
    25
100
AcDbLine
 10
368.2794
 20
184.860841
 30
0.0
 11
370.529399
 21
187.110841
 31
0.0
  0
ENDBLK
  5
5BA
330
5B8
100
AcDbEntity
  8
0
100
AcDbBlockEnd
  0
BLOCK
  5
5C0
330
5BF
100
AcDbEntity
  8
0
100
AcDbBlockBegin
  2
KLON29
 70
     0
 71
     0
 10
0.0
 20
0.0
 30
0.0
  3
KLON29
  1

  4
KLON29
  0
LINE
  5
5C2
330
5BF
100
AcDbEntity
  8
LC-002-100-D00-0
 62
     7
370
    25
100
AcDbLine
 10
469.279391
 20
285.860841
 30
0.0
 11
470.779391
 21
287.360841
 31
0.0
  0
LINE
  5
5C3
330
5BF
100
AcDbEntity
  8
LC-002-100-D00-0
 62
     7
370
    25
100
AcDbLine
 10
446.828752
 20
285.860841
 30
0.0
 11
448.328752
 21
287.360841
 31
0.0
  0
LINE
  5
5C4
330
5BF
100
AcDbEntity
  8
LC-002-100-D00-0
 62
     7
370
    25
100
AcDbLine
 10
403.878114
 20
265.360841
 30
0.0
 11
405.378114
 21
266.860841
 31
0.0
  0
LINE
  5
5C5
330
5BF
100
AcDbEntity
  8
LC-002-100-D00-0
 62
     7
370
    25
100
AcDbLine
 10
381.427474
 20
265.360841
 30
0.0
 11
382.927474
 21
266.860841
 31
0.0
  0
LINE
  5
5C6
330
5BF
100
AcDbEntity
  8
LC-002-100-D00-0
 62
     7
370
    25
100
AcDbLine
 10
392.00283
 20
275.936198
 30
0.0
 11
400.00283
 21
283.936198
 31
0.0
  0
LINE
  5
5C7
330
5BF
100
AcDbEntity
  8
LC-002-100-D00-0
 62
     7
370
    25
100
AcDbLine
 10
358.976835
 20
265.360841
 30
0.0
 11
360.476835
 21
266.860841
 31
0.0
  0
LINE
  5
5C8
330
5BF
100
AcDbEntity
  8
LC-002-100-D00-0
 62
     7
370
    25
100
AcDbLine
 10
336.526195
 20
265.360841
 30
0.0
 11
338.026195
 21
266.860841
 31
0.0
  0
LINE
  5
5C9
330
5BF
100
AcDbEntity
  8
LC-002-100-D00-0
 62
     7
370
    25
100
AcDbLine
 10
314.075556
 20
265.360841
 30
0.0
 11
315.575556
 21
266.860841
 31
0.0
  0
LINE
  5
5CA
330
5BF
100
AcDbEntity
  8
LC-002-100-D00-0
 62
     7
370
    25
100
AcDbLine
 10
291.624916
 20
265.360841
 30
0.0
 11
293.124916
 21
266.860841
 31
0.0
  0
LINE
  5
5CB
330
5BF
100
AcDbEntity
  8
LC-002-100-D00-0
 62
     7
370
    25
100
AcDbLine
 10
268.995361
 20
265.181925
 30
0.0
 11
270.674277
 21
266.860841
 31
0.0
  0
LINE
  5
5CC
330
5BF
100
AcDbEntity
  8
LC-002-100-D00-0
 62
     7
370
    25
100
AcDbLine
 10
271.50283
 20
267.689394
 30
0.0
 11
280.00283
 21
276.189395
 31
0.0
  0
LINE
  5
5CD
330
5BF
100
AcDbEntity
  8
LC-002-100-D00-0
 62
     7
370
    25
100
AcDbLine
 10
241.723638
 20
260.360841
 30
0.0
 11
243.223638
 21
261.860841
 31
0.0
  0
ENDBLK
  5
5C1
330
5BF
100
AcDbEntity
  8
0
100
AcDbBlockEnd
  0
BLOCK
  5
5D0
330
5CF
100
AcDbEntity
  8
0
100
AcDbBlockBegin
  2
KLON30
 70
     0
 71
     0
 10
0.0
 20
0.0
 30
0.0
  3
KLON30
  1

  4
KLON30
  0
LINE
  5
5D2
330
5CF
100
AcDbEntity
  8
LC-002-100-D00-0
 62
     7
370
    25
100
AcDbLine
 10
107.019801
 20
260.360841
 30
0.0
 11
108.419801
 21
261.760841
 31
0.0
  0
LINE
  5
5D3
330
5CF
100
AcDbEntity
  8
LC-002-100-D00-0
 62
     7
370
    25
100
AcDbLine
 10
88.042004
 20
263.833684
 30
0.0
 11
89.266749
 21
265.058429
 31
0.0
  0
LINE
  5
5D4
330
5CF
100
AcDbEntity
  8
LC-002-100-D00-0
 62
     7
370
    25
100
AcDbLine
 10
67.118521
 20
265.360841
 30
0.0
 11
68.618521
 21
266.860841
 31
0.0
  0
LINE
  5
5D5
330
5CF
100
AcDbEntity
  8
LC-002-100-D00-0
 62
     7
370
    25
100
AcDbLine
 10
72.509081
 20
270.751401
 30
0.0
 11
80.00283
 21
278.245151
 31
0.0
  0
LINE
  5
5D6
330
5CF
100
AcDbEntity
  8
LC-002-100-D00-0
 62
     7
370
    25
100
AcDbLine
 10
44.667882
 20
265.360841
 30
0.0
 11
46.167882
 21
266.860841
 31
0.0
  0
LINE
  5
5D7
330
5CF
100
AcDbEntity
  8
LC-002-100-D00-0
 62
     7
370
    25
100
AcDbLine
 10
22.217243
 20
265.360841
 30
0.0
 11
23.717242
 21
266.860841
 31
0.0
  0
LINE
  5
5D8
330
5CF
100
AcDbEntity
  8
LC-002-100-D00-0
 62
     7
370
    25
100
AcDbLine
 10
-0.233397
 20
265.360841
 30
0.0
 11
1.266603
 21
266.860841
 31
0.0
  0
LINE
  5
5D9
330
5CF
100
AcDbEntity
  8
LC-002-100-D00-0
 62
     7
370
    25
100
AcDbLine
 10
-22.684036
 20
265.360841
 30
0.0
 11
-21.184037
 21
266.860841
 31
0.0
  0
LINE
  5
5DA
330
5CF
100
AcDbEntity
  8
LC-002-100-D00-0
 62
     7
370
    25
100
AcDbLine
 10
-45.134676
 20
265.360841
 30
0.0
 11
-40.798805
 21
269.696713
 31
0.0
  0
LINE
  5
5DB
330
5CF
100
AcDbEntity
  8
LC-002-100-D00-0
 62
     7
370
    25
100
AcDbLine
 10
-67.47039
 20
265.475767
 30
0.0
 11
-66.084835
 21
266.861321
 31
0.0
  0
LINE
  5
5DC
330
5CF
100
AcDbEntity
  8
LC-002-100-D00-0
 62
     7
370
    25
100
AcDbLine
 10
-47.99717
 20
284.948988
 30
0.0
 11
-46.085317
 21
286.860841
 31
0.0
  0
LINE
  5
5DD
330
5CF
100
AcDbEntity
  8
LC-002-100-D00-0
 62
     7
370
    25
100
AcDbLine
 10
-75.49717
 20
279.899627
 30
0.0
 11
-73.99717
 21
281.399627
 31
0.0
  0
LINE
  5
5DE
330
5CF
100
AcDbEntity
  8
LC-002-100-D00-0
 62
     7
370
    25
100
AcDbLine
 10
-91.986596
 20
285.860841
 30
0.0
 11
-90.486596
 21
287.360841
 31
0.0
  0
LINE
  5
5DF
330
5CF
100
AcDbEntity
  8
LC-002-100-D00-0
 62
     7
370
    25
100
AcDbLine
 10
-114.437235
 20
285.860841
 30
0.0
 11
-112.937235
 21
287.360841
 31
0.0
  0
ENDBLK
  5
5D1
330
5CF
100
AcDbEntity
  8
0
100
AcDbBlockEnd
  0
BLOCK
  5
5E4
330
5E3
100
AcDbEntity
  8
0
100
AcDbBlockBegin
  2
KLON31
 70
     0
 71
     0
 10
0.0
 20
0.0
 30
0.0
  3
KLON31
  1

  4
KLON31
  0
LINE
  5
5E6
330
5E3
100
AcDbEntity
  8
LC-002-100-D00-0
 62
     7
370
    25
100
AcDbLine
 10
-38.79717
 20
271.698347
 30
0.0
 11
-34.24717
 21
276.248348
 31
0.0
  0
LINE
  5
5E7
330
5E3
100
AcDbEntity
  8
LC-002-100-D00-0
 62
     7
370
    25
100
AcDbLine
 10
-28.74717
 20
281.748348
 30
0.0
 11
-25.74717
 21
284.748348
 31
0.0
  0
ENDBLK
  5
5E5
330
5E3
100
AcDbEntity
  8
0
100
AcDbBlockEnd
  0
BLOCK
  5
5EB
330
5EA
100
AcDbEntity
  8
0
100
AcDbBlockBegin
  2
KLON32
 70
     0
 71
     0
 10
0.0
 20
0.0
 30
0.0
  3
KLON32
  1

  4
KLON32
  0
LINE
  5
5ED
330
5EA
100
AcDbEntity
  8
LC-002-100-D00-0
 62
     7
370
    25
100
AcDbLine
 10
386.25283
 20
270.186197
 30
0.0
 11
390.41478
 21
274.348147
 31
0.0
  0
LINE
  5
5EE
330
5EA
100
AcDbEntity
  8
LC-002-100-D00-0
 62
     7
370
    25
100
AcDbLine
 10
377.75283
 20
284.136838
 30
0.0
 11
380.976833
 21
287.360841
 31
0.0
  0
ENDBLK
  5
5EC
330
5EA
100
AcDbEntity
  8
0
100
AcDbBlockEnd
  0
BLOCK
  5
5F3
330
5F2
100
AcDbEntity
  8
0
100
AcDbBlockBegin
  2
KLON33
 70
     0
 71
     0
 10
0.0
 20
0.0
 30
0.0
  3
KLON33
  1

  4
KLON33
  0
LINE
  5
5F5
330
5F2
100
AcDbEntity
  8
LC-002-100-D00-0
 62
     7
370
    25
100
AcDbLine
 10
59.667881
 20
280.360841
 30
0.0
 11
60.75283
 21
281.44579
 31
0.0
  0
LINE
  5
5F6
330
5F2
100
AcDbEntity
  8
LC-002-100-D00-0
 62
     7
370
    25
100
AcDbLine
 10
63.667881
 20
284.360841
 30
0.0
 11
66.66788
 21
287.360841
 31
0.0
  0
ENDBLK
  5
5F4
330
5F2
100
AcDbEntity
  8
0
100
AcDbBlockEnd
  0
BLOCK
  5
5FB
330
5FA
100
AcDbEntity
  8
0
100
AcDbBlockBegin
  2
KLON34
 70
     0
 71
     0
 10
0.0
 20
0.0
 30
0.0
  3
KLON34
  1

  4
KLON34
  0
LINE
  5
5FD
330
5FA
100
AcDbEntity
  8
LC-002-100-D00-0
 62
     7
370
    25
100
AcDbLine
 10
280.174276
 20
276.360841
 30
0.0
 11
285.75283
 21
281.939395
 31
0.0
  0
LINE
  5
5FE
330
5FA
100
AcDbEntity
  8
LC-002-100-D00-0
 62
     7
370
    25
100
AcDbLine
 10
288.174275
 20
284.360841
 30
0.0
 11
291.174275
 21
287.360841
 31
0.0
  0
ENDBLK
  5
5FC
330
5FA
100
AcDbEntity
  8
0
100
AcDbBlockEnd
  0
BLOCK
  5
612
330
608
100
AcDbEntity
  8
0
100
AcDbBlockBegin
  2
*D46
 70
     1
 71
     0
 10
0.0
 20
0.0
 30
0.0
  3
*D46
  1

  0
LINE
  5
609
330
608
100
AcDbEntity
  8
LC-003-003-----0
 62
     2
370
    -2
100
AcDbLine
 10
-123.99717
 20
287.360841
 30
0.0
 11
-167.549635
 21
287.360841
 31
0.0
  0
LINE
  5
60A
330
608
100
AcDbEntity
  8
LC-003-003-----0
 62
     2
370
    -2
100
AcDbLine
 10
-118.99717
 20
333.360841
 30
0.0
 11
-167.549635
 21
333.360841
 31
0.0
  0
LINE
  5
60B
330
608
100
AcDbEntity
  8
LC-003-003-----0
 62
     2
370
    -2
100
AcDbLine
 10
-163.949635
 20
307.360841
 30
0.0
 11
-163.949635
 21
313.360841
 31
0.0
  0
SOLID
  5
60C
330
608
100
AcDbEntity
  8
LC-003-003-----0
 62
     2
100
AcDbTrace
 10
-167.282969
 20
307.360841
 30
0.0
 11
-160.616302
 21
307.360841
 31
0.0
 12
-163.949635
 22
287.360841
 32
0.0
 13
-163.949635
 23
287.360841
 33
0.0
  0
SOLID
  5
60D
330
608
100
AcDbEntity
  8
LC-003-003-----0
 62
     2
100
AcDbTrace
 10
-160.616302
 20
313.360841
 30
0.0
 11
-167.282969
 21
313.360841
 31
0.0
 12
-163.949635
 22
333.360841
 32
0.0
 13
-163.949635
 23
333.360841
 33
0.0
  0
MTEXT
  5
60E
330
608
100
AcDbEntity
  8
LC-003-003-----0
 62
     2
100
AcDbMText
 10
-185.949635
 20
310.055318
 30
0.0
 40
20.0
 41
0.0
 71
     5
 72
     1
  1
\A1;46
  7
LCTX15-400-0-0pDIN-Schrift
 11
6.123031769111886E-17
 21
1.0
 31
0.0
 73
     1
 44
1.0
  0
POINT
  5
60F
330
608
100
AcDbEntity
  8
Defpoints
 62
     0
100
AcDbPoint
 10
-123.99717
 20
287.360841
 30
0.0
  0
POINT
  5
610
330
608
100
AcDbEntity
  8
Defpoints
 62
     0
100
AcDbPoint
 10
-118.99717
 20
333.360841
 30
0.0
  0
POINT
  5
611
330
608
100
AcDbEntity
  8
Defpoints
 62
     0
100
AcDbPoint
 10
-163.949635
 20
333.360841
 30
0.0
  0
ENDBLK
  5
613
330
608
100
AcDbEntity
  8
0
100
AcDbBlockEnd
  0
BLOCK
  5
61F
330
615
100
AcDbEntity
  8
0
100
AcDbBlockBegin
  2
*D47
 70
     1
 71
     0
 10
0.0
 20
0.0
 30
0.0
  3
*D47
  1

  0
LINE
  5
616
330
615
100
AcDbEntity
  8
LC-003-003-----0
 62
     2
370
    -2
100
AcDbLine
 10
720.087213
 20
287.360841
 30
0.0
 11
770.04688
 21
287.360841
 31
0.0
  0
LINE
  5
617
330
615
100
AcDbEntity
  8
LC-003-003-----0
 62
     2
370
    -2
100
AcDbLine
 10
716.587213
 20
152.860841
 30
0.0
 11
770.04688
 21
152.860841
 31
0.0
  0
LINE
  5
618
330
615
100
AcDbEntity
  8
LC-003-003-----0
 62
     2
370
    -2
100
AcDbLine
 10
766.44688
 20
267.360841
 30
0.0
 11
766.44688
 21
172.860841
 31
0.0
  0
SOLID
  5
619
330
615
100
AcDbEntity
  8
LC-003-003-----0
 62
     2
100
AcDbTrace
 10
769.780213
 20
267.360841
 30
0.0
 11
763.113546
 21
267.360841
 31
0.0
 12
766.44688
 22
287.360841
 32
0.0
 13
766.44688
 23
287.360841
 33
0.0
  0
SOLID
  5
61A
330
615
100
AcDbEntity
  8
LC-003-003-----0
 62
     2
100
AcDbTrace
 10
763.113546
 20
172.860841
 30
0.0
 11
769.780213
 21
172.860841
 31
0.0
 12
766.44688
 22
152.860841
 32
0.0
 13
766.44688
 23
152.860841
 33
0.0
  0
MTEXT
  5
61B
330
615
100
AcDbEntity
  8
LC-003-003-----0
 62
     2
100
AcDbMText
 10
744.44688
 20
228.262841
 30
0.0
 40
20.0
 41
0.0
 71
     5
 72
     1
  1
\A1;110-129,5
  7
LCTX15-400-0-0pDIN-Schrift
 11
6.123031769111886E-17
 21
1.0
 31
0.0
 73
     1
 44
1.0
  0
POINT
  5
61C
330
615
100
AcDbEntity
  8
Defpoints
 62
     0
100
AcDbPoint
 10
720.087213
 20
287.360841
 30
0.0
  0
POINT
  5
61D
330
615
100
AcDbEntity
  8
Defpoints
 62
     0
100
AcDbPoint
 10
716.587213
 20
152.860841
 30
0.0
  0
POINT
  5
61E
330
615
100
AcDbEntity
  8
Defpoints
 62
     0
100
AcDbPoint
 10
766.44688
 20
152.860841
 30
0.0
  0
ENDBLK
  5
620
330
615
100
AcDbEntity
  8
0
100
AcDbBlockEnd
  0
ENDSEC
  0
SECTION
  2
ENTITIES
  0
LINE
  5
31
330
1F
100
AcDbEntity
  8
LC-001-002-----0
 62
     7
370
    50
100
AcDbLine
 10
-118.99717
 20
333.360841
 30
0.0
 11
471.00283
 21
333.360841
 31
0.0
  0
LINE
  5
33
330
1F
100
AcDbEntity
  8
LC-002-100-D00-0
 62
     7
370
    50
100
AcDbLine
 10
673.087213
 20
285.860841
 30
0.0
 11
673.087213
 21
284.460841
 31
0.0
  0
LINE
  5
34
330
1F
100
AcDbEntity
  8
LC-002-100-D00-0
 62
     7
370
    50
100
AcDbLine
 10
682.087213
 20
284.460841
 30
0.0
 11
682.087214
 21
285.860841
 31
0.0
  0
LINE
  5
35
330
1F
100
AcDbEntity
  8
LC-002-100-D00-0
 62
     7
370
    50
100
AcDbLine
 10
603.087211
 20
285.860841
 30
0.0
 11
603.087213
 21
284.460841
 31
0.0
  0
LINE
  5
36
330
1F
100
AcDbEntity
  8
LC-002-100-D00-0
 62
     7
370
    50
100
AcDbLine
 10
612.087213
 20
284.460841
 30
0.0
 11
612.087212
 21
285.860841
 31
0.0
  0
LINE
  5
37
330
1F
100
AcDbEntity
  8
LC-002-100-D00-0
 62
     7
370
    50
100
AcDbLine
 10
603.587212
 20
284.460841
 30
0.0
 11
603.587213
 21
270.860841
 31
0.0
  0
LINE
  5
38
330
1F
100
AcDbEntity
  8
LC-002-100-D00-0
 62
     7
370
    50
100
AcDbLine
 10
611.587213
 20
270.860841
 30
0.0
 11
611.587213
 21
284.460841
 31
0.0
  0
LINE
  5
39
330
1F
100
AcDbEntity
  8
LC-002-100-D00-0
 62
     7
370
    50
100
AcDbLine
 10
673.587212
 20
284.460841
 30
0.0
 11
673.587213
 21
270.860841
 31
0.0
  0
LINE
  5
3A
330
1F
100
AcDbEntity
  8
LC-002-100-D00-0
 62
     7
370
    50
100
AcDbLine
 10
681.587213
 20
270.860841
 30
0.0
 11
681.587213
 21
284.460841
 31
0.0
  0
ARC
  5
3B
330
1F
100
AcDbEntity
  8
LC-002-100-D00-0
 62
     7
370
    50
100
AcDbCircle
 10
698.087213
 20
160.360841
 30
0.0
 40
0.5000000000009095
100
AcDbArc
 50
90.0
 51
180.0
  0
ARC
  5
3C
330
1F
100
AcDbEntity
  8
LC-002-100-D00-0
 62
     7
370
    50
100
AcDbCircle
 10
716.087213
 20
160.360841
 30
0.0
 40
0.5000000000011369
100
AcDbArc
 50
0.0
 51
90.0
  0
LINE
  5
3D
330
1F
100
AcDbEntity
  8
LC-002-100-D00-0
 62
     7
370
    50
100
AcDbLine
 10
697.587213
 20
160.360841
 30
0.0
 11
697.587213
 21
152.860841
 31
0.0
  0
LINE
  5
3E
330
1F
100
AcDbEntity
  8
LC-002-100-D00-0
 62
     7
370
    50
100
AcDbLine
 10
716.587213
 20
152.860841
 30
0.0
 11
716.587213
 21
160.360841
 31
0.0
  0
LINE
  5
3F
330
1F
100
AcDbEntity
  8
LC-002-100-D00-0
 62
     7
370
    50
100
AcDbLine
 10
697.087213
 20
172.360841
 30
0.0
 11
697.087213
 21
161.860841
 31
0.0
  0
LINE
  5
40
330
1F
100
AcDbEntity
  8
LC-002-100-D00-0
 62
     7
370
    50
100
AcDbLine
 10
717.087213
 20
161.860841
 30
0.0
 11
717.087213
 21
172.360841
 31
0.0
  0
LINE
  5
41
330
1F
100
AcDbEntity
  8
LC-002-100-D00-0
 62
     7
370
    50
100
AcDbLine
 10
697.087213
 20
161.860841
 30
0.0
 11
698.087213
 21
160.860841
 31
0.0
  0
LINE
  5
42
330
1F
100
AcDbEntity
  8
LC-002-100-D00-0
 62
     7
370
    50
100
AcDbLine
 10
716.087213
 20
160.860841
 30
0.0
 11
717.087213
 21
161.860841
 31
0.0
  0
LINE
  5
43
330
1F
100
AcDbEntity
  8
LC-002-100-D00-0
 62
     7
370
    50
100
AcDbLine
 10
697.087211
 20
229.86084
 30
0.0
 11
697.087213
 21
175.860841
 31
0.0
  0
LINE
  5
44
330
1F
100
AcDbEntity
  8
LC-002-100-D00-0
 62
     7
370
    50
100
AcDbLine
 10
717.087213
 20
175.860841
 30
0.0
 11
717.087215
 21
229.86084
 31
0.0
  0
LINE
  5
45
330
1F
100
AcDbEntity
  8
LC-002-100-D00-0
 62
     7
370
    50
100
AcDbLine
 10
699.187213
 20
175.860839
 30
0.0
 11
699.187213
 21
172.360839
 31
0.0
  0
LINE
  5
46
330
1F
100
AcDbEntity
  8
LC-002-100-D00-0
 62
     7
370
    50
100
AcDbLine
 10
714.987216
 20
172.360839
 30
0.0
 11
714.987216
 21
175.860839
 31
0.0
  0
ARC
  5
47
330
1F
100
AcDbEntity
  8
LC-002-100-D00-0
 62
     7
370
    50
100
AcDbCircle
 10
611.987213
 20
261.460841
 30
0.0
 40
0.5999999999999091
100
AcDbArc
 50
270.0
 51
0.0
  0
ARC
  5
48
330
1F
100
AcDbEntity
  8
LC-002-100-D00-0
 62
     7
370
    50
100
AcDbCircle
 10
603.187213
 20
261.460841
 30
0.0
 40
0.5999999999999091
100
AcDbArc
 50
180.0
 51
270.0
  0
LINE
  5
49
330
1F
100
AcDbEntity
  8
LC-002-100-D00-0
 62
     7
370
    50
100
AcDbLine
 10
612.587213
 20
261.460841
 30
0.0
 11
612.587213
 21
264.86084
 31
0.0
  0
LINE
  5
4A
330
1F
100
AcDbEntity
  8
LC-002-100-D00-0
 62
     7
370
    50
100
AcDbLine
 10
602.587214
 20
264.86084
 30
0.0
 11
602.587213
 21
261.460841
 31
0.0
  0
LINE
  5
4B
330
1F
100
AcDbEntity
  8
LC-002-100-D00-0
 62
     7
370
    50
100
AcDbLine
 10
610.587211
 20
269.860841
 30
0.0
 11
610.587211
 21
270.860841
 31
0.0
  0
LINE
  5
4C
330
1F
100
AcDbEntity
  8
LC-002-100-D00-0
 62
     7
370
    50
100
AcDbLine
 10
604.587214
 20
270.860841
 30
0.0
 11
604.587214
 21
269.860841
 31
0.0
  0
LINE
  5
4D
330
1F
100
AcDbEntity
  8
LC-002-100-D00-0
 62
     7
370
    50
100
AcDbLine
 10
682.587213
 20
261.460841
 30
0.0
 11
682.587212
 21
264.86084
 31
0.0
  0
LINE
  5
4E
330
1F
100
AcDbEntity
  8
LC-002-100-D00-0
 62
     7
370
    50
100
AcDbLine
 10
672.587212
 20
264.86084
 30
0.0
 11
672.587213
 21
261.460841
 31
0.0
  0
ARC
  5
4F
330
1F
100
AcDbEntity
  8
LC-002-100-D00-0
 62
     7
370
    50
100
AcDbCircle
 10
681.987213
 20
261.460841
 30
0.0
 40
0.5999999999999091
100
AcDbArc
 50
270.0
 51
0.0
  0
ARC
  5
50
330
1F
100
AcDbEntity
  8
LC-002-100-D00-0
 62
     7
370
    50
100
AcDbCircle
 10
673.187213
 20
261.460841
 30
0.0
 40
0.5999999999999091
100
AcDbArc
 50
180.0
 51
270.0
  0
LINE
  5
51
330
1F
100
AcDbEntity
  8
LC-002-100-D00-0
 62
     7
370
    50
100
AcDbLine
 10
680.587211
 20
269.860841
 30
0.0
 11
680.587211
 21
270.860841
 31
0.0
  0
LINE
  5
52
330
1F
100
AcDbEntity
  8
LC-002-100-D00-0
 62
     7
370
    50
100
AcDbLine
 10
674.587214
 20
270.860841
 30
0.0
 11
674.587214
 21
269.860841
 31
0.0
  0
LINE
  5
53
330
1F
100
AcDbEntity
  8
LC-002-100-D00-0
 62
     7
370
    50
100
AcDbLine
 10
613.087213
 20
264.860841
 30
0.0
 11
613.087212
 21
266.86084
 31
0.0
  0
LINE
  5
54
330
1F
100
AcDbEntity
  8
LC-002-100-D00-0
 62
     7
370
    50
100
AcDbLine
 10
602.087213
 20
266.860841
 30
0.0
 11
602.087213
 21
264.860841
 31
0.0
  0
LINE
  5
55
330
1F
100
AcDbEntity
  8
LC-002-100-D00-0
 62
     7
370
    50
100
AcDbLine
 10
683.087213
 20
264.860841
 30
0.0
 11
683.087213
 21
266.860841
 31
0.0
  0
LINE
  5
56
330
1F
100
AcDbEntity
  8
LC-002-100-D00-0
 62
     7
370
    50
100
AcDbLine
 10
672.087213
 20
266.86084
 30
0.0
 11
672.087213
 21
264.860841
 31
0.0
  0
ARC
  5
57
330
1F
100
AcDbEntity
  8
LC-002-100-D00-0
 62
     7
370
    50
100
AcDbCircle
 10
599.587213
 20
288.860841
 30
0.0
 40
1.5
100
AcDbArc
 50
180.0
 51
270.0
  0
LINE
  5
58
330
1F
100
AcDbEntity
  8
LC-002-100-D00-0
 62
     7
370
    50
100
AcDbLine
 10
599.587213
 20
287.360841
 30
0.0
 11
715.087213
 21
287.360841
 31
0.0
  0
LINE
  5
59
330
1F
100
AcDbEntity
  8
LC-002-100-D00-0
 62
     7
370
    50
100
AcDbLine
 10
599.087213
 20
285.860841
 30
0.0
 11
715.087213
 21
285.860841
 31
0.0
  0
ARC
  5
5A
330
1F
100
AcDbEntity
  8
LC-002-100-D00-0
 62
     7
370
    50
100
AcDbCircle
 10
599.087213
 20
288.360841
 30
0.0
 40
2.5
100
AcDbArc
 50
180.0
 51
270.0
  0
LINE
  5
5B
330
1F
100
AcDbEntity
  8
LC-002-100-D00-0
 62
     7
370
    50
100
AcDbLine
 10
596.587213
 20
288.360841
 30
0.0
 11
596.587213
 21
332.360841
 31
0.0
  0
LINE
  5
5C
330
1F
100
AcDbEntity
  8
LC-002-100-D00-0
 62
     7
370
    50
100
AcDbLine
 10
598.087213
 20
332.360841
 30
0.0
 11
598.087213
 21
288.860841
 31
0.0
  0
LINE
  5
5D
330
1F
100
AcDbEntity
  8
LC-002-100-D00-0
 62
     7
370
    50
100
AcDbLine
 10
715.087213
 20
287.360841
 30
0.0
 11
720.087213
 21
287.360841
 31
0.0
  0
LINE
  5
5E
330
1F
100
AcDbEntity
  8
LC-002-100-D00-0
 62
     7
370
    50
100
AcDbLine
 10
720.087213
 20
287.360841
 30
0.0
 11
720.087213
 21
285.860841
 31
0.0
  0
LINE
  5
5F
330
1F
100
AcDbEntity
  8
LC-002-100-D00-0
 62
     7
370
    50
100
AcDbLine
 10
720.087213
 20
285.860841
 30
0.0
 11
715.087213
 21
285.860841
 31
0.0
  0
LINE
  5
60
330
1F
100
AcDbEntity
  8
LC-002-100-D00-0
 62
     7
370
    50
100
AcDbLine
 10
596.587213
 20
337.360841
 30
0.0
 11
598.087213
 21
337.360841
 31
0.0
  0
LINE
  5
61
330
1F
100
AcDbEntity
  8
LC-002-100-D00-0
 62
     7
370
    50
100
AcDbLine
 10
598.087213
 20
337.360841
 30
0.0
 11
598.087213
 21
332.360841
 31
0.0
  0
LINE
  5
62
330
1F
100
AcDbEntity
  8
LC-002-100-D00-0
 62
     7
370
    50
100
AcDbLine
 10
596.587213
 20
332.360841
 30
0.0
 11
596.587213
 21
337.360841
 31
0.0
  0
ARC
  5
63
330
1F
100
AcDbEntity
  8
LC-002-100-D00-0
 62
     7
370
    50
100
AcDbCircle
 10
671.587213
 20
284.360841
 30
0.0
 40
1.5
100
AcDbArc
 50
90.0
 51
180.0
  0
ARC
  5
64
330
1F
100
AcDbEntity
  8
LC-002-100-D00-0
 62
     7
370
    50
100
AcDbCircle
 10
613.587213
 20
284.360841
 30
0.0
 40
1.500000000000455
100
AcDbArc
 50
0.0
 51
90.0
  0
LINE
  5
65
330
1F
100
AcDbEntity
  8
LC-002-100-D00-0
 62
     7
370
    50
100
AcDbLine
 10
654.920622
 20
265.360841
 30
0.0
 11
666.087213
 21
265.360841
 31
0.0
  0
LINE
  5
66
330
1F
100
AcDbEntity
  8
LC-002-100-D00-0
 62
     7
370
    50
100
AcDbLine
 10
654.742407
 20
265.360841
 30
0.0
 11
654.920622
 21
265.360841
 31
0.0
  0
LINE
  5
67
330
1F
100
AcDbEntity
  8
LC-002-100-D00-0
 62
     7
370
    50
100
AcDbLine
 10
654.742407
 20
265.360841
 30
0.0
 11
630.432018
 21
265.360841
 31
0.0
  0
LINE
  5
68
330
1F
100
AcDbEntity
  8
LC-002-100-D00-0
 62
     7
370
    50
100
AcDbLine
 10
630.253804
 20
265.360841
 30
0.0
 11
630.432018
 21
265.360841
 31
0.0
  0
LINE
  5
69
330
1F
100
AcDbEntity
  8
LC-002-100-D00-0
 62
     7
370
    50
100
AcDbLine
 10
619.087213
 20
265.360841
 30
0.0
 11
630.253804
 21
265.360841
 31
0.0
  0
ARC
  5
6A
330
1F
100
AcDbEntity
  8
LC-002-100-D00-0
 62
     7
370
    50
100
AcDbCircle
 10
619.087213
 20
269.360841
 30
0.0
 40
3.999999999999773
100
AcDbArc
 50
180.0
 51
270.0
  0
LINE
  5
6B
330
1F
100
AcDbEntity
  8
LC-002-100-D00-0
 62
     7
370
    50
100
AcDbLine
 10
615.087213
 20
274.860841
 30
0.0
 11
615.087213
 21
269.360841
 31
0.0
  0
LINE
  5
6C
330
1F
100
AcDbEntity
  8
LC-002-100-D00-0
 62
     7
370
    50
100
AcDbLine
 10
615.087213
 20
274.860841
 30
0.0
 11
615.087213
 21
284.360841
 31
0.0
  0
ARC
  5
6D
330
1F
100
AcDbEntity
  8
LC-002-100-D00-0
 62
     7
370
    50
100
AcDbCircle
 10
666.087213
 20
269.360841
 30
0.0
 40
4.000000000014552
100
AcDbArc
 50
270.0
 51
0.0
  0
LINE
  5
6E
330
1F
100
AcDbEntity
  8
LC-002-100-D00-0
 62
     7
370
    50
100
AcDbLine
 10
670.087213
 20
269.360841
 30
0.0
 11
670.087213
 21
274.860841
 31
0.0
  0
LINE
  5
6F
330
1F
100
AcDbEntity
  8
LC-002-100-D00-0
 62
     7
370
    50
100
AcDbLine
 10
670.087213
 20
284.360841
 30
0.0
 11
670.087213
 21
274.860841
 31
0.0
  0
ARC
  5
70
330
1F
100
AcDbEntity
  8
LC-002-100-D00-0
 62
     7
370
    50
100
AcDbCircle
 10
619.087213
 20
264.360841
 30
0.0
 40
4.000000000039563
100
AcDbArc
 50
180.0
 51
270.0
  0
LINE
  5
71
330
1F
100
AcDbEntity
  8
LC-002-100-D00-0
 62
     7
370
    50
100
AcDbLine
 10
615.087213
 20
264.360841
 30
0.0
 11
615.087213
 21
269.360841
 31
0.0
  0
ARC
  5
72
330
1F
100
AcDbEntity
  8
LC-002-100-D00-0
 62
     7
370
    50
100
AcDbCircle
 10
666.087213
 20
264.360841
 30
0.0
 40
4.0
100
AcDbArc
 50
270.0
 51
0.0
  0
LINE
  5
73
330
1F
100
AcDbEntity
  8
LC-002-100-D00-0
 62
     7
370
    50
100
AcDbLine
 10
670.087213
 20
269.360841
 30
0.0
 11
670.087213
 21
264.360841
 31
0.0
  0
ARC
  5
74
330
1F
100
AcDbEntity
  8
LC-002-100-D00-0
 62
     7
370
    50
100
AcDbCircle
 10
637.992907
 20
262.860841
 30
0.0
 40
2.5
100
AcDbArc
 50
90.0
 51
108.434949
  0
LINE
  5
75
330
1F
100
AcDbEntity
  8
LC-002-100-D00-0
 62
     7
370
    50
100
AcDbLine
 10
637.202337
 20
265.23255
 30
0.0
 11
637.201254
 21
265.232188
 31
0.0
  0
LINE
  5
76
330
1F
100
AcDbEntity
  8
LC-002-100-D00-0
 62
     7
370
    50
100
AcDbLine
 10
666.087212
 20
260.36084
 30
0.0
 11
663.238181
 21
260.36084
 31
0.0
  0
LINE
  5
77
330
1F
100
AcDbEntity
  8
LC-002-100-D00-0
 62
     7
370
    50
100
AcDbLine
 10
647.973172
 20
265.232188
 30
0.0
 11
647.972088
 21
265.23255
 31
0.0
  0
ARC
  5
78
330
1F
100
AcDbEntity
  8
LC-002-100-D00-0
 62
     7
370
    50
100
AcDbCircle
 10
647.181519
 20
262.860841
 30
0.0
 40
2.499999999999846
100
AcDbArc
 50
71.565051
 51
90.0
  0
LINE
  5
79
330
1F
100
AcDbEntity
  8
LC-002-100-D00-0
 62
     7
370
    50
100
AcDbLine
 10
621.936245
 20
260.36084
 30
0.0
 11
619.087213
 21
260.36084
 31
0.0
  0
LINE
  5
7A
330
1F
100
AcDbEntity
  8
LC-002-100-D00-0
 62
     7
370
    50
100
AcDbLine
 10
663.238181
 20
260.36084
 30
0.0
 11
663.236324
 21
260.36084
 31
0.0
  0
LINE
  5
7B
330
1F
100
AcDbEntity
  8
LC-002-100-D00-0
 62
     7
370
    50
100
AcDbLine
 10
663.236324
 20
260.36084
 30
0.0
 11
661.971412
 21
260.566108
 31
0.0
  0
LINE
  5
7C
330
1F
100
AcDbEntity
  8
LC-002-100-D00-0
 62
     7
370
    50
100
AcDbLine
 10
661.971412
 20
260.566108
 30
0.0
 11
661.969332
 21
260.5668
 31
0.0
  0
LINE
  5
7D
330
1F
100
AcDbEntity
  8
LC-002-100-D00-0
 62
     7
370
    50
100
AcDbLine
 10
621.938102
 20
260.36084
 30
0.0
 11
623.203013
 21
260.566108
 31
0.0
  0
LINE
  5
7E
330
1F
100
AcDbEntity
  8
LC-002-100-D00-0
 62
     7
370
    50
100
AcDbLine
 10
621.938102
 20
260.36084
 30
0.0
 11
621.936245
 21
260.36084
 31
0.0
  0
LINE
  5
7F
330
1F
100
AcDbEntity
  8
LC-002-100-D00-0
 62
     7
370
    50
100
AcDbLine
 10
623.205093
 20
260.5668
 30
0.0
 11
623.203013
 21
260.566108
 31
0.0
  0
LINE
  5
80
330
1F
100
AcDbEntity
  8
LC-002-100-D00-0
 62
     7
370
    50
100
AcDbLine
 10
661.969332
 20
260.5668
 30
0.0
 11
647.973172
 21
265.232188
 31
0.0
  0
LINE
  5
81
330
1F
100
AcDbEntity
  8
LC-002-100-D00-0
 62
     7
370
    50
100
AcDbLine
 10
637.201254
 20
265.232188
 30
0.0
 11
623.205093
 21
260.5668
 31
0.0
  0
LINE
  5
82
330
1F
100
AcDbEntity
  8
LC-002-100-D00-0
 62
     7
370
    50
100
AcDbLine
 10
694.087213
 20
283.860841
 30
0.0
 11
720.087213
 21
283.860841
 31
0.0
  0
LINE
  5
83
330
1F
100
AcDbEntity
  8
LC-002-100-D00-0
 62
     7
370
    50
100
AcDbLine
 10
694.087213
 20
285.860841
 30
0.0
 11
694.087213
 21
283.860841
 31
0.0
  0
LINE
  5
84
330
1F
100
AcDbEntity
  8
LC-002-100-D00-0
 62
     7
370
    50
100
AcDbLine
 10
720.087213
 20
285.860841
 30
0.0
 11
720.087213
 21
283.860841
 31
0.0
  0
LINE
  5
85
330
1F
100
AcDbEntity
  8
LC-002-100-D00-0
 62
     7
370
    50
100
AcDbLine
 10
694.087213
 20
281.860841
 30
0.0
 11
694.087213
 21
283.860841
 31
0.0
  0
LINE
  5
86
330
1F
100
AcDbEntity
  8
LC-002-100-D00-0
 62
     7
370
    50
100
AcDbLine
 10
720.087213
 20
283.860841
 30
0.0
 11
720.087213
 21
281.860841
 31
0.0
  0
LINE
  5
87
330
1F
100
AcDbEntity
  8
LC-002-100-D00-0
 62
     7
370
    50
100
AcDbLine
 10
720.087213
 20
256.760841
 30
0.0
 11
717.64682
 21
256.760841
 31
0.0
  0
LINE
  5
88
330
1F
100
AcDbEntity
  8
LC-002-100-D00-0
 62
     7
370
    50
100
AcDbLine
 10
696.527606
 20
256.760841
 30
0.0
 11
694.087213
 21
256.760841
 31
0.0
  0
LINE
  5
89
330
1F
100
AcDbEntity
  8
LC-002-100-D00-0
 62
     7
370
    50
100
AcDbLine
 10
694.087213
 20
256.760841
 30
0.0
 11
694.087213
 21
260.760841
 31
0.0
  0
LINE
  5
8A
330
1F
100
AcDbEntity
  8
LC-002-100-D00-0
 62
     7
370
    50
100
AcDbLine
 10
720.087213
 20
260.760841
 30
0.0
 11
720.087213
 21
256.760841
 31
0.0
  0
LINE
  5
8B
330
1F
100
AcDbEntity
  8
LC-002-100-D00-0
 62
     7
370
    50
100
AcDbLine
 10
694.087213
 20
281.860841
 30
0.0
 11
694.087213
 21
260.760841
 31
0.0
  0
LINE
  5
8C
330
1F
100
AcDbEntity
  8
LC-002-100-D00-0
 62
     7
370
    50
100
AcDbLine
 10
720.087213
 20
281.860841
 30
0.0
 11
720.087213
 21
260.760841
 31
0.0
  0
LINE
  5
8D
330
1F
100
AcDbEntity
  8
LC-002-100-D00-0
 62
     7
370
    50
100
AcDbLine
 10
623.657353
 20
260.36084
 30
0.0
 11
621.938102
 21
260.36084
 31
0.0
  0
LINE
  5
8E
330
1F
100
AcDbEntity
  8
LC-002-100-D00-0
 62
     7
370
    50
100
AcDbLine
 10
663.236324
 20
260.36084
 30
0.0
 11
661.517072
 21
260.36084
 31
0.0
  0
LINE
  5
8F
330
1F
100
AcDbEntity
  8
LC-002-100-D00-0
 62
     7
370
    50
100
AcDbLine
 10
661.517072
 20
260.36084
 30
0.0
 11
623.657353
 21
260.36084
 31
0.0
  0
LINE
  5
90
330
1F
100
AcDbEntity
  8
LC-002-100-D00-0
 62
     7
370
    50
100
AcDbLine
 10
682.087213
 20
284.460841
 30
0.0
 11
673.087213
 21
284.460841
 31
0.0
  0
LINE
  5
91
330
1F
100
AcDbEntity
  8
LC-002-100-D00-0
 62
     7
370
    50
100
AcDbLine
 10
603.087213
 20
284.460841
 30
0.0
 11
612.087213
 21
284.460841
 31
0.0
  0
LINE
  5
92
330
1F
100
AcDbEntity
  8
LC-002-100-D00-0
 62
     7
370
    50
100
AcDbLine
 10
603.587213
 20
270.860841
 30
0.0
 11
611.587213
 21
270.860841
 31
0.0
  0
LINE
  5
93
330
1F
100
AcDbEntity
  8
LC-002-100-D00-0
 62
     7
370
    50
100
AcDbLine
 10
681.587213
 20
270.860841
 30
0.0
 11
673.587213
 21
270.860841
 31
0.0
  0
LINE
  5
94
330
1F
100
AcDbEntity
  8
LC-002-100-D00-0
 62
     7
370
    50
100
AcDbLine
 10
698.245289
 20
160.860845
 30
0.0
 11
715.955106
 21
160.860845
 31
0.0
  0
LINE
  5
95
330
1F
100
AcDbEntity
  8
LC-002-100-D00-0
 62
     7
370
    50
100
AcDbLine
 10
709.024932
 20
152.860841
 30
0.0
 11
697.587213
 21
152.860841
 31
0.0
  0
LINE
  5
96
330
1F
100
AcDbEntity
  8
LC-002-100-D00-0
 62
     7
370
    50
100
AcDbLine
 10
716.587213
 20
152.860841
 30
0.0
 11
709.024932
 21
152.860841
 31
0.0
  0
LINE
  5
97
330
1F
100
AcDbEntity
  8
LC-002-100-D00-0
 62
     7
370
    50
100
AcDbLine
 10
695.087213
 20
254.860841
 30
0.0
 11
695.087211
 21
256.760841
 31
0.0
  0
LINE
  5
98
330
1F
100
AcDbEntity
  8
LC-002-100-D00-0
 62
     7
370
    50
100
AcDbLine
 10
701.087213
 20
254.860841
 30
0.0
 11
695.087213
 21
254.860841
 31
0.0
  0
LINE
  5
99
330
1F
100
AcDbEntity
  8
LC-002-100-D00-0
 62
     7
370
    50
100
AcDbLine
 10
697.472353
 20
256.860841
 30
0.0
 11
701.087213
 21
256.860841
 31
0.0
  0
LINE
  5
9A
330
1F
100
AcDbEntity
  8
LC-002-100-D00-0
 62
     7
370
    50
100
AcDbLine
 10
713.087213
 20
254.860841
 30
0.0
 11
701.087213
 21
254.860841
 31
0.0
  0
LINE
  5
9B
330
1F
100
AcDbEntity
  8
LC-002-100-D00-0
 62
     7
370
    50
100
AcDbLine
 10
713.087213
 20
256.860841
 30
0.0
 11
701.087213
 21
256.860841
 31
0.0
  0
LINE
  5
9C
330
1F
100
AcDbEntity
  8
LC-002-100-D00-0
 62
     7
370
    50
100
AcDbLine
 10
719.087211
 20
256.760841
 30
0.0
 11
719.087213
 21
254.860841
 31
0.0
  0
LINE
  5
9D
330
1F
100
AcDbEntity
  8
LC-002-100-D00-0
 62
     7
370
    50
100
AcDbLine
 10
719.087213
 20
254.860841
 30
0.0
 11
713.087213
 21
254.860841
 31
0.0
  0
LINE
  5
9E
330
1F
100
AcDbEntity
  8
LC-002-100-D00-0
 62
     7
370
    50
100
AcDbLine
 10
713.087213
 20
256.860841
 30
0.0
 11
716.702072
 21
256.860841
 31
0.0
  0
LINE
  5
9F
330
1F
100
AcDbEntity
  8
LC-002-100-D00-0
 62
     7
370
    50
100
AcDbLine
 10
710.587213
 20
229.860841
 30
0.0
 11
703.587213
 21
229.860841
 31
0.0
  0
LINE
  5
A0
330
1F
100
AcDbEntity
  8
LC-002-100-D00-0
 62
     7
370
    50
100
AcDbLine
 10
715.587213
 20
229.860841
 30
0.0
 11
710.587213
 21
229.860841
 31
0.0
  0
LINE
  5
A1
330
1F
100
AcDbEntity
  8
LC-002-100-D00-0
 62
     7
370
    50
100
AcDbLine
 10
703.587213
 20
229.860841
 30
0.0
 11
698.587213
 21
229.860841
 31
0.0
  0
LINE
  5
A2
330
1F
100
AcDbEntity
  8
LC-002-100-D00-0
 62
     7
370
    50
100
AcDbLine
 10
695.087213
 20
229.860841
 30
0.0
 11
695.087213
 21
254.860841
 31
0.0
  0
LINE
  5
A3
330
1F
100
AcDbEntity
  8
LC-002-100-D00-0
 62
     7
370
    50
100
AcDbLine
 10
698.587213
 20
229.860841
 30
0.0
 11
695.087213
 21
229.860841
 31
0.0
  0
LINE
  5
A4
330
1F
100
AcDbEntity
  8
LC-002-100-D00-0
 62
     7
370
    50
100
AcDbLine
 10
719.087213
 20
254.860841
 30
0.0
 11
719.087213
 21
229.860841
 31
0.0
  0
LINE
  5
A5
330
1F
100
AcDbEntity
  8
LC-002-100-D00-0
 62
     7
370
    50
100
AcDbLine
 10
719.087213
 20
229.860841
 30
0.0
 11
715.587213
 21
229.860841
 31
0.0
  0
LINE
  5
A6
330
1F
100
AcDbEntity
  8
LC-002-100-D00-0
 62
     7
370
    50
100
AcDbLine
 10
697.087213
 20
172.360841
 30
0.0
 11
717.087213
 21
172.360841
 31
0.0
  0
LINE
  5
A7
330
1F
100
AcDbEntity
  8
LC-002-100-D00-0
 62
     7
370
    50
100
AcDbLine
 10
709.126917
 20
161.860841
 30
0.0
 11
717.087213
 21
161.860841
 31
0.0
  0
LINE
  5
A8
330
1F
100
AcDbEntity
  8
LC-002-100-D00-0
 62
     7
370
    50
100
AcDbLine
 10
697.087213
 20
161.860841
 30
0.0
 11
709.126917
 21
161.860841
 31
0.0
  0
LINE
  5
A9
330
1F
100
AcDbEntity
  8
LC-002-100-D00-0
 62
     7
370
    50
100
AcDbLine
 10
708.922947
 20
160.860841
 30
0.0
 11
698.087213
 21
160.860841
 31
0.0
  0
LINE
  5
AA
330
1F
100
AcDbEntity
  8
LC-002-100-D00-0
 62
     7
370
    50
100
AcDbLine
 10
716.087213
 20
160.860841
 30
0.0
 11
708.922947
 21
160.860841
 31
0.0
  0
LINE
  5
AB
330
1F
100
AcDbEntity
  8
LC-002-100-D00-0
 62
     7
370
    50
100
AcDbLine
 10
697.087213
 20
175.860841
 30
0.0
 11
717.087213
 21
175.860841
 31
0.0
  0
LINE
  5
AC
330
1F
100
AcDbEntity
  8
LC-002-100-D00-0
 62
     7
370
    50
100
AcDbLine
 10
607.587213
 20
260.860841
 30
0.0
 11
603.187213
 21
260.860841
 31
0.0
  0
LINE
  5
AD
330
1F
100
AcDbEntity
  8
LC-002-100-D00-0
 62
     7
370
    50
100
AcDbLine
 10
611.987213
 20
260.860841
 30
0.0
 11
607.587213
 21
260.860841
 31
0.0
  0
LINE
  5
AE
330
1F
100
AcDbEntity
  8
LC-002-100-D00-0
 62
     7
370
    50
100
AcDbLine
 10
677.587213
 20
260.860841
 30
0.0
 11
673.187213
 21
260.860841
 31
0.0
  0
LINE
  5
AF
330
1F
100
AcDbEntity
  8
LC-002-100-D00-0
 62
     7
370
    50
100
AcDbLine
 10
681.987213
 20
260.860841
 30
0.0
 11
677.587213
 21
260.860841
 31
0.0
  0
LINE
  5
B0
330
1F
100
AcDbEntity
  8
LC-002-100-D00-0
 62
     7
370
    50
100
AcDbLine
 10
607.087213
 20
269.860841
 30
0.0
 11
615.087213
 21
269.860841
 31
0.0
  0
LINE
  5
B1
330
1F
100
AcDbEntity
  8
LC-002-100-D00-0
 62
     7
370
    50
100
AcDbLine
 10
607.087213
 20
266.860841
 30
0.0
 11
615.087213
 21
266.86084
 31
0.0
  0
LINE
  5
B2
330
1F
100
AcDbEntity
  8
LC-002-100-D00-0
 62
     7
370
    50
100
AcDbLine
 10
602.087213
 20
266.860841
 30
0.0
 11
602.087213
 21
269.860841
 31
0.0
  0
LINE
  5
B3
330
1F
100
AcDbEntity
  8
LC-002-100-D00-0
 62
     7
370
    50
100
AcDbLine
 10
602.087213
 20
269.860841
 30
0.0
 11
607.087213
 21
269.860841
 31
0.0
  0
LINE
  5
B4
330
1F
100
AcDbEntity
  8
LC-002-100-D00-0
 62
     7
370
    50
100
AcDbLine
 10
607.087213
 20
266.860841
 30
0.0
 11
602.087213
 21
266.860841
 31
0.0
  0
LINE
  5
B5
330
1F
100
AcDbEntity
  8
LC-002-100-D00-0
 62
     7
370
    50
100
AcDbLine
 10
683.087213
 20
269.860841
 30
0.0
 11
683.087213
 21
266.860841
 31
0.0
  0
LINE
  5
B6
330
1F
100
AcDbEntity
  8
LC-002-100-D00-0
 62
     7
370
    50
100
AcDbLine
 10
683.087213
 20
266.860841
 30
0.0
 11
678.087213
 21
266.860841
 31
0.0
  0
LINE
  5
B7
330
1F
100
AcDbEntity
  8
LC-002-100-D00-0
 62
     7
370
    50
100
AcDbLine
 10
678.087213
 20
269.860841
 30
0.0
 11
683.087213
 21
269.860841
 31
0.0
  0
LINE
  5
B8
330
1F
100
AcDbEntity
  8
LC-002-100-D00-0
 62
     7
370
    50
100
AcDbLine
 10
670.087213
 20
266.86084
 30
0.0
 11
678.087213
 21
266.860841
 31
0.0
  0
LINE
  5
B9
330
1F
100
AcDbEntity
  8
LC-002-100-D00-0
 62
     7
370
    50
100
AcDbLine
 10
670.087213
 20
269.860841
 30
0.0
 11
678.087213
 21
269.860841
 31
0.0
  0
LINE
  5
BA
330
1F
100
AcDbEntity
  8
LC-002-100-D00-0
 62
     7
370
    50
100
AcDbLine
 10
680.534021
 20
236.610841
 30
0.0
 11
604.640404
 21
236.610841
 31
0.0
  0
LINE
  5
BB
330
1F
100
AcDbEntity
  8
LC-002-100-D00-0
 62
     7
370
    50
100
AcDbLine
 10
602.087213
 20
269.860841
 30
0.0
 11
602.087213
 21
270.860841
 31
0.0
  0
LINE
  5
BC
330
1F
100
AcDbEntity
  8
LC-002-100-D00-0
 62
     7
370
    50
100
AcDbLine
 10
683.087213
 20
270.860841
 30
0.0
 11
683.087213
 21
269.860841
 31
0.0
  0
LINE
  5
BD
330
1F
100
AcDbEntity
  8
LC-002-100-D00-0
 62
     7
370
    50
100
AcDbLine
 10
602.087213
 20
270.860841
 30
0.0
 11
602.087213
 21
285.860841
 31
0.0
  0
LINE
  5
BE
330
1F
100
AcDbEntity
  8
LC-002-100-D00-0
 62
     7
370
    50
100
AcDbLine
 10
602.087213
 20
236.610841
 30
0.0
 11
602.087213
 21
264.860841
 31
0.0
  0
LINE
  5
BF
330
1F
100
AcDbEntity
  8
LC-002-100-D00-0
 62
     7
370
    50
100
AcDbLine
 10
604.640404
 20
236.610841
 30
0.0
 11
602.087213
 21
236.610841
 31
0.0
  0
LINE
  5
C0
330
1F
100
AcDbEntity
  8
LC-002-100-D00-0
 62
     7
370
    50
100
AcDbLine
 10
683.087213
 20
285.860841
 30
0.0
 11
683.087213
 21
270.860841
 31
0.0
  0
LINE
  5
C1
330
1F
100
AcDbEntity
  8
LC-002-100-D00-0
 62
     7
370
    50
100
AcDbLine
 10
683.087213
 20
264.860841
 30
0.0
 11
683.087213
 21
236.610841
 31
0.0
  0
LINE
  5
C2
330
1F
100
AcDbEntity
  8
LC-002-100-D00-0
 62
     7
370
    50
100
AcDbLine
 10
683.087213
 20
236.610841
 30
0.0
 11
680.534021
 21
236.610841
 31
0.0
  0
LINE
  5
C3
330
1F
100
AcDbEntity
  8
LC-002-100-D00-0
 62
     7
370
    50
100
AcDbLine
 10
604.640404
 20
236.610841
 30
0.0
 11
680.534021
 21
236.610841
 31
0.0
  0
LINE
  5
C4
330
1F
100
AcDbEntity
  8
LC-002-100-D00-0
 62
     7
370
    50
100
AcDbLine
 10
669.629766
 20
183.860841
 30
0.0
 11
615.544659
 21
183.860841
 31
0.0
  0
LINE
  5
C5
330
1F
100
AcDbEntity
  8
LC-002-100-D00-0
 62
     7
370
    50
100
AcDbLine
 10
663.10281
 20
177.360841
 30
0.0
 11
622.071615
 21
177.360841
 31
0.0
  0
LINE
  5
C6
330
1F
100
AcDbEntity
  8
LC-002-100-D00-0
 62
     7
370
    50
100
AcDbLine
 10
683.087213
 20
236.610841
 30
0.0
 11
683.087213
 21
196.360841
 31
0.0
  0
LINE
  5
C7
330
1F
100
AcDbEntity
  8
LC-002-100-D00-0
 62
     7
370
    50
100
AcDbLine
 10
680.534021
 20
236.610841
 30
0.0
 11
683.087213
 21
236.610841
 31
0.0
  0
ARC
  5
C8
330
1F
100
AcDbEntity
  8
LC-002-100-D00-0
 62
     7
370
    50
100
AcDbCircle
 10
670.587213
 20
196.360841
 30
0.0
 40
12.5
100
AcDbArc
 50
270.0
 51
0.0
  0
LINE
  5
C9
330
1F
100
AcDbEntity
  8
LC-002-100-D00-0
 62
     7
370
    50
100
AcDbLine
 10
670.587213
 20
183.860841
 30
0.0
 11
669.629766
 21
183.860841
 31
0.0
  0
LINE
  5
CA
330
1F
100
AcDbEntity
  8
LC-002-100-D00-0
 62
     7
370
    50
100
AcDbLine
 10
602.087213
 20
196.360841
 30
0.0
 11
602.087213
 21
236.610841
 31
0.0
  0
LINE
  5
CB
330
1F
100
AcDbEntity
  8
LC-002-100-D00-0
 62
     7
370
    50
100
AcDbLine
 10
602.087213
 20
236.610841
 30
0.0
 11
604.640404
 21
236.610841
 31
0.0
  0
ARC
  5
CC
330
1F
100
AcDbEntity
  8
LC-002-100-D00-0
 62
     7
370
    50
100
AcDbCircle
 10
614.587213
 20
196.360841
 30
0.0
 40
12.5
100
AcDbArc
 50
180.0
 51
270.0
  0
LINE
  5
CD
330
1F
100
AcDbEntity
  8
LC-002-100-D00-0
 62
     7
370
    50
100
AcDbLine
 10
615.544659
 20
183.860841
 30
0.0
 11
614.587213
 21
183.860841
 31
0.0
  0
ARC
  5
CE
330
1F
100
AcDbEntity
  8
LC-002-100-D00-0
 62
     7
370
    50
100
AcDbCircle
 10
622.069333
 20
184.360841
 30
0.0
 40
7.000000000000093
100
AcDbArc
 50
184.096044
 51
270.0
  0
LINE
  5
CF
330
1F
100
AcDbEntity
  8
LC-002-100-D00-0
 62
     7
370
    50
100
AcDbLine
 10
622.071615
 20
177.360841
 30
0.0
 11
622.069333
 21
177.360841
 31
0.0
  0
ARC
  5
D0
330
1F
100
AcDbEntity
  8
LC-002-100-D00-0
 62
     7
370
    50
100
AcDbCircle
 10
663.105093
 20
184.360841
 30
0.0
 40
7.0
100
AcDbArc
 50
270.0
 51
355.903956
  0
LINE
  5
D1
330
1F
100
AcDbEntity
  8
LC-002-100-D00-0
 62
     7
370
    50
100
AcDbLine
 10
663.105093
 20
177.360841
 30
0.0
 11
663.10281
 21
177.360841
 31
0.0
  0
LINE
  5
D2
330
1F
100
AcDbEntity
  8
LC-002-100-D00-0
 62
     7
370
    50
100
AcDbLine
 10
607.587213
 20
264.860841
 30
0.0
 11
613.087213
 21
264.860841
 31
0.0
  0
LINE
  5
D3
330
1F
100
AcDbEntity
  8
LC-002-100-D00-0
 62
     7
370
    50
100
AcDbLine
 10
602.087213
 20
264.860841
 30
0.0
 11
607.587213
 21
264.860841
 31
0.0
  0
LINE
  5
D4
330
1F
100
AcDbEntity
  8
LC-002-100-D00-0
 62
     7
370
    50
100
AcDbLine
 10
677.587213
 20
264.860841
 30
0.0
 11
683.087213
 21
264.860841
 31
0.0
  0
LINE
  5
D5
330
1F
100
AcDbEntity
  8
LC-002-100-D00-0
 62
     7
370
    50
100
AcDbLine
 10
672.087213
 20
264.860841
 30
0.0
 11
677.587213
 21
264.860841
 31
0.0
  0
DIMENSION
  5
D8
330
1F
100
AcDbEntity
  8
LC-002-100-D00-0
 62
     7
370
    25
100
AcDbDimension
  2
*D1
 10
683.087213
 20
136.702841
 30
0.0
 11
652.959075
 21
158.702841
 31
0.0
 70
   160
  1
81
 71
     5
 42
81.0
  3
LC-DIM-L-0100-02-02
100
AcDbAlignedDimension
 13
602.087213
 23
196.360841
 33
0.0
 14
683.087213
 24
196.360841
 34
0.0
100
AcDbRotatedDimension
  0
LINE
  5
E7
330
1F
100
AcDbEntity
  8
LC-002-100-D00-0
  6
DASHDOT
 62
     7
370
    25
100
AcDbLine
 10
642.587213
 20
287.360841
 30
0.0
 11
642.587213
 21
177.360841
 31
0.0
  0
LINE
  5
E8
330
1F
100
AcDbEntity
  8
LC-002-100-D00-0
  6
DASHDOT
 62
     7
370
    25
100
AcDbLine
 10
707.087213
 20
165.860841
 30
0.0
 11
707.087213
 21
263.860841
 31
0.0
  0
LINE
  5
E9
330
1F
100
AcDbEntity
  8
LC-002-100-D00-0
 62
     7
370
    50
100
AcDbLine
 10
476.002818
 20
35.075868
 30
0.0
 11
476.002818
 21
33.575868
 31
0.0
  0
LINE
  5
EA
330
1F
100
AcDbEntity
  8
LC-002-100-D00-0
 62
     7
370
    50
100
AcDbLine
 10
471.002818
 20
35.075868
 30
0.0
 11
476.002818
 21
35.075868
 31
0.0
  0
LINE
  5
EB
330
1F
100
AcDbEntity
  8
LC-002-100-D00-0
 62
     7
370
    50
100
AcDbLine
 10
476.002818
 20
33.575868
 30
0.0
 11
471.002818
 21
33.575868
 31
0.0
  0
LINE
  5
EC
330
1F
100
AcDbEntity
  8
LC-002-100-D00-0
 62
     7
370
    50
100
AcDbLine
 10
-118.997182
 20
35.075868
 30
0.0
 11
471.002818
 21
35.075868
 31
0.0
  0
LINE
  5
ED
330
1F
100
AcDbEntity
  8
LC-002-100-D00-0
 62
     7
370
    50
100
AcDbLine
 10
-118.997182
 20
33.575868
 30
0.0
 11
471.002818
 21
33.575868
 31
0.0
  0
LINE
  5
EE
330
1F
100
AcDbEntity
  8
LC-002-100-D00-0
 62
     7
370
    50
100
AcDbLine
 10
-123.997182
 20
33.575868
 30
0.0
 11
-123.997182
 21
35.075868
 31
0.0
  0
LINE
  5
EF
330
1F
100
AcDbEntity
  8
LC-002-100-D00-0
 62
     7
370
    50
100
AcDbLine
 10
-123.997182
 20
35.075868
 30
0.0
 11
-118.997182
 21
35.075868
 31
0.0
  0
LINE
  5
F0
330
1F
100
AcDbEntity
  8
LC-002-100-D00-0
 62
     7
370
    50
100
AcDbLine
 10
-118.997182
 20
33.575868
 30
0.0
 11
-123.997182
 21
33.575868
 31
0.0
  0
LINE
  5
F1
330
1F
100
AcDbEntity
  8
LC-002-100-D00-0
 62
     7
370
    50
100
AcDbLine
 10
-123.997182
 20
32.075868
 30
0.0
 11
-123.997182
 21
33.575868
 31
0.0
  0
LINE
  5
F2
330
1F
100
AcDbEntity
  8
LC-002-100-D00-0
 62
     7
370
    50
100
AcDbLine
 10
476.002818
 20
33.575868
 30
0.0
 11
476.002818
 21
32.075868
 31
0.0
  0
ARC
  5
F3
330
1F
100
AcDbEntity
  8
LC-002-100-D00-0
 62
     7
370
    50
100
AcDbCircle
 10
423.502818
 20
12.575868
 30
0.0
 40
2.5
100
AcDbArc
 50
0.0
 51
90.0
  0
ARC
  5
F4
330
1F
100
AcDbEntity
  8
LC-002-100-D00-0
 62
     7
370
    50
100
AcDbCircle
 10
423.502818
 20
-34.424132
 30
0.0
 40
2.5
100
AcDbArc
 50
270.0
 51
0.0
  0
LINE
  5
F5
330
1F
100
AcDbEntity
  8
LC-002-100-D00-0
 62
     7
370
    50
100
AcDbLine
 10
426.002818
 20
-34.424132
 30
0.0
 11
426.002818
 21
12.575868
 31
0.0
  0
LINE
  5
F6
330
1F
100
AcDbEntity
  8
LC-002-100-D00-0
 62
     7
370
    50
100
AcDbLine
 10
-71.497182
 20
15.075868
 30
0.0
 11
423.502818
 21
15.075868
 31
0.0
  0
LINE
  5
F7
330
1F
100
AcDbEntity
  8
LC-002-100-D00-0
 62
     7
370
    50
100
AcDbLine
 10
423.502818
 20
-36.924132
 30
0.0
 11
-71.497182
 21
-36.924132
 31
0.0
  0
ARC
  5
F8
330
1F
100
AcDbEntity
  8
LC-002-100-D00-0
 62
     7
370
    50
100
AcDbCircle
 10
-71.497182
 20
-34.424132
 30
0.0
 40
2.500000000000341
100
AcDbArc
 50
180.0
 51
270.0
  0
ARC
  5
F9
330
1F
100
AcDbEntity
  8
LC-002-100-D00-0
 62
     7
370
    50
100
AcDbCircle
 10
-71.497182
 20
12.575868
 30
0.0
 40
2.5
100
AcDbArc
 50
90.0
 51
180.0
  0
LINE
  5
FA
330
1F
100
AcDbEntity
  8
LC-002-100-D00-0
 62
     7
370
    50
100
AcDbLine
 10
-73.997182
 20
-34.424132
 30
0.0
 11
-73.997182
 21
12.575868
 31
0.0
  0
ARC
  5
FB
330
1F
100
AcDbEntity
  8
LC-002-100-D00-0
 62
     7
370
    50
100
AcDbCircle
 10
471.002818
 20
-83.424132
 30
0.0
 40
5.000000000000341
100
AcDbArc
 50
270.0
 51
0.0
  0
LINE
  5
FC
330
1F
100
AcDbEntity
  8
LC-002-100-D00-0
 62
     7
370
    50
100
AcDbLine
 10
-118.997182
 20
-88.424132
 30
0.0
 11
471.002818
 21
-88.424132
 31
0.0
  0
ARC
  5
FD
330
1F
100
AcDbEntity
  8
LC-002-100-D00-0
 62
     7
370
    50
100
AcDbCircle
 10
-118.997182
 20
-83.424132
 30
0.0
 40
5.000000000000455
100
AcDbArc
 50
180.0
 51
270.0
  0
LINE
  5
FE
330
1F
100
AcDbEntity
  8
LC-002-100-D00-0
 62
     7
370
    50
100
AcDbLine
 10
-123.997182
 20
32.075868
 30
0.0
 11
-123.997182
 21
-83.424132
 31
0.0
  0
LINE
  5
FF
330
1F
100
AcDbEntity
  8
LC-002-100-D00-0
 62
     7
370
    50
100
AcDbLine
 10
476.002818
 20
32.075868
 30
0.0
 11
476.002818
 21
-83.424132
 31
0.0
  0
CIRCLE
  5
100
330
1F
100
AcDbEntity
  8
LC-002-100-D00-0
 62
     7
370
    50
100
AcDbCircle
 10
396.002818
 20
-10.924132
 30
0.0
 40
2.999999999999886
  0
CIRCLE
  5
101
330
1F
100
AcDbEntity
  8
LC-002-100-D00-0
 62
     7
370
    50
100
AcDbCircle
 10
276.002818
 20
-10.924132
 30
0.0
 40
3.000000000000114
  0
CIRCLE
  5
102
330
1F
100
AcDbEntity
  8
LC-002-100-D00-0
 62
     7
370
    50
100
AcDbCircle
 10
76.002818
 20
-10.924132
 30
0.0
 40
3.000000000000114
  0
CIRCLE
  5
103
330
1F
100
AcDbEntity
  8
LC-002-100-D00-0
 62
     7
370
    50
100
AcDbCircle
 10
-43.997182
 20
-10.924132
 30
0.0
 40
2.999999999999886
  0
INSERT
  5
109
330
1F
100
AcDbEntity
  8
LC-002-100-D00-0
 62
     7
370
    50
100
AcDbBlockReference
  2
KLON1
 10
0.0
 20
0.0
 30
0.0
  0
LINE
  5
10A
330
1F
100
AcDbEntity
  8
LC-002-100-D00-0
 62
     7
370
    50
100
AcDbLine
 10
417.976636
 20
-23.246801
 30
0.0
 11
417.976636
 21
-34.424131
 31
0.0
  0
INSERT
  5
111
330
1F
100
AcDbEntity
  8
LC-002-100-D00-0
 62
     7
370
    50
100
AcDbBlockReference
  2
KLON2
 10
0.0
 20
0.0
 30
0.0
  0
INSERT
  5
119
330
1F
100
AcDbEntity
  8
LC-002-100-D00-0
 62
     7
370
    50
100
AcDbBlockReference
  2
KLON3
 10
0.0
 20
0.0
 30
0.0
  0
LINE
  5
11A
330
1F
100
AcDbEntity
  8
LC-002-100-D00-0
 62
     7
370
    50
100
AcDbLine
 10
417.976636
 20
12.561229
 30
0.0
 11
417.976636
 21
1.398537
 31
0.0
  0
INSERT
  5
120
330
1F
100
AcDbEntity
  8
LC-002-100-D00-0
 62
     7
370
    50
100
AcDbBlockReference
  2
KLON4
 10
0.0
 20
0.0
 30
0.0
  0
INSERT
  5
126
330
1F
100
AcDbEntity
  8
LC-002-100-D00-0
 62
     7
370
    50
100
AcDbBlockReference
  2
KLON5
 10
0.0
 20
0.0
 30
0.0
  0
INSERT
  5
12C
330
1F
100
AcDbEntity
  8
LC-002-100-D00-0
 62
     7
370
    50
100
AcDbBlockReference
  2
KLON6
 10
0.0
 20
0.0
 30
0.0
  0
LINE
  5
12D
330
1F
100
AcDbEntity
  8
LC-002-100-D00-0
 62
     7
370
    50
100
AcDbLine
 10
-65.970999
 20
12.561229
 30
0.0
 11
-65.970999
 21
1.398537
 31
0.0
  0
INSERT
  5
135
330
1F
100
AcDbEntity
  8
LC-002-100-D00-0
 62
     7
370
    50
100
AcDbBlockReference
  2
KLON7
 10
0.0
 20
0.0
 30
0.0
  0
INSERT
  5
13C
330
1F
100
AcDbEntity
  8
LC-002-100-D00-0
 62
     7
370
    50
100
AcDbBlockReference
  2
KLON8
 10
0.0
 20
0.0
 30
0.0
  0
LINE
  5
13D
330
1F
100
AcDbEntity
  8
LC-002-100-D00-0
 62
     7
370
    50
100
AcDbLine
 10
-65.970999
 20
-23.246801
 30
0.0
 11
-65.970999
 21
-34.424131
 31
0.0
  0
ELLIPSE
  5
13E
330
1F
100
AcDbEntity
  8
LC-002-100-D00-0
 62
     7
370
    50
100
AcDbEllipse
 10
417.92985
 20
-34.424132
 30
0.0
 11
0.0
 21
-2.499999801635734
 31
0.0
210
0.0
220
0.0
230
1.0
 40
0.018242
 41
3.141592653593532
 42
4.712388980377419
  0
ELLIPSE
  5
13F
330
1F
100
AcDbEntity
  8
LC-002-100-D00-0
 62
     7
370
    50
100
AcDbEllipse
 10
280.92985
 20
-34.424132
 30
0.0
 11
0.0
 21
-2.499999786376944
 31
0.0
210
0.0
220
0.0
230
1.0
 40
0.018242
 41
3.141592653591039
 42
4.712388980381054
  0
ELLIPSE
  5
140
330
1F
100
AcDbEntity
  8
LC-002-100-D00-0
 62
     7
370
    50
100
AcDbEllipse
 10
486.475455
 20
-34.424132
 30
0.0
 11
68.49999999915306
 21
0.0
 31
0.0
210
0.0
220
0.0
230
1.0
 40
0.036496
 41
3.141592653597538
 42
3.169858841660922
  0
ELLIPSE
  5
141
330
1F
100
AcDbEntity
  8
LC-002-100-D00-0
 62
     7
370
    50
100
AcDbEllipse
 10
-65.924213
 20
-34.424132
 30
0.0
 11
0.0
 21
-2.500000000953675
 31
0.0
210
0.0
220
0.0
230
1.0
 40
0.018242
 41
1.570796326802173
 42
3.141592653592597
  0
ELLIPSE
  5
142
330
1F
100
AcDbEntity
  8
LC-002-100-D00-0
 62
     7
370
    50
100
AcDbEllipse
 10
71.075787
 20
-34.424132
 30
0.0
 11
0.0
 21
-2.499999999046326
 31
0.0
210
0.0
220
0.0
230
0.9999999999999999
 40
0.018242
 41
1.570796326798546
 42
3.14159265359509
  0
ELLIPSE
  5
143
330
1F
100
AcDbEntity
  8
LC-002-100-D00-0
 62
     7
370
    50
100
AcDbEllipse
 10
-134.469819
 20
-34.424132
 30
0.0
 11
68.50000000001266
 21
0.0
 31
0.0
210
0.0
220
0.0
230
1.0
 40
0.036496
 41
6.254919119109313
 42
6.283185307179592
  0
ELLIPSE
  5
144
330
1F
100
AcDbEntity
  8
LC-002-100-D00-0
 62
     7
370
    50
100
AcDbEllipse
 10
486.475455
 20
12.575868
 30
0.0
 11
68.49999999999596
 21
0.0
 31
0.0
210
0.0
220
0.0
230
1.0
 40
0.036496
 41
3.141592653589797
 42
3.147448628039411
  0
ELLIPSE
  5
145
330
1F
100
AcDbEntity
  8
LC-002-100-D00-0
 62
     7
370
    50
100
AcDbEllipse
 10
417.92985
 20
12.575868
 30
0.0
 11
0.0
 21
-2.499999633789036
 31
0.0
210
0.0
220
0.0
230
1.0
 40
0.018242
 41
4.712388980384738
 42
6.28318535648059
  0
ELLIPSE
  5
146
330
1F
100
AcDbEntity
  8
LC-002-100-D00-0
 62
     7
370
    50
100
AcDbEllipse
 10
-134.469819
 20
12.575868
 30
0.0
 11
68.5000000000001
 21
0.0
 31
0.0
210
0.0
220
0.0
230
1.0
 40
0.036496
 41
6.277329332730745
 42
6.283185307179586
  0
ELLIPSE
  5
147
330
1F
100
AcDbEntity
  8
LC-002-100-D00-0
 62
     7
370
    50
100
AcDbEllipse
 10
-65.924213
 20
12.575868
 30
0.0
 11
0.0
 21
-2.5
 31
0.0
210
0.0
220
0.0
230
1.0
 40
0.018242
 41
6.283185257871735
 42
7.853981633974442
  0
ELLIPSE
  5
148
330
1F
100
AcDbEntity
  8
LC-002-100-D00-0
 62
     7
370
    50
100
AcDbEllipse
 10
280.92985
 20
12.575868
 30
0.0
 11
0.0
 21
-2.499999206542843
 31
0.0
210
0.0
220
0.0
230
0.9999999999999999
 40
0.018242
 41
4.712388980388371
 42
6.283185316163802
  0
ELLIPSE
  5
149
330
1F
100
AcDbEntity
  8
LC-002-100-D00-0
 62
     7
370
    50
100
AcDbEllipse
 10
71.075787
 20
12.575868
 30
0.0
 11
0.0
 21
-2.5
 31
0.0
210
0.0
220
0.0
230
1.0
 40
0.018242
 41
6.283185298180416
 42
7.853981633970895
  0
LINE
  5
14A
330
1F
100
AcDbEntity
  8
LC-002-100-D00-0
 62
     7
370
    50
100
AcDbLine
 10
280.975456
 20
-34.424131
 30
0.0
 11
280.975456
 21
-31.573615
 31
0.0
  0
INSERT
  5
150
330
1F
100
AcDbEntity
  8
LC-002-100-D00-0
 62
     7
370
    50
100
AcDbBlockReference
  2
KLON9
 10
0.0
 20
0.0
 30
0.0
  0
INSERT
  5
156
330
1F
100
AcDbEntity
  8
LC-002-100-D00-0
 62
     7
370
    50
100
AcDbBlockReference
  2
KLON10
 10
0.0
 20
0.0
 30
0.0
  0
LINE
  5
157
330
1F
100
AcDbEntity
  8
LC-002-100-D00-0
 62
     7
370
    50
100
AcDbLine
 10
71.03018
 20
-34.424131
 30
0.0
 11
71.03018
 21
-31.573615
 31
0.0
  0
INSERT
  5
15D
330
1F
100
AcDbEntity
  8
LC-002-100-D00-0
 62
     7
370
    50
100
AcDbBlockReference
  2
KLON11
 10
0.0
 20
0.0
 30
0.0
  0
INSERT
  5
163
330
1F
100
AcDbEntity
  8
LC-002-100-D00-0
 62
     7
370
    50
100
AcDbBlockReference
  2
KLON12
 10
0.0
 20
0.0
 30
0.0
  0
LINE
  5
164
330
1F
100
AcDbEntity
  8
LC-002-100-D00-0
 62
     7
370
    50
100
AcDbLine
 10
280.975456
 20
9.725352
 30
0.0
 11
280.975456
 21
12.575868
 31
0.0
  0
LINE
  5
165
330
1F
100
AcDbEntity
  8
LC-002-100-D00-0
 62
     7
370
    50
100
AcDbLine
 10
71.03018
 20
9.725352
 30
0.0
 11
71.03018
 21
12.575868
 31
0.0
  0
LINE
  5
166
330
1F
100
AcDbEntity
  8
LC-002-100-D00-0
 62
     7
370
    50
100
AcDbLine
 10
280.989724
 20
-30.77981
 30
0.0
 11
280.989724
 21
-29.174131
 31
0.0
  0
ELLIPSE
  5
167
330
1F
100
AcDbEntity
  8
LC-002-100-D00-0
 62
     7
370
    50
100
AcDbEllipse
 10
137.743007
 20
-39.34494
 30
0.0
 11
143.2466508413125
 21
8.567474699547741
 31
0.0
210
0.0
220
0.0
230
1.0
 40
0.016531
 41
6.28099466593778
 42
6.282196627514995
  0
ELLIPSE
  5
168
330
1F
100
AcDbEntity
  8
LC-002-100-D00-0
 62
     7
370
    50
100
AcDbEllipse
 10
137.743007
 20
17.496676
 30
0.0
 11
143.2466512322513
 21
-8.567474722929497
 31
0.0
210
0.0
220
0.0
230
1.0
 40
0.016531
 41
0.0009886796586942
 42
0.0021906412361005
  0
LINE
  5
169
330
1F
100
AcDbEntity
  8
LC-002-100-D00-0
 62
     7
370
    50
100
AcDbLine
 10
280.989724
 20
7.325868
 30
0.0
 11
280.989724
 21
8.931546
 31
0.0
  0
ELLIPSE
  5
16A
330
1F
100
AcDbEntity
  8
LC-002-100-D00-0
 62
     7
370
    50
100
AcDbEllipse
 10
214.26263
 20
-39.34494
 30
0.0
 11
143.2466512108124
 21
-8.567474721647256
 31
0.0
210
0.0
220
0.0
230
1.0
 40
0.016531
 41
3.142581333258632
 42
3.143783294835948
  0
LINE
  5
16B
330
1F
100
AcDbEntity
  8
LC-002-100-D00-0
 62
     7
370
    50
100
AcDbLine
 10
71.015912
 20
-30.77981
 30
0.0
 11
71.015912
 21
-29.174131
 31
0.0
  0
ELLIPSE
  5
16C
330
1F
100
AcDbEntity
  8
LC-002-100-D00-0
 62
     7
370
    50
100
AcDbEllipse
 10
214.26263
 20
17.496676
 30
0.0
 11
143.2466516606165
 21
8.567474748549985
 31
0.0
210
0.0
220
0.0
230
1.0
 40
0.016531
 41
3.139402012344989
 42
3.140603973922443
  0
LINE
  5
16D
330
1F
100
AcDbEntity
  8
LC-002-100-D00-0
 62
     7
370
    50
100
AcDbLine
 10
71.015912
 20
7.325868
 30
0.0
 11
71.015912
 21
8.931546
 31
0.0
  0
LINE
  5
16E
330
1F
100
AcDbEntity
  8
LC-002-100-D00-0
 62
     7
370
    50
100
AcDbLine
 10
280.975456
 20
-31.573243
 30
0.0
 11
280.989627
 21
-30.782673
 31
0.0
  0
LINE
  5
16F
330
1F
100
AcDbEntity
  8
LC-002-100-D00-0
 62
     7
370
    50
100
AcDbLine
 10
280.975456
 20
9.724979
 30
0.0
 11
280.989627
 21
8.934409
 31
0.0
  0
LINE
  5
170
330
1F
100
AcDbEntity
  8
LC-002-100-D00-0
 62
     7
370
    50
100
AcDbLine
 10
71.03018
 20
-31.573243
 30
0.0
 11
71.016009
 21
-30.782673
 31
0.0
  0
LINE
  5
171
330
1F
100
AcDbEntity
  8
LC-002-100-D00-0
 62
     7
370
    50
100
AcDbLine
 10
71.03018
 20
9.724979
 30
0.0
 11
71.016009
 21
8.934409
 31
0.0
  0
ARC
  5
172
330
1F
100
AcDbEntity
  8
LC-002-100-D00-0
 62
     7
370
    50
100
AcDbCircle
 10
206.50281
 20
-10.924111
 30
0.0
 40
24.80002105913559
100
AcDbArc
 50
270.0
 51
300.592807
  0
ARC
  5
173
330
1F
100
AcDbEntity
  8
LC-002-100-D00-0
 62
     7
370
    50
100
AcDbCircle
 10
145.502826
 20
-10.924111
 30
0.0
 40
24.80002105913631
100
AcDbArc
 50
239.407193
 51
270.0
  0
ARC
  5
174
330
1F
100
AcDbEntity
  8
LC-002-100-D00-0
 62
     7
370
    50
100
AcDbCircle
 10
206.502812
 20
-10.924145
 30
0.0
 40
24.8000135806383
100
AcDbArc
 50
59.407188
 51
90.0
  0
ARC
  5
175
330
1F
100
AcDbEntity
  8
LC-002-100-D00-0
 62
     7
370
    50
100
AcDbCircle
 10
145.502824
 20
-10.924145
 30
0.0
 40
24.80001358064021
100
AcDbArc
 50
90.0
 51
120.592812
  0
LINE
  5
176
330
1F
100
AcDbEntity
  8
LC-002-100-D00-0
 62
     7
370
    50
100
AcDbLine
 10
145.502818
 20
13.875869
 30
0.0
 11
206.502819
 21
13.875869
 31
0.0
  0
LINE
  5
177
330
1F
100
AcDbEntity
  8
LC-002-100-D00-0
 62
     7
370
    50
100
AcDbLine
 10
206.502819
 20
-35.724132
 30
0.0
 11
145.502818
 21
-35.724132
 31
0.0
  0
LINE
  5
178
330
1F
100
AcDbEntity
  8
LC-002-100-D00-0
 62
     7
370
    50
100
AcDbLine
 10
109.169985
 20
-7.485229
 30
0.0
 11
109.178129
 21
-7.85312
 31
0.0
  0
LINE
  5
179
330
1F
100
AcDbEntity
  8
LC-002-100-D00-0
 62
     7
370
    50
100
AcDbLine
 10
108.058709
 20
-6.69226
 30
0.0
 11
109.169985
 21
-7.485229
 31
0.0
  0
LINE
  5
17A
330
1F
100
AcDbEntity
  8
LC-002-100-D00-0
 62
     7
370
    50
100
AcDbLine
 10
109.169985
 20
-5.899291
 30
0.0
 11
108.058709
 21
-6.69226
 31
0.0
  0
LINE
  5
17B
330
1F
100
AcDbEntity
  8
LC-002-100-D00-0
 62
     7
370
    50
100
AcDbLine
 10
109.169985
 20
-5.525593
 30
0.0
 11
109.169985
 21
-5.899291
 31
0.0
  0
LINE
  5
17C
330
1F
100
AcDbEntity
  8
LC-002-100-D00-0
 62
     7
370
    50
100
AcDbLine
 10
107.796486
 20
-6.505061
 30
0.0
 11
109.169985
 21
-5.525593
 31
0.0
  0
LINE
  5
17D
330
1F
100
AcDbEntity
  8
LC-002-100-D00-0
 62
     7
370
    50
100
AcDbLine
 10
106.61229
 20
-5.660208
 30
0.0
 11
107.796486
 21
-6.505061
 31
0.0
  0
LINE
  5
17E
330
1F
100
AcDbEntity
  8
LC-002-100-D00-0
 62
     7
370
    50
100
AcDbLine
 10
106.61229
 20
-6.033907
 30
0.0
 11
106.61229
 21
-5.660208
 31
0.0
  0
LINE
  5
17F
330
1F
100
AcDbEntity
  8
LC-002-100-D00-0
 62
     7
370
    50
100
AcDbLine
 10
107.53497
 20
-6.69226
 30
0.0
 11
106.61229
 21
-6.033907
 31
0.0
  0
LINE
  5
180
330
1F
100
AcDbEntity
  8
LC-002-100-D00-0
 62
     7
370
    50
100
AcDbLine
 10
106.61229
 20
-7.350613
 30
0.0
 11
107.53497
 21
-6.69226
 31
0.0
  0
LINE
  5
181
330
1F
100
AcDbEntity
  8
LC-002-100-D00-0
 62
     7
370
    50
100
AcDbLine
 10
106.61229
 20
-7.724311
 30
0.0
 11
106.61229
 21
-7.350613
 31
0.0
  0
LINE
  5
182
330
1F
100
AcDbEntity
  8
LC-002-100-D00-0
 62
     7
370
    50
100
AcDbLine
 10
107.796486
 20
-6.878758
 30
0.0
 11
106.61229
 21
-7.724311
 31
0.0
  0
LINE
  5
183
330
1F
100
AcDbEntity
  8
LC-002-100-D00-0
 62
     7
370
    50
100
AcDbLine
 10
109.178129
 20
-7.85312
 30
0.0
 11
107.796486
 21
-6.878758
 31
0.0
  0
LINE
  5
184
330
1F
100
AcDbEntity
  8
LC-002-100-D00-0
 62
     7
370
    50
100
AcDbLine
 10
109.169985
 20
-12.151895
 30
0.0
 11
109.178129
 21
-12.519787
 31
0.0
  0
LINE
  5
185
330
1F
100
AcDbEntity
  8
LC-002-100-D00-0
 62
     7
370
    50
100
AcDbLine
 10
108.058709
 20
-11.358927
 30
0.0
 11
109.169985
 21
-12.151895
 31
0.0
  0
LINE
  5
186
330
1F
100
AcDbEntity
  8
LC-002-100-D00-0
 62
     7
370
    50
100
AcDbLine
 10
109.169985
 20
-10.565958
 30
0.0
 11
108.058709
 21
-11.358927
 31
0.0
  0
LINE
  5
187
330
1F
100
AcDbEntity
  8
LC-002-100-D00-0
 62
     7
370
    50
100
AcDbLine
 10
109.169985
 20
-10.19226
 30
0.0
 11
109.169985
 21
-10.565958
 31
0.0
  0
LINE
  5
188
330
1F
100
AcDbEntity
  8
LC-002-100-D00-0
 62
     7
370
    50
100
AcDbLine
 10
107.796486
 20
-11.171727
 30
0.0
 11
109.169985
 21
-10.19226
 31
0.0
  0
LINE
  5
189
330
1F
100
AcDbEntity
  8
LC-002-100-D00-0
 62
     7
370
    50
100
AcDbLine
 10
106.61229
 20
-10.326875
 30
0.0
 11
107.796486
 21
-11.171727
 31
0.0
  0
LINE
  5
18A
330
1F
100
AcDbEntity
  8
LC-002-100-D00-0
 62
     7
370
    50
100
AcDbLine
 10
106.61229
 20
-10.700573
 30
0.0
 11
106.61229
 21
-10.326875
 31
0.0
  0
LINE
  5
18B
330
1F
100
AcDbEntity
  8
LC-002-100-D00-0
 62
     7
370
    50
100
AcDbLine
 10
107.53497
 20
-11.358927
 30
0.0
 11
106.61229
 21
-10.700573
 31
0.0
  0
LINE
  5
18C
330
1F
100
AcDbEntity
  8
LC-002-100-D00-0
 62
     7
370
    50
100
AcDbLine
 10
106.61229
 20
-12.01728
 30
0.0
 11
107.53497
 21
-11.358927
 31
0.0
  0
LINE
  5
18D
330
1F
100
AcDbEntity
  8
LC-002-100-D00-0
 62
     7
370
    50
100
AcDbLine
 10
106.61229
 20
-12.390978
 30
0.0
 11
106.61229
 21
-12.01728
 31
0.0
  0
LINE
  5
18E
330
1F
100
AcDbEntity
  8
LC-002-100-D00-0
 62
     7
370
    50
100
AcDbLine
 10
107.796486
 20
-11.545425
 30
0.0
 11
106.61229
 21
-12.390978
 31
0.0
  0
LINE
  5
18F
330
1F
100
AcDbEntity
  8
LC-002-100-D00-0
 62
     7
370
    50
100
AcDbLine
 10
109.178129
 20
-12.519787
 30
0.0
 11
107.796486
 21
-11.545425
 31
0.0
  0
LINE
  5
190
330
1F
100
AcDbEntity
  8
LC-002-100-D00-0
 62
     7
370
    50
100
AcDbLine
 10
109.169985
 20
-16.818562
 30
0.0
 11
109.178129
 21
-17.186454
 31
0.0
  0
LINE
  5
191
330
1F
100
AcDbEntity
  8
LC-002-100-D00-0
 62
     7
370
    50
100
AcDbLine
 10
108.058709
 20
-16.025593
 30
0.0
 11
109.169985
 21
-16.818562
 31
0.0
  0
LINE
  5
192
330
1F
100
AcDbEntity
  8
LC-002-100-D00-0
 62
     7
370
    50
100
AcDbLine
 10
109.169985
 20
-15.232625
 30
0.0
 11
108.058709
 21
-16.025593
 31
0.0
  0
LINE
  5
193
330
1F
100
AcDbEntity
  8
LC-002-100-D00-0
 62
     7
370
    50
100
AcDbLine
 10
109.169985
 20
-14.858927
 30
0.0
 11
109.169985
 21
-15.232625
 31
0.0
  0
LINE
  5
194
330
1F
100
AcDbEntity
  8
LC-002-100-D00-0
 62
     7
370
    50
100
AcDbLine
 10
107.796486
 20
-15.838394
 30
0.0
 11
109.169985
 21
-14.858927
 31
0.0
  0
LINE
  5
195
330
1F
100
AcDbEntity
  8
LC-002-100-D00-0
 62
     7
370
    50
100
AcDbLine
 10
106.61229
 20
-14.993542
 30
0.0
 11
107.796486
 21
-15.838394
 31
0.0
  0
LINE
  5
196
330
1F
100
AcDbEntity
  8
LC-002-100-D00-0
 62
     7
370
    50
100
AcDbLine
 10
106.61229
 20
-15.36724
 30
0.0
 11
106.61229
 21
-14.993542
 31
0.0
  0
LINE
  5
197
330
1F
100
AcDbEntity
  8
LC-002-100-D00-0
 62
     7
370
    50
100
AcDbLine
 10
107.53497
 20
-16.025593
 30
0.0
 11
106.61229
 21
-15.36724
 31
0.0
  0
LINE
  5
198
330
1F
100
AcDbEntity
  8
LC-002-100-D00-0
 62
     7
370
    50
100
AcDbLine
 10
106.61229
 20
-16.683946
 30
0.0
 11
107.53497
 21
-16.025593
 31
0.0
  0
LINE
  5
199
330
1F
100
AcDbEntity
  8
LC-002-100-D00-0
 62
     7
370
    50
100
AcDbLine
 10
106.61229
 20
-17.057645
 30
0.0
 11
106.61229
 21
-16.683946
 31
0.0
  0
LINE
  5
19A
330
1F
100
AcDbEntity
  8
LC-002-100-D00-0
 62
     7
370
    50
100
AcDbLine
 10
107.796486
 20
-16.212092
 30
0.0
 11
106.61229
 21
-17.057645
 31
0.0
  0
LINE
  5
19B
330
1F
100
AcDbEntity
  8
LC-002-100-D00-0
 62
     7
370
    50
100
AcDbLine
 10
109.178129
 20
-17.186454
 30
0.0
 11
107.796486
 21
-16.212092
 31
0.0
  0
LINE
  5
19C
330
1F
100
AcDbEntity
  8
LC-002-100-D00-0
 62
     7
370
    50
100
AcDbLine
 10
109.169985
 20
-19.151895
 30
0.0
 11
109.169985
 21
-19.525593
 31
0.0
  0
LINE
  5
19D
330
1F
100
AcDbEntity
  8
LC-002-100-D00-0
 62
     7
370
    50
100
AcDbLine
 10
108.058709
 20
-18.358927
 30
0.0
 11
109.169985
 21
-19.151895
 31
0.0
  0
LINE
  5
19E
330
1F
100
AcDbEntity
  8
LC-002-100-D00-0
 62
     7
370
    50
100
AcDbLine
 10
109.169985
 20
-17.565958
 30
0.0
 11
108.058709
 21
-18.358927
 31
0.0
  0
LINE
  5
19F
330
1F
100
AcDbEntity
  8
LC-002-100-D00-0
 62
     7
370
    50
100
AcDbLine
 10
109.169985
 20
-17.19226
 30
0.0
 11
109.169985
 21
-17.565958
 31
0.0
  0
LINE
  5
1A0
330
1F
100
AcDbEntity
  8
LC-002-100-D00-0
 62
     7
370
    50
100
AcDbLine
 10
107.796486
 20
-18.171727
 30
0.0
 11
109.169985
 21
-17.19226
 31
0.0
  0
LINE
  5
1A1
330
1F
100
AcDbEntity
  8
LC-002-100-D00-0
 62
     7
370
    50
100
AcDbLine
 10
106.61229
 20
-17.326875
 30
0.0
 11
107.796486
 21
-18.171727
 31
0.0
  0
LINE
  5
1A2
330
1F
100
AcDbEntity
  8
LC-002-100-D00-0
 62
     7
370
    50
100
AcDbLine
 10
106.61229
 20
-17.700573
 30
0.0
 11
106.61229
 21
-17.326875
 31
0.0
  0
LINE
  5
1A3
330
1F
100
AcDbEntity
  8
LC-002-100-D00-0
 62
     7
370
    50
100
AcDbLine
 10
107.53497
 20
-18.358927
 30
0.0
 11
106.61229
 21
-17.700573
 31
0.0
  0
LINE
  5
1A4
330
1F
100
AcDbEntity
  8
LC-002-100-D00-0
 62
     7
370
    50
100
AcDbLine
 10
106.61229
 20
-19.01728
 30
0.0
 11
107.53497
 21
-18.358927
 31
0.0
  0
LINE
  5
1A5
330
1F
100
AcDbEntity
  8
LC-002-100-D00-0
 62
     7
370
    50
100
AcDbLine
 10
106.61229
 20
-19.390978
 30
0.0
 11
106.61229
 21
-19.01728
 31
0.0
  0
LINE
  5
1A6
330
1F
100
AcDbEntity
  8
LC-002-100-D00-0
 62
     7
370
    50
100
AcDbLine
 10
107.796486
 20
-18.545425
 30
0.0
 11
106.61229
 21
-19.390978
 31
0.0
  0
LINE
  5
1A7
330
1F
100
AcDbEntity
  8
LC-002-100-D00-0
 62
     7
370
    50
100
AcDbLine
 10
109.169985
 20
-19.525593
 30
0.0
 11
107.796486
 21
-18.545425
 31
0.0
  0
LINE
  5
1A8
330
1F
100
AcDbEntity
  8
LC-002-100-D00-0
 62
     7
370
    50
100
AcDbLine
 10
109.169985
 20
-14.485229
 30
0.0
 11
109.178129
 21
-14.85312
 31
0.0
  0
LINE
  5
1A9
330
1F
100
AcDbEntity
  8
LC-002-100-D00-0
 62
     7
370
    50
100
AcDbLine
 10
108.058709
 20
-13.69226
 30
0.0
 11
109.169985
 21
-14.485229
 31
0.0
  0
LINE
  5
1AA
330
1F
100
AcDbEntity
  8
LC-002-100-D00-0
 62
     7
370
    50
100
AcDbLine
 10
109.169985
 20
-12.899291
 30
0.0
 11
108.058709
 21
-13.69226
 31
0.0
  0
LINE
  5
1AB
330
1F
100
AcDbEntity
  8
LC-002-100-D00-0
 62
     7
370
    50
100
AcDbLine
 10
109.169985
 20
-12.525593
 30
0.0
 11
109.169985
 21
-12.899291
 31
0.0
  0
LINE
  5
1AC
330
1F
100
AcDbEntity
  8
LC-002-100-D00-0
 62
     7
370
    50
100
AcDbLine
 10
107.796486
 20
-13.50506
 30
0.0
 11
109.169985
 21
-12.525593
 31
0.0
  0
LINE
  5
1AD
330
1F
100
AcDbEntity
  8
LC-002-100-D00-0
 62
     7
370
    50
100
AcDbLine
 10
106.61229
 20
-12.660209
 30
0.0
 11
107.796486
 21
-13.50506
 31
0.0
  0
LINE
  5
1AE
330
1F
100
AcDbEntity
  8
LC-002-100-D00-0
 62
     7
370
    50
100
AcDbLine
 10
106.61229
 20
-13.033906
 30
0.0
 11
106.61229
 21
-12.660209
 31
0.0
  0
LINE
  5
1AF
330
1F
100
AcDbEntity
  8
LC-002-100-D00-0
 62
     7
370
    50
100
AcDbLine
 10
107.53497
 20
-13.69226
 30
0.0
 11
106.61229
 21
-13.033906
 31
0.0
  0
LINE
  5
1B0
330
1F
100
AcDbEntity
  8
LC-002-100-D00-0
 62
     7
370
    50
100
AcDbLine
 10
106.61229
 20
-14.350613
 30
0.0
 11
107.53497
 21
-13.69226
 31
0.0
  0
LINE
  5
1B1
330
1F
100
AcDbEntity
  8
LC-002-100-D00-0
 62
     7
370
    50
100
AcDbLine
 10
106.61229
 20
-14.724311
 30
0.0
 11
106.61229
 21
-14.350613
 31
0.0
  0
LINE
  5
1B2
330
1F
100
AcDbEntity
  8
LC-002-100-D00-0
 62
     7
370
    50
100
AcDbLine
 10
107.796486
 20
-13.878758
 30
0.0
 11
106.61229
 21
-14.724311
 31
0.0
  0
LINE
  5
1B3
330
1F
100
AcDbEntity
  8
LC-002-100-D00-0
 62
     7
370
    50
100
AcDbLine
 10
109.178129
 20
-14.85312
 30
0.0
 11
107.796486
 21
-13.878758
 31
0.0
  0
LINE
  5
1B4
330
1F
100
AcDbEntity
  8
LC-002-100-D00-0
 62
     7
370
    50
100
AcDbLine
 10
109.169985
 20
-9.818562
 30
0.0
 11
109.178129
 21
-10.186454
 31
0.0
  0
LINE
  5
1B5
330
1F
100
AcDbEntity
  8
LC-002-100-D00-0
 62
     7
370
    50
100
AcDbLine
 10
108.058709
 20
-9.025593
 30
0.0
 11
109.169985
 21
-9.818562
 31
0.0
  0
LINE
  5
1B6
330
1F
100
AcDbEntity
  8
LC-002-100-D00-0
 62
     7
370
    50
100
AcDbLine
 10
109.169985
 20
-8.232625
 30
0.0
 11
108.058709
 21
-9.025593
 31
0.0
  0
LINE
  5
1B7
330
1F
100
AcDbEntity
  8
LC-002-100-D00-0
 62
     7
370
    50
100
AcDbLine
 10
109.169985
 20
-7.858926
 30
0.0
 11
109.169985
 21
-8.232625
 31
0.0
  0
LINE
  5
1B8
330
1F
100
AcDbEntity
  8
LC-002-100-D00-0
 62
     7
370
    50
100
AcDbLine
 10
107.796486
 20
-8.838394
 30
0.0
 11
109.169985
 21
-7.858926
 31
0.0
  0
LINE
  5
1B9
330
1F
100
AcDbEntity
  8
LC-002-100-D00-0
 62
     7
370
    50
100
AcDbLine
 10
106.61229
 20
-7.993542
 30
0.0
 11
107.796486
 21
-8.838394
 31
0.0
  0
LINE
  5
1BA
330
1F
100
AcDbEntity
  8
LC-002-100-D00-0
 62
     7
370
    50
100
AcDbLine
 10
106.61229
 20
-8.36724
 30
0.0
 11
106.61229
 21
-7.993542
 31
0.0
  0
LINE
  5
1BB
330
1F
100
AcDbEntity
  8
LC-002-100-D00-0
 62
     7
370
    50
100
AcDbLine
 10
107.53497
 20
-9.025593
 30
0.0
 11
106.61229
 21
-8.36724
 31
0.0
  0
LINE
  5
1BC
330
1F
100
AcDbEntity
  8
LC-002-100-D00-0
 62
     7
370
    50
100
AcDbLine
 10
106.61229
 20
-9.683947
 30
0.0
 11
107.53497
 21
-9.025593
 31
0.0
  0
LINE
  5
1BD
330
1F
100
AcDbEntity
  8
LC-002-100-D00-0
 62
     7
370
    50
100
AcDbLine
 10
106.61229
 20
-10.057644
 30
0.0
 11
106.61229
 21
-9.683947
 31
0.0
  0
LINE
  5
1BE
330
1F
100
AcDbEntity
  8
LC-002-100-D00-0
 62
     7
370
    50
100
AcDbLine
 10
107.796486
 20
-9.212092
 30
0.0
 11
106.61229
 21
-10.057644
 31
0.0
  0
LINE
  5
1BF
330
1F
100
AcDbEntity
  8
LC-002-100-D00-0
 62
     7
370
    50
100
AcDbLine
 10
109.178129
 20
-10.186454
 30
0.0
 11
107.796486
 21
-9.212092
 31
0.0
  0
ARC
  5
1C0
330
1F
100
AcDbEntity
  8
LC-002-100-D00-0
 62
     7
370
    50
100
AcDbCircle
 10
206.502818
 20
-10.924132
 30
0.0
 40
24.79999999999441
100
AcDbArc
 50
300.592814
 51
59.407186
  0
ARC
  5
1C1
330
1F
100
AcDbEntity
  8
LC-002-100-D00-0
 62
     7
370
    50
100
AcDbCircle
 10
145.502818
 20
-10.924132
 30
0.0
 40
24.79999999999471
100
AcDbArc
 50
120.592814
 51
239.407186
  0
LINE
  5
1C2
330
1F
100
AcDbEntity
  8
LC-002-100-D00-0
 62
     7
370
    50
100
AcDbLine
 10
294.252818
 20
2.325868
 30
0.0
 11
294.252818
 21
-24.174132
 31
0.0
  0
ARC
  5
1C3
330
1F
100
AcDbEntity
  8
LC-002-100-D00-0
 62
     7
370
    50
100
AcDbCircle
 10
289.252818
 20
2.325868
 30
0.0
 40
5.000000000000227
100
AcDbArc
 50
0.0
 51
90.0
  0
ARC
  5
1C4
330
1F
100
AcDbEntity
  8
LC-002-100-D00-0
 62
     7
370
    50
100
AcDbCircle
 10
289.252818
 20
-24.174132
 30
0.0
 40
5.0
100
AcDbArc
 50
270.0
 51
0.0
  0
CIRCLE
  5
1C5
330
1F
100
AcDbEntity
  8
LC-002-100-D00-0
 62
     7
370
    50
100
AcDbCircle
 10
276.002818
 20
-10.924132
 30
0.0
 40
3.900000000000205
  0
LINE
  5
1C6
330
1F
100
AcDbEntity
  8
LC-002-100-D00-0
 62
     7
370
    50
100
AcDbLine
 10
289.252818
 20
-29.174132
 30
0.0
 11
262.752818
 21
-29.174132
 31
0.0
  0
LINE
  5
1C7
330
1F
100
AcDbEntity
  8
LC-002-100-D00-0
 62
     7
370
    50
100
AcDbLine
 10
262.752818
 20
7.325868
 30
0.0
 11
289.252818
 21
7.325868
 31
0.0
  0
ARC
  5
1C8
330
1F
100
AcDbEntity
  8
LC-002-100-D00-0
 62
     7
370
    50
100
AcDbCircle
 10
262.752818
 20
-24.174132
 30
0.0
 40
5.0
100
AcDbArc
 50
180.0
 51
270.0
  0
ARC
  5
1C9
330
1F
100
AcDbEntity
  8
LC-002-100-D00-0
 62
     7
370
    50
100
AcDbCircle
 10
262.752818
 20
2.325868
 30
0.0
 40
5.0
100
AcDbArc
 50
90.0
 51
180.0
  0
LINE
  5
1CA
330
1F
100
AcDbEntity
  8
LC-002-100-D00-0
 62
     7
370
    50
100
AcDbLine
 10
257.752818
 20
-24.174132
 30
0.0
 11
257.752818
 21
2.325868
 31
0.0
  0
ARC
  5
1CB
330
1F
100
AcDbEntity
  8
LC-002-100-D00-0
 62
     7
370
    50
100
AcDbCircle
 10
-30.747182
 20
2.325868
 30
0.0
 40
5.0
100
AcDbArc
 50
0.0
 51
90.0
  0
LINE
  5
1CC
330
1F
100
AcDbEntity
  8
LC-002-100-D00-0
 62
     7
370
    50
100
AcDbLine
 10
-25.747182
 20
2.325868
 30
0.0
 11
-25.747182
 21
-24.174132
 31
0.0
  0
ARC
  5
1CD
330
1F
100
AcDbEntity
  8
LC-002-100-D00-0
 62
     7
370
    50
100
AcDbCircle
 10
-30.747182
 20
-24.174132
 30
0.0
 40
5.0
100
AcDbArc
 50
270.0
 51
0.0
  0
CIRCLE
  5
1CE
330
1F
100
AcDbEntity
  8
LC-002-100-D00-0
 62
     7
370
    50
100
AcDbCircle
 10
-43.997182
 20
-10.924132
 30
0.0
 40
3.899999999999864
  0
LINE
  5
1CF
330
1F
100
AcDbEntity
  8
LC-002-100-D00-0
 62
     7
370
    50
100
AcDbLine
 10
-30.747182
 20
-29.174132
 30
0.0
 11
-57.247182
 21
-29.174132
 31
0.0
  0
LINE
  5
1D0
330
1F
100
AcDbEntity
  8
LC-002-100-D00-0
 62
     7
370
    50
100
AcDbLine
 10
-57.247182
 20
7.325868
 30
0.0
 11
-30.747182
 21
7.325868
 31
0.0
  0
ARC
  5
1D1
330
1F
100
AcDbEntity
  8
LC-002-100-D00-0
 62
     7
370
    50
100
AcDbCircle
 10
-57.247182
 20
-24.174132
 30
0.0
 40
5.0
100
AcDbArc
 50
180.0
 51
270.0
  0
ARC
  5
1D2
330
1F
100
AcDbEntity
  8
LC-002-100-D00-0
 62
     7
370
    50
100
AcDbCircle
 10
-57.247182
 20
2.325868
 30
0.0
 40
5.0
100
AcDbArc
 50
90.0
 51
180.0
  0
LINE
  5
1D3
330
1F
100
AcDbEntity
  8
LC-002-100-D00-0
 62
     7
370
    50
100
AcDbLine
 10
-62.247182
 20
-24.174132
 30
0.0
 11
-62.247182
 21
2.325868
 31
0.0
  0
LINE
  5
1D4
330
1F
100
AcDbEntity
  8
LC-002-100-D00-0
 62
     7
370
    50
100
AcDbLine
 10
414.252818
 20
2.325868
 30
0.0
 11
414.252818
 21
-24.174132
 31
0.0
  0
ARC
  5
1D5
330
1F
100
AcDbEntity
  8
LC-002-100-D00-0
 62
     7
370
    50
100
AcDbCircle
 10
409.252818
 20
2.325868
 30
0.0
 40
5.0
100
AcDbArc
 50
0.0
 51
90.0
  0
ARC
  5
1D6
330
1F
100
AcDbEntity
  8
LC-002-100-D00-0
 62
     7
370
    50
100
AcDbCircle
 10
409.252818
 20
-24.174132
 30
0.0
 40
5.0
100
AcDbArc
 50
270.0
 51
0.0
  0
CIRCLE
  5
1D7
330
1F
100
AcDbEntity
  8
LC-002-100-D00-0
 62
     7
370
    50
100
AcDbCircle
 10
396.002818
 20
-10.924132
 30
0.0
 40
3.900000000000205
  0
LINE
  5
1D8
330
1F
100
AcDbEntity
  8
LC-002-100-D00-0
 62
     7
370
    50
100
AcDbLine
 10
409.252818
 20
-29.174132
 30
0.0
 11
382.752818
 21
-29.174132
 31
0.0
  0
LINE
  5
1D9
330
1F
100
AcDbEntity
  8
LC-002-100-D00-0
 62
     7
370
    50
100
AcDbLine
 10
382.752818
 20
7.325868
 30
0.0
 11
409.252818
 21
7.325868
 31
0.0
  0
ARC
  5
1DA
330
1F
100
AcDbEntity
  8
LC-002-100-D00-0
 62
     7
370
    50
100
AcDbCircle
 10
382.752818
 20
-24.174132
 30
0.0
 40
5.0
100
AcDbArc
 50
180.0
 51
270.0
  0
ARC
  5
1DB
330
1F
100
AcDbEntity
  8
LC-002-100-D00-0
 62
     7
370
    50
100
AcDbCircle
 10
382.752818
 20
2.325868
 30
0.0
 40
5.0
100
AcDbArc
 50
90.0
 51
180.0
  0
LINE
  5
1DC
330
1F
100
AcDbEntity
  8
LC-002-100-D00-0
 62
     7
370
    50
100
AcDbLine
 10
377.752818
 20
-24.174132
 30
0.0
 11
377.752818
 21
2.325868
 31
0.0
  0
ARC
  5
1DD
330
1F
100
AcDbEntity
  8
LC-002-100-D00-0
 62
     7
370
    50
100
AcDbCircle
 10
89.252818
 20
2.325868
 30
0.0
 40
5.000000000000227
100
AcDbArc
 50
0.0
 51
90.0
  0
LINE
  5
1DE
330
1F
100
AcDbEntity
  8
LC-002-100-D00-0
 62
     7
370
    50
100
AcDbLine
 10
94.252818
 20
2.325868
 30
0.0
 11
94.252818
 21
-24.174132
 31
0.0
  0
ARC
  5
1DF
330
1F
100
AcDbEntity
  8
LC-002-100-D00-0
 62
     7
370
    50
100
AcDbCircle
 10
89.252818
 20
-24.174132
 30
0.0
 40
5.0
100
AcDbArc
 50
270.0
 51
0.0
  0
CIRCLE
  5
1E0
330
1F
100
AcDbEntity
  8
LC-002-100-D00-0
 62
     7
370
    50
100
AcDbCircle
 10
76.002818
 20
-10.924132
 30
0.0
 40
3.900000000000205
  0
LINE
  5
1E1
330
1F
100
AcDbEntity
  8
LC-002-100-D00-0
 62
     7
370
    50
100
AcDbLine
 10
89.252818
 20
-29.174132
 30
0.0
 11
62.752818
 21
-29.174132
 31
0.0
  0
LINE
  5
1E2
330
1F
100
AcDbEntity
  8
LC-002-100-D00-0
 62
     7
370
    50
100
AcDbLine
 10
62.752818
 20
7.325868
 30
0.0
 11
89.252818
 21
7.325868
 31
0.0
  0
ARC
  5
1E3
330
1F
100
AcDbEntity
  8
LC-002-100-D00-0
 62
     7
370
    50
100
AcDbCircle
 10
62.752818
 20
-24.174132
 30
0.0
 40
5.0
100
AcDbArc
 50
180.0
 51
270.0
  0
ARC
  5
1E4
330
1F
100
AcDbEntity
  8
LC-002-100-D00-0
 62
     7
370
    50
100
AcDbCircle
 10
62.752818
 20
2.325868
 30
0.0
 40
5.0
100
AcDbArc
 50
90.0
 51
180.0
  0
LINE
  5
1E5
330
1F
100
AcDbEntity
  8
LC-002-100-D00-0
 62
     7
370
    50
100
AcDbLine
 10
57.752818
 20
-24.174132
 30
0.0
 11
57.752818
 21
2.325868
 31
0.0
  0
LINE
  5
1E6
330
1F
100
AcDbEntity
  8
LC-002-100-D00-0
 62
     7
370
    50
100
AcDbLine
 10
145.502818
 20
-34.924132
 30
0.0
 11
206.502818
 21
-34.924132
 31
0.0
  0
ARC
  5
1E7
330
1F
100
AcDbEntity
  8
LC-002-100-D00-0
 62
     7
370
    50
100
AcDbCircle
 10
145.502818
 20
-10.924132
 30
0.0
 40
24.00000000000034
100
AcDbArc
 50
90.0
 51
270.0
  0
LINE
  5
1E8
330
1F
100
AcDbEntity
  8
LC-002-100-D00-0
 62
     7
370
    50
100
AcDbLine
 10
206.502818
 20
13.075868
 30
0.0
 11
145.502818
 21
13.075868
 31
0.0
  0
ARC
  5
1E9
330
1F
100
AcDbEntity
  8
LC-002-100-D00-0
 62
     7
370
    50
100
AcDbCircle
 10
206.502818
 20
-10.924132
 30
0.0
 40
24.00000000000034
100
AcDbArc
 50
270.0
 51
90.0
  0
ARC
  5
1EA
330
1F
100
AcDbEntity
  8
LC-002-100-D00-0
 62
     7
370
    50
100
AcDbCircle
 10
187.502818
 20
-10.924132
 30
0.0
 40
16.00000000000023
100
AcDbArc
 50
270.0
 51
90.0
  0
LINE
  5
1EB
330
1F
100
AcDbEntity
  8
LC-002-100-D00-0
 62
     7
370
    50
100
AcDbLine
 10
164.502818
 20
-26.924132
 30
0.0
 11
187.502818
 21
-26.924132
 31
0.0
  0
LINE
  5
1EC
330
1F
100
AcDbEntity
  8
LC-002-100-D00-0
 62
     7
370
    50
100
AcDbLine
 10
187.502818
 20
5.075868
 30
0.0
 11
164.502818
 21
5.075868
 31
0.0
  0
ARC
  5
1ED
330
1F
100
AcDbEntity
  8
LC-002-100-D00-0
 62
     7
370
    50
100
AcDbCircle
 10
164.502818
 20
-10.924132
 30
0.0
 40
16.00000000000023
100
AcDbArc
 50
90.0
 51
270.0
  0
DIMENSION
  5
1EE
330
1F
100
AcDbEntity
  8
LC-002-100-D00-0
 62
     7
370
    25
100
AcDbDimension
  2
*D14
 10
517.282717
 20
33.575868
 30
0.0
 11
495.282717
 21
15.502841
 31
0.0
 70
   160
  1
1,5
 71
     5
 42
1.5
 53
90.0
  3
LC-DIM-L-0100-02-02
100
AcDbAlignedDimension
 13
471.002818
 23
35.075868
 33
0.0
 14
471.002818
 24
33.575868
 34
0.0
 50
90.0
100
AcDbRotatedDimension
  0
DIMENSION
  5
1FC
330
1F
100
AcDbEntity
  8
LC-002-100-D00-0
 62
     7
370
    25
100
AcDbDimension
  2
*D15
 10
556.679002
 20
15.075868
 30
0.0
 11
534.679002
 21
20.542841
 31
0.0
 70
   160
  1
18,5
 71
     5
 42
18.5
 53
90.0
  3
LC-DIM-L-0100-02-02
100
AcDbAlignedDimension
 13
471.002818
 23
33.575868
 33
0.0
 14
423.502818
 24
15.075868
 34
0.0
 50
90.0
100
AcDbRotatedDimension
  0
DIMENSION
  5
20B
330
1F
100
AcDbEntity
  8
LC-002-100-D00-0
 62
     7
370
    25
100
AcDbDimension
  2
*D16
 10
596.075287
 20
-88.424132
 30
0.0
 11
574.075287
 21
-18.097159
 31
0.0
 70
   160
  1
123,5
 71
     5
 42
123.5
 53
90.0
  3
LC-DIM-L-0100-02-02
100
AcDbAlignedDimension
 13
471.002818
 23
35.075868
 33
0.0
 14
471.002818
 24
-88.424132
 34
0.0
 50
90.0
100
AcDbRotatedDimension
  0
LINE
  5
218
330
1F
100
AcDbEntity
  8
LC-002-100-D00-0
  6
DASHDOT
 62
     7
370
    25
100
AcDbLine
 10
176.002818
 20
45.075868
 30
0.0
 11
176.002818
 21
-93.424132
 31
0.0
  0
LINE
  5
219
330
1F
100
AcDbEntity
  8
LC-002-100-D00-0
  6
DASHDOT
 62
     7
370
    25
100
AcDbLine
 10
433.502818
 20
-10.924132
 30
0.0
 11
-81.497182
 21
-10.924132
 31
0.0
  0
LINE
  5
21A
330
1F
100
AcDbEntity
  8
LC-002-100-D00-0
 62
     7
370
    50
100
AcDbLine
 10
231.25283
 20
255.220855
 30
0.0
 11
233.05283
 21
255.220855
 31
0.0
  0
LINE
  5
21B
330
1F
100
AcDbEntity
  8
LC-002-100-D00-0
 62
     7
370
    50
100
AcDbLine
 10
118.95283
 20
255.220855
 30
0.0
 11
120.75283
 21
255.220855
 31
0.0
  0
LINE
  5
21C
330
1F
100
AcDbEntity
  8
LC-002-100-D00-0
 62
     7
370
    50
100
AcDbLine
 10
289.250626
 20
182.860841
 30
0.0
 11
289.250626
 21
184.643762
 31
0.0
  0
LINE
  5
21D
330
1F
100
AcDbEntity
  8
LC-002-100-D00-0
 62
     7
370
    50
100
AcDbLine
 10
289.250626
 20
235.07792
 30
0.0
 11
289.250626
 21
236.860841
 31
0.0
  0
LINE
  5
21E
330
1F
100
AcDbEntity
  8
LC-002-100-D00-0
 62
     7
370
    50
100
AcDbLine
 10
285.250626
 20
236.860841
 30
0.0
 11
285.250626
 21
235.07792
 31
0.0
  0
LINE
  5
21F
330
1F
100
AcDbEntity
  8
LC-002-100-D00-0
 62
     7
370
    50
100
AcDbLine
 10
285.250626
 20
184.643762
 30
0.0
 11
285.250626
 21
182.860841
 31
0.0
  0
LINE
  5
220
330
1F
100
AcDbEntity
  8
LC-002-100-D00-0
 62
     7
370
    50
100
AcDbLine
 10
215.717245
 20
253.360841
 30
0.0
 11
215.717245
 21
251.860841
 31
0.0
  0
LINE
  5
221
330
1F
100
AcDbEntity
  8
LC-002-100-D00-0
 62
     7
370
    50
100
AcDbLine
 10
136.288415
 20
251.860841
 30
0.0
 11
136.288415
 21
253.360841
 31
0.0
  0
LINE
  5
222
330
1F
100
AcDbEntity
  8
LC-002-100-D00-0
 62
     7
370
    50
100
AcDbLine
 10
-47.397167
 20
275.360841
 30
0.0
 11
-48.397169
 21
276.360841
 31
0.0
  0
LINE
  5
223
330
1F
100
AcDbEntity
  8
LC-002-100-D00-0
 62
     7
370
    50
100
AcDbLine
 10
-47.397167
 20
275.360841
 30
0.0
 11
-47.39717
 21
269.360841
 31
0.0
  0
LINE
  5
224
330
1F
100
AcDbEntity
  8
LC-002-100-D00-0
 62
     7
370
    50
100
AcDbLine
 10
-48.39717
 20
268.360841
 30
0.0
 11
-47.39717
 21
269.360841
 31
0.0
  0
LINE
  5
225
330
1F
100
AcDbEntity
  8
LC-002-100-D00-0
 62
     7
370
    50
100
AcDbLine
 10
-50.348029
 20
270.36084
 30
0.0
 11
-50.348029
 21
268.360842
 31
0.0
  0
LINE
  5
226
330
1F
100
AcDbEntity
  8
LC-002-100-D00-0
 62
     7
370
    50
100
AcDbLine
 10
-49.641878
 20
270.550052
 30
0.0
 11
-50.348029
 21
270.36084
 31
0.0
  0
ARC
  5
227
330
1F
100
AcDbEntity
  8
LC-002-100-D00-0
 62
     7
370
    50
100
AcDbCircle
 10
-49.79717
 20
271.129607
 30
0.0
 40
0.600000000000118
100
AcDbArc
 50
285.0
 51
0.0
  0
LINE
  5
228
330
1F
100
AcDbEntity
  8
LC-002-100-D00-0
 62
     7
370
    50
100
AcDbLine
 10
-49.19717
 20
273.592075
 30
0.0
 11
-49.19717
 21
271.129607
 31
0.0
  0
ARC
  5
229
330
1F
100
AcDbEntity
  8
LC-002-100-D00-0
 62
     7
370
    50
100
AcDbCircle
 10
-49.79717
 20
273.592075
 30
0.0
 40
0.6000000000000227
100
AcDbArc
 50
0.0
 51
75.0
  0
LINE
  5
22A
330
1F
100
AcDbEntity
  8
LC-002-100-D00-0
 62
     7
370
    50
100
AcDbLine
 10
-50.348029
 20
274.360841
 30
0.0
 11
-49.641878
 21
274.17163
 31
0.0
  0
LINE
  5
22B
330
1F
100
AcDbEntity
  8
LC-002-100-D00-0
 62
     7
370
    50
100
AcDbLine
 10
-50.348029
 20
276.360841
 30
0.0
 11
-50.348029
 21
274.360841
 31
0.0
  0
LINE
  5
22C
330
1F
100
AcDbEntity
  8
LC-002-100-D00-0
 62
     7
370
    50
100
AcDbLine
 10
-50.348029
 20
268.360842
 30
0.0
 11
-48.39717
 21
268.360841
 31
0.0
  0
LINE
  5
22D
330
1F
100
AcDbEntity
  8
LC-002-100-D00-0
 62
     7
370
    50
100
AcDbLine
 10
-50.348029
 20
276.360841
 30
0.0
 11
-48.397169
 21
276.360841
 31
0.0
  0
LINE
  5
22E
330
1F
100
AcDbEntity
  8
LC-002-100-D00-0
 62
     7
370
    50
100
AcDbLine
 10
-38.79717
 20
271.129607
 30
0.0
 11
-38.79717
 21
273.592075
 31
0.0
  0
ARC
  5
22F
330
1F
100
AcDbEntity
  8
LC-002-100-D00-0
 62
     7
370
    50
100
AcDbCircle
 10
-38.19717
 20
271.129607
 30
0.0
 40
0.6000000000000227
100
AcDbArc
 50
180.0
 51
255.0
  0
LINE
  5
230
330
1F
100
AcDbEntity
  8
LC-002-100-D00-0
 62
     7
370
    50
100
AcDbLine
 10
-37.646324
 20
270.36084
 30
0.0
 11
-38.352461
 21
270.550052
 31
0.0
  0
LINE
  5
231
330
1F
100
AcDbEntity
  8
LC-002-100-D00-0
 62
     7
370
    50
100
AcDbLine
 10
-37.646324
 20
270.36084
 30
0.0
 11
-37.646324
 21
268.360842
 31
0.0
  0
LINE
  5
232
330
1F
100
AcDbEntity
  8
LC-002-100-D00-0
 62
     7
370
    50
100
AcDbLine
 10
-40.59717
 20
269.360841
 30
0.0
 11
-39.59717
 21
268.360841
 31
0.0
  0
LINE
  5
233
330
1F
100
AcDbEntity
  8
LC-002-100-D00-0
 62
     7
370
    50
100
AcDbLine
 10
-40.59717
 20
269.360841
 30
0.0
 11
-40.597171
 21
275.360841
 31
0.0
  0
LINE
  5
234
330
1F
100
AcDbEntity
  8
LC-002-100-D00-0
 62
     7
370
    50
100
AcDbLine
 10
-39.597169
 20
276.360841
 30
0.0
 11
-40.597171
 21
275.360841
 31
0.0
  0
LINE
  5
235
330
1F
100
AcDbEntity
  8
LC-002-100-D00-0
 62
     7
370
    50
100
AcDbLine
 10
-37.646324
 20
276.360841
 30
0.0
 11
-37.646324
 21
274.360841
 31
0.0
  0
LINE
  5
236
330
1F
100
AcDbEntity
  8
LC-002-100-D00-0
 62
     7
370
    50
100
AcDbLine
 10
-38.352461
 20
274.17163
 30
0.0
 11
-37.646324
 21
274.360841
 31
0.0
  0
ARC
  5
237
330
1F
100
AcDbEntity
  8
LC-002-100-D00-0
 62
     7
370
    50
100
AcDbCircle
 10
-38.19717
 20
273.592075
 30
0.0
 40
0.600000000000118
100
AcDbArc
 50
105.0
 51
180.0
  0
LINE
  5
238
330
1F
100
AcDbEntity
  8
LC-002-100-D00-0
 62
     7
370
    50
100
AcDbLine
 10
-39.59717
 20
268.360841
 30
0.0
 11
-37.646324
 21
268.360842
 31
0.0
  0
LINE
  5
239
330
1F
100
AcDbEntity
  8
LC-002-100-D00-0
 62
     7
370
    50
100
AcDbLine
 10
-39.597169
 20
276.360841
 30
0.0
 11
-37.646324
 21
276.360841
 31
0.0
  0
LINE
  5
23A
330
1F
100
AcDbEntity
  8
LC-002-100-D00-0
 62
     7
370
    50
100
AcDbLine
 10
-47.39717
 20
269.360841
 30
0.0
 11
-47.23933
 21
269.360841
 31
0.0
  0
LINE
  5
23B
330
1F
100
AcDbEntity
  8
LC-002-100-D00-0
 62
     7
370
    50
100
AcDbLine
 10
-40.755009
 20
269.360841
 30
0.0
 11
-40.59717
 21
269.360841
 31
0.0
  0
LINE
  5
23C
330
1F
100
AcDbEntity
  8
LC-002-100-D00-0
 62
     7
370
    50
100
AcDbLine
 10
-39.59717
 20
268.360841
 30
0.0
 11
-40.132952
 21
268.360841
 31
0.0
  0
LINE
  5
23D
330
1F
100
AcDbEntity
  8
LC-002-100-D00-0
 62
     7
370
    50
100
AcDbLine
 10
-47.861388
 20
268.360841
 30
0.0
 11
-48.39717
 21
268.360841
 31
0.0
  0
LINE
  5
23E
330
1F
100
AcDbEntity
  8
LC-002-100-D00-0
 62
     7
370
    50
100
AcDbLine
 10
-37.646324
 20
276.360841
 30
0.0
 11
-40.097177
 21
276.360841
 31
0.0
  0
LINE
  5
23F
330
1F
100
AcDbEntity
  8
LC-002-100-D00-0
 62
     7
370
    50
100
AcDbLine
 10
-40.097177
 20
276.360841
 30
0.0
 11
-40.09717
 21
287.360841
 31
0.0
  0
LINE
  5
240
330
1F
100
AcDbEntity
  8
LC-002-100-D00-0
 62
     7
370
    50
100
AcDbLine
 10
-40.09717
 20
287.360841
 30
0.0
 11
-26.74717
 21
287.360841
 31
0.0
  0
ARC
  5
241
330
1F
100
AcDbEntity
  8
LC-002-100-D00-0
 62
     7
370
    50
100
AcDbCircle
 10
-26.74717
 20
286.360841
 30
0.0
 40
1.000000000000227
100
AcDbArc
 50
0.0
 51
90.0
  0
LINE
  5
242
330
1F
100
AcDbEntity
  8
LC-002-100-D00-0
 62
     7
370
    50
100
AcDbLine
 10
-25.74717
 20
286.360841
 30
0.0
 11
-25.747165
 21
280.360841
 31
0.0
  0
LINE
  5
243
330
1F
100
AcDbEntity
  8
LC-002-100-D00-0
 62
     7
370
    50
100
AcDbLine
 10
-28.74717
 20
280.360841
 30
0.0
 11
-25.747165
 21
280.360841
 31
0.0
  0
LINE
  5
244
330
1F
100
AcDbEntity
  8
LC-002-100-D00-0
 62
     7
370
    50
100
AcDbLine
 10
-28.74717
 20
280.360841
 30
0.0
 11
-28.747171
 21
284.360841
 31
0.0
  0
LINE
  5
245
330
1F
100
AcDbEntity
  8
LC-002-100-D00-0
 62
     7
370
    50
100
AcDbLine
 10
-33.24717
 20
284.360841
 30
0.0
 11
-28.747171
 21
284.360841
 31
0.0
  0
ARC
  5
246
330
1F
100
AcDbEntity
  8
LC-002-100-D00-0
 62
     7
370
    50
100
AcDbCircle
 10
-33.24717
 20
283.360841
 30
0.0
 40
1.000000000000227
100
AcDbArc
 50
90.0
 51
180.0
  0
LINE
  5
247
330
1F
100
AcDbEntity
  8
LC-002-100-D00-0
 62
     7
370
    50
100
AcDbLine
 10
-34.24717
 20
269.360841
 30
0.0
 11
-34.24717
 21
283.360841
 31
0.0
  0
ARC
  5
248
330
1F
100
AcDbEntity
  8
LC-002-100-D00-0
 62
     7
370
    50
100
AcDbCircle
 10
-35.24717
 20
269.360841
 30
0.0
 40
1.0
100
AcDbArc
 50
270.0
 51
0.0
  0
LINE
  5
249
330
1F
100
AcDbEntity
  8
LC-002-100-D00-0
 62
     7
370
    50
100
AcDbLine
 10
-35.24717
 20
268.360841
 30
0.0
 11
-37.646324
 21
268.360842
 31
0.0
  0
LINE
  5
24A
330
1F
100
AcDbEntity
  8
LC-002-100-D00-0
 62
     7
370
    50
100
AcDbLine
 10
-37.646324
 20
270.36084
 30
0.0
 11
-37.646324
 21
268.360842
 31
0.0
  0
LINE
  5
24B
330
1F
100
AcDbEntity
  8
LC-002-100-D00-0
 62
     7
370
    50
100
AcDbLine
 10
-38.29717
 20
270.360841
 30
0.0
 11
-37.646324
 21
270.36084
 31
0.0
  0
ARC
  5
24C
330
1F
100
AcDbEntity
  8
LC-002-100-D00-0
 62
     7
370
    50
100
AcDbCircle
 10
-38.29717
 20
270.860841
 30
0.0
 40
0.5000000000001137
100
AcDbArc
 50
180.0
 51
270.0
  0
LINE
  5
24D
330
1F
100
AcDbEntity
  8
LC-002-100-D00-0
 62
     7
370
    50
100
AcDbLine
 10
-38.79717
 20
273.860841
 30
0.0
 11
-38.79717
 21
270.860841
 31
0.0
  0
ARC
  5
24E
330
1F
100
AcDbEntity
  8
LC-002-100-D00-0
 62
     7
370
    50
100
AcDbCircle
 10
-38.29717
 20
273.860841
 30
0.0
 40
0.5000000000002274
100
AcDbArc
 50
90.0
 51
180.0
  0
LINE
  5
24F
330
1F
100
AcDbEntity
  8
LC-002-100-D00-0
 62
     7
370
    50
100
AcDbLine
 10
-37.646324
 20
274.360841
 30
0.0
 11
-38.29717
 21
274.360841
 31
0.0
  0
LINE
  5
250
330
1F
100
AcDbEntity
  8
LC-002-100-D00-0
 62
     7
370
    50
100
AcDbLine
 10
-37.646324
 20
276.360841
 30
0.0
 11
-37.646324
 21
274.360841
 31
0.0
  0
ARC
  5
251
330
1F
100
AcDbEntity
  8
LC-002-100-D00-0
 62
     7
370
    50
100
AcDbCircle
 10
-54.74717
 20
283.360841
 30
0.0
 40
1.000000000000227
100
AcDbArc
 50
0.0
 51
90.0
  0
LINE
  5
252
330
1F
100
AcDbEntity
  8
LC-002-100-D00-0
 62
     7
370
    50
100
AcDbLine
 10
-53.74717
 20
283.360841
 30
0.0
 11
-53.74717
 21
269.360841
 31
0.0
  0
ARC
  5
253
330
1F
100
AcDbEntity
  8
LC-002-100-D00-0
 62
     7
370
    50
100
AcDbCircle
 10
-52.74717
 20
269.360841
 30
0.0
 40
1.0
100
AcDbArc
 50
180.0
 51
270.0
  0
LINE
  5
254
330
1F
100
AcDbEntity
  8
LC-002-100-D00-0
 62
     7
370
    50
100
AcDbLine
 10
-49.19717
 20
270.860841
 30
0.0
 11
-49.19717
 21
273.860841
 31
0.0
  0
LINE
  5
255
330
1F
100
AcDbEntity
  8
LC-002-100-D00-0
 62
     7
370
    50
100
AcDbLine
 10
-47.89717
 20
287.360841
 30
0.0
 11
-47.897175
 21
276.360841
 31
0.0
  0
LINE
  5
256
330
1F
100
AcDbEntity
  8
LC-002-100-D00-0
 62
     7
370
    50
100
AcDbLine
 10
-47.89717
 20
287.360841
 30
0.0
 11
-40.09717
 21
287.360841
 31
0.0
  0
LINE
  5
257
330
1F
100
AcDbEntity
  8
LC-002-100-D00-0
 62
     7
370
    50
100
AcDbLine
 10
-50.348029
 20
276.360841
 30
0.0
 11
-50.348029
 21
274.360841
 31
0.0
  0
ARC
  5
258
330
1F
100
AcDbEntity
  8
LC-002-100-D00-0
 62
     7
370
    50
100
AcDbCircle
 10
-49.69717
 20
270.860841
 30
0.0
 40
0.4999999999997726
100
AcDbArc
 50
270.0
 51
0.0
  0
LINE
  5
259
330
1F
100
AcDbEntity
  8
LC-002-100-D00-0
 62
     7
370
    50
100
AcDbLine
 10
-50.348029
 20
270.36084
 30
0.0
 11
-49.69717
 21
270.360841
 31
0.0
  0
LINE
  5
25A
330
1F
100
AcDbEntity
  8
LC-002-100-D00-0
 62
     7
370
    50
100
AcDbLine
 10
-50.348029
 20
270.36084
 30
0.0
 11
-50.348029
 21
268.360842
 31
0.0
  0
LINE
  5
25B
330
1F
100
AcDbEntity
  8
LC-002-100-D00-0
 62
     7
370
    50
100
AcDbLine
 10
-59.247166
 20
284.360841
 30
0.0
 11
-59.24717
 21
280.360841
 31
0.0
  0
LINE
  5
25C
330
1F
100
AcDbEntity
  8
LC-002-100-D00-0
 62
     7
370
    50
100
AcDbLine
 10
-62.247172
 20
280.360841
 30
0.0
 11
-62.24717
 21
286.360841
 31
0.0
  0
ARC
  5
25D
330
1F
100
AcDbEntity
  8
LC-002-100-D00-0
 62
     7
370
    50
100
AcDbCircle
 10
-61.24717
 20
286.360841
 30
0.0
 40
1.000000000000227
100
AcDbArc
 50
90.0
 51
180.0
  0
LINE
  5
25E
330
1F
100
AcDbEntity
  8
LC-002-100-D00-0
 62
     7
370
    50
100
AcDbLine
 10
-49.69717
 20
274.360841
 30
0.0
 11
-50.348029
 21
274.360841
 31
0.0
  0
ARC
  5
25F
330
1F
100
AcDbEntity
  8
LC-002-100-D00-0
 62
     7
370
    50
100
AcDbCircle
 10
-49.69717
 20
273.860841
 30
0.0
 40
0.5000000000001137
100
AcDbArc
 50
0.0
 51
90.0
  0
LINE
  5
260
330
1F
100
AcDbEntity
  8
LC-002-100-D00-0
 62
     7
370
    50
100
AcDbLine
 10
-62.247172
 20
280.360841
 30
0.0
 11
-59.24717
 21
280.360841
 31
0.0
  0
LINE
  5
261
330
1F
100
AcDbEntity
  8
LC-002-100-D00-0
 62
     7
370
    50
100
AcDbLine
 10
-47.897175
 20
276.360841
 30
0.0
 11
-50.348029
 21
276.360841
 31
0.0
  0
LINE
  5
262
330
1F
100
AcDbEntity
  8
LC-002-100-D00-0
 62
     7
370
    50
100
AcDbLine
 10
-50.348029
 20
268.360842
 30
0.0
 11
-52.74717
 21
268.360841
 31
0.0
  0
LINE
  5
263
330
1F
100
AcDbEntity
  8
LC-002-100-D00-0
 62
     7
370
    50
100
AcDbLine
 10
-59.247166
 20
284.360841
 30
0.0
 11
-54.74717
 21
284.360841
 31
0.0
  0
LINE
  5
264
330
1F
100
AcDbEntity
  8
LC-002-100-D00-0
 62
     7
370
    50
100
AcDbLine
 10
-61.24717
 20
287.360841
 30
0.0
 11
-47.89717
 21
287.360841
 31
0.0
  0
LINE
  5
265
330
1F
100
AcDbEntity
  8
LC-002-100-D00-0
 62
     7
370
    50
100
AcDbLine
 10
-30.74717
 20
280.360841
 30
0.0
 11
-28.74717
 21
280.360841
 31
0.0
  0
LINE
  5
266
330
1F
100
AcDbEntity
  8
LC-002-100-D00-0
 62
     7
370
    50
100
AcDbLine
 10
-59.24717
 20
280.360841
 30
0.0
 11
-57.24717
 21
280.360841
 31
0.0
  0
LINE
  5
267
330
1F
100
AcDbEntity
  8
LC-002-100-D00-0
 62
     7
370
    50
100
AcDbLine
 10
-57.24717
 20
280.360841
 30
0.0
 11
-53.747177
 21
280.360841
 31
0.0
  0
LINE
  5
268
330
1F
100
AcDbEntity
  8
LC-002-100-D00-0
 62
     7
370
    50
100
AcDbLine
 10
-34.247175
 20
280.360841
 30
0.0
 11
-30.74717
 21
280.360841
 31
0.0
  0
LINE
  5
269
330
1F
100
AcDbEntity
  8
LC-002-100-D00-0
 62
     7
370
    50
100
AcDbLine
 10
392.602831
 20
275.360841
 30
0.0
 11
391.602829
 21
276.360841
 31
0.0
  0
LINE
  5
26A
330
1F
100
AcDbEntity
  8
LC-002-100-D00-0
 62
     7
370
    50
100
AcDbLine
 10
392.602831
 20
275.360841
 30
0.0
 11
392.60283
 21
269.360841
 31
0.0
  0
LINE
  5
26B
330
1F
100
AcDbEntity
  8
LC-002-100-D00-0
 62
     7
370
    50
100
AcDbLine
 10
391.60283
 20
268.360841
 30
0.0
 11
392.60283
 21
269.360841
 31
0.0
  0
LINE
  5
26C
330
1F
100
AcDbEntity
  8
LC-002-100-D00-0
 62
     7
370
    50
100
AcDbLine
 10
389.651984
 20
270.36084
 30
0.0
 11
389.651984
 21
268.360842
 31
0.0
  0
LINE
  5
26D
330
1F
100
AcDbEntity
  8
LC-002-100-D00-0
 62
     7
370
    50
100
AcDbLine
 10
390.358122
 20
270.550052
 30
0.0
 11
389.651984
 21
270.36084
 31
0.0
  0
ARC
  5
26E
330
1F
100
AcDbEntity
  8
LC-002-100-D00-0
 62
     7
370
    50
100
AcDbCircle
 10
390.20283
 20
271.129607
 30
0.0
 40
0.600000000000118
100
AcDbArc
 50
285.0
 51
0.0
  0
LINE
  5
26F
330
1F
100
AcDbEntity
  8
LC-002-100-D00-0
 62
     7
370
    50
100
AcDbLine
 10
390.80283
 20
273.592075
 30
0.0
 11
390.80283
 21
271.129607
 31
0.0
  0
ARC
  5
270
330
1F
100
AcDbEntity
  8
LC-002-100-D00-0
 62
     7
370
    50
100
AcDbCircle
 10
390.20283
 20
273.592075
 30
0.0
 40
0.6000000000000227
100
AcDbArc
 50
0.0
 51
75.0
  0
LINE
  5
271
330
1F
100
AcDbEntity
  8
LC-002-100-D00-0
 62
     7
370
    50
100
AcDbLine
 10
389.651984
 20
274.360841
 30
0.0
 11
390.358122
 21
274.17163
 31
0.0
  0
LINE
  5
272
330
1F
100
AcDbEntity
  8
LC-002-100-D00-0
 62
     7
370
    50
100
AcDbLine
 10
389.651984
 20
276.360841
 30
0.0
 11
389.651984
 21
274.360841
 31
0.0
  0
LINE
  5
273
330
1F
100
AcDbEntity
  8
LC-002-100-D00-0
 62
     7
370
    50
100
AcDbLine
 10
389.651984
 20
268.360842
 30
0.0
 11
391.60283
 21
268.360841
 31
0.0
  0
LINE
  5
274
330
1F
100
AcDbEntity
  8
LC-002-100-D00-0
 62
     7
370
    50
100
AcDbLine
 10
389.651984
 20
276.360841
 30
0.0
 11
391.602829
 21
276.360841
 31
0.0
  0
LINE
  5
275
330
1F
100
AcDbEntity
  8
LC-002-100-D00-0
 62
     7
370
    50
100
AcDbLine
 10
401.20283
 20
271.129607
 30
0.0
 11
401.20283
 21
273.592075
 31
0.0
  0
ARC
  5
276
330
1F
100
AcDbEntity
  8
LC-002-100-D00-0
 62
     7
370
    50
100
AcDbCircle
 10
401.80283
 20
271.129607
 30
0.0
 40
0.6000000000000227
100
AcDbArc
 50
180.0
 51
255.0
  0
LINE
  5
277
330
1F
100
AcDbEntity
  8
LC-002-100-D00-0
 62
     7
370
    50
100
AcDbLine
 10
402.353689
 20
270.36084
 30
0.0
 11
401.647539
 21
270.550052
 31
0.0
  0
LINE
  5
278
330
1F
100
AcDbEntity
  8
LC-002-100-D00-0
 62
     7
370
    50
100
AcDbLine
 10
402.353689
 20
270.36084
 30
0.0
 11
402.353689
 21
268.360842
 31
0.0
  0
LINE
  5
279
330
1F
100
AcDbEntity
  8
LC-002-100-D00-0
 62
     7
370
    50
100
AcDbLine
 10
399.40283
 20
269.360841
 30
0.0
 11
400.40283
 21
268.360841
 31
0.0
  0
LINE
  5
27A
330
1F
100
AcDbEntity
  8
LC-002-100-D00-0
 62
     7
370
    50
100
AcDbLine
 10
399.40283
 20
269.360841
 30
0.0
 11
399.402827
 21
275.360841
 31
0.0
  0
LINE
  5
27B
330
1F
100
AcDbEntity
  8
LC-002-100-D00-0
 62
     7
370
    50
100
AcDbLine
 10
400.402829
 20
276.360841
 30
0.0
 11
399.402827
 21
275.360841
 31
0.0
  0
LINE
  5
27C
330
1F
100
AcDbEntity
  8
LC-002-100-D00-0
 62
     7
370
    50
100
AcDbLine
 10
402.353689
 20
276.360841
 30
0.0
 11
402.353689
 21
274.360841
 31
0.0
  0
LINE
  5
27D
330
1F
100
AcDbEntity
  8
LC-002-100-D00-0
 62
     7
370
    50
100
AcDbLine
 10
401.647539
 20
274.17163
 30
0.0
 11
402.353689
 21
274.360841
 31
0.0
  0
ARC
  5
27E
330
1F
100
AcDbEntity
  8
LC-002-100-D00-0
 62
     7
370
    50
100
AcDbCircle
 10
401.80283
 20
273.592075
 30
0.0
 40
0.600000000000118
100
AcDbArc
 50
105.0
 51
180.0
  0
LINE
  5
27F
330
1F
100
AcDbEntity
  8
LC-002-100-D00-0
 62
     7
370
    50
100
AcDbLine
 10
400.40283
 20
268.360841
 30
0.0
 11
402.353689
 21
268.360842
 31
0.0
  0
LINE
  5
280
330
1F
100
AcDbEntity
  8
LC-002-100-D00-0
 62
     7
370
    50
100
AcDbLine
 10
400.402829
 20
276.360841
 30
0.0
 11
402.353689
 21
276.360841
 31
0.0
  0
LINE
  5
281
330
1F
100
AcDbEntity
  8
LC-002-100-D00-0
 62
     7
370
    50
100
AcDbLine
 10
392.60283
 20
269.360841
 30
0.0
 11
392.76067
 21
269.360841
 31
0.0
  0
LINE
  5
282
330
1F
100
AcDbEntity
  8
LC-002-100-D00-0
 62
     7
370
    50
100
AcDbLine
 10
399.244991
 20
269.360841
 30
0.0
 11
399.40283
 21
269.360841
 31
0.0
  0
LINE
  5
283
330
1F
100
AcDbEntity
  8
LC-002-100-D00-0
 62
     7
370
    50
100
AcDbLine
 10
400.40283
 20
268.360841
 30
0.0
 11
399.867048
 21
268.360841
 31
0.0
  0
LINE
  5
284
330
1F
100
AcDbEntity
  8
LC-002-100-D00-0
 62
     7
370
    50
100
AcDbLine
 10
392.138612
 20
268.360841
 30
0.0
 11
391.60283
 21
268.360841
 31
0.0
  0
LINE
  5
285
330
1F
100
AcDbEntity
  8
LC-002-100-D00-0
 62
     7
370
    50
100
AcDbLine
 10
402.353689
 20
276.360841
 30
0.0
 11
399.902835
 21
276.360841
 31
0.0
  0
LINE
  5
286
330
1F
100
AcDbEntity
  8
LC-002-100-D00-0
 62
     7
370
    50
100
AcDbLine
 10
399.902835
 20
276.360841
 30
0.0
 11
399.90283
 21
287.360841
 31
0.0
  0
LINE
  5
287
330
1F
100
AcDbEntity
  8
LC-002-100-D00-0
 62
     7
370
    50
100
AcDbLine
 10
399.90283
 20
287.360841
 30
0.0
 11
413.25283
 21
287.360841
 31
0.0
  0
ARC
  5
288
330
1F
100
AcDbEntity
  8
LC-002-100-D00-0
 62
     7
370
    50
100
AcDbCircle
 10
413.25283
 20
286.360841
 30
0.0
 40
1.000000000000114
100
AcDbArc
 50
0.0
 51
90.0
  0
LINE
  5
289
330
1F
100
AcDbEntity
  8
LC-002-100-D00-0
 62
     7
370
    50
100
AcDbLine
 10
414.25283
 20
286.360841
 30
0.0
 11
414.252832
 21
280.360841
 31
0.0
  0
LINE
  5
28A
330
1F
100
AcDbEntity
  8
LC-002-100-D00-0
 62
     7
370
    50
100
AcDbLine
 10
411.25283
 20
280.360841
 30
0.0
 11
414.252832
 21
280.360841
 31
0.0
  0
LINE
  5
28B
330
1F
100
AcDbEntity
  8
LC-002-100-D00-0
 62
     7
370
    50
100
AcDbLine
 10
411.25283
 20
280.360841
 30
0.0
 11
411.252826
 21
284.360841
 31
0.0
  0
LINE
  5
28C
330
1F
100
AcDbEntity
  8
LC-002-100-D00-0
 62
     7
370
    50
100
AcDbLine
 10
406.75283
 20
284.360841
 30
0.0
 11
411.252826
 21
284.360841
 31
0.0
  0
ARC
  5
28D
330
1F
100
AcDbEntity
  8
LC-002-100-D00-0
 62
     7
370
    50
100
AcDbCircle
 10
406.75283
 20
283.360841
 30
0.0
 40
1.000000000000227
100
AcDbArc
 50
90.0
 51
180.0
  0
LINE
  5
28E
330
1F
100
AcDbEntity
  8
LC-002-100-D00-0
 62
     7
370
    50
100
AcDbLine
 10
405.75283
 20
269.360841
 30
0.0
 11
405.75283
 21
283.360841
 31
0.0
  0
ARC
  5
28F
330
1F
100
AcDbEntity
  8
LC-002-100-D00-0
 62
     7
370
    50
100
AcDbCircle
 10
404.75283
 20
269.360841
 30
0.0
 40
1.0
100
AcDbArc
 50
270.0
 51
0.0
  0
LINE
  5
290
330
1F
100
AcDbEntity
  8
LC-002-100-D00-0
 62
     7
370
    50
100
AcDbLine
 10
404.75283
 20
268.360841
 30
0.0
 11
402.353689
 21
268.360842
 31
0.0
  0
LINE
  5
291
330
1F
100
AcDbEntity
  8
LC-002-100-D00-0
 62
     7
370
    50
100
AcDbLine
 10
402.353689
 20
270.36084
 30
0.0
 11
402.353689
 21
268.360842
 31
0.0
  0
LINE
  5
292
330
1F
100
AcDbEntity
  8
LC-002-100-D00-0
 62
     7
370
    50
100
AcDbLine
 10
401.70283
 20
270.360841
 30
0.0
 11
402.353689
 21
270.36084
 31
0.0
  0
ARC
  5
293
330
1F
100
AcDbEntity
  8
LC-002-100-D00-0
 62
     7
370
    50
100
AcDbCircle
 10
401.70283
 20
270.860841
 30
0.0
 40
0.5
100
AcDbArc
 50
180.0
 51
270.0
  0
LINE
  5
294
330
1F
100
AcDbEntity
  8
LC-002-100-D00-0
 62
     7
370
    50
100
AcDbLine
 10
401.20283
 20
273.860841
 30
0.0
 11
401.20283
 21
270.860841
 31
0.0
  0
ARC
  5
295
330
1F
100
AcDbEntity
  8
LC-002-100-D00-0
 62
     7
370
    50
100
AcDbCircle
 10
401.70283
 20
273.860841
 30
0.0
 40
0.4999999999997726
100
AcDbArc
 50
90.0
 51
180.0
  0
LINE
  5
296
330
1F
100
AcDbEntity
  8
LC-002-100-D00-0
 62
     7
370
    50
100
AcDbLine
 10
402.353689
 20
274.360841
 30
0.0
 11
401.70283
 21
274.360841
 31
0.0
  0
LINE
  5
297
330
1F
100
AcDbEntity
  8
LC-002-100-D00-0
 62
     7
370
    50
100
AcDbLine
 10
402.353689
 20
276.360841
 30
0.0
 11
402.353689
 21
274.360841
 31
0.0
  0
ARC
  5
298
330
1F
100
AcDbEntity
  8
LC-002-100-D00-0
 62
     7
370
    50
100
AcDbCircle
 10
385.25283
 20
283.360841
 30
0.0
 40
1.000000000000227
100
AcDbArc
 50
0.0
 51
90.0
  0
LINE
  5
299
330
1F
100
AcDbEntity
  8
LC-002-100-D00-0
 62
     7
370
    50
100
AcDbLine
 10
386.25283
 20
283.360841
 30
0.0
 11
386.25283
 21
269.360841
 31
0.0
  0
ARC
  5
29A
330
1F
100
AcDbEntity
  8
LC-002-100-D00-0
 62
     7
370
    50
100
AcDbCircle
 10
387.25283
 20
269.360841
 30
0.0
 40
1.0
100
AcDbArc
 50
180.0
 51
270.0
  0
LINE
  5
29B
330
1F
100
AcDbEntity
  8
LC-002-100-D00-0
 62
     7
370
    50
100
AcDbLine
 10
390.80283
 20
270.860841
 30
0.0
 11
390.80283
 21
273.860841
 31
0.0
  0
LINE
  5
29C
330
1F
100
AcDbEntity
  8
LC-002-100-D00-0
 62
     7
370
    50
100
AcDbLine
 10
392.10283
 20
287.360841
 30
0.0
 11
392.102837
 21
276.360841
 31
0.0
  0
LINE
  5
29D
330
1F
100
AcDbEntity
  8
LC-002-100-D00-0
 62
     7
370
    50
100
AcDbLine
 10
392.10283
 20
287.360841
 30
0.0
 11
399.90283
 21
287.360841
 31
0.0
  0
LINE
  5
29E
330
1F
100
AcDbEntity
  8
LC-002-100-D00-0
 62
     7
370
    50
100
AcDbLine
 10
389.651984
 20
276.360841
 30
0.0
 11
389.651984
 21
274.360841
 31
0.0
  0
ARC
  5
29F
330
1F
100
AcDbEntity
  8
LC-002-100-D00-0
 62
     7
370
    50
100
AcDbCircle
 10
390.30283
 20
270.860841
 30
0.0
 40
0.5000000000002274
100
AcDbArc
 50
270.0
 51
0.0
  0
LINE
  5
2A0
330
1F
100
AcDbEntity
  8
LC-002-100-D00-0
 62
     7
370
    50
100
AcDbLine
 10
389.651984
 20
270.36084
 30
0.0
 11
390.30283
 21
270.360841
 31
0.0
  0
LINE
  5
2A1
330
1F
100
AcDbEntity
  8
LC-002-100-D00-0
 62
     7
370
    50
100
AcDbLine
 10
389.651984
 20
270.36084
 30
0.0
 11
389.651984
 21
268.360842
 31
0.0
  0
LINE
  5
2A2
330
1F
100
AcDbEntity
  8
LC-002-100-D00-0
 62
     7
370
    50
100
AcDbLine
 10
380.752832
 20
284.360841
 30
0.0
 11
380.75283
 21
280.360841
 31
0.0
  0
LINE
  5
2A3
330
1F
100
AcDbEntity
  8
LC-002-100-D00-0
 62
     7
370
    50
100
AcDbLine
 10
377.752825
 20
280.360841
 30
0.0
 11
377.75283
 21
286.360841
 31
0.0
  0
ARC
  5
2A4
330
1F
100
AcDbEntity
  8
LC-002-100-D00-0
 62
     7
370
    50
100
AcDbCircle
 10
378.75283
 20
286.360841
 30
0.0
 40
1.000000000000227
100
AcDbArc
 50
90.0
 51
180.0
  0
LINE
  5
2A5
330
1F
100
AcDbEntity
  8
LC-002-100-D00-0
 62
     7
370
    50
100
AcDbLine
 10
390.30283
 20
274.360841
 30
0.0
 11
389.651984
 21
274.360841
 31
0.0
  0
ARC
  5
2A6
330
1F
100
AcDbEntity
  8
LC-002-100-D00-0
 62
     7
370
    50
100
AcDbCircle
 10
390.30283
 20
273.860841
 30
0.0
 40
0.5
100
AcDbArc
 50
0.0
 51
90.0
  0
LINE
  5
2A7
330
1F
100
AcDbEntity
  8
LC-002-100-D00-0
 62
     7
370
    50
100
AcDbLine
 10
377.752825
 20
280.360841
 30
0.0
 11
380.75283
 21
280.360841
 31
0.0
  0
LINE
  5
2A8
330
1F
100
AcDbEntity
  8
LC-002-100-D00-0
 62
     7
370
    50
100
AcDbLine
 10
392.102837
 20
276.360841
 30
0.0
 11
389.651984
 21
276.360841
 31
0.0
  0
LINE
  5
2A9
330
1F
100
AcDbEntity
  8
LC-002-100-D00-0
 62
     7
370
    50
100
AcDbLine
 10
389.651984
 20
268.360842
 30
0.0
 11
387.25283
 21
268.360841
 31
0.0
  0
LINE
  5
2AA
330
1F
100
AcDbEntity
  8
LC-002-100-D00-0
 62
     7
370
    50
100
AcDbLine
 10
380.752832
 20
284.360841
 30
0.0
 11
385.25283
 21
284.360841
 31
0.0
  0
LINE
  5
2AB
330
1F
100
AcDbEntity
  8
LC-002-100-D00-0
 62
     7
370
    50
100
AcDbLine
 10
378.75283
 20
287.360841
 30
0.0
 11
392.10283
 21
287.360841
 31
0.0
  0
LINE
  5
2AC
330
1F
100
AcDbEntity
  8
LC-002-100-D00-0
 62
     7
370
    50
100
AcDbLine
 10
409.25283
 20
280.360841
 30
0.0
 11
411.25283
 21
280.360841
 31
0.0
  0
LINE
  5
2AD
330
1F
100
AcDbEntity
  8
LC-002-100-D00-0
 62
     7
370
    50
100
AcDbLine
 10
380.75283
 20
280.360841
 30
0.0
 11
382.75283
 21
280.360841
 31
0.0
  0
LINE
  5
2AE
330
1F
100
AcDbEntity
  8
LC-002-100-D00-0
 62
     7
370
    50
100
AcDbLine
 10
382.75283
 20
280.360841
 30
0.0
 11
386.252835
 21
280.360841
 31
0.0
  0
LINE
  5
2AF
330
1F
100
AcDbEntity
  8
LC-002-100-D00-0
 62
     7
370
    50
100
AcDbLine
 10
405.752837
 20
280.360841
 30
0.0
 11
409.25283
 21
280.360841
 31
0.0
  0
LINE
  5
2B0
330
1F
100
AcDbEntity
  8
LC-002-100-D00-0
 62
     7
370
    50
100
AcDbLine
 10
72.602831
 20
275.360841
 30
0.0
 11
71.602829
 21
276.360841
 31
0.0
  0
LINE
  5
2B1
330
1F
100
AcDbEntity
  8
LC-002-100-D00-0
 62
     7
370
    50
100
AcDbLine
 10
72.602831
 20
275.360841
 30
0.0
 11
72.60283
 21
269.360841
 31
0.0
  0
LINE
  5
2B2
330
1F
100
AcDbEntity
  8
LC-002-100-D00-0
 62
     7
370
    50
100
AcDbLine
 10
71.60283
 20
268.360841
 30
0.0
 11
72.60283
 21
269.360841
 31
0.0
  0
LINE
  5
2B3
330
1F
100
AcDbEntity
  8
LC-002-100-D00-0
 62
     7
370
    50
100
AcDbLine
 10
69.651976
 20
270.36084
 30
0.0
 11
69.651976
 21
268.360842
 31
0.0
  0
LINE
  5
2B4
330
1F
100
AcDbEntity
  8
LC-002-100-D00-0
 62
     7
370
    50
100
AcDbLine
 10
70.358122
 20
270.550052
 30
0.0
 11
69.651976
 21
270.36084
 31
0.0
  0
ARC
  5
2B5
330
1F
100
AcDbEntity
  8
LC-002-100-D00-0
 62
     7
370
    50
100
AcDbCircle
 10
70.20283
 20
271.129607
 30
0.0
 40
0.600000000000118
100
AcDbArc
 50
285.0
 51
0.0
  0
LINE
  5
2B6
330
1F
100
AcDbEntity
  8
LC-002-100-D00-0
 62
     7
370
    50
100
AcDbLine
 10
70.80283
 20
273.592075
 30
0.0
 11
70.80283
 21
271.129607
 31
0.0
  0
ARC
  5
2B7
330
1F
100
AcDbEntity
  8
LC-002-100-D00-0
 62
     7
370
    50
100
AcDbCircle
 10
70.20283
 20
273.592075
 30
0.0
 40
0.6000000000000227
100
AcDbArc
 50
0.0
 51
75.0
  0
LINE
  5
2B8
330
1F
100
AcDbEntity
  8
LC-002-100-D00-0
 62
     7
370
    50
100
AcDbLine
 10
69.651976
 20
274.360841
 30
0.0
 11
70.358122
 21
274.17163
 31
0.0
  0
LINE
  5
2B9
330
1F
100
AcDbEntity
  8
LC-002-100-D00-0
 62
     7
370
    50
100
AcDbLine
 10
69.651976
 20
276.360841
 30
0.0
 11
69.651976
 21
274.360841
 31
0.0
  0
LINE
  5
2BA
330
1F
100
AcDbEntity
  8
LC-002-100-D00-0
 62
     7
370
    50
100
AcDbLine
 10
69.651976
 20
268.360842
 30
0.0
 11
71.60283
 21
268.360841
 31
0.0
  0
LINE
  5
2BB
330
1F
100
AcDbEntity
  8
LC-002-100-D00-0
 62
     7
370
    50
100
AcDbLine
 10
69.651976
 20
276.360841
 30
0.0
 11
71.602829
 21
276.360841
 31
0.0
  0
LINE
  5
2BC
330
1F
100
AcDbEntity
  8
LC-002-100-D00-0
 62
     7
370
    50
100
AcDbLine
 10
81.20283
 20
271.129607
 30
0.0
 11
81.20283
 21
273.592075
 31
0.0
  0
ARC
  5
2BD
330
1F
100
AcDbEntity
  8
LC-002-100-D00-0
 62
     7
370
    50
100
AcDbCircle
 10
81.80283
 20
271.129607
 30
0.0
 40
0.6000000000002501
100
AcDbArc
 50
180.0
 51
255.0
  0
LINE
  5
2BE
330
1F
100
AcDbEntity
  8
LC-002-100-D00-0
 62
     7
370
    50
100
AcDbLine
 10
82.353681
 20
270.36084
 30
0.0
 11
81.647539
 21
270.550052
 31
0.0
  0
LINE
  5
2BF
330
1F
100
AcDbEntity
  8
LC-002-100-D00-0
 62
     7
370
    50
100
AcDbLine
 10
82.353681
 20
270.36084
 30
0.0
 11
82.353681
 21
268.360842
 31
0.0
  0
LINE
  5
2C0
330
1F
100
AcDbEntity
  8
LC-002-100-D00-0
 62
     7
370
    50
100
AcDbLine
 10
79.40283
 20
269.360841
 30
0.0
 11
80.40283
 21
268.360841
 31
0.0
  0
LINE
  5
2C1
330
1F
100
AcDbEntity
  8
LC-002-100-D00-0
 62
     7
370
    50
100
AcDbLine
 10
79.40283
 20
269.360841
 30
0.0
 11
79.402827
 21
275.360841
 31
0.0
  0
LINE
  5
2C2
330
1F
100
AcDbEntity
  8
LC-002-100-D00-0
 62
     7
370
    50
100
AcDbLine
 10
80.402829
 20
276.360841
 30
0.0
 11
79.402827
 21
275.360841
 31
0.0
  0
LINE
  5
2C3
330
1F
100
AcDbEntity
  8
LC-002-100-D00-0
 62
     7
370
    50
100
AcDbLine
 10
82.353681
 20
276.360841
 30
0.0
 11
82.353681
 21
274.360841
 31
0.0
  0
LINE
  5
2C4
330
1F
100
AcDbEntity
  8
LC-002-100-D00-0
 62
     7
370
    50
100
AcDbLine
 10
81.647539
 20
274.17163
 30
0.0
 11
82.353681
 21
274.360841
 31
0.0
  0
ARC
  5
2C5
330
1F
100
AcDbEntity
  8
LC-002-100-D00-0
 62
     7
370
    50
100
AcDbCircle
 10
81.80283
 20
273.592075
 30
0.0
 40
0.6000000000003376
100
AcDbArc
 50
105.0
 51
180.0
  0
LINE
  5
2C6
330
1F
100
AcDbEntity
  8
LC-002-100-D00-0
 62
     7
370
    50
100
AcDbLine
 10
80.40283
 20
268.360841
 30
0.0
 11
82.353681
 21
268.360842
 31
0.0
  0
LINE
  5
2C7
330
1F
100
AcDbEntity
  8
LC-002-100-D00-0
 62
     7
370
    50
100
AcDbLine
 10
80.402829
 20
276.360841
 30
0.0
 11
82.353681
 21
276.360841
 31
0.0
  0
LINE
  5
2C8
330
1F
100
AcDbEntity
  8
LC-002-100-D00-0
 62
     7
370
    50
100
AcDbLine
 10
72.60283
 20
269.360841
 30
0.0
 11
72.76067
 21
269.360841
 31
0.0
  0
LINE
  5
2C9
330
1F
100
AcDbEntity
  8
LC-002-100-D00-0
 62
     7
370
    50
100
AcDbLine
 10
79.244991
 20
269.360841
 30
0.0
 11
79.40283
 21
269.360841
 31
0.0
  0
LINE
  5
2CA
330
1F
100
AcDbEntity
  8
LC-002-100-D00-0
 62
     7
370
    50
100
AcDbLine
 10
80.40283
 20
268.360841
 30
0.0
 11
79.867048
 21
268.360841
 31
0.0
  0
LINE
  5
2CB
330
1F
100
AcDbEntity
  8
LC-002-100-D00-0
 62
     7
370
    50
100
AcDbLine
 10
72.138612
 20
268.360841
 30
0.0
 11
71.60283
 21
268.360841
 31
0.0
  0
LINE
  5
2CC
330
1F
100
AcDbEntity
  8
LC-002-100-D00-0
 62
     7
370
    50
100
AcDbLine
 10
82.353681
 20
276.360841
 30
0.0
 11
79.902828
 21
276.360841
 31
0.0
  0
LINE
  5
2CD
330
1F
100
AcDbEntity
  8
LC-002-100-D00-0
 62
     7
370
    50
100
AcDbLine
 10
79.902828
 20
276.360841
 30
0.0
 11
79.90283
 21
287.360841
 31
0.0
  0
LINE
  5
2CE
330
1F
100
AcDbEntity
  8
LC-002-100-D00-0
 62
     7
370
    50
100
AcDbLine
 10
79.90283
 20
287.360841
 30
0.0
 11
93.25283
 21
287.360841
 31
0.0
  0
ARC
  5
2CF
330
1F
100
AcDbEntity
  8
LC-002-100-D00-0
 62
     7
370
    50
100
AcDbCircle
 10
93.25283
 20
286.360841
 30
0.0
 40
1.000000000000227
100
AcDbArc
 50
0.0
 51
90.0
  0
LINE
  5
2D0
330
1F
100
AcDbEntity
  8
LC-002-100-D00-0
 62
     7
370
    50
100
AcDbLine
 10
94.25283
 20
286.360841
 30
0.0
 11
94.252832
 21
280.360841
 31
0.0
  0
LINE
  5
2D1
330
1F
100
AcDbEntity
  8
LC-002-100-D00-0
 62
     7
370
    50
100
AcDbLine
 10
91.25283
 20
280.360841
 30
0.0
 11
94.252832
 21
280.360841
 31
0.0
  0
LINE
  5
2D2
330
1F
100
AcDbEntity
  8
LC-002-100-D00-0
 62
     7
370
    50
100
AcDbLine
 10
91.25283
 20
280.360841
 30
0.0
 11
91.252833
 21
284.360841
 31
0.0
  0
LINE
  5
2D3
330
1F
100
AcDbEntity
  8
LC-002-100-D00-0
 62
     7
370
    50
100
AcDbLine
 10
86.75283
 20
284.360841
 30
0.0
 11
91.252833
 21
284.360841
 31
0.0
  0
ARC
  5
2D4
330
1F
100
AcDbEntity
  8
LC-002-100-D00-0
 62
     7
370
    50
100
AcDbCircle
 10
86.75283
 20
283.360841
 30
0.0
 40
1.000000000000227
100
AcDbArc
 50
90.0
 51
180.0
  0
LINE
  5
2D5
330
1F
100
AcDbEntity
  8
LC-002-100-D00-0
 62
     7
370
    50
100
AcDbLine
 10
85.75283
 20
269.360841
 30
0.0
 11
85.75283
 21
283.360841
 31
0.0
  0
ARC
  5
2D6
330
1F
100
AcDbEntity
  8
LC-002-100-D00-0
 62
     7
370
    50
100
AcDbCircle
 10
84.75283
 20
269.360841
 30
0.0
 40
1.0
100
AcDbArc
 50
270.0
 51
0.0
  0
LINE
  5
2D7
330
1F
100
AcDbEntity
  8
LC-002-100-D00-0
 62
     7
370
    50
100
AcDbLine
 10
84.75283
 20
268.360841
 30
0.0
 11
82.353681
 21
268.360842
 31
0.0
  0
LINE
  5
2D8
330
1F
100
AcDbEntity
  8
LC-002-100-D00-0
 62
     7
370
    50
100
AcDbLine
 10
82.353681
 20
270.36084
 30
0.0
 11
82.353681
 21
268.360842
 31
0.0
  0
LINE
  5
2D9
330
1F
100
AcDbEntity
  8
LC-002-100-D00-0
 62
     7
370
    50
100
AcDbLine
 10
81.70283
 20
270.360841
 30
0.0
 11
82.353681
 21
270.36084
 31
0.0
  0
ARC
  5
2DA
330
1F
100
AcDbEntity
  8
LC-002-100-D00-0
 62
     7
370
    50
100
AcDbCircle
 10
81.70283
 20
270.860841
 30
0.0
 40
0.5000000000002274
100
AcDbArc
 50
180.0
 51
270.0
  0
LINE
  5
2DB
330
1F
100
AcDbEntity
  8
LC-002-100-D00-0
 62
     7
370
    50
100
AcDbLine
 10
81.20283
 20
273.860841
 30
0.0
 11
81.20283
 21
270.860841
 31
0.0
  0
ARC
  5
2DC
330
1F
100
AcDbEntity
  8
LC-002-100-D00-0
 62
     7
370
    50
100
AcDbCircle
 10
81.70283
 20
273.860841
 30
0.0
 40
0.5000000000002274
100
AcDbArc
 50
90.0
 51
180.0
  0
LINE
  5
2DD
330
1F
100
AcDbEntity
  8
LC-002-100-D00-0
 62
     7
370
    50
100
AcDbLine
 10
82.353681
 20
274.360841
 30
0.0
 11
81.70283
 21
274.360841
 31
0.0
  0
LINE
  5
2DE
330
1F
100
AcDbEntity
  8
LC-002-100-D00-0
 62
     7
370
    50
100
AcDbLine
 10
82.353681
 20
276.360841
 30
0.0
 11
82.353681
 21
274.360841
 31
0.0
  0
ARC
  5
2DF
330
1F
100
AcDbEntity
  8
LC-002-100-D00-0
 62
     7
370
    50
100
AcDbCircle
 10
65.25283
 20
283.360841
 30
0.0
 40
1.000000000000227
100
AcDbArc
 50
0.0
 51
90.0
  0
LINE
  5
2E0
330
1F
100
AcDbEntity
  8
LC-002-100-D00-0
 62
     7
370
    50
100
AcDbLine
 10
66.25283
 20
283.360841
 30
0.0
 11
66.25283
 21
269.360841
 31
0.0
  0
ARC
  5
2E1
330
1F
100
AcDbEntity
  8
LC-002-100-D00-0
 62
     7
370
    50
100
AcDbCircle
 10
67.25283
 20
269.360841
 30
0.0
 40
1.0
100
AcDbArc
 50
180.0
 51
270.0
  0
LINE
  5
2E2
330
1F
100
AcDbEntity
  8
LC-002-100-D00-0
 62
     7
370
    50
100
AcDbLine
 10
70.80283
 20
270.860841
 30
0.0
 11
70.80283
 21
273.860841
 31
0.0
  0
LINE
  5
2E3
330
1F
100
AcDbEntity
  8
LC-002-100-D00-0
 62
     7
370
    50
100
AcDbLine
 10
72.10283
 20
287.360841
 30
0.0
 11
72.10283
 21
276.360841
 31
0.0
  0
LINE
  5
2E4
330
1F
100
AcDbEntity
  8
LC-002-100-D00-0
 62
     7
370
    50
100
AcDbLine
 10
72.10283
 20
287.360841
 30
0.0
 11
79.90283
 21
287.360841
 31
0.0
  0
LINE
  5
2E5
330
1F
100
AcDbEntity
  8
LC-002-100-D00-0
 62
     7
370
    50
100
AcDbLine
 10
69.651976
 20
276.360841
 30
0.0
 11
69.651976
 21
274.360841
 31
0.0
  0
ARC
  5
2E6
330
1F
100
AcDbEntity
  8
LC-002-100-D00-0
 62
     7
370
    50
100
AcDbCircle
 10
70.30283
 20
270.860841
 30
0.0
 40
0.5000000000002274
100
AcDbArc
 50
270.0
 51
0.0
  0
LINE
  5
2E7
330
1F
100
AcDbEntity
  8
LC-002-100-D00-0
 62
     7
370
    50
100
AcDbLine
 10
69.651976
 20
270.36084
 30
0.0
 11
70.30283
 21
270.360841
 31
0.0
  0
LINE
  5
2E8
330
1F
100
AcDbEntity
  8
LC-002-100-D00-0
 62
     7
370
    50
100
AcDbLine
 10
69.651976
 20
270.36084
 30
0.0
 11
69.651976
 21
268.360842
 31
0.0
  0
LINE
  5
2E9
330
1F
100
AcDbEntity
  8
LC-002-100-D00-0
 62
     7
370
    50
100
AcDbLine
 10
60.752831
 20
284.360841
 30
0.0
 11
60.75283
 21
280.360841
 31
0.0
  0
LINE
  5
2EA
330
1F
100
AcDbEntity
  8
LC-002-100-D00-0
 62
     7
370
    50
100
AcDbLine
 10
57.752833
 20
280.360841
 30
0.0
 11
57.75283
 21
286.360841
 31
0.0
  0
ARC
  5
2EB
330
1F
100
AcDbEntity
  8
LC-002-100-D00-0
 62
     7
370
    50
100
AcDbCircle
 10
58.75283
 20
286.360841
 30
0.0
 40
1.000000000000227
100
AcDbArc
 50
90.0
 51
180.0
  0
LINE
  5
2EC
330
1F
100
AcDbEntity
  8
LC-002-100-D00-0
 62
     7
370
    50
100
AcDbLine
 10
70.30283
 20
274.360841
 30
0.0
 11
69.651976
 21
274.360841
 31
0.0
  0
ARC
  5
2ED
330
1F
100
AcDbEntity
  8
LC-002-100-D00-0
 62
     7
370
    50
100
AcDbCircle
 10
70.30283
 20
273.860841
 30
0.0
 40
0.5
100
AcDbArc
 50
0.0
 51
90.0
  0
LINE
  5
2EE
330
1F
100
AcDbEntity
  8
LC-002-100-D00-0
 62
     7
370
    50
100
AcDbLine
 10
72.10283
 20
276.360841
 30
0.0
 11
69.651976
 21
276.360841
 31
0.0
  0
LINE
  5
2EF
330
1F
100
AcDbEntity
  8
LC-002-100-D00-0
 62
     7
370
    50
100
AcDbLine
 10
69.651976
 20
268.360842
 30
0.0
 11
67.25283
 21
268.360841
 31
0.0
  0
LINE
  5
2F0
330
1F
100
AcDbEntity
  8
LC-002-100-D00-0
 62
     7
370
    50
100
AcDbLine
 10
57.752833
 20
280.360841
 30
0.0
 11
60.75283
 21
280.360841
 31
0.0
  0
LINE
  5
2F1
330
1F
100
AcDbEntity
  8
LC-002-100-D00-0
 62
     7
370
    50
100
AcDbLine
 10
60.752831
 20
284.360841
 30
0.0
 11
65.25283
 21
284.360841
 31
0.0
  0
LINE
  5
2F2
330
1F
100
AcDbEntity
  8
LC-002-100-D00-0
 62
     7
370
    50
100
AcDbLine
 10
58.75283
 20
287.360841
 30
0.0
 11
72.10283
 21
287.360841
 31
0.0
  0
LINE
  5
2F3
330
1F
100
AcDbEntity
  8
LC-002-100-D00-0
 62
     7
370
    50
100
AcDbLine
 10
89.25283
 20
280.360841
 30
0.0
 11
91.25283
 21
280.360841
 31
0.0
  0
LINE
  5
2F4
330
1F
100
AcDbEntity
  8
LC-002-100-D00-0
 62
     7
370
    50
100
AcDbLine
 10
60.75283
 20
280.360841
 30
0.0
 11
62.75283
 21
280.360841
 31
0.0
  0
LINE
  5
2F5
330
1F
100
AcDbEntity
  8
LC-002-100-D00-0
 62
     7
370
    50
100
AcDbLine
 10
62.75283
 20
280.360841
 30
0.0
 11
66.252827
 21
280.360841
 31
0.0
  0
LINE
  5
2F6
330
1F
100
AcDbEntity
  8
LC-002-100-D00-0
 62
     7
370
    50
100
AcDbLine
 10
85.75283
 20
280.360841
 30
0.0
 11
89.25283
 21
280.360841
 31
0.0
  0
LINE
  5
2F7
330
1F
100
AcDbEntity
  8
LC-002-100-D00-0
 62
     7
370
    50
100
AcDbLine
 10
272.602834
 20
275.360841
 30
0.0
 11
271.602832
 21
276.360841
 31
0.0
  0
LINE
  5
2F8
330
1F
100
AcDbEntity
  8
LC-002-100-D00-0
 62
     7
370
    50
100
AcDbLine
 10
272.602834
 20
275.360841
 30
0.0
 11
272.60283
 21
269.360841
 31
0.0
  0
LINE
  5
2F9
330
1F
100
AcDbEntity
  8
LC-002-100-D00-0
 62
     7
370
    50
100
AcDbLine
 10
271.60283
 20
268.360841
 30
0.0
 11
272.60283
 21
269.360841
 31
0.0
  0
LINE
  5
2FA
330
1F
100
AcDbEntity
  8
LC-002-100-D00-0
 62
     7
370
    50
100
AcDbLine
 10
269.651979
 20
270.36084
 30
0.0
 11
269.651979
 21
268.360842
 31
0.0
  0
LINE
  5
2FB
330
1F
100
AcDbEntity
  8
LC-002-100-D00-0
 62
     7
370
    50
100
AcDbLine
 10
270.358122
 20
270.550052
 30
0.0
 11
269.651979
 21
270.36084
 31
0.0
  0
ARC
  5
2FC
330
1F
100
AcDbEntity
  8
LC-002-100-D00-0
 62
     7
370
    50
100
AcDbCircle
 10
270.20283
 20
271.129607
 30
0.0
 40
0.600000000000118
100
AcDbArc
 50
285.0
 51
0.0
  0
LINE
  5
2FD
330
1F
100
AcDbEntity
  8
LC-002-100-D00-0
 62
     7
370
    50
100
AcDbLine
 10
270.80283
 20
273.592075
 30
0.0
 11
270.80283
 21
271.129607
 31
0.0
  0
ARC
  5
2FE
330
1F
100
AcDbEntity
  8
LC-002-100-D00-0
 62
     7
370
    50
100
AcDbCircle
 10
270.20283
 20
273.592075
 30
0.0
 40
0.6000000000000227
100
AcDbArc
 50
0.0
 51
75.0
  0
LINE
  5
2FF
330
1F
100
AcDbEntity
  8
LC-002-100-D00-0
 62
     7
370
    50
100
AcDbLine
 10
269.651979
 20
274.360841
 30
0.0
 11
270.358122
 21
274.17163
 31
0.0
  0
LINE
  5
300
330
1F
100
AcDbEntity
  8
LC-002-100-D00-0
 62
     7
370
    50
100
AcDbLine
 10
269.651979
 20
276.360841
 30
0.0
 11
269.651979
 21
274.360841
 31
0.0
  0
LINE
  5
301
330
1F
100
AcDbEntity
  8
LC-002-100-D00-0
 62
     7
370
    50
100
AcDbLine
 10
269.651979
 20
268.360842
 30
0.0
 11
271.60283
 21
268.360841
 31
0.0
  0
LINE
  5
302
330
1F
100
AcDbEntity
  8
LC-002-100-D00-0
 62
     7
370
    50
100
AcDbLine
 10
269.651979
 20
276.360841
 30
0.0
 11
271.602832
 21
276.360841
 31
0.0
  0
LINE
  5
303
330
1F
100
AcDbEntity
  8
LC-002-100-D00-0
 62
     7
370
    50
100
AcDbLine
 10
281.20283
 20
271.129607
 30
0.0
 11
281.20283
 21
273.592075
 31
0.0
  0
ARC
  5
304
330
1F
100
AcDbEntity
  8
LC-002-100-D00-0
 62
     7
370
    50
100
AcDbCircle
 10
281.80283
 20
271.129607
 30
0.0
 40
0.6000000000000227
100
AcDbArc
 50
180.0
 51
255.0
  0
LINE
  5
305
330
1F
100
AcDbEntity
  8
LC-002-100-D00-0
 62
     7
370
    50
100
AcDbLine
 10
282.353684
 20
270.36084
 30
0.0
 11
281.647539
 21
270.550052
 31
0.0
  0
LINE
  5
306
330
1F
100
AcDbEntity
  8
LC-002-100-D00-0
 62
     7
370
    50
100
AcDbLine
 10
282.353684
 20
270.36084
 30
0.0
 11
282.353684
 21
268.360842
 31
0.0
  0
LINE
  5
307
330
1F
100
AcDbEntity
  8
LC-002-100-D00-0
 62
     7
370
    50
100
AcDbLine
 10
279.40283
 20
269.360841
 30
0.0
 11
280.40283
 21
268.360841
 31
0.0
  0
LINE
  5
308
330
1F
100
AcDbEntity
  8
LC-002-100-D00-0
 62
     7
370
    50
100
AcDbLine
 10
279.40283
 20
269.360841
 30
0.0
 11
279.40283
 21
275.360841
 31
0.0
  0
LINE
  5
309
330
1F
100
AcDbEntity
  8
LC-002-100-D00-0
 62
     7
370
    50
100
AcDbLine
 10
280.402832
 20
276.360841
 30
0.0
 11
279.40283
 21
275.360841
 31
0.0
  0
LINE
  5
30A
330
1F
100
AcDbEntity
  8
LC-002-100-D00-0
 62
     7
370
    50
100
AcDbLine
 10
282.353684
 20
276.360841
 30
0.0
 11
282.353684
 21
274.360841
 31
0.0
  0
LINE
  5
30B
330
1F
100
AcDbEntity
  8
LC-002-100-D00-0
 62
     7
370
    50
100
AcDbLine
 10
281.647539
 20
274.17163
 30
0.0
 11
282.353684
 21
274.360841
 31
0.0
  0
ARC
  5
30C
330
1F
100
AcDbEntity
  8
LC-002-100-D00-0
 62
     7
370
    50
100
AcDbCircle
 10
281.80283
 20
273.592075
 30
0.0
 40
0.600000000000118
100
AcDbArc
 50
105.0
 51
180.0
  0
LINE
  5
30D
330
1F
100
AcDbEntity
  8
LC-002-100-D00-0
 62
     7
370
    50
100
AcDbLine
 10
280.40283
 20
268.360841
 30
0.0
 11
282.353684
 21
268.360842
 31
0.0
  0
LINE
  5
30E
330
1F
100
AcDbEntity
  8
LC-002-100-D00-0
 62
     7
370
    50
100
AcDbLine
 10
280.402832
 20
276.360841
 30
0.0
 11
282.353684
 21
276.360841
 31
0.0
  0
LINE
  5
30F
330
1F
100
AcDbEntity
  8
LC-002-100-D00-0
 62
     7
370
    50
100
AcDbLine
 10
272.60283
 20
269.360841
 30
0.0
 11
272.76067
 21
269.360841
 31
0.0
  0
LINE
  5
310
330
1F
100
AcDbEntity
  8
LC-002-100-D00-0
 62
     7
370
    50
100
AcDbLine
 10
279.244991
 20
269.360841
 30
0.0
 11
279.40283
 21
269.360841
 31
0.0
  0
LINE
  5
311
330
1F
100
AcDbEntity
  8
LC-002-100-D00-0
 62
     7
370
    50
100
AcDbLine
 10
280.40283
 20
268.360841
 30
0.0
 11
279.867048
 21
268.360841
 31
0.0
  0
LINE
  5
312
330
1F
100
AcDbEntity
  8
LC-002-100-D00-0
 62
     7
370
    50
100
AcDbLine
 10
272.138612
 20
268.360841
 30
0.0
 11
271.60283
 21
268.360841
 31
0.0
  0
LINE
  5
313
330
1F
100
AcDbEntity
  8
LC-002-100-D00-0
 62
     7
370
    50
100
AcDbLine
 10
282.353684
 20
276.360841
 30
0.0
 11
279.902831
 21
276.360841
 31
0.0
  0
LINE
  5
314
330
1F
100
AcDbEntity
  8
LC-002-100-D00-0
 62
     7
370
    50
100
AcDbLine
 10
279.902831
 20
276.360841
 30
0.0
 11
279.90283
 21
287.360841
 31
0.0
  0
LINE
  5
315
330
1F
100
AcDbEntity
  8
LC-002-100-D00-0
 62
     7
370
    50
100
AcDbLine
 10
279.90283
 20
287.360841
 30
0.0
 11
293.25283
 21
287.360841
 31
0.0
  0
ARC
  5
316
330
1F
100
AcDbEntity
  8
LC-002-100-D00-0
 62
     7
370
    50
100
AcDbCircle
 10
293.25283
 20
286.360841
 30
0.0
 40
1.000000000000227
100
AcDbArc
 50
0.0
 51
90.0
  0
LINE
  5
317
330
1F
100
AcDbEntity
  8
LC-002-100-D00-0
 62
     7
370
    50
100
AcDbLine
 10
294.25283
 20
286.360841
 30
0.0
 11
294.252828
 21
280.360841
 31
0.0
  0
LINE
  5
318
330
1F
100
AcDbEntity
  8
LC-002-100-D00-0
 62
     7
370
    50
100
AcDbLine
 10
291.25283
 20
280.360841
 30
0.0
 11
294.252828
 21
280.360841
 31
0.0
  0
LINE
  5
319
330
1F
100
AcDbEntity
  8
LC-002-100-D00-0
 62
     7
370
    50
100
AcDbLine
 10
291.25283
 20
280.360841
 30
0.0
 11
291.252829
 21
284.360841
 31
0.0
  0
LINE
  5
31A
330
1F
100
AcDbEntity
  8
LC-002-100-D00-0
 62
     7
370
    50
100
AcDbLine
 10
286.75283
 20
284.360841
 30
0.0
 11
291.252829
 21
284.360841
 31
0.0
  0
ARC
  5
31B
330
1F
100
AcDbEntity
  8
LC-002-100-D00-0
 62
     7
370
    50
100
AcDbCircle
 10
286.75283
 20
283.360841
 30
0.0
 40
1.000000000000227
100
AcDbArc
 50
90.0
 51
180.0
  0
LINE
  5
31C
330
1F
100
AcDbEntity
  8
LC-002-100-D00-0
 62
     7
370
    50
100
AcDbLine
 10
285.75283
 20
269.360841
 30
0.0
 11
285.75283
 21
283.360841
 31
0.0
  0
ARC
  5
31D
330
1F
100
AcDbEntity
  8
LC-002-100-D00-0
 62
     7
370
    50
100
AcDbCircle
 10
284.75283
 20
269.360841
 30
0.0
 40
1.0
100
AcDbArc
 50
270.0
 51
0.0
  0
LINE
  5
31E
330
1F
100
AcDbEntity
  8
LC-002-100-D00-0
 62
     7
370
    50
100
AcDbLine
 10
284.75283
 20
268.360841
 30
0.0
 11
282.353684
 21
268.360842
 31
0.0
  0
LINE
  5
31F
330
1F
100
AcDbEntity
  8
LC-002-100-D00-0
 62
     7
370
    50
100
AcDbLine
 10
282.353684
 20
270.36084
 30
0.0
 11
282.353684
 21
268.360842
 31
0.0
  0
LINE
  5
320
330
1F
100
AcDbEntity
  8
LC-002-100-D00-0
 62
     7
370
    50
100
AcDbLine
 10
281.70283
 20
270.360841
 30
0.0
 11
282.353684
 21
270.36084
 31
0.0
  0
ARC
  5
321
330
1F
100
AcDbEntity
  8
LC-002-100-D00-0
 62
     7
370
    50
100
AcDbCircle
 10
281.70283
 20
270.860841
 30
0.0
 40
0.5
100
AcDbArc
 50
180.0
 51
270.0
  0
LINE
  5
322
330
1F
100
AcDbEntity
  8
LC-002-100-D00-0
 62
     7
370
    50
100
AcDbLine
 10
281.20283
 20
273.860841
 30
0.0
 11
281.20283
 21
270.860841
 31
0.0
  0
ARC
  5
323
330
1F
100
AcDbEntity
  8
LC-002-100-D00-0
 62
     7
370
    50
100
AcDbCircle
 10
281.70283
 20
273.860841
 30
0.0
 40
0.4999999999997726
100
AcDbArc
 50
90.0
 51
180.0
  0
LINE
  5
324
330
1F
100
AcDbEntity
  8
LC-002-100-D00-0
 62
     7
370
    50
100
AcDbLine
 10
282.353684
 20
274.360841
 30
0.0
 11
281.70283
 21
274.360841
 31
0.0
  0
LINE
  5
325
330
1F
100
AcDbEntity
  8
LC-002-100-D00-0
 62
     7
370
    50
100
AcDbLine
 10
282.353684
 20
276.360841
 30
0.0
 11
282.353684
 21
274.360841
 31
0.0
  0
ARC
  5
326
330
1F
100
AcDbEntity
  8
LC-002-100-D00-0
 62
     7
370
    50
100
AcDbCircle
 10
265.25283
 20
283.360841
 30
0.0
 40
1.000000000000227
100
AcDbArc
 50
0.0
 51
90.0
  0
LINE
  5
327
330
1F
100
AcDbEntity
  8
LC-002-100-D00-0
 62
     7
370
    50
100
AcDbLine
 10
266.25283
 20
283.360841
 30
0.0
 11
266.25283
 21
269.360841
 31
0.0
  0
ARC
  5
328
330
1F
100
AcDbEntity
  8
LC-002-100-D00-0
 62
     7
370
    50
100
AcDbCircle
 10
267.25283
 20
269.360841
 30
0.0
 40
1.0
100
AcDbArc
 50
180.0
 51
270.0
  0
LINE
  5
329
330
1F
100
AcDbEntity
  8
LC-002-100-D00-0
 62
     7
370
    50
100
AcDbLine
 10
270.80283
 20
270.860841
 30
0.0
 11
270.80283
 21
273.860841
 31
0.0
  0
LINE
  5
32A
330
1F
100
AcDbEntity
  8
LC-002-100-D00-0
 62
     7
370
    50
100
AcDbLine
 10
272.10283
 20
287.360841
 30
0.0
 11
272.102833
 21
276.360841
 31
0.0
  0
LINE
  5
32B
330
1F
100
AcDbEntity
  8
LC-002-100-D00-0
 62
     7
370
    50
100
AcDbLine
 10
272.10283
 20
287.360841
 30
0.0
 11
279.90283
 21
287.360841
 31
0.0
  0
LINE
  5
32C
330
1F
100
AcDbEntity
  8
LC-002-100-D00-0
 62
     7
370
    50
100
AcDbLine
 10
269.651979
 20
276.360841
 30
0.0
 11
269.651979
 21
274.360841
 31
0.0
  0
ARC
  5
32D
330
1F
100
AcDbEntity
  8
LC-002-100-D00-0
 62
     7
370
    50
100
AcDbCircle
 10
270.30283
 20
270.860841
 30
0.0
 40
0.4999999999997726
100
AcDbArc
 50
270.0
 51
0.0
  0
LINE
  5
32E
330
1F
100
AcDbEntity
  8
LC-002-100-D00-0
 62
     7
370
    50
100
AcDbLine
 10
269.651979
 20
270.36084
 30
0.0
 11
270.30283
 21
270.360841
 31
0.0
  0
LINE
  5
32F
330
1F
100
AcDbEntity
  8
LC-002-100-D00-0
 62
     7
370
    50
100
AcDbLine
 10
269.651979
 20
270.36084
 30
0.0
 11
269.651979
 21
268.360842
 31
0.0
  0
LINE
  5
330
330
1F
100
AcDbEntity
  8
LC-002-100-D00-0
 62
     7
370
    50
100
AcDbLine
 10
260.752827
 20
284.360841
 30
0.0
 11
260.75283
 21
280.360841
 31
0.0
  0
LINE
  5
331
330
1F
100
AcDbEntity
  8
LC-002-100-D00-0
 62
     7
370
    50
100
AcDbLine
 10
257.752828
 20
280.360841
 30
0.0
 11
257.75283
 21
286.360841
 31
0.0
  0
ARC
  5
332
330
1F
100
AcDbEntity
  8
LC-002-100-D00-0
 62
     7
370
    50
100
AcDbCircle
 10
258.75283
 20
286.360841
 30
0.0
 40
1.000000000000227
100
AcDbArc
 50
90.0
 51
180.0
  0
LINE
  5
333
330
1F
100
AcDbEntity
  8
LC-002-100-D00-0
 62
     7
370
    50
100
AcDbLine
 10
270.30283
 20
274.360841
 30
0.0
 11
269.651979
 21
274.360841
 31
0.0
  0
ARC
  5
334
330
1F
100
AcDbEntity
  8
LC-002-100-D00-0
 62
     7
370
    50
100
AcDbCircle
 10
270.30283
 20
273.860841
 30
0.0
 40
0.4999999999998863
100
AcDbArc
 50
0.0
 51
90.0
  0
LINE
  5
335
330
1F
100
AcDbEntity
  8
LC-002-100-D00-0
 62
     7
370
    50
100
AcDbLine
 10
272.102833
 20
276.360841
 30
0.0
 11
269.651979
 21
276.360841
 31
0.0
  0
LINE
  5
336
330
1F
100
AcDbEntity
  8
LC-002-100-D00-0
 62
     7
370
    50
100
AcDbLine
 10
269.651979
 20
268.360842
 30
0.0
 11
267.25283
 21
268.360841
 31
0.0
  0
LINE
  5
337
330
1F
100
AcDbEntity
  8
LC-002-100-D00-0
 62
     7
370
    50
100
AcDbLine
 10
257.752828
 20
280.360841
 30
0.0
 11
260.75283
 21
280.360841
 31
0.0
  0
LINE
  5
338
330
1F
100
AcDbEntity
  8
LC-002-100-D00-0
 62
     7
370
    50
100
AcDbLine
 10
260.752827
 20
284.360841
 30
0.0
 11
265.25283
 21
284.360841
 31
0.0
  0
LINE
  5
339
330
1F
100
AcDbEntity
  8
LC-002-100-D00-0
 62
     7
370
    50
100
AcDbLine
 10
258.75283
 20
287.360841
 30
0.0
 11
272.10283
 21
287.360841
 31
0.0
  0
LINE
  5
33A
330
1F
100
AcDbEntity
  8
LC-002-100-D00-0
 62
     7
370
    50
100
AcDbLine
 10
289.25283
 20
280.360841
 30
0.0
 11
291.25283
 21
280.360841
 31
0.0
  0
LINE
  5
33B
330
1F
100
AcDbEntity
  8
LC-002-100-D00-0
 62
     7
370
    50
100
AcDbLine
 10
260.75283
 20
280.360841
 30
0.0
 11
262.75283
 21
280.360841
 31
0.0
  0
LINE
  5
33C
330
1F
100
AcDbEntity
  8
LC-002-100-D00-0
 62
     7
370
    50
100
AcDbLine
 10
262.75283
 20
280.360841
 30
0.0
 11
266.25283
 21
280.360841
 31
0.0
  0
LINE
  5
33D
330
1F
100
AcDbEntity
  8
LC-002-100-D00-0
 62
     7
370
    50
100
AcDbLine
 10
285.752833
 20
280.360841
 30
0.0
 11
289.25283
 21
280.360841
 31
0.0
  0
LINE
  5
33E
330
1F
100
AcDbEntity
  8
LC-002-100-D00-0
 62
     7
370
    50
100
AcDbLine
 10
234.502829
 20
257.517924
 30
0.0
 11
234.792747
 21
257.426842
 31
0.0
  0
LINE
  5
33F
330
1F
100
AcDbEntity
  8
LC-002-100-D00-0
 62
     7
370
    50
100
AcDbLine
 10
233.315216
 20
255.375412
 30
0.0
 11
234.502829
 21
257.517924
 31
0.0
  0
ARC
  5
340
330
1F
100
AcDbEntity
  8
LC-002-100-D00-0
 62
     7
370
    50
100
AcDbCircle
 10
233.05283
 20
255.520855
 30
0.0
 40
0.3000000000000682
100
AcDbArc
 50
180.0
 51
331.0
  0
LINE
  5
341
330
1F
100
AcDbEntity
  8
LC-002-100-D00-0
 62
     7
370
    50
100
AcDbLine
 10
232.75283
 20
258.061095
 30
0.0
 11
232.75283
 21
255.520855
 31
0.0
  0
ARC
  5
342
330
1F
100
AcDbEntity
  8
LC-002-100-D00-0
 62
     7
370
    50
100
AcDbCircle
 10
234.75283
 20
258.061095
 30
0.0
 40
2.000000000000126
100
AcDbArc
 50
113.962489
 51
180.0
  0
LINE
  5
343
330
1F
100
AcDbEntity
  8
LC-002-100-D00-0
 62
     7
370
    50
100
AcDbLine
 10
234.808906
 20
260.274653
 30
0.0
 11
233.940553
 21
259.888718
 31
0.0
  0
ARC
  5
344
330
1F
100
AcDbEntity
  8
LC-002-100-D00-0
 62
     7
370
    50
100
AcDbCircle
 10
235.215045
 20
259.360841
 30
0.0
 40
1.0
100
AcDbArc
 50
90.0
 51
113.962489
  0
LINE
  5
345
330
1F
100
AcDbEntity
  8
LC-002-100-D00-0
 62
     7
370
    50
100
AcDbLine
 10
241.002828
 20
260.36084
 30
0.0
 11
241.002828
 21
256.360841
 31
0.0
  0
LINE
  5
346
330
1F
100
AcDbEntity
  8
LC-002-100-D00-0
 62
     7
370
    50
100
AcDbLine
 10
235.00283
 20
257.140634
 30
0.0
 11
235.00283
 21
256.360841
 31
0.0
  0
ARC
  5
347
330
1F
100
AcDbEntity
  8
LC-002-100-D00-0
 62
     7
370
    50
100
AcDbCircle
 10
234.70283
 20
257.140634
 30
0.0
 40
0.3000000000000682
100
AcDbArc
 50
0.0
 51
72.558995
  0
LINE
  5
348
330
1F
100
AcDbEntity
  8
LC-002-100-D00-0
 62
     7
370
    50
100
AcDbLine
 10
241.002828
 20
256.360841
 30
0.0
 11
235.00283
 21
256.360841
 31
0.0
  0
LINE
  5
349
330
1F
100
AcDbEntity
  8
LC-002-100-D00-0
 62
     7
370
    50
100
AcDbLine
 10
241.002828
 20
260.36084
 30
0.0
 11
235.215045
 21
260.360841
 31
0.0
  0
LINE
  5
34A
330
1F
100
AcDbEntity
  8
LC-002-100-D00-0
 62
     7
370
    50
100
AcDbLine
 10
234.452342
 20
257.426842
 30
0.0
 11
234.792747
 21
257.426842
 31
0.0
  0
LINE
  5
34B
330
1F
100
AcDbEntity
  8
LC-002-100-D00-0
 62
     7
370
    50
100
AcDbLine
 10
235.00283
 20
256.360841
 30
0.0
 11
233.861448
 21
256.360841
 31
0.0
  0
LINE
  5
34C
330
1F
100
AcDbEntity
  8
LC-002-100-D00-0
 62
     7
370
    50
100
AcDbLine
 10
117.00283
 20
256.360841
 30
0.0
 11
117.00283
 21
257.140634
 31
0.0
  0
LINE
  5
34D
330
1F
100
AcDbEntity
  8
LC-002-100-D00-0
 62
     7
370
    50
100
AcDbLine
 10
118.144212
 20
256.360841
 30
0.0
 11
117.00283
 21
256.360841
 31
0.0
  0
LINE
  5
34E
330
1F
100
AcDbEntity
  8
LC-002-100-D00-0
 62
     7
370
    50
100
AcDbLine
 10
117.502831
 20
257.517924
 30
0.0
 11
118.690444
 21
255.375412
 31
0.0
  0
LINE
  5
34F
330
1F
100
AcDbEntity
  8
LC-002-100-D00-0
 62
     7
370
    50
100
AcDbLine
 10
117.212913
 20
257.426842
 30
0.0
 11
117.553318
 21
257.426842
 31
0.0
  0
LINE
  5
350
330
1F
100
AcDbEntity
  8
LC-002-100-D00-0
 62
     7
370
    50
100
AcDbLine
 10
117.212913
 20
257.426842
 30
0.0
 11
117.502831
 21
257.517924
 31
0.0
  0
ARC
  5
351
330
1F
100
AcDbEntity
  8
LC-002-100-D00-0
 62
     7
370
    50
100
AcDbCircle
 10
117.30283
 20
257.140634
 30
0.0
 40
0.30000000000031
100
AcDbArc
 50
107.441005
 51
180.0
  0
ARC
  5
352
330
1F
100
AcDbEntity
  8
LC-002-100-D00-0
 62
     7
370
    50
100
AcDbCircle
 10
116.790616
 20
259.360841
 30
0.0
 40
1.000000000000167
100
AcDbArc
 50
66.037511
 51
90.0
  0
LINE
  5
353
330
1F
100
AcDbEntity
  8
LC-002-100-D00-0
 62
     7
370
    50
100
AcDbLine
 10
118.065107
 20
259.888718
 30
0.0
 11
117.196754
 21
260.274653
 31
0.0
  0
LINE
  5
354
330
1F
100
AcDbEntity
  8
LC-002-100-D00-0
 62
     7
370
    50
100
AcDbLine
 10
119.25283
 20
255.520855
 30
0.0
 11
119.25283
 21
258.061095
 31
0.0
  0
ARC
  5
355
330
1F
100
AcDbEntity
  8
LC-002-100-D00-0
 62
     7
370
    50
100
AcDbCircle
 10
117.25283
 20
258.061095
 30
0.0
 40
2.000000000000114
100
AcDbArc
 50
0.0
 51
66.037511
  0
ARC
  5
356
330
1F
100
AcDbEntity
  8
LC-002-100-D00-0
 62
     7
370
    50
100
AcDbCircle
 10
118.95283
 20
255.520855
 30
0.0
 40
0.2999999999999429
100
AcDbArc
 50
209.0
 51
0.0
  0
LINE
  5
357
330
1F
100
AcDbEntity
  8
LC-002-100-D00-0
 62
     7
370
    50
100
AcDbLine
 10
111.002832
 20
256.360841
 30
0.0
 11
111.002832
 21
260.36084
 31
0.0
  0
LINE
  5
358
330
1F
100
AcDbEntity
  8
LC-002-100-D00-0
 62
     7
370
    50
100
AcDbLine
 10
117.00283
 20
256.360841
 30
0.0
 11
111.002832
 21
256.360841
 31
0.0
  0
LINE
  5
359
330
1F
100
AcDbEntity
  8
LC-002-100-D00-0
 62
     7
370
    50
100
AcDbLine
 10
116.790616
 20
260.360841
 30
0.0
 11
111.002832
 21
260.36084
 31
0.0
  0
LINE
  5
35A
330
1F
100
AcDbEntity
  8
LC-002-100-D00-0
 62
     7
370
    50
100
AcDbLine
 10
250.002831
 20
260.36084
 30
0.0
 11
250.002831
 21
236.610842
 31
0.0
  0
LINE
  5
35B
330
1F
100
AcDbEntity
  8
LC-002-100-D00-0
 62
     7
370
    50
100
AcDbLine
 10
247.002832
 20
257.360842
 30
0.0
 11
247.00283
 21
236.610841
 31
0.0
  0
LINE
  5
35C
330
1F
100
AcDbEntity
  8
LC-002-100-D00-0
 62
     7
370
    50
100
AcDbLine
 10
244.002834
 20
257.360842
 30
0.0
 11
244.002834
 21
253.360839
 31
0.0
  0
LINE
  5
35D
330
1F
100
AcDbEntity
  8
LC-002-100-D00-0
 62
     7
370
    50
100
AcDbLine
 10
238.00283
 20
253.360841
 30
0.0
 11
244.002834
 21
253.360839
 31
0.0
  0
LINE
  5
35E
330
1F
100
AcDbEntity
  8
LC-002-100-D00-0
 62
     7
370
    50
100
AcDbLine
 10
238.002829
 20
256.360841
 30
0.0
 11
238.00283
 21
253.360841
 31
0.0
  0
LINE
  5
35F
330
1F
100
AcDbEntity
  8
LC-002-100-D00-0
 62
     7
370
    50
100
AcDbLine
 10
241.002828
 20
256.360841
 30
0.0
 11
238.002829
 21
256.360841
 31
0.0
  0
LINE
  5
360
330
1F
100
AcDbEntity
  8
LC-002-100-D00-0
 62
     7
370
    50
100
AcDbLine
 10
241.002828
 20
256.360841
 30
0.0
 11
241.002828
 21
260.36084
 31
0.0
  0
LINE
  5
361
330
1F
100
AcDbEntity
  8
LC-002-100-D00-0
 62
     7
370
    50
100
AcDbLine
 10
244.002834
 20
257.360842
 30
0.0
 11
247.002832
 21
257.360842
 31
0.0
  0
LINE
  5
362
330
1F
100
AcDbEntity
  8
LC-002-100-D00-0
 62
     7
370
    50
100
AcDbLine
 10
247.00283
 20
236.610841
 30
0.0
 11
250.002831
 21
236.610842
 31
0.0
  0
LINE
  5
363
330
1F
100
AcDbEntity
  8
LC-002-100-D00-0
 62
     7
370
    50
100
AcDbLine
 10
250.002831
 20
260.36084
 30
0.0
 11
241.002828
 21
260.36084
 31
0.0
  0
LINE
  5
364
330
1F
100
AcDbEntity
  8
LC-002-100-D00-0
 62
     7
370
    50
100
AcDbLine
 10
226.303238
 20
236.610841
 30
0.0
 11
247.00283
 21
236.610841
 31
0.0
  0
LINE
  5
365
330
1F
100
AcDbEntity
  8
LC-002-100-D00-0
 62
     7
370
    50
100
AcDbLine
 10
231.25283
 20
253.360841
 30
0.0
 11
238.00283
 21
253.360841
 31
0.0
  0
LINE
  5
366
330
1F
100
AcDbEntity
  8
LC-002-100-D00-0
 62
     7
370
    50
100
AcDbLine
 10
114.00283
 20
253.360841
 30
0.0
 11
114.002831
 21
256.360841
 31
0.0
  0
LINE
  5
367
330
1F
100
AcDbEntity
  8
LC-002-100-D00-0
 62
     7
370
    50
100
AcDbLine
 10
114.00283
 20
253.360841
 30
0.0
 11
120.75283
 21
253.360841
 31
0.0
  0
LINE
  5
368
330
1F
100
AcDbEntity
  8
LC-002-100-D00-0
 62
     7
370
    50
100
AcDbLine
 10
111.002832
 20
260.36084
 30
0.0
 11
111.002832
 21
256.360841
 31
0.0
  0
LINE
  5
369
330
1F
100
AcDbEntity
  8
LC-002-100-D00-0
 62
     7
370
    50
100
AcDbLine
 10
108.002826
 20
253.360839
 30
0.0
 11
108.002826
 21
257.360842
 31
0.0
  0
LINE
  5
36A
330
1F
100
AcDbEntity
  8
LC-002-100-D00-0
 62
     7
370
    50
100
AcDbLine
 10
105.00283
 20
236.610841
 30
0.0
 11
105.002828
 21
257.360842
 31
0.0
  0
LINE
  5
36B
330
1F
100
AcDbEntity
  8
LC-002-100-D00-0
 62
     7
370
    50
100
AcDbLine
 10
105.00283
 20
236.610841
 30
0.0
 11
125.702423
 21
236.610841
 31
0.0
  0
LINE
  5
36C
330
1F
100
AcDbEntity
  8
LC-002-100-D00-0
 62
     7
370
    50
100
AcDbLine
 10
102.002829
 20
236.610842
 30
0.0
 11
102.002829
 21
260.36084
 31
0.0
  0
LINE
  5
36D
330
1F
100
AcDbEntity
  8
LC-002-100-D00-0
 62
     7
370
    50
100
AcDbLine
 10
114.002831
 20
256.360841
 30
0.0
 11
111.002832
 21
256.360841
 31
0.0
  0
LINE
  5
36E
330
1F
100
AcDbEntity
  8
LC-002-100-D00-0
 62
     7
370
    50
100
AcDbLine
 10
108.002826
 20
253.360839
 30
0.0
 11
114.00283
 21
253.360841
 31
0.0
  0
LINE
  5
36F
330
1F
100
AcDbEntity
  8
LC-002-100-D00-0
 62
     7
370
    50
100
AcDbLine
 10
105.002828
 20
257.360842
 30
0.0
 11
108.002826
 21
257.360842
 31
0.0
  0
LINE
  5
370
330
1F
100
AcDbEntity
  8
LC-002-100-D00-0
 62
     7
370
    50
100
AcDbLine
 10
102.002829
 20
236.610842
 30
0.0
 11
105.00283
 21
236.610841
 31
0.0
  0
LINE
  5
371
330
1F
100
AcDbEntity
  8
LC-002-100-D00-0
 62
     7
370
    50
100
AcDbLine
 10
111.002832
 20
260.36084
 30
0.0
 11
102.002829
 21
260.36084
 31
0.0
  0
LINE
  5
372
330
1F
100
AcDbEntity
  8
LC-002-100-D00-0
 62
     7
370
    50
100
AcDbLine
 10
217.991955
 20
236.610841
 30
0.0
 11
226.303238
 21
236.610841
 31
0.0
  0
LINE
  5
373
330
1F
100
AcDbEntity
  8
LC-002-100-D00-0
 62
     7
370
    50
100
AcDbLine
 10
125.702423
 20
236.610841
 30
0.0
 11
134.013705
 21
236.610841
 31
0.0
  0
LINE
  5
374
330
1F
100
AcDbEntity
  8
LC-002-100-D00-0
 62
     7
370
    50
100
AcDbLine
 10
134.013705
 20
236.610841
 30
0.0
 11
135.002829
 21
236.610842
 31
0.0
  0
LINE
  5
375
330
1F
100
AcDbEntity
  8
LC-002-100-D00-0
 62
     7
370
    50
100
AcDbLine
 10
217.002831
 20
236.610842
 30
0.0
 11
217.991955
 21
236.610841
 31
0.0
  0
LINE
  5
376
330
1F
100
AcDbEntity
  8
LC-002-100-D00-0
 62
     7
370
    50
100
AcDbLine
 10
250.002831
 20
235.860841
 30
0.0
 11
261.002831
 21
235.860841
 31
0.0
  0
LINE
  5
377
330
1F
100
AcDbEntity
  8
LC-002-100-D00-0
 62
     7
370
    50
100
AcDbLine
 10
261.002831
 20
183.86084
 30
0.0
 11
250.002831
 21
183.86084
 31
0.0
  0
LINE
  5
378
330
1F
100
AcDbEntity
  8
LC-002-100-D00-0
 62
     7
370
    50
100
AcDbLine
 10
250.002831
 20
236.610842
 30
0.0
 11
250.002831
 21
235.860841
 31
0.0
  0
INSERT
  5
389
330
1F
100
AcDbEntity
  8
LC-002-100-D00-0
 62
     7
370
    50
100
AcDbBlockReference
  2
KLON13
 10
0.0
 20
0.0
 30
0.0
  0
INSERT
  5
39D
330
1F
100
AcDbEntity
  8
LC-002-100-D00-0
 62
     7
370
    50
100
AcDbBlockReference
  2
KLON14
 10
0.0
 20
0.0
 30
0.0
  0
LINE
  5
39E
330
1F
100
AcDbEntity
  8
LC-002-100-D00-0
 62
     7
370
    50
100
AcDbLine
 10
247.002832
 20
232.860842
 30
0.0
 11
288.900016
 21
232.860841
 31
0.0
  0
LINE
  5
39F
330
1F
100
AcDbEntity
  8
LC-002-100-D00-0
 62
     7
370
    50
100
AcDbLine
 10
288.900016
 20
186.860841
 30
0.0
 11
288.900016
 21
232.860841
 31
0.0
  0
LINE
  5
3A0
330
1F
100
AcDbEntity
  8
LC-002-100-D00-0
 62
     7
370
    50
100
AcDbLine
 10
288.900016
 20
186.860841
 30
0.0
 11
250.002831
 21
186.860838
 31
0.0
  0
INSERT
  5
3A6
330
1F
100
AcDbEntity
  8
LC-002-100-D00-0
 62
     7
370
    50
100
AcDbBlockReference
  2
KLON15
 10
0.0
 20
0.0
 30
0.0
  0
LINE
  5
3A7
330
1F
100
AcDbEntity
  8
LC-002-100-D00-0
 62
     7
370
    50
100
AcDbLine
 10
247.00283
 20
236.610841
 30
0.0
 11
226.303238
 21
236.610841
 31
0.0
  0
LINE
  5
3A8
330
1F
100
AcDbEntity
  8
LC-002-100-D00-0
 62
     7
370
    50
100
AcDbLine
 10
247.00283
 20
236.610841
 30
0.0
 11
247.002832
 21
232.860842
 31
0.0
  0
LINE
  5
3A9
330
1F
100
AcDbEntity
  8
LC-002-100-D00-0
 62
     7
370
    50
100
AcDbLine
 10
237.00283
 20
183.860841
 30
0.0
 11
250.002831
 21
183.86084
 31
0.0
  0
ARC
  5
3AA
330
1F
100
AcDbEntity
  8
LC-002-100-D00-0
 62
     7
370
    50
100
AcDbCircle
 10
230.02071
 20
184.360841
 30
0.0
 40
7.0
100
AcDbArc
 50
270.0
 51
355.903956
  0
LINE
  5
3AB
330
1F
100
AcDbEntity
  8
LC-002-100-D00-0
 62
     7
370
    50
100
AcDbLine
 10
230.02071
 20
177.360841
 30
0.0
 11
121.98495
 21
177.360841
 31
0.0
  0
ARC
  5
3AC
330
1F
100
AcDbEntity
  8
LC-002-100-D00-0
 62
     7
370
    50
100
AcDbCircle
 10
121.98495
 20
184.360841
 30
0.0
 40
7.000000000000056
100
AcDbArc
 50
184.096044
 51
270.0
  0
LINE
  5
3AD
330
1F
100
AcDbEntity
  8
LC-002-100-D00-0
 62
     7
370
    50
100
AcDbLine
 10
114.50283
 20
183.860841
 30
0.0
 11
115.00283
 21
183.860841
 31
0.0
  0
ARC
  5
3AE
330
1F
100
AcDbEntity
  8
LC-002-100-D00-0
 62
     7
370
    50
100
AcDbCircle
 10
114.50283
 20
196.360841
 30
0.0
 40
12.5
100
AcDbArc
 50
180.0
 51
270.0
  0
LINE
  5
3AF
330
1F
100
AcDbEntity
  8
LC-002-100-D00-0
 62
     7
370
    50
100
AcDbLine
 10
102.00283
 20
196.360841
 30
0.0
 11
102.002829
 21
236.610842
 31
0.0
  0
LINE
  5
3B0
330
1F
100
AcDbEntity
  8
LC-002-100-D00-0
 62
     7
370
    50
100
AcDbLine
 10
102.002829
 20
236.610842
 30
0.0
 11
105.00283
 21
236.610841
 31
0.0
  0
LINE
  5
3B1
330
1F
100
AcDbEntity
  8
LC-002-100-D00-0
 62
     7
370
    50
100
AcDbLine
 10
105.00283
 20
196.360841
 30
0.0
 11
105.00283
 21
236.610841
 31
0.0
  0
ARC
  5
3B2
330
1F
100
AcDbEntity
  8
LC-002-100-D00-0
 62
     7
370
    50
100
AcDbCircle
 10
114.50283
 20
196.360841
 30
0.0
 40
9.5
100
AcDbArc
 50
180.0
 51
270.0
  0
LINE
  5
3B3
330
1F
100
AcDbEntity
  8
LC-002-100-D00-0
 62
     7
370
    50
100
AcDbLine
 10
114.50283
 20
186.860841
 30
0.0
 11
117.00283
 21
186.860841
 31
0.0
  0
ARC
  5
3B4
330
1F
100
AcDbEntity
  8
LC-002-100-D00-0
 62
     7
370
    50
100
AcDbCircle
 10
117.00283
 20
185.860841
 30
0.0
 40
1.000000000000114
100
AcDbArc
 50
0.0
 51
90.0
  0
LINE
  5
3B5
330
1F
100
AcDbEntity
  8
LC-002-100-D00-0
 62
     7
370
    50
100
AcDbLine
 10
118.00283
 20
185.860841
 30
0.0
 11
118.00283
 21
184.360841
 31
0.0
  0
ARC
  5
3B6
330
1F
100
AcDbEntity
  8
LC-002-100-D00-0
 62
     7
370
    50
100
AcDbCircle
 10
122.00283
 20
184.360841
 30
0.0
 40
4.0
100
AcDbArc
 50
180.0
 51
270.0
  0
LINE
  5
3B7
330
1F
100
AcDbEntity
  8
LC-002-100-D00-0
 62
     7
370
    50
100
AcDbLine
 10
230.00283
 20
180.360841
 30
0.0
 11
122.00283
 21
180.360841
 31
0.0
  0
ARC
  5
3B8
330
1F
100
AcDbEntity
  8
LC-002-100-D00-0
 62
     7
370
    50
100
AcDbCircle
 10
230.00283
 20
184.360841
 30
0.0
 40
4.0
100
AcDbArc
 50
270.0
 51
0.0
  0
LINE
  5
3B9
330
1F
100
AcDbEntity
  8
LC-002-100-D00-0
 62
     7
370
    50
100
AcDbLine
 10
234.00283
 20
184.360841
 30
0.0
 11
234.00283
 21
185.860841
 31
0.0
  0
ARC
  5
3BA
330
1F
100
AcDbEntity
  8
LC-002-100-D00-0
 62
     7
370
    50
100
AcDbCircle
 10
235.00283
 20
185.860841
 30
0.0
 40
1.0
100
AcDbArc
 50
90.0
 51
180.0
  0
LINE
  5
3BB
330
1F
100
AcDbEntity
  8
LC-002-100-D00-0
 62
     7
370
    50
100
AcDbLine
 10
235.00283
 20
186.860841
 30
0.0
 11
250.002831
 21
186.860838
 31
0.0
  0
LINE
  5
3BC
330
1F
100
AcDbEntity
  8
LC-002-100-D00-0
 62
     7
370
    50
100
AcDbLine
 10
294.500016
 20
185.360326
 30
0.0
 11
288.900016
 21
186.860841
 31
0.0
  0
LINE
  5
3BD
330
1F
100
AcDbEntity
  8
LC-002-100-D00-0
 62
     7
370
    50
100
AcDbLine
 10
294.500016
 20
184.926586
 30
0.0
 11
294.500016
 21
185.360326
 31
0.0
  0
ARC
  5
3BE
330
1F
100
AcDbEntity
  8
LC-002-100-D00-0
 62
     7
370
    50
100
AcDbCircle
 10
294.000058
 20
184.926586
 30
0.0
 40
0.4999578796799692
100
AcDbArc
 50
301.198872
 51
0.0
  0
ARC
  5
3BF
330
1F
100
AcDbEntity
  8
LC-002-100-D00-0
 62
     7
370
    50
100
AcDbCircle
 10
278.901334
 20
209.858651
 30
0.0
 40
29.64750216706105
100
AcDbArc
 50
292.382556
 51
301.198872
  0
ARC
  5
3C0
330
1F
100
AcDbEntity
  8
LC-002-100-D00-0
 62
     7
370
    50
100
AcDbCircle
 10
290.000394
 20
182.907024
 30
0.0
 40
0.4999578796802098
100
AcDbArc
 50
180.0
 51
292.382556
  0
LINE
  5
3C1
330
1F
100
AcDbEntity
  8
LC-002-100-D00-0
 62
     7
370
    50
100
AcDbLine
 10
289.500437
 20
184.210883
 30
0.0
 11
289.500437
 21
182.907024
 31
0.0
  0
ARC
  5
3C2
330
1F
100
AcDbEntity
  8
LC-002-100-D00-0
 62
     7
370
    50
100
AcDbCircle
 10
289.000479
 20
184.210883
 30
0.0
 40
0.4999578796800961
100
AcDbArc
 50
0.0
 51
90.0
  0
LINE
  5
3C3
330
1F
100
AcDbEntity
  8
LC-002-100-D00-0
 62
     7
370
    50
100
AcDbLine
 10
285.500773
 20
184.710841
 30
0.0
 11
289.000479
 21
184.710841
 31
0.0
  0
ARC
  5
3C4
330
1F
100
AcDbEntity
  8
LC-002-100-D00-0
 62
     7
370
    50
100
AcDbCircle
 10
285.500773
 20
184.210883
 30
0.0
 40
0.4999578796800961
100
AcDbArc
 50
90.0
 51
180.0
  0
LINE
  5
3C5
330
1F
100
AcDbEntity
  8
LC-002-100-D00-0
 62
     7
370
    50
100
AcDbLine
 10
285.000816
 20
181.254022
 30
0.0
 11
285.000816
 21
184.210883
 31
0.0
  0
ARC
  5
3C6
330
1F
100
AcDbEntity
  8
LC-002-100-D00-0
 62
     7
370
    50
100
AcDbCircle
 10
284.500858
 20
181.254022
 30
0.0
 40
0.4999578796803386
100
AcDbArc
 50
281.075925
 51
0.0
  0
ARC
  5
3C7
330
1F
100
AcDbEntity
  8
LC-002-100-D00-0
 62
     7
370
    50
100
AcDbCircle
 10
278.901334
 20
209.858651
 30
0.0
 40
29.64750432250037
100
AcDbArc
 50
241.270296
 51
281.075925
  0
LINE
  5
3C8
330
1F
100
AcDbEntity
  8
LC-002-100-D00-0
 62
     7
370
    50
100
AcDbLine
 10
263.502627
 20
183.86084
 30
0.0
 11
264.650425
 21
183.860841
 31
0.0
  0
LINE
  5
3C9
330
1F
100
AcDbEntity
  8
LC-002-100-D00-0
 62
     7
370
    50
100
AcDbLine
 10
263.502627
 20
182.360844
 30
0.0
 11
263.502627
 21
183.86084
 31
0.0
  0
LINE
  5
3CA
330
1F
100
AcDbEntity
  8
LC-002-100-D00-0
 62
     7
370
    50
100
AcDbLine
 10
261.002831
 20
182.360844
 30
0.0
 11
263.502627
 21
182.360844
 31
0.0
  0
LINE
  5
3CB
330
1F
100
AcDbEntity
  8
LC-002-100-D00-0
 62
     7
370
    50
100
AcDbLine
 10
261.002831
 20
183.86084
 30
0.0
 11
261.002831
 21
182.360844
 31
0.0
  0
ARC
  5
3CC
330
1F
100
AcDbEntity
  8
LC-002-100-D00-0
 62
     7
370
    50
100
AcDbCircle
 10
289.000479
 20
235.510799
 30
0.0
 40
0.4999578796798687
100
AcDbArc
 50
270.0
 51
0.0
  0
LINE
  5
3CD
330
1F
100
AcDbEntity
  8
LC-002-100-D00-0
 62
     7
370
    50
100
AcDbLine
 10
289.500437
 20
236.814658
 30
0.0
 11
289.500437
 21
235.510799
 31
0.0
  0
ARC
  5
3CE
330
1F
100
AcDbEntity
  8
LC-002-100-D00-0
 62
     7
370
    50
100
AcDbCircle
 10
290.000394
 20
236.814658
 30
0.0
 40
0.4999578796801538
100
AcDbArc
 50
67.617444
 51
180.0
  0
ARC
  5
3CF
330
1F
100
AcDbEntity
  8
LC-002-100-D00-0
 62
     7
370
    50
100
AcDbCircle
 10
278.901334
 20
209.863031
 30
0.0
 40
29.64750216706075
100
AcDbArc
 50
58.801128
 51
67.617444
  0
ARC
  5
3D0
330
1F
100
AcDbEntity
  8
LC-002-100-D00-0
 62
     7
370
    50
100
AcDbCircle
 10
294.000058
 20
234.795096
 30
0.0
 40
0.4999578796799824
100
AcDbArc
 50
0.0
 51
58.801128
  0
LINE
  5
3D1
330
1F
100
AcDbEntity
  8
LC-002-100-D00-0
 62
     7
370
    50
100
AcDbLine
 10
294.500016
 20
234.361356
 30
0.0
 11
294.500016
 21
234.795096
 31
0.0
  0
LINE
  5
3D2
330
1F
100
AcDbEntity
  8
LC-002-100-D00-0
 62
     7
370
    50
100
AcDbLine
 10
288.900016
 20
232.860841
 30
0.0
 11
294.500016
 21
234.361356
 31
0.0
  0
LINE
  5
3D3
330
1F
100
AcDbEntity
  8
LC-002-100-D00-0
 62
     7
370
    50
100
AcDbLine
 10
247.00283
 20
236.610841
 30
0.0
 11
250.002831
 21
236.610842
 31
0.0
  0
LINE
  5
3D4
330
1F
100
AcDbEntity
  8
LC-002-100-D00-0
 62
     7
370
    50
100
AcDbLine
 10
261.002831
 20
237.36084
 30
0.0
 11
261.002831
 21
235.860841
 31
0.0
  0
LINE
  5
3D5
330
1F
100
AcDbEntity
  8
LC-002-100-D00-0
 62
     7
370
    50
100
AcDbLine
 10
263.502627
 20
237.360841
 30
0.0
 11
261.002831
 21
237.36084
 31
0.0
  0
ARC
  5
3D6
330
1F
100
AcDbEntity
  8
LC-002-100-D00-0
 62
     7
370
    50
100
AcDbCircle
 10
278.864919
 20
209.860841
 30
0.0
 40
31.50000000000014
100
AcDbArc
 50
105.394857
 51
119.188982
  0
LINE
  5
3D7
330
1F
100
AcDbEntity
  8
LC-002-100-D00-0
 62
     7
370
    50
100
AcDbLine
 10
270.502627
 20
240.230597
 30
0.0
 11
270.502627
 21
238.296044
 31
0.0
  0
ARC
  5
3D8
330
1F
100
AcDbEntity
  8
LC-002-100-D00-0
 62
     7
370
    50
100
AcDbCircle
 10
278.901334
 20
209.863031
 30
0.0
 40
29.64750432250008
100
AcDbArc
 50
78.924075
 51
106.456389
  0
ARC
  5
3D9
330
1F
100
AcDbEntity
  8
LC-002-100-D00-0
 62
     7
370
    50
100
AcDbCircle
 10
284.500858
 20
238.46766
 30
0.0
 40
0.4999578796799824
100
AcDbArc
 50
0.0
 51
78.924075
  0
LINE
  5
3DA
330
1F
100
AcDbEntity
  8
LC-002-100-D00-0
 62
     7
370
    50
100
AcDbLine
 10
285.000816
 20
235.510799
 30
0.0
 11
285.000816
 21
238.46766
 31
0.0
  0
ARC
  5
3DB
330
1F
100
AcDbEntity
  8
LC-002-100-D00-0
 62
     7
370
    50
100
AcDbCircle
 10
285.500773
 20
235.510799
 30
0.0
 40
0.4999578796799824
100
AcDbArc
 50
180.0
 51
270.0
  0
LINE
  5
3DC
330
1F
100
AcDbEntity
  8
LC-002-100-D00-0
 62
     7
370
    50
100
AcDbLine
 10
289.000479
 20
235.010841
 30
0.0
 11
285.500773
 21
235.010841
 31
0.0
  0
LINE
  5
3DD
330
1F
100
AcDbEntity
  8
LC-002-100-D00-0
 62
     7
370
    50
100
AcDbLine
 10
294.500016
 20
234.361356
 30
0.0
 11
294.500016
 21
185.360326
 31
0.0
  0
LINE
  5
3DE
330
1F
100
AcDbEntity
  8
LC-002-100-D00-0
 62
     7
370
    50
100
AcDbLine
 10
220.43645
 20
186.860841
 30
0.0
 11
235.00283
 21
186.860841
 31
0.0
  0
LINE
  5
3DF
330
1F
100
AcDbEntity
  8
LC-002-100-D00-0
 62
     7
370
    50
100
AcDbLine
 10
117.00283
 20
186.860841
 30
0.0
 11
131.56921
 21
186.860841
 31
0.0
  0
LINE
  5
3E0
330
1F
100
AcDbEntity
  8
LC-002-100-D00-0
 62
     7
370
    50
100
AcDbLine
 10
125.702423
 20
236.610841
 30
0.0
 11
105.00283
 21
236.610841
 31
0.0
  0
LINE
  5
3E1
330
1F
100
AcDbEntity
  8
LC-002-100-D00-0
 62
     7
370
    50
100
AcDbLine
 10
217.991955
 20
186.860841
 30
0.0
 11
220.43645
 21
186.860841
 31
0.0
  0
LINE
  5
3E2
330
1F
100
AcDbEntity
  8
LC-002-100-D00-0
 62
     7
370
    50
100
AcDbLine
 10
131.56921
 20
186.860841
 30
0.0
 11
134.013705
 21
186.860841
 31
0.0
  0
LINE
  5
3E3
330
1F
100
AcDbEntity
  8
LC-002-100-D00-0
 62
     7
370
    50
100
AcDbLine
 10
134.013705
 20
186.860841
 30
0.0
 11
135.002829
 21
186.860838
 31
0.0
  0
LINE
  5
3E4
330
1F
100
AcDbEntity
  8
LC-002-100-D00-0
 62
     7
370
    50
100
AcDbLine
 10
217.002831
 20
186.860838
 30
0.0
 11
217.991955
 21
186.860841
 31
0.0
  0
LINE
  5
3E5
330
1F
100
AcDbEntity
  8
LC-002-100-D00-0
 62
     7
370
    50
100
AcDbLine
 10
226.303238
 20
236.610841
 30
0.0
 11
217.991955
 21
236.610841
 31
0.0
  0
LINE
  5
3E6
330
1F
100
AcDbEntity
  8
LC-002-100-D00-0
 62
     7
370
    50
100
AcDbLine
 10
134.013705
 20
236.610841
 30
0.0
 11
125.702423
 21
236.610841
 31
0.0
  0
LINE
  5
3E7
330
1F
100
AcDbEntity
  8
LC-002-100-D00-0
 62
     7
370
    50
100
AcDbLine
 10
217.991955
 20
236.610841
 30
0.0
 11
217.002831
 21
236.610842
 31
0.0
  0
LINE
  5
3E8
330
1F
100
AcDbEntity
  8
LC-002-100-D00-0
 62
     7
370
    50
100
AcDbLine
 10
135.002829
 20
236.610842
 30
0.0
 11
134.013705
 21
236.610841
 31
0.0
  0
CIRCLE
  5
3E9
330
1F
100
AcDbEntity
  8
LC-002-100-D00-0
 62
     7
370
    50
100
AcDbCircle
 10
230.25283
 20
258.110841
 30
0.0
 40
1.75
  0
CIRCLE
  5
3EA
330
1F
100
AcDbEntity
  8
LC-002-100-D00-0
 62
     7
370
    50
100
AcDbCircle
 10
121.75283
 20
258.110841
 30
0.0
 40
1.749999999999886
  0
LINE
  5
3EB
330
1F
100
AcDbEntity
  8
LC-002-100-D00-0
 62
     7
370
    50
100
AcDbLine
 10
230.502829
 20
259.860841
 30
0.0
 11
230.502829
 21
261.36084
 31
0.0
  0
LINE
  5
3EC
330
1F
100
AcDbEntity
  8
LC-002-100-D00-0
 62
     7
370
    50
100
AcDbLine
 10
228.502828
 20
259.860841
 30
0.0
 11
230.502829
 21
259.860841
 31
0.0
  0
LINE
  5
3ED
330
1F
100
AcDbEntity
  8
LC-002-100-D00-0
 62
     7
370
    50
100
AcDbLine
 10
228.502828
 20
259.860841
 30
0.0
 11
228.502828
 21
256.360841
 31
0.0
  0
LINE
  5
3EE
330
1F
100
AcDbEntity
  8
LC-002-100-D00-0
 62
     7
370
    50
100
AcDbLine
 10
228.502828
 20
256.360841
 30
0.0
 11
230.502829
 21
256.360841
 31
0.0
  0
LINE
  5
3EF
330
1F
100
AcDbEntity
  8
LC-002-100-D00-0
 62
     7
370
    50
100
AcDbLine
 10
230.502829
 20
256.360841
 30
0.0
 11
230.502829
 21
255.360839
 31
0.0
  0
LINE
  5
3F0
330
1F
100
AcDbEntity
  8
LC-002-100-D00-0
 62
     7
370
    50
100
AcDbLine
 10
215.00283
 20
255.360841
 30
0.0
 11
230.502829
 21
255.360839
 31
0.0
  0
ARC
  5
3F1
330
1F
100
AcDbEntity
  8
LC-002-100-D00-0
 62
     7
370
    50
100
AcDbCircle
 10
215.00283
 20
245.360841
 30
0.0
 40
10.0
100
AcDbArc
 50
90.0
 51
180.0
  0
LINE
  5
3F2
330
1F
100
AcDbEntity
  8
LC-002-100-D00-0
 62
     7
370
    50
100
AcDbLine
 10
205.00283
 20
245.360841
 30
0.0
 11
205.002829
 21
195.460843
 31
0.0
  0
LINE
  5
3F3
330
1F
100
AcDbEntity
  8
LC-002-100-D00-0
 62
     7
370
    50
100
AcDbLine
 10
203.50283
 20
195.460841
 30
0.0
 11
205.002829
 21
195.460843
 31
0.0
  0
LINE
  5
3F4
330
1F
100
AcDbEntity
  8
LC-002-100-D00-0
 62
     7
370
    50
100
AcDbLine
 10
203.50283
 20
259.360841
 30
0.0
 11
203.50283
 21
195.460841
 31
0.0
  0
ARC
  5
3F5
330
1F
100
AcDbEntity
  8
LC-002-100-D00-0
 62
     7
370
    50
100
AcDbCircle
 10
205.50283
 20
259.360841
 30
0.0
 40
2.000000000000227
100
AcDbArc
 50
90.0
 51
180.0
  0
LINE
  5
3F6
330
1F
100
AcDbEntity
  8
LC-002-100-D00-0
 62
     7
370
    50
100
AcDbLine
 10
205.50283
 20
261.360841
 30
0.0
 11
230.502829
 21
261.36084
 31
0.0
  0
LINE
  5
3F7
330
1F
100
AcDbEntity
  8
LC-002-100-D00-0
 62
     7
370
    50
100
AcDbLine
 10
187.50283
 20
261.360841
 30
0.0
 11
205.50283
 21
261.360841
 31
0.0
  0
LINE
  5
3F8
330
1F
100
AcDbEntity
  8
LC-002-100-D00-0
 62
     7
370
    50
100
AcDbLine
 10
187.50283
 20
195.460841
 30
0.0
 11
203.50283
 21
195.460841
 31
0.0
  0
LINE
  5
3F9
330
1F
100
AcDbEntity
  8
LC-002-100-D00-0
 62
     7
370
    50
100
AcDbLine
 10
147.002831
 20
195.460843
 30
0.0
 11
147.00283
 21
245.360841
 31
0.0
  0
ARC
  5
3FA
330
1F
100
AcDbEntity
  8
LC-002-100-D00-0
 62
     7
370
    50
100
AcDbCircle
 10
146.50283
 20
259.360841
 30
0.0
 40
2.0
100
AcDbArc
 50
0.0
 51
90.0
  0
LINE
  5
3FB
330
1F
100
AcDbEntity
  8
LC-002-100-D00-0
 62
     7
370
    50
100
AcDbLine
 10
146.50283
 20
261.360841
 30
0.0
 11
164.50283
 21
261.360841
 31
0.0
  0
LINE
  5
3FC
330
1F
100
AcDbEntity
  8
LC-002-100-D00-0
 62
     7
370
    50
100
AcDbLine
 10
148.50283
 20
195.460841
 30
0.0
 11
148.50283
 21
259.360841
 31
0.0
  0
LINE
  5
3FD
330
1F
100
AcDbEntity
  8
LC-002-100-D00-0
 62
     7
370
    50
100
AcDbLine
 10
148.50283
 20
195.460841
 30
0.0
 11
164.50283
 21
195.460841
 31
0.0
  0
ARC
  5
3FE
330
1F
100
AcDbEntity
  8
LC-002-100-D00-0
 62
     7
370
    50
100
AcDbCircle
 10
137.00283
 20
245.360841
 30
0.0
 40
10.0
100
AcDbArc
 50
0.0
 51
90.0
  0
LINE
  5
3FF
330
1F
100
AcDbEntity
  8
LC-002-100-D00-0
 62
     7
370
    50
100
AcDbLine
 10
121.502831
 20
255.360839
 30
0.0
 11
121.502831
 21
256.360841
 31
0.0
  0
LINE
  5
400
330
1F
100
AcDbEntity
  8
LC-002-100-D00-0
 62
     7
370
    50
100
AcDbLine
 10
123.502832
 20
256.360841
 30
0.0
 11
123.502832
 21
259.860841
 31
0.0
  0
LINE
  5
401
330
1F
100
AcDbEntity
  8
LC-002-100-D00-0
 62
     7
370
    50
100
AcDbLine
 10
121.502831
 20
261.36084
 30
0.0
 11
121.502831
 21
259.860841
 31
0.0
  0
LINE
  5
402
330
1F
100
AcDbEntity
  8
LC-002-100-D00-0
 62
     7
370
    50
100
AcDbLine
 10
147.002831
 20
195.460843
 30
0.0
 11
148.50283
 21
195.460841
 31
0.0
  0
LINE
  5
403
330
1F
100
AcDbEntity
  8
LC-002-100-D00-0
 62
     7
370
    50
100
AcDbLine
 10
121.502831
 20
256.360841
 30
0.0
 11
123.502832
 21
256.360841
 31
0.0
  0
LINE
  5
404
330
1F
100
AcDbEntity
  8
LC-002-100-D00-0
 62
     7
370
    50
100
AcDbLine
 10
121.502831
 20
259.860841
 30
0.0
 11
123.502832
 21
259.860841
 31
0.0
  0
LINE
  5
405
330
1F
100
AcDbEntity
  8
LC-002-100-D00-0
 62
     7
370
    50
100
AcDbLine
 10
121.502831
 20
255.360839
 30
0.0
 11
137.00283
 21
255.360841
 31
0.0
  0
LINE
  5
406
330
1F
100
AcDbEntity
  8
LC-002-100-D00-0
 62
     7
370
    50
100
AcDbLine
 10
121.502831
 20
261.36084
 30
0.0
 11
146.50283
 21
261.360841
 31
0.0
  0
LINE
  5
407
330
1F
100
AcDbEntity
  8
LC-002-100-D00-0
 62
     7
370
    50
100
AcDbLine
 10
164.50283
 20
195.460841
 30
0.0
 11
187.50283
 21
195.460841
 31
0.0
  0
LINE
  5
408
330
1F
100
AcDbEntity
  8
LC-002-100-D00-0
 62
     7
370
    50
100
AcDbLine
 10
164.50283
 20
261.360841
 30
0.0
 11
187.50283
 21
261.360841
 31
0.0
  0
LINE
  5
409
330
1F
100
AcDbEntity
  8
LC-002-100-D00-0
 62
     7
370
    50
100
AcDbLine
 10
135.002829
 20
245.860843
 30
0.0
 11
125.067145
 21
253.166492
 31
0.0
  0
ARC
  5
40A
330
1F
100
AcDbEntity
  8
LC-002-100-D00-0
 62
     7
370
    50
100
AcDbCircle
 10
124.474754
 20
252.360841
 30
0.0
 40
1.000000000000197
100
AcDbArc
 50
53.673174
 51
90.0
  0
LINE
  5
40B
330
1F
100
AcDbEntity
  8
LC-002-100-D00-0
 62
     7
370
    50
100
AcDbLine
 10
120.75283
 20
253.360841
 30
0.0
 11
124.474754
 21
253.360841
 31
0.0
  0
LINE
  5
40C
330
1F
100
AcDbEntity
  8
LC-002-100-D00-0
 62
     7
370
    50
100
AcDbLine
 10
120.75283
 20
253.360841
 30
0.0
 11
120.75283
 21
255.360841
 31
0.0
  0
LINE
  5
40D
330
1F
100
AcDbEntity
  8
LC-002-100-D00-0
 62
     7
370
    50
100
AcDbLine
 10
120.75283
 20
255.360841
 30
0.0
 11
124.474754
 21
255.360841
 31
0.0
  0
ARC
  5
40E
330
1F
100
AcDbEntity
  8
LC-002-100-D00-0
 62
     7
370
    50
100
AcDbCircle
 10
124.474754
 20
252.360841
 30
0.0
 40
3.000000000000158
100
AcDbArc
 50
53.673174
 51
90.0
  0
LINE
  5
40F
330
1F
100
AcDbEntity
  8
LC-002-100-D00-0
 62
     7
370
    50
100
AcDbLine
 10
126.251926
 20
254.777794
 30
0.0
 11
136.095221
 21
247.540077
 31
0.0
  0
ARC
  5
410
330
1F
100
AcDbEntity
  8
LC-002-100-D00-0
 62
     7
370
    50
100
AcDbCircle
 10
135.50283
 20
246.734426
 30
0.0
 40
1.000000000000114
100
AcDbArc
 50
0.0
 51
53.673174
  0
LINE
  5
411
330
1F
100
AcDbEntity
  8
LC-002-100-D00-0
 62
     7
370
    50
100
AcDbLine
 10
136.50283
 20
184.860841
 30
0.0
 11
136.50283
 21
246.734426
 31
0.0
  0
ARC
  5
412
330
1F
100
AcDbEntity
  8
LC-002-100-D00-0
 62
     7
370
    50
100
AcDbCircle
 10
140.00283
 20
184.860841
 30
0.0
 40
3.500000000000114
100
AcDbArc
 50
180.0
 51
270.0
  0
LINE
  5
413
330
1F
100
AcDbEntity
  8
LC-002-100-D00-0
 62
     7
370
    50
100
AcDbLine
 10
212.00283
 20
181.360841
 30
0.0
 11
140.00283
 21
181.360841
 31
0.0
  0
ARC
  5
414
330
1F
100
AcDbEntity
  8
LC-002-100-D00-0
 62
     7
370
    50
100
AcDbCircle
 10
212.00283
 20
184.860841
 30
0.0
 40
3.5
100
AcDbArc
 50
270.0
 51
0.0
  0
LINE
  5
415
330
1F
100
AcDbEntity
  8
LC-002-100-D00-0
 62
     7
370
    50
100
AcDbLine
 10
215.50283
 20
246.734426
 30
0.0
 11
215.50283
 21
184.860841
 31
0.0
  0
ARC
  5
416
330
1F
100
AcDbEntity
  8
LC-002-100-D00-0
 62
     7
370
    50
100
AcDbCircle
 10
216.50283
 20
246.734426
 30
0.0
 40
1.000000000000197
100
AcDbArc
 50
126.326826
 51
180.0
  0
LINE
  5
417
330
1F
100
AcDbEntity
  8
LC-002-100-D00-0
 62
     7
370
    50
100
AcDbLine
 10
225.753735
 20
254.777794
 30
0.0
 11
215.91044
 21
247.540077
 31
0.0
  0
ARC
  5
418
330
1F
100
AcDbEntity
  8
LC-002-100-D00-0
 62
     7
370
    50
100
AcDbCircle
 10
227.530906
 20
252.360841
 30
0.0
 40
3.0
100
AcDbArc
 50
90.0
 51
126.326826
  0
LINE
  5
419
330
1F
100
AcDbEntity
  8
LC-002-100-D00-0
 62
     7
370
    50
100
AcDbLine
 10
227.530906
 20
255.360841
 30
0.0
 11
231.25283
 21
255.360841
 31
0.0
  0
LINE
  5
41A
330
1F
100
AcDbEntity
  8
LC-002-100-D00-0
 62
     7
370
    50
100
AcDbLine
 10
231.25283
 20
255.360841
 30
0.0
 11
231.25283
 21
253.360841
 31
0.0
  0
LINE
  5
41B
330
1F
100
AcDbEntity
  8
LC-002-100-D00-0
 62
     7
370
    50
100
AcDbLine
 10
227.530906
 20
253.360841
 30
0.0
 11
231.25283
 21
253.360841
 31
0.0
  0
ARC
  5
41C
330
1F
100
AcDbEntity
  8
LC-002-100-D00-0
 62
     7
370
    50
100
AcDbCircle
 10
227.530906
 20
252.360841
 30
0.0
 40
1.000000000000227
100
AcDbArc
 50
90.0
 51
126.326826
  0
LINE
  5
41D
330
1F
100
AcDbEntity
  8
LC-002-100-D00-0
 62
     7
370
    50
100
AcDbLine
 10
217.002831
 20
245.860843
 30
0.0
 11
226.938515
 21
253.166492
 31
0.0
  0
LINE
  5
41E
330
1F
100
AcDbEntity
  8
LC-002-100-D00-0
 62
     7
370
    50
100
AcDbLine
 10
217.002831
 20
245.860843
 30
0.0
 11
217.00283
 21
184.860841
 31
0.0
  0
ARC
  5
41F
330
1F
100
AcDbEntity
  8
LC-002-100-D00-0
 62
     7
370
    50
100
AcDbCircle
 10
212.00283
 20
184.860841
 30
0.0
 40
5.0
100
AcDbArc
 50
270.0
 51
0.0
  0
LINE
  5
420
330
1F
100
AcDbEntity
  8
LC-002-100-D00-0
 62
     7
370
    50
100
AcDbLine
 10
212.00283
 20
179.860841
 30
0.0
 11
140.00283
 21
179.860841
 31
0.0
  0
ARC
  5
421
330
1F
100
AcDbEntity
  8
LC-002-100-D00-0
 62
     7
370
    50
100
AcDbCircle
 10
140.00283
 20
184.860841
 30
0.0
 40
5.0
100
AcDbArc
 50
180.0
 51
270.0
  0
LINE
  5
422
330
1F
100
AcDbEntity
  8
LC-002-100-D00-0
 62
     7
370
    50
100
AcDbLine
 10
135.00283
 20
184.860841
 30
0.0
 11
135.002829
 21
245.860843
 31
0.0
  0
ARC
  5
423
330
1F
100
AcDbEntity
  8
LC-002-100-D00-0
 62
     7
370
    50
100
AcDbCircle
 10
216.496083
 20
246.729
 30
0.0
 40
1.000373573445133
100
AcDbArc
 50
126.325165
 51
180.0
  0
LINE
  5
424
330
1F
100
AcDbEntity
  8
LC-002-100-D00-0
 62
     7
370
    50
100
AcDbLine
 10
215.903494
 20
247.534969
 30
0.0
 11
215.91044
 21
247.540077
 31
0.0
  0
LINE
  5
425
330
1F
100
AcDbEntity
  8
LC-002-100-D00-0
 62
     7
370
    50
100
AcDbLine
 10
215.495709
 20
245.860841
 30
0.0
 11
211.082225
 21
245.860841
 31
0.0
  0
LINE
  5
426
330
1F
100
AcDbEntity
  8
LC-002-100-D00-0
 62
     7
370
    50
100
AcDbLine
 10
215.495709
 20
246.729059
 30
0.0
 11
215.495709
 21
245.860841
 31
0.0
  0
LINE
  5
427
330
1F
100
AcDbEntity
  8
LC-002-100-D00-0
 62
     7
370
    50
100
AcDbLine
 10
136.509951
 20
246.729059
 30
0.0
 11
136.509951
 21
245.860841
 31
0.0
  0
LINE
  5
428
330
1F
100
AcDbEntity
  8
LC-002-100-D00-0
 62
     7
370
    50
100
AcDbLine
 10
140.923435
 20
245.860841
 30
0.0
 11
136.509951
 21
245.860841
 31
0.0
  0
ARC
  5
429
330
1F
100
AcDbEntity
  8
LC-002-100-D00-0
 62
     7
370
    50
100
AcDbCircle
 10
135.509604
 20
246.729014
 30
0.0
 40
1.000347039120697
100
AcDbArc
 50
0.0
 51
53.675603
  0
LINE
  5
42A
330
1F
100
AcDbEntity
  8
LC-002-100-D00-0
 62
     7
370
    50
100
AcDbLine
 10
208.931196
 20
253.30661
 30
0.0
 11
208.931196
 21
245.860843
 31
0.0
  0
LINE
  5
42B
330
1F
100
AcDbEntity
  8
LC-002-100-D00-0
 62
     7
370
    50
100
AcDbLine
 10
208.931195
 20
253.360841
 30
0.0
 11
215.717245
 21
253.360841
 31
0.0
  0
LINE
  5
42C
330
1F
100
AcDbEntity
  8
LC-002-100-D00-0
 62
     7
370
    50
100
AcDbLine
 10
220.181533
 20
253.360841
 30
0.0
 11
223.826678
 21
253.360841
 31
0.0
  0
LINE
  5
42D
330
1F
100
AcDbEntity
  8
LC-002-100-D00-0
 62
     7
370
    50
100
AcDbLine
 10
143.074464
 20
253.30661
 30
0.0
 11
143.074464
 21
245.860843
 31
0.0
  0
LINE
  5
42E
330
1F
100
AcDbEntity
  8
LC-002-100-D00-0
 62
     7
370
    50
100
AcDbLine
 10
128.178982
 20
253.360841
 30
0.0
 11
131.824127
 21
253.360841
 31
0.0
  0
LINE
  5
42F
330
1F
100
AcDbEntity
  8
LC-002-100-D00-0
 62
     7
370
    50
100
AcDbLine
 10
136.288415
 20
253.360841
 30
0.0
 11
143.074465
 21
253.360841
 31
0.0
  0
LINE
  5
430
330
1F
100
AcDbEntity
  8
LC-002-100-D00-0
 62
     7
370
    50
100
AcDbLine
 10
211.082225
 20
245.860841
 30
0.0
 11
205.015338
 21
245.860841
 31
0.0
  0
LINE
  5
431
330
1F
100
AcDbEntity
  8
LC-002-100-D00-0
 62
     7
370
    50
100
AcDbLine
 10
146.990322
 20
245.860841
 30
0.0
 11
140.923435
 21
245.860841
 31
0.0
  0
LINE
  5
432
330
1F
100
AcDbEntity
  8
LC-002-100-D00-0
 62
     7
370
    50
100
AcDbLine
 10
270.502627
 20
177.860843
 30
0.0
 11
270.502627
 21
180.29735
 31
0.0
  0
ARC
  5
433
330
1F
100
AcDbEntity
  8
LC-002-100-D00-0
 62
     7
370
    50
100
AcDbCircle
 10
271.502627
 20
180.29735
 30
0.0
 40
0.9999999999998629
100
AcDbArc
 50
75.764876
 51
180.0
  0
ARC
  5
434
330
1F
100
AcDbEntity
  8
LC-002-100-D00-0
 62
     7
370
    50
100
AcDbCircle
 10
279.002627
 20
209.860841
 30
0.0
 40
29.5
100
AcDbArc
 50
255.764876
 51
309.53945
  0
LINE
  5
435
330
1F
100
AcDbEntity
  8
LC-002-100-D00-0
 62
     7
370
    50
100
AcDbLine
 10
297.782603
 20
187.110841
 30
0.0
 11
385.502627
 21
187.110841
 31
0.0
  0
LINE
  5
436
330
1F
100
AcDbEntity
  8
LC-002-100-D00-0
 62
     7
370
    50
100
AcDbLine
 10
385.502627
 20
187.110841
 30
0.0
 11
385.502621
 21
185.798661
 31
0.0
  0
LINE
  5
437
330
1F
100
AcDbEntity
  8
LC-002-100-D00-0
 62
     7
370
    50
100
AcDbLine
 10
385.502621
 20
185.798661
 30
0.0
 11
382.002622
 21
184.860842
 31
0.0
  0
LINE
  5
438
330
1F
100
AcDbEntity
  8
LC-002-100-D00-0
 62
     7
370
    50
100
AcDbLine
 10
382.002622
 20
184.860842
 30
0.0
 11
298.977611
 21
184.860841
 31
0.0
  0
ARC
  5
439
330
1F
100
AcDbEntity
  8
LC-002-100-D00-0
 62
     7
370
    50
100
AcDbCircle
 10
279.002627
 20
209.860841
 30
0.0
 40
32.0
100
AcDbArc
 50
270.0
 51
308.624833
  0
LINE
  5
43A
330
1F
100
AcDbEntity
  8
LC-002-100-D00-0
 62
     7
370
    50
100
AcDbLine
 10
279.002627
 20
177.860841
 30
0.0
 11
270.502627
 21
177.860843
 31
0.0
  0
ARC
  5
43B
330
1F
100
AcDbEntity
  8
LC-002-100-D00-0
 62
     7
370
    50
100
AcDbCircle
 10
279.002627
 20
209.860841
 30
0.0
 40
32.00000000000007
100
AcDbArc
 50
51.375167
 51
90.0
  0
LINE
  5
43C
330
1F
100
AcDbEntity
  8
LC-002-100-D00-0
 62
     7
370
    50
100
AcDbLine
 10
298.977611
 20
234.860841
 30
0.0
 11
382.002622
 21
234.860843
 31
0.0
  0
LINE
  5
43D
330
1F
100
AcDbEntity
  8
LC-002-100-D00-0
 62
     7
370
    50
100
AcDbLine
 10
382.002622
 20
234.860843
 30
0.0
 11
385.502621
 21
233.923019
 31
0.0
  0
LINE
  5
43E
330
1F
100
AcDbEntity
  8
LC-002-100-D00-0
 62
     7
370
    50
100
AcDbLine
 10
385.502621
 20
233.923019
 30
0.0
 11
385.502627
 21
232.610841
 31
0.0
  0
LINE
  5
43F
330
1F
100
AcDbEntity
  8
LC-002-100-D00-0
 62
     7
370
    50
100
AcDbLine
 10
385.502627
 20
232.610841
 30
0.0
 11
297.782603
 21
232.610841
 31
0.0
  0
ARC
  5
440
330
1F
100
AcDbEntity
  8
LC-002-100-D00-0
 62
     7
370
    50
100
AcDbCircle
 10
279.002627
 20
209.860841
 30
0.0
 40
29.50000000000015
100
AcDbArc
 50
50.46055
 51
104.235124
  0
ARC
  5
441
330
1F
100
AcDbEntity
  8
LC-002-100-D00-0
 62
     7
370
    50
100
AcDbCircle
 10
271.502627
 20
239.424332
 30
0.0
 40
1.000000000000114
100
AcDbArc
 50
180.0
 51
284.235124
  0
LINE
  5
442
330
1F
100
AcDbEntity
  8
LC-002-100-D00-0
 62
     7
370
    50
100
AcDbLine
 10
270.502627
 20
239.424332
 30
0.0
 11
270.502627
 21
241.860842
 31
0.0
  0
LINE
  5
443
330
1F
100
AcDbEntity
  8
LC-002-100-D00-0
 62
     7
370
    50
100
AcDbLine
 10
270.502627
 20
241.860842
 30
0.0
 11
279.002627
 21
241.860841
 31
0.0
  0
LINE
  5
444
330
1F
100
AcDbEntity
  8
LC-002-100-D00-0
 62
     7
370
    50
100
AcDbLine
 10
385.502627
 20
232.610841
 30
0.0
 11
385.502627
 21
187.110841
 31
0.0
  0
LINE
  5
445
330
1F
100
AcDbEntity
  8
LC-002-100-D00-0
 62
     7
370
    50
100
AcDbLine
 10
297.782603
 20
232.610841
 30
0.0
 11
297.782603
 21
187.110841
 31
0.0
  0
LINE
  5
446
330
1F
100
AcDbEntity
  8
LC-002-100-D00-0
 62
     7
370
    50
100
AcDbLine
 10
270.502627
 20
181.425638
 30
0.0
 11
270.502627
 21
180.29735
 31
0.0
  0
CIRCLE
  5
447
330
1F
100
AcDbEntity
  8
LC-002-100-D00-0
 62
     7
370
    50
100
AcDbCircle
 10
287.250626
 20
236.860841
 30
0.0
 40
2.0
  0
CIRCLE
  5
448
330
1F
100
AcDbEntity
  8
LC-002-100-D00-0
 62
     7
370
    50
100
AcDbCircle
 10
287.250626
 20
182.860841
 30
0.0
 40
2.000000000000114
  0
LINE
  5
449
330
1F
100
AcDbEntity
  8
LC-002-100-D00-0
 62
     7
370
    50
100
AcDbLine
 10
268.956939
 20
266.724544
 30
0.0
 11
251.123268
 21
261.946026
 31
0.0
  0
ARC
  5
44A
330
1F
100
AcDbEntity
  8
LC-002-100-D00-0
 62
     7
370
    50
100
AcDbCircle
 10
269.992215
 20
262.860841
 30
0.0
 40
3.999999999999773
100
AcDbArc
 50
90.0
 51
105.0
  0
LINE
  5
44B
330
1F
100
AcDbEntity
  8
LC-002-100-D00-0
 62
     7
370
    50
100
AcDbLine
 10
269.992215
 20
266.860841
 30
0.0
 11
271.50283
 21
266.86084
 31
0.0
  0
LINE
  5
44C
330
1F
100
AcDbEntity
  8
LC-002-100-D00-0
 62
     7
370
    50
100
AcDbLine
 10
271.50283
 20
266.86084
 30
0.0
 11
271.50283
 21
268.260842
 31
0.0
  0
LINE
  5
44D
330
1F
100
AcDbEntity
  8
LC-002-100-D00-0
 62
     7
370
    50
100
AcDbLine
 10
272.00283
 20
268.260841
 30
0.0
 11
271.50283
 21
268.260842
 31
0.0
  0
ARC
  5
44E
330
1F
100
AcDbEntity
  8
LC-002-100-D00-0
 62
     7
370
    50
100
AcDbCircle
 10
271.00283
 20
269.760841
 30
0.0
 40
1.802775637732184
100
AcDbArc
 50
303.690068
 51
56.309932
  0
LINE
  5
44F
330
1F
100
AcDbEntity
  8
LC-002-100-D00-0
 62
     7
370
    50
100
AcDbLine
 10
272.002831
 20
285.860841
 30
0.0
 11
272.00283
 21
271.260841
 31
0.0
  0
LINE
  5
450
330
1F
100
AcDbEntity
  8
LC-002-100-D00-0
 62
     7
370
    50
100
AcDbLine
 10
273.002833
 20
286.860841
 30
0.0
 11
272.002831
 21
285.860841
 31
0.0
  0
LINE
  5
451
330
1F
100
AcDbEntity
  8
LC-002-100-D00-0
 62
     7
370
    50
100
AcDbLine
 10
279.00283
 20
286.860841
 30
0.0
 11
273.002833
 21
286.860841
 31
0.0
  0
LINE
  5
452
330
1F
100
AcDbEntity
  8
LC-002-100-D00-0
 62
     7
370
    50
100
AcDbLine
 10
280.002832
 20
285.860841
 30
0.0
 11
279.00283
 21
286.860841
 31
0.0
  0
LINE
  5
453
330
1F
100
AcDbEntity
  8
LC-002-100-D00-0
 62
     7
370
    50
100
AcDbLine
 10
280.00283
 20
271.260841
 30
0.0
 11
280.002832
 21
285.860841
 31
0.0
  0
ARC
  5
454
330
1F
100
AcDbEntity
  8
LC-002-100-D00-0
 62
     7
370
    50
100
AcDbCircle
 10
281.00283
 20
269.760841
 30
0.0
 40
1.802775637732121
100
AcDbArc
 50
123.690068
 51
236.309932
  0
LINE
  5
455
330
1F
100
AcDbEntity
  8
LC-002-100-D00-0
 62
     7
370
    50
100
AcDbLine
 10
280.502833
 20
268.260842
 30
0.0
 11
280.00283
 21
268.260841
 31
0.0
  0
LINE
  5
456
330
1F
100
AcDbEntity
  8
LC-002-100-D00-0
 62
     7
370
    50
100
AcDbLine
 10
280.502833
 20
268.260842
 30
0.0
 11
280.502833
 21
266.86084
 31
0.0
  0
LINE
  5
457
330
1F
100
AcDbEntity
  8
LC-002-100-D00-0
 62
     7
370
    50
100
AcDbLine
 10
280.502833
 20
266.86084
 30
0.0
 11
391.502827
 21
266.86084
 31
0.0
  0
LINE
  5
458
330
1F
100
AcDbEntity
  8
LC-002-100-D00-0
 62
     7
370
    50
100
AcDbLine
 10
391.502827
 20
266.86084
 30
0.0
 11
391.502827
 21
268.260842
 31
0.0
  0
LINE
  5
459
330
1F
100
AcDbEntity
  8
LC-002-100-D00-0
 62
     7
370
    50
100
AcDbLine
 10
392.00283
 20
268.260841
 30
0.0
 11
391.502827
 21
268.260842
 31
0.0
  0
ARC
  5
45A
330
1F
100
AcDbEntity
  8
LC-002-100-D00-0
 62
     7
370
    50
100
AcDbCircle
 10
391.00283
 20
269.760841
 30
0.0
 40
1.802775637732121
100
AcDbArc
 50
303.690068
 51
56.309932
  0
LINE
  5
45B
330
1F
100
AcDbEntity
  8
LC-002-100-D00-0
 62
     7
370
    50
100
AcDbLine
 10
392.002836
 20
285.860841
 30
0.0
 11
392.00283
 21
271.260841
 31
0.0
  0
LINE
  5
45C
330
1F
100
AcDbEntity
  8
LC-002-100-D00-0
 62
     7
370
    50
100
AcDbLine
 10
393.002823
 20
286.860841
 30
0.0
 11
392.002836
 21
285.860841
 31
0.0
  0
LINE
  5
45D
330
1F
100
AcDbEntity
  8
LC-002-100-D00-0
 62
     7
370
    50
100
AcDbLine
 10
399.002835
 20
286.860841
 30
0.0
 11
393.002823
 21
286.860841
 31
0.0
  0
LINE
  5
45E
330
1F
100
AcDbEntity
  8
LC-002-100-D00-0
 62
     7
370
    50
100
AcDbLine
 10
400.002837
 20
285.860841
 30
0.0
 11
399.002835
 21
286.860841
 31
0.0
  0
LINE
  5
45F
330
1F
100
AcDbEntity
  8
LC-002-100-D00-0
 62
     7
370
    50
100
AcDbLine
 10
400.00283
 20
271.260841
 30
0.0
 11
400.002837
 21
285.860841
 31
0.0
  0
ARC
  5
460
330
1F
100
AcDbEntity
  8
LC-002-100-D00-0
 62
     7
370
    50
100
AcDbCircle
 10
401.00283
 20
269.760841
 30
0.0
 40
1.802775637731868
100
AcDbArc
 50
123.690068
 51
236.309932
  0
LINE
  5
461
330
1F
100
AcDbEntity
  8
LC-002-100-D00-0
 62
     7
370
    50
100
AcDbLine
 10
400.502831
 20
268.260842
 30
0.0
 11
400.00283
 21
268.260841
 31
0.0
  0
LINE
  5
462
330
1F
100
AcDbEntity
  8
LC-002-100-D00-0
 62
     7
370
    50
100
AcDbLine
 10
400.502831
 20
268.260842
 30
0.0
 11
400.502831
 21
266.86084
 31
0.0
  0
LINE
  5
463
330
1F
100
AcDbEntity
  8
LC-002-100-D00-0
 62
     7
370
    50
100
AcDbLine
 10
400.502831
 20
266.86084
 30
0.0
 11
418.00283
 21
266.860841
 31
0.0
  0
ARC
  5
464
330
1F
100
AcDbEntity
  8
LC-002-100-D00-0
 62
     7
370
    50
100
AcDbCircle
 10
418.00283
 20
274.860841
 30
0.0
 40
8.000000000000227
100
AcDbArc
 50
270.0
 51
0.0
  0
LINE
  5
465
330
1F
100
AcDbEntity
  8
LC-002-100-D00-0
 62
     7
370
    50
100
AcDbLine
 10
426.00283
 20
274.860841
 30
0.0
 11
426.00283
 21
284.360841
 31
0.0
  0
ARC
  5
466
330
1F
100
AcDbEntity
  8
LC-002-100-D00-0
 62
     7
370
    50
100
AcDbCircle
 10
429.00283
 20
284.360841
 30
0.0
 40
3.000000000000227
100
AcDbArc
 50
90.0
 51
180.0
  0
LINE
  5
467
330
1F
100
AcDbEntity
  8
LC-002-100-D00-0
 62
     7
370
    50
100
AcDbLine
 10
476.00283
 20
287.360841
 30
0.0
 11
429.00283
 21
287.360841
 31
0.0
  0
LINE
  5
468
330
1F
100
AcDbEntity
  8
LC-002-100-D00-0
 62
     7
370
    50
100
AcDbLine
 10
476.002842
 20
285.860841
 30
0.0
 11
476.00283
 21
287.360841
 31
0.0
  0
LINE
  5
469
330
1F
100
AcDbEntity
  8
LC-002-100-D00-0
 62
     7
370
    50
100
AcDbLine
 10
476.002842
 20
285.860841
 30
0.0
 11
429.00283
 21
285.860841
 31
0.0
  0
ARC
  5
46A
330
1F
100
AcDbEntity
  8
LC-002-100-D00-0
 62
     7
370
    50
100
AcDbCircle
 10
429.00283
 20
284.360841
 30
0.0
 40
1.500000000000227
100
AcDbArc
 50
90.0
 51
180.0
  0
LINE
  5
46B
330
1F
100
AcDbEntity
  8
LC-002-100-D00-0
 62
     7
370
    50
100
AcDbLine
 10
427.50283
 20
274.860841
 30
0.0
 11
427.50283
 21
284.360841
 31
0.0
  0
ARC
  5
46C
330
1F
100
AcDbEntity
  8
LC-002-100-D00-0
 62
     7
370
    50
100
AcDbCircle
 10
418.00283
 20
274.860841
 30
0.0
 40
9.499999999999773
100
AcDbArc
 50
270.0
 51
0.0
  0
LINE
  5
46D
330
1F
100
AcDbEntity
  8
LC-002-100-D00-0
 62
     7
370
    50
100
AcDbLine
 10
269.992215
 20
265.360841
 30
0.0
 11
418.00283
 21
265.360841
 31
0.0
  0
ARC
  5
46E
330
1F
100
AcDbEntity
  8
LC-002-100-D00-0
 62
     7
370
    50
100
AcDbCircle
 10
269.992215
 20
262.860841
 30
0.0
 40
2.5
100
AcDbArc
 50
90.0
 51
105.0
  0
LINE
  5
46F
330
1F
100
AcDbEntity
  8
LC-002-100-D00-0
 62
     7
370
    50
100
AcDbLine
 10
269.345168
 20
265.275656
 30
0.0
 11
251.511496
 21
260.497138
 31
0.0
  0
ARC
  5
470
330
1F
100
AcDbEntity
  8
LC-002-100-D00-0
 62
     7
370
    50
100
AcDbCircle
 10
250.47622
 20
264.360841
 30
0.0
 40
4.0
100
AcDbArc
 50
270.0
 51
285.0
  0
LINE
  5
471
330
1F
100
AcDbEntity
  8
LC-002-100-D00-0
 62
     7
370
    50
100
AcDbLine
 10
250.47622
 20
260.360841
 30
0.0
 11
233.80283
 21
260.360841
 31
0.0
  0
ARC
  5
472
330
1F
100
AcDbEntity
  8
LC-002-100-D00-0
 62
     7
370
    50
100
AcDbCircle
 10
233.80283
 20
259.360841
 30
0.0
 40
1.0
100
AcDbArc
 50
90.0
 51
180.0
  0
LINE
  5
473
330
1F
100
AcDbEntity
  8
LC-002-100-D00-0
 62
     7
370
    50
100
AcDbLine
 10
232.80283
 20
259.360841
 30
0.0
 11
232.80283
 21
255.360839
 31
0.0
  0
LINE
  5
474
330
1F
100
AcDbEntity
  8
LC-002-100-D00-0
 62
     7
370
    50
100
AcDbLine
 10
232.80283
 20
255.360839
 30
0.0
 11
231.30283
 21
255.360841
 31
0.0
  0
LINE
  5
475
330
1F
100
AcDbEntity
  8
LC-002-100-D00-0
 62
     7
370
    50
100
AcDbLine
 10
231.30283
 20
259.360841
 30
0.0
 11
231.30283
 21
255.360841
 31
0.0
  0
ARC
  5
476
330
1F
100
AcDbEntity
  8
LC-002-100-D00-0
 62
     7
370
    50
100
AcDbCircle
 10
233.80283
 20
259.360841
 30
0.0
 40
2.5
100
AcDbArc
 50
90.0
 51
180.0
  0
LINE
  5
477
330
1F
100
AcDbEntity
  8
LC-002-100-D00-0
 62
     7
370
    50
100
AcDbLine
 10
250.47622
 20
261.860841
 30
0.0
 11
233.80283
 21
261.860841
 31
0.0
  0
ARC
  5
478
330
1F
100
AcDbEntity
  8
LC-002-100-D00-0
 62
     7
370
    50
100
AcDbCircle
 10
250.47622
 20
264.360841
 30
0.0
 40
2.5
100
AcDbArc
 50
270.0
 51
285.0
  0
LINE
  5
479
330
1F
100
AcDbEntity
  8
LC-002-100-D00-0
 62
     7
370
    50
100
AcDbLine
 10
220.396714
 20
261.860841
 30
0.0
 11
233.80283
 21
261.860841
 31
0.0
  0
LINE
  5
47A
330
1F
100
AcDbEntity
  8
LC-002-100-D00-0
 62
     7
370
    50
100
AcDbLine
 10
231.30283
 20
255.360841
 30
0.0
 11
231.25283
 21
255.360841
 31
0.0
  0
LINE
  5
47B
330
1F
100
AcDbEntity
  8
LC-002-100-D00-0
 62
     7
370
    50
100
AcDbLine
 10
120.75283
 20
255.360841
 30
0.0
 11
120.70283
 21
255.360841
 31
0.0
  0
LINE
  5
47C
330
1F
100
AcDbEntity
  8
LC-002-100-D00-0
 62
     7
370
    50
100
AcDbLine
 10
120.70283
 20
255.360841
 30
0.0
 11
120.70283
 21
259.360841
 31
0.0
  0
LINE
  5
47D
330
1F
100
AcDbEntity
  8
LC-002-100-D00-0
 62
     7
370
    50
100
AcDbLine
 10
119.20283
 20
255.360839
 30
0.0
 11
119.20283
 21
259.360841
 31
0.0
  0
LINE
  5
47E
330
1F
100
AcDbEntity
  8
LC-002-100-D00-0
 62
     7
370
    50
100
AcDbLine
 10
131.608947
 20
261.860841
 30
0.0
 11
118.20283
 21
261.860841
 31
0.0
  0
ARC
  5
47F
330
1F
100
AcDbEntity
  8
LC-002-100-D00-0
 62
     7
370
    50
100
AcDbCircle
 10
118.20283
 20
259.360841
 30
0.0
 40
2.5
100
AcDbArc
 50
0.0
 51
90.0
  0
ARC
  5
480
330
1F
100
AcDbEntity
  8
LC-002-100-D00-0
 62
     7
370
    50
100
AcDbCircle
 10
118.20283
 20
259.360841
 30
0.0
 40
1.0
100
AcDbArc
 50
0.0
 51
90.0
  0
LINE
  5
481
330
1F
100
AcDbEntity
  8
LC-002-100-D00-0
 62
     7
370
    50
100
AcDbLine
 10
-47.997177
 20
285.860841
 30
0.0
 11
-47.99717
 21
271.260841
 31
0.0
  0
LINE
  5
482
330
1F
100
AcDbEntity
  8
LC-002-100-D00-0
 62
     7
370
    50
100
AcDbLine
 10
-46.997175
 20
286.860841
 30
0.0
 11
-47.997177
 21
285.860841
 31
0.0
  0
LINE
  5
483
330
1F
100
AcDbEntity
  8
LC-002-100-D00-0
 62
     7
370
    50
100
AcDbLine
 10
-40.997163
 20
286.860841
 30
0.0
 11
-46.997175
 21
286.860841
 31
0.0
  0
LINE
  5
484
330
1F
100
AcDbEntity
  8
LC-002-100-D00-0
 62
     7
370
    50
100
AcDbLine
 10
-39.997175
 20
285.860841
 30
0.0
 11
-40.997163
 21
286.860841
 31
0.0
  0
LINE
  5
485
330
1F
100
AcDbEntity
  8
LC-002-100-D00-0
 62
     7
370
    50
100
AcDbLine
 10
-39.99717
 20
271.260841
 30
0.0
 11
-39.997175
 21
285.860841
 31
0.0
  0
ARC
  5
486
330
1F
100
AcDbEntity
  8
LC-002-100-D00-0
 62
     7
370
    50
100
AcDbCircle
 10
-38.99717
 20
269.760841
 30
0.0
 40
1.802775637731868
100
AcDbArc
 50
123.690068
 51
236.309932
  0
LINE
  5
487
330
1F
100
AcDbEntity
  8
LC-002-100-D00-0
 62
     7
370
    50
100
AcDbLine
 10
-39.497167
 20
268.260842
 30
0.0
 11
-39.99717
 21
268.260841
 31
0.0
  0
LINE
  5
488
330
1F
100
AcDbEntity
  8
LC-002-100-D00-0
 62
     7
370
    50
100
AcDbLine
 10
-39.497167
 20
268.260842
 30
0.0
 11
-39.497167
 21
266.86084
 31
0.0
  0
LINE
  5
489
330
1F
100
AcDbEntity
  8
LC-002-100-D00-0
 62
     7
370
    50
100
AcDbLine
 10
-39.497167
 20
266.86084
 30
0.0
 11
71.502827
 21
266.86084
 31
0.0
  0
LINE
  5
48A
330
1F
100
AcDbEntity
  8
LC-002-100-D00-0
 62
     7
370
    50
100
AcDbLine
 10
71.502827
 20
266.86084
 30
0.0
 11
71.502827
 21
268.260842
 31
0.0
  0
LINE
  5
48B
330
1F
100
AcDbEntity
  8
LC-002-100-D00-0
 62
     7
370
    50
100
AcDbLine
 10
72.00283
 20
268.260841
 30
0.0
 11
71.502827
 21
268.260842
 31
0.0
  0
ARC
  5
48C
330
1F
100
AcDbEntity
  8
LC-002-100-D00-0
 62
     7
370
    50
100
AcDbCircle
 10
71.00283
 20
269.760841
 30
0.0
 40
1.802775637732184
100
AcDbArc
 50
303.690068
 51
56.309932
  0
LINE
  5
48D
330
1F
100
AcDbEntity
  8
LC-002-100-D00-0
 62
     7
370
    50
100
AcDbLine
 10
72.002828
 20
285.860841
 30
0.0
 11
72.00283
 21
271.260841
 31
0.0
  0
LINE
  5
48E
330
1F
100
AcDbEntity
  8
LC-002-100-D00-0
 62
     7
370
    50
100
AcDbLine
 10
73.00283
 20
286.860841
 30
0.0
 11
72.002828
 21
285.860841
 31
0.0
  0
LINE
  5
48F
330
1F
100
AcDbEntity
  8
LC-002-100-D00-0
 62
     7
370
    50
100
AcDbLine
 10
79.002827
 20
286.860841
 30
0.0
 11
73.00283
 21
286.860841
 31
0.0
  0
LINE
  5
490
330
1F
100
AcDbEntity
  8
LC-002-100-D00-0
 62
     7
370
    50
100
AcDbLine
 10
80.002829
 20
285.860841
 30
0.0
 11
79.002827
 21
286.860841
 31
0.0
  0
LINE
  5
491
330
1F
100
AcDbEntity
  8
LC-002-100-D00-0
 62
     7
370
    50
100
AcDbLine
 10
80.00283
 20
271.260841
 30
0.0
 11
80.002829
 21
285.860841
 31
0.0
  0
ARC
  5
492
330
1F
100
AcDbEntity
  8
LC-002-100-D00-0
 62
     7
370
    50
100
AcDbCircle
 10
81.00283
 20
269.760841
 30
0.0
 40
1.802775637732121
100
AcDbArc
 50
123.690068
 51
236.309932
  0
LINE
  5
493
330
1F
100
AcDbEntity
  8
LC-002-100-D00-0
 62
     7
370
    50
100
AcDbLine
 10
80.50283
 20
268.260842
 30
0.0
 11
80.00283
 21
268.260841
 31
0.0
  0
LINE
  5
494
330
1F
100
AcDbEntity
  8
LC-002-100-D00-0
 62
     7
370
    50
100
AcDbLine
 10
80.50283
 20
268.260842
 30
0.0
 11
80.50283
 21
266.86084
 31
0.0
  0
LINE
  5
495
330
1F
100
AcDbEntity
  8
LC-002-100-D00-0
 62
     7
370
    50
100
AcDbLine
 10
80.50283
 20
266.86084
 30
0.0
 11
82.013445
 21
266.860841
 31
0.0
  0
ARC
  5
496
330
1F
100
AcDbEntity
  8
LC-002-100-D00-0
 62
     7
370
    50
100
AcDbCircle
 10
82.013445
 20
262.860841
 30
0.0
 40
3.999999999999653
100
AcDbArc
 50
75.0
 51
90.0
  0
LINE
  5
497
330
1F
100
AcDbEntity
  8
LC-002-100-D00-0
 62
     7
370
    50
100
AcDbLine
 10
100.882392
 20
261.946026
 30
0.0
 11
83.048721
 21
266.724544
 31
0.0
  0
ARC
  5
498
330
1F
100
AcDbEntity
  8
LC-002-100-D00-0
 62
     7
370
    50
100
AcDbCircle
 10
101.52944
 20
264.360841
 30
0.0
 40
2.500000000000091
100
AcDbArc
 50
255.0
 51
270.0
  0
LINE
  5
499
330
1F
100
AcDbEntity
  8
LC-002-100-D00-0
 62
     7
370
    50
100
AcDbLine
 10
106.925621
 20
261.760842
 30
0.0
 11
106.925621
 21
261.860841
 31
0.0
  0
LINE
  5
49A
330
1F
100
AcDbEntity
  8
LC-002-100-D00-0
 62
     7
370
    50
100
AcDbLine
 10
107.449457
 20
261.760842
 30
0.0
 11
106.925621
 21
261.760842
 31
0.0
  0
LINE
  5
49B
330
1F
100
AcDbEntity
  8
LC-002-100-D00-0
 62
     7
370
    50
100
AcDbLine
 10
107.449457
 20
261.860841
 30
0.0
 11
107.449457
 21
261.760842
 31
0.0
  0
LINE
  5
49C
330
1F
100
AcDbEntity
  8
LC-002-100-D00-0
 62
     7
370
    50
100
AcDbLine
 10
108.143702
 20
261.760842
 30
0.0
 11
108.143702
 21
261.860841
 31
0.0
  0
LINE
  5
49D
330
1F
100
AcDbEntity
  8
LC-002-100-D00-0
 62
     7
370
    50
100
AcDbLine
 10
108.668051
 20
261.760842
 30
0.0
 11
108.143702
 21
261.760842
 31
0.0
  0
LINE
  5
49E
330
1F
100
AcDbEntity
  8
LC-002-100-D00-0
 62
     7
370
    50
100
AcDbLine
 10
108.668051
 20
261.860841
 30
0.0
 11
108.668051
 21
261.760842
 31
0.0
  0
LINE
  5
49F
330
1F
100
AcDbEntity
  8
LC-002-100-D00-0
 62
     7
370
    50
100
AcDbLine
 10
120.70283
 20
255.360841
 30
0.0
 11
119.20283
 21
255.360839
 31
0.0
  0
ARC
  5
4A0
330
1F
100
AcDbEntity
  8
LC-002-100-D00-0
 62
     7
370
    50
100
AcDbCircle
 10
101.52944
 20
264.360841
 30
0.0
 40
3.999999999999902
100
AcDbArc
 50
255.0
 51
270.0
  0
LINE
  5
4A1
330
1F
100
AcDbEntity
  8
LC-002-100-D00-0
 62
     7
370
    50
100
AcDbLine
 10
100.494164
 20
260.497138
 30
0.0
 11
82.660492
 21
265.275656
 31
0.0
  0
ARC
  5
4A2
330
1F
100
AcDbEntity
  8
LC-002-100-D00-0
 62
     7
370
    50
100
AcDbCircle
 10
82.013445
 20
262.860841
 30
0.0
 40
2.500000000000091
100
AcDbArc
 50
75.0
 51
90.0
  0
LINE
  5
4A3
330
1F
100
AcDbEntity
  8
LC-002-100-D00-0
 62
     7
370
    50
100
AcDbLine
 10
-65.99717
 20
265.360841
 30
0.0
 11
82.013445
 21
265.360841
 31
0.0
  0
ARC
  5
4A4
330
1F
100
AcDbEntity
  8
LC-002-100-D00-0
 62
     7
370
    50
100
AcDbCircle
 10
-65.99717
 20
274.860841
 30
0.0
 40
9.500000000000114
100
AcDbArc
 50
180.0
 51
270.0
  0
LINE
  5
4A5
330
1F
100
AcDbEntity
  8
LC-002-100-D00-0
 62
     7
370
    50
100
AcDbLine
 10
-75.49717
 20
284.360841
 30
0.0
 11
-75.49717
 21
274.860841
 31
0.0
  0
ARC
  5
4A6
330
1F
100
AcDbEntity
  8
LC-002-100-D00-0
 62
     7
370
    50
100
AcDbCircle
 10
-76.99717
 20
284.360841
 30
0.0
 40
1.5
100
AcDbArc
 50
0.0
 51
90.0
  0
LINE
  5
4A7
330
1F
100
AcDbEntity
  8
LC-002-100-D00-0
 62
     7
370
    50
100
AcDbLine
 10
-123.99717
 20
287.360841
 30
0.0
 11
-123.997182
 21
285.860841
 31
0.0
  0
ARC
  5
4A8
330
1F
100
AcDbEntity
  8
LC-002-100-D00-0
 62
     7
370
    50
100
AcDbCircle
 10
-76.99717
 20
284.360841
 30
0.0
 40
3.000000000000341
100
AcDbArc
 50
0.0
 51
90.0
  0
LINE
  5
4A9
330
1F
100
AcDbEntity
  8
LC-002-100-D00-0
 62
     7
370
    50
100
AcDbLine
 10
-73.99717
 20
284.360841
 30
0.0
 11
-73.99717
 21
274.860841
 31
0.0
  0
ARC
  5
4AA
330
1F
100
AcDbEntity
  8
LC-002-100-D00-0
 62
     7
370
    50
100
AcDbCircle
 10
-65.99717
 20
274.860841
 30
0.0
 40
8.000000000000114
100
AcDbArc
 50
180.0
 51
270.0
  0
LINE
  5
4AB
330
1F
100
AcDbEntity
  8
LC-002-100-D00-0
 62
     7
370
    50
100
AcDbLine
 10
-65.99717
 20
266.860841
 30
0.0
 11
-48.49717
 21
266.86084
 31
0.0
  0
LINE
  5
4AC
330
1F
100
AcDbEntity
  8
LC-002-100-D00-0
 62
     7
370
    50
100
AcDbLine
 10
-48.49717
 20
266.86084
 30
0.0
 11
-48.49717
 21
268.260842
 31
0.0
  0
LINE
  5
4AD
330
1F
100
AcDbEntity
  8
LC-002-100-D00-0
 62
     7
370
    50
100
AcDbLine
 10
-47.99717
 20
268.260841
 30
0.0
 11
-48.49717
 21
268.260842
 31
0.0
  0
ARC
  5
4AE
330
1F
100
AcDbEntity
  8
LC-002-100-D00-0
 62
     7
370
    50
100
AcDbCircle
 10
-48.99717
 20
269.760841
 30
0.0
 40
1.802775637732058
100
AcDbArc
 50
303.690068
 51
56.309932
  0
LINE
  5
4AF
330
1F
100
AcDbEntity
  8
LC-002-100-D00-0
 62
     7
370
    50
100
AcDbLine
 10
108.143702
 20
261.860841
 30
0.0
 11
107.449457
 21
261.860841
 31
0.0
  0
LINE
  5
4B0
330
1F
100
AcDbEntity
  8
LC-002-100-D00-0
 62
     7
370
    50
100
AcDbLine
 10
106.925621
 20
261.860841
 30
0.0
 11
101.52944
 21
261.860841
 31
0.0
  0
LINE
  5
4B1
330
1F
100
AcDbEntity
  8
LC-002-100-D00-0
 62
     7
370
    50
100
AcDbLine
 10
118.20283
 20
261.860841
 30
0.0
 11
108.668051
 21
261.860841
 31
0.0
  0
LINE
  5
4B2
330
1F
100
AcDbEntity
  8
LC-002-100-D00-0
 62
     7
370
    50
100
AcDbLine
 10
118.20283
 20
260.360841
 30
0.0
 11
101.52944
 21
260.360841
 31
0.0
  0
LINE
  5
4B3
330
1F
100
AcDbEntity
  8
LC-002-100-D00-0
 62
     7
370
    50
100
AcDbLine
 10
-76.99717
 20
285.860841
 30
0.0
 11
-123.997182
 21
285.860841
 31
0.0
  0
LINE
  5
4B4
330
1F
100
AcDbEntity
  8
LC-002-100-D00-0
 62
     7
370
    50
100
AcDbLine
 10
-76.99717
 20
287.360841
 30
0.0
 11
-123.99717
 21
287.360841
 31
0.0
  0
LINE
  5
4B5
330
1F
100
AcDbEntity
  8
LC-002-100-D00-0
 62
     7
370
    50
100
AcDbLine
 10
108.143702
 20
261.860841
 30
0.0
 11
108.668051
 21
261.860841
 31
0.0
  0
LINE
  5
4B6
330
1F
100
AcDbEntity
  8
LC-002-100-D00-0
 62
     7
370
    50
100
AcDbLine
 10
106.925621
 20
261.860841
 30
0.0
 11
107.449457
 21
261.860841
 31
0.0
  0
ELLIPSE
  5
4B7
330
1F
100
AcDbEntity
  8
LC-002-100-D00-0
 62
     7
370
    50
100
AcDbEllipse
 10
281.024647
 20
262.860841
 30
0.0
 11
0.0
 21
-2.500000152587886
 31
0.0
210
0.0
220
0.0
230
0.9999999999999999
 40
0.027578
 41
0.0000000000065958
 42
0.3217505544024408
  0
ELLIPSE
  5
4B8
330
1F
100
AcDbEntity
  8
LC-002-100-D00-0
 62
     7
370
    50
100
AcDbEllipse
 10
70.981013
 20
262.860841
 30
0.0
 11
0.0
 21
-2.500000045776367
 31
0.0
210
0.0
220
0.0
230
1.0
 40
0.027578
 41
5.961434752783048
 42
6.283185307177732
  0
LINE
  5
4B9
330
1F
100
AcDbEntity
  8
LC-002-100-D00-0
 62
     7
370
    50
100
AcDbLine
 10
281.002827
 20
265.232188
 30
0.0
 11
281.002827
 21
260.5668
 31
0.0
  0
LINE
  5
4BA
330
1F
100
AcDbEntity
  8
LC-002-100-D00-0
 62
     7
370
    50
100
AcDbLine
 10
71.002833
 20
265.232188
 30
0.0
 11
71.002833
 21
260.5668
 31
0.0
  0
INSERT
  5
4C4
330
1F
100
AcDbEntity
  8
LC-002-100-D00-0
 62
     7
370
    50
100
AcDbBlockReference
  2
KLON16
 10
0.0
 20
0.0
 30
0.0
  0
INSERT
  5
4CE
330
1F
100
AcDbEntity
  8
LC-002-100-D00-0
 62
     7
370
    50
100
AcDbBlockReference
  2
KLON17
 10
0.0
 20
0.0
 30
0.0
  0
LINE
  5
4CF
330
1F
100
AcDbEntity
  8
LC-002-100-D00-0
 62
     7
370
    50
100
AcDbLine
 10
281.002819
 20
260.36084
 30
0.0
 11
281.002797
 21
260.566108
 31
0.0
  0
LINE
  5
4D0
330
1F
100
AcDbEntity
  8
LC-002-100-D00-0
 62
     7
370
    50
100
AcDbLine
 10
281.002827
 20
260.36084
 30
0.0
 11
408.910513
 21
265.029005
 31
0.0
  0
LINE
  5
4D1
330
1F
100
AcDbEntity
  8
LC-002-100-D00-0
 62
     7
370
    50
100
AcDbLine
 10
281.002819
 20
260.36084
 30
0.0
 11
281.002819
 21
260.36084
 31
0.0
  0
LINE
  5
4D2
330
1F
100
AcDbEntity
  8
LC-002-100-D00-0
 62
     7
370
    50
100
AcDbLine
 10
71.002841
 20
260.36084
 30
0.0
 11
71.002863
 21
260.566108
 31
0.0
  0
LINE
  5
4D3
330
1F
100
AcDbEntity
  8
LC-002-100-D00-0
 62
     7
370
    50
100
AcDbLine
 10
71.002833
 20
260.36084
 30
0.0
 11
-56.904853
 21
265.029005
 31
0.0
  0
LINE
  5
4D4
330
1F
100
AcDbEntity
  8
LC-002-100-D00-0
 62
     7
370
    50
100
AcDbLine
 10
71.002841
 20
260.36084
 30
0.0
 11
71.002841
 21
260.36084
 31
0.0
  0
LINE
  5
4D5
330
1F
100
AcDbEntity
  8
LC-002-100-D00-0
 62
     7
370
    50
100
AcDbLine
 10
217.788987
 20
253.360841
 30
0.0
 11
220.181533
 21
253.360841
 31
0.0
  0
LINE
  5
4D6
330
1F
100
AcDbEntity
  8
LC-002-100-D00-0
 62
     7
370
    50
100
AcDbLine
 10
221.152745
 20
251.860841
 30
0.0
 11
221.248332
 21
251.868901
 31
0.0
  0
LINE
  5
4D7
330
1F
100
AcDbEntity
  8
LC-002-100-D00-0
 62
     7
370
    50
100
AcDbLine
 10
221.152745
 20
251.860841
 30
0.0
 11
217.788987
 21
251.860841
 31
0.0
  0
LINE
  5
4D8
330
1F
100
AcDbEntity
  8
LC-002-100-D00-0
 62
     7
370
    50
100
AcDbLine
 10
130.757328
 20
251.868901
 30
0.0
 11
130.852915
 21
251.860841
 31
0.0
  0
LINE
  5
4D9
330
1F
100
AcDbEntity
  8
LC-002-100-D00-0
 62
     7
370
    50
100
AcDbLine
 10
131.824127
 20
253.360841
 30
0.0
 11
134.216674
 21
253.360841
 31
0.0
  0
LINE
  5
4DA
330
1F
100
AcDbEntity
  8
LC-002-100-D00-0
 62
     7
370
    50
100
AcDbLine
 10
134.216674
 20
251.860841
 30
0.0
 11
130.852915
 21
251.860841
 31
0.0
  0
LINE
  5
4DB
330
1F
100
AcDbEntity
  8
LC-002-100-D00-0
 62
     7
370
    50
100
AcDbLine
 10
217.788987
 20
253.360841
 30
0.0
 11
217.012058
 21
253.360841
 31
0.0
  0
LINE
  5
4DC
330
1F
100
AcDbEntity
  8
LC-002-100-D00-0
 62
     7
370
    50
100
AcDbLine
 10
217.788987
 20
251.860841
 30
0.0
 11
217.012058
 21
251.860841
 31
0.0
  0
LINE
  5
4DD
330
1F
100
AcDbEntity
  8
LC-002-100-D00-0
 62
     7
370
    50
100
AcDbLine
 10
134.216674
 20
253.360841
 30
0.0
 11
134.993602
 21
253.360841
 31
0.0
  0
LINE
  5
4DE
330
1F
100
AcDbEntity
  8
LC-002-100-D00-0
 62
     7
370
    50
100
AcDbLine
 10
134.216674
 20
251.860841
 30
0.0
 11
134.993602
 21
251.860841
 31
0.0
  0
LINE
  5
4DF
330
1F
100
AcDbEntity
  8
LC-002-100-D00-0
 62
     7
370
    50
100
AcDbLine
 10
250.47622
 20
260.360841
 30
0.0
 11
252.57682
 21
260.36084
 31
0.0
  0
LINE
  5
4E0
330
1F
100
AcDbEntity
  8
LC-002-100-D00-0
 62
     7
370
    50
100
AcDbLine
 10
101.52944
 20
260.360841
 30
0.0
 11
99.42884
 21
260.36084
 31
0.0
  0
LINE
  5
4E1
330
1F
100
AcDbEntity
  8
LC-002-100-D00-0
 62
     7
370
    50
100
AcDbLine
 10
215.733176
 20
253.360841
 30
0.0
 11
217.012058
 21
253.360841
 31
0.0
  0
LINE
  5
4E2
330
1F
100
AcDbEntity
  8
LC-002-100-D00-0
 62
     7
370
    50
100
AcDbLine
 10
217.012058
 20
251.860841
 30
0.0
 11
215.717245
 21
251.860841
 31
0.0
  0
LINE
  5
4E3
330
1F
100
AcDbEntity
  8
LC-002-100-D00-0
 62
     7
370
    50
100
AcDbLine
 10
134.993602
 20
253.360841
 30
0.0
 11
136.272484
 21
253.360841
 31
0.0
  0
LINE
  5
4E4
330
1F
100
AcDbEntity
  8
LC-002-100-D00-0
 62
     7
370
    50
100
AcDbLine
 10
136.288415
 20
251.860841
 30
0.0
 11
134.993602
 21
251.860841
 31
0.0
  0
LINE
  5
4E5
330
1F
100
AcDbEntity
  8
LC-002-100-D00-0
 62
     7
370
    50
100
AcDbLine
 10
252.57682
 20
260.36084
 30
0.0
 11
281.002819
 21
260.36084
 31
0.0
  0
LINE
  5
4E6
330
1F
100
AcDbEntity
  8
LC-002-100-D00-0
 62
     7
370
    50
100
AcDbLine
 10
99.42884
 20
260.36084
 30
0.0
 11
71.002841
 21
260.36084
 31
0.0
  0
ARC
  5
4E7
330
1F
100
AcDbEntity
  8
LC-002-100-D00-0
 62
     7
370
    50
100
AcDbCircle
 10
220.518458
 20
253.294992
 30
0.0
 40
1.602014939990142
100
AcDbArc
 50
297.103406
 51
2.355668
  0
INSERT
  5
4F0
330
1F
100
AcDbEntity
  8
LC-002-100-D00-0
 62
     7
370
    50
100
AcDbBlockReference
  2
KLON18
 10
0.0
 20
0.0
 30
0.0
  0
INSERT
  5
4FD
330
1F
100
AcDbEntity
  8
LC-002-100-D00-0
 62
     7
370
    50
100
AcDbBlockReference
  2
KLON19
 10
0.0
 20
0.0
 30
0.0
  0
INSERT
  5
50A
330
1F
100
AcDbEntity
  8
LC-002-100-D00-0
 62
     7
370
    50
100
AcDbBlockReference
  2
KLON20
 10
0.0
 20
0.0
 30
0.0
  0
LINE
  5
50B
330
1F
100
AcDbEntity
  8
LC-002-100-D00-0
 62
     7
370
    50
100
AcDbLine
 10
423.50283
 20
287.360841
 30
0.0
 11
429.00283
 21
287.360841
 31
0.0
  0
LINE
  5
50C
330
1F
100
AcDbEntity
  8
LC-002-100-D00-0
 62
     7
370
    50
100
AcDbLine
 10
-71.49717
 20
287.360841
 30
0.0
 11
-76.99717
 21
287.360841
 31
0.0
  0
LINE
  5
50D
330
1F
100
AcDbEntity
  8
LC-002-100-D00-0
 62
     7
370
    50
100
AcDbLine
 10
423.50283
 20
287.360841
 30
0.0
 11
413.25283
 21
287.360841
 31
0.0
  0
LINE
  5
50E
330
1F
100
AcDbEntity
  8
LC-002-100-D00-0
 62
     7
370
    50
100
AcDbLine
 10
378.75283
 20
287.360841
 30
0.0
 11
293.25283
 21
287.360841
 31
0.0
  0
LINE
  5
50F
330
1F
100
AcDbEntity
  8
LC-002-100-D00-0
 62
     7
370
    50
100
AcDbLine
 10
258.75283
 20
287.360841
 30
0.0
 11
93.25283
 21
287.360841
 31
0.0
  0
LINE
  5
510
330
1F
100
AcDbEntity
  8
LC-002-100-D00-0
 62
     7
370
    50
100
AcDbLine
 10
58.75283
 20
287.360841
 30
0.0
 11
-26.74717
 21
287.360841
 31
0.0
  0
LINE
  5
511
330
1F
100
AcDbEntity
  8
LC-002-100-D00-0
 62
     7
370
    50
100
AcDbLine
 10
-61.24717
 20
287.360841
 30
0.0
 11
-71.49717
 21
287.360841
 31
0.0
  0
LINE
  5
512
330
1F
100
AcDbEntity
  8
LC-002-100-D00-0
 62
     7
370
    50
100
AcDbLine
 10
-123.99717
 20
287.360841
 30
0.0
 11
-123.99717
 21
288.860841
 31
0.0
  0
LINE
  5
513
330
1F
100
AcDbEntity
  8
LC-002-100-D00-0
 62
     7
370
    50
100
AcDbLine
 10
476.00283
 20
288.860841
 30
0.0
 11
476.00283
 21
287.360841
 31
0.0
  0
ARC
  5
514
330
1F
100
AcDbEntity
  8
LC-002-100-D00-0
 62
     7
370
    50
100
AcDbCircle
 10
-118.99717
 20
328.360841
 30
0.0
 40
5.0
100
AcDbArc
 50
90.0
 51
180.0
  0
ARC
  5
515
330
1F
100
AcDbEntity
  8
LC-002-100-D00-0
 62
     7
370
    50
100
AcDbCircle
 10
471.00283
 20
328.360841
 30
0.0
 40
5.0
100
AcDbArc
 50
0.0
 51
90.0
  0
LINE
  5
516
330
1F
100
AcDbEntity
  8
LC-002-100-D00-0
 62
     7
370
    50
100
AcDbLine
 10
-123.99717
 20
328.360841
 30
0.0
 11
-123.99717
 21
288.860841
 31
0.0
  0
LINE
  5
517
330
1F
100
AcDbEntity
  8
LC-002-100-D00-0
 62
     7
370
    50
100
AcDbLine
 10
476.00283
 20
328.360841
 30
0.0
 11
476.00283
 21
288.860841
 31
0.0
  0
DIMENSION
  5
518
330
1F
100
AcDbEntity
  8
LC-002-100-D00-0
 62
     7
370
    25
100
AcDbDimension
  2
*D25
 10
476.00283
 20
401.728349
 30
0.0
 11
174.234328
 21
423.728349
 31
0.0
 70
   160
  1
600
 71
     5
 42
600.0
  3
LC-DIM-L-0100-02-02
100
AcDbAlignedDimension
 13
-123.99717
 23
332.360841
 33
0.0
 14
476.00283
 24
332.360841
 34
0.0
100
AcDbRotatedDimension
  0
DIMENSION
  5
525
330
1F
100
AcDbEntity
  8
LC-002-100-D00-0
 62
     7
370
    25
100
AcDbDimension
  2
*D26
 10
426.00283
 20
360.862896
 30
0.0
 11
173.624396
 21
382.862896
 31
0.0
 70
   160
  1
500
 71
     5
 42
500.0
  3
LC-DIM-L-0100-02-02
100
AcDbAlignedDimension
 13
-73.99717
 23
284.360841
 33
0.0
 14
426.00283
 24
284.360841
 34
0.0
100
AcDbRotatedDimension
  0
DIMENSION
  5
532
330
1F
100
AcDbEntity
  8
LC-002-100-D00-0
 62
     7
370
    25
100
AcDbDimension
  2
*D27
 10
41.269124
 20
245.860841
 30
0.0
 11
19.269124
 21
224.238099
 31
0.0
 70
   160
  1
50
 71
     5
 42
50.4
 53
90.0
  3
LC-DIM-L-0100-02-02
100
AcDbAlignedDimension
 13
147.00283
 23
195.460841
 33
0.0
 14
143.074465
 24
245.860841
 34
0.0
 50
90.0
100
AcDbRotatedDimension
  0
DIMENSION
  5
53F
330
1F
100
AcDbEntity
  8
LC-002-100-D00-0
 62
     7
370
    25
100
AcDbDimension
  2
*D28
 10
250.00283
 20
128.478755
 30
0.0
 11
174.234328
 21
150.478755
 31
0.0
 70
   160
  1
148
 71
     5
 42
148.0
  3
LC-DIM-L-0100-02-02
100
AcDbAlignedDimension
 13
102.00283
 23
196.360841
 33
0.0
 14
250.00283
 24
236.610841
 34
0.0
100
AcDbRotatedDimension
  0
DIMENSION
  5
54C
330
1F
100
AcDbEntity
  8
LC-002-100-D00-0
 62
     7
370
    25
100
AcDbDimension
  2
*D29
 10
385.502627
 20
82.942841
 30
0.0
 11
240.049598
 21
104.942841
 31
0.0
 70
   160
  1
284
 71
     5
 42
283.499797
  3
LC-DIM-L-0100-02-02
100
AcDbAlignedDimension
 13
102.00283
 23
196.360841
 33
0.0
 14
385.502627
 24
185.798663
 34
0.0
100
AcDbRotatedDimension
  0
DIMENSION
  5
559
330
1F
100
AcDbEntity
  8
LC-002-100-D00-0
 62
     7
370
    25
100
AcDbDimension
  2
*D30
 10
492.477648
 20
209.860841
 30
0.0
 11
470.477648
 21
243.382841
 31
0.0
 70
   160
  1
77,5
 71
     5
 42
77.5
 53
90.0
  3
LC-DIM-L-0100-02-02
100
AcDbAlignedDimension
 13
476.00283
 23
287.360841
 33
0.0
 14
392.002627
 24
209.860841
 34
0.0
 50
90.0
100
AcDbRotatedDimension
  0
DIMENSION
  5
566
330
1F
100
AcDbEntity
  8
LC-002-100-D00-0
 62
     7
370
    25
100
AcDbDimension
  2
*D31
 10
533.333055
 20
177.360841
 30
0.0
 11
511.333055
 21
235.822841
 31
0.0
 70
   160
  1
110
 71
     5
 42
110.0
 53
90.0
  3
LC-DIM-L-0100-02-02
100
AcDbAlignedDimension
 13
476.00283
 23
287.360841
 33
0.0
 14
230.02071
 24
177.360841
 34
0.0
 50
90.0
100
AcDbRotatedDimension
  0
LINE
  5
573
330
1F
100
AcDbEntity
  8
LC-002-100-D00-0
 62
     7
370
    25
100
AcDbLine
 10
237.723638
 20
256.360841
 30
0.0
 11
241.00283
 21
259.640033
 31
0.0
  0
INSERT
  5
579
330
1F
100
AcDbEntity
  8
LC-002-100-D00-0
 62
     7
370
    50
100
AcDbBlockReference
  2
KLON21
 10
0.0
 20
0.0
 30
0.0
  0
LINE
  5
57A
330
1F
100
AcDbEntity
  8
LC-002-100-D00-0
 62
     7
370
    25
100
AcDbLine
 10
102.00283
 20
255.34387
 30
0.0
 11
107.019801
 21
260.360841
 31
0.0
  0
INSERT
  5
58A
330
1F
100
AcDbEntity
  8
LC-002-100-D00-0
 62
     7
370
    25
100
AcDbBlockReference
  2
KLON22
 10
0.0
 20
0.0
 30
0.0
  0
INSERT
  5
590
330
1F
100
AcDbEntity
  8
LC-002-100-D00-0
 62
     7
370
    25
100
AcDbBlockReference
  2
KLON23
 10
0.0
 20
0.0
 30
0.0
  0
LINE
  5
591
330
1F
100
AcDbEntity
  8
LC-002-100-D00-0
 62
     7
370
    25
100
AcDbLine
 10
285.273559
 20
236.558841
 30
0.0
 11
287.552626
 21
238.837908
 31
0.0
  0
INSERT
  5
599
330
1F
100
AcDbEntity
  8
LC-002-100-D00-0
 62
     7
370
    25
100
AcDbBlockReference
  2
KLON24
 10
0.0
 20
0.0
 30
0.0
  0
INSERT
  5
5A1
330
1F
100
AcDbEntity
  8
LC-002-100-D00-0
 62
     7
370
    25
100
AcDbBlockReference
  2
KLON25
 10
0.0
 20
0.0
 30
0.0
  0
INSERT
  5
5B0
330
1F
100
AcDbEntity
  8
LC-002-100-D00-0
 62
     7
370
    25
100
AcDbBlockReference
  2
KLON26
 10
0.0
 20
0.0
 30
0.0
  0
INSERT
  5
5B7
330
1F
100
AcDbEntity
  8
LC-002-100-D00-0
 62
     7
370
    25
100
AcDbBlockReference
  2
KLON27
 10
0.0
 20
0.0
 30
0.0
  0
INSERT
  5
5BE
330
1F
100
AcDbEntity
  8
LC-002-100-D00-0
 62
     7
370
    25
100
AcDbBlockReference
  2
KLON28
 10
0.0
 20
0.0
 30
0.0
  0
INSERT
  5
5CE
330
1F
100
AcDbEntity
  8
LC-002-100-D00-0
 62
     7
370
    25
100
AcDbBlockReference
  2
KLON29
 10
0.0
 20
0.0
 30
0.0
  0
INSERT
  5
5E0
330
1F
100
AcDbEntity
  8
LC-002-100-D00-0
 62
     7
370
    25
100
AcDbBlockReference
  2
KLON30
 10
0.0
 20
0.0
 30
0.0
  0
LINE
  5
5E1
330
1F
100
AcDbEntity
  8
LC-002-100-D00-0
 62
     7
370
    50
100
AcDbLine
 10
-40.59717
 20
269.898347
 30
0.0
 11
-38.79717
 21
271.698347
 31
0.0
  0
LINE
  5
5E2
330
1F
100
AcDbEntity
  8
LC-002-100-D00-0
 62
     7
370
    25
100
AcDbLine
 10
-53.74717
 20
279.198988
 30
0.0
 11
-47.89717
 21
285.048988
 31
0.0
  0
INSERT
  5
5E8
330
1F
100
AcDbEntity
  8
LC-002-100-D00-0
 62
     7
370
    25
100
AcDbBlockReference
  2
KLON31
 10
0.0
 20
0.0
 30
0.0
  0
LINE
  5
5E9
330
1F
100
AcDbEntity
  8
LC-002-100-D00-0
 62
     7
370
    50
100
AcDbLine
 10
390.263592
 20
274.196959
 30
0.0
 11
392.015152
 21
275.948519
 31
0.0
  0
INSERT
  5
5EF
330
1F
100
AcDbEntity
  8
LC-002-100-D00-0
 62
     7
370
    25
100
AcDbBlockReference
  2
KLON32
 10
0.0
 20
0.0
 30
0.0
  0
LINE
  5
5F0
330
1F
100
AcDbEntity
  8
LC-002-100-D00-0
 62
     7
370
    25
100
AcDbLine
 10
399.90283
 20
283.836198
 30
0.0
 11
403.427473
 21
287.360841
 31
0.0
  0
LINE
  5
5F1
330
1F
100
AcDbEntity
  8
LC-002-100-D00-0
 62
     7
370
    50
100
AcDbLine
 10
70.118521
 20
268.360841
 30
0.0
 11
72.60283
 21
270.84515
 31
0.0
  0
INSERT
  5
5F7
330
1F
100
AcDbEntity
  8
LC-002-100-D00-0
 62
     7
370
    25
100
AcDbBlockReference
  2
KLON33
 10
0.0
 20
0.0
 30
0.0
  0
LINE
  5
5F8
330
1F
100
AcDbEntity
  8
LC-002-100-D00-0
 62
     7
370
    25
100
AcDbLine
 10
79.90283
 20
278.145151
 30
0.0
 11
89.11852
 21
287.360841
 31
0.0
  0
LINE
  5
5F9
330
1F
100
AcDbEntity
  8
LC-002-100-D00-0
 62
     7
370
    25
100
AcDbLine
 10
265.643968
 20
284.281173
 30
0.0
 11
268.723636
 21
287.360841
 31
0.0
  0
INSERT
  5
5FF
330
1F
100
AcDbEntity
  8
LC-002-100-D00-0
 62
     7
370
    25
100
AcDbBlockReference
  2
KLON34
 10
0.0
 20
0.0
 30
0.0
  0
LINE
  5
600
330
1F
100
AcDbEntity
  8
LC-002-100-D00-0
  6
DASHDOT
 62
     7
370
    25
100
AcDbLine
 10
392.002627
 20
209.860841
 30
0.0
 11
288.977611
 21
209.860841
 31
0.0
  0
LINE
  5
601
330
1F
100
AcDbEntity
  8
LC-002-100-D00-0
  6
DASHDOT
 62
     7
370
    25
100
AcDbLine
 10
176.00283
 20
287.360841
 30
0.0
 11
176.00283
 21
174.860841
 31
0.0
  0
LINE
  5
602
330
1F
100
AcDbEntity
  8
LC-002-100-D00-0
  6
DASHDOT
 62
     7
370
    25
100
AcDbLine
 10
276.00283
 20
259.360841
 30
0.0
 11
276.00283
 21
293.360841
 31
0.0
  0
LINE
  5
603
330
1F
100
AcDbEntity
  8
LC-002-100-D00-0
  6
DASHDOT
 62
     7
370
    25
100
AcDbLine
 10
396.00283
 20
259.360841
 30
0.0
 11
396.00283
 21
293.360841
 31
0.0
  0
LINE
  5
604
330
1F
100
AcDbEntity
  8
LC-002-100-D00-0
  6
DASHDOT
 62
     7
370
    25
100
AcDbLine
 10
76.00283
 20
259.360841
 30
0.0
 11
76.00283
 21
293.360841
 31
0.0
  0
LINE
  5
605
330
1F
100
AcDbEntity
  8
LC-002-100-D00-0
  6
DASHDOT
 62
     7
370
    25
100
AcDbLine
 10
-43.99717
 20
259.360841
 30
0.0
 11
-43.99717
 21
293.360841
 31
0.0
  0
DIMENSION
  5
607
330
1F
100
AcDbEntity
  8
LC-003-003-----0
 62
     7
370
    25
100
AcDbDimension
  2
*D46
 10
-163.949635
 20
333.360841
 30
0.0
 11
-185.949635
 21
310.055318
 31
0.0
 70
   160
 71
     5
 42
46.0
 53
90.0
  3
LC-DIM-L-0100-02-02
100
AcDbAlignedDimension
 13
-123.99717
 23
287.360841
 33
0.0
 14
-118.99717
 24
333.360841
 34
0.0
 50
90.0
100
AcDbRotatedDimension
  0
DIMENSION
  5
614
330
1F
100
AcDbEntity
  8
LC-003-003-----0
 62
     7
370
    25
100
AcDbDimension
  2
*D47
 10
766.44688
 20
152.860841
 30
0.0
 11
744.44688
 21
228.262841
 31
0.0
 70
   160
  1
110-129,5
 71
     5
 42
134.5
 53
90.0
  3
LC-DIM-L-0100-02-02
100
AcDbAlignedDimension
 13
720.087213
 23
287.360841
 33
0.0
 14
716.587213
 24
152.860841
 34
0.0
 50
90.0
100
AcDbRotatedDimension
  0
ENDSEC
  0
SECTION
  2
OBJECTS
  0
DICTIONARY
  5
C
330
0
100
AcDbDictionary
281
     1
  3
ACAD_GROUP
350
D
  3
ACAD_LAYOUT
350
1A
  3
ACAD_MLINESTYLE
350
17
  3
ACAD_PLOTSETTINGS
350
19
  3
ACAD_PLOTSTYLENAME
350
E
  0
DICTIONARY
  5
D
102
{ACAD_REACTORS
330
C
102
}
330
C
100
AcDbDictionary
281
     1
  0
DICTIONARY
  5
1A
102
{ACAD_REACTORS
330
C
102
}
330
C
100
AcDbDictionary
281
     1
  3
Layout1
350
1E
  3
Layout2
350
26
  3
Model
350
22
  0
DICTIONARY
  5
17
102
{ACAD_REACTORS
330
C
102
}
330
C
100
AcDbDictionary
281
     1
  3
Standard
350
18
  0
DICTIONARY
  5
19
102
{ACAD_REACTORS
330
C
102
}
330
C
100
AcDbDictionary
281
     1
  0
ACDBDICTIONARYWDFLT
  5
E
102
{ACAD_REACTORS
330
C
102
}
330
C
100
AcDbDictionary
281
     1
  3
Normal
350
F
100
AcDbDictionaryWithDefault
340
F
  0
LAYOUT
  5
1E
102
{ACAD_REACTORS
330
1A
102
}
330
1A
100
AcDbPlotSettings
  1

  2

  4

  6

 40
0.0
 41
0.0
 42
0.0
 43
0.0
 44
0.0
 45
0.0
 46
0.0
 47
0.0
 48
0.0
 49
0.0
140
0.0
141
0.0
142
1.0
143
1.0
 70
   688
 72
     0
 73
     0
 74
     5
  7

 75
    16
147
1.0
148
0.0
149
0.0
100
AcDbLayout
  1
Layout1
 70
     1
 71
     1
 10
-380.214593
 20
-247.177159
 11
807.785407
 21
592.822841
 12
0.0
 22
0.0
 32
0.0
 14
-380.214593
 24
-247.177159
 34
0.0
 15
807.785407
 25
592.822841
 35
0.0
146
0.0
 13
0.0
 23
0.0
 33
0.0
 16
1.0
 26
0.0
 36
0.0
 17
0.0
 27
1.0
 37
0.0
 76
     0
330
1B
  0
LAYOUT
  5
26
102
{ACAD_REACTORS
330
1A
102
}
330
1A
100
AcDbPlotSettings
  1

  2

  4

  6

 40
0.0
 41
0.0
 42
0.0
 43
0.0
 44
0.0
 45
0.0
 46
0.0
 47
0.0
 48
0.0
 49
0.0
140
0.0
141
0.0
142
1.0
143
1.0
 70
   688
 72
     0
 73
     0
 74
     5
  7

 75
    16
147
1.0
148
0.0
149
0.0
100
AcDbLayout
  1
Layout2
 70
     1
 71
     2
 10
0.0
 20
0.0
 11
0.0
 21
0.0
 12
0.0
 22
0.0
 32
0.0
 14
0.0
 24
0.0
 34
0.0
 15
0.0
 25
0.0
 35
0.0
146
0.0
 13
0.0
 23
0.0
 33
0.0
 16
1.0
 26
0.0
 36
0.0
 17
0.0
 27
1.0
 37
0.0
 76
     0
330
23
  0
LAYOUT
  5
22
102
{ACAD_REACTORS
330
1A
102
}
330
1A
100
AcDbPlotSettings
  1

  2

  4

  6

 40
0.0
 41
0.0
 42
0.0
 43
0.0
 44
0.0
 45
0.0
 46
0.0
 47
0.0
 48
0.0
 49
0.0
140
0.0
141
0.0
142
1.0
143
1.0
 70
  1776
 72
     0
 73
     0
 74
     0
  7

 75
     0
147
1.0
148
0.0
149
0.0
100
AcDbLayout
  1
Model
 70
     1
 71
     0
 10
-380.214593
 20
-247.177159
 11
807.785407
 21
592.822841
 12
0.0
 22
0.0
 32
0.0
 14
-380.214593
 24
-247.177159
 34
0.0
 15
807.785407
 25
592.822841
 35
0.0
146
0.0
 13
0.0
 23
0.0
 33
0.0
 16
1.0
 26
0.0
 36
0.0
 17
0.0
 27
1.0
 37
0.0
 76
     0
330
1F
  0
MLINESTYLE
  5
18
102
{ACAD_REACTORS
330
17
102
}
330
17
100
AcDbMlineStyle
  2
Standard
 70
     0
  3

 62
   256
 51
90.0
 52
90.0
 71
     2
 49
0.5
 62
   256
  6
BYLAYER
 49
-0.5
 62
   256
  6
BYLAYER
  0
ACDBPLACEHOLDER
  5
F
102
{ACAD_REACTORS
330
E
102
}
330
E
  0
ENDSEC
  0
EOF
