  0
SECTION
  2
HEADER
  9
$ACADVER
  1
AC1015
  9
$ACADMAINTVER
 70
     6
  9
$DWGCODEPAGE
  3
ANSI_1252
  9
$INSBASE
 10
0.0
 20
0.0
 30
0.0
  9
$EXTMIN
 10
-839.701608
 20
-611.015114
 30
0.0
  9
$EXTMAX
 10
1260.298392
 20
873.984886
 30
0.0
  9
$LIMMIN
 10
-839.701608
 20
-611.015114
  9
$LIMMAX
 10
1260.298392
 20
873.984886
  9
$ORTHOMODE
 70
     0
  9
$REGENMODE
 70
     1
  9
$FILLMODE
 70
     1
  9
$QTEXTMODE
 70
     0
  9
$MIRRTEXT
 70
     1
  9
$LTSCALE
 40
5.0
  9
$ATTMODE
 70
     1
  9
$TEXTSIZE
 40
2.5
  9
$TRACEWID
 40
1.0
  9
$TEXTSTYLE
  7
Standard
  9
$CLAYER
  8
0
  9
$CELTYPE
  6
ByLayer
  9
$CECOLOR
 62
     7
  9
$CELTSCALE
 40
1.0
  9
$DISPSILH
 70
     0
  9
$DIMSCALE
 40
5.0
  9
$DIMASZ
 40
3.5
  9
$DIMEXO
 40
0.625
  9
$DIMDLI
 40
3.75
  9
$DIMRND
 40
0.0
  9
$DIMDLE
 40
0.0
  9
$DIMEXE
 40
1.25
  9
$DIMTP
 40
0.0
  9
$DIMTM
 40
0.0
  9
$DIMTXT
 40
3.5
  9
$DIMCEN
 40
2.5
  9
$DIMTSZ
 40
0.0
  9
$DIMTOL
 70
     0
  9
$DIMLIM
 70
     0
  9
$DIMTIH
 70
     0
  9
$DIMTOH
 70
     0
  9
$DIMSE1
 70
     0
  9
$DIMSE2
 70
     0
  9
$DIMTAD
 70
     1
  9
$DIMZIN
 70
     8
  9
$DIMBLK
  1

  9
$DIMASO
 70
     1
  9
$DIMSHO
 70
     1
  9
$DIMPOST
  1

  9
$DIMAPOST
  1

  9
$DIMALT
 70
     0
  9
$DIMALTD
 70
     3
  9
$DIMALTF
 40
0.03937
  9
$DIMLFAC
 40
1.0
  9
$DIMTOFL
 70
     1
  9
$DIMTVP
 40
0.0
  9
$DIMTIX
 70
     0
  9
$DIMSOXD
 70
     0
  9
$DIMSAH
 70
     0
  9
$DIMBLK1
  1

  9
$DIMBLK2
  1

  9
$DIMSTYLE
  2
ISO-25
  9
$DIMCLRD
 70
     0
  9
$DIMCLRE
 70
     0
  9
$DIMCLRT
 70
     0
  9
$DIMTFAC
 40
1.0
  9
$DIMGAP
 40
0.625
  9
$DIMJUST
 70
     0
  9
$DIMSD1
 70
     0
  9
$DIMSD2
 70
     0
  9
$DIMTOLJ
 70
     0
  9
$DIMTZIN
 70
     8
  9
$DIMALTZ
 70
     0
  9
$DIMALTTZ
 70
     0
  9
$DIMUPT
 70
     0
  9
$DIMDEC
 70
     2
  9
$DIMTDEC
 70
     2
  9
$DIMALTU
 70
     2
  9
$DIMALTTD
 70
     3
  9
$DIMTXSTY
  7
Standard
  9
$DIMAUNIT
 70
     0
  9
$DIMADEC
 70
     0
  9
$DIMALTRND
 40
0.0
  9
$DIMAZIN
 70
     0
  9
$DIMDSEP
 70
    44
  9
$DIMATFIT
 70
     3
  9
$DIMFRAC
 70
     0
  9
$DIMLDRBLK
  1

  9
$DIMLUNIT
 70
     2
  9
$DIMLWD
 70
    -2
  9
$DIMLWE
 70
    -2
  9
$DIMTMOVE
 70
     0
  9
$LUNITS
 70
     2
  9
$LUPREC
 70
     4
  9
$SKETCHINC
 40
1.0
  9
$FILLETRAD
 40
10.0
  9
$AUNITS
 70
     0
  9
$AUPREC
 70
     0
  9
$MENU
  1
.
  9
$ELEVATION
 40
0.0
  9
$PELEVATION
 40
0.0
  9
$THICKNESS
 40
0.0
  9
$LIMCHECK
 70
     0
  9
$CHAMFERA
 40
10.0
  9
$CHAMFERB
 40
10.0
  9
$CHAMFERC
 40
20.0
  9
$CHAMFERD
 40
0.0
  9
$SKPOLY
 70
     0
  9
$TDCREATE
 40
2456014.438885579
  9
$TDUCREATE
 40
2456014.355552245
  9
$TDUPDATE
 40
2456014.43888559
  9
$TDUUPDATE
 40
2456014.355552257
  9
$TDINDWG
 40
0.0000000116
  9
$TDUSRTIMER
 40
0.0000000116
  9
$USRTIMER
 70
     1
  9
$ANGBASE
 50
0.0
  9
$ANGDIR
 70
     0
  9
$PDMODE
 70
     0
  9
$PDSIZE
 40
0.0
  9
$PLINEWID
 40
0.0
  9
$SPLFRAME
 70
     0
  9
$SPLINETYPE
 70
     6
  9
$SPLINESEGS
 70
     8
  9
$HANDSEED
  5
72B
  9
$SURFTAB1
 70
     6
  9
$SURFTAB2
 70
     6
  9
$SURFTYPE
 70
     6
  9
$SURFU
 70
     6
  9
$SURFV
 70
     6
  9
$UCSBASE
  2

  9
$UCSNAME
  2

  9
$UCSORG
 10
0.0
 20
0.0
 30
0.0
  9
$UCSXDIR
 10
1.0
 20
0.0
 30
0.0
  9
$UCSYDIR
 10
0.0
 20
1.0
 30
0.0
  9
$UCSORTHOREF
  2

  9
$UCSORTHOVIEW
 70
     0
  9
$UCSORGTOP
 10
0.0
 20
0.0
 30
0.0
  9
$UCSORGBOTTOM
 10
0.0
 20
0.0
 30
0.0
  9
$UCSORGLEFT
 10
0.0
 20
0.0
 30
0.0
  9
$UCSORGRIGHT
 10
0.0
 20
0.0
 30
0.0
  9
$UCSORGFRONT
 10
0.0
 20
0.0
 30
0.0
  9
$UCSORGBACK
 10
0.0
 20
0.0
 30
0.0
  9
$PUCSBASE
  2

  9
$PUCSNAME
  2

  9
$PUCSORG
 10
0.0
 20
0.0
 30
0.0
  9
$PUCSXDIR
 10
1.0
 20
0.0
 30
0.0
  9
$PUCSYDIR
 10
0.0
 20
1.0
 30
0.0
  9
$PUCSORTHOREF
  2

  9
$PUCSORTHOVIEW
 70
     0
  9
$PUCSORGTOP
 10
0.0
 20
0.0
 30
0.0
  9
$PUCSORGBOTTOM
 10
0.0
 20
0.0
 30
0.0
  9
$PUCSORGLEFT
 10
0.0
 20
0.0
 30
0.0
  9
$PUCSORGRIGHT
 10
0.0
 20
0.0
 30
0.0
  9
$PUCSORGFRONT
 10
0.0
 20
0.0
 30
0.0
  9
$PUCSORGBACK
 10
0.0
 20
0.0
 30
0.0
  9
$USERI1
 70
     0
  9
$USERI2
 70
     0
  9
$USERI3
 70
     0
  9
$USERI4
 70
     0
  9
$USERI5
 70
     0
  9
$USERR1
 40
0.0
  9
$USERR2
 40
0.0
  9
$USERR3
 40
0.0
  9
$USERR4
 40
0.0
  9
$USERR5
 40
0.0
  9
$WORLDVIEW
 70
     1
  9
$SHADEDGE
 70
     3
  9
$SHADEDIF
 70
    70
  9
$TILEMODE
 70
     1
  9
$MAXACTVP
 70
    64
  9
$PINSBASE
 10
0.0
 20
0.0
 30
0.0
  9
$PLIMCHECK
 70
     0
  9
$PEXTMIN
 10
-839.701608
 20
-611.015114
 30
0.0
  9
$PEXTMAX
 10
1260.298392
 20
873.984886
 30
0.0
  9
$PLIMMIN
 10
-839.701608
 20
-611.015114
  9
$PLIMMAX
 10
1260.298392
 20
873.984886
  9
$UNITMODE
 70
     0
  9
$VISRETAIN
 70
     1
  9
$PLINEGEN
 70
     0
  9
$PSLTSCALE
 70
     1
  9
$TREEDEPTH
 70
  3020
  9
$CMLSTYLE
  2
Standard
  9
$CMLJUST
 70
     0
  9
$CMLSCALE
 40
20.0
  9
$PROXYGRAPHICS
 70
     1
  9
$MEASUREMENT
 70
     1
  9
$CELWEIGHT
370
    -1
  9
$ENDCAPS
280
     0
  9
$JOINSTYLE
280
     0
  9
$LWDISPLAY
290
     0
  9
$INSUNITS
 70
     4
  9
$HYPERLINKBASE
  1

  9
$STYLESHEET
  1

  9
$XEDIT
290
     1
  9
$CEPSNTYPE
380
     0
  9
$PSTYLEMODE
290
     1
  9
$FINGERPRINTGUID
  2
{FAEB1C30-E019-11D5-929B-00C0DF256EC4}
  9
$VERSIONGUID
  2
{FAEB1C32-E019-11D5-929B-00C0DF256EC4}
  9
$EXTNAMES
290
     1
  9
$PSVPSCALE
 40
0.0
  9
$OLESTARTUP
290
     0
  0
ENDSEC
  0
SECTION
  2
CLASSES
  0
CLASS
  1
ACDBDICTIONARYWDFLT
  2
AcDbDictionaryWithDefault
  3
ObjectDBX Classes
 90
        0
280
     0
281
     0
  0
CLASS
  1
ACDBPLACEHOLDER
  2
AcDbPlaceHolder
  3
ObjectDBX Classes
 90
        0
280
     0
281
     0
  0
CLASS
  1
LAYOUT
  2
AcDbLayout
  3
ObjectDBX Classes
 90
        0
280
     0
281
     0
  0
ENDSEC
  0
SECTION
  2
TABLES
  0
TABLE
  2
VPORT
  5
8
330
0
100
AcDbSymbolTable
 70
     2
  0
VPORT
  5
29
330
8
100
AcDbSymbolTableRecord
100
AcDbViewportTableRecord
  2
*ACTIVE
 70
     0
 10
0.0
 20
0.0
 11
1.0
 21
1.0
 12
210.298392
 22
131.484886
 13
0.0
 23
0.0
 14
1.0
 24
1.0
 15
0.0
 25
0.0
 16
0.0
 26
0.0
 36
1.0
 17
0.0
 27
0.0
 37
0.0
 40
1485.0
 41
1.414141
 42
50.0
 43
0.0
 44
0.0
 50
0.0
 51
0.0
 71
    16
 72
   100
 73
     1
 74
     0
 75
     0
 76
     0
 77
     0
 78
     0
281
     0
 65
     0
110
0.0
120
0.0
130
0.0
111
1.0
121
0.0
131
0.0
112
0.0
122
1.0
132
0.0
 79
     0
146
0.0
  0
ENDTAB
  0
TABLE
  2
LTYPE
  5
5
330
0
100
AcDbSymbolTable
 70
     3
  0
LTYPE
  5
14
330
5
100
AcDbSymbolTableRecord
100
AcDbLinetypeTableRecord
  2
ByBlock
 70
     0
  3

 72
    65
 73
     0
 40
0.0
  0
LTYPE
  5
15
330
5
100
AcDbSymbolTableRecord
100
AcDbLinetypeTableRecord
  2
ByLayer
 70
     0
  3

 72
    65
 73
     0
 40
0.0
  0
LTYPE
  5
16
330
5
100
AcDbSymbolTableRecord
100
AcDbLinetypeTableRecord
  2
Continuous
 70
     0
  3
Solid line
 72
    65
 73
     0
 40
0.0
  0
LTYPE
  5
2A
330
5
100
AcDbSymbolTableRecord
100
AcDbLinetypeTableRecord
  2
DASHED
 70
     0
  3
__ __ __ __ __
 72
    65
 73
     2
 40
6.25
 49
5.0
 74
     4
 75
     0
340
0
 46
1.0
 50
0.0
 44
0.0
 45
0.0
 49
-1.25
 74
     4
 75
     0
340
0
 46
1.0
 50
0.0
 44
0.0
 45
0.0
  0
LTYPE
  5
E6
330
5
100
AcDbSymbolTableRecord
100
AcDbLinetypeTableRecord
  2
DASHDOT
 70
     0
  3
__ . __ . __ . __ . __
 72
    65
 73
     4
 40
7.5
 49
5.0
 74
     4
 75
     0
340
0
 46
1.0
 50
0.0
 44
0.0
 45
0.0
 49
-1.25
 74
     4
 75
     0
340
0
 46
1.0
 50
0.0
 44
0.0
 45
0.0
 49
0.0
 74
     4
 75
     0
340
0
 46
1.0
 50
0.0
 44
0.0
 45
0.0
 49
-1.25
 74
     4
 75
     0
340
0
 46
1.0
 50
0.0
 44
0.0
 45
0.0
  0
ENDTAB
  0
TABLE
  2
LAYER
  5
2
330
0
100
AcDbSymbolTable
 70
     8
  0
LAYER
  5
10
330
2
100
AcDbSymbolTableRecord
100
AcDbLayerTableRecord
  2
0
 70
     0
 62
     7
  6
Continuous
370
    -3
390
F
  0
LAYER
  5
2B
330
2
100
AcDbSymbolTableRecord
100
AcDbLayerTableRecord
  2
LC-INFO-1-5-mm-A3-0
 70
     1
 62
     7
  6
ByBlock
370
    -3
390
F
  0
LAYER
  5
2C
330
2
100
AcDbSymbolTableRecord
100
AcDbLayerTableRecord
  2
LC-CUT-HIDDEN
 70
     0
 62
     7
  6
DASHED
370
    -3
390
F
  0
LAYER
  5
2D
330
2
100
AcDbSymbolTableRecord
100
AcDbLayerTableRecord
  2
LC-VIEWPORT
 70
     0
 62
     7
  6
ByBlock
370
    -3
390
F
  0
LAYER
  5
2E
330
2
100
AcDbSymbolTableRecord
100
AcDbLayerTableRecord
  2
LC-3D-HIDDEN
 70
     0
 62
     9
  6
DASHED
370
    -3
390
F
  0
LAYER
  5
30
330
2
100
AcDbSymbolTableRecord
100
AcDbLayerTableRecord
  2
LC-001-100-D00-0
 70
     0
 62
     1
  6
ByBlock
370
    -3
390
F
  0
LAYER
  5
D7
330
2
100
AcDbSymbolTableRecord
100
AcDbLayerTableRecord
  2
Defpoints
 70
     0
 62
     7
  6
Continuous
290
     0
370
    -3
390
F
  0
LAYER
  5
71D
330
2
100
AcDbSymbolTableRecord
100
AcDbLayerTableRecord
  2
LC-002-003-----0
 70
     0
 62
     2
  6
ByBlock
370
    -3
390
F
  0
ENDTAB
  0
TABLE
  2
STYLE
  5
3
330
0
100
AcDbSymbolTable
 70
     3
  0
STYLE
  5
11
330
3
100
AcDbSymbolTableRecord
100
AcDbTextStyleTableRecord
  2
Standard
 70
     0
 40
0.0
 41
1.0
 50
0.0
 71
     0
 42
2.5
  3
txt
  4

  0
STYLE
  5
2F
330
3
100
AcDbSymbolTableRecord
100
AcDbTextStyleTableRecord
  2
LCTX15-400-0-0-Arial
 70
     0
 40
0.0
 41
0.8
 50
0.0
 71
     0
 42
3.5
  3

  4

1001
ACAD
1000
Arial
1071
 16777218
  0
STYLE
  5
D4
330
3
100
AcDbSymbolTableRecord
100
AcDbTextStyleTableRecord
  2
LCTX15-400-0-0pDIN-Schrift
 70
     0
 40
2.5
 41
0.8
 50
15.0
 71
     0
 42
3.5
  3
STANDARD
  4

  0
ENDTAB
  0
TABLE
  2
VIEW
  5
6
330
0
100
AcDbSymbolTable
 70
     0
  0
ENDTAB
  0
TABLE
  2
UCS
  5
7
330
0
100
AcDbSymbolTable
 70
     0
  0
ENDTAB
  0
TABLE
  2
APPID
  5
9
330
0
100
AcDbSymbolTable
 70
     1
  0
APPID
  5
12
330
9
100
AcDbSymbolTableRecord
100
AcDbRegAppTableRecord
  2
ACAD
 70
     0
  0
ENDTAB
  0
TABLE
  2
DIMSTYLE
  5
A
330
0
100
AcDbSymbolTable
 70
     2
100
AcDbDimStyleTable
  0
DIMSTYLE
105
27
330
A
100
AcDbSymbolTableRecord
100
AcDbDimStyleTableRecord
  2
ISO-25
 70
     0
 41
2.5
 42
0.625
 43
3.75
 44
1.25
 73
     0
 74
     0
 77
     1
 78
     8
140
2.5
141
2.5
143
0.03937
147
0.625
171
     3
172
     1
271
     2
272
     2
274
     3
278
    44
283
     0
284
     8
340
11
  0
DIMSTYLE
105
D5
102
{ACAD_REACTORS
330
D6
330
212
330
220
330
22E
330
5E4
330
5F3
330
601
330
60E
330
61B
330
628
330
635
330
643
330
652
330
71E
102
}
330
A
100
AcDbSymbolTableRecord
100
AcDbDimStyleTableRecord
  2
LC-DIM-L-0100-02-02
 70
     0
 40
5.0
 41
10.0
 42
0.0
 43
7.5
 44
1.8
 73
     0
 74
     0
 77
     1
 78
     8
 79
     2
140
10.0
141
0.0
146
0.71
147
1.5
176
     2
177
     2
178
     2
179
     2
271
     2
278
    44
289
     1
340
D4
  0
ENDTAB
  0
TABLE
  2
BLOCK_RECORD
  5
1
330
0
100
AcDbSymbolTable
 70
    53
  0
BLOCK_RECORD
  5
1F
330
1
100
AcDbSymbolTableRecord
100
AcDbBlockTableRecord
  2
*Model_Space
340
22
  0
BLOCK_RECORD
  5
1B
330
1
100
AcDbSymbolTableRecord
100
AcDbBlockTableRecord
  2
*Paper_Space
340
1E
  0
BLOCK_RECORD
  5
23
330
1
100
AcDbSymbolTableRecord
100
AcDbBlockTableRecord
  2
*Paper_Space0
340
26
  0
BLOCK_RECORD
  5
D8
330
1
100
AcDbSymbolTableRecord
100
AcDbBlockTableRecord
  2
*D1
340
0
  0
BLOCK_RECORD
  5
108
330
1
100
AcDbSymbolTableRecord
100
AcDbBlockTableRecord
  2
KLON1
340
0
102
{BLKREFS
331
10F
102
}
  0
BLOCK_RECORD
  5
111
330
1
100
AcDbSymbolTableRecord
100
AcDbBlockTableRecord
  2
KLON2
340
0
102
{BLKREFS
331
116
102
}
  0
BLOCK_RECORD
  5
117
330
1
100
AcDbSymbolTableRecord
100
AcDbBlockTableRecord
  2
KLON3
340
0
102
{BLKREFS
331
11C
102
}
  0
BLOCK_RECORD
  5
11D
330
1
100
AcDbSymbolTableRecord
100
AcDbBlockTableRecord
  2
KLON4
340
0
102
{BLKREFS
331
122
102
}
  0
BLOCK_RECORD
  5
124
330
1
100
AcDbSymbolTableRecord
100
AcDbBlockTableRecord
  2
KLON5
340
0
102
{BLKREFS
331
12B
102
}
  0
BLOCK_RECORD
  5
12E
330
1
100
AcDbSymbolTableRecord
100
AcDbBlockTableRecord
  2
KLON6
340
0
102
{BLKREFS
331
133
102
}
  0
BLOCK_RECORD
  5
141
330
1
100
AcDbSymbolTableRecord
100
AcDbBlockTableRecord
  2
KLON7
340
0
102
{BLKREFS
331
146
102
}
  0
BLOCK_RECORD
  5
147
330
1
100
AcDbSymbolTableRecord
100
AcDbBlockTableRecord
  2
KLON8
340
0
102
{BLKREFS
331
14C
102
}
  0
BLOCK_RECORD
  5
14E
330
1
100
AcDbSymbolTableRecord
100
AcDbBlockTableRecord
  2
KLON9
340
0
102
{BLKREFS
331
154
102
}
  0
BLOCK_RECORD
  5
155
330
1
100
AcDbSymbolTableRecord
100
AcDbBlockTableRecord
  2
KLON10
340
0
102
{BLKREFS
331
15B
102
}
  0
BLOCK_RECORD
  5
15C
330
1
100
AcDbSymbolTableRecord
100
AcDbBlockTableRecord
  2
KLON11
340
0
102
{BLKREFS
331
161
102
}
  0
BLOCK_RECORD
  5
162
330
1
100
AcDbSymbolTableRecord
100
AcDbBlockTableRecord
  2
KLON12
340
0
102
{BLKREFS
331
168
102
}
  0
BLOCK_RECORD
  5
169
330
1
100
AcDbSymbolTableRecord
100
AcDbBlockTableRecord
  2
KLON13
340
0
102
{BLKREFS
331
16F
102
}
  0
BLOCK_RECORD
  5
170
330
1
100
AcDbSymbolTableRecord
100
AcDbBlockTableRecord
  2
KLON14
340
0
102
{BLKREFS
331
175
102
}
  0
BLOCK_RECORD
  5
213
330
1
100
AcDbSymbolTableRecord
100
AcDbBlockTableRecord
  2
*D16
340
0
  0
BLOCK_RECORD
  5
221
330
1
100
AcDbSymbolTableRecord
100
AcDbBlockTableRecord
  2
*D17
340
0
  0
BLOCK_RECORD
  5
22F
330
1
100
AcDbSymbolTableRecord
100
AcDbBlockTableRecord
  2
*D18
340
0
  0
BLOCK_RECORD
  5
42A
330
1
100
AcDbSymbolTableRecord
100
AcDbBlockTableRecord
  2
KLON15
340
0
102
{BLKREFS
331
43A
102
}
  0
BLOCK_RECORD
  5
43B
330
1
100
AcDbSymbolTableRecord
100
AcDbBlockTableRecord
  2
KLON16
340
0
102
{BLKREFS
331
44E
102
}
  0
BLOCK_RECORD
  5
452
330
1
100
AcDbSymbolTableRecord
100
AcDbBlockTableRecord
  2
KLON17
340
0
102
{BLKREFS
331
457
102
}
  0
BLOCK_RECORD
  5
584
330
1
100
AcDbSymbolTableRecord
100
AcDbBlockTableRecord
  2
KLON18
340
0
102
{BLKREFS
331
58D
102
}
  0
BLOCK_RECORD
  5
58E
330
1
100
AcDbSymbolTableRecord
100
AcDbBlockTableRecord
  2
KLON19
340
0
102
{BLKREFS
331
597
102
}
  0
BLOCK_RECORD
  5
5B1
330
1
100
AcDbSymbolTableRecord
100
AcDbBlockTableRecord
  2
KLON20
340
0
102
{BLKREFS
331
5B9
102
}
  0
BLOCK_RECORD
  5
5BA
330
1
100
AcDbSymbolTableRecord
100
AcDbBlockTableRecord
  2
KLON21
340
0
102
{BLKREFS
331
5C6
102
}
  0
BLOCK_RECORD
  5
5C7
330
1
100
AcDbSymbolTableRecord
100
AcDbBlockTableRecord
  2
KLON22
340
0
102
{BLKREFS
331
5D3
102
}
  0
BLOCK_RECORD
  5
5E5
330
1
100
AcDbSymbolTableRecord
100
AcDbBlockTableRecord
  2
*D27
340
0
  0
BLOCK_RECORD
  5
5F4
330
1
100
AcDbSymbolTableRecord
100
AcDbBlockTableRecord
  2
*D28
340
0
  0
BLOCK_RECORD
  5
602
330
1
100
AcDbSymbolTableRecord
100
AcDbBlockTableRecord
  2
*D29
340
0
  0
BLOCK_RECORD
  5
60F
330
1
100
AcDbSymbolTableRecord
100
AcDbBlockTableRecord
  2
*D30
340
0
  0
BLOCK_RECORD
  5
61C
330
1
100
AcDbSymbolTableRecord
100
AcDbBlockTableRecord
  2
*D31
340
0
  0
BLOCK_RECORD
  5
629
330
1
100
AcDbSymbolTableRecord
100
AcDbBlockTableRecord
  2
*D32
340
0
  0
BLOCK_RECORD
  5
636
330
1
100
AcDbSymbolTableRecord
100
AcDbBlockTableRecord
  2
*D33
340
0
  0
BLOCK_RECORD
  5
644
330
1
100
AcDbSymbolTableRecord
100
AcDbBlockTableRecord
  2
*D34
340
0
  0
BLOCK_RECORD
  5
653
330
1
100
AcDbSymbolTableRecord
100
AcDbBlockTableRecord
  2
*D35
340
0
  0
BLOCK_RECORD
  5
661
330
1
100
AcDbSymbolTableRecord
100
AcDbBlockTableRecord
  2
KLON23
340
0
102
{BLKREFS
331
67C
102
}
  0
BLOCK_RECORD
  5
67D
330
1
100
AcDbSymbolTableRecord
100
AcDbBlockTableRecord
  2
KLON24
340
0
102
{BLKREFS
331
698
102
}
  0
BLOCK_RECORD
  5
699
330
1
100
AcDbSymbolTableRecord
100
AcDbBlockTableRecord
  2
KLON25
340
0
102
{BLKREFS
331
6A0
102
}
  0
BLOCK_RECORD
  5
6A1
330
1
100
AcDbSymbolTableRecord
100
AcDbBlockTableRecord
  2
KLON26
340
0
102
{BLKREFS
331
6A8
102
}
  0
BLOCK_RECORD
  5
6A9
330
1
100
AcDbSymbolTableRecord
100
AcDbBlockTableRecord
  2
KLON27
340
0
102
{BLKREFS
331
6B7
102
}
  0
BLOCK_RECORD
  5
6B8
330
1
100
AcDbSymbolTableRecord
100
AcDbBlockTableRecord
  2
KLON28
340
0
102
{BLKREFS
331
6BF
102
}
  0
BLOCK_RECORD
  5
6C0
330
1
100
AcDbSymbolTableRecord
100
AcDbBlockTableRecord
  2
KLON29
340
0
102
{BLKREFS
331
6C6
102
}
  0
BLOCK_RECORD
  5
6C9
330
1
100
AcDbSymbolTableRecord
100
AcDbBlockTableRecord
  2
KLON30
340
0
102
{BLKREFS
331
6CE
102
}
  0
BLOCK_RECORD
  5
6CF
330
1
100
AcDbSymbolTableRecord
100
AcDbBlockTableRecord
  2
KLON31
340
0
102
{BLKREFS
331
6DD
102
}
  0
BLOCK_RECORD
  5
6DE
330
1
100
AcDbSymbolTableRecord
100
AcDbBlockTableRecord
  2
KLON32
340
0
102
{BLKREFS
331
6E3
102
}
  0
BLOCK_RECORD
  5
6E6
330
1
100
AcDbSymbolTableRecord
100
AcDbBlockTableRecord
  2
KLON33
340
0
102
{BLKREFS
331
6EB
102
}
  0
BLOCK_RECORD
  5
6ED
330
1
100
AcDbSymbolTableRecord
100
AcDbBlockTableRecord
  2
KLON34
340
0
102
{BLKREFS
331
6F3
102
}
  0
BLOCK_RECORD
  5
6F4
330
1
100
AcDbSymbolTableRecord
100
AcDbBlockTableRecord
  2
KLON35
340
0
102
{BLKREFS
331
6F9
102
}
  0
BLOCK_RECORD
  5
6FB
330
1
100
AcDbSymbolTableRecord
100
AcDbBlockTableRecord
  2
KLON36
340
0
102
{BLKREFS
331
700
102
}
  0
BLOCK_RECORD
  5
703
330
1
100
AcDbSymbolTableRecord
100
AcDbBlockTableRecord
  2
KLON37
340
0
102
{BLKREFS
331
709
102
}
  0
BLOCK_RECORD
  5
70D
330
1
100
AcDbSymbolTableRecord
100
AcDbBlockTableRecord
  2
KLON38
340
0
102
{BLKREFS
331
712
102
}
  0
BLOCK_RECORD
  5
71F
330
1
100
AcDbSymbolTableRecord
100
AcDbBlockTableRecord
  2
*D52
340
0
  0
ENDTAB
  0
ENDSEC
  0
SECTION
  2
BLOCKS
  0
BLOCK
  5
20
330
1F
100
AcDbEntity
  8
0
100
AcDbBlockBegin
  2
*Model_Space
 70
     0
 71
     0
 10
0.0
 20
0.0
 30
0.0
  3
*Model_Space
  1

  0
ENDBLK
  5
21
330
1F
100
AcDbEntity
  8
0
100
AcDbBlockEnd
  0
BLOCK
  5
1C
330
1B
100
AcDbEntity
 67
     1
  8
0
100
AcDbBlockBegin
  2
*Paper_Space
 70
     0
 71
     0
 10
0.0
 20
0.0
 30
0.0
  3
*Paper_Space
  1

  0
ENDBLK
  5
1D
330
1B
100
AcDbEntity
 67
     1
  8
0
100
AcDbBlockEnd
  0
BLOCK
  5
24
330
23
100
AcDbEntity
  8
0
100
AcDbBlockBegin
  2
*Paper_Space0
 70
     0
 71
     0
 10
0.0
 20
0.0
 30
0.0
  3
*Paper_Space0
  1

  0
ENDBLK
  5
25
330
23
100
AcDbEntity
  8
0
100
AcDbBlockEnd
  0
BLOCK
  5
E4
330
D8
100
AcDbEntity
  8
0
100
AcDbBlockBegin
  2
*D1
 70
     1
 71
     0
 10
0.0
 20
0.0
 30
0.0
  3
*D1
  1

  0
LINE
  5
D9
330
D8
100
AcDbEntity
  8
LC-001-100-D00-0
 62
     2
370
    -2
100
AcDbLine
 10
845.07653
 20
338.570616
 30
0.0
 11
845.07653
 21
224.949886
 31
0.0
  0
LINE
  5
DA
330
D8
100
AcDbEntity
  8
LC-001-100-D00-0
 62
     2
370
    -2
100
AcDbLine
 10
926.07653
 20
338.570616
 30
0.0
 11
926.07653
 21
224.949886
 31
0.0
  0
LINE
  5
DB
330
D8
100
AcDbEntity
  8
LC-001-100-D00-0
 62
     2
370
    -2
100
AcDbLine
 10
795.07653
 20
233.949886
 30
0.0
 11
745.07653
 21
233.949886
 31
0.0
  0
LINE
  5
DC
330
D8
100
AcDbEntity
  8
LC-001-100-D00-0
 62
     2
370
    -2
100
AcDbLine
 10
976.07653
 20
233.949886
 30
0.0
 11
1026.07653
 21
233.949886
 31
0.0
  0
LINE
  5
DD
330
D8
100
AcDbEntity
  8
LC-001-100-D00-0
 62
     2
370
    -2
100
AcDbLine
 10
845.07653
 20
233.949886
 30
0.0
 11
926.07653
 21
233.949886
 31
0.0
  0
SOLID
  5
DE
330
D8
100
AcDbEntity
  8
LC-001-100-D00-0
 62
     2
100
AcDbTrace
 10
795.07653
 20
225.616553
 30
0.0
 11
795.07653
 21
242.28322
 31
0.0
 12
845.07653
 22
233.949886
 32
0.0
 13
845.07653
 23
233.949886
 33
0.0
  0
SOLID
  5
DF
330
D8
100
AcDbEntity
  8
LC-001-100-D00-0
 62
     2
100
AcDbTrace
 10
976.07653
 20
242.28322
 30
0.0
 11
976.07653
 21
225.616553
 31
0.0
 12
926.07653
 22
233.949886
 32
0.0
 13
926.07653
 23
233.949886
 33
0.0
  0
MTEXT
  5
E0
330
D8
100
AcDbEntity
  8
LC-001-100-D00-0
 62
     2
100
AcDbMText
 10
867.187951
 20
288.949886
 30
0.0
 40
50.0
 41
0.0
 71
     5
 72
     1
  1
\A1;81
  7
LCTX15-400-0-0pDIN-Schrift
 73
     1
 44
1.0
  0
POINT
  5
E1
330
D8
100
AcDbEntity
  8
Defpoints
 62
     0
100
AcDbPoint
 10
845.07653
 20
338.570616
 30
0.0
  0
POINT
  5
E2
330
D8
100
AcDbEntity
  8
Defpoints
 62
     0
100
AcDbPoint
 10
926.07653
 20
338.570616
 30
0.0
  0
POINT
  5
E3
330
D8
100
AcDbEntity
  8
Defpoints
 62
     0
100
AcDbPoint
 10
926.07653
 20
233.949886
 30
0.0
  0
ENDBLK
  5
E5
330
D8
100
AcDbEntity
  8
0
100
AcDbBlockEnd
  0
BLOCK
  5
109
330
108
100
AcDbEntity
  8
0
100
AcDbBlockBegin
  2
KLON1
 70
     0
 71
     0
 10
0.0
 20
0.0
 30
0.0
  3
KLON1
  1

  4
KLON1
  0
LINE
  5
10B
330
108
100
AcDbEntity
  8
LC-001-100-D00-0
 62
     7
370
    15
100
AcDbLine
 10
411.950335
 20
-6.812275
 30
0.0
 11
411.963001
 21
-6.893156
 31
0.0
  0
LINE
  5
10C
330
108
100
AcDbEntity
  8
LC-001-100-D00-0
 62
     7
370
    15
100
AcDbLine
 10
411.963001
 20
-6.893156
 30
0.0
 11
411.971793
 21
-6.949365
 31
0.0
  0
LINE
  5
10D
330
108
100
AcDbEntity
  8
LC-001-100-D00-0
 62
     7
370
    15
100
AcDbLine
 10
411.971793
 20
-6.949365
 30
0.0
 11
411.974297
 21
-6.965464
 31
0.0
  0
LINE
  5
10E
330
108
100
AcDbEntity
  8
LC-001-100-D00-0
 62
     7
370
    15
100
AcDbLine
 10
411.974297
 20
-6.965464
 30
0.0
 11
411.976532
 21
-6.97975
 31
0.0
  0
ENDBLK
  5
10A
330
108
100
AcDbEntity
  8
0
100
AcDbBlockEnd
  0
BLOCK
  5
112
330
111
100
AcDbEntity
  8
0
100
AcDbBlockBegin
  2
KLON2
 70
     0
 71
     0
 10
0.0
 20
0.0
 30
0.0
  3
KLON2
  1

  4
KLON2
  0
LINE
  5
114
330
111
100
AcDbEntity
  8
LC-001-100-D00-0
 62
     7
370
    15
100
AcDbLine
 10
411.950335
 20
4.350416
 30
0.0
 11
411.960915
 21
4.356327
 31
0.0
  0
LINE
  5
115
330
111
100
AcDbEntity
  8
LC-001-100-D00-0
 62
     7
370
    15
100
AcDbLine
 10
411.960915
 20
4.356327
 30
0.0
 11
411.976532
 21
4.365055
 31
0.0
  0
ENDBLK
  5
113
330
111
100
AcDbEntity
  8
0
100
AcDbBlockEnd
  0
BLOCK
  5
118
330
117
100
AcDbEntity
  8
0
100
AcDbBlockBegin
  2
KLON3
 70
     0
 71
     0
 10
0.0
 20
0.0
 30
0.0
  3
KLON3
  1

  4
KLON3
  0
LINE
  5
11A
330
117
100
AcDbEntity
  8
LC-001-100-D00-0
 62
     7
370
    15
100
AcDbLine
 10
411.950335
 20
-42.634944
 30
0.0
 11
411.957756
 21
-42.673117
 31
0.0
  0
LINE
  5
11B
330
117
100
AcDbEntity
  8
LC-001-100-D00-0
 62
     7
370
    15
100
AcDbLine
 10
411.957756
 20
-42.673117
 30
0.0
 11
411.976532
 21
-42.705601
 31
0.0
  0
ENDBLK
  5
119
330
117
100
AcDbEntity
  8
0
100
AcDbBlockEnd
  0
BLOCK
  5
11E
330
11D
100
AcDbEntity
  8
0
100
AcDbBlockBegin
  2
KLON4
 70
     0
 71
     0
 10
0.0
 20
0.0
 30
0.0
  3
KLON4
  1

  4
KLON4
  0
LINE
  5
120
330
11D
100
AcDbEntity
  8
LC-001-100-D00-0
 62
     7
370
    15
100
AcDbLine
 10
-471.997275
 20
4.350416
 30
0.0
 11
-472.007855
 21
4.356327
 31
0.0
  0
LINE
  5
121
330
11D
100
AcDbEntity
  8
LC-001-100-D00-0
 62
     7
370
    15
100
AcDbLine
 10
-472.007855
 20
4.356327
 30
0.0
 11
-472.023472
 21
4.365055
 31
0.0
  0
ENDBLK
  5
11F
330
11D
100
AcDbEntity
  8
0
100
AcDbBlockEnd
  0
BLOCK
  5
125
330
124
100
AcDbEntity
  8
0
100
AcDbBlockBegin
  2
KLON5
 70
     0
 71
     0
 10
0.0
 20
0.0
 30
0.0
  3
KLON5
  1

  4
KLON5
  0
LINE
  5
127
330
124
100
AcDbEntity
  8
LC-001-100-D00-0
 62
     7
370
    15
100
AcDbLine
 10
-471.997275
 20
-6.812275
 30
0.0
 11
-472.009941
 21
-6.893156
 31
0.0
  0
LINE
  5
128
330
124
100
AcDbEntity
  8
LC-001-100-D00-0
 62
     7
370
    15
100
AcDbLine
 10
-472.009941
 20
-6.893156
 30
0.0
 11
-472.018733
 21
-6.949365
 31
0.0
  0
LINE
  5
129
330
124
100
AcDbEntity
  8
LC-001-100-D00-0
 62
     7
370
    15
100
AcDbLine
 10
-472.018733
 20
-6.949365
 30
0.0
 11
-472.021236
 21
-6.965464
 31
0.0
  0
LINE
  5
12A
330
124
100
AcDbEntity
  8
LC-001-100-D00-0
 62
     7
370
    15
100
AcDbLine
 10
-472.021236
 20
-6.965464
 30
0.0
 11
-472.023472
 21
-6.97975
 31
0.0
  0
ENDBLK
  5
126
330
124
100
AcDbEntity
  8
0
100
AcDbBlockEnd
  0
BLOCK
  5
12F
330
12E
100
AcDbEntity
  8
0
100
AcDbBlockBegin
  2
KLON6
 70
     0
 71
     0
 10
0.0
 20
0.0
 30
0.0
  3
KLON6
  1

  4
KLON6
  0
LINE
  5
131
330
12E
100
AcDbEntity
  8
LC-001-100-D00-0
 62
     7
370
    15
100
AcDbLine
 10
-471.997275
 20
-42.634944
 30
0.0
 11
-472.004696
 21
-42.673117
 31
0.0
  0
LINE
  5
132
330
12E
100
AcDbEntity
  8
LC-001-100-D00-0
 62
     7
370
    15
100
AcDbLine
 10
-472.004696
 20
-42.673117
 30
0.0
 11
-472.023472
 21
-42.705601
 31
0.0
  0
ENDBLK
  5
130
330
12E
100
AcDbEntity
  8
0
100
AcDbBlockEnd
  0
BLOCK
  5
142
330
141
100
AcDbEntity
  8
0
100
AcDbBlockBegin
  2
KLON7
 70
     0
 71
     0
 10
0.0
 20
0.0
 30
0.0
  3
KLON7
  1

  4
KLON7
  0
LINE
  5
144
330
141
100
AcDbEntity
  8
LC-001-100-D00-0
 62
     7
370
    15
100
AcDbLine
 10
411.921815
 20
-31.468353
 30
0.0
 11
411.937967
 21
-31.462269
 31
0.0
  0
LINE
  5
145
330
141
100
AcDbEntity
  8
LC-001-100-D00-0
 62
     7
370
    15
100
AcDbLine
 10
411.937967
 20
-31.462269
 30
0.0
 11
411.950335
 21
-31.457613
 31
0.0
  0
ENDBLK
  5
143
330
141
100
AcDbEntity
  8
0
100
AcDbBlockEnd
  0
BLOCK
  5
148
330
147
100
AcDbEntity
  8
0
100
AcDbBlockBegin
  2
KLON8
 70
     0
 71
     0
 10
0.0
 20
0.0
 30
0.0
  3
KLON8
  1

  4
KLON8
  0
LINE
  5
14A
330
147
100
AcDbEntity
  8
LC-001-100-D00-0
 62
     7
370
    15
100
AcDbLine
 10
-471.968755
 20
-31.468353
 30
0.0
 11
-471.984907
 21
-31.462269
 31
0.0
  0
LINE
  5
14B
330
147
100
AcDbEntity
  8
LC-001-100-D00-0
 62
     7
370
    15
100
AcDbLine
 10
-471.984907
 20
-31.462269
 30
0.0
 11
-471.997275
 21
-31.457613
 31
0.0
  0
ENDBLK
  5
149
330
147
100
AcDbEntity
  8
0
100
AcDbBlockEnd
  0
BLOCK
  5
14F
330
14E
100
AcDbEntity
  8
0
100
AcDbBlockBegin
  2
KLON9
 70
     0
 71
     0
 10
0.0
 20
0.0
 30
0.0
  3
KLON9
  1

  4
KLON9
  0
LINE
  5
151
330
14E
100
AcDbEntity
  8
LC-001-100-D00-0
 62
     7
370
    15
100
AcDbLine
 10
274.963454
 20
-24.994161
 30
0.0
 11
274.974868
 21
-24.580687
 31
0.0
  0
LINE
  5
152
330
14E
100
AcDbEntity
  8
LC-001-100-D00-0
 62
     7
370
    15
100
AcDbLine
 10
274.974868
 20
-24.580687
 30
0.0
 11
274.986551
 21
-24.157429
 31
0.0
  0
LINE
  5
153
330
14E
100
AcDbEntity
  8
LC-001-100-D00-0
 62
     7
370
    15
100
AcDbLine
 10
274.986551
 20
-24.157429
 30
0.0
 11
274.998352
 21
-23.72925
 31
0.0
  0
ENDBLK
  5
150
330
14E
100
AcDbEntity
  8
0
100
AcDbBlockEnd
  0
BLOCK
  5
156
330
155
100
AcDbEntity
  8
0
100
AcDbBlockBegin
  2
KLON10
 70
     0
 71
     0
 10
0.0
 20
0.0
 30
0.0
  3
KLON10
  1

  4
KLON10
  0
LINE
  5
158
330
155
100
AcDbEntity
  8
LC-001-100-D00-0
 62
     7
370
    15
100
AcDbLine
 10
274.998352
 20
-14.540638
 30
0.0
 11
274.986551
 21
-14.11246
 31
0.0
  0
LINE
  5
159
330
155
100
AcDbEntity
  8
LC-001-100-D00-0
 62
     7
370
    15
100
AcDbLine
 10
274.986551
 20
-14.11246
 30
0.0
 11
274.974868
 21
-13.689201
 31
0.0
  0
LINE
  5
15A
330
155
100
AcDbEntity
  8
LC-001-100-D00-0
 62
     7
370
    15
100
AcDbLine
 10
274.974868
 20
-13.689201
 30
0.0
 11
274.963454
 21
-13.275727
 31
0.0
  0
ENDBLK
  5
157
330
155
100
AcDbEntity
  8
0
100
AcDbBlockEnd
  0
BLOCK
  5
15D
330
15C
100
AcDbEntity
  8
0
100
AcDbBlockBegin
  2
KLON11
 70
     0
 71
     0
 10
0.0
 20
0.0
 30
0.0
  3
KLON11
  1

  4
KLON11
  0
LINE
  5
15F
330
15C
100
AcDbEntity
  8
LC-001-100-D00-0
 62
     7
370
    15
100
AcDbLine
 10
411.921815
 20
-6.801535
 30
0.0
 11
411.937967
 21
-6.80762
 31
0.0
  0
LINE
  5
160
330
15C
100
AcDbEntity
  8
LC-001-100-D00-0
 62
     7
370
    15
100
AcDbLine
 10
411.937967
 20
-6.80762
 30
0.0
 11
411.950335
 21
-6.812275
 31
0.0
  0
ENDBLK
  5
15E
330
15C
100
AcDbEntity
  8
0
100
AcDbBlockEnd
  0
BLOCK
  5
163
330
162
100
AcDbEntity
  8
0
100
AcDbBlockBegin
  2
KLON12
 70
     0
 71
     0
 10
0.0
 20
0.0
 30
0.0
  3
KLON12
  1

  4
KLON12
  0
LINE
  5
165
330
162
100
AcDbEntity
  8
LC-001-100-D00-0
 62
     7
370
    15
100
AcDbLine
 10
-335.010394
 20
-24.994161
 30
0.0
 11
-335.021808
 21
-24.580687
 31
0.0
  0
LINE
  5
166
330
162
100
AcDbEntity
  8
LC-001-100-D00-0
 62
     7
370
    15
100
AcDbLine
 10
-335.021808
 20
-24.580687
 30
0.0
 11
-335.033491
 21
-24.157429
 31
0.0
  0
LINE
  5
167
330
162
100
AcDbEntity
  8
LC-001-100-D00-0
 62
     7
370
    15
100
AcDbLine
 10
-335.033491
 20
-24.157429
 30
0.0
 11
-335.045292
 21
-23.72925
 31
0.0
  0
ENDBLK
  5
164
330
162
100
AcDbEntity
  8
0
100
AcDbBlockEnd
  0
BLOCK
  5
16A
330
169
100
AcDbEntity
  8
0
100
AcDbBlockBegin
  2
KLON13
 70
     0
 71
     0
 10
0.0
 20
0.0
 30
0.0
  3
KLON13
  1

  4
KLON13
  0
LINE
  5
16C
330
169
100
AcDbEntity
  8
LC-001-100-D00-0
 62
     7
370
    15
100
AcDbLine
 10
-335.045292
 20
-14.540638
 30
0.0
 11
-335.033491
 21
-14.11246
 31
0.0
  0
LINE
  5
16D
330
169
100
AcDbEntity
  8
LC-001-100-D00-0
 62
     7
370
    15
100
AcDbLine
 10
-335.033491
 20
-14.11246
 30
0.0
 11
-335.021808
 21
-13.689201
 31
0.0
  0
LINE
  5
16E
330
169
100
AcDbEntity
  8
LC-001-100-D00-0
 62
     7
370
    15
100
AcDbLine
 10
-335.021808
 20
-13.689201
 30
0.0
 11
-335.010394
 21
-13.275727
 31
0.0
  0
ENDBLK
  5
16B
330
169
100
AcDbEntity
  8
0
100
AcDbBlockEnd
  0
BLOCK
  5
171
330
170
100
AcDbEntity
  8
0
100
AcDbBlockBegin
  2
KLON14
 70
     0
 71
     0
 10
0.0
 20
0.0
 30
0.0
  3
KLON14
  1

  4
KLON14
  0
LINE
  5
173
330
170
100
AcDbEntity
  8
LC-001-100-D00-0
 62
     7
370
    15
100
AcDbLine
 10
-471.968755
 20
-6.801535
 30
0.0
 11
-471.984907
 21
-6.80762
 31
0.0
  0
LINE
  5
174
330
170
100
AcDbEntity
  8
LC-001-100-D00-0
 62
     7
370
    15
100
AcDbLine
 10
-471.984907
 20
-6.80762
 30
0.0
 11
-471.997275
 21
-6.812275
 31
0.0
  0
ENDBLK
  5
172
330
170
100
AcDbEntity
  8
0
100
AcDbBlockEnd
  0
BLOCK
  5
21E
330
213
100
AcDbEntity
  8
0
100
AcDbBlockBegin
  2
*D16
 70
     1
 71
     0
 10
0.0
 20
0.0
 30
0.0
  3
*D16
  1

  0
LINE
  5
214
330
213
100
AcDbEntity
  8
LC-001-100-D00-0
 62
     2
370
    -2
100
AcDbLine
 10
464.97653
 20
26.865056
 30
0.0
 11
573.702725
 21
26.865056
 31
0.0
  0
LINE
  5
215
330
213
100
AcDbEntity
  8
LC-001-100-D00-0
 62
     2
370
    -2
100
AcDbLine
 10
464.97653
 20
25.365056
 30
0.0
 11
573.702725
 21
25.365056
 31
0.0
  0
LINE
  5
216
330
213
100
AcDbEntity
  8
LC-001-100-D00-0
 62
     2
370
    -2
100
AcDbLine
 10
564.702725
 20
76.865056
 30
0.0
 11
564.702725
 21
126.865056
 31
0.0
  0
LINE
  5
217
330
213
100
AcDbEntity
  8
LC-001-100-D00-0
 62
     2
370
    -2
100
AcDbLine
 10
564.702725
 20
-24.634944
 30
0.0
 11
564.702725
 21
-72.504796
 31
0.0
  0
SOLID
  5
218
330
213
100
AcDbEntity
  8
LC-001-100-D00-0
 62
     2
100
AcDbTrace
 10
556.369391
 20
76.865056
 30
0.0
 11
573.036058
 21
76.865056
 31
0.0
 12
564.702725
 22
26.865056
 32
0.0
 13
564.702725
 23
26.865056
 33
0.0
  0
SOLID
  5
219
330
213
100
AcDbEntity
  8
LC-001-100-D00-0
 62
     2
100
AcDbTrace
 10
573.036058
 20
-24.634944
 30
0.0
 11
556.369391
 21
-24.634944
 31
0.0
 12
564.702725
 22
25.365056
 32
0.0
 13
564.702725
 23
25.365056
 33
0.0
  0
MTEXT
  5
21A
330
213
100
AcDbEntity
  8
LC-001-100-D00-0
 62
     2
100
AcDbMText
 10
509.702725
 20
-25.925114
 30
0.0
 40
50.0
 41
0.0
 71
     5
 72
     1
  1
\A1;1,5
  7
LCTX15-400-0-0pDIN-Schrift
 11
6.123031769111886E-17
 21
1.0
 31
0.0
 73
     1
 44
1.0
  0
POINT
  5
21B
330
213
100
AcDbEntity
  8
Defpoints
 62
     0
100
AcDbPoint
 10
464.97653
 20
26.865056
 30
0.0
  0
POINT
  5
21C
330
213
100
AcDbEntity
  8
Defpoints
 62
     0
100
AcDbPoint
 10
464.97653
 20
25.365056
 30
0.0
  0
POINT
  5
21D
330
213
100
AcDbEntity
  8
Defpoints
 62
     0
100
AcDbPoint
 10
564.702725
 20
25.365056
 30
0.0
  0
ENDBLK
  5
21F
330
213
100
AcDbEntity
  8
0
100
AcDbBlockEnd
  0
BLOCK
  5
22C
330
221
100
AcDbEntity
  8
0
100
AcDbBlockBegin
  2
*D17
 70
     1
 71
     0
 10
0.0
 20
0.0
 30
0.0
  3
*D17
  1

  0
LINE
  5
222
330
221
100
AcDbEntity
  8
LC-001-100-D00-0
 62
     2
370
    -2
100
AcDbLine
 10
464.97653
 20
25.365056
 30
0.0
 11
679.798289
 21
25.365056
 31
0.0
  0
LINE
  5
223
330
221
100
AcDbEntity
  8
LC-001-100-D00-0
 62
     2
370
    -2
100
AcDbLine
 10
417.47653
 20
6.865056
 30
0.0
 11
679.798289
 21
6.865056
 31
0.0
  0
LINE
  5
224
330
221
100
AcDbEntity
  8
LC-001-100-D00-0
 62
     2
370
    -2
100
AcDbLine
 10
670.798289
 20
75.365056
 30
0.0
 11
670.798289
 21
125.365056
 31
0.0
  0
LINE
  5
225
330
221
100
AcDbEntity
  8
LC-001-100-D00-0
 62
     2
370
    -2
100
AcDbLine
 10
670.798289
 20
-43.134944
 30
0.0
 11
670.798289
 21
-131.647415
 31
0.0
  0
SOLID
  5
226
330
221
100
AcDbEntity
  8
LC-001-100-D00-0
 62
     2
100
AcDbTrace
 10
662.464956
 20
75.365056
 30
0.0
 11
679.131623
 21
75.365056
 31
0.0
 12
670.798289
 22
25.365056
 32
0.0
 13
670.798289
 23
25.365056
 33
0.0
  0
SOLID
  5
227
330
221
100
AcDbEntity
  8
LC-001-100-D00-0
 62
     2
100
AcDbTrace
 10
679.131623
 20
-43.134944
 30
0.0
 11
662.464956
 21
-43.134944
 31
0.0
 12
670.798289
 22
6.865056
 32
0.0
 13
670.798289
 23
6.865056
 33
0.0
  0
MTEXT
  5
228
330
221
100
AcDbEntity
  8
LC-001-100-D00-0
 62
     2
100
AcDbMText
 10
615.798289
 20
-66.020114
 30
0.0
 40
50.0
 41
0.0
 71
     5
 72
     1
  1
\A1;18,5
  7
LCTX15-400-0-0pDIN-Schrift
 11
6.123031769111886E-17
 21
1.0
 31
0.0
 73
     1
 44
1.0
  0
POINT
  5
229
330
221
100
AcDbEntity
  8
Defpoints
 62
     0
100
AcDbPoint
 10
464.97653
 20
25.365056
 30
0.0
  0
POINT
  5
22A
330
221
100
AcDbEntity
  8
Defpoints
 62
     0
100
AcDbPoint
 10
417.47653
 20
6.865056
 30
0.0
  0
POINT
  5
22B
330
221
100
AcDbEntity
  8
Defpoints
 62
     0
100
AcDbPoint
 10
670.798289
 20
6.865056
 30
0.0
  0
ENDBLK
  5
22D
330
221
100
AcDbEntity
  8
0
100
AcDbBlockEnd
  0
BLOCK
  5
239
330
22F
100
AcDbEntity
  8
0
100
AcDbBlockBegin
  2
*D18
 70
     1
 71
     0
 10
0.0
 20
0.0
 30
0.0
  3
*D18
  1

  0
LINE
  5
230
330
22F
100
AcDbEntity
  8
LC-001-100-D00-0
 62
     2
370
    -2
100
AcDbLine
 10
464.97653
 20
26.865056
 30
0.0
 11
770.092387
 21
26.865056
 31
0.0
  0
LINE
  5
231
330
22F
100
AcDbEntity
  8
LC-001-100-D00-0
 62
     2
370
    -2
100
AcDbLine
 10
464.97653
 20
-96.634944
 30
0.0
 11
770.092387
 21
-96.634944
 31
0.0
  0
LINE
  5
232
330
22F
100
AcDbEntity
  8
LC-001-100-D00-0
 62
     2
370
    -2
100
AcDbLine
 10
761.092387
 20
-23.134944
 30
0.0
 11
761.092387
 21
-46.634944
 31
0.0
  0
SOLID
  5
233
330
22F
100
AcDbEntity
  8
LC-001-100-D00-0
 62
     2
100
AcDbTrace
 10
769.42572
 20
-23.134944
 30
0.0
 11
752.759053
 21
-23.134944
 31
0.0
 12
761.092387
 22
26.865056
 32
0.0
 13
761.092387
 23
26.865056
 33
0.0
  0
SOLID
  5
234
330
22F
100
AcDbEntity
  8
LC-001-100-D00-0
 62
     2
100
AcDbTrace
 10
752.759053
 20
-46.634944
 30
0.0
 11
769.42572
 21
-46.634944
 31
0.0
 12
761.092387
 22
-96.634944
 32
0.0
 13
761.092387
 23
-96.634944
 33
0.0
  0
MTEXT
  5
235
330
22F
100
AcDbEntity
  8
LC-001-100-D00-0
 62
     2
100
AcDbMText
 10
706.092387
 20
-70.475114
 30
0.0
 40
50.0
 41
0.0
 71
     5
 72
     1
  1
\A1;123,5
  7
LCTX15-400-0-0pDIN-Schrift
 11
6.123031769111886E-17
 21
1.0
 31
0.0
 73
     1
 44
1.0
  0
POINT
  5
236
330
22F
100
AcDbEntity
  8
Defpoints
 62
     0
100
AcDbPoint
 10
464.97653
 20
26.865056
 30
0.0
  0
POINT
  5
237
330
22F
100
AcDbEntity
  8
Defpoints
 62
     0
100
AcDbPoint
 10
464.97653
 20
-96.634944
 30
0.0
  0
POINT
  5
238
330
22F
100
AcDbEntity
  8
Defpoints
 62
     0
100
AcDbPoint
 10
761.092387
 20
-96.634944
 30
0.0
  0
ENDBLK
  5
23A
330
22F
100
AcDbEntity
  8
0
100
AcDbBlockEnd
  0
BLOCK
  5
42B
330
42A
100
AcDbEntity
  8
0
100
AcDbBlockBegin
  2
KLON15
 70
     0
 71
     0
 10
0.0
 20
0.0
 30
0.0
  3
KLON15
  1

  4
KLON15
  0
LINE
  5
42D
330
42A
100
AcDbEntity
  8
LC-001-100-D00-0
 62
     7
370
    15
100
AcDbLine
 10
43.976531
 20
329.070613
 30
0.0
 11
43.973804
 21
329.07065
 31
0.0
  0
LINE
  5
42E
330
42A
100
AcDbEntity
  8
LC-001-100-D00-0
 62
     7
370
    15
100
AcDbLine
 10
43.973804
 20
329.07065
 30
0.0
 11
43.969222
 21
329.070844
 31
0.0
  0
LINE
  5
42F
330
42A
100
AcDbEntity
  8
LC-001-100-D00-0
 62
     7
370
    15
100
AcDbLine
 10
43.969222
 20
329.070844
 30
0.0
 11
43.960348
 21
329.071679
 31
0.0
  0
LINE
  5
430
330
42A
100
AcDbEntity
  8
LC-001-100-D00-0
 62
     7
370
    15
100
AcDbLine
 10
43.960348
 20
329.071679
 30
0.0
 11
43.958068
 21
329.071984
 31
0.0
  0
LINE
  5
431
330
42A
100
AcDbEntity
  8
LC-001-100-D00-0
 62
     7
370
    15
100
AcDbLine
 10
43.958068
 20
329.071984
 30
0.0
 11
43.957495
 21
329.072066
 31
0.0
  0
LINE
  5
432
330
42A
100
AcDbEntity
  8
LC-001-100-D00-0
 62
     7
370
    15
100
AcDbLine
 10
43.957495
 20
329.072066
 30
0.0
 11
43.957353
 21
329.072088
 31
0.0
  0
LINE
  5
433
330
42A
100
AcDbEntity
  8
LC-001-100-D00-0
 62
     7
370
    15
100
AcDbLine
 10
43.957353
 20
329.072088
 30
0.0
 11
43.838174
 21
329.121359
 31
0.0
  0
LINE
  5
434
330
42A
100
AcDbEntity
  8
LC-001-100-D00-0
 62
     7
370
    15
100
AcDbLine
 10
43.838174
 20
329.121359
 30
0.0
 11
42.997569
 21
329.934255
 31
0.0
  0
LINE
  5
435
330
42A
100
AcDbEntity
  8
LC-001-100-D00-0
 62
     7
370
    15
100
AcDbLine
 10
42.997569
 20
329.934255
 30
0.0
 11
41.908891
 21
331.259579
 31
0.0
  0
LINE
  5
436
330
42A
100
AcDbEntity
  8
LC-001-100-D00-0
 62
     7
370
    15
100
AcDbLine
 10
41.908891
 20
331.259579
 30
0.0
 11
40.483028
 21
333.16274
 31
0.0
  0
LINE
  5
437
330
42A
100
AcDbEntity
  8
LC-001-100-D00-0
 62
     7
370
    15
100
AcDbLine
 10
40.483028
 20
333.16274
 30
0.0
 11
38.430684
 21
336.128399
 31
0.0
  0
LINE
  5
438
330
42A
100
AcDbEntity
  8
LC-001-100-D00-0
 62
     7
370
    15
100
AcDbLine
 10
38.430684
 20
336.128399
 30
0.0
 11
36.060013
 21
339.769729
 31
0.0
  0
LINE
  5
439
330
42A
100
AcDbEntity
  8
LC-001-100-D00-0
 62
     7
370
    15
100
AcDbLine
 10
36.060013
 20
339.769729
 30
0.0
 11
35.951824
 21
339.936108
 31
0.0
  0
ENDBLK
  5
42C
330
42A
100
AcDbEntity
  8
0
100
AcDbBlockEnd
  0
BLOCK
  5
43C
330
43B
100
AcDbEntity
  8
0
100
AcDbBlockBegin
  2
KLON16
 70
     0
 71
     0
 10
0.0
 20
0.0
 30
0.0
  3
KLON16
  1

  4
KLON16
  0
LINE
  5
43E
330
43B
100
AcDbEntity
  8
LC-001-100-D00-0
 62
     7
370
    15
100
AcDbLine
 10
35.951824
 20
339.936108
 30
0.0
 11
35.210215
 21
342.314661
 31
0.0
  0
LINE
  5
43F
330
43B
100
AcDbEntity
  8
LC-001-100-D00-0
 62
     7
370
    15
100
AcDbLine
 10
35.210215
 20
342.314661
 30
0.0
 11
34.575478
 21
344.895088
 31
0.0
  0
LINE
  5
440
330
43B
100
AcDbEntity
  8
LC-001-100-D00-0
 62
     7
370
    15
100
AcDbLine
 10
34.575478
 20
344.895088
 30
0.0
 11
34.056269
 21
348.027267
 31
0.0
  0
LINE
  5
441
330
43B
100
AcDbEntity
  8
LC-001-100-D00-0
 62
     7
370
    15
100
AcDbLine
 10
34.056269
 20
348.027267
 30
0.0
 11
33.81943
 21
351.364144
 31
0.0
  0
LINE
  5
442
330
43B
100
AcDbEntity
  8
LC-001-100-D00-0
 62
     7
370
    15
100
AcDbLine
 10
33.81943
 20
351.364144
 30
0.0
 11
33.91035
 21
354.633913
 31
0.0
  0
LINE
  5
443
330
43B
100
AcDbEntity
  8
LC-001-100-D00-0
 62
     7
370
    15
100
AcDbLine
 10
33.91035
 20
354.633913
 30
0.0
 11
34.322165
 21
357.925289
 31
0.0
  0
LINE
  5
444
330
43B
100
AcDbEntity
  8
LC-001-100-D00-0
 62
     7
370
    15
100
AcDbLine
 10
34.322165
 20
357.925289
 30
0.0
 11
34.96606
 21
360.918075
 31
0.0
  0
LINE
  5
445
330
43B
100
AcDbEntity
  8
LC-001-100-D00-0
 62
     7
370
    15
100
AcDbLine
 10
34.96606
 20
360.918075
 30
0.0
 11
35.804689
 21
363.768004
 31
0.0
  0
LINE
  5
446
330
43B
100
AcDbEntity
  8
LC-001-100-D00-0
 62
     7
370
    15
100
AcDbLine
 10
35.804689
 20
363.768004
 30
0.0
 11
36.87235
 21
366.679028
 31
0.0
  0
LINE
  5
447
330
43B
100
AcDbEntity
  8
LC-001-100-D00-0
 62
     7
370
    15
100
AcDbLine
 10
36.87235
 20
366.679028
 30
0.0
 11
37.996226
 21
369.289134
 31
0.0
  0
LINE
  5
448
330
43B
100
AcDbEntity
  8
LC-001-100-D00-0
 62
     7
370
    15
100
AcDbLine
 10
37.996226
 20
369.289134
 30
0.0
 11
39.144643
 21
371.665843
 31
0.0
  0
LINE
  5
449
330
43B
100
AcDbEntity
  8
LC-001-100-D00-0
 62
     7
370
    15
100
AcDbLine
 10
39.144643
 20
371.665843
 30
0.0
 11
40.11646
 21
373.519958
 31
0.0
  0
LINE
  5
44A
330
43B
100
AcDbEntity
  8
LC-001-100-D00-0
 62
     7
370
    15
100
AcDbLine
 10
40.11646
 20
373.519958
 30
0.0
 11
40.658698
 21
374.506228
 31
0.0
  0
LINE
  5
44B
330
43B
100
AcDbEntity
  8
LC-001-100-D00-0
 62
     7
370
    15
100
AcDbLine
 10
40.658698
 20
374.506228
 30
0.0
 11
40.945396
 21
375.015755
 31
0.0
  0
LINE
  5
44C
330
43B
100
AcDbEntity
  8
LC-001-100-D00-0
 62
     7
370
    15
100
AcDbLine
 10
40.945396
 20
375.015755
 30
0.0
 11
40.976257
 21
375.070133
 31
0.0
  0
LINE
  5
44D
330
43B
100
AcDbEntity
  8
LC-001-100-D00-0
 62
     7
370
    15
100
AcDbLine
 10
40.976257
 20
375.070133
 30
0.0
 11
40.976532
 21
375.070617
 31
0.0
  0
ENDBLK
  5
43D
330
43B
100
AcDbEntity
  8
0
100
AcDbBlockEnd
  0
BLOCK
  5
453
330
452
100
AcDbEntity
  8
0
100
AcDbBlockBegin
  2
KLON17
 70
     0
 71
     0
 10
0.0
 20
0.0
 30
0.0
  3
KLON17
  1

  4
KLON17
  0
LINE
  5
455
330
452
100
AcDbEntity
  8
LC-001-100-D00-0
 62
     7
370
    15
100
AcDbLine
 10
35.293982
 20
338.570618
 30
0.0
 11
35.300762
 21
338.584893
 31
0.0
  0
LINE
  5
456
330
452
100
AcDbEntity
  8
LC-001-100-D00-0
 62
     7
370
    15
100
AcDbLine
 10
35.300762
 20
338.584893
 30
0.0
 11
35.951824
 21
339.936108
 31
0.0
  0
ENDBLK
  5
454
330
452
100
AcDbEntity
  8
0
100
AcDbBlockEnd
  0
BLOCK
  5
585
330
584
100
AcDbEntity
  8
0
100
AcDbBlockBegin
  2
KLON18
 70
     0
 71
     0
 10
0.0
 20
0.0
 30
0.0
  3
KLON18
  1

  4
KLON18
  0
LINE
  5
587
330
584
100
AcDbEntity
  8
LC-001-100-D00-0
 62
     7
370
    15
100
AcDbLine
 10
402.884201
 20
407.23878
 30
0.0
 11
405.440525
 21
407.332076
 31
0.0
  0
LINE
  5
588
330
584
100
AcDbEntity
  8
LC-001-100-D00-0
 62
     7
370
    15
100
AcDbLine
 10
405.440525
 20
407.332076
 30
0.0
 11
407.586322
 21
407.410389
 31
0.0
  0
LINE
  5
589
330
584
100
AcDbEntity
  8
LC-001-100-D00-0
 62
     7
370
    15
100
AcDbLine
 10
407.586322
 20
407.410389
 30
0.0
 11
409.316466
 21
407.473533
 31
0.0
  0
LINE
  5
58A
330
584
100
AcDbEntity
  8
LC-001-100-D00-0
 62
     7
370
    15
100
AcDbLine
 10
409.316466
 20
407.473533
 30
0.0
 11
410.626784
 21
407.521354
 31
0.0
  0
LINE
  5
58B
330
584
100
AcDbEntity
  8
LC-001-100-D00-0
 62
     7
370
    15
100
AcDbLine
 10
410.626784
 20
407.521354
 30
0.0
 11
411.514178
 21
407.553742
 31
0.0
  0
LINE
  5
58C
330
584
100
AcDbEntity
  8
LC-001-100-D00-0
 62
     7
370
    15
100
AcDbLine
 10
411.514178
 20
407.553742
 30
0.0
 11
411.976532
 21
407.570616
 31
0.0
  0
ENDBLK
  5
586
330
584
100
AcDbEntity
  8
0
100
AcDbBlockEnd
  0
BLOCK
  5
58F
330
58E
100
AcDbEntity
  8
0
100
AcDbBlockBegin
  2
KLON19
 70
     0
 71
     0
 10
0.0
 20
0.0
 30
0.0
  3
KLON19
  1

  4
KLON19
  0
LINE
  5
591
330
58E
100
AcDbEntity
  8
LC-001-100-D00-0
 62
     7
370
    15
100
AcDbLine
 10
-462.931141
 20
407.23878
 30
0.0
 11
-465.487465
 21
407.332076
 31
0.0
  0
LINE
  5
592
330
58E
100
AcDbEntity
  8
LC-001-100-D00-0
 62
     7
370
    15
100
AcDbLine
 10
-465.487465
 20
407.332076
 30
0.0
 11
-467.633262
 21
407.410389
 31
0.0
  0
LINE
  5
593
330
58E
100
AcDbEntity
  8
LC-001-100-D00-0
 62
     7
370
    15
100
AcDbLine
 10
-467.633262
 20
407.410389
 30
0.0
 11
-469.363406
 21
407.473533
 31
0.0
  0
LINE
  5
594
330
58E
100
AcDbEntity
  8
LC-001-100-D00-0
 62
     7
370
    15
100
AcDbLine
 10
-469.363406
 20
407.473533
 30
0.0
 11
-470.673724
 21
407.521354
 31
0.0
  0
LINE
  5
595
330
58E
100
AcDbEntity
  8
LC-001-100-D00-0
 62
     7
370
    15
100
AcDbLine
 10
-470.673724
 20
407.521354
 30
0.0
 11
-471.561118
 21
407.553742
 31
0.0
  0
LINE
  5
596
330
58E
100
AcDbEntity
  8
LC-001-100-D00-0
 62
     7
370
    15
100
AcDbLine
 10
-471.561118
 20
407.553742
 30
0.0
 11
-472.023472
 21
407.570616
 31
0.0
  0
ENDBLK
  5
590
330
58E
100
AcDbEntity
  8
0
100
AcDbBlockEnd
  0
BLOCK
  5
5B2
330
5B1
100
AcDbEntity
  8
0
100
AcDbBlockBegin
  2
KLON20
 70
     0
 71
     0
 10
0.0
 20
0.0
 30
0.0
  3
KLON20
  1

  4
KLON20
  0
LINE
  5
5B4
330
5B1
100
AcDbEntity
  8
LC-001-100-D00-0
 62
     7
370
    15
100
AcDbLine
 10
-76.143085
 20
395.570614
 30
0.0
 11
-76.129555
 21
395.411909
 31
0.0
  0
LINE
  5
5B5
330
5B1
100
AcDbEntity
  8
LC-001-100-D00-0
 62
     7
370
    15
100
AcDbLine
 10
-76.129555
 20
395.411909
 30
0.0
 11
-75.967632
 21
394.827489
 31
0.0
  0
LINE
  5
5B6
330
5B1
100
AcDbEntity
  8
LC-001-100-D00-0
 62
     7
370
    15
100
AcDbLine
 10
-75.967632
 20
394.827489
 30
0.0
 11
-75.717765
 21
394.381185
 31
0.0
  0
LINE
  5
5B7
330
5B1
100
AcDbEntity
  8
LC-001-100-D00-0
 62
     7
370
    15
100
AcDbLine
 10
-75.717765
 20
394.381185
 30
0.0
 11
-75.406465
 21
394.122433
 31
0.0
  0
LINE
  5
5B8
330
5B1
100
AcDbEntity
  8
LC-001-100-D00-0
 62
     7
370
    15
100
AcDbLine
 10
-75.406465
 20
394.122433
 30
0.0
 11
-75.268972
 21
394.078676
 31
0.0
  0
ENDBLK
  5
5B3
330
5B1
100
AcDbEntity
  8
0
100
AcDbBlockEnd
  0
BLOCK
  5
5BB
330
5BA
100
AcDbEntity
  8
0
100
AcDbBlockBegin
  2
KLON21
 70
     0
 71
     0
 10
0.0
 20
0.0
 30
0.0
  3
KLON21
  1

  4
KLON21
  0
LINE
  5
5BD
330
5BA
100
AcDbEntity
  8
LC-001-100-D00-0
 62
     7
370
    15
100
AcDbLine
 10
411.949173
 20
409.070615
 30
0.0
 11
411.948488
 21
409.108596
 31
0.0
  0
LINE
  5
5BE
330
5BA
100
AcDbEntity
  8
LC-001-100-D00-0
 62
     7
370
    15
100
AcDbLine
 10
411.948488
 20
409.108596
 30
0.0
 11
411.946431
 21
409.221383
 31
0.0
  0
LINE
  5
5BF
330
5BA
100
AcDbEntity
  8
LC-001-100-D00-0
 62
     7
370
    15
100
AcDbLine
 10
411.946431
 20
409.221383
 30
0.0
 11
411.943064
 21
409.405552
 31
0.0
  0
LINE
  5
5C0
330
5BA
100
AcDbEntity
  8
LC-001-100-D00-0
 62
     7
370
    15
100
AcDbLine
 10
411.943064
 20
409.405552
 30
0.0
 11
411.938504
 21
409.655504
 31
0.0
  0
LINE
  5
5C1
330
5BA
100
AcDbEntity
  8
LC-001-100-D00-0
 62
     7
370
    15
100
AcDbLine
 10
411.938504
 20
409.655504
 30
0.0
 11
411.932871
 21
409.963647
 31
0.0
  0
LINE
  5
5C2
330
5BA
100
AcDbEntity
  8
LC-001-100-D00-0
 62
     7
370
    15
100
AcDbLine
 10
411.932871
 20
409.963647
 30
0.0
 11
411.926374
 21
410.320616
 31
0.0
  0
LINE
  5
5C3
330
5BA
100
AcDbEntity
  8
LC-001-100-D00-0
 62
     7
370
    15
100
AcDbLine
 10
411.926374
 20
410.320616
 30
0.0
 11
411.919162
 21
410.715566
 31
0.0
  0
LINE
  5
5C4
330
5BA
100
AcDbEntity
  8
LC-001-100-D00-0
 62
     7
370
    15
100
AcDbLine
 10
411.919162
 20
410.715566
 30
0.0
 11
411.911473
 21
411.136495
 31
0.0
  0
LINE
  5
5C5
330
5BA
100
AcDbEntity
  8
LC-001-100-D00-0
 62
     7
370
    15
100
AcDbLine
 10
411.911473
 20
411.136495
 30
0.0
 11
411.903576
 21
411.570617
 31
0.0
  0
ENDBLK
  5
5BC
330
5BA
100
AcDbEntity
  8
0
100
AcDbBlockEnd
  0
BLOCK
  5
5C8
330
5C7
100
AcDbEntity
  8
0
100
AcDbBlockBegin
  2
KLON22
 70
     0
 71
     0
 10
0.0
 20
0.0
 30
0.0
  3
KLON22
  1

  4
KLON22
  0
LINE
  5
5CA
330
5C7
100
AcDbEntity
  8
LC-001-100-D00-0
 62
     7
370
    15
100
AcDbLine
 10
-471.996113
 20
409.070615
 30
0.0
 11
-471.995428
 21
409.108596
 31
0.0
  0
LINE
  5
5CB
330
5C7
100
AcDbEntity
  8
LC-001-100-D00-0
 62
     7
370
    15
100
AcDbLine
 10
-471.995428
 20
409.108596
 30
0.0
 11
-471.993371
 21
409.221383
 31
0.0
  0
LINE
  5
5CC
330
5C7
100
AcDbEntity
  8
LC-001-100-D00-0
 62
     7
370
    15
100
AcDbLine
 10
-471.993371
 20
409.221383
 30
0.0
 11
-471.990004
 21
409.405552
 31
0.0
  0
LINE
  5
5CD
330
5C7
100
AcDbEntity
  8
LC-001-100-D00-0
 62
     7
370
    15
100
AcDbLine
 10
-471.990004
 20
409.405552
 30
0.0
 11
-471.985444
 21
409.655504
 31
0.0
  0
LINE
  5
5CE
330
5C7
100
AcDbEntity
  8
LC-001-100-D00-0
 62
     7
370
    15
100
AcDbLine
 10
-471.985444
 20
409.655504
 30
0.0
 11
-471.979811
 21
409.963647
 31
0.0
  0
LINE
  5
5CF
330
5C7
100
AcDbEntity
  8
LC-001-100-D00-0
 62
     7
370
    15
100
AcDbLine
 10
-471.979811
 20
409.963647
 30
0.0
 11
-471.973314
 21
410.320616
 31
0.0
  0
LINE
  5
5D0
330
5C7
100
AcDbEntity
  8
LC-001-100-D00-0
 62
     7
370
    15
100
AcDbLine
 10
-471.973314
 20
410.320616
 30
0.0
 11
-471.966102
 21
410.715566
 31
0.0
  0
LINE
  5
5D1
330
5C7
100
AcDbEntity
  8
LC-001-100-D00-0
 62
     7
370
    15
100
AcDbLine
 10
-471.966102
 20
410.715566
 30
0.0
 11
-471.958413
 21
411.136495
 31
0.0
  0
LINE
  5
5D2
330
5C7
100
AcDbEntity
  8
LC-001-100-D00-0
 62
     7
370
    15
100
AcDbLine
 10
-471.958413
 20
411.136495
 30
0.0
 11
-471.950516
 21
411.570617
 31
0.0
  0
ENDBLK
  5
5C9
330
5C7
100
AcDbEntity
  8
0
100
AcDbBlockEnd
  0
BLOCK
  5
5F1
330
5E5
100
AcDbEntity
  8
0
100
AcDbBlockBegin
  2
*D27
 70
     1
 71
     0
 10
0.0
 20
0.0
 30
0.0
  3
*D27
  1

  0
LINE
  5
5E6
330
5E5
100
AcDbEntity
  8
LC-001-100-D00-0
 62
     2
370
    -2
100
AcDbLine
 10
-530.02347
 20
429.570616
 30
0.0
 11
-575.416459
 21
429.570616
 31
0.0
  0
LINE
  5
5E7
330
5E5
100
AcDbEntity
  8
LC-001-100-D00-0
 62
     2
370
    -2
100
AcDbLine
 10
-525.02347
 20
475.570616
 30
0.0
 11
-575.416459
 21
475.570616
 31
0.0
  0
LINE
  5
5E8
330
5E5
100
AcDbEntity
  8
LC-001-100-D00-0
 62
     2
370
    -2
100
AcDbLine
 10
-566.416459
 20
379.570616
 30
0.0
 11
-566.416459
 21
329.570616
 31
0.0
  0
LINE
  5
5E9
330
5E5
100
AcDbEntity
  8
LC-001-100-D00-0
 62
     2
370
    -2
100
AcDbLine
 10
-566.416459
 20
525.570616
 30
0.0
 11
-566.416459
 21
575.570616
 31
0.0
  0
LINE
  5
5EA
330
5E5
100
AcDbEntity
  8
LC-001-100-D00-0
 62
     2
370
    -2
100
AcDbLine
 10
-566.416459
 20
429.570616
 30
0.0
 11
-566.416459
 21
475.570616
 31
0.0
  0
SOLID
  5
5EB
330
5E5
100
AcDbEntity
  8
LC-001-100-D00-0
 62
     2
100
AcDbTrace
 10
-558.083125
 20
379.570616
 30
0.0
 11
-574.749792
 21
379.570616
 31
0.0
 12
-566.416459
 22
429.570616
 32
0.0
 13
-566.416459
 23
429.570616
 33
0.0
  0
SOLID
  5
5EC
330
5E5
100
AcDbEntity
  8
LC-001-100-D00-0
 62
     2
100
AcDbTrace
 10
-574.749792
 20
525.570616
 30
0.0
 11
-558.083125
 21
525.570616
 31
0.0
 12
-566.416459
 22
475.570616
 32
0.0
 13
-566.416459
 23
475.570616
 33
0.0
  0
MTEXT
  5
5ED
330
5E5
100
AcDbEntity
  8
LC-001-100-D00-0
 62
     2
100
AcDbMText
 10
-621.416459
 20
457.853914
 30
0.0
 40
50.0
 41
0.0
 71
     5
 72
     1
  1
\A1;46
  7
LCTX15-400-0-0pDIN-Schrift
 11
6.123031769111886E-17
 21
1.0
 31
0.0
 73
     1
 44
1.0
  0
POINT
  5
5EE
330
5E5
100
AcDbEntity
  8
Defpoints
 62
     0
100
AcDbPoint
 10
-530.02347
 20
429.570616
 30
0.0
  0
POINT
  5
5EF
330
5E5
100
AcDbEntity
  8
Defpoints
 62
     0
100
AcDbPoint
 10
-525.02347
 20
475.570616
 30
0.0
  0
POINT
  5
5F0
330
5E5
100
AcDbEntity
  8
Defpoints
 62
     0
100
AcDbPoint
 10
-566.416459
 20
475.570616
 30
0.0
  0
ENDBLK
  5
5F2
330
5E5
100
AcDbEntity
  8
0
100
AcDbBlockEnd
  0
BLOCK
  5
5FF
330
5F4
100
AcDbEntity
  8
0
100
AcDbBlockBegin
  2
*D28
 70
     1
 71
     0
 10
0.0
 20
0.0
 30
0.0
  3
*D28
  1

  0
LINE
  5
5F5
330
5F4
100
AcDbEntity
  8
LC-001-100-D00-0
 62
     2
370
    -2
100
AcDbLine
 10
-59.02347
 20
337.670616
 30
0.0
 11
-221.742672
 21
337.670616
 31
0.0
  0
LINE
  5
5F6
330
5F4
100
AcDbEntity
  8
LC-001-100-D00-0
 62
     2
370
    -2
100
AcDbLine
 10
-65.102865
 20
388.070616
 30
0.0
 11
-221.742672
 21
388.070616
 31
0.0
  0
LINE
  5
5F7
330
5F4
100
AcDbEntity
  8
LC-001-100-D00-0
 62
     2
370
    -2
100
AcDbLine
 10
-212.742672
 20
438.070616
 30
0.0
 11
-212.742672
 21
488.070616
 31
0.0
  0
LINE
  5
5F8
330
5F4
100
AcDbEntity
  8
LC-001-100-D00-0
 62
     2
370
    -2
100
AcDbLine
 10
-212.742672
 20
287.670616
 30
0.0
 11
-212.742672
 21
256.214482
 31
0.0
  0
SOLID
  5
5F9
330
5F4
100
AcDbEntity
  8
LC-001-100-D00-0
 62
     2
100
AcDbTrace
 10
-204.409339
 20
287.670616
 30
0.0
 11
-221.076005
 21
287.670616
 31
0.0
 12
-212.742672
 22
337.670616
 32
0.0
 13
-212.742672
 23
337.670616
 33
0.0
  0
SOLID
  5
5FA
330
5F4
100
AcDbEntity
  8
LC-001-100-D00-0
 62
     2
100
AcDbTrace
 10
-221.076005
 20
438.070616
 30
0.0
 11
-204.409339
 21
438.070616
 31
0.0
 12
-212.742672
 22
388.070616
 32
0.0
 13
-212.742672
 23
388.070616
 33
0.0
  0
MTEXT
  5
5FB
330
5F4
100
AcDbEntity
  8
LC-001-100-D00-0
 62
     2
100
AcDbMText
 10
-267.742672
 20
299.289886
 30
0.0
 40
50.0
 41
0.0
 71
     5
 72
     1
  1
\A1;50
  7
LCTX15-400-0-0pDIN-Schrift
 11
6.123031769111886E-17
 21
1.0
 31
0.0
 73
     1
 44
1.0
  0
POINT
  5
5FC
330
5F4
100
AcDbEntity
  8
Defpoints
 62
     0
100
AcDbPoint
 10
-59.02347
 20
337.670616
 30
0.0
  0
POINT
  5
5FD
330
5F4
100
AcDbEntity
  8
Defpoints
 62
     0
100
AcDbPoint
 10
-65.102865
 20
388.070616
 30
0.0
  0
POINT
  5
5FE
330
5F4
100
AcDbEntity
  8
Defpoints
 62
     0
100
AcDbPoint
 10
-212.742672
 20
388.070616
 30
0.0
  0
ENDBLK
  5
600
330
5F4
100
AcDbEntity
  8
0
100
AcDbBlockEnd
  0
BLOCK
  5
60C
330
602
100
AcDbEntity
  8
0
100
AcDbBlockBegin
  2
*D29
 70
     1
 71
     0
 10
0.0
 20
0.0
 30
0.0
  3
*D29
  1

  0
LINE
  5
603
330
602
100
AcDbEntity
  8
LC-001-100-D00-0
 62
     2
370
    -2
100
AcDbLine
 10
-104.02347
 20
338.570616
 30
0.0
 11
-104.02347
 21
223.464886
 31
0.0
  0
LINE
  5
604
330
602
100
AcDbEntity
  8
LC-001-100-D00-0
 62
     2
370
    -2
100
AcDbLine
 10
43.97653
 20
378.820616
 30
0.0
 11
43.97653
 21
223.464886
 31
0.0
  0
LINE
  5
605
330
602
100
AcDbEntity
  8
LC-001-100-D00-0
 62
     2
370
    -2
100
AcDbLine
 10
-54.02347
 20
232.464886
 30
0.0
 11
-6.02347
 21
232.464886
 31
0.0
  0
SOLID
  5
606
330
602
100
AcDbEntity
  8
LC-001-100-D00-0
 62
     2
100
AcDbTrace
 10
-54.02347
 20
240.79822
 30
0.0
 11
-54.02347
 21
224.131553
 31
0.0
 12
-104.02347
 22
232.464886
 32
0.0
 13
-104.02347
 23
232.464886
 33
0.0
  0
SOLID
  5
607
330
602
100
AcDbEntity
  8
LC-001-100-D00-0
 62
     2
100
AcDbTrace
 10
-6.02347
 20
224.131553
 30
0.0
 11
-6.02347
 21
240.79822
 31
0.0
 12
43.97653
 22
232.464886
 32
0.0
 13
43.97653
 23
232.464886
 33
0.0
  0
MTEXT
  5
608
330
602
100
AcDbEntity
  8
LC-001-100-D00-0
 62
     2
100
AcDbMText
 10
-34.755883
 20
287.464886
 30
0.0
 40
50.0
 41
0.0
 71
     5
 72
     1
  1
\A1;148
  7
LCTX15-400-0-0pDIN-Schrift
 73
     1
 44
1.0
  0
POINT
  5
609
330
602
100
AcDbEntity
  8
Defpoints
 62
     0
100
AcDbPoint
 10
-104.02347
 20
338.570616
 30
0.0
  0
POINT
  5
60A
330
602
100
AcDbEntity
  8
Defpoints
 62
     0
100
AcDbPoint
 10
43.97653
 20
378.820616
 30
0.0
  0
POINT
  5
60B
330
602
100
AcDbEntity
  8
Defpoints
 62
     0
100
AcDbPoint
 10
43.97653
 20
232.464886
 30
0.0
  0
ENDBLK
  5
60D
330
602
100
AcDbEntity
  8
0
100
AcDbBlockEnd
  0
BLOCK
  5
619
330
60F
100
AcDbEntity
  8
0
100
AcDbBlockBegin
  2
*D30
 70
     1
 71
     0
 10
0.0
 20
0.0
 30
0.0
  3
*D30
  1

  0
LINE
  5
610
330
60F
100
AcDbEntity
  8
LC-001-100-D00-0
 62
     2
370
    -2
100
AcDbLine
 10
-104.02347
 20
338.570616
 30
0.0
 11
-104.02347
 21
129.909886
 31
0.0
  0
LINE
  5
611
330
60F
100
AcDbEntity
  8
LC-001-100-D00-0
 62
     2
370
    -2
100
AcDbLine
 10
179.476327
 20
328.008438
 30
0.0
 11
179.476327
 21
129.909886
 31
0.0
  0
LINE
  5
612
330
60F
100
AcDbEntity
  8
LC-001-100-D00-0
 62
     2
370
    -2
100
AcDbLine
 10
-54.02347
 20
138.909886
 30
0.0
 11
129.476327
 21
138.909886
 31
0.0
  0
SOLID
  5
613
330
60F
100
AcDbEntity
  8
LC-001-100-D00-0
 62
     2
100
AcDbTrace
 10
-54.02347
 20
147.24322
 30
0.0
 11
-54.02347
 21
130.576553
 31
0.0
 12
-104.02347
 22
138.909886
 32
0.0
 13
-104.02347
 23
138.909886
 33
0.0
  0
SOLID
  5
614
330
60F
100
AcDbEntity
  8
LC-001-100-D00-0
 62
     2
100
AcDbTrace
 10
129.476327
 20
130.576553
 30
0.0
 11
129.476327
 21
147.24322
 31
0.0
 12
179.476327
 22
138.909886
 32
0.0
 13
179.476327
 23
138.909886
 33
0.0
  0
MTEXT
  5
615
330
60F
100
AcDbEntity
  8
LC-001-100-D00-0
 62
     2
100
AcDbMText
 10
29.732084
 20
193.909886
 30
0.0
 40
50.0
 41
0.0
 71
     5
 72
     1
  1
\A1;284
  7
LCTX15-400-0-0pDIN-Schrift
 73
     1
 44
1.0
  0
POINT
  5
616
330
60F
100
AcDbEntity
  8
Defpoints
 62
     0
100
AcDbPoint
 10
-104.02347
 20
338.570616
 30
0.0
  0
POINT
  5
617
330
60F
100
AcDbEntity
  8
Defpoints
 62
     0
100
AcDbPoint
 10
179.476327
 20
328.008438
 30
0.0
  0
POINT
  5
618
330
60F
100
AcDbEntity
  8
Defpoints
 62
     0
100
AcDbPoint
 10
179.476327
 20
138.909886
 30
0.0
  0
ENDBLK
  5
61A
330
60F
100
AcDbEntity
  8
0
100
AcDbBlockEnd
  0
BLOCK
  5
626
330
61C
100
AcDbEntity
  8
0
100
AcDbBlockBegin
  2
*D31
 70
     1
 71
     0
 10
0.0
 20
0.0
 30
0.0
  3
*D31
  1

  0
LINE
  5
61D
330
61C
100
AcDbEntity
  8
LC-001-100-D00-0
 62
     2
370
    -2
100
AcDbLine
 10
-530.02347
 20
470.570616
 30
0.0
 11
-530.02347
 21
579.014886
 31
0.0
  0
LINE
  5
61E
330
61C
100
AcDbEntity
  8
LC-001-100-D00-0
 62
     2
370
    -2
100
AcDbLine
 10
469.97653
 20
470.570616
 30
0.0
 11
469.97653
 21
579.014886
 31
0.0
  0
LINE
  5
61F
330
61C
100
AcDbEntity
  8
LC-001-100-D00-0
 62
     2
370
    -2
100
AcDbLine
 10
-480.02347
 20
570.014886
 30
0.0
 11
419.97653
 21
570.014886
 31
0.0
  0
SOLID
  5
620
330
61C
100
AcDbEntity
  8
LC-001-100-D00-0
 62
     2
100
AcDbTrace
 10
-480.02347
 20
578.34822
 30
0.0
 11
-480.02347
 21
561.681553
 31
0.0
 12
-530.02347
 22
570.014886
 32
0.0
 13
-530.02347
 23
570.014886
 33
0.0
  0
SOLID
  5
621
330
61C
100
AcDbEntity
  8
LC-001-100-D00-0
 62
     2
100
AcDbTrace
 10
419.97653
 20
561.681553
 30
0.0
 11
419.97653
 21
578.34822
 31
0.0
 12
469.97653
 22
570.014886
 32
0.0
 13
469.97653
 23
570.014886
 33
0.0
  0
MTEXT
  5
622
330
61C
100
AcDbEntity
  8
LC-001-100-D00-0
 62
     2
100
AcDbMText
 10
-21.85829
 20
625.014886
 30
0.0
 40
50.0
 41
0.0
 71
     5
 72
     1
  1
\A1;1000
  7
LCTX15-400-0-0pDIN-Schrift
 73
     1
 44
1.0
  0
POINT
  5
623
330
61C
100
AcDbEntity
  8
Defpoints
 62
     0
100
AcDbPoint
 10
-530.02347
 20
470.570616
 30
0.0
  0
POINT
  5
624
330
61C
100
AcDbEntity
  8
Defpoints
 62
     0
100
AcDbPoint
 10
469.97653
 20
470.570616
 30
0.0
  0
POINT
  5
625
330
61C
100
AcDbEntity
  8
Defpoints
 62
     0
100
AcDbPoint
 10
469.97653
 20
570.014886
 30
0.0
  0
ENDBLK
  5
627
330
61C
100
AcDbEntity
  8
0
100
AcDbBlockEnd
  0
BLOCK
  5
633
330
629
100
AcDbEntity
  8
0
100
AcDbBlockBegin
  2
*D32
 70
     1
 71
     0
 10
0.0
 20
0.0
 30
0.0
  3
*D32
  1

  0
LINE
  5
62A
330
629
100
AcDbEntity
  8
LC-001-100-D00-0
 62
     2
370
    -2
100
AcDbLine
 10
-480.02347
 20
426.570616
 30
0.0
 11
-480.02347
 21
500.412343
 31
0.0
  0
LINE
  5
62B
330
629
100
AcDbEntity
  8
LC-001-100-D00-0
 62
     2
370
    -2
100
AcDbLine
 10
419.97653
 20
426.570616
 30
0.0
 11
419.97653
 21
500.412343
 31
0.0
  0
LINE
  5
62C
330
629
100
AcDbEntity
  8
LC-001-100-D00-0
 62
     2
370
    -2
100
AcDbLine
 10
-430.02347
 20
491.412343
 30
0.0
 11
369.97653
 21
491.412343
 31
0.0
  0
SOLID
  5
62D
330
629
100
AcDbEntity
  8
LC-001-100-D00-0
 62
     2
100
AcDbTrace
 10
-430.02347
 20
499.745676
 30
0.0
 11
-430.02347
 21
483.079009
 31
0.0
 12
-480.02347
 22
491.412343
 32
0.0
 13
-480.02347
 23
491.412343
 33
0.0
  0
SOLID
  5
62E
330
629
100
AcDbEntity
  8
LC-001-100-D00-0
 62
     2
100
AcDbTrace
 10
369.97653
 20
483.079009
 30
0.0
 11
369.97653
 21
499.745676
 31
0.0
 12
419.97653
 22
491.412343
 32
0.0
 13
419.97653
 23
491.412343
 33
0.0
  0
MTEXT
  5
62F
330
629
100
AcDbEntity
  8
LC-001-100-D00-0
 62
     2
100
AcDbMText
 10
-26.604366
 20
546.412343
 30
0.0
 40
50.0
 41
0.0
 71
     5
 72
     1
  1
\A1;900
  7
LCTX15-400-0-0pDIN-Schrift
 73
     1
 44
1.0
  0
POINT
  5
630
330
629
100
AcDbEntity
  8
Defpoints
 62
     0
100
AcDbPoint
 10
-480.02347
 20
426.570616
 30
0.0
  0
POINT
  5
631
330
629
100
AcDbEntity
  8
Defpoints
 62
     0
100
AcDbPoint
 10
419.97653
 20
426.570616
 30
0.0
  0
POINT
  5
632
330
629
100
AcDbEntity
  8
Defpoints
 62
     0
100
AcDbPoint
 10
419.97653
 20
491.412343
 30
0.0
  0
ENDBLK
  5
634
330
629
100
AcDbEntity
  8
0
100
AcDbBlockEnd
  0
BLOCK
  5
641
330
636
100
AcDbEntity
  8
0
100
AcDbBlockBegin
  2
*D33
 70
     1
 71
     0
 10
0.0
 20
0.0
 30
0.0
  3
*D33
  1

  0
LINE
  5
637
330
636
100
AcDbEntity
  8
LC-001-100-D00-0
 62
     2
370
    -2
100
AcDbLine
 10
469.97653
 20
429.570616
 30
0.0
 11
519.526266
 21
429.570616
 31
0.0
  0
LINE
  5
638
330
636
100
AcDbEntity
  8
LC-001-100-D00-0
 62
     2
370
    -2
100
AcDbLine
 10
185.976327
 20
352.070616
 30
0.0
 11
519.526266
 21
352.070616
 31
0.0
  0
LINE
  5
639
330
636
100
AcDbEntity
  8
LC-001-100-D00-0
 62
     2
370
    -2
100
AcDbLine
 10
510.526266
 20
479.570616
 30
0.0
 11
510.526266
 21
529.570616
 31
0.0
  0
LINE
  5
63A
330
636
100
AcDbEntity
  8
LC-001-100-D00-0
 62
     2
370
    -2
100
AcDbLine
 10
510.526266
 20
302.070616
 30
0.0
 11
510.526266
 21
158.573061
 31
0.0
  0
SOLID
  5
63B
330
636
100
AcDbEntity
  8
LC-001-100-D00-0
 62
     2
100
AcDbTrace
 10
502.192933
 20
479.570616
 30
0.0
 11
518.859599
 21
479.570616
 31
0.0
 12
510.526266
 22
429.570616
 32
0.0
 13
510.526266
 23
429.570616
 33
0.0
  0
SOLID
  5
63C
330
636
100
AcDbEntity
  8
LC-001-100-D00-0
 62
     2
100
AcDbTrace
 10
518.859599
 20
302.070616
 30
0.0
 11
502.192933
 21
302.070616
 31
0.0
 12
510.526266
 22
352.070616
 32
0.0
 13
510.526266
 23
352.070616
 33
0.0
  0
MTEXT
  5
63D
330
636
100
AcDbEntity
  8
LC-001-100-D00-0
 62
     2
100
AcDbMText
 10
455.526266
 20
228.009886
 30
0.0
 40
50.0
 41
0.0
 71
     5
 72
     1
  1
\A1;77,5
  7
LCTX15-400-0-0pDIN-Schrift
 11
6.123031769111886E-17
 21
1.0
 31
0.0
 73
     1
 44
1.0
  0
POINT
  5
63E
330
636
100
AcDbEntity
  8
Defpoints
 62
     0
100
AcDbPoint
 10
469.97653
 20
429.570616
 30
0.0
  0
POINT
  5
63F
330
636
100
AcDbEntity
  8
Defpoints
 62
     0
100
AcDbPoint
 10
185.976327
 20
352.070616
 30
0.0
  0
POINT
  5
640
330
636
100
AcDbEntity
  8
Defpoints
 62
     0
100
AcDbPoint
 10
510.526266
 20
352.070616
 30
0.0
  0
ENDBLK
  5
642
330
636
100
AcDbEntity
  8
0
100
AcDbBlockEnd
  0
BLOCK
  5
650
330
644
100
AcDbEntity
  8
0
100
AcDbBlockBegin
  2
*D34
 70
     1
 71
     0
 10
0.0
 20
0.0
 30
0.0
  3
*D34
  1

  0
LINE
  5
645
330
644
100
AcDbEntity
  8
LC-001-100-D00-0
 62
     2
370
    -2
100
AcDbLine
 10
175.976327
 20
377.070616
 30
0.0
 11
298.173398
 21
377.070616
 31
0.0
  0
LINE
  5
646
330
644
100
AcDbEntity
  8
LC-001-100-D00-0
 62
     2
370
    -2
100
AcDbLine
 10
175.976327
 20
327.070616
 30
0.0
 11
298.173398
 21
327.070616
 31
0.0
  0
LINE
  5
647
330
644
100
AcDbEntity
  8
LC-001-100-D00-0
 62
     2
370
    -2
100
AcDbLine
 10
289.173398
 20
427.070616
 30
0.0
 11
289.173398
 21
477.070616
 31
0.0
  0
LINE
  5
648
330
644
100
AcDbEntity
  8
LC-001-100-D00-0
 62
     2
370
    -2
100
AcDbLine
 10
289.173398
 20
277.070616
 30
0.0
 11
289.173398
 21
227.070616
 31
0.0
  0
LINE
  5
649
330
644
100
AcDbEntity
  8
LC-001-100-D00-0
 62
     2
370
    -2
100
AcDbLine
 10
289.173398
 20
377.070616
 30
0.0
 11
289.173398
 21
327.070616
 31
0.0
  0
SOLID
  5
64A
330
644
100
AcDbEntity
  8
LC-001-100-D00-0
 62
     2
100
AcDbTrace
 10
280.840065
 20
427.070616
 30
0.0
 11
297.506732
 21
427.070616
 31
0.0
 12
289.173398
 22
377.070616
 32
0.0
 13
289.173398
 23
377.070616
 33
0.0
  0
SOLID
  5
64B
330
644
100
AcDbEntity
  8
LC-001-100-D00-0
 62
     2
100
AcDbTrace
 10
297.506732
 20
277.070616
 30
0.0
 11
280.840065
 21
277.070616
 31
0.0
 12
289.173398
 22
327.070616
 32
0.0
 13
289.173398
 23
327.070616
 33
0.0
  0
MTEXT
  5
64C
330
644
100
AcDbEntity
  8
LC-001-100-D00-0
 62
     2
100
AcDbMText
 10
234.173398
 20
352.069337
 30
0.0
 40
50.0
 41
0.0
 71
     5
 72
     1
  1
\A1;DN50
  7
LCTX15-400-0-0pDIN-Schrift
 11
6.123031769111886E-17
 21
1.0
 31
0.0
 73
     1
 44
1.0
  0
POINT
  5
64D
330
644
100
AcDbEntity
  8
Defpoints
 62
     0
100
AcDbPoint
 10
175.976327
 20
377.070616
 30
0.0
  0
POINT
  5
64E
330
644
100
AcDbEntity
  8
Defpoints
 62
     0
100
AcDbPoint
 10
175.976327
 20
327.070616
 30
0.0
  0
POINT
  5
64F
330
644
100
AcDbEntity
  8
Defpoints
 62
     0
100
AcDbPoint
 10
289.173398
 20
327.070616
 30
0.0
  0
ENDBLK
  5
651
330
644
100
AcDbEntity
  8
0
100
AcDbBlockEnd
  0
BLOCK
  5
65F
330
653
100
AcDbEntity
  8
0
100
AcDbBlockBegin
  2
*D35
 70
     1
 71
     0
 10
0.0
 20
0.0
 30
0.0
  3
*D35
  1

  0
LINE
  5
654
330
653
100
AcDbEntity
  8
LC-001-100-D00-0
 62
     2
370
    -2
100
AcDbLine
 10
469.97653
 20
429.570616
 30
0.0
 11
625.621831
 21
429.570616
 31
0.0
  0
LINE
  5
655
330
653
100
AcDbEntity
  8
LC-001-100-D00-0
 62
     2
370
    -2
100
AcDbLine
 10
23.99441
 20
319.570616
 30
0.0
 11
625.621831
 21
319.570616
 31
0.0
  0
LINE
  5
656
330
653
100
AcDbEntity
  8
LC-001-100-D00-0
 62
     2
370
    -2
100
AcDbLine
 10
616.621831
 20
479.570616
 30
0.0
 11
616.621831
 21
529.570616
 31
0.0
  0
LINE
  5
657
330
653
100
AcDbEntity
  8
LC-001-100-D00-0
 62
     2
370
    -2
100
AcDbLine
 10
616.621831
 20
269.570616
 30
0.0
 11
616.621831
 21
219.570616
 31
0.0
  0
LINE
  5
658
330
653
100
AcDbEntity
  8
LC-001-100-D00-0
 62
     2
370
    -2
100
AcDbLine
 10
616.621831
 20
429.570616
 30
0.0
 11
616.621831
 21
319.570616
 31
0.0
  0
SOLID
  5
659
330
653
100
AcDbEntity
  8
LC-001-100-D00-0
 62
     2
100
AcDbTrace
 10
608.288497
 20
479.570616
 30
0.0
 11
624.955164
 21
479.570616
 31
0.0
 12
616.621831
 22
429.570616
 32
0.0
 13
616.621831
 23
429.570616
 33
0.0
  0
SOLID
  5
65A
330
653
100
AcDbEntity
  8
LC-001-100-D00-0
 62
     2
100
AcDbTrace
 10
624.955164
 20
269.570616
 30
0.0
 11
608.288497
 21
269.570616
 31
0.0
 12
616.621831
 22
319.570616
 32
0.0
 13
616.621831
 23
319.570616
 33
0.0
  0
MTEXT
  5
65B
330
653
100
AcDbEntity
  8
LC-001-100-D00-0
 62
     2
100
AcDbMText
 10
561.621831
 20
331.959886
 30
0.0
 40
50.0
 41
0.0
 71
     5
 72
     1
  1
\A1;110
  7
LCTX15-400-0-0pDIN-Schrift
 11
6.123031769111886E-17
 21
1.0
 31
0.0
 73
     1
 44
1.0
  0
POINT
  5
65C
330
653
100
AcDbEntity
  8
Defpoints
 62
     0
100
AcDbPoint
 10
469.97653
 20
429.570616
 30
0.0
  0
POINT
  5
65D
330
653
100
AcDbEntity
  8
Defpoints
 62
     0
100
AcDbPoint
 10
23.99441
 20
319.570616
 30
0.0
  0
POINT
  5
65E
330
653
100
AcDbEntity
  8
Defpoints
 62
     0
100
AcDbPoint
 10
616.621831
 20
319.570616
 30
0.0
  0
ENDBLK
  5
660
330
653
100
AcDbEntity
  8
0
100
AcDbBlockEnd
  0
BLOCK
  5
662
330
661
100
AcDbEntity
  8
0
100
AcDbBlockBegin
  2
KLON23
 70
     0
 71
     0
 10
0.0
 20
0.0
 30
0.0
  3
KLON23
  1

  4
KLON23
  0
LINE
  5
664
330
661
100
AcDbEntity
  8
LC-001-100-D00-0
 62
     7
370
    25
100
AcDbLine
 10
455.343365
 20
428.070616
 30
0.0
 11
456.843365
 21
429.570616
 31
0.0
  0
LINE
  5
665
330
661
100
AcDbEntity
  8
LC-001-100-D00-0
 62
     7
370
    25
100
AcDbLine
 10
412.402272
 20
407.58016
 30
0.0
 11
414.211164
 21
409.389053
 31
0.0
  0
LINE
  5
666
330
661
100
AcDbEntity
  8
LC-001-100-D00-0
 62
     7
370
    25
100
AcDbLine
 10
419.658093
 20
414.835982
 30
0.0
 11
421.466985
 21
416.644874
 31
0.0
  0
LINE
  5
667
330
661
100
AcDbEntity
  8
LC-001-100-D00-0
 62
     7
370
    25
100
AcDbLine
 10
432.892726
 20
428.070616
 30
0.0
 11
434.392726
 21
429.570616
 31
0.0
  0
LINE
  5
668
330
661
100
AcDbEntity
  8
LC-001-100-D00-0
 62
     7
370
    25
100
AcDbLine
 10
389.942088
 20
407.570616
 30
0.0
 11
393.424655
 21
411.053183
 31
0.0
  0
LINE
  5
669
330
661
100
AcDbEntity
  8
LC-001-100-D00-0
 62
     7
370
    25
100
AcDbLine
 10
367.491448
 20
407.570616
 30
0.0
 11
368.991448
 21
409.070616
 31
0.0
  0
LINE
  5
66A
330
661
100
AcDbEntity
  8
LC-001-100-D00-0
 62
     7
370
    25
100
AcDbLine
 10
385.97653
 20
426.055699
 30
0.0
 11
388.991447
 21
429.070616
 31
0.0
  0
LINE
  5
66B
330
661
100
AcDbEntity
  8
LC-001-100-D00-0
 62
     7
370
    25
100
AcDbLine
 10
345.040809
 20
407.570616
 30
0.0
 11
346.540809
 21
409.070616
 31
0.0
  0
LINE
  5
66C
330
661
100
AcDbEntity
  8
LC-001-100-D00-0
 62
     7
370
    25
100
AcDbLine
 10
322.59017
 20
407.570616
 30
0.0
 11
324.090169
 21
409.070616
 31
0.0
  0
LINE
  5
66D
330
661
100
AcDbEntity
  8
LC-001-100-D00-0
 62
     7
370
    25
100
AcDbLine
 10
300.13953
 20
407.570616
 30
0.0
 11
301.63953
 21
409.070616
 31
0.0
  0
LINE
  5
66E
330
661
100
AcDbEntity
  8
LC-001-100-D00-0
 62
     7
370
    25
100
AcDbLine
 10
277.688891
 20
407.570616
 30
0.0
 11
279.18889
 21
409.070616
 31
0.0
  0
LINE
  5
66F
330
661
100
AcDbEntity
  8
LC-001-100-D00-0
 62
     7
370
    25
100
AcDbLine
 10
255.238251
 20
407.570616
 30
0.0
 11
256.738251
 21
409.070616
 31
0.0
  0
LINE
  5
670
330
661
100
AcDbEntity
  8
LC-001-100-D00-0
 62
     7
370
    25
100
AcDbLine
 10
232.787612
 20
407.570616
 30
0.0
 11
234.47653
 21
409.259534
 31
0.0
  0
LINE
  5
671
330
661
100
AcDbEntity
  8
LC-001-100-D00-0
 62
     7
370
    25
100
AcDbLine
 10
210.336972
 20
407.570616
 30
0.0
 11
211.836972
 21
409.070616
 31
0.0
  0
LINE
  5
672
330
661
100
AcDbEntity
  8
LC-001-100-D00-0
 62
     7
370
    25
100
AcDbLine
 10
225.97653
 20
423.210175
 30
0.0
 11
231.836971
 21
429.070616
 31
0.0
  0
LINE
  5
673
330
661
100
AcDbEntity
  8
LC-001-100-D00-0
 62
     7
370
    25
100
AcDbLine
 10
187.886333
 20
407.570616
 30
0.0
 11
189.386333
 21
409.070616
 31
0.0
  0
LINE
  5
674
330
661
100
AcDbEntity
  8
LC-001-100-D00-0
 62
     7
370
    25
100
AcDbLine
 10
165.435693
 20
407.570616
 30
0.0
 11
166.935693
 21
409.070616
 31
0.0
  0
LINE
  5
675
330
661
100
AcDbEntity
  8
LC-001-100-D00-0
 62
     7
370
    25
100
AcDbLine
 10
142.985054
 20
407.570616
 30
0.0
 11
144.485054
 21
409.070616
 31
0.0
  0
LINE
  5
676
330
661
100
AcDbEntity
  8
LC-001-100-D00-0
 62
     7
370
    25
100
AcDbLine
 10
120.534414
 20
407.570616
 30
0.0
 11
122.034414
 21
409.070616
 31
0.0
  0
LINE
  5
677
330
661
100
AcDbEntity
  8
LC-001-100-D00-0
 62
     7
370
    25
100
AcDbLine
 10
98.083775
 20
407.570616
 30
0.0
 11
99.583775
 21
409.070616
 31
0.0
  0
LINE
  5
678
330
661
100
AcDbEntity
  8
LC-001-100-D00-0
 62
     7
370
    25
100
AcDbLine
 10
75.633135
 20
407.570616
 30
0.0
 11
77.133135
 21
409.070616
 31
0.0
  0
LINE
  5
679
330
661
100
AcDbEntity
  8
LC-001-100-D00-0
 62
     7
370
    25
100
AcDbLine
 10
49.355961
 20
403.744081
 30
0.0
 11
51.477281
 21
405.865401
 31
0.0
  0
LINE
  5
67A
330
661
100
AcDbEntity
  8
LC-001-100-D00-0
 62
     7
370
    25
100
AcDbLine
 10
65.97653
 20
420.364651
 30
0.0
 11
73.829512
 21
428.217634
 31
0.0
  0
LINE
  5
67B
330
661
100
AcDbEntity
  8
LC-001-100-D00-0
 62
     7
370
    25
100
AcDbLine
 10
25.355588
 20
402.194347
 30
0.0
 11
27.152798
 21
403.991557
 31
0.0
  0
ENDBLK
  5
663
330
661
100
AcDbEntity
  8
0
100
AcDbBlockEnd
  0
BLOCK
  5
67E
330
67D
100
AcDbEntity
  8
0
100
AcDbBlockBegin
  2
KLON24
 70
     0
 71
     0
 10
0.0
 20
0.0
 30
0.0
  3
KLON24
  1

  4
KLON24
  0
LINE
  5
680
330
67D
100
AcDbEntity
  8
LC-001-100-D00-0
 62
     7
370
    25
100
AcDbLine
 10
-86.981624
 20
402.110333
 30
0.0
 11
-85.911105
 21
403.180852
 31
0.0
  0
LINE
  5
681
330
67D
100
AcDbEntity
  8
LC-001-100-D00-0
 62
     7
370
    25
100
AcDbLine
 10
-108.137562
 20
403.405034
 30
0.0
 11
-106.912817
 21
404.629779
 31
0.0
  0
LINE
  5
682
330
67D
100
AcDbEntity
  8
LC-001-100-D00-0
 62
     7
370
    25
100
AcDbLine
 10
-126.42262
 20
407.570616
 30
0.0
 11
-124.92262
 21
409.070616
 31
0.0
  0
LINE
  5
683
330
67D
100
AcDbEntity
  8
LC-001-100-D00-0
 62
     7
370
    25
100
AcDbLine
 10
-148.87326
 20
407.570616
 30
0.0
 11
-147.37326
 21
409.070616
 31
0.0
  0
LINE
  5
684
330
67D
100
AcDbEntity
  8
LC-001-100-D00-0
 62
     7
370
    25
100
AcDbLine
 10
-134.02347
 20
422.420406
 30
0.0
 11
-127.373261
 21
429.070616
 31
0.0
  0
LINE
  5
685
330
67D
100
AcDbEntity
  8
LC-001-100-D00-0
 62
     7
370
    25
100
AcDbLine
 10
-171.323899
 20
407.570616
 30
0.0
 11
-169.823899
 21
409.070616
 31
0.0
  0
LINE
  5
686
330
67D
100
AcDbEntity
  8
LC-001-100-D00-0
 62
     7
370
    25
100
AcDbLine
 10
-193.774539
 20
407.570616
 30
0.0
 11
-192.274539
 21
409.070616
 31
0.0
  0
LINE
  5
687
330
67D
100
AcDbEntity
  8
LC-001-100-D00-0
 62
     7
370
    25
100
AcDbLine
 10
-216.225178
 20
407.570616
 30
0.0
 11
-214.725178
 21
409.070616
 31
0.0
  0
LINE
  5
688
330
67D
100
AcDbEntity
  8
LC-001-100-D00-0
 62
     7
370
    25
100
AcDbLine
 10
-238.675818
 20
407.570616
 30
0.0
 11
-237.175818
 21
409.070616
 31
0.0
  0
LINE
  5
689
330
67D
100
AcDbEntity
  8
LC-001-100-D00-0
 62
     7
370
    25
100
AcDbLine
 10
-261.126457
 20
407.570616
 30
0.0
 11
-259.626457
 21
409.070616
 31
0.0
  0
LINE
  5
68A
330
67D
100
AcDbEntity
  8
LC-001-100-D00-0
 62
     7
370
    25
100
AcDbLine
 10
-283.577096
 20
407.570616
 30
0.0
 11
-282.077097
 21
409.070616
 31
0.0
  0
LINE
  5
68B
330
67D
100
AcDbEntity
  8
LC-001-100-D00-0
 62
     7
370
    25
100
AcDbLine
 10
-306.027736
 20
407.570616
 30
0.0
 11
-304.527736
 21
409.070616
 31
0.0
  0
LINE
  5
68C
330
67D
100
AcDbEntity
  8
LC-001-100-D00-0
 62
     7
370
    25
100
AcDbLine
 10
-294.02347
 20
419.574883
 30
0.0
 11
-286.02347
 21
427.574883
 31
0.0
  0
LINE
  5
68D
330
67D
100
AcDbEntity
  8
LC-001-100-D00-0
 62
     7
370
    25
100
AcDbLine
 10
-328.478375
 20
407.570616
 30
0.0
 11
-326.978376
 21
409.070616
 31
0.0
  0
LINE
  5
68E
330
67D
100
AcDbEntity
  8
LC-001-100-D00-0
 62
     7
370
    25
100
AcDbLine
 10
-350.929015
 20
407.570616
 30
0.0
 11
-349.429015
 21
409.070616
 31
0.0
  0
LINE
  5
68F
330
67D
100
AcDbEntity
  8
LC-001-100-D00-0
 62
     7
370
    25
100
AcDbLine
 10
-373.379654
 20
407.570616
 30
0.0
 11
-371.879655
 21
409.070616
 31
0.0
  0
LINE
  5
690
330
67D
100
AcDbEntity
  8
LC-001-100-D00-0
 62
     7
370
    25
100
AcDbLine
 10
-395.830294
 20
407.570616
 30
0.0
 11
-394.330294
 21
409.070616
 31
0.0
  0
LINE
  5
691
330
67D
100
AcDbEntity
  8
LC-001-100-D00-0
 62
     7
370
    25
100
AcDbLine
 10
-418.280933
 20
407.570616
 30
0.0
 11
-416.780933
 21
409.070616
 31
0.0
  0
LINE
  5
692
330
67D
100
AcDbEntity
  8
LC-001-100-D00-0
 62
     7
370
    25
100
AcDbLine
 10
-440.731573
 20
407.570616
 30
0.0
 11
-439.231573
 21
409.070616
 31
0.0
  0
LINE
  5
693
330
67D
100
AcDbEntity
  8
LC-001-100-D00-0
 62
     7
370
    25
100
AcDbLine
 10
-463.182212
 20
407.570616
 30
0.0
 11
-461.682212
 21
409.070616
 31
0.0
  0
LINE
  5
694
330
67D
100
AcDbEntity
  8
LC-001-100-D00-0
 62
     7
370
    25
100
AcDbLine
 10
-454.02347
 20
416.729359
 30
0.0
 11
-446.02347
 21
424.729359
 31
0.0
  0
LINE
  5
695
330
67D
100
AcDbEntity
  8
LC-001-100-D00-0
 62
     7
370
    25
100
AcDbLine
 10
-480.473726
 20
412.729742
 30
0.0
 11
-479.348668
 21
413.8548
 31
0.0
  0
LINE
  5
696
330
67D
100
AcDbEntity
  8
LC-001-100-D00-0
 62
     7
370
    25
100
AcDbLine
 10
-487.583493
 20
428.070616
 30
0.0
 11
-486.083493
 21
429.570616
 31
0.0
  0
LINE
  5
697
330
67D
100
AcDbEntity
  8
LC-001-100-D00-0
 62
     7
370
    25
100
AcDbLine
 10
-510.034132
 20
428.070616
 30
0.0
 11
-508.534132
 21
429.570616
 31
0.0
  0
ENDBLK
  5
67F
330
67D
100
AcDbEntity
  8
0
100
AcDbBlockEnd
  0
BLOCK
  5
69A
330
699
100
AcDbEntity
  8
0
100
AcDbBlockBegin
  2
KLON25
 70
     0
 71
     0
 10
0.0
 20
0.0
 30
0.0
  3
KLON25
  1

  4
KLON25
  0
LINE
  5
69C
330
699
100
AcDbEntity
  8
LC-001-100-D00-0
 62
     7
370
    25
100
AcDbLine
 10
-2.52347
 20
351.864646
 30
0.0
 11
-1.02347
 21
353.364646
 31
0.0
  0
LINE
  5
69D
330
699
100
AcDbEntity
  8
LC-001-100-D00-0
 62
     7
370
    25
100
AcDbLine
 10
-2.52347
 20
374.315287
 30
0.0
 11
-1.02347
 21
375.815287
 31
0.0
  0
LINE
  5
69E
330
699
100
AcDbEntity
  8
LC-001-100-D00-0
 62
     7
370
    25
100
AcDbLine
 10
20.731857
 20
397.570616
 30
0.0
 11
22.47653
 21
399.315289
 31
0.0
  0
LINE
  5
69F
330
699
100
AcDbEntity
  8
LC-001-100-D00-0
 62
     7
370
    25
100
AcDbLine
 10
-2.52347
 20
396.765928
 30
0.0
 11
4.281217
 21
403.570616
 31
0.0
  0
ENDBLK
  5
69B
330
699
100
AcDbEntity
  8
0
100
AcDbBlockEnd
  0
BLOCK
  5
6A2
330
6A1
100
AcDbEntity
  8
0
100
AcDbBlockBegin
  2
KLON26
 70
     0
 71
     0
 10
0.0
 20
0.0
 30
0.0
  3
KLON26
  1

  4
KLON26
  0
LINE
  5
6A4
330
6A1
100
AcDbEntity
  8
LC-001-100-D00-0
 62
     7
370
    25
100
AcDbLine
 10
-59.02347
 20
340.265924
 30
0.0
 11
-57.52347
 21
341.765924
 31
0.0
  0
LINE
  5
6A5
330
6A1
100
AcDbEntity
  8
LC-001-100-D00-0
 62
     7
370
    25
100
AcDbLine
 10
-59.02347
 20
362.716565
 30
0.0
 11
-57.52347
 21
364.216565
 31
0.0
  0
LINE
  5
6A6
330
6A1
100
AcDbEntity
  8
LC-001-100-D00-0
 62
     7
370
    25
100
AcDbLine
 10
-59.02347
 20
385.167206
 30
0.0
 11
-57.52347
 21
386.667206
 31
0.0
  0
LINE
  5
6A7
330
6A1
100
AcDbEntity
  8
LC-001-100-D00-0
 62
     7
370
    25
100
AcDbLine
 10
-69.070701
 20
397.570616
 30
0.0
 11
-63.070701
 21
403.570616
 31
0.0
  0
ENDBLK
  5
6A3
330
6A1
100
AcDbEntity
  8
0
100
AcDbBlockEnd
  0
BLOCK
  5
6AA
330
6A9
100
AcDbEntity
  8
0
100
AcDbBlockBegin
  2
KLON27
 70
     0
 71
     0
 10
0.0
 20
0.0
 30
0.0
  3
KLON27
  1

  4
KLON27
  0
LINE
  5
6AC
330
6A9
100
AcDbEntity
  8
LC-001-100-D00-0
 62
     7
370
    25
100
AcDbLine
 10
-9.866859
 20
322.070616
 30
0.0
 11
-8.366859
 21
323.570616
 31
0.0
  0
LINE
  5
6AD
330
6A9
100
AcDbEntity
  8
LC-001-100-D00-0
 62
     7
370
    25
100
AcDbLine
 10
9.47653
 20
341.414006
 30
0.0
 11
10.97653
 21
342.914006
 31
0.0
  0
LINE
  5
6AE
330
6A9
100
AcDbEntity
  8
LC-001-100-D00-0
 62
     7
370
    25
100
AcDbLine
 10
-32.317498
 20
322.070616
 30
0.0
 11
-30.817498
 21
323.570616
 31
0.0
  0
LINE
  5
6AF
330
6A9
100
AcDbEntity
  8
LC-001-100-D00-0
 62
     7
370
    25
100
AcDbLine
 10
9.47653
 20
363.864647
 30
0.0
 11
10.97653
 21
365.364647
 31
0.0
  0
LINE
  5
6B0
330
6A9
100
AcDbEntity
  8
LC-001-100-D00-0
 62
     7
370
    25
100
AcDbLine
 10
-54.768137
 20
322.070616
 30
0.0
 11
-53.268138
 21
323.570616
 31
0.0
  0
LINE
  5
6B1
330
6A9
100
AcDbEntity
  8
LC-001-100-D00-0
 62
     7
370
    25
100
AcDbLine
 10
9.47653
 20
386.315288
 30
0.0
 11
10.97653
 21
387.815288
 31
0.0
  0
LINE
  5
6B2
330
6A9
100
AcDbEntity
  8
LC-001-100-D00-0
 62
     7
370
    25
100
AcDbLine
 10
11.941101
 20
388.779859
 30
0.0
 11
20.588588
 21
397.427347
 31
0.0
  0
LINE
  5
6B3
330
6A9
100
AcDbEntity
  8
LC-001-100-D00-0
 62
     7
370
    25
100
AcDbLine
 10
-71.02347
 20
328.265923
 30
0.0
 11
-69.52347
 21
329.765923
 31
0.0
  0
LINE
  5
6B4
330
6A9
100
AcDbEntity
  8
LC-001-100-D00-0
 62
     7
370
    25
100
AcDbLine
 10
-71.02347
 20
350.716564
 30
0.0
 11
-69.52347
 21
352.216564
 31
0.0
  0
LINE
  5
6B5
330
6A9
100
AcDbEntity
  8
LC-001-100-D00-0
 62
     7
370
    25
100
AcDbLine
 10
-71.02347
 20
373.167205
 30
0.0
 11
-69.52347
 21
374.667206
 31
0.0
  0
LINE
  5
6B6
330
6A9
100
AcDbEntity
  8
LC-001-100-D00-0
 62
     7
370
    25
100
AcDbLine
 10
-75.372721
 20
391.268595
 30
0.0
 11
-73.942149
 21
392.699168
 31
0.0
  0
ENDBLK
  5
6AB
330
6A9
100
AcDbEntity
  8
0
100
AcDbBlockEnd
  0
BLOCK
  5
6B9
330
6B8
100
AcDbEntity
  8
0
100
AcDbBlockBegin
  2
KLON28
 70
     0
 71
     0
 10
0.0
 20
0.0
 30
0.0
  3
KLON28
  1

  4
KLON28
  0
LINE
  5
6BB
330
6B8
100
AcDbEntity
  8
LC-001-100-D00-0
 62
     7
370
    25
100
AcDbLine
 10
89.483568
 20
376.519767
 30
0.0
 11
91.281626
 21
378.317826
 31
0.0
  0
LINE
  5
6BC
330
6B8
100
AcDbEntity
  8
LC-001-100-D00-0
 62
     7
370
    25
100
AcDbLine
 10
110.235057
 20
374.820616
 30
0.0
 11
112.485056
 21
377.070616
 31
0.0
  0
LINE
  5
6BD
330
6B8
100
AcDbEntity
  8
LC-001-100-D00-0
 62
     7
370
    25
100
AcDbLine
 10
132.685697
 20
374.820616
 30
0.0
 11
134.935696
 21
377.070616
 31
0.0
  0
LINE
  5
6BE
330
6B8
100
AcDbEntity
  8
LC-001-100-D00-0
 62
     7
370
    25
100
AcDbLine
 10
155.136317
 20
374.820616
 30
0.0
 11
157.386316
 21
377.070616
 31
0.0
  0
ENDBLK
  5
6BA
330
6B8
100
AcDbEntity
  8
0
100
AcDbBlockEnd
  0
BLOCK
  5
6C1
330
6C0
100
AcDbEntity
  8
0
100
AcDbBlockBegin
  2
KLON29
 70
     0
 71
     0
 10
0.0
 20
0.0
 30
0.0
  3
KLON29
  1

  4
KLON29
  0
LINE
  5
6C3
330
6C0
100
AcDbEntity
  8
LC-001-100-D00-0
 62
     7
370
    25
100
AcDbLine
 10
174.738257
 20
327.070616
 30
0.0
 11
176.988257
 21
329.320616
 31
0.0
  0
LINE
  5
6C4
330
6C0
100
AcDbEntity
  8
LC-001-100-D00-0
 62
     7
370
    25
100
AcDbLine
 10
78.398404
 20
320.533319
 30
0.0
 11
81.779951
 21
323.914867
 31
0.0
  0
LINE
  5
6C5
330
6C0
100
AcDbEntity
  8
LC-001-100-D00-0
 62
     7
370
    25
100
AcDbLine
 10
107.38632
 20
327.070616
 30
0.0
 11
109.63632
 21
329.320616
 31
0.0
  0
ENDBLK
  5
6C2
330
6C0
100
AcDbEntity
  8
0
100
AcDbBlockEnd
  0
BLOCK
  5
6CA
330
6C9
100
AcDbEntity
  8
0
100
AcDbBlockBegin
  2
KLON30
 70
     0
 71
     0
 10
0.0
 20
0.0
 30
0.0
  3
KLON30
  1

  4
KLON30
  0
LINE
  5
6CC
330
6C9
100
AcDbEntity
  8
LC-001-100-D00-0
 62
     7
370
    25
100
AcDbLine
 10
-104.02347
 20
385.068485
 30
0.0
 11
-101.02347
 21
388.068485
 31
0.0
  0
LINE
  5
6CD
330
6C9
100
AcDbEntity
  8
LC-001-100-D00-0
 62
     7
370
    25
100
AcDbLine
 10
-93.52134
 20
395.570616
 30
0.0
 11
-92.02347
 21
397.068486
 31
0.0
  0
ENDBLK
  5
6CB
330
6C9
100
AcDbEntity
  8
0
100
AcDbBlockEnd
  0
BLOCK
  5
6D0
330
6CF
100
AcDbEntity
  8
0
100
AcDbBlockBegin
  2
KLON31
 70
     0
 71
     0
 10
0.0
 20
0.0
 30
0.0
  3
KLON31
  1

  4
KLON31
  0
LINE
  5
6D2
330
6CF
100
AcDbEntity
  8
LC-001-100-D00-0
 62
     7
370
    25
100
AcDbLine
 10
83.474136
 20
325.609053
 30
0.0
 11
86.077301
 21
328.212218
 31
0.0
  0
LINE
  5
6D3
330
6CF
100
AcDbEntity
  8
LC-001-100-D00-0
 62
     7
370
    25
100
AcDbLine
 10
60.528505
 20
325.114061
 30
0.0
 11
64.485059
 21
329.070616
 31
0.0
  0
LINE
  5
6D4
330
6CF
100
AcDbEntity
  8
LC-001-100-D00-0
 62
     7
370
    25
100
AcDbLine
 10
39.03442
 20
326.070616
 30
0.0
 11
42.03442
 21
329.070616
 31
0.0
  0
LINE
  5
6D5
330
6CF
100
AcDbEntity
  8
LC-001-100-D00-0
 62
     7
370
    25
100
AcDbLine
 10
10.083781
 20
319.570616
 30
0.0
 11
13.083781
 21
322.570616
 31
0.0
  0
LINE
  5
6D6
330
6CF
100
AcDbEntity
  8
LC-001-100-D00-0
 62
     7
370
    25
100
AcDbLine
 10
-12.366858
 20
319.570616
 30
0.0
 11
-9.366859
 21
322.570616
 31
0.0
  0
LINE
  5
6D7
330
6CF
100
AcDbEntity
  8
LC-001-100-D00-0
 62
     7
370
    25
100
AcDbLine
 10
-34.817498
 20
319.570616
 30
0.0
 11
-31.817498
 21
322.570616
 31
0.0
  0
LINE
  5
6D8
330
6CF
100
AcDbEntity
  8
LC-001-100-D00-0
 62
     7
370
    25
100
AcDbLine
 10
-57.268137
 20
319.570616
 30
0.0
 11
-54.268138
 21
322.570616
 31
0.0
  0
LINE
  5
6D9
330
6CF
100
AcDbEntity
  8
LC-001-100-D00-0
 62
     7
370
    25
100
AcDbLine
 10
-79.718777
 20
319.570616
 30
0.0
 11
-76.718777
 21
322.570616
 31
0.0
  0
LINE
  5
6DA
330
6CF
100
AcDbEntity
  8
LC-001-100-D00-0
 62
     7
370
    25
100
AcDbLine
 10
-95.136016
 20
326.604016
 30
0.0
 11
-92.60738
 21
329.132653
 31
0.0
  0
LINE
  5
6DB
330
6CF
100
AcDbEntity
  8
LC-001-100-D00-0
 62
     7
370
    25
100
AcDbLine
 10
-104.02347
 20
340.167203
 30
0.0
 11
-101.02347
 21
343.167203
 31
0.0
  0
LINE
  5
6DC
330
6CF
100
AcDbEntity
  8
LC-001-100-D00-0
 62
     7
370
    25
100
AcDbLine
 10
-104.02347
 20
362.617844
 30
0.0
 11
-101.02347
 21
365.617844
 31
0.0
  0
ENDBLK
  5
6D1
330
6CF
100
AcDbEntity
  8
0
100
AcDbBlockEnd
  0
BLOCK
  5
6DF
330
6DE
100
AcDbEntity
  8
0
100
AcDbBlockBegin
  2
KLON32
 70
     0
 71
     0
 10
0.0
 20
0.0
 30
0.0
  3
KLON32
  1

  4
KLON32
  0
LINE
  5
6E1
330
6DE
100
AcDbEntity
  8
LC-001-100-D00-0
 62
     7
370
    25
100
AcDbLine
 10
65.583777
 20
375.070616
 30
0.0
 11
72.226374
 21
381.713213
 31
0.0
  0
LINE
  5
6E2
330
6DE
100
AcDbEntity
  8
LC-001-100-D00-0
 62
     7
370
    25
100
AcDbLine
 10
43.133138
 20
375.070616
 30
0.0
 11
46.133137
 21
378.070616
 31
0.0
  0
ENDBLK
  5
6E0
330
6DE
100
AcDbEntity
  8
0
100
AcDbBlockEnd
  0
BLOCK
  5
6E7
330
6E6
100
AcDbEntity
  8
0
100
AcDbBlockBegin
  2
KLON33
 70
     0
 71
     0
 10
0.0
 20
0.0
 30
0.0
  3
KLON33
  1

  4
KLON33
  0
LINE
  5
6E9
330
6E6
100
AcDbEntity
  8
LC-001-100-D00-0
 62
     7
370
    25
100
AcDbLine
 10
395.225753
 20
412.854282
 30
0.0
 11
399.72653
 21
417.355058
 31
0.0
  0
LINE
  5
6EA
330
6E6
100
AcDbEntity
  8
LC-001-100-D00-0
 62
     7
370
    25
100
AcDbLine
 10
405.22653
 20
422.855059
 30
0.0
 11
408.22653
 21
425.855059
 31
0.0
  0
ENDBLK
  5
6E8
330
6E6
100
AcDbEntity
  8
0
100
AcDbBlockEnd
  0
BLOCK
  5
6EE
330
6ED
100
AcDbEntity
  8
0
100
AcDbBlockBegin
  2
KLON34
 70
     0
 71
     0
 10
0.0
 20
0.0
 30
0.0
  3
KLON34
  1

  4
KLON34
  0
LINE
  5
6F0
330
6ED
100
AcDbEntity
  8
LC-001-100-D00-0
 62
     7
370
    25
100
AcDbLine
 10
60.22653
 20
414.614651
 30
0.0
 11
63.625677
 21
418.013798
 31
0.0
  0
LINE
  5
6F1
330
6ED
100
AcDbEntity
  8
LC-001-100-D00-0
 62
     7
370
    25
100
AcDbLine
 10
64.182495
 20
418.570616
 30
0.0
 11
66.07653
 21
420.464651
 31
0.0
  0
LINE
  5
6F2
330
6ED
100
AcDbEntity
  8
LC-001-100-D00-0
 62
     7
370
    25
100
AcDbLine
 10
51.72653
 20
428.565291
 30
0.0
 11
52.731855
 21
429.570616
 31
0.0
  0
ENDBLK
  5
6EF
330
6ED
100
AcDbEntity
  8
0
100
AcDbBlockEnd
  0
BLOCK
  5
6F5
330
6F4
100
AcDbEntity
  8
0
100
AcDbBlockBegin
  2
KLON35
 70
     0
 71
     0
 10
0.0
 20
0.0
 30
0.0
  3
KLON35
  1

  4
KLON35
  0
LINE
  5
6F7
330
6F4
100
AcDbEntity
  8
LC-001-100-D00-0
 62
     7
370
    25
100
AcDbLine
 10
78.633135
 20
410.570616
 30
0.0
 11
79.72653
 21
411.664011
 31
0.0
  0
LINE
  5
6F8
330
6F4
100
AcDbEntity
  8
LC-001-100-D00-0
 62
     7
370
    25
100
AcDbLine
 10
73.87653
 20
428.264652
 30
0.0
 11
75.182494
 21
429.570616
 31
0.0
  0
ENDBLK
  5
6F6
330
6F4
100
AcDbEntity
  8
0
100
AcDbBlockEnd
  0
BLOCK
  5
6FC
330
6FB
100
AcDbEntity
  8
0
100
AcDbBlockBegin
  2
KLON36
 70
     0
 71
     0
 10
0.0
 20
0.0
 30
0.0
  3
KLON36
  1

  4
KLON36
  0
LINE
  5
6FE
330
6FB
100
AcDbEntity
  8
LC-001-100-D00-0
 62
     7
370
    25
100
AcDbLine
 10
-459.65477
 20
411.098058
 30
0.0
 11
-455.22347
 21
415.529359
 31
0.0
  0
LINE
  5
6FF
330
6FB
100
AcDbEntity
  8
LC-001-100-D00-0
 62
     7
370
    25
100
AcDbLine
 10
-468.27347
 20
424.929999
 30
0.0
 11
-463.632853
 21
429.570616
 31
0.0
  0
ENDBLK
  5
6FD
330
6FB
100
AcDbEntity
  8
0
100
AcDbBlockEnd
  0
BLOCK
  5
704
330
703
100
AcDbEntity
  8
0
100
AcDbBlockBegin
  2
KLON37
 70
     0
 71
     0
 10
0.0
 20
0.0
 30
0.0
  3
KLON37
  1

  4
KLON37
  0
LINE
  5
706
330
703
100
AcDbEntity
  8
LC-001-100-D00-0
 62
     7
370
    25
100
AcDbLine
 10
-299.77347
 20
413.824882
 30
0.0
 11
-296.374323
 21
417.224029
 31
0.0
  0
LINE
  5
707
330
703
100
AcDbEntity
  8
LC-001-100-D00-0
 62
     7
370
    25
100
AcDbLine
 10
-295.027737
 20
418.570616
 30
0.0
 11
-293.92347
 21
419.674883
 31
0.0
  0
LINE
  5
708
330
703
100
AcDbEntity
  8
LC-001-100-D00-0
 62
     7
370
    25
100
AcDbLine
 10
-308.27347
 20
427.775523
 30
0.0
 11
-306.478377
 21
429.570616
 31
0.0
  0
ENDBLK
  5
705
330
703
100
AcDbEntity
  8
0
100
AcDbBlockEnd
  0
BLOCK
  5
70E
330
70D
100
AcDbEntity
  8
0
100
AcDbBlockBegin
  2
KLON38
 70
     0
 71
     0
 10
0.0
 20
0.0
 30
0.0
  3
KLON38
  1

  4
KLON38
  0
LINE
  5
710
330
70D
100
AcDbEntity
  8
LC-001-100-D00-0
 62
     7
370
    25
100
AcDbLine
 10
236.327383
 20
411.110387
 30
0.0
 11
239.72653
 21
414.509535
 31
0.0
  0
LINE
  5
711
330
70D
100
AcDbEntity
  8
LC-001-100-D00-0
 62
     7
370
    25
100
AcDbLine
 10
247.78761
 20
422.570616
 30
0.0
 11
248.22653
 21
423.009535
 31
0.0
  0
ENDBLK
  5
70F
330
70D
100
AcDbEntity
  8
0
100
AcDbBlockEnd
  0
BLOCK
  5
729
330
71F
100
AcDbEntity
  8
0
100
AcDbBlockBegin
  2
*D52
 70
     1
 71
     0
 10
0.0
 20
0.0
 30
0.0
  3
*D52
  1

  0
LINE
  5
720
330
71F
100
AcDbEntity
  8
LC-002-003-----0
 62
     2
370
    -2
100
AcDbLine
 10
963.07653
 20
429.570616
 30
0.0
 11
1018.436197
 21
429.570616
 31
0.0
  0
LINE
  5
721
330
71F
100
AcDbEntity
  8
LC-002-003-----0
 62
     2
370
    -2
100
AcDbLine
 10
959.57653
 20
295.070616
 30
0.0
 11
1018.436197
 21
295.070616
 31
0.0
  0
LINE
  5
722
330
71F
100
AcDbEntity
  8
LC-002-003-----0
 62
     2
370
    -2
100
AcDbLine
 10
1009.436197
 20
379.570616
 30
0.0
 11
1009.436197
 21
345.070616
 31
0.0
  0
SOLID
  5
723
330
71F
100
AcDbEntity
  8
LC-002-003-----0
 62
     2
100
AcDbTrace
 10
1017.76953
 20
379.570616
 30
0.0
 11
1001.102864
 21
379.570616
 31
0.0
 12
1009.436197
 22
429.570616
 32
0.0
 13
1009.436197
 23
429.570616
 33
0.0
  0
SOLID
  5
724
330
71F
100
AcDbEntity
  8
LC-002-003-----0
 62
     2
100
AcDbTrace
 10
1001.102864
 20
345.070616
 30
0.0
 11
1017.76953
 21
345.070616
 31
0.0
 12
1009.436197
 22
295.070616
 32
0.0
 13
1009.436197
 23
295.070616
 33
0.0
  0
MTEXT
  5
725
330
71F
100
AcDbEntity
  8
LC-002-003-----0
 62
     2
100
AcDbMText
 10
954.436197
 20
370.472616
 30
0.0
 40
50.0
 41
0.0
 71
     5
 72
     1
  1
\A1;110-129,5
  7
LCTX15-400-0-0pDIN-Schrift
 11
6.123031769111886E-17
 21
1.0
 31
0.0
 73
     1
 44
1.0
  0
POINT
  5
726
330
71F
100
AcDbEntity
  8
Defpoints
 62
     0
100
AcDbPoint
 10
963.07653
 20
429.570616
 30
0.0
  0
POINT
  5
727
330
71F
100
AcDbEntity
  8
Defpoints
 62
     0
100
AcDbPoint
 10
959.57653
 20
295.070616
 30
0.0
  0
POINT
  5
728
330
71F
100
AcDbEntity
  8
Defpoints
 62
     0
100
AcDbPoint
 10
1009.436197
 20
295.070616
 30
0.0
  0
ENDBLK
  5
72A
330
71F
100
AcDbEntity
  8
0
100
AcDbBlockEnd
  0
ENDSEC
  0
SECTION
  2
ENTITIES
  0
LINE
  5
31
330
1F
100
AcDbEntity
  8
LC-001-100-D00-0
 62
     7
370
    50
100
AcDbLine
 10
916.07653
 20
428.070616
 30
0.0
 11
916.07653
 21
426.670616
 31
0.0
  0
LINE
  5
32
330
1F
100
AcDbEntity
  8
LC-001-100-D00-0
 62
     7
370
    50
100
AcDbLine
 10
925.07653
 20
426.670616
 30
0.0
 11
925.076532
 21
428.070616
 31
0.0
  0
LINE
  5
33
330
1F
100
AcDbEntity
  8
LC-001-100-D00-0
 62
     7
370
    50
100
AcDbLine
 10
846.076528
 20
428.070616
 30
0.0
 11
846.07653
 21
426.670616
 31
0.0
  0
LINE
  5
34
330
1F
100
AcDbEntity
  8
LC-001-100-D00-0
 62
     7
370
    50
100
AcDbLine
 10
855.07653
 20
426.670616
 30
0.0
 11
855.07653
 21
428.070616
 31
0.0
  0
LINE
  5
35
330
1F
100
AcDbEntity
  8
LC-001-100-D00-0
 62
     7
370
    50
100
AcDbLine
 10
846.576529
 20
426.670616
 30
0.0
 11
846.57653
 21
413.070616
 31
0.0
  0
LINE
  5
36
330
1F
100
AcDbEntity
  8
LC-001-100-D00-0
 62
     7
370
    50
100
AcDbLine
 10
854.57653
 20
413.070616
 30
0.0
 11
854.576531
 21
426.670616
 31
0.0
  0
LINE
  5
37
330
1F
100
AcDbEntity
  8
LC-001-100-D00-0
 62
     7
370
    50
100
AcDbLine
 10
916.576529
 20
426.670616
 30
0.0
 11
916.57653
 21
413.070616
 31
0.0
  0
LINE
  5
38
330
1F
100
AcDbEntity
  8
LC-001-100-D00-0
 62
     7
370
    50
100
AcDbLine
 10
924.57653
 20
413.070616
 30
0.0
 11
924.576531
 21
426.670616
 31
0.0
  0
ARC
  5
39
330
1F
100
AcDbEntity
  8
LC-001-100-D00-0
 62
     7
370
    50
100
AcDbCircle
 10
941.07653
 20
302.570616
 30
0.0
 40
0.5000000000004548
100
AcDbArc
 50
90.0
 51
180.0
  0
ARC
  5
3A
330
1F
100
AcDbEntity
  8
LC-001-100-D00-0
 62
     7
370
    50
100
AcDbCircle
 10
959.07653
 20
302.570616
 30
0.0
 40
0.5000000000006821
100
AcDbArc
 50
0.0
 51
90.0
  0
LINE
  5
3B
330
1F
100
AcDbEntity
  8
LC-001-100-D00-0
 62
     7
370
    50
100
AcDbLine
 10
940.57653
 20
302.570616
 30
0.0
 11
940.57653
 21
295.070616
 31
0.0
  0
LINE
  5
3C
330
1F
100
AcDbEntity
  8
LC-001-100-D00-0
 62
     7
370
    50
100
AcDbLine
 10
959.57653
 20
295.070616
 30
0.0
 11
959.57653
 21
302.570616
 31
0.0
  0
LINE
  5
3D
330
1F
100
AcDbEntity
  8
LC-001-100-D00-0
 62
     7
370
    50
100
AcDbLine
 10
940.076529
 20
372.070615
 30
0.0
 11
940.07653
 21
318.070616
 31
0.0
  0
LINE
  5
3E
330
1F
100
AcDbEntity
  8
LC-001-100-D00-0
 62
     7
370
    50
100
AcDbLine
 10
960.07653
 20
318.070616
 30
0.0
 11
960.076532
 21
372.070615
 31
0.0
  0
LINE
  5
3F
330
1F
100
AcDbEntity
  8
LC-001-100-D00-0
 62
     7
370
    50
100
AcDbLine
 10
940.07653
 20
314.570616
 30
0.0
 11
940.07653
 21
304.070616
 31
0.0
  0
LINE
  5
40
330
1F
100
AcDbEntity
  8
LC-001-100-D00-0
 62
     7
370
    50
100
AcDbLine
 10
960.07653
 20
304.070616
 30
0.0
 11
960.07653
 21
314.570616
 31
0.0
  0
LINE
  5
41
330
1F
100
AcDbEntity
  8
LC-001-100-D00-0
 62
     7
370
    50
100
AcDbLine
 10
940.07653
 20
304.070616
 30
0.0
 11
941.07653
 21
303.070616
 31
0.0
  0
LINE
  5
42
330
1F
100
AcDbEntity
  8
LC-001-100-D00-0
 62
     7
370
    50
100
AcDbLine
 10
959.07653
 20
303.070616
 30
0.0
 11
960.07653
 21
304.070616
 31
0.0
  0
LINE
  5
43
330
1F
100
AcDbEntity
  8
LC-001-100-D00-0
 62
     7
370
    50
100
AcDbLine
 10
942.176531
 20
318.070613
 30
0.0
 11
942.176531
 21
314.570614
 31
0.0
  0
LINE
  5
44
330
1F
100
AcDbEntity
  8
LC-001-100-D00-0
 62
     7
370
    50
100
AcDbLine
 10
957.976534
 20
314.570614
 30
0.0
 11
957.976534
 21
318.070613
 31
0.0
  0
LINE
  5
45
330
1F
100
AcDbEntity
  8
LC-001-100-D00-0
 62
     7
370
    50
100
AcDbLine
 10
925.57653
 20
403.670616
 30
0.0
 11
925.576529
 21
407.070615
 31
0.0
  0
LINE
  5
46
330
1F
100
AcDbEntity
  8
LC-001-100-D00-0
 62
     7
370
    50
100
AcDbLine
 10
915.576529
 20
407.070615
 30
0.0
 11
915.57653
 21
403.670616
 31
0.0
  0
ARC
  5
47
330
1F
100
AcDbEntity
  8
LC-001-100-D00-0
 62
     7
370
    50
100
AcDbCircle
 10
924.97653
 20
403.670616
 30
0.0
 40
0.5999999999999091
100
AcDbArc
 50
270.0
 51
0.0
  0
ARC
  5
48
330
1F
100
AcDbEntity
  8
LC-001-100-D00-0
 62
     7
370
    50
100
AcDbCircle
 10
916.17653
 20
403.670616
 30
0.0
 40
0.5999999999999091
100
AcDbArc
 50
180.0
 51
270.0
  0
LINE
  5
49
330
1F
100
AcDbEntity
  8
LC-001-100-D00-0
 62
     7
370
    50
100
AcDbLine
 10
923.576529
 20
412.070616
 30
0.0
 11
923.576529
 21
413.070616
 31
0.0
  0
LINE
  5
4A
330
1F
100
AcDbEntity
  8
LC-001-100-D00-0
 62
     7
370
    50
100
AcDbLine
 10
917.576532
 20
413.070616
 30
0.0
 11
917.576532
 21
412.070616
 31
0.0
  0
ARC
  5
4B
330
1F
100
AcDbEntity
  8
LC-001-100-D00-0
 62
     7
370
    50
100
AcDbCircle
 10
854.97653
 20
403.670616
 30
0.0
 40
0.5999999999999091
100
AcDbArc
 50
270.0
 51
0.0
  0
ARC
  5
4C
330
1F
100
AcDbEntity
  8
LC-001-100-D00-0
 62
     7
370
    50
100
AcDbCircle
 10
846.17653
 20
403.670616
 30
0.0
 40
0.5999999999999091
100
AcDbArc
 50
180.0
 51
270.0
  0
LINE
  5
4D
330
1F
100
AcDbEntity
  8
LC-001-100-D00-0
 62
     7
370
    50
100
AcDbLine
 10
855.57653
 20
403.670616
 30
0.0
 11
855.576531
 21
407.070615
 31
0.0
  0
LINE
  5
4E
330
1F
100
AcDbEntity
  8
LC-001-100-D00-0
 62
     7
370
    50
100
AcDbLine
 10
845.576531
 20
407.070615
 30
0.0
 11
845.57653
 21
403.670616
 31
0.0
  0
LINE
  5
4F
330
1F
100
AcDbEntity
  8
LC-001-100-D00-0
 62
     7
370
    50
100
AcDbLine
 10
853.576528
 20
412.070616
 30
0.0
 11
853.576528
 21
413.070616
 31
0.0
  0
LINE
  5
50
330
1F
100
AcDbEntity
  8
LC-001-100-D00-0
 62
     7
370
    50
100
AcDbLine
 10
847.576531
 20
413.070616
 30
0.0
 11
847.576531
 21
412.070616
 31
0.0
  0
LINE
  5
51
330
1F
100
AcDbEntity
  8
LC-001-100-D00-0
 62
     7
370
    50
100
AcDbLine
 10
856.07653
 20
407.070616
 30
0.0
 11
856.07653
 21
409.070615
 31
0.0
  0
LINE
  5
52
330
1F
100
AcDbEntity
  8
LC-001-100-D00-0
 62
     7
370
    50
100
AcDbLine
 10
845.07653
 20
409.070616
 30
0.0
 11
845.07653
 21
407.070616
 31
0.0
  0
LINE
  5
53
330
1F
100
AcDbEntity
  8
LC-001-100-D00-0
 62
     7
370
    50
100
AcDbLine
 10
926.07653
 20
407.070616
 30
0.0
 11
926.07653
 21
409.070616
 31
0.0
  0
LINE
  5
54
330
1F
100
AcDbEntity
  8
LC-001-100-D00-0
 62
     7
370
    50
100
AcDbLine
 10
915.07653
 20
409.070615
 30
0.0
 11
915.07653
 21
407.070616
 31
0.0
  0
LINE
  5
55
330
1F
100
AcDbEntity
  8
LC-001-100-D00-0
 62
     7
370
    50
100
AcDbLine
 10
958.07653
 20
429.570616
 30
0.0
 11
963.07653
 21
429.570616
 31
0.0
  0
LINE
  5
56
330
1F
100
AcDbEntity
  8
LC-001-100-D00-0
 62
     7
370
    50
100
AcDbLine
 10
963.07653
 20
429.570616
 30
0.0
 11
963.07653
 21
428.070616
 31
0.0
  0
LINE
  5
57
330
1F
100
AcDbEntity
  8
LC-001-100-D00-0
 62
     7
370
    50
100
AcDbLine
 10
963.07653
 20
428.070616
 30
0.0
 11
958.07653
 21
428.070616
 31
0.0
  0
LINE
  5
58
330
1F
100
AcDbEntity
  8
LC-001-100-D00-0
 62
     7
370
    50
100
AcDbLine
 10
839.57653
 20
479.570616
 30
0.0
 11
841.07653
 21
479.570616
 31
0.0
  0
LINE
  5
59
330
1F
100
AcDbEntity
  8
LC-001-100-D00-0
 62
     7
370
    50
100
AcDbLine
 10
841.07653
 20
479.570616
 30
0.0
 11
841.07653
 21
474.570616
 31
0.0
  0
LINE
  5
5A
330
1F
100
AcDbEntity
  8
LC-001-100-D00-0
 62
     7
370
    50
100
AcDbLine
 10
839.57653
 20
474.570616
 30
0.0
 11
839.57653
 21
479.570616
 31
0.0
  0
LINE
  5
5B
330
1F
100
AcDbEntity
  8
LC-001-100-D00-0
 62
     7
370
    50
100
AcDbLine
 10
842.57653
 20
429.570616
 30
0.0
 11
958.07653
 21
429.570616
 31
0.0
  0
LINE
  5
5C
330
1F
100
AcDbEntity
  8
LC-001-100-D00-0
 62
     7
370
    50
100
AcDbLine
 10
842.07653
 20
428.070616
 30
0.0
 11
958.07653
 21
428.070616
 31
0.0
  0
ARC
  5
5D
330
1F
100
AcDbEntity
  8
LC-001-100-D00-0
 62
     7
370
    50
100
AcDbCircle
 10
842.07653
 20
430.570616
 30
0.0
 40
2.5
100
AcDbArc
 50
180.0
 51
270.0
  0
ARC
  5
5E
330
1F
100
AcDbEntity
  8
LC-001-100-D00-0
 62
     7
370
    50
100
AcDbCircle
 10
842.57653
 20
431.070616
 30
0.0
 40
1.5
100
AcDbArc
 50
180.0
 51
270.0
  0
LINE
  5
5F
330
1F
100
AcDbEntity
  8
LC-001-100-D00-0
 62
     7
370
    50
100
AcDbLine
 10
841.07653
 20
474.570616
 30
0.0
 11
841.07653
 21
431.070616
 31
0.0
  0
LINE
  5
60
330
1F
100
AcDbEntity
  8
LC-001-100-D00-0
 62
     7
370
    50
100
AcDbLine
 10
839.57653
 20
430.570616
 30
0.0
 11
839.57653
 21
474.570616
 31
0.0
  0
ARC
  5
61
330
1F
100
AcDbEntity
  8
LC-001-100-D00-0
 62
     7
370
    50
100
AcDbCircle
 10
914.57653
 20
426.570616
 30
0.0
 40
1.5
100
AcDbArc
 50
90.0
 51
180.0
  0
ARC
  5
62
330
1F
100
AcDbEntity
  8
LC-001-100-D00-0
 62
     7
370
    50
100
AcDbCircle
 10
856.57653
 20
426.570616
 30
0.0
 40
1.499999999999773
100
AcDbArc
 50
0.0
 51
90.0
  0
LINE
  5
63
330
1F
100
AcDbEntity
  8
LC-001-100-D00-0
 62
     7
370
    50
100
AcDbLine
 10
897.909939
 20
407.570616
 30
0.0
 11
909.07653
 21
407.570616
 31
0.0
  0
LINE
  5
64
330
1F
100
AcDbEntity
  8
LC-001-100-D00-0
 62
     7
370
    50
100
AcDbLine
 10
897.731725
 20
407.570616
 30
0.0
 11
897.909939
 21
407.570616
 31
0.0
  0
LINE
  5
65
330
1F
100
AcDbEntity
  8
LC-001-100-D00-0
 62
     7
370
    50
100
AcDbLine
 10
897.731725
 20
407.570616
 30
0.0
 11
873.421335
 21
407.570616
 31
0.0
  0
LINE
  5
66
330
1F
100
AcDbEntity
  8
LC-001-100-D00-0
 62
     7
370
    50
100
AcDbLine
 10
873.243121
 20
407.570616
 30
0.0
 11
873.421335
 21
407.570616
 31
0.0
  0
LINE
  5
67
330
1F
100
AcDbEntity
  8
LC-001-100-D00-0
 62
     7
370
    50
100
AcDbLine
 10
862.07653
 20
407.570616
 30
0.0
 11
873.243121
 21
407.570616
 31
0.0
  0
ARC
  5
68
330
1F
100
AcDbEntity
  8
LC-001-100-D00-0
 62
     7
370
    50
100
AcDbCircle
 10
862.07653
 20
411.570616
 30
0.0
 40
4.0
100
AcDbArc
 50
180.0
 51
270.0
  0
LINE
  5
69
330
1F
100
AcDbEntity
  8
LC-001-100-D00-0
 62
     7
370
    50
100
AcDbLine
 10
858.07653
 20
417.070616
 30
0.0
 11
858.07653
 21
411.570616
 31
0.0
  0
LINE
  5
6A
330
1F
100
AcDbEntity
  8
LC-001-100-D00-0
 62
     7
370
    50
100
AcDbLine
 10
858.07653
 20
417.070616
 30
0.0
 11
858.07653
 21
426.570616
 31
0.0
  0
ARC
  5
6B
330
1F
100
AcDbEntity
  8
LC-001-100-D00-0
 62
     7
370
    50
100
AcDbCircle
 10
909.07653
 20
411.570616
 30
0.0
 40
4.000000000014552
100
AcDbArc
 50
270.0
 51
0.0
  0
LINE
  5
6C
330
1F
100
AcDbEntity
  8
LC-001-100-D00-0
 62
     7
370
    50
100
AcDbLine
 10
913.07653
 20
411.570616
 30
0.0
 11
913.07653
 21
417.070616
 31
0.0
  0
LINE
  5
6D
330
1F
100
AcDbEntity
  8
LC-001-100-D00-0
 62
     7
370
    50
100
AcDbLine
 10
913.07653
 20
426.570616
 30
0.0
 11
913.07653
 21
417.070616
 31
0.0
  0
ARC
  5
6E
330
1F
100
AcDbEntity
  8
LC-001-100-D00-0
 62
     7
370
    50
100
AcDbCircle
 10
909.07653
 20
406.570616
 30
0.0
 40
4.0
100
AcDbArc
 50
270.0
 51
0.0
  0
LINE
  5
6F
330
1F
100
AcDbEntity
  8
LC-001-100-D00-0
 62
     7
370
    50
100
AcDbLine
 10
913.07653
 20
411.570616
 30
0.0
 11
913.07653
 21
406.570616
 31
0.0
  0
ARC
  5
70
330
1F
100
AcDbEntity
  8
LC-001-100-D00-0
 62
     7
370
    50
100
AcDbCircle
 10
862.07653
 20
406.570616
 30
0.0
 40
4.000000000046384
100
AcDbArc
 50
180.0
 51
270.0
  0
LINE
  5
71
330
1F
100
AcDbEntity
  8
LC-001-100-D00-0
 62
     7
370
    50
100
AcDbLine
 10
858.07653
 20
406.570616
 30
0.0
 11
858.07653
 21
411.570616
 31
0.0
  0
ARC
  5
72
330
1F
100
AcDbEntity
  8
LC-001-100-D00-0
 62
     7
370
    50
100
AcDbCircle
 10
880.982224
 20
405.070616
 30
0.0
 40
2.5
100
AcDbArc
 50
90.0
 51
108.434949
  0
LINE
  5
73
330
1F
100
AcDbEntity
  8
LC-001-100-D00-0
 62
     7
370
    50
100
AcDbLine
 10
880.191655
 20
407.442324
 30
0.0
 11
880.190571
 21
407.441963
 31
0.0
  0
LINE
  5
74
330
1F
100
AcDbEntity
  8
LC-001-100-D00-0
 62
     7
370
    50
100
AcDbLine
 10
890.962489
 20
407.441963
 30
0.0
 11
890.961405
 21
407.442324
 31
0.0
  0
ARC
  5
75
330
1F
100
AcDbEntity
  8
LC-001-100-D00-0
 62
     7
370
    50
100
AcDbCircle
 10
890.170836
 20
405.070616
 30
0.0
 40
2.499999999999917
100
AcDbArc
 50
71.565051
 51
90.0
  0
LINE
  5
76
330
1F
100
AcDbEntity
  8
LC-001-100-D00-0
 62
     7
370
    50
100
AcDbLine
 10
909.076529
 20
402.570615
 30
0.0
 11
906.227498
 21
402.570615
 31
0.0
  0
LINE
  5
77
330
1F
100
AcDbEntity
  8
LC-001-100-D00-0
 62
     7
370
    50
100
AcDbLine
 10
864.925562
 20
402.570615
 30
0.0
 11
862.076531
 21
402.570615
 31
0.0
  0
LINE
  5
78
330
1F
100
AcDbEntity
  8
LC-001-100-D00-0
 62
     7
370
    50
100
AcDbLine
 10
906.227498
 20
402.570615
 30
0.0
 11
906.225641
 21
402.570615
 31
0.0
  0
LINE
  5
79
330
1F
100
AcDbEntity
  8
LC-001-100-D00-0
 62
     7
370
    50
100
AcDbLine
 10
906.225641
 20
402.570615
 30
0.0
 11
904.96073
 21
402.775882
 31
0.0
  0
LINE
  5
7A
330
1F
100
AcDbEntity
  8
LC-001-100-D00-0
 62
     7
370
    50
100
AcDbLine
 10
904.96073
 20
402.775882
 30
0.0
 11
904.958649
 21
402.776575
 31
0.0
  0
LINE
  5
7B
330
1F
100
AcDbEntity
  8
LC-001-100-D00-0
 62
     7
370
    50
100
AcDbLine
 10
864.927419
 20
402.570615
 30
0.0
 11
866.19233
 21
402.775882
 31
0.0
  0
LINE
  5
7C
330
1F
100
AcDbEntity
  8
LC-001-100-D00-0
 62
     7
370
    50
100
AcDbLine
 10
864.927419
 20
402.570615
 30
0.0
 11
864.925562
 21
402.570615
 31
0.0
  0
LINE
  5
7D
330
1F
100
AcDbEntity
  8
LC-001-100-D00-0
 62
     7
370
    50
100
AcDbLine
 10
866.194411
 20
402.776575
 30
0.0
 11
866.19233
 21
402.775882
 31
0.0
  0
LINE
  5
7E
330
1F
100
AcDbEntity
  8
LC-001-100-D00-0
 62
     7
370
    50
100
AcDbLine
 10
904.958649
 20
402.776575
 30
0.0
 11
890.962489
 21
407.441963
 31
0.0
  0
LINE
  5
7F
330
1F
100
AcDbEntity
  8
LC-001-100-D00-0
 62
     7
370
    50
100
AcDbLine
 10
880.190571
 20
407.441963
 30
0.0
 11
866.194411
 21
402.776575
 31
0.0
  0
LINE
  5
80
330
1F
100
AcDbEntity
  8
LC-001-100-D00-0
 62
     7
370
    50
100
AcDbLine
 10
937.07653
 20
426.070616
 30
0.0
 11
963.07653
 21
426.070616
 31
0.0
  0
LINE
  5
81
330
1F
100
AcDbEntity
  8
LC-001-100-D00-0
 62
     7
370
    50
100
AcDbLine
 10
937.07653
 20
428.070616
 30
0.0
 11
937.07653
 21
426.070616
 31
0.0
  0
LINE
  5
82
330
1F
100
AcDbEntity
  8
LC-001-100-D00-0
 62
     7
370
    50
100
AcDbLine
 10
963.07653
 20
428.070616
 30
0.0
 11
963.07653
 21
426.070616
 31
0.0
  0
LINE
  5
83
330
1F
100
AcDbEntity
  8
LC-001-100-D00-0
 62
     7
370
    50
100
AcDbLine
 10
937.07653
 20
424.070616
 30
0.0
 11
937.07653
 21
426.070616
 31
0.0
  0
LINE
  5
84
330
1F
100
AcDbEntity
  8
LC-001-100-D00-0
 62
     7
370
    50
100
AcDbLine
 10
963.07653
 20
426.070616
 30
0.0
 11
963.07653
 21
424.070616
 31
0.0
  0
LINE
  5
85
330
1F
100
AcDbEntity
  8
LC-001-100-D00-0
 62
     7
370
    50
100
AcDbLine
 10
937.07653
 20
424.070616
 30
0.0
 11
937.07653
 21
402.970616
 31
0.0
  0
LINE
  5
86
330
1F
100
AcDbEntity
  8
LC-001-100-D00-0
 62
     7
370
    50
100
AcDbLine
 10
963.07653
 20
424.070616
 30
0.0
 11
963.07653
 21
402.970616
 31
0.0
  0
LINE
  5
87
330
1F
100
AcDbEntity
  8
LC-001-100-D00-0
 62
     7
370
    50
100
AcDbLine
 10
963.07653
 20
398.970616
 30
0.0
 11
960.636138
 21
398.970616
 31
0.0
  0
LINE
  5
88
330
1F
100
AcDbEntity
  8
LC-001-100-D00-0
 62
     7
370
    50
100
AcDbLine
 10
939.516923
 20
398.970616
 30
0.0
 11
937.07653
 21
398.970616
 31
0.0
  0
LINE
  5
89
330
1F
100
AcDbEntity
  8
LC-001-100-D00-0
 62
     7
370
    50
100
AcDbLine
 10
937.07653
 20
398.970616
 30
0.0
 11
937.07653
 21
402.970616
 31
0.0
  0
LINE
  5
8A
330
1F
100
AcDbEntity
  8
LC-001-100-D00-0
 62
     7
370
    50
100
AcDbLine
 10
963.07653
 20
402.970616
 30
0.0
 11
963.07653
 21
398.970616
 31
0.0
  0
LINE
  5
8B
330
1F
100
AcDbEntity
  8
LC-001-100-D00-0
 62
     7
370
    50
100
AcDbLine
 10
906.225641
 20
402.570615
 30
0.0
 11
904.50639
 21
402.570615
 31
0.0
  0
LINE
  5
8C
330
1F
100
AcDbEntity
  8
LC-001-100-D00-0
 62
     7
370
    50
100
AcDbLine
 10
866.64667
 20
402.570615
 30
0.0
 11
864.927419
 21
402.570615
 31
0.0
  0
LINE
  5
8D
330
1F
100
AcDbEntity
  8
LC-001-100-D00-0
 62
     7
370
    50
100
AcDbLine
 10
904.50639
 20
402.570615
 30
0.0
 11
866.64667
 21
402.570615
 31
0.0
  0
LINE
  5
8E
330
1F
100
AcDbEntity
  8
LC-001-100-D00-0
 62
     7
370
    50
100
AcDbLine
 10
925.07653
 20
426.670616
 30
0.0
 11
916.07653
 21
426.670616
 31
0.0
  0
LINE
  5
8F
330
1F
100
AcDbEntity
  8
LC-001-100-D00-0
 62
     7
370
    50
100
AcDbLine
 10
846.07653
 20
426.670616
 30
0.0
 11
855.07653
 21
426.670616
 31
0.0
  0
LINE
  5
90
330
1F
100
AcDbEntity
  8
LC-001-100-D00-0
 62
     7
370
    50
100
AcDbLine
 10
846.57653
 20
413.070616
 30
0.0
 11
854.57653
 21
413.070616
 31
0.0
  0
LINE
  5
91
330
1F
100
AcDbEntity
  8
LC-001-100-D00-0
 62
     7
370
    50
100
AcDbLine
 10
924.57653
 20
413.070616
 30
0.0
 11
916.57653
 21
413.070616
 31
0.0
  0
LINE
  5
92
330
1F
100
AcDbEntity
  8
LC-001-100-D00-0
 62
     7
370
    50
100
AcDbLine
 10
941.234606
 20
303.07062
 30
0.0
 11
958.944424
 21
303.07062
 31
0.0
  0
LINE
  5
93
330
1F
100
AcDbEntity
  8
LC-001-100-D00-0
 62
     7
370
    50
100
AcDbLine
 10
952.01425
 20
295.070616
 30
0.0
 11
940.57653
 21
295.070616
 31
0.0
  0
LINE
  5
94
330
1F
100
AcDbEntity
  8
LC-001-100-D00-0
 62
     7
370
    50
100
AcDbLine
 10
959.57653
 20
295.070616
 30
0.0
 11
952.01425
 21
295.070616
 31
0.0
  0
LINE
  5
95
330
1F
100
AcDbEntity
  8
LC-001-100-D00-0
 62
     7
370
    50
100
AcDbLine
 10
938.07653
 20
397.070616
 30
0.0
 11
938.076528
 21
398.970616
 31
0.0
  0
LINE
  5
96
330
1F
100
AcDbEntity
  8
LC-001-100-D00-0
 62
     7
370
    50
100
AcDbLine
 10
940.461671
 20
399.070616
 30
0.0
 11
944.07653
 21
399.070616
 31
0.0
  0
LINE
  5
97
330
1F
100
AcDbEntity
  8
LC-001-100-D00-0
 62
     7
370
    50
100
AcDbLine
 10
944.07653
 20
397.070616
 30
0.0
 11
938.07653
 21
397.070616
 31
0.0
  0
LINE
  5
98
330
1F
100
AcDbEntity
  8
LC-001-100-D00-0
 62
     7
370
    50
100
AcDbLine
 10
956.07653
 20
399.070616
 30
0.0
 11
944.07653
 21
399.070616
 31
0.0
  0
LINE
  5
99
330
1F
100
AcDbEntity
  8
LC-001-100-D00-0
 62
     7
370
    50
100
AcDbLine
 10
956.07653
 20
397.070616
 30
0.0
 11
944.07653
 21
397.070616
 31
0.0
  0
LINE
  5
9A
330
1F
100
AcDbEntity
  8
LC-001-100-D00-0
 62
     7
370
    50
100
AcDbLine
 10
962.076529
 20
398.970616
 30
0.0
 11
962.07653
 21
397.070616
 31
0.0
  0
LINE
  5
9B
330
1F
100
AcDbEntity
  8
LC-001-100-D00-0
 62
     7
370
    50
100
AcDbLine
 10
956.07653
 20
399.070616
 30
0.0
 11
959.691389
 21
399.070616
 31
0.0
  0
LINE
  5
9C
330
1F
100
AcDbEntity
  8
LC-001-100-D00-0
 62
     7
370
    50
100
AcDbLine
 10
962.07653
 20
397.070616
 30
0.0
 11
956.07653
 21
397.070616
 31
0.0
  0
LINE
  5
9D
330
1F
100
AcDbEntity
  8
LC-001-100-D00-0
 62
     7
370
    50
100
AcDbLine
 10
953.57653
 20
372.070616
 30
0.0
 11
946.57653
 21
372.070616
 31
0.0
  0
LINE
  5
9E
330
1F
100
AcDbEntity
  8
LC-001-100-D00-0
 62
     7
370
    50
100
AcDbLine
 10
958.57653
 20
372.070616
 30
0.0
 11
953.57653
 21
372.070616
 31
0.0
  0
LINE
  5
9F
330
1F
100
AcDbEntity
  8
LC-001-100-D00-0
 62
     7
370
    50
100
AcDbLine
 10
946.57653
 20
372.070616
 30
0.0
 11
941.57653
 21
372.070616
 31
0.0
  0
LINE
  5
A0
330
1F
100
AcDbEntity
  8
LC-001-100-D00-0
 62
     7
370
    50
100
AcDbLine
 10
938.07653
 20
372.070616
 30
0.0
 11
938.07653
 21
397.070616
 31
0.0
  0
LINE
  5
A1
330
1F
100
AcDbEntity
  8
LC-001-100-D00-0
 62
     7
370
    50
100
AcDbLine
 10
941.57653
 20
372.070616
 30
0.0
 11
938.07653
 21
372.070616
 31
0.0
  0
LINE
  5
A2
330
1F
100
AcDbEntity
  8
LC-001-100-D00-0
 62
     7
370
    50
100
AcDbLine
 10
962.07653
 20
397.070616
 30
0.0
 11
962.07653
 21
372.070616
 31
0.0
  0
LINE
  5
A3
330
1F
100
AcDbEntity
  8
LC-001-100-D00-0
 62
     7
370
    50
100
AcDbLine
 10
962.07653
 20
372.070616
 30
0.0
 11
958.57653
 21
372.070616
 31
0.0
  0
LINE
  5
A4
330
1F
100
AcDbEntity
  8
LC-001-100-D00-0
 62
     7
370
    50
100
AcDbLine
 10
940.07653
 20
318.070616
 30
0.0
 11
960.07653
 21
318.070616
 31
0.0
  0
LINE
  5
A5
330
1F
100
AcDbEntity
  8
LC-001-100-D00-0
 62
     7
370
    50
100
AcDbLine
 10
940.07653
 20
314.570616
 30
0.0
 11
960.07653
 21
314.570616
 31
0.0
  0
LINE
  5
A6
330
1F
100
AcDbEntity
  8
LC-001-100-D00-0
 62
     7
370
    50
100
AcDbLine
 10
952.116235
 20
304.070616
 30
0.0
 11
960.07653
 21
304.070616
 31
0.0
  0
LINE
  5
A7
330
1F
100
AcDbEntity
  8
LC-001-100-D00-0
 62
     7
370
    50
100
AcDbLine
 10
940.07653
 20
304.070616
 30
0.0
 11
952.116235
 21
304.070616
 31
0.0
  0
LINE
  5
A8
330
1F
100
AcDbEntity
  8
LC-001-100-D00-0
 62
     7
370
    50
100
AcDbLine
 10
951.912264
 20
303.070616
 30
0.0
 11
941.07653
 21
303.070616
 31
0.0
  0
LINE
  5
A9
330
1F
100
AcDbEntity
  8
LC-001-100-D00-0
 62
     7
370
    50
100
AcDbLine
 10
959.07653
 20
303.070616
 30
0.0
 11
951.912264
 21
303.070616
 31
0.0
  0
LINE
  5
AA
330
1F
100
AcDbEntity
  8
LC-001-100-D00-0
 62
     7
370
    50
100
AcDbLine
 10
920.57653
 20
403.070616
 30
0.0
 11
916.17653
 21
403.070616
 31
0.0
  0
LINE
  5
AB
330
1F
100
AcDbEntity
  8
LC-001-100-D00-0
 62
     7
370
    50
100
AcDbLine
 10
924.97653
 20
403.070616
 30
0.0
 11
920.57653
 21
403.070616
 31
0.0
  0
LINE
  5
AC
330
1F
100
AcDbEntity
  8
LC-001-100-D00-0
 62
     7
370
    50
100
AcDbLine
 10
850.57653
 20
403.070616
 30
0.0
 11
846.17653
 21
403.070616
 31
0.0
  0
LINE
  5
AD
330
1F
100
AcDbEntity
  8
LC-001-100-D00-0
 62
     7
370
    50
100
AcDbLine
 10
854.97653
 20
403.070616
 30
0.0
 11
850.57653
 21
403.070616
 31
0.0
  0
LINE
  5
AE
330
1F
100
AcDbEntity
  8
LC-001-100-D00-0
 62
     7
370
    50
100
AcDbLine
 10
850.07653
 20
409.070616
 30
0.0
 11
858.07653
 21
409.070615
 31
0.0
  0
LINE
  5
AF
330
1F
100
AcDbEntity
  8
LC-001-100-D00-0
 62
     7
370
    50
100
AcDbLine
 10
850.07653
 20
412.070616
 30
0.0
 11
858.07653
 21
412.070616
 31
0.0
  0
LINE
  5
B0
330
1F
100
AcDbEntity
  8
LC-001-100-D00-0
 62
     7
370
    50
100
AcDbLine
 10
845.07653
 20
409.070616
 30
0.0
 11
845.07653
 21
412.070616
 31
0.0
  0
LINE
  5
B1
330
1F
100
AcDbEntity
  8
LC-001-100-D00-0
 62
     7
370
    50
100
AcDbLine
 10
845.07653
 20
412.070616
 30
0.0
 11
850.07653
 21
412.070616
 31
0.0
  0
LINE
  5
B2
330
1F
100
AcDbEntity
  8
LC-001-100-D00-0
 62
     7
370
    50
100
AcDbLine
 10
850.07653
 20
409.070616
 30
0.0
 11
845.07653
 21
409.070616
 31
0.0
  0
LINE
  5
B3
330
1F
100
AcDbEntity
  8
LC-001-100-D00-0
 62
     7
370
    50
100
AcDbLine
 10
926.07653
 20
412.070616
 30
0.0
 11
926.07653
 21
409.070616
 31
0.0
  0
LINE
  5
B4
330
1F
100
AcDbEntity
  8
LC-001-100-D00-0
 62
     7
370
    50
100
AcDbLine
 10
926.07653
 20
409.070616
 30
0.0
 11
921.07653
 21
409.070616
 31
0.0
  0
LINE
  5
B5
330
1F
100
AcDbEntity
  8
LC-001-100-D00-0
 62
     7
370
    50
100
AcDbLine
 10
921.07653
 20
412.070616
 30
0.0
 11
926.07653
 21
412.070616
 31
0.0
  0
LINE
  5
B6
330
1F
100
AcDbEntity
  8
LC-001-100-D00-0
 62
     7
370
    50
100
AcDbLine
 10
913.07653
 20
409.070615
 30
0.0
 11
921.07653
 21
409.070616
 31
0.0
  0
LINE
  5
B7
330
1F
100
AcDbEntity
  8
LC-001-100-D00-0
 62
     7
370
    50
100
AcDbLine
 10
913.07653
 20
412.070616
 30
0.0
 11
921.07653
 21
412.070616
 31
0.0
  0
LINE
  5
B8
330
1F
100
AcDbEntity
  8
LC-001-100-D00-0
 62
     7
370
    50
100
AcDbLine
 10
923.523339
 20
378.820616
 30
0.0
 11
847.629721
 21
378.820616
 31
0.0
  0
LINE
  5
B9
330
1F
100
AcDbEntity
  8
LC-001-100-D00-0
 62
     7
370
    50
100
AcDbLine
 10
845.07653
 20
412.070616
 30
0.0
 11
845.07653
 21
413.070616
 31
0.0
  0
LINE
  5
BA
330
1F
100
AcDbEntity
  8
LC-001-100-D00-0
 62
     7
370
    50
100
AcDbLine
 10
926.07653
 20
413.070616
 30
0.0
 11
926.07653
 21
412.070616
 31
0.0
  0
LINE
  5
BB
330
1F
100
AcDbEntity
  8
LC-001-100-D00-0
 62
     7
370
    50
100
AcDbLine
 10
845.07653
 20
413.070616
 30
0.0
 11
845.07653
 21
428.070616
 31
0.0
  0
LINE
  5
BC
330
1F
100
AcDbEntity
  8
LC-001-100-D00-0
 62
     7
370
    50
100
AcDbLine
 10
845.07653
 20
378.820616
 30
0.0
 11
845.07653
 21
407.070616
 31
0.0
  0
LINE
  5
BD
330
1F
100
AcDbEntity
  8
LC-001-100-D00-0
 62
     7
370
    50
100
AcDbLine
 10
847.629721
 20
378.820616
 30
0.0
 11
845.07653
 21
378.820616
 31
0.0
  0
LINE
  5
BE
330
1F
100
AcDbEntity
  8
LC-001-100-D00-0
 62
     7
370
    50
100
AcDbLine
 10
926.07653
 20
428.070616
 30
0.0
 11
926.07653
 21
413.070616
 31
0.0
  0
LINE
  5
BF
330
1F
100
AcDbEntity
  8
LC-001-100-D00-0
 62
     7
370
    50
100
AcDbLine
 10
926.07653
 20
407.070616
 30
0.0
 11
926.07653
 21
378.820616
 31
0.0
  0
LINE
  5
C0
330
1F
100
AcDbEntity
  8
LC-001-100-D00-0
 62
     7
370
    50
100
AcDbLine
 10
926.07653
 20
378.820616
 30
0.0
 11
923.523339
 21
378.820616
 31
0.0
  0
LINE
  5
C1
330
1F
100
AcDbEntity
  8
LC-001-100-D00-0
 62
     7
370
    50
100
AcDbLine
 10
912.619083
 20
326.070616
 30
0.0
 11
858.533977
 21
326.070616
 31
0.0
  0
LINE
  5
C2
330
1F
100
AcDbEntity
  8
LC-001-100-D00-0
 62
     7
370
    50
100
AcDbLine
 10
847.629721
 20
378.820616
 30
0.0
 11
923.523339
 21
378.820616
 31
0.0
  0
LINE
  5
C3
330
1F
100
AcDbEntity
  8
LC-001-100-D00-0
 62
     7
370
    50
100
AcDbLine
 10
906.092127
 20
319.570616
 30
0.0
 11
865.060933
 21
319.570616
 31
0.0
  0
LINE
  5
C4
330
1F
100
AcDbEntity
  8
LC-001-100-D00-0
 62
     7
370
    50
100
AcDbLine
 10
926.07653
 20
378.820616
 30
0.0
 11
926.07653
 21
338.570616
 31
0.0
  0
LINE
  5
C5
330
1F
100
AcDbEntity
  8
LC-001-100-D00-0
 62
     7
370
    50
100
AcDbLine
 10
923.523339
 20
378.820616
 30
0.0
 11
926.07653
 21
378.820616
 31
0.0
  0
ARC
  5
C6
330
1F
100
AcDbEntity
  8
LC-001-100-D00-0
 62
     7
370
    50
100
AcDbCircle
 10
913.57653
 20
338.570616
 30
0.0
 40
12.5
100
AcDbArc
 50
270.0
 51
0.0
  0
LINE
  5
C7
330
1F
100
AcDbEntity
  8
LC-001-100-D00-0
 62
     7
370
    50
100
AcDbLine
 10
913.57653
 20
326.070616
 30
0.0
 11
912.619083
 21
326.070616
 31
0.0
  0
LINE
  5
C8
330
1F
100
AcDbEntity
  8
LC-001-100-D00-0
 62
     7
370
    50
100
AcDbLine
 10
845.07653
 20
338.570616
 30
0.0
 11
845.07653
 21
378.820616
 31
0.0
  0
LINE
  5
C9
330
1F
100
AcDbEntity
  8
LC-001-100-D00-0
 62
     7
370
    50
100
AcDbLine
 10
845.07653
 20
378.820616
 30
0.0
 11
847.629721
 21
378.820616
 31
0.0
  0
ARC
  5
CA
330
1F
100
AcDbEntity
  8
LC-001-100-D00-0
 62
     7
370
    50
100
AcDbCircle
 10
857.57653
 20
338.570616
 30
0.0
 40
12.50000000000023
100
AcDbArc
 50
180.0
 51
270.0
  0
LINE
  5
CB
330
1F
100
AcDbEntity
  8
LC-001-100-D00-0
 62
     7
370
    50
100
AcDbLine
 10
858.533977
 20
326.070616
 30
0.0
 11
857.57653
 21
326.070616
 31
0.0
  0
ARC
  5
CC
330
1F
100
AcDbEntity
  8
LC-001-100-D00-0
 62
     7
370
    50
100
AcDbCircle
 10
865.05865
 20
326.570616
 30
0.0
 40
7.00000000000032
100
AcDbArc
 50
184.096044
 51
270.0
  0
LINE
  5
CD
330
1F
100
AcDbEntity
  8
LC-001-100-D00-0
 62
     7
370
    50
100
AcDbLine
 10
865.060933
 20
319.570616
 30
0.0
 11
865.05865
 21
319.570616
 31
0.0
  0
ARC
  5
CE
330
1F
100
AcDbEntity
  8
LC-001-100-D00-0
 62
     7
370
    50
100
AcDbCircle
 10
906.09441
 20
326.570616
 30
0.0
 40
7.0
100
AcDbArc
 50
270.0
 51
355.903956
  0
LINE
  5
CF
330
1F
100
AcDbEntity
  8
LC-001-100-D00-0
 62
     7
370
    50
100
AcDbLine
 10
906.09441
 20
319.570616
 30
0.0
 11
906.092127
 21
319.570616
 31
0.0
  0
LINE
  5
D0
330
1F
100
AcDbEntity
  8
LC-001-100-D00-0
 62
     7
370
    50
100
AcDbLine
 10
850.57653
 20
407.070616
 30
0.0
 11
856.07653
 21
407.070616
 31
0.0
  0
LINE
  5
D1
330
1F
100
AcDbEntity
  8
LC-001-100-D00-0
 62
     7
370
    50
100
AcDbLine
 10
845.07653
 20
407.070616
 30
0.0
 11
850.57653
 21
407.070616
 31
0.0
  0
LINE
  5
D2
330
1F
100
AcDbEntity
  8
LC-001-100-D00-0
 62
     7
370
    50
100
AcDbLine
 10
920.57653
 20
407.070616
 30
0.0
 11
926.07653
 21
407.070616
 31
0.0
  0
LINE
  5
D3
330
1F
100
AcDbEntity
  8
LC-001-100-D00-0
 62
     7
370
    50
100
AcDbLine
 10
915.07653
 20
407.070616
 30
0.0
 11
920.57653
 21
407.070616
 31
0.0
  0
DIMENSION
  5
D6
330
1F
100
AcDbEntity
  8
LC-001-100-D00-0
 62
     7
370
    25
100
AcDbDimension
  2
*D1
 10
926.07653
 20
233.949886
 30
0.0
 11
867.187951
 21
288.949886
 31
0.0
 70
   160
  1
81
 71
     5
 42
81.0
  3
LC-DIM-L-0100-02-02
100
AcDbAlignedDimension
 13
845.07653
 23
338.570616
 33
0.0
 14
926.07653
 24
338.570616
 34
0.0
100
AcDbRotatedDimension
  0
LINE
  5
E7
330
1F
100
AcDbEntity
  8
LC-001-100-D00-0
  6
DASHDOT
 62
     7
370
    25
100
AcDbLine
 10
885.57653
 20
319.570616
 30
0.0
 11
885.57653
 21
429.570616
 31
0.0
  0
LINE
  5
E8
330
1F
100
AcDbEntity
  8
LC-001-100-D00-0
  6
DASHDOT
 62
     7
370
    25
100
AcDbLine
 10
950.07653
 20
308.070616
 30
0.0
 11
950.07653
 21
432.070616
 31
0.0
  0
LINE
  5
E9
330
1F
100
AcDbEntity
  8
LC-001-100-D00-0
 62
     7
370
    50
100
AcDbLine
 10
469.97653
 20
26.865056
 30
0.0
 11
469.97653
 21
25.365056
 31
0.0
  0
LINE
  5
EA
330
1F
100
AcDbEntity
  8
LC-001-100-D00-0
 62
     7
370
    50
100
AcDbLine
 10
469.97653
 20
25.365056
 30
0.0
 11
464.97653
 21
25.365056
 31
0.0
  0
LINE
  5
EB
330
1F
100
AcDbEntity
  8
LC-001-100-D00-0
 62
     7
370
    50
100
AcDbLine
 10
464.97653
 20
26.865056
 30
0.0
 11
469.97653
 21
26.865056
 31
0.0
  0
LINE
  5
EC
330
1F
100
AcDbEntity
  8
LC-001-100-D00-0
 62
     7
370
    50
100
AcDbLine
 10
-525.02347
 20
25.365056
 30
0.0
 11
464.97653
 21
25.365056
 31
0.0
  0
LINE
  5
ED
330
1F
100
AcDbEntity
  8
LC-001-100-D00-0
 62
     7
370
    50
100
AcDbLine
 10
-525.02347
 20
26.865056
 30
0.0
 11
464.97653
 21
26.865056
 31
0.0
  0
LINE
  5
EE
330
1F
100
AcDbEntity
  8
LC-001-100-D00-0
 62
     7
370
    50
100
AcDbLine
 10
-530.02347
 20
25.365056
 30
0.0
 11
-530.02347
 21
26.865056
 31
0.0
  0
LINE
  5
EF
330
1F
100
AcDbEntity
  8
LC-001-100-D00-0
 62
     7
370
    50
100
AcDbLine
 10
-525.02347
 20
25.365056
 30
0.0
 11
-530.02347
 21
25.365056
 31
0.0
  0
LINE
  5
F0
330
1F
100
AcDbEntity
  8
LC-001-100-D00-0
 62
     7
370
    50
100
AcDbLine
 10
-530.02347
 20
26.865056
 30
0.0
 11
-525.02347
 21
26.865056
 31
0.0
  0
LINE
  5
F1
330
1F
100
AcDbEntity
  8
LC-001-100-D00-0
 62
     7
370
    50
100
AcDbLine
 10
-530.02347
 20
23.865056
 30
0.0
 11
-530.02347
 21
25.365056
 31
0.0
  0
LINE
  5
F2
330
1F
100
AcDbEntity
  8
LC-001-100-D00-0
 62
     7
370
    50
100
AcDbLine
 10
469.97653
 20
25.365056
 30
0.0
 11
469.97653
 21
23.865056
 31
0.0
  0
ARC
  5
F3
330
1F
100
AcDbEntity
  8
LC-001-100-D00-0
 62
     7
370
    50
100
AcDbCircle
 10
417.47653
 20
-42.634944
 30
0.0
 40
2.5
100
AcDbArc
 50
270.0
 51
0.0
  0
ARC
  5
F4
330
1F
100
AcDbEntity
  8
LC-001-100-D00-0
 62
     7
370
    50
100
AcDbCircle
 10
417.47653
 20
4.365056
 30
0.0
 40
2.5
100
AcDbArc
 50
0.0
 51
90.0
  0
LINE
  5
F5
330
1F
100
AcDbEntity
  8
LC-001-100-D00-0
 62
     7
370
    50
100
AcDbLine
 10
419.97653
 20
-42.634944
 30
0.0
 11
419.97653
 21
4.365056
 31
0.0
  0
LINE
  5
F6
330
1F
100
AcDbEntity
  8
LC-001-100-D00-0
 62
     7
370
    50
100
AcDbLine
 10
417.47653
 20
-45.134944
 30
0.0
 11
-477.52347
 21
-45.134944
 31
0.0
  0
LINE
  5
F7
330
1F
100
AcDbEntity
  8
LC-001-100-D00-0
 62
     7
370
    50
100
AcDbLine
 10
-477.52347
 20
6.865056
 30
0.0
 11
417.47653
 21
6.865056
 31
0.0
  0
ARC
  5
F8
330
1F
100
AcDbEntity
  8
LC-001-100-D00-0
 62
     7
370
    50
100
AcDbCircle
 10
-477.52347
 20
4.365056
 30
0.0
 40
2.5
100
AcDbArc
 50
90.0
 51
180.0
  0
ARC
  5
F9
330
1F
100
AcDbEntity
  8
LC-001-100-D00-0
 62
     7
370
    50
100
AcDbCircle
 10
-477.52347
 20
-42.634944
 30
0.0
 40
2.5
100
AcDbArc
 50
180.0
 51
270.0
  0
LINE
  5
FA
330
1F
100
AcDbEntity
  8
LC-001-100-D00-0
 62
     7
370
    50
100
AcDbLine
 10
-480.02347
 20
-42.634944
 30
0.0
 11
-480.02347
 21
4.365056
 31
0.0
  0
LINE
  5
FB
330
1F
100
AcDbEntity
  8
LC-001-100-D00-0
 62
     7
370
    50
100
AcDbLine
 10
-525.02347
 20
-96.634944
 30
0.0
 11
464.97653
 21
-96.634944
 31
0.0
  0
ARC
  5
FC
330
1F
100
AcDbEntity
  8
LC-001-100-D00-0
 62
     7
370
    50
100
AcDbCircle
 10
-525.02347
 20
-91.634944
 30
0.0
 40
5.0
100
AcDbArc
 50
180.0
 51
270.0
  0
ARC
  5
FD
330
1F
100
AcDbEntity
  8
LC-001-100-D00-0
 62
     7
370
    50
100
AcDbCircle
 10
464.97653
 20
-91.634944
 30
0.0
 40
5.0
100
AcDbArc
 50
270.0
 51
0.0
  0
LINE
  5
FE
330
1F
100
AcDbEntity
  8
LC-001-100-D00-0
 62
     7
370
    50
100
AcDbLine
 10
-530.02347
 20
23.865056
 30
0.0
 11
-530.02347
 21
-91.634944
 31
0.0
  0
LINE
  5
FF
330
1F
100
AcDbEntity
  8
LC-001-100-D00-0
 62
     7
370
    50
100
AcDbLine
 10
469.97653
 20
23.865056
 30
0.0
 11
469.97653
 21
-91.634944
 31
0.0
  0
CIRCLE
  5
100
330
1F
100
AcDbEntity
  8
LC-001-100-D00-0
 62
     7
370
    50
100
AcDbCircle
 10
389.97653
 20
-19.134944
 30
0.0
 40
2.999999999999886
  0
CIRCLE
  5
101
330
1F
100
AcDbEntity
  8
LC-001-100-D00-0
 62
     7
370
    50
100
AcDbCircle
 10
229.97653
 20
-19.134944
 30
0.0
 40
2.999999999999886
  0
CIRCLE
  5
102
330
1F
100
AcDbEntity
  8
LC-001-100-D00-0
 62
     7
370
    50
100
AcDbCircle
 10
69.97653
 20
-19.134944
 30
0.0
 40
3.000000000000227
  0
CIRCLE
  5
103
330
1F
100
AcDbEntity
  8
LC-001-100-D00-0
 62
     7
370
    50
100
AcDbCircle
 10
-130.02347
 20
-19.134944
 30
0.0
 40
3.000000000000227
  0
CIRCLE
  5
104
330
1F
100
AcDbEntity
  8
LC-001-100-D00-0
 62
     7
370
    50
100
AcDbCircle
 10
-290.02347
 20
-19.134944
 30
0.0
 40
2.999999999999886
  0
CIRCLE
  5
105
330
1F
100
AcDbEntity
  8
LC-001-100-D00-0
 62
     7
370
    50
100
AcDbCircle
 10
-450.02347
 20
-19.134944
 30
0.0
 40
3.000000000000227
  0
LINE
  5
106
330
1F
100
AcDbEntity
  8
LC-001-100-D00-0
 62
     7
370
    50
100
AcDbLine
 10
411.950335
 20
-31.457613
 30
0.0
 11
411.950335
 21
-42.634944
 31
0.0
  0
ARC
  5
107
330
1F
100
AcDbEntity
  8
LC-001-100-D00-0
 62
     7
370
    50
100
AcDbCircle
 10
1175.136588
 20
-150.749124
 30
0.0
 40
772.4530536073215
100
AcDbArc
 50
171.103568
 51
171.116141
  0
INSERT
  5
10F
330
1F
100
AcDbEntity
  8
LC-001-100-D00-0
 62
     7
370
    50
100
AcDbBlockReference
  2
KLON1
 10
0.0
 20
0.0
 30
0.0
  0
LINE
  5
110
330
1F
100
AcDbEntity
  8
LC-001-100-D00-0
 62
     7
370
    50
100
AcDbLine
 10
411.950335
 20
4.350416
 30
0.0
 11
411.950335
 21
-6.812275
 31
0.0
  0
INSERT
  5
116
330
1F
100
AcDbEntity
  8
LC-001-100-D00-0
 62
     7
370
    50
100
AcDbBlockReference
  2
KLON2
 10
0.0
 20
0.0
 30
0.0
  0
INSERT
  5
11C
330
1F
100
AcDbEntity
  8
LC-001-100-D00-0
 62
     7
370
    50
100
AcDbBlockReference
  2
KLON3
 10
0.0
 20
0.0
 30
0.0
  0
INSERT
  5
122
330
1F
100
AcDbEntity
  8
LC-001-100-D00-0
 62
     7
370
    50
100
AcDbBlockReference
  2
KLON4
 10
0.0
 20
0.0
 30
0.0
  0
LINE
  5
123
330
1F
100
AcDbEntity
  8
LC-001-100-D00-0
 62
     7
370
    50
100
AcDbLine
 10
-471.997275
 20
4.350416
 30
0.0
 11
-471.997275
 21
-6.812275
 31
0.0
  0
INSERT
  5
12B
330
1F
100
AcDbEntity
  8
LC-001-100-D00-0
 62
     7
370
    50
100
AcDbBlockReference
  2
KLON5
 10
0.0
 20
0.0
 30
0.0
  0
ARC
  5
12C
330
1F
100
AcDbEntity
  8
LC-001-100-D00-0
 62
     7
370
    50
100
AcDbCircle
 10
-1235.183494
 20
-150.749118
 30
0.0
 40
772.4530192742235
100
AcDbArc
 50
8.883859
 51
8.896432
  0
LINE
  5
12D
330
1F
100
AcDbEntity
  8
LC-001-100-D00-0
 62
     7
370
    50
100
AcDbLine
 10
-471.997275
 20
-31.457613
 30
0.0
 11
-471.997275
 21
-42.634944
 31
0.0
  0
INSERT
  5
133
330
1F
100
AcDbEntity
  8
LC-001-100-D00-0
 62
     7
370
    50
100
AcDbBlockReference
  2
KLON6
 10
0.0
 20
0.0
 30
0.0
  0
ELLIPSE
  5
134
330
1F
100
AcDbEntity
  8
LC-001-100-D00-0
 62
     7
370
    50
100
AcDbEllipse
 10
411.903562
 20
-42.634944
 30
0.0
 11
0.0
 21
-2.499999511718702
 31
0.0
210
0.0
220
0.0
230
1.0
 40
0.018242
 41
3.141592653594779
 42
4.712388980377508
  0
ELLIPSE
  5
135
330
1F
100
AcDbEntity
  8
LC-001-100-D00-0
 62
     7
370
    50
100
AcDbEllipse
 10
274.903562
 20
-42.634944
 30
0.0
 11
0.0
 21
-2.499999633789036
 31
0.0
210
0.0
220
0.0
230
1.0
 40
0.018242
 41
3.141592653599765
 42
4.712388980380872
  0
ELLIPSE
  5
136
330
1F
100
AcDbEntity
  8
LC-001-100-D00-0
 62
     7
370
    50
100
AcDbEllipse
 10
480.449167
 20
-42.634944
 30
0.0
 11
68.49999999999949
 21
0.0
 31
0.0
210
0.0
220
0.0
230
1.0
 40
0.036496
 41
3.14159265359743
 42
3.169858841660706
  0
ELLIPSE
  5
137
330
1F
100
AcDbEntity
  8
LC-001-100-D00-0
 62
     7
370
    50
100
AcDbEllipse
 10
-471.950502
 20
-42.634944
 30
0.0
 11
0.0
 21
-2.5
 31
0.0
210
0.0
220
0.0
230
1.0
 40
0.018242
 41
1.570796326802309
 42
3.141592653588547
  0
ELLIPSE
  5
138
330
1F
100
AcDbEntity
  8
LC-001-100-D00-0
 62
     7
370
    50
100
AcDbEllipse
 10
-334.950502
 20
-42.634944
 30
0.0
 11
0.0
 21
-2.500000007629394
 31
0.0
210
0.0
220
0.0
230
1.0
 40
0.018242
 41
1.57079632679858
 42
3.141592653594779
  0
ELLIPSE
  5
139
330
1F
100
AcDbEntity
  8
LC-001-100-D00-0
 62
     7
370
    50
100
AcDbEllipse
 10
-540.496107
 20
-42.634944
 30
0.0
 11
68.50000000326916
 21
0.0
 31
0.0
210
0.0
220
0.0
230
1.0
 40
0.036496
 41
6.254919119109524
 42
6.283185307179728
  0
ELLIPSE
  5
13A
330
1F
100
AcDbEntity
  8
LC-001-100-D00-0
 62
     7
370
    50
100
AcDbEllipse
 10
480.449167
 20
4.365056
 30
0.0
 11
68.49999999999909
 21
0.0
 31
0.0
210
0.0
220
0.0
230
1.0
 40
0.036496
 41
3.141592653589793
 42
3.147448628039453
  0
ELLIPSE
  5
13B
330
1F
100
AcDbEntity
  8
LC-001-100-D00-0
 62
     7
370
    50
100
AcDbEllipse
 10
411.903562
 20
4.365056
 30
0.0
 11
0.0
 21
-2.499999053954899
 31
0.0
210
0.0
220
0.0
230
0.9999999999999999
 40
0.018242
 41
4.71238898038469
 42
6.283185334708085
  0
ELLIPSE
  5
13C
330
1F
100
AcDbEntity
  8
LC-001-100-D00-0
 62
     7
370
    50
100
AcDbEllipse
 10
-540.496107
 20
4.365056
 30
0.0
 11
68.499999999183
 21
0.0
 31
0.0
210
0.0
220
0.0
230
0.9999999999999999
 40
0.036496
 41
6.277329332730766
 42
6.283185307179632
  0
ELLIPSE
  5
13D
330
1F
100
AcDbEntity
  8
LC-001-100-D00-0
 62
     7
370
    50
100
AcDbEllipse
 10
-471.950502
 20
4.365056
 30
0.0
 11
0.0
 21
-2.499999755859363
 31
0.0
210
0.0
220
0.0
230
0.9999999999999999
 40
0.018242
 41
6.283185279647356
 42
7.853981633974483
  0
ELLIPSE
  5
13E
330
1F
100
AcDbEntity
  8
LC-001-100-D00-0
 62
     7
370
    50
100
AcDbEllipse
 10
274.903562
 20
4.365056
 30
0.0
 11
0.0
 21
-2.499999771118154
 31
0.0
210
0.0
220
0.0
230
0.9999999999999999
 40
0.018242
 41
4.712388980388373
 42
6.28318531979089
  0
ELLIPSE
  5
13F
330
1F
100
AcDbEntity
  8
LC-001-100-D00-0
 62
     7
370
    50
100
AcDbEllipse
 10
-334.950502
 20
4.365056
 30
0.0
 11
0.0
 21
-2.5
 31
0.0
210
0.0
220
0.0
230
1.0
 40
0.018242
 41
6.283185294560805
 42
7.853981633970845
  0
LINE
  5
140
330
1F
100
AcDbEntity
  8
LC-001-100-D00-0
 62
     7
370
    50
100
AcDbLine
 10
274.949179
 20
-42.634944
 30
0.0
 11
274.949179
 21
-39.784428
 31
0.0
  0
INSERT
  5
146
330
1F
100
AcDbEntity
  8
LC-001-100-D00-0
 62
     7
370
    50
100
AcDbBlockReference
  2
KLON7
 10
0.0
 20
0.0
 30
0.0
  0
INSERT
  5
14C
330
1F
100
AcDbEntity
  8
LC-001-100-D00-0
 62
     7
370
    50
100
AcDbBlockReference
  2
KLON8
 10
0.0
 20
0.0
 30
0.0
  0
LINE
  5
14D
330
1F
100
AcDbEntity
  8
LC-001-100-D00-0
 62
     7
370
    50
100
AcDbLine
 10
-334.996119
 20
-42.634944
 30
0.0
 11
-334.996119
 21
-39.784428
 31
0.0
  0
INSERT
  5
154
330
1F
100
AcDbEntity
  8
LC-001-100-D00-0
 62
     7
370
    50
100
AcDbBlockReference
  2
KLON9
 10
0.0
 20
0.0
 30
0.0
  0
INSERT
  5
15B
330
1F
100
AcDbEntity
  8
LC-001-100-D00-0
 62
     7
370
    50
100
AcDbBlockReference
  2
KLON10
 10
0.0
 20
0.0
 30
0.0
  0
INSERT
  5
161
330
1F
100
AcDbEntity
  8
LC-001-100-D00-0
 62
     7
370
    50
100
AcDbBlockReference
  2
KLON11
 10
0.0
 20
0.0
 30
0.0
  0
INSERT
  5
168
330
1F
100
AcDbEntity
  8
LC-001-100-D00-0
 62
     7
370
    50
100
AcDbBlockReference
  2
KLON12
 10
0.0
 20
0.0
 30
0.0
  0
INSERT
  5
16F
330
1F
100
AcDbEntity
  8
LC-001-100-D00-0
 62
     7
370
    50
100
AcDbBlockReference
  2
KLON13
 10
0.0
 20
0.0
 30
0.0
  0
INSERT
  5
175
330
1F
100
AcDbEntity
  8
LC-001-100-D00-0
 62
     7
370
    50
100
AcDbBlockReference
  2
KLON14
 10
0.0
 20
0.0
 30
0.0
  0
LINE
  5
176
330
1F
100
AcDbEntity
  8
LC-001-100-D00-0
 62
     7
370
    50
100
AcDbLine
 10
274.949179
 20
1.514539
 30
0.0
 11
274.949179
 21
4.365055
 31
0.0
  0
LINE
  5
177
330
1F
100
AcDbEntity
  8
LC-001-100-D00-0
 62
     7
370
    50
100
AcDbLine
 10
-334.996119
 20
1.514539
 30
0.0
 11
-334.996119
 21
4.365055
 31
0.0
  0
LINE
  5
178
330
1F
100
AcDbEntity
  8
LC-001-100-D00-0
 62
     7
370
    50
100
AcDbLine
 10
274.963454
 20
-38.990622
 30
0.0
 11
274.963454
 21
-24.995895
 31
0.0
  0
ELLIPSE
  5
179
330
1F
100
AcDbEntity
  8
LC-001-100-D00-0
 62
     7
370
    15
100
AcDbEllipse
 10
185.565665
 20
173.126252
 30
0.0
 11
28.64933027441062
 21
1.713494946258188
 31
0.0
210
0.0
220
0.0
230
1.0
 40
0.016531
 41
6.280994665938902
 42
6.282196627516501
  0
ELLIPSE
  5
17A
330
1F
100
AcDbEntity
  8
LC-001-100-D00-0
 62
     7
370
    15
100
AcDbEllipse
 10
185.565665
 20
184.494575
 30
0.0
 11
28.64933025562669
 21
-1.713494945134736
 31
0.0
210
0.0
220
0.0
230
1.0
 40
0.016531
 41
0.0009886796705905
 42
0.0021906412480008
  0
LINE
  5
17B
330
1F
100
AcDbEntity
  8
LC-001-100-D00-0
 62
     7
370
    50
100
AcDbLine
 10
274.963454
 20
-13.273994
 30
0.0
 11
274.963454
 21
0.720734
 31
0.0
  0
ELLIPSE
  5
17C
330
1F
100
AcDbEntity
  8
LC-001-100-D00-0
 62
     7
370
    15
100
AcDbEllipse
 10
120.869589
 20
173.126252
 30
0.0
 11
28.64933025118689
 21
-1.713494944869194
 31
0.0
210
0.0
220
0.0
230
1.0
 40
0.016531
 41
3.142581333263061
 42
3.143783294840562
  0
LINE
  5
17D
330
1F
100
AcDbEntity
  8
LC-001-100-D00-0
 62
     7
370
    50
100
AcDbLine
 10
-335.010394
 20
-38.990622
 30
0.0
 11
-335.010394
 21
-24.995895
 31
0.0
  0
ELLIPSE
  5
17E
330
1F
100
AcDbEntity
  8
LC-001-100-D00-0
 62
     7
370
    15
100
AcDbEllipse
 10
120.869589
 20
184.494575
 30
0.0
 11
28.64933027133689
 21
1.71349494607435
 31
0.0
210
0.0
220
0.0
230
1.0
 40
0.016531
 41
3.139402012349617
 42
3.140603973927016
  0
LINE
  5
17F
330
1F
100
AcDbEntity
  8
LC-001-100-D00-0
 62
     7
370
    50
100
AcDbLine
 10
-335.010394
 20
-13.273994
 30
0.0
 11
-335.010394
 21
0.720734
 31
0.0
  0
LINE
  5
180
330
1F
100
AcDbEntity
  8
LC-001-100-D00-0
 62
     7
370
    50
100
AcDbLine
 10
274.949179
 20
-39.784055
 30
0.0
 11
274.963335
 21
-38.993485
 31
0.0
  0
LINE
  5
181
330
1F
100
AcDbEntity
  8
LC-001-100-D00-0
 62
     7
370
    50
100
AcDbLine
 10
274.949179
 20
1.514167
 30
0.0
 11
274.963335
 21
0.723597
 31
0.0
  0
LINE
  5
182
330
1F
100
AcDbEntity
  8
LC-001-100-D00-0
 62
     7
370
    50
100
AcDbLine
 10
-334.996119
 20
-39.784055
 30
0.0
 11
-335.010275
 21
-38.993485
 31
0.0
  0
LINE
  5
183
330
1F
100
AcDbEntity
  8
LC-001-100-D00-0
 62
     7
370
    50
100
AcDbLine
 10
-334.996119
 20
1.514167
 30
0.0
 11
-335.010275
 21
0.723597
 31
0.0
  0
ARC
  5
184
330
1F
100
AcDbEntity
  8
LC-001-100-D00-0
 62
     7
370
    50
100
AcDbCircle
 10
0.476522
 20
-19.134924
 30
0.0
 40
24.80002105914446
100
AcDbArc
 50
270.0
 51
300.592807
  0
ARC
  5
185
330
1F
100
AcDbEntity
  8
LC-001-100-D00-0
 62
     7
370
    50
100
AcDbCircle
 10
-60.523462
 20
-19.134924
 30
0.0
 40
24.8000210591444
100
AcDbArc
 50
239.407193
 51
270.0
  0
ARC
  5
186
330
1F
100
AcDbEntity
  8
LC-001-100-D00-0
 62
     7
370
    50
100
AcDbCircle
 10
0.476524
 20
-19.134957
 30
0.0
 40
24.80001358063936
100
AcDbArc
 50
59.407188
 51
90.0
  0
ARC
  5
187
330
1F
100
AcDbEntity
  8
LC-001-100-D00-0
 62
     7
370
    50
100
AcDbCircle
 10
-60.523464
 20
-19.134957
 30
0.0
 40
24.80001358063942
100
AcDbArc
 50
90.0
 51
120.592812
  0
LINE
  5
188
330
1F
100
AcDbEntity
  8
LC-001-100-D00-0
 62
     7
370
    50
100
AcDbLine
 10
-60.52347
 20
5.665056
 30
0.0
 11
0.47653
 21
5.665056
 31
0.0
  0
LINE
  5
189
330
1F
100
AcDbEntity
  8
LC-001-100-D00-0
 62
     7
370
    50
100
AcDbLine
 10
0.47653
 20
-43.934945
 30
0.0
 11
-60.52347
 21
-43.934945
 31
0.0
  0
LINE
  5
18A
330
1F
100
AcDbEntity
  8
LC-001-100-D00-0
 62
     7
370
    50
100
AcDbLine
 10
-96.856303
 20
-15.696041
 30
0.0
 11
-96.84816
 21
-16.063933
 31
0.0
  0
LINE
  5
18B
330
1F
100
AcDbEntity
  8
LC-001-100-D00-0
 62
     7
370
    50
100
AcDbLine
 10
-97.967579
 20
-14.903073
 30
0.0
 11
-96.856303
 21
-15.696041
 31
0.0
  0
LINE
  5
18C
330
1F
100
AcDbEntity
  8
LC-001-100-D00-0
 62
     7
370
    50
100
AcDbLine
 10
-96.856303
 20
-14.110104
 30
0.0
 11
-97.967579
 21
-14.903073
 31
0.0
  0
LINE
  5
18D
330
1F
100
AcDbEntity
  8
LC-001-100-D00-0
 62
     7
370
    50
100
AcDbLine
 10
-96.856303
 20
-13.736406
 30
0.0
 11
-96.856303
 21
-14.110104
 31
0.0
  0
LINE
  5
18E
330
1F
100
AcDbEntity
  8
LC-001-100-D00-0
 62
     7
370
    50
100
AcDbLine
 10
-98.229803
 20
-14.715873
 30
0.0
 11
-96.856303
 21
-13.736406
 31
0.0
  0
LINE
  5
18F
330
1F
100
AcDbEntity
  8
LC-001-100-D00-0
 62
     7
370
    50
100
AcDbLine
 10
-99.413998
 20
-13.871021
 30
0.0
 11
-98.229803
 21
-14.715873
 31
0.0
  0
LINE
  5
190
330
1F
100
AcDbEntity
  8
LC-001-100-D00-0
 62
     7
370
    50
100
AcDbLine
 10
-99.413998
 20
-14.244719
 30
0.0
 11
-99.413998
 21
-13.871021
 31
0.0
  0
LINE
  5
191
330
1F
100
AcDbEntity
  8
LC-001-100-D00-0
 62
     7
370
    50
100
AcDbLine
 10
-98.491318
 20
-14.903073
 30
0.0
 11
-99.413998
 21
-14.244719
 31
0.0
  0
LINE
  5
192
330
1F
100
AcDbEntity
  8
LC-001-100-D00-0
 62
     7
370
    50
100
AcDbLine
 10
-99.413998
 20
-15.561426
 30
0.0
 11
-98.491318
 21
-14.903073
 31
0.0
  0
LINE
  5
193
330
1F
100
AcDbEntity
  8
LC-001-100-D00-0
 62
     7
370
    50
100
AcDbLine
 10
-99.413998
 20
-15.935124
 30
0.0
 11
-99.413998
 21
-15.561426
 31
0.0
  0
LINE
  5
194
330
1F
100
AcDbEntity
  8
LC-001-100-D00-0
 62
     7
370
    50
100
AcDbLine
 10
-98.229803
 20
-15.089571
 30
0.0
 11
-99.413998
 21
-15.935124
 31
0.0
  0
LINE
  5
195
330
1F
100
AcDbEntity
  8
LC-001-100-D00-0
 62
     7
370
    50
100
AcDbLine
 10
-96.84816
 20
-16.063933
 30
0.0
 11
-98.229803
 21
-15.089571
 31
0.0
  0
LINE
  5
196
330
1F
100
AcDbEntity
  8
LC-001-100-D00-0
 62
     7
370
    50
100
AcDbLine
 10
-96.856303
 20
-20.362708
 30
0.0
 11
-96.84816
 21
-20.7306
 31
0.0
  0
LINE
  5
197
330
1F
100
AcDbEntity
  8
LC-001-100-D00-0
 62
     7
370
    50
100
AcDbLine
 10
-97.967579
 20
-19.569739
 30
0.0
 11
-96.856303
 21
-20.362708
 31
0.0
  0
LINE
  5
198
330
1F
100
AcDbEntity
  8
LC-001-100-D00-0
 62
     7
370
    50
100
AcDbLine
 10
-96.856303
 20
-18.776771
 30
0.0
 11
-97.967579
 21
-19.569739
 31
0.0
  0
LINE
  5
199
330
1F
100
AcDbEntity
  8
LC-001-100-D00-0
 62
     7
370
    50
100
AcDbLine
 10
-96.856303
 20
-18.403073
 30
0.0
 11
-96.856303
 21
-18.776771
 31
0.0
  0
LINE
  5
19A
330
1F
100
AcDbEntity
  8
LC-001-100-D00-0
 62
     7
370
    50
100
AcDbLine
 10
-98.229803
 20
-19.38254
 30
0.0
 11
-96.856303
 21
-18.403073
 31
0.0
  0
LINE
  5
19B
330
1F
100
AcDbEntity
  8
LC-001-100-D00-0
 62
     7
370
    50
100
AcDbLine
 10
-99.413998
 20
-18.537688
 30
0.0
 11
-98.229803
 21
-19.38254
 31
0.0
  0
LINE
  5
19C
330
1F
100
AcDbEntity
  8
LC-001-100-D00-0
 62
     7
370
    50
100
AcDbLine
 10
-99.413998
 20
-18.911386
 30
0.0
 11
-99.413998
 21
-18.537688
 31
0.0
  0
LINE
  5
19D
330
1F
100
AcDbEntity
  8
LC-001-100-D00-0
 62
     7
370
    50
100
AcDbLine
 10
-98.491318
 20
-19.569739
 30
0.0
 11
-99.413998
 21
-18.911386
 31
0.0
  0
LINE
  5
19E
330
1F
100
AcDbEntity
  8
LC-001-100-D00-0
 62
     7
370
    50
100
AcDbLine
 10
-99.413998
 20
-20.228093
 30
0.0
 11
-98.491318
 21
-19.569739
 31
0.0
  0
LINE
  5
19F
330
1F
100
AcDbEntity
  8
LC-001-100-D00-0
 62
     7
370
    50
100
AcDbLine
 10
-99.413998
 20
-20.601791
 30
0.0
 11
-99.413998
 21
-20.228093
 31
0.0
  0
LINE
  5
1A0
330
1F
100
AcDbEntity
  8
LC-001-100-D00-0
 62
     7
370
    50
100
AcDbLine
 10
-98.229803
 20
-19.756238
 30
0.0
 11
-99.413998
 21
-20.601791
 31
0.0
  0
LINE
  5
1A1
330
1F
100
AcDbEntity
  8
LC-001-100-D00-0
 62
     7
370
    50
100
AcDbLine
 10
-96.84816
 20
-20.7306
 30
0.0
 11
-98.229803
 21
-19.756238
 31
0.0
  0
LINE
  5
1A2
330
1F
100
AcDbEntity
  8
LC-001-100-D00-0
 62
     7
370
    50
100
AcDbLine
 10
-96.856303
 20
-25.029375
 30
0.0
 11
-96.84816
 21
-25.397266
 31
0.0
  0
LINE
  5
1A3
330
1F
100
AcDbEntity
  8
LC-001-100-D00-0
 62
     7
370
    50
100
AcDbLine
 10
-97.967579
 20
-24.236406
 30
0.0
 11
-96.856303
 21
-25.029375
 31
0.0
  0
LINE
  5
1A4
330
1F
100
AcDbEntity
  8
LC-001-100-D00-0
 62
     7
370
    50
100
AcDbLine
 10
-96.856303
 20
-23.443437
 30
0.0
 11
-97.967579
 21
-24.236406
 31
0.0
  0
LINE
  5
1A5
330
1F
100
AcDbEntity
  8
LC-001-100-D00-0
 62
     7
370
    50
100
AcDbLine
 10
-96.856303
 20
-23.069739
 30
0.0
 11
-96.856303
 21
-23.443437
 31
0.0
  0
LINE
  5
1A6
330
1F
100
AcDbEntity
  8
LC-001-100-D00-0
 62
     7
370
    50
100
AcDbLine
 10
-98.229803
 20
-24.049206
 30
0.0
 11
-96.856303
 21
-23.069739
 31
0.0
  0
LINE
  5
1A7
330
1F
100
AcDbEntity
  8
LC-001-100-D00-0
 62
     7
370
    50
100
AcDbLine
 10
-99.413998
 20
-23.204355
 30
0.0
 11
-98.229803
 21
-24.049206
 31
0.0
  0
LINE
  5
1A8
330
1F
100
AcDbEntity
  8
LC-001-100-D00-0
 62
     7
370
    50
100
AcDbLine
 10
-99.413998
 20
-23.578052
 30
0.0
 11
-99.413998
 21
-23.204355
 31
0.0
  0
LINE
  5
1A9
330
1F
100
AcDbEntity
  8
LC-001-100-D00-0
 62
     7
370
    50
100
AcDbLine
 10
-98.491318
 20
-24.236406
 30
0.0
 11
-99.413998
 21
-23.578052
 31
0.0
  0
LINE
  5
1AA
330
1F
100
AcDbEntity
  8
LC-001-100-D00-0
 62
     7
370
    50
100
AcDbLine
 10
-99.413998
 20
-24.894759
 30
0.0
 11
-98.491318
 21
-24.236406
 31
0.0
  0
LINE
  5
1AB
330
1F
100
AcDbEntity
  8
LC-001-100-D00-0
 62
     7
370
    50
100
AcDbLine
 10
-99.413998
 20
-25.268457
 30
0.0
 11
-99.413998
 21
-24.894759
 31
0.0
  0
LINE
  5
1AC
330
1F
100
AcDbEntity
  8
LC-001-100-D00-0
 62
     7
370
    50
100
AcDbLine
 10
-98.229803
 20
-24.422905
 30
0.0
 11
-99.413998
 21
-25.268457
 31
0.0
  0
LINE
  5
1AD
330
1F
100
AcDbEntity
  8
LC-001-100-D00-0
 62
     7
370
    50
100
AcDbLine
 10
-96.84816
 20
-25.397266
 30
0.0
 11
-98.229803
 21
-24.422905
 31
0.0
  0
LINE
  5
1AE
330
1F
100
AcDbEntity
  8
LC-001-100-D00-0
 62
     7
370
    50
100
AcDbLine
 10
-96.856303
 20
-27.362708
 30
0.0
 11
-96.856303
 21
-27.736406
 31
0.0
  0
LINE
  5
1AF
330
1F
100
AcDbEntity
  8
LC-001-100-D00-0
 62
     7
370
    50
100
AcDbLine
 10
-97.967579
 20
-26.569739
 30
0.0
 11
-96.856303
 21
-27.362708
 31
0.0
  0
LINE
  5
1B0
330
1F
100
AcDbEntity
  8
LC-001-100-D00-0
 62
     7
370
    50
100
AcDbLine
 10
-96.856303
 20
-25.77677
 30
0.0
 11
-97.967579
 21
-26.569739
 31
0.0
  0
LINE
  5
1B1
330
1F
100
AcDbEntity
  8
LC-001-100-D00-0
 62
     7
370
    50
100
AcDbLine
 10
-96.856303
 20
-25.403073
 30
0.0
 11
-96.856303
 21
-25.77677
 31
0.0
  0
LINE
  5
1B2
330
1F
100
AcDbEntity
  8
LC-001-100-D00-0
 62
     7
370
    50
100
AcDbLine
 10
-98.229803
 20
-26.38254
 30
0.0
 11
-96.856303
 21
-25.403073
 31
0.0
  0
LINE
  5
1B3
330
1F
100
AcDbEntity
  8
LC-001-100-D00-0
 62
     7
370
    50
100
AcDbLine
 10
-99.413998
 20
-25.537688
 30
0.0
 11
-98.229803
 21
-26.38254
 31
0.0
  0
LINE
  5
1B4
330
1F
100
AcDbEntity
  8
LC-001-100-D00-0
 62
     7
370
    50
100
AcDbLine
 10
-99.413998
 20
-25.911386
 30
0.0
 11
-99.413998
 21
-25.537688
 31
0.0
  0
LINE
  5
1B5
330
1F
100
AcDbEntity
  8
LC-001-100-D00-0
 62
     7
370
    50
100
AcDbLine
 10
-98.491318
 20
-26.569739
 30
0.0
 11
-99.413998
 21
-25.911386
 31
0.0
  0
LINE
  5
1B6
330
1F
100
AcDbEntity
  8
LC-001-100-D00-0
 62
     7
370
    50
100
AcDbLine
 10
-99.413998
 20
-27.228093
 30
0.0
 11
-98.491318
 21
-26.569739
 31
0.0
  0
LINE
  5
1B7
330
1F
100
AcDbEntity
  8
LC-001-100-D00-0
 62
     7
370
    50
100
AcDbLine
 10
-99.413998
 20
-27.601791
 30
0.0
 11
-99.413998
 21
-27.228093
 31
0.0
  0
LINE
  5
1B8
330
1F
100
AcDbEntity
  8
LC-001-100-D00-0
 62
     7
370
    50
100
AcDbLine
 10
-98.229803
 20
-26.756238
 30
0.0
 11
-99.413998
 21
-27.601791
 31
0.0
  0
LINE
  5
1B9
330
1F
100
AcDbEntity
  8
LC-001-100-D00-0
 62
     7
370
    50
100
AcDbLine
 10
-96.856303
 20
-27.736406
 30
0.0
 11
-98.229803
 21
-26.756238
 31
0.0
  0
LINE
  5
1BA
330
1F
100
AcDbEntity
  8
LC-001-100-D00-0
 62
     7
370
    50
100
AcDbLine
 10
-96.856303
 20
-22.696041
 30
0.0
 11
-96.84816
 21
-23.063933
 31
0.0
  0
LINE
  5
1BB
330
1F
100
AcDbEntity
  8
LC-001-100-D00-0
 62
     7
370
    50
100
AcDbLine
 10
-97.967579
 20
-21.903073
 30
0.0
 11
-96.856303
 21
-22.696041
 31
0.0
  0
LINE
  5
1BC
330
1F
100
AcDbEntity
  8
LC-001-100-D00-0
 62
     7
370
    50
100
AcDbLine
 10
-96.856303
 20
-21.110104
 30
0.0
 11
-97.967579
 21
-21.903073
 31
0.0
  0
LINE
  5
1BD
330
1F
100
AcDbEntity
  8
LC-001-100-D00-0
 62
     7
370
    50
100
AcDbLine
 10
-96.856303
 20
-20.736406
 30
0.0
 11
-96.856303
 21
-21.110104
 31
0.0
  0
LINE
  5
1BE
330
1F
100
AcDbEntity
  8
LC-001-100-D00-0
 62
     7
370
    50
100
AcDbLine
 10
-98.229803
 20
-21.715873
 30
0.0
 11
-96.856303
 21
-20.736406
 31
0.0
  0
LINE
  5
1BF
330
1F
100
AcDbEntity
  8
LC-001-100-D00-0
 62
     7
370
    50
100
AcDbLine
 10
-99.413998
 20
-20.871021
 30
0.0
 11
-98.229803
 21
-21.715873
 31
0.0
  0
LINE
  5
1C0
330
1F
100
AcDbEntity
  8
LC-001-100-D00-0
 62
     7
370
    50
100
AcDbLine
 10
-99.413998
 20
-21.244719
 30
0.0
 11
-99.413998
 21
-20.871021
 31
0.0
  0
LINE
  5
1C1
330
1F
100
AcDbEntity
  8
LC-001-100-D00-0
 62
     7
370
    50
100
AcDbLine
 10
-98.491318
 20
-21.903073
 30
0.0
 11
-99.413998
 21
-21.244719
 31
0.0
  0
LINE
  5
1C2
330
1F
100
AcDbEntity
  8
LC-001-100-D00-0
 62
     7
370
    50
100
AcDbLine
 10
-99.413998
 20
-22.561426
 30
0.0
 11
-98.491318
 21
-21.903073
 31
0.0
  0
LINE
  5
1C3
330
1F
100
AcDbEntity
  8
LC-001-100-D00-0
 62
     7
370
    50
100
AcDbLine
 10
-99.413998
 20
-22.935124
 30
0.0
 11
-99.413998
 21
-22.561426
 31
0.0
  0
LINE
  5
1C4
330
1F
100
AcDbEntity
  8
LC-001-100-D00-0
 62
     7
370
    50
100
AcDbLine
 10
-98.229803
 20
-22.089571
 30
0.0
 11
-99.413998
 21
-22.935124
 31
0.0
  0
LINE
  5
1C5
330
1F
100
AcDbEntity
  8
LC-001-100-D00-0
 62
     7
370
    50
100
AcDbLine
 10
-96.84816
 20
-23.063933
 30
0.0
 11
-98.229803
 21
-22.089571
 31
0.0
  0
LINE
  5
1C6
330
1F
100
AcDbEntity
  8
LC-001-100-D00-0
 62
     7
370
    50
100
AcDbLine
 10
-96.856303
 20
-18.029375
 30
0.0
 11
-96.84816
 21
-18.397266
 31
0.0
  0
LINE
  5
1C7
330
1F
100
AcDbEntity
  8
LC-001-100-D00-0
 62
     7
370
    50
100
AcDbLine
 10
-97.967579
 20
-17.236406
 30
0.0
 11
-96.856303
 21
-18.029375
 31
0.0
  0
LINE
  5
1C8
330
1F
100
AcDbEntity
  8
LC-001-100-D00-0
 62
     7
370
    50
100
AcDbLine
 10
-96.856303
 20
-16.443437
 30
0.0
 11
-97.967579
 21
-17.236406
 31
0.0
  0
LINE
  5
1C9
330
1F
100
AcDbEntity
  8
LC-001-100-D00-0
 62
     7
370
    50
100
AcDbLine
 10
-96.856303
 20
-16.069739
 30
0.0
 11
-96.856303
 21
-16.443437
 31
0.0
  0
LINE
  5
1CA
330
1F
100
AcDbEntity
  8
LC-001-100-D00-0
 62
     7
370
    50
100
AcDbLine
 10
-98.229803
 20
-17.049206
 30
0.0
 11
-96.856303
 21
-16.069739
 31
0.0
  0
LINE
  5
1CB
330
1F
100
AcDbEntity
  8
LC-001-100-D00-0
 62
     7
370
    50
100
AcDbLine
 10
-99.413998
 20
-16.204355
 30
0.0
 11
-98.229803
 21
-17.049206
 31
0.0
  0
LINE
  5
1CC
330
1F
100
AcDbEntity
  8
LC-001-100-D00-0
 62
     7
370
    50
100
AcDbLine
 10
-99.413998
 20
-16.578052
 30
0.0
 11
-99.413998
 21
-16.204355
 31
0.0
  0
LINE
  5
1CD
330
1F
100
AcDbEntity
  8
LC-001-100-D00-0
 62
     7
370
    50
100
AcDbLine
 10
-98.491318
 20
-17.236406
 30
0.0
 11
-99.413998
 21
-16.578052
 31
0.0
  0
LINE
  5
1CE
330
1F
100
AcDbEntity
  8
LC-001-100-D00-0
 62
     7
370
    50
100
AcDbLine
 10
-99.413998
 20
-17.894759
 30
0.0
 11
-98.491318
 21
-17.236406
 31
0.0
  0
LINE
  5
1CF
330
1F
100
AcDbEntity
  8
LC-001-100-D00-0
 62
     7
370
    50
100
AcDbLine
 10
-99.413998
 20
-18.268457
 30
0.0
 11
-99.413998
 21
-17.894759
 31
0.0
  0
LINE
  5
1D0
330
1F
100
AcDbEntity
  8
LC-001-100-D00-0
 62
     7
370
    50
100
AcDbLine
 10
-98.229803
 20
-17.422904
 30
0.0
 11
-99.413998
 21
-18.268457
 31
0.0
  0
LINE
  5
1D1
330
1F
100
AcDbEntity
  8
LC-001-100-D00-0
 62
     7
370
    50
100
AcDbLine
 10
-96.84816
 20
-18.397266
 30
0.0
 11
-98.229803
 21
-17.422904
 31
0.0
  0
ARC
  5
1D2
330
1F
100
AcDbEntity
  8
LC-001-100-D00-0
 62
     7
370
    50
100
AcDbCircle
 10
0.47653
 20
-19.134944
 30
0.0
 40
24.79999999999465
100
AcDbArc
 50
300.592814
 51
59.407186
  0
ARC
  5
1D3
330
1F
100
AcDbEntity
  8
LC-001-100-D00-0
 62
     7
370
    50
100
AcDbCircle
 10
-60.52347
 20
-19.134944
 30
0.0
 40
24.79999999999465
100
AcDbArc
 50
120.592814
 51
239.407186
  0
ARC
  5
1D4
330
1F
100
AcDbEntity
  8
LC-001-100-D00-0
 62
     7
370
    50
100
AcDbCircle
 10
83.22653
 20
-5.884944
 30
0.0
 40
5.000000000000227
100
AcDbArc
 50
0.0
 51
90.0
  0
LINE
  5
1D5
330
1F
100
AcDbEntity
  8
LC-001-100-D00-0
 62
     7
370
    50
100
AcDbLine
 10
88.22653
 20
-5.884944
 30
0.0
 11
88.22653
 21
-32.384944
 31
0.0
  0
ARC
  5
1D6
330
1F
100
AcDbEntity
  8
LC-001-100-D00-0
 62
     7
370
    50
100
AcDbCircle
 10
83.22653
 20
-32.384944
 30
0.0
 40
5.0
100
AcDbArc
 50
270.0
 51
0.0
  0
CIRCLE
  5
1D7
330
1F
100
AcDbEntity
  8
LC-001-100-D00-0
 62
     7
370
    50
100
AcDbCircle
 10
69.97653
 20
-19.134944
 30
0.0
 40
3.900000000000205
  0
LINE
  5
1D8
330
1F
100
AcDbEntity
  8
LC-001-100-D00-0
 62
     7
370
    50
100
AcDbLine
 10
56.72653
 20
-0.884944
 30
0.0
 11
83.22653
 21
-0.884944
 31
0.0
  0
LINE
  5
1D9
330
1F
100
AcDbEntity
  8
LC-001-100-D00-0
 62
     7
370
    50
100
AcDbLine
 10
83.22653
 20
-37.384944
 30
0.0
 11
56.72653
 21
-37.384944
 31
0.0
  0
ARC
  5
1DA
330
1F
100
AcDbEntity
  8
LC-001-100-D00-0
 62
     7
370
    50
100
AcDbCircle
 10
56.72653
 20
-32.384944
 30
0.0
 40
5.000000000000341
100
AcDbArc
 50
180.0
 51
270.0
  0
ARC
  5
1DB
330
1F
100
AcDbEntity
  8
LC-001-100-D00-0
 62
     7
370
    50
100
AcDbCircle
 10
56.72653
 20
-5.884944
 30
0.0
 40
5.0
100
AcDbArc
 50
90.0
 51
180.0
  0
LINE
  5
1DC
330
1F
100
AcDbEntity
  8
LC-001-100-D00-0
 62
     7
370
    50
100
AcDbLine
 10
51.72653
 20
-32.384944
 30
0.0
 11
51.72653
 21
-5.884944
 31
0.0
  0
ARC
  5
1DD
330
1F
100
AcDbEntity
  8
LC-001-100-D00-0
 62
     7
370
    50
100
AcDbCircle
 10
-436.77347
 20
-5.884944
 30
0.0
 40
5.0
100
AcDbArc
 50
0.0
 51
90.0
  0
LINE
  5
1DE
330
1F
100
AcDbEntity
  8
LC-001-100-D00-0
 62
     7
370
    50
100
AcDbLine
 10
-431.77347
 20
-5.884944
 30
0.0
 11
-431.77347
 21
-32.384944
 31
0.0
  0
ARC
  5
1DF
330
1F
100
AcDbEntity
  8
LC-001-100-D00-0
 62
     7
370
    50
100
AcDbCircle
 10
-436.77347
 20
-32.384944
 30
0.0
 40
5.0
100
AcDbArc
 50
270.0
 51
0.0
  0
CIRCLE
  5
1E0
330
1F
100
AcDbEntity
  8
LC-001-100-D00-0
 62
     7
370
    50
100
AcDbCircle
 10
-450.02347
 20
-19.134944
 30
0.0
 40
3.900000000000205
  0
LINE
  5
1E1
330
1F
100
AcDbEntity
  8
LC-001-100-D00-0
 62
     7
370
    50
100
AcDbLine
 10
-463.27347
 20
-0.884944
 30
0.0
 11
-436.77347
 21
-0.884944
 31
0.0
  0
LINE
  5
1E2
330
1F
100
AcDbEntity
  8
LC-001-100-D00-0
 62
     7
370
    50
100
AcDbLine
 10
-436.77347
 20
-37.384944
 30
0.0
 11
-463.27347
 21
-37.384944
 31
0.0
  0
ARC
  5
1E3
330
1F
100
AcDbEntity
  8
LC-001-100-D00-0
 62
     7
370
    50
100
AcDbCircle
 10
-463.27347
 20
-5.884944
 30
0.0
 40
5.0
100
AcDbArc
 50
90.0
 51
180.0
  0
ARC
  5
1E4
330
1F
100
AcDbEntity
  8
LC-001-100-D00-0
 62
     7
370
    50
100
AcDbCircle
 10
-463.27347
 20
-32.384944
 30
0.0
 40
5.0
100
AcDbArc
 50
180.0
 51
270.0
  0
LINE
  5
1E5
330
1F
100
AcDbEntity
  8
LC-001-100-D00-0
 62
     7
370
    50
100
AcDbLine
 10
-468.27347
 20
-32.384944
 30
0.0
 11
-468.27347
 21
-5.884944
 31
0.0
  0
LINE
  5
1E6
330
1F
100
AcDbEntity
  8
LC-001-100-D00-0
 62
     7
370
    50
100
AcDbLine
 10
248.22653
 20
-5.884944
 30
0.0
 11
248.22653
 21
-32.384944
 31
0.0
  0
ARC
  5
1E7
330
1F
100
AcDbEntity
  8
LC-001-100-D00-0
 62
     7
370
    50
100
AcDbCircle
 10
243.22653
 20
-5.884944
 30
0.0
 40
5.000000000000227
100
AcDbArc
 50
0.0
 51
90.0
  0
ARC
  5
1E8
330
1F
100
AcDbEntity
  8
LC-001-100-D00-0
 62
     7
370
    50
100
AcDbCircle
 10
243.22653
 20
-32.384944
 30
0.0
 40
5.0
100
AcDbArc
 50
270.0
 51
0.0
  0
CIRCLE
  5
1E9
330
1F
100
AcDbEntity
  8
LC-001-100-D00-0
 62
     7
370
    50
100
AcDbCircle
 10
229.97653
 20
-19.134944
 30
0.0
 40
3.900000000000205
  0
LINE
  5
1EA
330
1F
100
AcDbEntity
  8
LC-001-100-D00-0
 62
     7
370
    50
100
AcDbLine
 10
243.22653
 20
-37.384944
 30
0.0
 11
216.72653
 21
-37.384944
 31
0.0
  0
LINE
  5
1EB
330
1F
100
AcDbEntity
  8
LC-001-100-D00-0
 62
     7
370
    50
100
AcDbLine
 10
216.72653
 20
-0.884944
 30
0.0
 11
243.22653
 21
-0.884944
 31
0.0
  0
ARC
  5
1EC
330
1F
100
AcDbEntity
  8
LC-001-100-D00-0
 62
     7
370
    50
100
AcDbCircle
 10
216.72653
 20
-32.384944
 30
0.0
 40
5.0
100
AcDbArc
 50
180.0
 51
270.0
  0
ARC
  5
1ED
330
1F
100
AcDbEntity
  8
LC-001-100-D00-0
 62
     7
370
    50
100
AcDbCircle
 10
216.72653
 20
-5.884944
 30
0.0
 40
5.0
100
AcDbArc
 50
90.0
 51
180.0
  0
LINE
  5
1EE
330
1F
100
AcDbEntity
  8
LC-001-100-D00-0
 62
     7
370
    50
100
AcDbLine
 10
211.72653
 20
-32.384944
 30
0.0
 11
211.72653
 21
-5.884944
 31
0.0
  0
ARC
  5
1EF
330
1F
100
AcDbEntity
  8
LC-001-100-D00-0
 62
     7
370
    50
100
AcDbCircle
 10
-276.77347
 20
-32.384944
 30
0.0
 40
5.0
100
AcDbArc
 50
270.0
 51
0.0
  0
ARC
  5
1F0
330
1F
100
AcDbEntity
  8
LC-001-100-D00-0
 62
     7
370
    50
100
AcDbCircle
 10
-276.77347
 20
-5.884944
 30
0.0
 40
5.000000000000227
100
AcDbArc
 50
0.0
 51
90.0
  0
LINE
  5
1F1
330
1F
100
AcDbEntity
  8
LC-001-100-D00-0
 62
     7
370
    50
100
AcDbLine
 10
-271.77347
 20
-5.884944
 30
0.0
 11
-271.77347
 21
-32.384944
 31
0.0
  0
CIRCLE
  5
1F2
330
1F
100
AcDbEntity
  8
LC-001-100-D00-0
 62
     7
370
    50
100
AcDbCircle
 10
-290.02347
 20
-19.134944
 30
0.0
 40
3.900000000000205
  0
LINE
  5
1F3
330
1F
100
AcDbEntity
  8
LC-001-100-D00-0
 62
     7
370
    50
100
AcDbLine
 10
-276.77347
 20
-37.384944
 30
0.0
 11
-303.27347
 21
-37.384944
 31
0.0
  0
LINE
  5
1F4
330
1F
100
AcDbEntity
  8
LC-001-100-D00-0
 62
     7
370
    50
100
AcDbLine
 10
-303.27347
 20
-0.884944
 30
0.0
 11
-276.77347
 21
-0.884944
 31
0.0
  0
ARC
  5
1F5
330
1F
100
AcDbEntity
  8
LC-001-100-D00-0
 62
     7
370
    50
100
AcDbCircle
 10
-303.27347
 20
-32.384944
 30
0.0
 40
5.000000000000284
100
AcDbArc
 50
180.0
 51
270.0
  0
ARC
  5
1F6
330
1F
100
AcDbEntity
  8
LC-001-100-D00-0
 62
     7
370
    50
100
AcDbCircle
 10
-303.27347
 20
-5.884944
 30
0.0
 40
5.0
100
AcDbArc
 50
90.0
 51
180.0
  0
LINE
  5
1F7
330
1F
100
AcDbEntity
  8
LC-001-100-D00-0
 62
     7
370
    50
100
AcDbLine
 10
-308.27347
 20
-32.384944
 30
0.0
 11
-308.27347
 21
-5.884944
 31
0.0
  0
ARC
  5
1F8
330
1F
100
AcDbEntity
  8
LC-001-100-D00-0
 62
     7
370
    50
100
AcDbCircle
 10
-116.77347
 20
-5.884944
 30
0.0
 40
5.000000000000227
100
AcDbArc
 50
0.0
 51
90.0
  0
ARC
  5
1F9
330
1F
100
AcDbEntity
  8
LC-001-100-D00-0
 62
     7
370
    50
100
AcDbCircle
 10
-116.77347
 20
-32.384944
 30
0.0
 40
5.0
100
AcDbArc
 50
270.0
 51
0.0
  0
LINE
  5
1FA
330
1F
100
AcDbEntity
  8
LC-001-100-D00-0
 62
     7
370
    50
100
AcDbLine
 10
-111.77347
 20
-5.884944
 30
0.0
 11
-111.77347
 21
-32.384944
 31
0.0
  0
CIRCLE
  5
1FB
330
1F
100
AcDbEntity
  8
LC-001-100-D00-0
 62
     7
370
    50
100
AcDbCircle
 10
-130.02347
 20
-19.134944
 30
0.0
 40
3.900000000000205
  0
LINE
  5
1FC
330
1F
100
AcDbEntity
  8
LC-001-100-D00-0
 62
     7
370
    50
100
AcDbLine
 10
-143.27347
 20
-0.884944
 30
0.0
 11
-116.77347
 21
-0.884944
 31
0.0
  0
LINE
  5
1FD
330
1F
100
AcDbEntity
  8
LC-001-100-D00-0
 62
     7
370
    50
100
AcDbLine
 10
-116.77347
 20
-37.384944
 30
0.0
 11
-143.27347
 21
-37.384944
 31
0.0
  0
ARC
  5
1FE
330
1F
100
AcDbEntity
  8
LC-001-100-D00-0
 62
     7
370
    50
100
AcDbCircle
 10
-143.27347
 20
-5.884944
 30
0.0
 40
5.0
100
AcDbArc
 50
90.0
 51
180.0
  0
ARC
  5
1FF
330
1F
100
AcDbEntity
  8
LC-001-100-D00-0
 62
     7
370
    50
100
AcDbCircle
 10
-143.27347
 20
-32.384944
 30
0.0
 40
5.000000000000341
100
AcDbArc
 50
180.0
 51
270.0
  0
LINE
  5
200
330
1F
100
AcDbEntity
  8
LC-001-100-D00-0
 62
     7
370
    50
100
AcDbLine
 10
-148.27347
 20
-32.384944
 30
0.0
 11
-148.27347
 21
-5.884944
 31
0.0
  0
LINE
  5
201
330
1F
100
AcDbEntity
  8
LC-001-100-D00-0
 62
     7
370
    50
100
AcDbLine
 10
408.22653
 20
-5.884944
 30
0.0
 11
408.22653
 21
-32.384944
 31
0.0
  0
ARC
  5
202
330
1F
100
AcDbEntity
  8
LC-001-100-D00-0
 62
     7
370
    50
100
AcDbCircle
 10
403.22653
 20
-32.384944
 30
0.0
 40
5.0
100
AcDbArc
 50
270.0
 51
0.0
  0
ARC
  5
203
330
1F
100
AcDbEntity
  8
LC-001-100-D00-0
 62
     7
370
    50
100
AcDbCircle
 10
403.22653
 20
-5.884944
 30
0.0
 40
5.0
100
AcDbArc
 50
0.0
 51
90.0
  0
CIRCLE
  5
204
330
1F
100
AcDbEntity
  8
LC-001-100-D00-0
 62
     7
370
    50
100
AcDbCircle
 10
389.97653
 20
-19.134944
 30
0.0
 40
3.900000000000205
  0
LINE
  5
205
330
1F
100
AcDbEntity
  8
LC-001-100-D00-0
 62
     7
370
    50
100
AcDbLine
 10
376.72653
 20
-0.884944
 30
0.0
 11
403.22653
 21
-0.884944
 31
0.0
  0
LINE
  5
206
330
1F
100
AcDbEntity
  8
LC-001-100-D00-0
 62
     7
370
    50
100
AcDbLine
 10
403.22653
 20
-37.384944
 30
0.0
 11
376.72653
 21
-37.384944
 31
0.0
  0
ARC
  5
207
330
1F
100
AcDbEntity
  8
LC-001-100-D00-0
 62
     7
370
    50
100
AcDbCircle
 10
376.72653
 20
-5.884944
 30
0.0
 40
5.0
100
AcDbArc
 50
90.0
 51
180.0
  0
ARC
  5
208
330
1F
100
AcDbEntity
  8
LC-001-100-D00-0
 62
     7
370
    50
100
AcDbCircle
 10
376.72653
 20
-32.384944
 30
0.0
 40
5.0
100
AcDbArc
 50
180.0
 51
270.0
  0
LINE
  5
209
330
1F
100
AcDbEntity
  8
LC-001-100-D00-0
 62
     7
370
    50
100
AcDbLine
 10
371.72653
 20
-32.384944
 30
0.0
 11
371.72653
 21
-5.884944
 31
0.0
  0
LINE
  5
20A
330
1F
100
AcDbEntity
  8
LC-001-100-D00-0
 62
     7
370
    50
100
AcDbLine
 10
-60.52347
 20
-43.134944
 30
0.0
 11
0.47653
 21
-43.134944
 31
0.0
  0
ARC
  5
20B
330
1F
100
AcDbEntity
  8
LC-001-100-D00-0
 62
     7
370
    50
100
AcDbCircle
 10
-60.52347
 20
-19.134944
 30
0.0
 40
24.0
100
AcDbArc
 50
90.0
 51
270.0
  0
LINE
  5
20C
330
1F
100
AcDbEntity
  8
LC-001-100-D00-0
 62
     7
370
    50
100
AcDbLine
 10
0.47653
 20
4.865056
 30
0.0
 11
-60.52347
 21
4.865056
 31
0.0
  0
ARC
  5
20D
330
1F
100
AcDbEntity
  8
LC-001-100-D00-0
 62
     7
370
    50
100
AcDbCircle
 10
0.47653
 20
-19.134944
 30
0.0
 40
24.00000000000011
100
AcDbArc
 50
270.0
 51
90.0
  0
ARC
  5
20E
330
1F
100
AcDbEntity
  8
LC-001-100-D00-0
 62
     7
370
    50
100
AcDbCircle
 10
-18.52347
 20
-19.134944
 30
0.0
 40
16.0
100
AcDbArc
 50
270.0
 51
90.0
  0
LINE
  5
20F
330
1F
100
AcDbEntity
  8
LC-001-100-D00-0
 62
     7
370
    50
100
AcDbLine
 10
-41.52347
 20
-35.134944
 30
0.0
 11
-18.52347
 21
-35.134944
 31
0.0
  0
LINE
  5
210
330
1F
100
AcDbEntity
  8
LC-001-100-D00-0
 62
     7
370
    50
100
AcDbLine
 10
-18.52347
 20
-3.134944
 30
0.0
 11
-41.52347
 21
-3.134944
 31
0.0
  0
ARC
  5
211
330
1F
100
AcDbEntity
  8
LC-001-100-D00-0
 62
     7
370
    50
100
AcDbCircle
 10
-41.52347
 20
-19.134944
 30
0.0
 40
15.99999999999989
100
AcDbArc
 50
90.0
 51
270.0
  0
DIMENSION
  5
212
330
1F
100
AcDbEntity
  8
LC-001-100-D00-0
 62
     7
370
    25
100
AcDbDimension
  2
*D16
 10
564.702725
 20
25.365056
 30
0.0
 11
509.702725
 21
-25.925114
 31
0.0
 70
   160
  1
1,5
 71
     5
 42
1.5
 53
90.0
  3
LC-DIM-L-0100-02-02
100
AcDbAlignedDimension
 13
464.97653
 23
26.865056
 33
0.0
 14
464.97653
 24
25.365056
 34
0.0
 50
90.0
100
AcDbRotatedDimension
  0
DIMENSION
  5
220
330
1F
100
AcDbEntity
  8
LC-001-100-D00-0
 62
     7
370
    25
100
AcDbDimension
  2
*D17
 10
670.798289
 20
6.865056
 30
0.0
 11
615.798289
 21
-66.020114
 31
0.0
 70
   160
  1
18,5
 71
     5
 42
18.5
 53
90.0
  3
LC-DIM-L-0100-02-02
100
AcDbAlignedDimension
 13
464.97653
 23
25.365056
 33
0.0
 14
417.47653
 24
6.865056
 34
0.0
 50
90.0
100
AcDbRotatedDimension
  0
DIMENSION
  5
22E
330
1F
100
AcDbEntity
  8
LC-001-100-D00-0
 62
     7
370
    25
100
AcDbDimension
  2
*D18
 10
761.092387
 20
-96.634944
 30
0.0
 11
706.092387
 21
-70.475114
 31
0.0
 70
   160
  1
123,5
 71
     5
 42
123.5
 53
90.0
  3
LC-DIM-L-0100-02-02
100
AcDbAlignedDimension
 13
464.97653
 23
26.865056
 33
0.0
 14
464.97653
 24
-96.634944
 34
0.0
 50
90.0
100
AcDbRotatedDimension
  0
LINE
  5
23B
330
1F
100
AcDbEntity
  8
LC-001-100-D00-0
  6
DASHDOT
 62
     7
370
    25
100
AcDbLine
 10
427.47653
 20
-19.134944
 30
0.0
 11
-487.52347
 21
-19.134944
 31
0.0
  0
LINE
  5
23C
330
1F
100
AcDbEntity
  8
LC-001-100-D00-0
  6
DASHDOT
 62
     7
370
    25
100
AcDbLine
 10
-30.02347
 20
36.865056
 30
0.0
 11
-30.02347
 21
-101.634944
 31
0.0
  0
LINE
  5
23D
330
1F
100
AcDbEntity
  8
LC-001-100-D00-0
 62
     7
370
    50
100
AcDbLine
 10
25.22653
 20
397.43063
 30
0.0
 11
27.02653
 21
397.43063
 31
0.0
  0
LINE
  5
23E
330
1F
100
AcDbEntity
  8
LC-001-100-D00-0
 62
     7
370
    50
100
AcDbLine
 10
-87.07347
 20
397.43063
 30
0.0
 11
-85.27347
 21
397.43063
 31
0.0
  0
LINE
  5
23F
330
1F
100
AcDbEntity
  8
LC-001-100-D00-0
 62
     7
370
    50
100
AcDbLine
 10
83.224326
 20
325.070616
 30
0.0
 11
83.224326
 21
326.853537
 31
0.0
  0
LINE
  5
240
330
1F
100
AcDbEntity
  8
LC-001-100-D00-0
 62
     7
370
    50
100
AcDbLine
 10
83.224326
 20
377.287695
 30
0.0
 11
83.224326
 21
379.070616
 31
0.0
  0
LINE
  5
241
330
1F
100
AcDbEntity
  8
LC-001-100-D00-0
 62
     7
370
    50
100
AcDbLine
 10
79.224326
 20
379.070616
 30
0.0
 11
79.224326
 21
377.287695
 31
0.0
  0
LINE
  5
242
330
1F
100
AcDbEntity
  8
LC-001-100-D00-0
 62
     7
370
    50
100
AcDbLine
 10
79.224326
 20
326.853537
 30
0.0
 11
79.224326
 21
325.070616
 31
0.0
  0
LINE
  5
243
330
1F
100
AcDbEntity
  8
LC-001-100-D00-0
 62
     7
370
    50
100
AcDbLine
 10
9.690945
 20
395.570616
 30
0.0
 11
9.690945
 21
394.070616
 31
0.0
  0
LINE
  5
244
330
1F
100
AcDbEntity
  8
LC-001-100-D00-0
 62
     7
370
    50
100
AcDbLine
 10
-69.737885
 20
394.070616
 30
0.0
 11
-69.737885
 21
395.570616
 31
0.0
  0
LINE
  5
245
330
1F
100
AcDbEntity
  8
LC-001-100-D00-0
 62
     7
370
    50
100
AcDbLine
 10
386.576519
 20
417.570616
 30
0.0
 11
385.576532
 21
418.570616
 31
0.0
  0
LINE
  5
246
330
1F
100
AcDbEntity
  8
LC-001-100-D00-0
 62
     7
370
    50
100
AcDbLine
 10
386.576519
 20
417.570616
 30
0.0
 11
386.57653
 21
411.570616
 31
0.0
  0
LINE
  5
247
330
1F
100
AcDbEntity
  8
LC-001-100-D00-0
 62
     7
370
    50
100
AcDbLine
 10
385.57653
 20
410.570616
 30
0.0
 11
386.57653
 21
411.570616
 31
0.0
  0
LINE
  5
248
330
1F
100
AcDbEntity
  8
LC-001-100-D00-0
 62
     7
370
    50
100
AcDbLine
 10
383.625672
 20
412.570615
 30
0.0
 11
383.625672
 21
410.570616
 31
0.0
  0
LINE
  5
249
330
1F
100
AcDbEntity
  8
LC-001-100-D00-0
 62
     7
370
    50
100
AcDbLine
 10
384.331821
 20
412.759827
 30
0.0
 11
383.625672
 21
412.570615
 31
0.0
  0
ARC
  5
24A
330
1F
100
AcDbEntity
  8
LC-001-100-D00-0
 62
     7
370
    50
100
AcDbCircle
 10
384.17653
 20
413.339382
 30
0.0
 40
0.6000000000000886
100
AcDbArc
 50
285.0
 51
0.0
  0
LINE
  5
24B
330
1F
100
AcDbEntity
  8
LC-001-100-D00-0
 62
     7
370
    50
100
AcDbLine
 10
384.77653
 20
415.801849
 30
0.0
 11
384.77653
 21
413.339382
 31
0.0
  0
ARC
  5
24C
330
1F
100
AcDbEntity
  8
LC-001-100-D00-0
 62
     7
370
    50
100
AcDbCircle
 10
384.17653
 20
415.801849
 30
0.0
 40
0.6000000000001364
100
AcDbArc
 50
0.0
 51
75.0
  0
LINE
  5
24D
330
1F
100
AcDbEntity
  8
LC-001-100-D00-0
 62
     7
370
    50
100
AcDbLine
 10
383.625672
 20
416.570615
 30
0.0
 11
384.331821
 21
416.381405
 31
0.0
  0
LINE
  5
24E
330
1F
100
AcDbEntity
  8
LC-001-100-D00-0
 62
     7
370
    50
100
AcDbLine
 10
383.625672
 20
418.570616
 30
0.0
 11
383.625672
 21
416.570615
 31
0.0
  0
LINE
  5
24F
330
1F
100
AcDbEntity
  8
LC-001-100-D00-0
 62
     7
370
    50
100
AcDbLine
 10
383.625672
 20
410.570616
 30
0.0
 11
385.57653
 21
410.570616
 31
0.0
  0
LINE
  5
250
330
1F
100
AcDbEntity
  8
LC-001-100-D00-0
 62
     7
370
    50
100
AcDbLine
 10
383.625672
 20
418.570616
 30
0.0
 11
385.576532
 21
418.570616
 31
0.0
  0
LINE
  5
251
330
1F
100
AcDbEntity
  8
LC-001-100-D00-0
 62
     7
370
    50
100
AcDbLine
 10
395.17653
 20
413.339382
 30
0.0
 11
395.17653
 21
415.801849
 31
0.0
  0
ARC
  5
252
330
1F
100
AcDbEntity
  8
LC-001-100-D00-0
 62
     7
370
    50
100
AcDbCircle
 10
395.77653
 20
413.339382
 30
0.0
 40
0.6000000000001364
100
AcDbArc
 50
180.0
 51
255.0
  0
LINE
  5
253
330
1F
100
AcDbEntity
  8
LC-001-100-D00-0
 62
     7
370
    50
100
AcDbLine
 10
396.327392
 20
412.570615
 30
0.0
 11
395.621239
 21
412.759827
 31
0.0
  0
LINE
  5
254
330
1F
100
AcDbEntity
  8
LC-001-100-D00-0
 62
     7
370
    50
100
AcDbLine
 10
396.327392
 20
412.570615
 30
0.0
 11
396.327392
 21
410.570616
 31
0.0
  0
LINE
  5
255
330
1F
100
AcDbEntity
  8
LC-001-100-D00-0
 62
     7
370
    50
100
AcDbLine
 10
393.37653
 20
411.570616
 30
0.0
 11
394.37653
 21
410.570616
 31
0.0
  0
LINE
  5
256
330
1F
100
AcDbEntity
  8
LC-001-100-D00-0
 62
     7
370
    50
100
AcDbLine
 10
393.37653
 20
411.570616
 30
0.0
 11
393.376545
 21
417.570616
 31
0.0
  0
LINE
  5
257
330
1F
100
AcDbEntity
  8
LC-001-100-D00-0
 62
     7
370
    50
100
AcDbLine
 10
394.376532
 20
418.570616
 30
0.0
 11
393.376545
 21
417.570616
 31
0.0
  0
LINE
  5
258
330
1F
100
AcDbEntity
  8
LC-001-100-D00-0
 62
     7
370
    50
100
AcDbLine
 10
396.327392
 20
418.570616
 30
0.0
 11
396.327392
 21
416.570615
 31
0.0
  0
LINE
  5
259
330
1F
100
AcDbEntity
  8
LC-001-100-D00-0
 62
     7
370
    50
100
AcDbLine
 10
395.621239
 20
416.381405
 30
0.0
 11
396.327392
 21
416.570615
 31
0.0
  0
ARC
  5
25A
330
1F
100
AcDbEntity
  8
LC-001-100-D00-0
 62
     7
370
    50
100
AcDbCircle
 10
395.77653
 20
415.801849
 30
0.0
 40
0.600000000000367
100
AcDbArc
 50
105.0
 51
180.0
  0
LINE
  5
25B
330
1F
100
AcDbEntity
  8
LC-001-100-D00-0
 62
     7
370
    50
100
AcDbLine
 10
394.37653
 20
410.570616
 30
0.0
 11
396.327392
 21
410.570616
 31
0.0
  0
LINE
  5
25C
330
1F
100
AcDbEntity
  8
LC-001-100-D00-0
 62
     7
370
    50
100
AcDbLine
 10
394.376532
 20
418.570616
 30
0.0
 11
396.327392
 21
418.570616
 31
0.0
  0
LINE
  5
25D
330
1F
100
AcDbEntity
  8
LC-001-100-D00-0
 62
     7
370
    50
100
AcDbLine
 10
386.57653
 20
411.570616
 30
0.0
 11
386.73437
 21
411.570616
 31
0.0
  0
LINE
  5
25E
330
1F
100
AcDbEntity
  8
LC-001-100-D00-0
 62
     7
370
    50
100
AcDbLine
 10
393.21869
 20
411.570616
 30
0.0
 11
393.37653
 21
411.570616
 31
0.0
  0
LINE
  5
25F
330
1F
100
AcDbEntity
  8
LC-001-100-D00-0
 62
     7
370
    50
100
AcDbLine
 10
394.37653
 20
410.570616
 30
0.0
 11
393.840748
 21
410.570616
 31
0.0
  0
LINE
  5
260
330
1F
100
AcDbEntity
  8
LC-001-100-D00-0
 62
     7
370
    50
100
AcDbLine
 10
386.112312
 20
410.570616
 30
0.0
 11
385.57653
 21
410.570616
 31
0.0
  0
LINE
  5
261
330
1F
100
AcDbEntity
  8
LC-001-100-D00-0
 62
     7
370
    50
100
AcDbLine
 10
396.327392
 20
418.570616
 30
0.0
 11
393.876538
 21
418.570616
 31
0.0
  0
LINE
  5
262
330
1F
100
AcDbEntity
  8
LC-001-100-D00-0
 62
     7
370
    50
100
AcDbLine
 10
393.876538
 20
418.570616
 30
0.0
 11
393.87653
 21
429.570616
 31
0.0
  0
LINE
  5
263
330
1F
100
AcDbEntity
  8
LC-001-100-D00-0
 62
     7
370
    50
100
AcDbLine
 10
393.87653
 20
429.570616
 30
0.0
 11
407.22653
 21
429.570616
 31
0.0
  0
ARC
  5
264
330
1F
100
AcDbEntity
  8
LC-001-100-D00-0
 62
     7
370
    50
100
AcDbCircle
 10
407.22653
 20
428.570616
 30
0.0
 40
1.000000000000227
100
AcDbArc
 50
0.0
 51
90.0
  0
LINE
  5
265
330
1F
100
AcDbEntity
  8
LC-001-100-D00-0
 62
     7
370
    50
100
AcDbLine
 10
408.22653
 20
428.570616
 30
0.0
 11
408.226535
 21
422.570616
 31
0.0
  0
LINE
  5
266
330
1F
100
AcDbEntity
  8
LC-001-100-D00-0
 62
     7
370
    50
100
AcDbLine
 10
405.22653
 20
422.570616
 30
0.0
 11
408.226535
 21
422.570616
 31
0.0
  0
LINE
  5
267
330
1F
100
AcDbEntity
  8
LC-001-100-D00-0
 62
     7
370
    50
100
AcDbLine
 10
405.22653
 20
422.570616
 30
0.0
 11
405.226544
 21
426.570616
 31
0.0
  0
LINE
  5
268
330
1F
100
AcDbEntity
  8
LC-001-100-D00-0
 62
     7
370
    50
100
AcDbLine
 10
400.72653
 20
426.570616
 30
0.0
 11
405.226544
 21
426.570616
 31
0.0
  0
ARC
  5
269
330
1F
100
AcDbEntity
  8
LC-001-100-D00-0
 62
     7
370
    50
100
AcDbCircle
 10
400.72653
 20
425.570616
 30
0.0
 40
1.000000000000227
100
AcDbArc
 50
90.0
 51
180.0
  0
LINE
  5
26A
330
1F
100
AcDbEntity
  8
LC-001-100-D00-0
 62
     7
370
    50
100
AcDbLine
 10
399.72653
 20
411.570616
 30
0.0
 11
399.72653
 21
425.570616
 31
0.0
  0
ARC
  5
26B
330
1F
100
AcDbEntity
  8
LC-001-100-D00-0
 62
     7
370
    50
100
AcDbCircle
 10
398.72653
 20
411.570616
 30
0.0
 40
1.0
100
AcDbArc
 50
270.0
 51
0.0
  0
LINE
  5
26C
330
1F
100
AcDbEntity
  8
LC-001-100-D00-0
 62
     7
370
    50
100
AcDbLine
 10
398.72653
 20
410.570616
 30
0.0
 11
396.327392
 21
410.570616
 31
0.0
  0
LINE
  5
26D
330
1F
100
AcDbEntity
  8
LC-001-100-D00-0
 62
     7
370
    50
100
AcDbLine
 10
396.327392
 20
412.570615
 30
0.0
 11
396.327392
 21
410.570616
 31
0.0
  0
LINE
  5
26E
330
1F
100
AcDbEntity
  8
LC-001-100-D00-0
 62
     7
370
    50
100
AcDbLine
 10
395.67653
 20
412.570616
 30
0.0
 11
396.327392
 21
412.570615
 31
0.0
  0
ARC
  5
26F
330
1F
100
AcDbEntity
  8
LC-001-100-D00-0
 62
     7
370
    50
100
AcDbCircle
 10
395.67653
 20
413.070616
 30
0.0
 40
0.5
100
AcDbArc
 50
180.0
 51
270.0
  0
LINE
  5
270
330
1F
100
AcDbEntity
  8
LC-001-100-D00-0
 62
     7
370
    50
100
AcDbLine
 10
395.17653
 20
416.070616
 30
0.0
 11
395.17653
 21
413.070616
 31
0.0
  0
ARC
  5
271
330
1F
100
AcDbEntity
  8
LC-001-100-D00-0
 62
     7
370
    50
100
AcDbCircle
 10
395.67653
 20
416.070616
 30
0.0
 40
0.5000000000002274
100
AcDbArc
 50
90.0
 51
180.0
  0
LINE
  5
272
330
1F
100
AcDbEntity
  8
LC-001-100-D00-0
 62
     7
370
    50
100
AcDbLine
 10
396.327392
 20
416.570615
 30
0.0
 11
395.67653
 21
416.570616
 31
0.0
  0
LINE
  5
273
330
1F
100
AcDbEntity
  8
LC-001-100-D00-0
 62
     7
370
    50
100
AcDbLine
 10
396.327392
 20
418.570616
 30
0.0
 11
396.327392
 21
416.570615
 31
0.0
  0
ARC
  5
274
330
1F
100
AcDbEntity
  8
LC-001-100-D00-0
 62
     7
370
    50
100
AcDbCircle
 10
379.22653
 20
425.570616
 30
0.0
 40
1.000000000000227
100
AcDbArc
 50
0.0
 51
90.0
  0
ARC
  5
275
330
1F
100
AcDbEntity
  8
LC-001-100-D00-0
 62
     7
370
    50
100
AcDbCircle
 10
381.22653
 20
411.570616
 30
0.0
 40
1.000000000000227
100
AcDbArc
 50
180.0
 51
270.0
  0
LINE
  5
276
330
1F
100
AcDbEntity
  8
LC-001-100-D00-0
 62
     7
370
    50
100
AcDbLine
 10
380.22653
 20
425.570616
 30
0.0
 11
380.22653
 21
411.570616
 31
0.0
  0
LINE
  5
277
330
1F
100
AcDbEntity
  8
LC-001-100-D00-0
 62
     7
370
    50
100
AcDbLine
 10
384.77653
 20
413.070616
 30
0.0
 11
384.77653
 21
416.070616
 31
0.0
  0
LINE
  5
278
330
1F
100
AcDbEntity
  8
LC-001-100-D00-0
 62
     7
370
    50
100
AcDbLine
 10
386.07653
 20
429.570616
 30
0.0
 11
386.076525
 21
418.570616
 31
0.0
  0
LINE
  5
279
330
1F
100
AcDbEntity
  8
LC-001-100-D00-0
 62
     7
370
    50
100
AcDbLine
 10
386.07653
 20
429.570616
 30
0.0
 11
393.87653
 21
429.570616
 31
0.0
  0
LINE
  5
27A
330
1F
100
AcDbEntity
  8
LC-001-100-D00-0
 62
     7
370
    50
100
AcDbLine
 10
383.625672
 20
418.570616
 30
0.0
 11
383.625672
 21
416.570615
 31
0.0
  0
LINE
  5
27B
330
1F
100
AcDbEntity
  8
LC-001-100-D00-0
 62
     7
370
    50
100
AcDbLine
 10
383.625672
 20
412.570615
 30
0.0
 11
383.625672
 21
410.570616
 31
0.0
  0
ARC
  5
27C
330
1F
100
AcDbEntity
  8
LC-001-100-D00-0
 62
     7
370
    50
100
AcDbCircle
 10
384.27653
 20
413.070616
 30
0.0
 40
0.5000000000002274
100
AcDbArc
 50
270.0
 51
0.0
  0
LINE
  5
27D
330
1F
100
AcDbEntity
  8
LC-001-100-D00-0
 62
     7
370
    50
100
AcDbLine
 10
383.625672
 20
412.570615
 30
0.0
 11
384.27653
 21
412.570616
 31
0.0
  0
LINE
  5
27E
330
1F
100
AcDbEntity
  8
LC-001-100-D00-0
 62
     7
370
    50
100
AcDbLine
 10
374.72652
 20
426.570616
 30
0.0
 11
374.72653
 21
422.570616
 31
0.0
  0
LINE
  5
27F
330
1F
100
AcDbEntity
  8
LC-001-100-D00-0
 62
     7
370
    50
100
AcDbLine
 10
371.726528
 20
422.570616
 30
0.0
 11
371.72653
 21
428.570616
 31
0.0
  0
ARC
  5
280
330
1F
100
AcDbEntity
  8
LC-001-100-D00-0
 62
     7
370
    50
100
AcDbCircle
 10
372.72653
 20
428.570616
 30
0.0
 40
1.000000000000227
100
AcDbArc
 50
90.0
 51
180.0
  0
LINE
  5
281
330
1F
100
AcDbEntity
  8
LC-001-100-D00-0
 62
     7
370
    50
100
AcDbLine
 10
384.27653
 20
416.570616
 30
0.0
 11
383.625672
 21
416.570615
 31
0.0
  0
ARC
  5
282
330
1F
100
AcDbEntity
  8
LC-001-100-D00-0
 62
     7
370
    50
100
AcDbCircle
 10
384.27653
 20
416.070616
 30
0.0
 40
0.5
100
AcDbArc
 50
0.0
 51
90.0
  0
LINE
  5
283
330
1F
100
AcDbEntity
  8
LC-001-100-D00-0
 62
     7
370
    50
100
AcDbLine
 10
371.726528
 20
422.570616
 30
0.0
 11
374.72653
 21
422.570616
 31
0.0
  0
LINE
  5
284
330
1F
100
AcDbEntity
  8
LC-001-100-D00-0
 62
     7
370
    50
100
AcDbLine
 10
386.076525
 20
418.570616
 30
0.0
 11
383.625672
 21
418.570616
 31
0.0
  0
LINE
  5
285
330
1F
100
AcDbEntity
  8
LC-001-100-D00-0
 62
     7
370
    50
100
AcDbLine
 10
383.625672
 20
410.570616
 30
0.0
 11
381.22653
 21
410.570616
 31
0.0
  0
LINE
  5
286
330
1F
100
AcDbEntity
  8
LC-001-100-D00-0
 62
     7
370
    50
100
AcDbLine
 10
374.72652
 20
426.570616
 30
0.0
 11
379.22653
 21
426.570616
 31
0.0
  0
LINE
  5
287
330
1F
100
AcDbEntity
  8
LC-001-100-D00-0
 62
     7
370
    50
100
AcDbLine
 10
372.72653
 20
429.570616
 30
0.0
 11
386.07653
 21
429.570616
 31
0.0
  0
LINE
  5
288
330
1F
100
AcDbEntity
  8
LC-001-100-D00-0
 62
     7
370
    50
100
AcDbLine
 10
403.22653
 20
422.570616
 30
0.0
 11
405.22653
 21
422.570616
 31
0.0
  0
LINE
  5
289
330
1F
100
AcDbEntity
  8
LC-001-100-D00-0
 62
     7
370
    50
100
AcDbLine
 10
374.72653
 20
422.570616
 30
0.0
 11
376.72653
 21
422.570616
 31
0.0
  0
LINE
  5
28A
330
1F
100
AcDbEntity
  8
LC-001-100-D00-0
 62
     7
370
    50
100
AcDbLine
 10
376.72653
 20
422.570616
 30
0.0
 11
380.226538
 21
422.570616
 31
0.0
  0
LINE
  5
28B
330
1F
100
AcDbEntity
  8
LC-001-100-D00-0
 62
     7
370
    50
100
AcDbLine
 10
399.726525
 20
422.570616
 30
0.0
 11
403.22653
 21
422.570616
 31
0.0
  0
LINE
  5
28C
330
1F
100
AcDbEntity
  8
LC-001-100-D00-0
 62
     7
370
    50
100
AcDbLine
 10
-453.423485
 20
417.570616
 30
0.0
 11
-454.423472
 21
418.570616
 31
0.0
  0
LINE
  5
28D
330
1F
100
AcDbEntity
  8
LC-001-100-D00-0
 62
     7
370
    50
100
AcDbLine
 10
-453.423485
 20
417.570616
 30
0.0
 11
-453.42347
 21
411.570616
 31
0.0
  0
LINE
  5
28E
330
1F
100
AcDbEntity
  8
LC-001-100-D00-0
 62
     7
370
    50
100
AcDbLine
 10
-454.42347
 20
410.570616
 30
0.0
 11
-453.42347
 21
411.570616
 31
0.0
  0
LINE
  5
28F
330
1F
100
AcDbEntity
  8
LC-001-100-D00-0
 62
     7
370
    50
100
AcDbLine
 10
-456.374332
 20
412.570615
 30
0.0
 11
-456.374332
 21
410.570616
 31
0.0
  0
LINE
  5
290
330
1F
100
AcDbEntity
  8
LC-001-100-D00-0
 62
     7
370
    50
100
AcDbLine
 10
-455.668179
 20
412.759827
 30
0.0
 11
-456.374332
 21
412.570615
 31
0.0
  0
ARC
  5
291
330
1F
100
AcDbEntity
  8
LC-001-100-D00-0
 62
     7
370
    50
100
AcDbCircle
 10
-455.82347
 20
413.339382
 30
0.0
 40
0.6000000000000886
100
AcDbArc
 50
285.0
 51
0.0
  0
LINE
  5
292
330
1F
100
AcDbEntity
  8
LC-001-100-D00-0
 62
     7
370
    50
100
AcDbLine
 10
-455.22347
 20
415.801849
 30
0.0
 11
-455.22347
 21
413.339382
 31
0.0
  0
ARC
  5
293
330
1F
100
AcDbEntity
  8
LC-001-100-D00-0
 62
     7
370
    50
100
AcDbCircle
 10
-455.82347
 20
415.801849
 30
0.0
 40
0.600000000000307
100
AcDbArc
 50
0.0
 51
75.0
  0
LINE
  5
294
330
1F
100
AcDbEntity
  8
LC-001-100-D00-0
 62
     7
370
    50
100
AcDbLine
 10
-456.374332
 20
416.570615
 30
0.0
 11
-455.668179
 21
416.381405
 31
0.0
  0
LINE
  5
295
330
1F
100
AcDbEntity
  8
LC-001-100-D00-0
 62
     7
370
    50
100
AcDbLine
 10
-456.374332
 20
418.570616
 30
0.0
 11
-456.374332
 21
416.570615
 31
0.0
  0
LINE
  5
296
330
1F
100
AcDbEntity
  8
LC-001-100-D00-0
 62
     7
370
    50
100
AcDbLine
 10
-456.374332
 20
410.570616
 30
0.0
 11
-454.42347
 21
410.570616
 31
0.0
  0
LINE
  5
297
330
1F
100
AcDbEntity
  8
LC-001-100-D00-0
 62
     7
370
    50
100
AcDbLine
 10
-456.374332
 20
418.570616
 30
0.0
 11
-454.423472
 21
418.570616
 31
0.0
  0
LINE
  5
298
330
1F
100
AcDbEntity
  8
LC-001-100-D00-0
 62
     7
370
    50
100
AcDbLine
 10
-444.82347
 20
413.339382
 30
0.0
 11
-444.82347
 21
415.801849
 31
0.0
  0
ARC
  5
299
330
1F
100
AcDbEntity
  8
LC-001-100-D00-0
 62
     7
370
    50
100
AcDbCircle
 10
-444.22347
 20
413.339382
 30
0.0
 40
0.6000000000000796
100
AcDbArc
 50
180.0
 51
255.0
  0
LINE
  5
29A
330
1F
100
AcDbEntity
  8
LC-001-100-D00-0
 62
     7
370
    50
100
AcDbLine
 10
-443.672612
 20
412.570615
 30
0.0
 11
-444.378761
 21
412.759827
 31
0.0
  0
LINE
  5
29B
330
1F
100
AcDbEntity
  8
LC-001-100-D00-0
 62
     7
370
    50
100
AcDbLine
 10
-443.672612
 20
412.570615
 30
0.0
 11
-443.672612
 21
410.570616
 31
0.0
  0
LINE
  5
29C
330
1F
100
AcDbEntity
  8
LC-001-100-D00-0
 62
     7
370
    50
100
AcDbLine
 10
-446.62347
 20
411.570616
 30
0.0
 11
-445.62347
 21
410.570616
 31
0.0
  0
LINE
  5
29D
330
1F
100
AcDbEntity
  8
LC-001-100-D00-0
 62
     7
370
    50
100
AcDbLine
 10
-446.62347
 20
411.570616
 30
0.0
 11
-446.623459
 21
417.570616
 31
0.0
  0
LINE
  5
29E
330
1F
100
AcDbEntity
  8
LC-001-100-D00-0
 62
     7
370
    50
100
AcDbLine
 10
-445.623472
 20
418.570616
 30
0.0
 11
-446.623459
 21
417.570616
 31
0.0
  0
LINE
  5
29F
330
1F
100
AcDbEntity
  8
LC-001-100-D00-0
 62
     7
370
    50
100
AcDbLine
 10
-443.672612
 20
418.570616
 30
0.0
 11
-443.672612
 21
416.570615
 31
0.0
  0
LINE
  5
2A0
330
1F
100
AcDbEntity
  8
LC-001-100-D00-0
 62
     7
370
    50
100
AcDbLine
 10
-444.378761
 20
416.381405
 30
0.0
 11
-443.672612
 21
416.570615
 31
0.0
  0
ARC
  5
2A1
330
1F
100
AcDbEntity
  8
LC-001-100-D00-0
 62
     7
370
    50
100
AcDbCircle
 10
-444.22347
 20
415.801849
 30
0.0
 40
0.6000000000003376
100
AcDbArc
 50
105.0
 51
180.0
  0
LINE
  5
2A2
330
1F
100
AcDbEntity
  8
LC-001-100-D00-0
 62
     7
370
    50
100
AcDbLine
 10
-445.62347
 20
410.570616
 30
0.0
 11
-443.672612
 21
410.570616
 31
0.0
  0
LINE
  5
2A3
330
1F
100
AcDbEntity
  8
LC-001-100-D00-0
 62
     7
370
    50
100
AcDbLine
 10
-445.623472
 20
418.570616
 30
0.0
 11
-443.672612
 21
418.570616
 31
0.0
  0
LINE
  5
2A4
330
1F
100
AcDbEntity
  8
LC-001-100-D00-0
 62
     7
370
    50
100
AcDbLine
 10
-453.42347
 20
411.570616
 30
0.0
 11
-453.26563
 21
411.570616
 31
0.0
  0
LINE
  5
2A5
330
1F
100
AcDbEntity
  8
LC-001-100-D00-0
 62
     7
370
    50
100
AcDbLine
 10
-446.78131
 20
411.570616
 30
0.0
 11
-446.62347
 21
411.570616
 31
0.0
  0
LINE
  5
2A6
330
1F
100
AcDbEntity
  8
LC-001-100-D00-0
 62
     7
370
    50
100
AcDbLine
 10
-445.62347
 20
410.570616
 30
0.0
 11
-446.159252
 21
410.570616
 31
0.0
  0
LINE
  5
2A7
330
1F
100
AcDbEntity
  8
LC-001-100-D00-0
 62
     7
370
    50
100
AcDbLine
 10
-453.887688
 20
410.570616
 30
0.0
 11
-454.42347
 21
410.570616
 31
0.0
  0
LINE
  5
2A8
330
1F
100
AcDbEntity
  8
LC-001-100-D00-0
 62
     7
370
    50
100
AcDbLine
 10
-443.672612
 20
418.570616
 30
0.0
 11
-446.123465
 21
418.570616
 31
0.0
  0
LINE
  5
2A9
330
1F
100
AcDbEntity
  8
LC-001-100-D00-0
 62
     7
370
    50
100
AcDbLine
 10
-446.123465
 20
418.570616
 30
0.0
 11
-446.12347
 21
429.570616
 31
0.0
  0
LINE
  5
2AA
330
1F
100
AcDbEntity
  8
LC-001-100-D00-0
 62
     7
370
    50
100
AcDbLine
 10
-446.12347
 20
429.570616
 30
0.0
 11
-432.77347
 21
429.570616
 31
0.0
  0
ARC
  5
2AB
330
1F
100
AcDbEntity
  8
LC-001-100-D00-0
 62
     7
370
    50
100
AcDbCircle
 10
-432.77347
 20
428.570616
 30
0.0
 40
1.000000000000227
100
AcDbArc
 50
0.0
 51
90.0
  0
LINE
  5
2AC
330
1F
100
AcDbEntity
  8
LC-001-100-D00-0
 62
     7
370
    50
100
AcDbLine
 10
-431.77347
 20
428.570616
 30
0.0
 11
-431.773468
 21
422.570616
 31
0.0
  0
LINE
  5
2AD
330
1F
100
AcDbEntity
  8
LC-001-100-D00-0
 62
     7
370
    50
100
AcDbLine
 10
-434.77347
 20
422.570616
 30
0.0
 11
-431.773468
 21
422.570616
 31
0.0
  0
LINE
  5
2AE
330
1F
100
AcDbEntity
  8
LC-001-100-D00-0
 62
     7
370
    50
100
AcDbLine
 10
-434.77347
 20
422.570616
 30
0.0
 11
-434.77346
 21
426.570616
 31
0.0
  0
LINE
  5
2AF
330
1F
100
AcDbEntity
  8
LC-001-100-D00-0
 62
     7
370
    50
100
AcDbLine
 10
-439.27347
 20
426.570616
 30
0.0
 11
-434.77346
 21
426.570616
 31
0.0
  0
ARC
  5
2B0
330
1F
100
AcDbEntity
  8
LC-001-100-D00-0
 62
     7
370
    50
100
AcDbCircle
 10
-439.27347
 20
425.570616
 30
0.0
 40
1.000000000000227
100
AcDbArc
 50
90.0
 51
180.0
  0
LINE
  5
2B1
330
1F
100
AcDbEntity
  8
LC-001-100-D00-0
 62
     7
370
    50
100
AcDbLine
 10
-440.27347
 20
411.570616
 30
0.0
 11
-440.27347
 21
425.570616
 31
0.0
  0
ARC
  5
2B2
330
1F
100
AcDbEntity
  8
LC-001-100-D00-0
 62
     7
370
    50
100
AcDbCircle
 10
-441.27347
 20
411.570616
 30
0.0
 40
1.0
100
AcDbArc
 50
270.0
 51
0.0
  0
LINE
  5
2B3
330
1F
100
AcDbEntity
  8
LC-001-100-D00-0
 62
     7
370
    50
100
AcDbLine
 10
-441.27347
 20
410.570616
 30
0.0
 11
-443.672612
 21
410.570616
 31
0.0
  0
LINE
  5
2B4
330
1F
100
AcDbEntity
  8
LC-001-100-D00-0
 62
     7
370
    50
100
AcDbLine
 10
-443.672612
 20
412.570615
 30
0.0
 11
-443.672612
 21
410.570616
 31
0.0
  0
LINE
  5
2B5
330
1F
100
AcDbEntity
  8
LC-001-100-D00-0
 62
     7
370
    50
100
AcDbLine
 10
-444.32347
 20
412.570616
 30
0.0
 11
-443.672612
 21
412.570615
 31
0.0
  0
ARC
  5
2B6
330
1F
100
AcDbEntity
  8
LC-001-100-D00-0
 62
     7
370
    50
100
AcDbCircle
 10
-444.32347
 20
413.070616
 30
0.0
 40
0.5000000000000568
100
AcDbArc
 50
180.0
 51
270.0
  0
LINE
  5
2B7
330
1F
100
AcDbEntity
  8
LC-001-100-D00-0
 62
     7
370
    50
100
AcDbLine
 10
-444.82347
 20
416.070616
 30
0.0
 11
-444.82347
 21
413.070616
 31
0.0
  0
ARC
  5
2B8
330
1F
100
AcDbEntity
  8
LC-001-100-D00-0
 62
     7
370
    50
100
AcDbCircle
 10
-444.32347
 20
416.070616
 30
0.0
 40
0.5000000000002274
100
AcDbArc
 50
90.0
 51
180.0
  0
LINE
  5
2B9
330
1F
100
AcDbEntity
  8
LC-001-100-D00-0
 62
     7
370
    50
100
AcDbLine
 10
-443.672612
 20
416.570615
 30
0.0
 11
-444.32347
 21
416.570616
 31
0.0
  0
LINE
  5
2BA
330
1F
100
AcDbEntity
  8
LC-001-100-D00-0
 62
     7
370
    50
100
AcDbLine
 10
-443.672612
 20
418.570616
 30
0.0
 11
-443.672612
 21
416.570615
 31
0.0
  0
ARC
  5
2BB
330
1F
100
AcDbEntity
  8
LC-001-100-D00-0
 62
     7
370
    50
100
AcDbCircle
 10
-460.77347
 20
425.570616
 30
0.0
 40
1.000000000000227
100
AcDbArc
 50
0.0
 51
90.0
  0
LINE
  5
2BC
330
1F
100
AcDbEntity
  8
LC-001-100-D00-0
 62
     7
370
    50
100
AcDbLine
 10
-459.77347
 20
425.570616
 30
0.0
 11
-459.77347
 21
411.570616
 31
0.0
  0
ARC
  5
2BD
330
1F
100
AcDbEntity
  8
LC-001-100-D00-0
 62
     7
370
    50
100
AcDbCircle
 10
-458.77347
 20
411.570616
 30
0.0
 40
1.000000000000227
100
AcDbArc
 50
180.0
 51
270.0
  0
LINE
  5
2BE
330
1F
100
AcDbEntity
  8
LC-001-100-D00-0
 62
     7
370
    50
100
AcDbLine
 10
-455.22347
 20
413.070616
 30
0.0
 11
-455.22347
 21
416.070616
 31
0.0
  0
LINE
  5
2BF
330
1F
100
AcDbEntity
  8
LC-001-100-D00-0
 62
     7
370
    50
100
AcDbLine
 10
-453.92347
 20
429.570616
 30
0.0
 11
-453.923478
 21
418.570616
 31
0.0
  0
LINE
  5
2C0
330
1F
100
AcDbEntity
  8
LC-001-100-D00-0
 62
     7
370
    50
100
AcDbLine
 10
-453.92347
 20
429.570616
 30
0.0
 11
-446.12347
 21
429.570616
 31
0.0
  0
LINE
  5
2C1
330
1F
100
AcDbEntity
  8
LC-001-100-D00-0
 62
     7
370
    50
100
AcDbLine
 10
-456.374332
 20
418.570616
 30
0.0
 11
-456.374332
 21
416.570615
 31
0.0
  0
LINE
  5
2C2
330
1F
100
AcDbEntity
  8
LC-001-100-D00-0
 62
     7
370
    50
100
AcDbLine
 10
-456.374332
 20
412.570615
 30
0.0
 11
-456.374332
 21
410.570616
 31
0.0
  0
ARC
  5
2C3
330
1F
100
AcDbEntity
  8
LC-001-100-D00-0
 62
     7
370
    50
100
AcDbCircle
 10
-455.72347
 20
413.070616
 30
0.0
 40
0.4999999999997726
100
AcDbArc
 50
270.0
 51
0.0
  0
LINE
  5
2C4
330
1F
100
AcDbEntity
  8
LC-001-100-D00-0
 62
     7
370
    50
100
AcDbLine
 10
-456.374332
 20
412.570615
 30
0.0
 11
-455.72347
 21
412.570616
 31
0.0
  0
LINE
  5
2C5
330
1F
100
AcDbEntity
  8
LC-001-100-D00-0
 62
     7
370
    50
100
AcDbLine
 10
-465.273484
 20
426.570616
 30
0.0
 11
-465.27347
 21
422.570616
 31
0.0
  0
LINE
  5
2C6
330
1F
100
AcDbEntity
  8
LC-001-100-D00-0
 62
     7
370
    50
100
AcDbLine
 10
-468.273475
 20
422.570616
 30
0.0
 11
-468.27347
 21
428.570616
 31
0.0
  0
ARC
  5
2C7
330
1F
100
AcDbEntity
  8
LC-001-100-D00-0
 62
     7
370
    50
100
AcDbCircle
 10
-467.27347
 20
428.570616
 30
0.0
 40
1.000000000000227
100
AcDbArc
 50
90.0
 51
180.0
  0
LINE
  5
2C8
330
1F
100
AcDbEntity
  8
LC-001-100-D00-0
 62
     7
370
    50
100
AcDbLine
 10
-455.72347
 20
416.570616
 30
0.0
 11
-456.374332
 21
416.570615
 31
0.0
  0
ARC
  5
2C9
330
1F
100
AcDbEntity
  8
LC-001-100-D00-0
 62
     7
370
    50
100
AcDbCircle
 10
-455.72347
 20
416.070616
 30
0.0
 40
0.5000000000001137
100
AcDbArc
 50
0.0
 51
90.0
  0
LINE
  5
2CA
330
1F
100
AcDbEntity
  8
LC-001-100-D00-0
 62
     7
370
    50
100
AcDbLine
 10
-468.273475
 20
422.570616
 30
0.0
 11
-465.27347
 21
422.570616
 31
0.0
  0
LINE
  5
2CB
330
1F
100
AcDbEntity
  8
LC-001-100-D00-0
 62
     7
370
    50
100
AcDbLine
 10
-453.923478
 20
418.570616
 30
0.0
 11
-456.374332
 21
418.570616
 31
0.0
  0
LINE
  5
2CC
330
1F
100
AcDbEntity
  8
LC-001-100-D00-0
 62
     7
370
    50
100
AcDbLine
 10
-456.374332
 20
410.570616
 30
0.0
 11
-458.77347
 21
410.570616
 31
0.0
  0
LINE
  5
2CD
330
1F
100
AcDbEntity
  8
LC-001-100-D00-0
 62
     7
370
    50
100
AcDbLine
 10
-465.273484
 20
426.570616
 30
0.0
 11
-460.77347
 21
426.570616
 31
0.0
  0
LINE
  5
2CE
330
1F
100
AcDbEntity
  8
LC-001-100-D00-0
 62
     7
370
    50
100
AcDbLine
 10
-467.27347
 20
429.570616
 30
0.0
 11
-453.92347
 21
429.570616
 31
0.0
  0
LINE
  5
2CF
330
1F
100
AcDbEntity
  8
LC-001-100-D00-0
 62
     7
370
    50
100
AcDbLine
 10
-436.77347
 20
422.570616
 30
0.0
 11
-434.77347
 21
422.570616
 31
0.0
  0
LINE
  5
2D0
330
1F
100
AcDbEntity
  8
LC-001-100-D00-0
 62
     7
370
    50
100
AcDbLine
 10
-465.27347
 20
422.570616
 30
0.0
 11
-463.27347
 21
422.570616
 31
0.0
  0
LINE
  5
2D1
330
1F
100
AcDbEntity
  8
LC-001-100-D00-0
 62
     7
370
    50
100
AcDbLine
 10
-463.27347
 20
422.570616
 30
0.0
 11
-459.773465
 21
422.570616
 31
0.0
  0
LINE
  5
2D2
330
1F
100
AcDbEntity
  8
LC-001-100-D00-0
 62
     7
370
    50
100
AcDbLine
 10
-440.273478
 20
422.570616
 30
0.0
 11
-436.77347
 21
422.570616
 31
0.0
  0
LINE
  5
2D3
330
1F
100
AcDbEntity
  8
LC-001-100-D00-0
 62
     7
370
    50
100
AcDbLine
 10
-293.423458
 20
417.570616
 30
0.0
 11
-294.423475
 21
418.570616
 31
0.0
  0
LINE
  5
2D4
330
1F
100
AcDbEntity
  8
LC-001-100-D00-0
 62
     7
370
    50
100
AcDbLine
 10
-293.423458
 20
417.570616
 30
0.0
 11
-293.42347
 21
411.570616
 31
0.0
  0
LINE
  5
2D5
330
1F
100
AcDbEntity
  8
LC-001-100-D00-0
 62
     7
370
    50
100
AcDbLine
 10
-294.42347
 20
410.570616
 30
0.0
 11
-293.42347
 21
411.570616
 31
0.0
  0
LINE
  5
2D6
330
1F
100
AcDbEntity
  8
LC-001-100-D00-0
 62
     7
370
    50
100
AcDbLine
 10
-296.374335
 20
412.570615
 30
0.0
 11
-296.374335
 21
410.570616
 31
0.0
  0
LINE
  5
2D7
330
1F
100
AcDbEntity
  8
LC-001-100-D00-0
 62
     7
370
    50
100
AcDbLine
 10
-295.668179
 20
412.759827
 30
0.0
 11
-296.374335
 21
412.570615
 31
0.0
  0
ARC
  5
2D8
330
1F
100
AcDbEntity
  8
LC-001-100-D00-0
 62
     7
370
    50
100
AcDbCircle
 10
-295.82347
 20
413.339382
 30
0.0
 40
0.6000000000000886
100
AcDbArc
 50
285.0
 51
0.0
  0
LINE
  5
2D9
330
1F
100
AcDbEntity
  8
LC-001-100-D00-0
 62
     7
370
    50
100
AcDbLine
 10
-295.22347
 20
415.801849
 30
0.0
 11
-295.22347
 21
413.339382
 31
0.0
  0
ARC
  5
2DA
330
1F
100
AcDbEntity
  8
LC-001-100-D00-0
 62
     7
370
    50
100
AcDbCircle
 10
-295.82347
 20
415.801849
 30
0.0
 40
0.6000000000002501
100
AcDbArc
 50
0.0
 51
75.0
  0
LINE
  5
2DB
330
1F
100
AcDbEntity
  8
LC-001-100-D00-0
 62
     7
370
    50
100
AcDbLine
 10
-296.374335
 20
416.570615
 30
0.0
 11
-295.668179
 21
416.381405
 31
0.0
  0
LINE
  5
2DC
330
1F
100
AcDbEntity
  8
LC-001-100-D00-0
 62
     7
370
    50
100
AcDbLine
 10
-296.374335
 20
418.570616
 30
0.0
 11
-296.374335
 21
416.570615
 31
0.0
  0
LINE
  5
2DD
330
1F
100
AcDbEntity
  8
LC-001-100-D00-0
 62
     7
370
    50
100
AcDbLine
 10
-296.374335
 20
410.570616
 30
0.0
 11
-294.42347
 21
410.570616
 31
0.0
  0
LINE
  5
2DE
330
1F
100
AcDbEntity
  8
LC-001-100-D00-0
 62
     7
370
    50
100
AcDbLine
 10
-296.374335
 20
418.570616
 30
0.0
 11
-294.423475
 21
418.570616
 31
0.0
  0
LINE
  5
2DF
330
1F
100
AcDbEntity
  8
LC-001-100-D00-0
 62
     7
370
    50
100
AcDbLine
 10
-284.82347
 20
413.339382
 30
0.0
 11
-284.82347
 21
415.801849
 31
0.0
  0
ARC
  5
2E0
330
1F
100
AcDbEntity
  8
LC-001-100-D00-0
 62
     7
370
    50
100
AcDbCircle
 10
-284.22347
 20
413.339382
 30
0.0
 40
0.6000000000000796
100
AcDbArc
 50
180.0
 51
255.0
  0
LINE
  5
2E1
330
1F
100
AcDbEntity
  8
LC-001-100-D00-0
 62
     7
370
    50
100
AcDbLine
 10
-283.672615
 20
412.570615
 30
0.0
 11
-284.378761
 21
412.759827
 31
0.0
  0
LINE
  5
2E2
330
1F
100
AcDbEntity
  8
LC-001-100-D00-0
 62
     7
370
    50
100
AcDbLine
 10
-283.672615
 20
412.570615
 30
0.0
 11
-283.672615
 21
410.570616
 31
0.0
  0
LINE
  5
2E3
330
1F
100
AcDbEntity
  8
LC-001-100-D00-0
 62
     7
370
    50
100
AcDbLine
 10
-286.62347
 20
411.570616
 30
0.0
 11
-285.62347
 21
410.570616
 31
0.0
  0
LINE
  5
2E4
330
1F
100
AcDbEntity
  8
LC-001-100-D00-0
 62
     7
370
    50
100
AcDbLine
 10
-286.62347
 20
411.570616
 30
0.0
 11
-286.623463
 21
417.570616
 31
0.0
  0
LINE
  5
2E5
330
1F
100
AcDbEntity
  8
LC-001-100-D00-0
 62
     7
370
    50
100
AcDbLine
 10
-285.623475
 20
418.570616
 30
0.0
 11
-286.623463
 21
417.570616
 31
0.0
  0
LINE
  5
2E6
330
1F
100
AcDbEntity
  8
LC-001-100-D00-0
 62
     7
370
    50
100
AcDbLine
 10
-283.672615
 20
418.570616
 30
0.0
 11
-283.672615
 21
416.570615
 31
0.0
  0
LINE
  5
2E7
330
1F
100
AcDbEntity
  8
LC-001-100-D00-0
 62
     7
370
    50
100
AcDbLine
 10
-284.378761
 20
416.381405
 30
0.0
 11
-283.672615
 21
416.570615
 31
0.0
  0
ARC
  5
2E8
330
1F
100
AcDbEntity
  8
LC-001-100-D00-0
 62
     7
370
    50
100
AcDbCircle
 10
-284.22347
 20
415.801849
 30
0.0
 40
0.6000000000003376
100
AcDbArc
 50
105.0
 51
180.0
  0
LINE
  5
2E9
330
1F
100
AcDbEntity
  8
LC-001-100-D00-0
 62
     7
370
    50
100
AcDbLine
 10
-285.62347
 20
410.570616
 30
0.0
 11
-283.672615
 21
410.570616
 31
0.0
  0
LINE
  5
2EA
330
1F
100
AcDbEntity
  8
LC-001-100-D00-0
 62
     7
370
    50
100
AcDbLine
 10
-285.623475
 20
418.570616
 30
0.0
 11
-283.672615
 21
418.570616
 31
0.0
  0
LINE
  5
2EB
330
1F
100
AcDbEntity
  8
LC-001-100-D00-0
 62
     7
370
    50
100
AcDbLine
 10
-293.42347
 20
411.570616
 30
0.0
 11
-293.26563
 21
411.570616
 31
0.0
  0
LINE
  5
2EC
330
1F
100
AcDbEntity
  8
LC-001-100-D00-0
 62
     7
370
    50
100
AcDbLine
 10
-286.78131
 20
411.570616
 30
0.0
 11
-286.62347
 21
411.570616
 31
0.0
  0
LINE
  5
2ED
330
1F
100
AcDbEntity
  8
LC-001-100-D00-0
 62
     7
370
    50
100
AcDbLine
 10
-285.62347
 20
410.570616
 30
0.0
 11
-286.159252
 21
410.570616
 31
0.0
  0
LINE
  5
2EE
330
1F
100
AcDbEntity
  8
LC-001-100-D00-0
 62
     7
370
    50
100
AcDbLine
 10
-293.887688
 20
410.570616
 30
0.0
 11
-294.42347
 21
410.570616
 31
0.0
  0
LINE
  5
2EF
330
1F
100
AcDbEntity
  8
LC-001-100-D00-0
 62
     7
370
    50
100
AcDbLine
 10
-283.672615
 20
418.570616
 30
0.0
 11
-286.123469
 21
418.570616
 31
0.0
  0
LINE
  5
2F0
330
1F
100
AcDbEntity
  8
LC-001-100-D00-0
 62
     7
370
    50
100
AcDbLine
 10
-286.123469
 20
418.570616
 30
0.0
 11
-286.12347
 21
429.570616
 31
0.0
  0
LINE
  5
2F1
330
1F
100
AcDbEntity
  8
LC-001-100-D00-0
 62
     7
370
    50
100
AcDbLine
 10
-286.12347
 20
429.570616
 30
0.0
 11
-272.77347
 21
429.570616
 31
0.0
  0
ARC
  5
2F2
330
1F
100
AcDbEntity
  8
LC-001-100-D00-0
 62
     7
370
    50
100
AcDbCircle
 10
-272.77347
 20
428.570616
 30
0.0
 40
1.000000000000227
100
AcDbArc
 50
0.0
 51
90.0
  0
LINE
  5
2F3
330
1F
100
AcDbEntity
  8
LC-001-100-D00-0
 62
     7
370
    50
100
AcDbLine
 10
-271.77347
 20
428.570616
 30
0.0
 11
-271.773472
 21
422.570616
 31
0.0
  0
LINE
  5
2F4
330
1F
100
AcDbEntity
  8
LC-001-100-D00-0
 62
     7
370
    50
100
AcDbLine
 10
-274.77347
 20
422.570616
 30
0.0
 11
-271.773472
 21
422.570616
 31
0.0
  0
LINE
  5
2F5
330
1F
100
AcDbEntity
  8
LC-001-100-D00-0
 62
     7
370
    50
100
AcDbLine
 10
-274.77347
 20
422.570616
 30
0.0
 11
-274.773463
 21
426.570616
 31
0.0
  0
LINE
  5
2F6
330
1F
100
AcDbEntity
  8
LC-001-100-D00-0
 62
     7
370
    50
100
AcDbLine
 10
-279.27347
 20
426.570616
 30
0.0
 11
-274.773463
 21
426.570616
 31
0.0
  0
ARC
  5
2F7
330
1F
100
AcDbEntity
  8
LC-001-100-D00-0
 62
     7
370
    50
100
AcDbCircle
 10
-279.27347
 20
425.570616
 30
0.0
 40
1.000000000000227
100
AcDbArc
 50
90.0
 51
180.0
  0
LINE
  5
2F8
330
1F
100
AcDbEntity
  8
LC-001-100-D00-0
 62
     7
370
    50
100
AcDbLine
 10
-280.27347
 20
411.570616
 30
0.0
 11
-280.27347
 21
425.570616
 31
0.0
  0
ARC
  5
2F9
330
1F
100
AcDbEntity
  8
LC-001-100-D00-0
 62
     7
370
    50
100
AcDbCircle
 10
-281.27347
 20
411.570616
 30
0.0
 40
1.0
100
AcDbArc
 50
270.0
 51
0.0
  0
LINE
  5
2FA
330
1F
100
AcDbEntity
  8
LC-001-100-D00-0
 62
     7
370
    50
100
AcDbLine
 10
-281.27347
 20
410.570616
 30
0.0
 11
-283.672615
 21
410.570616
 31
0.0
  0
LINE
  5
2FB
330
1F
100
AcDbEntity
  8
LC-001-100-D00-0
 62
     7
370
    50
100
AcDbLine
 10
-283.672615
 20
412.570615
 30
0.0
 11
-283.672615
 21
410.570616
 31
0.0
  0
LINE
  5
2FC
330
1F
100
AcDbEntity
  8
LC-001-100-D00-0
 62
     7
370
    50
100
AcDbLine
 10
-284.32347
 20
412.570616
 30
0.0
 11
-283.672615
 21
412.570615
 31
0.0
  0
ARC
  5
2FD
330
1F
100
AcDbEntity
  8
LC-001-100-D00-0
 62
     7
370
    50
100
AcDbCircle
 10
-284.32347
 20
413.070616
 30
0.0
 40
0.5000000000000568
100
AcDbArc
 50
180.0
 51
270.0
  0
LINE
  5
2FE
330
1F
100
AcDbEntity
  8
LC-001-100-D00-0
 62
     7
370
    50
100
AcDbLine
 10
-284.82347
 20
416.070616
 30
0.0
 11
-284.82347
 21
413.070616
 31
0.0
  0
ARC
  5
2FF
330
1F
100
AcDbEntity
  8
LC-001-100-D00-0
 62
     7
370
    50
100
AcDbCircle
 10
-284.32347
 20
416.070616
 30
0.0
 40
0.5000000000002274
100
AcDbArc
 50
90.0
 51
180.0
  0
LINE
  5
300
330
1F
100
AcDbEntity
  8
LC-001-100-D00-0
 62
     7
370
    50
100
AcDbLine
 10
-283.672615
 20
416.570615
 30
0.0
 11
-284.32347
 21
416.570616
 31
0.0
  0
LINE
  5
301
330
1F
100
AcDbEntity
  8
LC-001-100-D00-0
 62
     7
370
    50
100
AcDbLine
 10
-283.672615
 20
418.570616
 30
0.0
 11
-283.672615
 21
416.570615
 31
0.0
  0
ARC
  5
302
330
1F
100
AcDbEntity
  8
LC-001-100-D00-0
 62
     7
370
    50
100
AcDbCircle
 10
-300.77347
 20
425.570616
 30
0.0
 40
1.000000000000227
100
AcDbArc
 50
0.0
 51
90.0
  0
ARC
  5
303
330
1F
100
AcDbEntity
  8
LC-001-100-D00-0
 62
     7
370
    50
100
AcDbCircle
 10
-298.77347
 20
411.570616
 30
0.0
 40
1.000000000000227
100
AcDbArc
 50
180.0
 51
270.0
  0
LINE
  5
304
330
1F
100
AcDbEntity
  8
LC-001-100-D00-0
 62
     7
370
    50
100
AcDbLine
 10
-299.77347
 20
425.570616
 30
0.0
 11
-299.77347
 21
411.570616
 31
0.0
  0
LINE
  5
305
330
1F
100
AcDbEntity
  8
LC-001-100-D00-0
 62
     7
370
    50
100
AcDbLine
 10
-295.22347
 20
413.070616
 30
0.0
 11
-295.22347
 21
416.070616
 31
0.0
  0
LINE
  5
306
330
1F
100
AcDbEntity
  8
LC-001-100-D00-0
 62
     7
370
    50
100
AcDbLine
 10
-293.92347
 20
429.570616
 30
0.0
 11
-293.923482
 21
418.570616
 31
0.0
  0
LINE
  5
307
330
1F
100
AcDbEntity
  8
LC-001-100-D00-0
 62
     7
370
    50
100
AcDbLine
 10
-293.92347
 20
429.570616
 30
0.0
 11
-286.12347
 21
429.570616
 31
0.0
  0
LINE
  5
308
330
1F
100
AcDbEntity
  8
LC-001-100-D00-0
 62
     7
370
    50
100
AcDbLine
 10
-296.374335
 20
412.570615
 30
0.0
 11
-296.374335
 21
410.570616
 31
0.0
  0
LINE
  5
309
330
1F
100
AcDbEntity
  8
LC-001-100-D00-0
 62
     7
370
    50
100
AcDbLine
 10
-296.374335
 20
418.570616
 30
0.0
 11
-296.374335
 21
416.570615
 31
0.0
  0
ARC
  5
30A
330
1F
100
AcDbEntity
  8
LC-001-100-D00-0
 62
     7
370
    50
100
AcDbCircle
 10
-295.72347
 20
413.070616
 30
0.0
 40
0.5000000000002274
100
AcDbArc
 50
270.0
 51
0.0
  0
LINE
  5
30B
330
1F
100
AcDbEntity
  8
LC-001-100-D00-0
 62
     7
370
    50
100
AcDbLine
 10
-296.374335
 20
412.570615
 30
0.0
 11
-295.72347
 21
412.570616
 31
0.0
  0
LINE
  5
30C
330
1F
100
AcDbEntity
  8
LC-001-100-D00-0
 62
     7
370
    50
100
AcDbLine
 10
-305.273458
 20
426.570616
 30
0.0
 11
-305.27347
 21
422.570616
 31
0.0
  0
LINE
  5
30D
330
1F
100
AcDbEntity
  8
LC-001-100-D00-0
 62
     7
370
    50
100
AcDbLine
 10
-308.273479
 20
422.570616
 30
0.0
 11
-308.27347
 21
428.570616
 31
0.0
  0
ARC
  5
30E
330
1F
100
AcDbEntity
  8
LC-001-100-D00-0
 62
     7
370
    50
100
AcDbCircle
 10
-307.27347
 20
428.570616
 30
0.0
 40
1.000000000000227
100
AcDbArc
 50
90.0
 51
180.0
  0
LINE
  5
30F
330
1F
100
AcDbEntity
  8
LC-001-100-D00-0
 62
     7
370
    50
100
AcDbLine
 10
-295.72347
 20
416.570616
 30
0.0
 11
-296.374335
 21
416.570615
 31
0.0
  0
ARC
  5
310
330
1F
100
AcDbEntity
  8
LC-001-100-D00-0
 62
     7
370
    50
100
AcDbCircle
 10
-295.72347
 20
416.070616
 30
0.0
 40
0.5000000000001137
100
AcDbArc
 50
0.0
 51
90.0
  0
LINE
  5
311
330
1F
100
AcDbEntity
  8
LC-001-100-D00-0
 62
     7
370
    50
100
AcDbLine
 10
-293.923482
 20
418.570616
 30
0.0
 11
-296.374335
 21
418.570616
 31
0.0
  0
LINE
  5
312
330
1F
100
AcDbEntity
  8
LC-001-100-D00-0
 62
     7
370
    50
100
AcDbLine
 10
-296.374335
 20
410.570616
 30
0.0
 11
-298.77347
 21
410.570616
 31
0.0
  0
LINE
  5
313
330
1F
100
AcDbEntity
  8
LC-001-100-D00-0
 62
     7
370
    50
100
AcDbLine
 10
-305.273458
 20
426.570616
 30
0.0
 11
-300.77347
 21
426.570616
 31
0.0
  0
LINE
  5
314
330
1F
100
AcDbEntity
  8
LC-001-100-D00-0
 62
     7
370
    50
100
AcDbLine
 10
-307.27347
 20
429.570616
 30
0.0
 11
-293.92347
 21
429.570616
 31
0.0
  0
LINE
  5
315
330
1F
100
AcDbEntity
  8
LC-001-100-D00-0
 62
     7
370
    50
100
AcDbLine
 10
-308.273479
 20
422.570616
 30
0.0
 11
-305.27347
 21
422.570616
 31
0.0
  0
LINE
  5
316
330
1F
100
AcDbEntity
  8
LC-001-100-D00-0
 62
     7
370
    50
100
AcDbLine
 10
-276.77347
 20
422.570616
 30
0.0
 11
-274.77347
 21
422.570616
 31
0.0
  0
LINE
  5
317
330
1F
100
AcDbEntity
  8
LC-001-100-D00-0
 62
     7
370
    50
100
AcDbLine
 10
-305.27347
 20
422.570616
 30
0.0
 11
-303.27347
 21
422.570616
 31
0.0
  0
LINE
  5
318
330
1F
100
AcDbEntity
  8
LC-001-100-D00-0
 62
     7
370
    50
100
AcDbLine
 10
-303.27347
 20
422.570616
 30
0.0
 11
-299.773469
 21
422.570616
 31
0.0
  0
LINE
  5
319
330
1F
100
AcDbEntity
  8
LC-001-100-D00-0
 62
     7
370
    50
100
AcDbLine
 10
-280.273482
 20
422.570616
 30
0.0
 11
-276.77347
 21
422.570616
 31
0.0
  0
LINE
  5
31A
330
1F
100
AcDbEntity
  8
LC-001-100-D00-0
 62
     7
370
    50
100
AcDbLine
 10
226.576523
 20
417.570616
 30
0.0
 11
225.576535
 21
418.570616
 31
0.0
  0
LINE
  5
31B
330
1F
100
AcDbEntity
  8
LC-001-100-D00-0
 62
     7
370
    50
100
AcDbLine
 10
226.576523
 20
417.570616
 30
0.0
 11
226.57653
 21
411.570616
 31
0.0
  0
LINE
  5
31C
330
1F
100
AcDbEntity
  8
LC-001-100-D00-0
 62
     7
370
    50
100
AcDbLine
 10
225.57653
 20
410.570616
 30
0.0
 11
226.57653
 21
411.570616
 31
0.0
  0
LINE
  5
31D
330
1F
100
AcDbEntity
  8
LC-001-100-D00-0
 62
     7
370
    50
100
AcDbLine
 10
223.625675
 20
412.570615
 30
0.0
 11
223.625675
 21
410.570616
 31
0.0
  0
LINE
  5
31E
330
1F
100
AcDbEntity
  8
LC-001-100-D00-0
 62
     7
370
    50
100
AcDbLine
 10
224.331821
 20
412.759827
 30
0.0
 11
223.625675
 21
412.570615
 31
0.0
  0
ARC
  5
31F
330
1F
100
AcDbEntity
  8
LC-001-100-D00-0
 62
     7
370
    50
100
AcDbCircle
 10
224.17653
 20
413.339382
 30
0.0
 40
0.6000000000000886
100
AcDbArc
 50
285.0
 51
0.0
  0
LINE
  5
320
330
1F
100
AcDbEntity
  8
LC-001-100-D00-0
 62
     7
370
    50
100
AcDbLine
 10
224.77653
 20
415.801849
 30
0.0
 11
224.77653
 21
413.339382
 31
0.0
  0
ARC
  5
321
330
1F
100
AcDbEntity
  8
LC-001-100-D00-0
 62
     7
370
    50
100
AcDbCircle
 10
224.17653
 20
415.801849
 30
0.0
 40
0.6000000000002501
100
AcDbArc
 50
0.0
 51
75.0
  0
LINE
  5
322
330
1F
100
AcDbEntity
  8
LC-001-100-D00-0
 62
     7
370
    50
100
AcDbLine
 10
223.625675
 20
416.570615
 30
0.0
 11
224.331821
 21
416.381405
 31
0.0
  0
LINE
  5
323
330
1F
100
AcDbEntity
  8
LC-001-100-D00-0
 62
     7
370
    50
100
AcDbLine
 10
223.625675
 20
418.570616
 30
0.0
 11
223.625675
 21
416.570615
 31
0.0
  0
LINE
  5
324
330
1F
100
AcDbEntity
  8
LC-001-100-D00-0
 62
     7
370
    50
100
AcDbLine
 10
223.625675
 20
410.570616
 30
0.0
 11
225.57653
 21
410.570616
 31
0.0
  0
LINE
  5
325
330
1F
100
AcDbEntity
  8
LC-001-100-D00-0
 62
     7
370
    50
100
AcDbLine
 10
223.625675
 20
418.570616
 30
0.0
 11
225.576535
 21
418.570616
 31
0.0
  0
LINE
  5
326
330
1F
100
AcDbEntity
  8
LC-001-100-D00-0
 62
     7
370
    50
100
AcDbLine
 10
235.17653
 20
413.339382
 30
0.0
 11
235.17653
 21
415.801849
 31
0.0
  0
ARC
  5
327
330
1F
100
AcDbEntity
  8
LC-001-100-D00-0
 62
     7
370
    50
100
AcDbCircle
 10
235.77653
 20
413.339382
 30
0.0
 40
0.6000000000001364
100
AcDbArc
 50
180.0
 51
255.0
  0
LINE
  5
328
330
1F
100
AcDbEntity
  8
LC-001-100-D00-0
 62
     7
370
    50
100
AcDbLine
 10
236.327395
 20
412.570615
 30
0.0
 11
235.621239
 21
412.759827
 31
0.0
  0
LINE
  5
329
330
1F
100
AcDbEntity
  8
LC-001-100-D00-0
 62
     7
370
    50
100
AcDbLine
 10
236.327395
 20
412.570615
 30
0.0
 11
236.327395
 21
410.570616
 31
0.0
  0
LINE
  5
32A
330
1F
100
AcDbEntity
  8
LC-001-100-D00-0
 62
     7
370
    50
100
AcDbLine
 10
233.37653
 20
411.570616
 30
0.0
 11
234.37653
 21
410.570616
 31
0.0
  0
LINE
  5
32B
330
1F
100
AcDbEntity
  8
LC-001-100-D00-0
 62
     7
370
    50
100
AcDbLine
 10
233.37653
 20
411.570616
 30
0.0
 11
233.376518
 21
417.570616
 31
0.0
  0
LINE
  5
32C
330
1F
100
AcDbEntity
  8
LC-001-100-D00-0
 62
     7
370
    50
100
AcDbLine
 10
234.376535
 20
418.570616
 30
0.0
 11
233.376518
 21
417.570616
 31
0.0
  0
LINE
  5
32D
330
1F
100
AcDbEntity
  8
LC-001-100-D00-0
 62
     7
370
    50
100
AcDbLine
 10
236.327395
 20
418.570616
 30
0.0
 11
236.327395
 21
416.570615
 31
0.0
  0
LINE
  5
32E
330
1F
100
AcDbEntity
  8
LC-001-100-D00-0
 62
     7
370
    50
100
AcDbLine
 10
235.621239
 20
416.381405
 30
0.0
 11
236.327395
 21
416.570615
 31
0.0
  0
ARC
  5
32F
330
1F
100
AcDbEntity
  8
LC-001-100-D00-0
 62
     7
370
    50
100
AcDbCircle
 10
235.77653
 20
415.801849
 30
0.0
 40
0.600000000000367
100
AcDbArc
 50
105.0
 51
180.0
  0
LINE
  5
330
330
1F
100
AcDbEntity
  8
LC-001-100-D00-0
 62
     7
370
    50
100
AcDbLine
 10
234.37653
 20
410.570616
 30
0.0
 11
236.327395
 21
410.570616
 31
0.0
  0
LINE
  5
331
330
1F
100
AcDbEntity
  8
LC-001-100-D00-0
 62
     7
370
    50
100
AcDbLine
 10
234.376535
 20
418.570616
 30
0.0
 11
236.327395
 21
418.570616
 31
0.0
  0
LINE
  5
332
330
1F
100
AcDbEntity
  8
LC-001-100-D00-0
 62
     7
370
    50
100
AcDbLine
 10
226.57653
 20
411.570616
 30
0.0
 11
226.73437
 21
411.570616
 31
0.0
  0
LINE
  5
333
330
1F
100
AcDbEntity
  8
LC-001-100-D00-0
 62
     7
370
    50
100
AcDbLine
 10
233.21869
 20
411.570616
 30
0.0
 11
233.37653
 21
411.570616
 31
0.0
  0
LINE
  5
334
330
1F
100
AcDbEntity
  8
LC-001-100-D00-0
 62
     7
370
    50
100
AcDbLine
 10
234.37653
 20
410.570616
 30
0.0
 11
233.840748
 21
410.570616
 31
0.0
  0
LINE
  5
335
330
1F
100
AcDbEntity
  8
LC-001-100-D00-0
 62
     7
370
    50
100
AcDbLine
 10
226.112312
 20
410.570616
 30
0.0
 11
225.57653
 21
410.570616
 31
0.0
  0
LINE
  5
336
330
1F
100
AcDbEntity
  8
LC-001-100-D00-0
 62
     7
370
    50
100
AcDbLine
 10
236.327395
 20
418.570616
 30
0.0
 11
233.876542
 21
418.570616
 31
0.0
  0
LINE
  5
337
330
1F
100
AcDbEntity
  8
LC-001-100-D00-0
 62
     7
370
    50
100
AcDbLine
 10
233.876542
 20
418.570616
 30
0.0
 11
233.87653
 21
429.570616
 31
0.0
  0
LINE
  5
338
330
1F
100
AcDbEntity
  8
LC-001-100-D00-0
 62
     7
370
    50
100
AcDbLine
 10
233.87653
 20
429.570616
 30
0.0
 11
247.22653
 21
429.570616
 31
0.0
  0
ARC
  5
339
330
1F
100
AcDbEntity
  8
LC-001-100-D00-0
 62
     7
370
    50
100
AcDbCircle
 10
247.22653
 20
428.570616
 30
0.0
 40
1.000000000000227
100
AcDbArc
 50
0.0
 51
90.0
  0
LINE
  5
33A
330
1F
100
AcDbEntity
  8
LC-001-100-D00-0
 62
     7
370
    50
100
AcDbLine
 10
248.22653
 20
428.570616
 30
0.0
 11
248.226539
 21
422.570616
 31
0.0
  0
LINE
  5
33B
330
1F
100
AcDbEntity
  8
LC-001-100-D00-0
 62
     7
370
    50
100
AcDbLine
 10
245.22653
 20
422.570616
 30
0.0
 11
248.226539
 21
422.570616
 31
0.0
  0
LINE
  5
33C
330
1F
100
AcDbEntity
  8
LC-001-100-D00-0
 62
     7
370
    50
100
AcDbLine
 10
245.22653
 20
422.570616
 30
0.0
 11
245.226518
 21
426.570616
 31
0.0
  0
LINE
  5
33D
330
1F
100
AcDbEntity
  8
LC-001-100-D00-0
 62
     7
370
    50
100
AcDbLine
 10
240.72653
 20
426.570616
 30
0.0
 11
245.226518
 21
426.570616
 31
0.0
  0
ARC
  5
33E
330
1F
100
AcDbEntity
  8
LC-001-100-D00-0
 62
     7
370
    50
100
AcDbCircle
 10
240.72653
 20
425.570616
 30
0.0
 40
1.000000000000227
100
AcDbArc
 50
90.0
 51
180.0
  0
LINE
  5
33F
330
1F
100
AcDbEntity
  8
LC-001-100-D00-0
 62
     7
370
    50
100
AcDbLine
 10
239.72653
 20
411.570616
 30
0.0
 11
239.72653
 21
425.570616
 31
0.0
  0
ARC
  5
340
330
1F
100
AcDbEntity
  8
LC-001-100-D00-0
 62
     7
370
    50
100
AcDbCircle
 10
238.72653
 20
411.570616
 30
0.0
 40
1.0
100
AcDbArc
 50
270.0
 51
0.0
  0
LINE
  5
341
330
1F
100
AcDbEntity
  8
LC-001-100-D00-0
 62
     7
370
    50
100
AcDbLine
 10
238.72653
 20
410.570616
 30
0.0
 11
236.327395
 21
410.570616
 31
0.0
  0
LINE
  5
342
330
1F
100
AcDbEntity
  8
LC-001-100-D00-0
 62
     7
370
    50
100
AcDbLine
 10
236.327395
 20
412.570615
 30
0.0
 11
236.327395
 21
410.570616
 31
0.0
  0
LINE
  5
343
330
1F
100
AcDbEntity
  8
LC-001-100-D00-0
 62
     7
370
    50
100
AcDbLine
 10
235.67653
 20
412.570616
 30
0.0
 11
236.327395
 21
412.570615
 31
0.0
  0
ARC
  5
344
330
1F
100
AcDbEntity
  8
LC-001-100-D00-0
 62
     7
370
    50
100
AcDbCircle
 10
235.67653
 20
413.070616
 30
0.0
 40
0.5
100
AcDbArc
 50
180.0
 51
270.0
  0
LINE
  5
345
330
1F
100
AcDbEntity
  8
LC-001-100-D00-0
 62
     7
370
    50
100
AcDbLine
 10
235.17653
 20
416.070616
 30
0.0
 11
235.17653
 21
413.070616
 31
0.0
  0
ARC
  5
346
330
1F
100
AcDbEntity
  8
LC-001-100-D00-0
 62
     7
370
    50
100
AcDbCircle
 10
235.67653
 20
416.070616
 30
0.0
 40
0.5000000000002274
100
AcDbArc
 50
90.0
 51
180.0
  0
LINE
  5
347
330
1F
100
AcDbEntity
  8
LC-001-100-D00-0
 62
     7
370
    50
100
AcDbLine
 10
236.327395
 20
416.570615
 30
0.0
 11
235.67653
 21
416.570616
 31
0.0
  0
LINE
  5
348
330
1F
100
AcDbEntity
  8
LC-001-100-D00-0
 62
     7
370
    50
100
AcDbLine
 10
236.327395
 20
418.570616
 30
0.0
 11
236.327395
 21
416.570615
 31
0.0
  0
ARC
  5
349
330
1F
100
AcDbEntity
  8
LC-001-100-D00-0
 62
     7
370
    50
100
AcDbCircle
 10
219.22653
 20
425.570616
 30
0.0
 40
1.000000000000227
100
AcDbArc
 50
0.0
 51
90.0
  0
ARC
  5
34A
330
1F
100
AcDbEntity
  8
LC-001-100-D00-0
 62
     7
370
    50
100
AcDbCircle
 10
221.22653
 20
411.570616
 30
0.0
 40
1.000000000000227
100
AcDbArc
 50
180.0
 51
270.0
  0
LINE
  5
34B
330
1F
100
AcDbEntity
  8
LC-001-100-D00-0
 62
     7
370
    50
100
AcDbLine
 10
220.22653
 20
425.570616
 30
0.0
 11
220.22653
 21
411.570616
 31
0.0
  0
LINE
  5
34C
330
1F
100
AcDbEntity
  8
LC-001-100-D00-0
 62
     7
370
    50
100
AcDbLine
 10
224.77653
 20
413.070616
 30
0.0
 11
224.77653
 21
416.070616
 31
0.0
  0
LINE
  5
34D
330
1F
100
AcDbEntity
  8
LC-001-100-D00-0
 62
     7
370
    50
100
AcDbLine
 10
226.07653
 20
429.570616
 30
0.0
 11
226.076529
 21
418.570616
 31
0.0
  0
LINE
  5
34E
330
1F
100
AcDbEntity
  8
LC-001-100-D00-0
 62
     7
370
    50
100
AcDbLine
 10
226.07653
 20
429.570616
 30
0.0
 11
233.87653
 21
429.570616
 31
0.0
  0
LINE
  5
34F
330
1F
100
AcDbEntity
  8
LC-001-100-D00-0
 62
     7
370
    50
100
AcDbLine
 10
223.625675
 20
418.570616
 30
0.0
 11
223.625675
 21
416.570615
 31
0.0
  0
LINE
  5
350
330
1F
100
AcDbEntity
  8
LC-001-100-D00-0
 62
     7
370
    50
100
AcDbLine
 10
223.625675
 20
412.570615
 30
0.0
 11
223.625675
 21
410.570616
 31
0.0
  0
ARC
  5
351
330
1F
100
AcDbEntity
  8
LC-001-100-D00-0
 62
     7
370
    50
100
AcDbCircle
 10
224.27653
 20
413.070616
 30
0.0
 40
0.5000000000002274
100
AcDbArc
 50
270.0
 51
0.0
  0
LINE
  5
352
330
1F
100
AcDbEntity
  8
LC-001-100-D00-0
 62
     7
370
    50
100
AcDbLine
 10
223.625675
 20
412.570615
 30
0.0
 11
224.27653
 21
412.570616
 31
0.0
  0
LINE
  5
353
330
1F
100
AcDbEntity
  8
LC-001-100-D00-0
 62
     7
370
    50
100
AcDbLine
 10
214.726523
 20
426.570616
 30
0.0
 11
214.72653
 21
422.570616
 31
0.0
  0
LINE
  5
354
330
1F
100
AcDbEntity
  8
LC-001-100-D00-0
 62
     7
370
    50
100
AcDbLine
 10
211.726532
 20
422.570616
 30
0.0
 11
211.72653
 21
428.570616
 31
0.0
  0
ARC
  5
355
330
1F
100
AcDbEntity
  8
LC-001-100-D00-0
 62
     7
370
    50
100
AcDbCircle
 10
212.72653
 20
428.570616
 30
0.0
 40
1.000000000000227
100
AcDbArc
 50
90.0
 51
180.0
  0
LINE
  5
356
330
1F
100
AcDbEntity
  8
LC-001-100-D00-0
 62
     7
370
    50
100
AcDbLine
 10
224.27653
 20
416.570616
 30
0.0
 11
223.625675
 21
416.570615
 31
0.0
  0
ARC
  5
357
330
1F
100
AcDbEntity
  8
LC-001-100-D00-0
 62
     7
370
    50
100
AcDbCircle
 10
224.27653
 20
416.070616
 30
0.0
 40
0.5
100
AcDbArc
 50
0.0
 51
90.0
  0
LINE
  5
358
330
1F
100
AcDbEntity
  8
LC-001-100-D00-0
 62
     7
370
    50
100
AcDbLine
 10
226.076529
 20
418.570616
 30
0.0
 11
223.625675
 21
418.570616
 31
0.0
  0
LINE
  5
359
330
1F
100
AcDbEntity
  8
LC-001-100-D00-0
 62
     7
370
    50
100
AcDbLine
 10
223.625675
 20
410.570616
 30
0.0
 11
221.22653
 21
410.570616
 31
0.0
  0
LINE
  5
35A
330
1F
100
AcDbEntity
  8
LC-001-100-D00-0
 62
     7
370
    50
100
AcDbLine
 10
214.726523
 20
426.570616
 30
0.0
 11
219.22653
 21
426.570616
 31
0.0
  0
LINE
  5
35B
330
1F
100
AcDbEntity
  8
LC-001-100-D00-0
 62
     7
370
    50
100
AcDbLine
 10
212.72653
 20
429.570616
 30
0.0
 11
226.07653
 21
429.570616
 31
0.0
  0
LINE
  5
35C
330
1F
100
AcDbEntity
  8
LC-001-100-D00-0
 62
     7
370
    50
100
AcDbLine
 10
211.726532
 20
422.570616
 30
0.0
 11
214.72653
 21
422.570616
 31
0.0
  0
LINE
  5
35D
330
1F
100
AcDbEntity
  8
LC-001-100-D00-0
 62
     7
370
    50
100
AcDbLine
 10
243.22653
 20
422.570616
 30
0.0
 11
245.22653
 21
422.570616
 31
0.0
  0
LINE
  5
35E
330
1F
100
AcDbEntity
  8
LC-001-100-D00-0
 62
     7
370
    50
100
AcDbLine
 10
214.72653
 20
422.570616
 30
0.0
 11
216.72653
 21
422.570616
 31
0.0
  0
LINE
  5
35F
330
1F
100
AcDbEntity
  8
LC-001-100-D00-0
 62
     7
370
    50
100
AcDbLine
 10
216.72653
 20
422.570616
 30
0.0
 11
220.226542
 21
422.570616
 31
0.0
  0
LINE
  5
360
330
1F
100
AcDbEntity
  8
LC-001-100-D00-0
 62
     7
370
    50
100
AcDbLine
 10
239.726529
 20
422.570616
 30
0.0
 11
243.22653
 21
422.570616
 31
0.0
  0
LINE
  5
361
330
1F
100
AcDbEntity
  8
LC-001-100-D00-0
 62
     7
370
    50
100
AcDbLine
 10
-133.423469
 20
417.570616
 30
0.0
 11
-134.423471
 21
418.570616
 31
0.0
  0
LINE
  5
362
330
1F
100
AcDbEntity
  8
LC-001-100-D00-0
 62
     7
370
    50
100
AcDbLine
 10
-133.423469
 20
417.570616
 30
0.0
 11
-133.42347
 21
411.570616
 31
0.0
  0
LINE
  5
363
330
1F
100
AcDbEntity
  8
LC-001-100-D00-0
 62
     7
370
    50
100
AcDbLine
 10
-134.42347
 20
410.570616
 30
0.0
 11
-133.42347
 21
411.570616
 31
0.0
  0
LINE
  5
364
330
1F
100
AcDbEntity
  8
LC-001-100-D00-0
 62
     7
370
    50
100
AcDbLine
 10
-136.374324
 20
412.570615
 30
0.0
 11
-136.374324
 21
410.570616
 31
0.0
  0
LINE
  5
365
330
1F
100
AcDbEntity
  8
LC-001-100-D00-0
 62
     7
370
    50
100
AcDbLine
 10
-135.668179
 20
412.759827
 30
0.0
 11
-136.374324
 21
412.570615
 31
0.0
  0
ARC
  5
366
330
1F
100
AcDbEntity
  8
LC-001-100-D00-0
 62
     7
370
    50
100
AcDbCircle
 10
-135.82347
 20
413.339382
 30
0.0
 40
0.6000000000003082
100
AcDbArc
 50
285.0
 51
0.0
  0
LINE
  5
367
330
1F
100
AcDbEntity
  8
LC-001-100-D00-0
 62
     7
370
    50
100
AcDbLine
 10
-135.22347
 20
415.801849
 30
0.0
 11
-135.22347
 21
413.339382
 31
0.0
  0
ARC
  5
368
330
1F
100
AcDbEntity
  8
LC-001-100-D00-0
 62
     7
370
    50
100
AcDbCircle
 10
-135.82347
 20
415.801849
 30
0.0
 40
0.6000000000002501
100
AcDbArc
 50
0.0
 51
75.0
  0
LINE
  5
369
330
1F
100
AcDbEntity
  8
LC-001-100-D00-0
 62
     7
370
    50
100
AcDbLine
 10
-136.374324
 20
416.570615
 30
0.0
 11
-135.668179
 21
416.381405
 31
0.0
  0
LINE
  5
36A
330
1F
100
AcDbEntity
  8
LC-001-100-D00-0
 62
     7
370
    50
100
AcDbLine
 10
-136.374324
 20
418.570616
 30
0.0
 11
-136.374324
 21
416.570615
 31
0.0
  0
LINE
  5
36B
330
1F
100
AcDbEntity
  8
LC-001-100-D00-0
 62
     7
370
    50
100
AcDbLine
 10
-136.374324
 20
410.570616
 30
0.0
 11
-134.42347
 21
410.570616
 31
0.0
  0
LINE
  5
36C
330
1F
100
AcDbEntity
  8
LC-001-100-D00-0
 62
     7
370
    50
100
AcDbLine
 10
-136.374324
 20
418.570616
 30
0.0
 11
-134.423471
 21
418.570616
 31
0.0
  0
LINE
  5
36D
330
1F
100
AcDbEntity
  8
LC-001-100-D00-0
 62
     7
370
    50
100
AcDbLine
 10
-124.82347
 20
413.339382
 30
0.0
 11
-124.82347
 21
415.801849
 31
0.0
  0
ARC
  5
36E
330
1F
100
AcDbEntity
  8
LC-001-100-D00-0
 62
     7
370
    50
100
AcDbCircle
 10
-124.22347
 20
413.339382
 30
0.0
 40
0.6000000000000227
100
AcDbArc
 50
180.0
 51
255.0
  0
LINE
  5
36F
330
1F
100
AcDbEntity
  8
LC-001-100-D00-0
 62
     7
370
    50
100
AcDbLine
 10
-123.672619
 20
412.570615
 30
0.0
 11
-124.378761
 21
412.759827
 31
0.0
  0
LINE
  5
370
330
1F
100
AcDbEntity
  8
LC-001-100-D00-0
 62
     7
370
    50
100
AcDbLine
 10
-123.672619
 20
412.570615
 30
0.0
 11
-123.672619
 21
410.570616
 31
0.0
  0
LINE
  5
371
330
1F
100
AcDbEntity
  8
LC-001-100-D00-0
 62
     7
370
    50
100
AcDbLine
 10
-126.62347
 20
411.570616
 30
0.0
 11
-125.62347
 21
410.570616
 31
0.0
  0
LINE
  5
372
330
1F
100
AcDbEntity
  8
LC-001-100-D00-0
 62
     7
370
    50
100
AcDbLine
 10
-126.62347
 20
411.570616
 30
0.0
 11
-126.623474
 21
417.570616
 31
0.0
  0
LINE
  5
373
330
1F
100
AcDbEntity
  8
LC-001-100-D00-0
 62
     7
370
    50
100
AcDbLine
 10
-125.623472
 20
418.570616
 30
0.0
 11
-126.623474
 21
417.570616
 31
0.0
  0
LINE
  5
374
330
1F
100
AcDbEntity
  8
LC-001-100-D00-0
 62
     7
370
    50
100
AcDbLine
 10
-123.672619
 20
418.570616
 30
0.0
 11
-123.672619
 21
416.570615
 31
0.0
  0
LINE
  5
375
330
1F
100
AcDbEntity
  8
LC-001-100-D00-0
 62
     7
370
    50
100
AcDbLine
 10
-124.378761
 20
416.381405
 30
0.0
 11
-123.672619
 21
416.570615
 31
0.0
  0
ARC
  5
376
330
1F
100
AcDbEntity
  8
LC-001-100-D00-0
 62
     7
370
    50
100
AcDbCircle
 10
-124.22347
 20
415.801849
 30
0.0
 40
0.6000000000003376
100
AcDbArc
 50
105.0
 51
180.0
  0
LINE
  5
377
330
1F
100
AcDbEntity
  8
LC-001-100-D00-0
 62
     7
370
    50
100
AcDbLine
 10
-125.62347
 20
410.570616
 30
0.0
 11
-123.672619
 21
410.570616
 31
0.0
  0
LINE
  5
378
330
1F
100
AcDbEntity
  8
LC-001-100-D00-0
 62
     7
370
    50
100
AcDbLine
 10
-125.623472
 20
418.570616
 30
0.0
 11
-123.672619
 21
418.570616
 31
0.0
  0
LINE
  5
379
330
1F
100
AcDbEntity
  8
LC-001-100-D00-0
 62
     7
370
    50
100
AcDbLine
 10
-133.42347
 20
411.570616
 30
0.0
 11
-133.26563
 21
411.570616
 31
0.0
  0
LINE
  5
37A
330
1F
100
AcDbEntity
  8
LC-001-100-D00-0
 62
     7
370
    50
100
AcDbLine
 10
-126.78131
 20
411.570616
 30
0.0
 11
-126.62347
 21
411.570616
 31
0.0
  0
LINE
  5
37B
330
1F
100
AcDbEntity
  8
LC-001-100-D00-0
 62
     7
370
    50
100
AcDbLine
 10
-125.62347
 20
410.570616
 30
0.0
 11
-126.159252
 21
410.570616
 31
0.0
  0
LINE
  5
37C
330
1F
100
AcDbEntity
  8
LC-001-100-D00-0
 62
     7
370
    50
100
AcDbLine
 10
-133.887688
 20
410.570616
 30
0.0
 11
-134.42347
 21
410.570616
 31
0.0
  0
LINE
  5
37D
330
1F
100
AcDbEntity
  8
LC-001-100-D00-0
 62
     7
370
    50
100
AcDbLine
 10
-123.672619
 20
418.570616
 30
0.0
 11
-126.123473
 21
418.570616
 31
0.0
  0
LINE
  5
37E
330
1F
100
AcDbEntity
  8
LC-001-100-D00-0
 62
     7
370
    50
100
AcDbLine
 10
-126.123473
 20
418.570616
 30
0.0
 11
-126.12347
 21
429.570616
 31
0.0
  0
LINE
  5
37F
330
1F
100
AcDbEntity
  8
LC-001-100-D00-0
 62
     7
370
    50
100
AcDbLine
 10
-126.12347
 20
429.570616
 30
0.0
 11
-112.77347
 21
429.570616
 31
0.0
  0
ARC
  5
380
330
1F
100
AcDbEntity
  8
LC-001-100-D00-0
 62
     7
370
    50
100
AcDbCircle
 10
-112.77347
 20
428.570616
 30
0.0
 40
1.000000000000227
100
AcDbArc
 50
0.0
 51
90.0
  0
LINE
  5
381
330
1F
100
AcDbEntity
  8
LC-001-100-D00-0
 62
     7
370
    50
100
AcDbLine
 10
-111.77347
 20
428.570616
 30
0.0
 11
-111.773468
 21
422.570616
 31
0.0
  0
LINE
  5
382
330
1F
100
AcDbEntity
  8
LC-001-100-D00-0
 62
     7
370
    50
100
AcDbLine
 10
-114.77347
 20
422.570616
 30
0.0
 11
-111.773468
 21
422.570616
 31
0.0
  0
LINE
  5
383
330
1F
100
AcDbEntity
  8
LC-001-100-D00-0
 62
     7
370
    50
100
AcDbLine
 10
-114.77347
 20
422.570616
 30
0.0
 11
-114.773467
 21
426.570616
 31
0.0
  0
LINE
  5
384
330
1F
100
AcDbEntity
  8
LC-001-100-D00-0
 62
     7
370
    50
100
AcDbLine
 10
-119.27347
 20
426.570616
 30
0.0
 11
-114.773467
 21
426.570616
 31
0.0
  0
ARC
  5
385
330
1F
100
AcDbEntity
  8
LC-001-100-D00-0
 62
     7
370
    50
100
AcDbCircle
 10
-119.27347
 20
425.570616
 30
0.0
 40
1.000000000000227
100
AcDbArc
 50
90.0
 51
180.0
  0
LINE
  5
386
330
1F
100
AcDbEntity
  8
LC-001-100-D00-0
 62
     7
370
    50
100
AcDbLine
 10
-120.27347
 20
411.570616
 30
0.0
 11
-120.27347
 21
425.570616
 31
0.0
  0
ARC
  5
387
330
1F
100
AcDbEntity
  8
LC-001-100-D00-0
 62
     7
370
    50
100
AcDbCircle
 10
-121.27347
 20
411.570616
 30
0.0
 40
1.0
100
AcDbArc
 50
270.0
 51
0.0
  0
LINE
  5
388
330
1F
100
AcDbEntity
  8
LC-001-100-D00-0
 62
     7
370
    50
100
AcDbLine
 10
-121.27347
 20
410.570616
 30
0.0
 11
-123.672619
 21
410.570616
 31
0.0
  0
LINE
  5
389
330
1F
100
AcDbEntity
  8
LC-001-100-D00-0
 62
     7
370
    50
100
AcDbLine
 10
-123.672619
 20
412.570615
 30
0.0
 11
-123.672619
 21
410.570616
 31
0.0
  0
LINE
  5
38A
330
1F
100
AcDbEntity
  8
LC-001-100-D00-0
 62
     7
370
    50
100
AcDbLine
 10
-124.32347
 20
412.570616
 30
0.0
 11
-123.672619
 21
412.570615
 31
0.0
  0
ARC
  5
38B
330
1F
100
AcDbEntity
  8
LC-001-100-D00-0
 62
     7
370
    50
100
AcDbCircle
 10
-124.32347
 20
413.070616
 30
0.0
 40
0.5
100
AcDbArc
 50
180.0
 51
270.0
  0
LINE
  5
38C
330
1F
100
AcDbEntity
  8
LC-001-100-D00-0
 62
     7
370
    50
100
AcDbLine
 10
-124.82347
 20
416.070616
 30
0.0
 11
-124.82347
 21
413.070616
 31
0.0
  0
ARC
  5
38D
330
1F
100
AcDbEntity
  8
LC-001-100-D00-0
 62
     7
370
    50
100
AcDbCircle
 10
-124.32347
 20
416.070616
 30
0.0
 40
0.5000000000002274
100
AcDbArc
 50
90.0
 51
180.0
  0
LINE
  5
38E
330
1F
100
AcDbEntity
  8
LC-001-100-D00-0
 62
     7
370
    50
100
AcDbLine
 10
-123.672619
 20
416.570615
 30
0.0
 11
-124.32347
 21
416.570616
 31
0.0
  0
LINE
  5
38F
330
1F
100
AcDbEntity
  8
LC-001-100-D00-0
 62
     7
370
    50
100
AcDbLine
 10
-123.672619
 20
418.570616
 30
0.0
 11
-123.672619
 21
416.570615
 31
0.0
  0
ARC
  5
390
330
1F
100
AcDbEntity
  8
LC-001-100-D00-0
 62
     7
370
    50
100
AcDbCircle
 10
-140.77347
 20
425.570616
 30
0.0
 40
1.000000000000227
100
AcDbArc
 50
0.0
 51
90.0
  0
ARC
  5
391
330
1F
100
AcDbEntity
  8
LC-001-100-D00-0
 62
     7
370
    50
100
AcDbCircle
 10
-138.77347
 20
411.570616
 30
0.0
 40
1.000000000000227
100
AcDbArc
 50
180.0
 51
270.0
  0
LINE
  5
392
330
1F
100
AcDbEntity
  8
LC-001-100-D00-0
 62
     7
370
    50
100
AcDbLine
 10
-139.77347
 20
425.570616
 30
0.0
 11
-139.77347
 21
411.570616
 31
0.0
  0
LINE
  5
393
330
1F
100
AcDbEntity
  8
LC-001-100-D00-0
 62
     7
370
    50
100
AcDbLine
 10
-135.22347
 20
413.070616
 30
0.0
 11
-135.22347
 21
416.070616
 31
0.0
  0
LINE
  5
394
330
1F
100
AcDbEntity
  8
LC-001-100-D00-0
 62
     7
370
    50
100
AcDbLine
 10
-133.92347
 20
429.570616
 30
0.0
 11
-133.92347
 21
418.570616
 31
0.0
  0
LINE
  5
395
330
1F
100
AcDbEntity
  8
LC-001-100-D00-0
 62
     7
370
    50
100
AcDbLine
 10
-133.92347
 20
429.570616
 30
0.0
 11
-126.12347
 21
429.570616
 31
0.0
  0
LINE
  5
396
330
1F
100
AcDbEntity
  8
LC-001-100-D00-0
 62
     7
370
    50
100
AcDbLine
 10
-136.374324
 20
418.570616
 30
0.0
 11
-136.374324
 21
416.570615
 31
0.0
  0
LINE
  5
397
330
1F
100
AcDbEntity
  8
LC-001-100-D00-0
 62
     7
370
    50
100
AcDbLine
 10
-136.374324
 20
412.570615
 30
0.0
 11
-136.374324
 21
410.570616
 31
0.0
  0
ARC
  5
398
330
1F
100
AcDbEntity
  8
LC-001-100-D00-0
 62
     7
370
    50
100
AcDbCircle
 10
-135.72347
 20
413.070616
 30
0.0
 40
0.5000000000002274
100
AcDbArc
 50
270.0
 51
0.0
  0
LINE
  5
399
330
1F
100
AcDbEntity
  8
LC-001-100-D00-0
 62
     7
370
    50
100
AcDbLine
 10
-136.374324
 20
412.570615
 30
0.0
 11
-135.72347
 21
412.570616
 31
0.0
  0
LINE
  5
39A
330
1F
100
AcDbEntity
  8
LC-001-100-D00-0
 62
     7
370
    50
100
AcDbLine
 10
-145.273469
 20
426.570616
 30
0.0
 11
-145.27347
 21
422.570616
 31
0.0
  0
LINE
  5
39B
330
1F
100
AcDbEntity
  8
LC-001-100-D00-0
 62
     7
370
    50
100
AcDbLine
 10
-148.273467
 20
422.570616
 30
0.0
 11
-148.27347
 21
428.570616
 31
0.0
  0
ARC
  5
39C
330
1F
100
AcDbEntity
  8
LC-001-100-D00-0
 62
     7
370
    50
100
AcDbCircle
 10
-147.27347
 20
428.570616
 30
0.0
 40
1.000000000000227
100
AcDbArc
 50
90.0
 51
180.0
  0
LINE
  5
39D
330
1F
100
AcDbEntity
  8
LC-001-100-D00-0
 62
     7
370
    50
100
AcDbLine
 10
-135.72347
 20
416.570616
 30
0.0
 11
-136.374324
 21
416.570615
 31
0.0
  0
ARC
  5
39E
330
1F
100
AcDbEntity
  8
LC-001-100-D00-0
 62
     7
370
    50
100
AcDbCircle
 10
-135.72347
 20
416.070616
 30
0.0
 40
0.5
100
AcDbArc
 50
0.0
 51
90.0
  0
LINE
  5
39F
330
1F
100
AcDbEntity
  8
LC-001-100-D00-0
 62
     7
370
    50
100
AcDbLine
 10
-133.92347
 20
418.570616
 30
0.0
 11
-136.374324
 21
418.570616
 31
0.0
  0
LINE
  5
3A0
330
1F
100
AcDbEntity
  8
LC-001-100-D00-0
 62
     7
370
    50
100
AcDbLine
 10
-136.374324
 20
410.570616
 30
0.0
 11
-138.77347
 21
410.570616
 31
0.0
  0
LINE
  5
3A1
330
1F
100
AcDbEntity
  8
LC-001-100-D00-0
 62
     7
370
    50
100
AcDbLine
 10
-145.273469
 20
426.570616
 30
0.0
 11
-140.77347
 21
426.570616
 31
0.0
  0
LINE
  5
3A2
330
1F
100
AcDbEntity
  8
LC-001-100-D00-0
 62
     7
370
    50
100
AcDbLine
 10
-147.27347
 20
429.570616
 30
0.0
 11
-133.92347
 21
429.570616
 31
0.0
  0
LINE
  5
3A3
330
1F
100
AcDbEntity
  8
LC-001-100-D00-0
 62
     7
370
    50
100
AcDbLine
 10
-148.273467
 20
422.570616
 30
0.0
 11
-145.27347
 21
422.570616
 31
0.0
  0
LINE
  5
3A4
330
1F
100
AcDbEntity
  8
LC-001-100-D00-0
 62
     7
370
    50
100
AcDbLine
 10
-116.77347
 20
422.570616
 30
0.0
 11
-114.77347
 21
422.570616
 31
0.0
  0
LINE
  5
3A5
330
1F
100
AcDbEntity
  8
LC-001-100-D00-0
 62
     7
370
    50
100
AcDbLine
 10
-145.27347
 20
422.570616
 30
0.0
 11
-143.27347
 21
422.570616
 31
0.0
  0
LINE
  5
3A6
330
1F
100
AcDbEntity
  8
LC-001-100-D00-0
 62
     7
370
    50
100
AcDbLine
 10
-143.27347
 20
422.570616
 30
0.0
 11
-139.773473
 21
422.570616
 31
0.0
  0
LINE
  5
3A7
330
1F
100
AcDbEntity
  8
LC-001-100-D00-0
 62
     7
370
    50
100
AcDbLine
 10
-120.27347
 20
422.570616
 30
0.0
 11
-116.77347
 21
422.570616
 31
0.0
  0
LINE
  5
3A8
330
1F
100
AcDbEntity
  8
LC-001-100-D00-0
 62
     7
370
    50
100
AcDbLine
 10
66.576534
 20
417.570616
 30
0.0
 11
65.576532
 21
418.570616
 31
0.0
  0
LINE
  5
3A9
330
1F
100
AcDbEntity
  8
LC-001-100-D00-0
 62
     7
370
    50
100
AcDbLine
 10
66.576534
 20
417.570616
 30
0.0
 11
66.57653
 21
411.570616
 31
0.0
  0
LINE
  5
3AA
330
1F
100
AcDbEntity
  8
LC-001-100-D00-0
 62
     7
370
    50
100
AcDbLine
 10
65.57653
 20
410.570616
 30
0.0
 11
66.57653
 21
411.570616
 31
0.0
  0
LINE
  5
3AB
330
1F
100
AcDbEntity
  8
LC-001-100-D00-0
 62
     7
370
    50
100
AcDbLine
 10
63.625679
 20
412.570615
 30
0.0
 11
63.625679
 21
410.570616
 31
0.0
  0
LINE
  5
3AC
330
1F
100
AcDbEntity
  8
LC-001-100-D00-0
 62
     7
370
    50
100
AcDbLine
 10
64.331821
 20
412.759827
 30
0.0
 11
63.625679
 21
412.570615
 31
0.0
  0
ARC
  5
3AD
330
1F
100
AcDbEntity
  8
LC-001-100-D00-0
 62
     7
370
    50
100
AcDbCircle
 10
64.17653
 20
413.339382
 30
0.0
 40
0.6000000000000886
100
AcDbArc
 50
285.0
 51
0.0
  0
LINE
  5
3AE
330
1F
100
AcDbEntity
  8
LC-001-100-D00-0
 62
     7
370
    50
100
AcDbLine
 10
64.77653
 20
415.801849
 30
0.0
 11
64.77653
 21
413.339382
 31
0.0
  0
ARC
  5
3AF
330
1F
100
AcDbEntity
  8
LC-001-100-D00-0
 62
     7
370
    50
100
AcDbCircle
 10
64.17653
 20
415.801849
 30
0.0
 40
0.6000000000002501
100
AcDbArc
 50
0.0
 51
75.0
  0
LINE
  5
3B0
330
1F
100
AcDbEntity
  8
LC-001-100-D00-0
 62
     7
370
    50
100
AcDbLine
 10
63.625679
 20
416.570615
 30
0.0
 11
64.331821
 21
416.381405
 31
0.0
  0
LINE
  5
3B1
330
1F
100
AcDbEntity
  8
LC-001-100-D00-0
 62
     7
370
    50
100
AcDbLine
 10
63.625679
 20
418.570616
 30
0.0
 11
63.625679
 21
416.570615
 31
0.0
  0
LINE
  5
3B2
330
1F
100
AcDbEntity
  8
LC-001-100-D00-0
 62
     7
370
    50
100
AcDbLine
 10
63.625679
 20
410.570616
 30
0.0
 11
65.57653
 21
410.570616
 31
0.0
  0
LINE
  5
3B3
330
1F
100
AcDbEntity
  8
LC-001-100-D00-0
 62
     7
370
    50
100
AcDbLine
 10
63.625679
 20
418.570616
 30
0.0
 11
65.576532
 21
418.570616
 31
0.0
  0
LINE
  5
3B4
330
1F
100
AcDbEntity
  8
LC-001-100-D00-0
 62
     7
370
    50
100
AcDbLine
 10
75.17653
 20
413.339382
 30
0.0
 11
75.17653
 21
415.801849
 31
0.0
  0
ARC
  5
3B5
330
1F
100
AcDbEntity
  8
LC-001-100-D00-0
 62
     7
370
    50
100
AcDbCircle
 10
75.77653
 20
413.339382
 30
0.0
 40
0.6000000000000227
100
AcDbArc
 50
180.0
 51
255.0
  0
LINE
  5
3B6
330
1F
100
AcDbEntity
  8
LC-001-100-D00-0
 62
     7
370
    50
100
AcDbLine
 10
76.327384
 20
412.570615
 30
0.0
 11
75.621239
 21
412.759827
 31
0.0
  0
LINE
  5
3B7
330
1F
100
AcDbEntity
  8
LC-001-100-D00-0
 62
     7
370
    50
100
AcDbLine
 10
76.327384
 20
412.570615
 30
0.0
 11
76.327384
 21
410.570616
 31
0.0
  0
LINE
  5
3B8
330
1F
100
AcDbEntity
  8
LC-001-100-D00-0
 62
     7
370
    50
100
AcDbLine
 10
73.37653
 20
411.570616
 30
0.0
 11
74.37653
 21
410.570616
 31
0.0
  0
LINE
  5
3B9
330
1F
100
AcDbEntity
  8
LC-001-100-D00-0
 62
     7
370
    50
100
AcDbLine
 10
73.37653
 20
411.570616
 30
0.0
 11
73.376529
 21
417.570616
 31
0.0
  0
LINE
  5
3BA
330
1F
100
AcDbEntity
  8
LC-001-100-D00-0
 62
     7
370
    50
100
AcDbLine
 10
74.376531
 20
418.570616
 30
0.0
 11
73.376529
 21
417.570616
 31
0.0
  0
LINE
  5
3BB
330
1F
100
AcDbEntity
  8
LC-001-100-D00-0
 62
     7
370
    50
100
AcDbLine
 10
76.327384
 20
418.570616
 30
0.0
 11
76.327384
 21
416.570615
 31
0.0
  0
LINE
  5
3BC
330
1F
100
AcDbEntity
  8
LC-001-100-D00-0
 62
     7
370
    50
100
AcDbLine
 10
75.621239
 20
416.381405
 30
0.0
 11
76.327384
 21
416.570615
 31
0.0
  0
ARC
  5
3BD
330
1F
100
AcDbEntity
  8
LC-001-100-D00-0
 62
     7
370
    50
100
AcDbCircle
 10
75.77653
 20
415.801849
 30
0.0
 40
0.6000000000003376
100
AcDbArc
 50
105.0
 51
180.0
  0
LINE
  5
3BE
330
1F
100
AcDbEntity
  8
LC-001-100-D00-0
 62
     7
370
    50
100
AcDbLine
 10
74.37653
 20
410.570616
 30
0.0
 11
76.327384
 21
410.570616
 31
0.0
  0
LINE
  5
3BF
330
1F
100
AcDbEntity
  8
LC-001-100-D00-0
 62
     7
370
    50
100
AcDbLine
 10
74.376531
 20
418.570616
 30
0.0
 11
76.327384
 21
418.570616
 31
0.0
  0
LINE
  5
3C0
330
1F
100
AcDbEntity
  8
LC-001-100-D00-0
 62
     7
370
    50
100
AcDbLine
 10
66.57653
 20
411.570616
 30
0.0
 11
66.73437
 21
411.570616
 31
0.0
  0
LINE
  5
3C1
330
1F
100
AcDbEntity
  8
LC-001-100-D00-0
 62
     7
370
    50
100
AcDbLine
 10
73.21869
 20
411.570616
 30
0.0
 11
73.37653
 21
411.570616
 31
0.0
  0
LINE
  5
3C2
330
1F
100
AcDbEntity
  8
LC-001-100-D00-0
 62
     7
370
    50
100
AcDbLine
 10
74.37653
 20
410.570616
 30
0.0
 11
73.840748
 21
410.570616
 31
0.0
  0
LINE
  5
3C3
330
1F
100
AcDbEntity
  8
LC-001-100-D00-0
 62
     7
370
    50
100
AcDbLine
 10
66.112312
 20
410.570616
 30
0.0
 11
65.57653
 21
410.570616
 31
0.0
  0
LINE
  5
3C4
330
1F
100
AcDbEntity
  8
LC-001-100-D00-0
 62
     7
370
    50
100
AcDbLine
 10
76.327384
 20
418.570616
 30
0.0
 11
73.87653
 21
418.570616
 31
0.0
  0
LINE
  5
3C5
330
1F
100
AcDbEntity
  8
LC-001-100-D00-0
 62
     7
370
    50
100
AcDbLine
 10
73.87653
 20
418.570616
 30
0.0
 11
73.87653
 21
429.570616
 31
0.0
  0
LINE
  5
3C6
330
1F
100
AcDbEntity
  8
LC-001-100-D00-0
 62
     7
370
    50
100
AcDbLine
 10
73.87653
 20
429.570616
 30
0.0
 11
87.22653
 21
429.570616
 31
0.0
  0
ARC
  5
3C7
330
1F
100
AcDbEntity
  8
LC-001-100-D00-0
 62
     7
370
    50
100
AcDbCircle
 10
87.22653
 20
428.570616
 30
0.0
 40
1.000000000000227
100
AcDbArc
 50
0.0
 51
90.0
  0
LINE
  5
3C8
330
1F
100
AcDbEntity
  8
LC-001-100-D00-0
 62
     7
370
    50
100
AcDbLine
 10
88.22653
 20
428.570616
 30
0.0
 11
88.226528
 21
422.570616
 31
0.0
  0
LINE
  5
3C9
330
1F
100
AcDbEntity
  8
LC-001-100-D00-0
 62
     7
370
    50
100
AcDbLine
 10
85.22653
 20
422.570616
 30
0.0
 11
88.226528
 21
422.570616
 31
0.0
  0
LINE
  5
3CA
330
1F
100
AcDbEntity
  8
LC-001-100-D00-0
 62
     7
370
    50
100
AcDbLine
 10
85.22653
 20
422.570616
 30
0.0
 11
85.226529
 21
426.570616
 31
0.0
  0
LINE
  5
3CB
330
1F
100
AcDbEntity
  8
LC-001-100-D00-0
 62
     7
370
    50
100
AcDbLine
 10
80.72653
 20
426.570616
 30
0.0
 11
85.226529
 21
426.570616
 31
0.0
  0
ARC
  5
3CC
330
1F
100
AcDbEntity
  8
LC-001-100-D00-0
 62
     7
370
    50
100
AcDbCircle
 10
80.72653
 20
425.570616
 30
0.0
 40
1.000000000000227
100
AcDbArc
 50
90.0
 51
180.0
  0
LINE
  5
3CD
330
1F
100
AcDbEntity
  8
LC-001-100-D00-0
 62
     7
370
    50
100
AcDbLine
 10
79.72653
 20
411.570616
 30
0.0
 11
79.72653
 21
425.570616
 31
0.0
  0
ARC
  5
3CE
330
1F
100
AcDbEntity
  8
LC-001-100-D00-0
 62
     7
370
    50
100
AcDbCircle
 10
78.72653
 20
411.570616
 30
0.0
 40
1.0
100
AcDbArc
 50
270.0
 51
0.0
  0
LINE
  5
3CF
330
1F
100
AcDbEntity
  8
LC-001-100-D00-0
 62
     7
370
    50
100
AcDbLine
 10
78.72653
 20
410.570616
 30
0.0
 11
76.327384
 21
410.570616
 31
0.0
  0
LINE
  5
3D0
330
1F
100
AcDbEntity
  8
LC-001-100-D00-0
 62
     7
370
    50
100
AcDbLine
 10
76.327384
 20
412.570615
 30
0.0
 11
76.327384
 21
410.570616
 31
0.0
  0
LINE
  5
3D1
330
1F
100
AcDbEntity
  8
LC-001-100-D00-0
 62
     7
370
    50
100
AcDbLine
 10
75.67653
 20
412.570616
 30
0.0
 11
76.327384
 21
412.570615
 31
0.0
  0
ARC
  5
3D2
330
1F
100
AcDbEntity
  8
LC-001-100-D00-0
 62
     7
370
    50
100
AcDbCircle
 10
75.67653
 20
413.070616
 30
0.0
 40
0.5
100
AcDbArc
 50
180.0
 51
270.0
  0
LINE
  5
3D3
330
1F
100
AcDbEntity
  8
LC-001-100-D00-0
 62
     7
370
    50
100
AcDbLine
 10
75.17653
 20
416.070616
 30
0.0
 11
75.17653
 21
413.070616
 31
0.0
  0
ARC
  5
3D4
330
1F
100
AcDbEntity
  8
LC-001-100-D00-0
 62
     7
370
    50
100
AcDbCircle
 10
75.67653
 20
416.070616
 30
0.0
 40
0.5000000000002274
100
AcDbArc
 50
90.0
 51
180.0
  0
LINE
  5
3D5
330
1F
100
AcDbEntity
  8
LC-001-100-D00-0
 62
     7
370
    50
100
AcDbLine
 10
76.327384
 20
416.570615
 30
0.0
 11
75.67653
 21
416.570616
 31
0.0
  0
LINE
  5
3D6
330
1F
100
AcDbEntity
  8
LC-001-100-D00-0
 62
     7
370
    50
100
AcDbLine
 10
76.327384
 20
418.570616
 30
0.0
 11
76.327384
 21
416.570615
 31
0.0
  0
ARC
  5
3D7
330
1F
100
AcDbEntity
  8
LC-001-100-D00-0
 62
     7
370
    50
100
AcDbCircle
 10
59.22653
 20
425.570616
 30
0.0
 40
1.000000000000227
100
AcDbArc
 50
0.0
 51
90.0
  0
LINE
  5
3D8
330
1F
100
AcDbEntity
  8
LC-001-100-D00-0
 62
     7
370
    50
100
AcDbLine
 10
60.22653
 20
425.570616
 30
0.0
 11
60.22653
 21
411.570616
 31
0.0
  0
ARC
  5
3D9
330
1F
100
AcDbEntity
  8
LC-001-100-D00-0
 62
     7
370
    50
100
AcDbCircle
 10
61.22653
 20
411.570616
 30
0.0
 40
1.000000000000227
100
AcDbArc
 50
180.0
 51
270.0
  0
LINE
  5
3DA
330
1F
100
AcDbEntity
  8
LC-001-100-D00-0
 62
     7
370
    50
100
AcDbLine
 10
64.77653
 20
413.070616
 30
0.0
 11
64.77653
 21
416.070616
 31
0.0
  0
LINE
  5
3DB
330
1F
100
AcDbEntity
  8
LC-001-100-D00-0
 62
     7
370
    50
100
AcDbLine
 10
66.07653
 20
429.570616
 30
0.0
 11
66.076533
 21
418.570616
 31
0.0
  0
LINE
  5
3DC
330
1F
100
AcDbEntity
  8
LC-001-100-D00-0
 62
     7
370
    50
100
AcDbLine
 10
66.07653
 20
429.570616
 30
0.0
 11
73.87653
 21
429.570616
 31
0.0
  0
LINE
  5
3DD
330
1F
100
AcDbEntity
  8
LC-001-100-D00-0
 62
     7
370
    50
100
AcDbLine
 10
63.625679
 20
418.570616
 30
0.0
 11
63.625679
 21
416.570615
 31
0.0
  0
LINE
  5
3DE
330
1F
100
AcDbEntity
  8
LC-001-100-D00-0
 62
     7
370
    50
100
AcDbLine
 10
63.625679
 20
412.570615
 30
0.0
 11
63.625679
 21
410.570616
 31
0.0
  0
ARC
  5
3DF
330
1F
100
AcDbEntity
  8
LC-001-100-D00-0
 62
     7
370
    50
100
AcDbCircle
 10
64.27653
 20
413.070616
 30
0.0
 40
0.4999999999997726
100
AcDbArc
 50
270.0
 51
0.0
  0
LINE
  5
3E0
330
1F
100
AcDbEntity
  8
LC-001-100-D00-0
 62
     7
370
    50
100
AcDbLine
 10
63.625679
 20
412.570615
 30
0.0
 11
64.27653
 21
412.570616
 31
0.0
  0
LINE
  5
3E1
330
1F
100
AcDbEntity
  8
LC-001-100-D00-0
 62
     7
370
    50
100
AcDbLine
 10
54.726527
 20
426.570616
 30
0.0
 11
54.72653
 21
422.570616
 31
0.0
  0
LINE
  5
3E2
330
1F
100
AcDbEntity
  8
LC-001-100-D00-0
 62
     7
370
    50
100
AcDbLine
 10
51.726528
 20
422.570616
 30
0.0
 11
51.72653
 21
428.570616
 31
0.0
  0
ARC
  5
3E3
330
1F
100
AcDbEntity
  8
LC-001-100-D00-0
 62
     7
370
    50
100
AcDbCircle
 10
52.72653
 20
428.570616
 30
0.0
 40
1.000000000000227
100
AcDbArc
 50
90.0
 51
180.0
  0
LINE
  5
3E4
330
1F
100
AcDbEntity
  8
LC-001-100-D00-0
 62
     7
370
    50
100
AcDbLine
 10
64.27653
 20
416.570616
 30
0.0
 11
63.625679
 21
416.570615
 31
0.0
  0
ARC
  5
3E5
330
1F
100
AcDbEntity
  8
LC-001-100-D00-0
 62
     7
370
    50
100
AcDbCircle
 10
64.27653
 20
416.070616
 30
0.0
 40
0.5
100
AcDbArc
 50
0.0
 51
90.0
  0
LINE
  5
3E6
330
1F
100
AcDbEntity
  8
LC-001-100-D00-0
 62
     7
370
    50
100
AcDbLine
 10
66.076533
 20
418.570616
 30
0.0
 11
63.625679
 21
418.570616
 31
0.0
  0
LINE
  5
3E7
330
1F
100
AcDbEntity
  8
LC-001-100-D00-0
 62
     7
370
    50
100
AcDbLine
 10
63.625679
 20
410.570616
 30
0.0
 11
61.22653
 21
410.570616
 31
0.0
  0
LINE
  5
3E8
330
1F
100
AcDbEntity
  8
LC-001-100-D00-0
 62
     7
370
    50
100
AcDbLine
 10
54.726527
 20
426.570616
 30
0.0
 11
59.22653
 21
426.570616
 31
0.0
  0
LINE
  5
3E9
330
1F
100
AcDbEntity
  8
LC-001-100-D00-0
 62
     7
370
    50
100
AcDbLine
 10
52.72653
 20
429.570616
 30
0.0
 11
66.07653
 21
429.570616
 31
0.0
  0
LINE
  5
3EA
330
1F
100
AcDbEntity
  8
LC-001-100-D00-0
 62
     7
370
    50
100
AcDbLine
 10
51.726528
 20
422.570616
 30
0.0
 11
54.72653
 21
422.570616
 31
0.0
  0
LINE
  5
3EB
330
1F
100
AcDbEntity
  8
LC-001-100-D00-0
 62
     7
370
    50
100
AcDbLine
 10
83.22653
 20
422.570616
 30
0.0
 11
85.22653
 21
422.570616
 31
0.0
  0
LINE
  5
3EC
330
1F
100
AcDbEntity
  8
LC-001-100-D00-0
 62
     7
370
    50
100
AcDbLine
 10
54.72653
 20
422.570616
 30
0.0
 11
56.72653
 21
422.570616
 31
0.0
  0
LINE
  5
3ED
330
1F
100
AcDbEntity
  8
LC-001-100-D00-0
 62
     7
370
    50
100
AcDbLine
 10
56.72653
 20
422.570616
 30
0.0
 11
60.22653
 21
422.570616
 31
0.0
  0
LINE
  5
3EE
330
1F
100
AcDbEntity
  8
LC-001-100-D00-0
 62
     7
370
    50
100
AcDbLine
 10
79.726533
 20
422.570616
 30
0.0
 11
83.22653
 21
422.570616
 31
0.0
  0
LINE
  5
3EF
330
1F
100
AcDbEntity
  8
LC-001-100-D00-0
 62
     7
370
    50
100
AcDbLine
 10
28.476529
 20
399.727699
 30
0.0
 11
28.766447
 21
399.636617
 31
0.0
  0
LINE
  5
3F0
330
1F
100
AcDbEntity
  8
LC-001-100-D00-0
 62
     7
370
    50
100
AcDbLine
 10
27.288916
 20
397.585187
 30
0.0
 11
28.476529
 21
399.727699
 31
0.0
  0
ARC
  5
3F1
330
1F
100
AcDbEntity
  8
LC-001-100-D00-0
 62
     7
370
    50
100
AcDbCircle
 10
27.02653
 20
397.73063
 30
0.0
 40
0.3000000000001819
100
AcDbArc
 50
180.0
 51
331.0
  0
LINE
  5
3F2
330
1F
100
AcDbEntity
  8
LC-001-100-D00-0
 62
     7
370
    50
100
AcDbLine
 10
26.72653
 20
400.27087
 30
0.0
 11
26.72653
 21
397.73063
 31
0.0
  0
ARC
  5
3F3
330
1F
100
AcDbEntity
  8
LC-001-100-D00-0
 62
     7
370
    50
100
AcDbCircle
 10
28.72653
 20
400.27087
 30
0.0
 40
2.000000000000172
100
AcDbArc
 50
113.962489
 51
180.0
  0
LINE
  5
3F4
330
1F
100
AcDbEntity
  8
LC-001-100-D00-0
 62
     7
370
    50
100
AcDbLine
 10
28.782606
 20
402.484427
 30
0.0
 11
27.914253
 21
402.098493
 31
0.0
  0
ARC
  5
3F5
330
1F
100
AcDbEntity
  8
LC-001-100-D00-0
 62
     7
370
    50
100
AcDbCircle
 10
29.188744
 20
401.570616
 30
0.0
 40
1.0
100
AcDbArc
 50
90.0
 51
113.962489
  0
LINE
  5
3F6
330
1F
100
AcDbEntity
  8
LC-001-100-D00-0
 62
     7
370
    50
100
AcDbLine
 10
34.976528
 20
402.570615
 30
0.0
 11
34.976528
 21
398.570616
 31
0.0
  0
LINE
  5
3F7
330
1F
100
AcDbEntity
  8
LC-001-100-D00-0
 62
     7
370
    50
100
AcDbLine
 10
28.97653
 20
399.350409
 30
0.0
 11
28.97653
 21
398.570616
 31
0.0
  0
ARC
  5
3F8
330
1F
100
AcDbEntity
  8
LC-001-100-D00-0
 62
     7
370
    50
100
AcDbCircle
 10
28.67653
 20
399.350409
 30
0.0
 40
0.3000000000000682
100
AcDbArc
 50
0.0
 51
72.558995
  0
LINE
  5
3F9
330
1F
100
AcDbEntity
  8
LC-001-100-D00-0
 62
     7
370
    50
100
AcDbLine
 10
34.976528
 20
402.570615
 30
0.0
 11
29.188744
 21
402.570616
 31
0.0
  0
LINE
  5
3FA
330
1F
100
AcDbEntity
  8
LC-001-100-D00-0
 62
     7
370
    50
100
AcDbLine
 10
34.976528
 20
398.570616
 30
0.0
 11
28.97653
 21
398.570616
 31
0.0
  0
LINE
  5
3FB
330
1F
100
AcDbEntity
  8
LC-001-100-D00-0
 62
     7
370
    50
100
AcDbLine
 10
28.97653
 20
398.570616
 30
0.0
 11
27.835148
 21
398.570616
 31
0.0
  0
LINE
  5
3FC
330
1F
100
AcDbEntity
  8
LC-001-100-D00-0
 62
     7
370
    50
100
AcDbLine
 10
28.426042
 20
399.636617
 30
0.0
 11
28.766447
 21
399.636617
 31
0.0
  0
LINE
  5
3FD
330
1F
100
AcDbEntity
  8
LC-001-100-D00-0
 62
     7
370
    50
100
AcDbLine
 10
-89.02347
 20
398.570616
 30
0.0
 11
-89.02347
 21
399.350409
 31
0.0
  0
LINE
  5
3FE
330
1F
100
AcDbEntity
  8
LC-001-100-D00-0
 62
     7
370
    50
100
AcDbLine
 10
-87.882088
 20
398.570616
 30
0.0
 11
-89.02347
 21
398.570616
 31
0.0
  0
LINE
  5
3FF
330
1F
100
AcDbEntity
  8
LC-001-100-D00-0
 62
     7
370
    50
100
AcDbLine
 10
-88.523469
 20
399.727699
 30
0.0
 11
-87.335856
 21
397.585187
 31
0.0
  0
LINE
  5
400
330
1F
100
AcDbEntity
  8
LC-001-100-D00-0
 62
     7
370
    50
100
AcDbLine
 10
-88.813387
 20
399.636617
 30
0.0
 11
-88.472982
 21
399.636617
 31
0.0
  0
LINE
  5
401
330
1F
100
AcDbEntity
  8
LC-001-100-D00-0
 62
     7
370
    50
100
AcDbLine
 10
-88.813387
 20
399.636617
 30
0.0
 11
-88.523469
 21
399.727699
 31
0.0
  0
ARC
  5
402
330
1F
100
AcDbEntity
  8
LC-001-100-D00-0
 62
     7
370
    50
100
AcDbCircle
 10
-88.72347
 20
399.350409
 30
0.0
 40
0.2999999999999102
100
AcDbArc
 50
107.441005
 51
180.0
  0
ARC
  5
403
330
1F
100
AcDbEntity
  8
LC-001-100-D00-0
 62
     7
370
    50
100
AcDbCircle
 10
-87.07347
 20
397.73063
 30
0.0
 40
0.3000000000001525
100
AcDbArc
 50
209.0
 51
0.0
  0
ARC
  5
404
330
1F
100
AcDbEntity
  8
LC-001-100-D00-0
 62
     7
370
    50
100
AcDbCircle
 10
-88.77347
 20
400.27087
 30
0.0
 40
2.000000000000114
100
AcDbArc
 50
0.0
 51
66.037511
  0
LINE
  5
405
330
1F
100
AcDbEntity
  8
LC-001-100-D00-0
 62
     7
370
    50
100
AcDbLine
 10
-86.77347
 20
397.73063
 30
0.0
 11
-86.77347
 21
400.27087
 31
0.0
  0
ARC
  5
406
330
1F
100
AcDbEntity
  8
LC-001-100-D00-0
 62
     7
370
    50
100
AcDbCircle
 10
-89.235684
 20
401.570616
 30
0.0
 40
1.000000000000167
100
AcDbArc
 50
66.037511
 51
90.0
  0
LINE
  5
407
330
1F
100
AcDbEntity
  8
LC-001-100-D00-0
 62
     7
370
    50
100
AcDbLine
 10
-87.961193
 20
402.098493
 30
0.0
 11
-88.829546
 21
402.484427
 31
0.0
  0
LINE
  5
408
330
1F
100
AcDbEntity
  8
LC-001-100-D00-0
 62
     7
370
    50
100
AcDbLine
 10
-95.023468
 20
398.570616
 30
0.0
 11
-95.023468
 21
402.570615
 31
0.0
  0
LINE
  5
409
330
1F
100
AcDbEntity
  8
LC-001-100-D00-0
 62
     7
370
    50
100
AcDbLine
 10
-89.235684
 20
402.570616
 30
0.0
 11
-95.023468
 21
402.570615
 31
0.0
  0
LINE
  5
40A
330
1F
100
AcDbEntity
  8
LC-001-100-D00-0
 62
     7
370
    50
100
AcDbLine
 10
-89.02347
 20
398.570616
 30
0.0
 11
-95.023468
 21
398.570616
 31
0.0
  0
LINE
  5
40B
330
1F
100
AcDbEntity
  8
LC-001-100-D00-0
 62
     7
370
    50
100
AcDbLine
 10
43.976531
 20
402.570615
 30
0.0
 11
43.976531
 21
378.820617
 31
0.0
  0
LINE
  5
40C
330
1F
100
AcDbEntity
  8
LC-001-100-D00-0
 62
     7
370
    50
100
AcDbLine
 10
40.976532
 20
399.570616
 30
0.0
 11
40.97653
 21
378.820616
 31
0.0
  0
LINE
  5
40D
330
1F
100
AcDbEntity
  8
LC-001-100-D00-0
 62
     7
370
    50
100
AcDbLine
 10
37.976534
 20
399.570616
 30
0.0
 11
37.976534
 21
395.570614
 31
0.0
  0
LINE
  5
40E
330
1F
100
AcDbEntity
  8
LC-001-100-D00-0
 62
     7
370
    50
100
AcDbLine
 10
31.97653
 20
395.570616
 30
0.0
 11
37.976534
 21
395.570614
 31
0.0
  0
LINE
  5
40F
330
1F
100
AcDbEntity
  8
LC-001-100-D00-0
 62
     7
370
    50
100
AcDbLine
 10
31.976529
 20
398.570616
 30
0.0
 11
31.97653
 21
395.570616
 31
0.0
  0
LINE
  5
410
330
1F
100
AcDbEntity
  8
LC-001-100-D00-0
 62
     7
370
    50
100
AcDbLine
 10
34.976528
 20
398.570616
 30
0.0
 11
31.976529
 21
398.570616
 31
0.0
  0
LINE
  5
411
330
1F
100
AcDbEntity
  8
LC-001-100-D00-0
 62
     7
370
    50
100
AcDbLine
 10
34.976528
 20
398.570616
 30
0.0
 11
34.976528
 21
402.570615
 31
0.0
  0
LINE
  5
412
330
1F
100
AcDbEntity
  8
LC-001-100-D00-0
 62
     7
370
    50
100
AcDbLine
 10
37.976534
 20
399.570616
 30
0.0
 11
40.976532
 21
399.570616
 31
0.0
  0
LINE
  5
413
330
1F
100
AcDbEntity
  8
LC-001-100-D00-0
 62
     7
370
    50
100
AcDbLine
 10
40.97653
 20
378.820616
 30
0.0
 11
43.976531
 21
378.820617
 31
0.0
  0
LINE
  5
414
330
1F
100
AcDbEntity
  8
LC-001-100-D00-0
 62
     7
370
    50
100
AcDbLine
 10
43.976531
 20
402.570615
 30
0.0
 11
34.976528
 21
402.570615
 31
0.0
  0
LINE
  5
415
330
1F
100
AcDbEntity
  8
LC-001-100-D00-0
 62
     7
370
    50
100
AcDbLine
 10
20.276937
 20
378.820616
 30
0.0
 11
40.97653
 21
378.820616
 31
0.0
  0
LINE
  5
416
330
1F
100
AcDbEntity
  8
LC-001-100-D00-0
 62
     7
370
    50
100
AcDbLine
 10
25.22653
 20
395.570616
 30
0.0
 11
31.97653
 21
395.570616
 31
0.0
  0
LINE
  5
417
330
1F
100
AcDbEntity
  8
LC-001-100-D00-0
 62
     7
370
    50
100
AcDbLine
 10
-92.02347
 20
395.570616
 30
0.0
 11
-92.023469
 21
398.570616
 31
0.0
  0
LINE
  5
418
330
1F
100
AcDbEntity
  8
LC-001-100-D00-0
 62
     7
370
    50
100
AcDbLine
 10
-92.02347
 20
395.570616
 30
0.0
 11
-85.27347
 21
395.570616
 31
0.0
  0
LINE
  5
419
330
1F
100
AcDbEntity
  8
LC-001-100-D00-0
 62
     7
370
    50
100
AcDbLine
 10
-95.023468
 20
402.570615
 30
0.0
 11
-95.023468
 21
398.570616
 31
0.0
  0
LINE
  5
41A
330
1F
100
AcDbEntity
  8
LC-001-100-D00-0
 62
     7
370
    50
100
AcDbLine
 10
-98.023474
 20
395.570614
 30
0.0
 11
-98.023474
 21
399.570616
 31
0.0
  0
LINE
  5
41B
330
1F
100
AcDbEntity
  8
LC-001-100-D00-0
 62
     7
370
    50
100
AcDbLine
 10
-101.02347
 20
378.820616
 30
0.0
 11
-101.023472
 21
399.570616
 31
0.0
  0
LINE
  5
41C
330
1F
100
AcDbEntity
  8
LC-001-100-D00-0
 62
     7
370
    50
100
AcDbLine
 10
-101.02347
 20
378.820616
 30
0.0
 11
-80.323877
 21
378.820616
 31
0.0
  0
LINE
  5
41D
330
1F
100
AcDbEntity
  8
LC-001-100-D00-0
 62
     7
370
    50
100
AcDbLine
 10
-104.023471
 20
378.820617
 30
0.0
 11
-104.023471
 21
402.570615
 31
0.0
  0
LINE
  5
41E
330
1F
100
AcDbEntity
  8
LC-001-100-D00-0
 62
     7
370
    50
100
AcDbLine
 10
-92.023469
 20
398.570616
 30
0.0
 11
-95.023468
 21
398.570616
 31
0.0
  0
LINE
  5
41F
330
1F
100
AcDbEntity
  8
LC-001-100-D00-0
 62
     7
370
    50
100
AcDbLine
 10
-98.023474
 20
395.570614
 30
0.0
 11
-92.02347
 21
395.570616
 31
0.0
  0
LINE
  5
420
330
1F
100
AcDbEntity
  8
LC-001-100-D00-0
 62
     7
370
    50
100
AcDbLine
 10
-101.023472
 20
399.570616
 30
0.0
 11
-98.023474
 21
399.570616
 31
0.0
  0
LINE
  5
421
330
1F
100
AcDbEntity
  8
LC-001-100-D00-0
 62
     7
370
    50
100
AcDbLine
 10
-104.023471
 20
378.820617
 30
0.0
 11
-101.02347
 21
378.820616
 31
0.0
  0
LINE
  5
422
330
1F
100
AcDbEntity
  8
LC-001-100-D00-0
 62
     7
370
    50
100
AcDbLine
 10
-95.023468
 20
402.570615
 30
0.0
 11
-104.023471
 21
402.570615
 31
0.0
  0
LINE
  5
423
330
1F
100
AcDbEntity
  8
LC-001-100-D00-0
 62
     7
370
    50
100
AcDbLine
 10
11.965655
 20
378.820616
 30
0.0
 11
20.276937
 21
378.820616
 31
0.0
  0
LINE
  5
424
330
1F
100
AcDbEntity
  8
LC-001-100-D00-0
 62
     7
370
    50
100
AcDbLine
 10
-80.323877
 20
378.820616
 30
0.0
 11
-72.012595
 21
378.820616
 31
0.0
  0
LINE
  5
425
330
1F
100
AcDbEntity
  8
LC-001-100-D00-0
 62
     7
370
    50
100
AcDbLine
 10
-72.012595
 20
378.820616
 30
0.0
 11
-71.023471
 21
378.820617
 31
0.0
  0
LINE
  5
426
330
1F
100
AcDbEntity
  8
LC-001-100-D00-0
 62
     7
370
    50
100
AcDbLine
 10
10.976531
 20
378.820617
 30
0.0
 11
11.965655
 21
378.820616
 31
0.0
  0
LINE
  5
427
330
1F
100
AcDbEntity
  8
LC-001-100-D00-0
 62
     7
370
    50
100
AcDbLine
 10
43.976531
 20
378.070616
 30
0.0
 11
54.976531
 21
378.070616
 31
0.0
  0
LINE
  5
428
330
1F
100
AcDbEntity
  8
LC-001-100-D00-0
 62
     7
370
    50
100
AcDbLine
 10
54.976531
 20
326.070615
 30
0.0
 11
43.976531
 21
326.070615
 31
0.0
  0
LINE
  5
429
330
1F
100
AcDbEntity
  8
LC-001-100-D00-0
 62
     7
370
    50
100
AcDbLine
 10
43.976531
 20
378.820617
 30
0.0
 11
43.976531
 21
378.070616
 31
0.0
  0
INSERT
  5
43A
330
1F
100
AcDbEntity
  8
LC-001-100-D00-0
 62
     7
370
    50
100
AcDbBlockReference
  2
KLON15
 10
0.0
 20
0.0
 30
0.0
  0
INSERT
  5
44E
330
1F
100
AcDbEntity
  8
LC-001-100-D00-0
 62
     7
370
    50
100
AcDbBlockReference
  2
KLON16
 10
0.0
 20
0.0
 30
0.0
  0
LINE
  5
44F
330
1F
100
AcDbEntity
  8
LC-001-100-D00-0
 62
     7
370
    50
100
AcDbLine
 10
40.976532
 20
375.070617
 30
0.0
 11
82.873716
 21
375.070616
 31
0.0
  0
LINE
  5
450
330
1F
100
AcDbEntity
  8
LC-001-100-D00-0
 62
     7
370
    50
100
AcDbLine
 10
82.873716
 20
329.070616
 30
0.0
 11
82.873716
 21
375.070616
 31
0.0
  0
LINE
  5
451
330
1F
100
AcDbEntity
  8
LC-001-100-D00-0
 62
     7
370
    50
100
AcDbLine
 10
82.873716
 20
329.070616
 30
0.0
 11
43.976531
 21
329.070613
 31
0.0
  0
INSERT
  5
457
330
1F
100
AcDbEntity
  8
LC-001-100-D00-0
 62
     7
370
    50
100
AcDbBlockReference
  2
KLON17
 10
0.0
 20
0.0
 30
0.0
  0
LINE
  5
458
330
1F
100
AcDbEntity
  8
LC-001-100-D00-0
 62
     7
370
    50
100
AcDbLine
 10
40.97653
 20
378.820616
 30
0.0
 11
20.276937
 21
378.820616
 31
0.0
  0
LINE
  5
459
330
1F
100
AcDbEntity
  8
LC-001-100-D00-0
 62
     7
370
    50
100
AcDbLine
 10
40.97653
 20
378.820616
 30
0.0
 11
40.976532
 21
375.070617
 31
0.0
  0
LINE
  5
45A
330
1F
100
AcDbEntity
  8
LC-001-100-D00-0
 62
     7
370
    50
100
AcDbLine
 10
30.97653
 20
326.070616
 30
0.0
 11
43.976531
 21
326.070615
 31
0.0
  0
ARC
  5
45B
330
1F
100
AcDbEntity
  8
LC-001-100-D00-0
 62
     7
370
    50
100
AcDbCircle
 10
23.99441
 20
326.570616
 30
0.0
 40
7.0
100
AcDbArc
 50
270.0
 51
355.903956
  0
LINE
  5
45C
330
1F
100
AcDbEntity
  8
LC-001-100-D00-0
 62
     7
370
    50
100
AcDbLine
 10
23.99441
 20
319.570616
 30
0.0
 11
-84.04135
 21
319.570616
 31
0.0
  0
ARC
  5
45D
330
1F
100
AcDbEntity
  8
LC-001-100-D00-0
 62
     7
370
    50
100
AcDbCircle
 10
-84.04135
 20
326.570616
 30
0.0
 40
7.000000000000056
100
AcDbArc
 50
184.096044
 51
270.0
  0
LINE
  5
45E
330
1F
100
AcDbEntity
  8
LC-001-100-D00-0
 62
     7
370
    50
100
AcDbLine
 10
-91.52347
 20
326.070616
 30
0.0
 11
-91.02347
 21
326.070616
 31
0.0
  0
ARC
  5
45F
330
1F
100
AcDbEntity
  8
LC-001-100-D00-0
 62
     7
370
    50
100
AcDbCircle
 10
-91.52347
 20
338.570616
 30
0.0
 40
12.5
100
AcDbArc
 50
180.0
 51
270.0
  0
LINE
  5
460
330
1F
100
AcDbEntity
  8
LC-001-100-D00-0
 62
     7
370
    50
100
AcDbLine
 10
-104.02347
 20
338.570616
 30
0.0
 11
-104.023471
 21
378.820617
 31
0.0
  0
LINE
  5
461
330
1F
100
AcDbEntity
  8
LC-001-100-D00-0
 62
     7
370
    50
100
AcDbLine
 10
-104.023471
 20
378.820617
 30
0.0
 11
-101.02347
 21
378.820616
 31
0.0
  0
LINE
  5
462
330
1F
100
AcDbEntity
  8
LC-001-100-D00-0
 62
     7
370
    50
100
AcDbLine
 10
-101.02347
 20
338.570616
 30
0.0
 11
-101.02347
 21
378.820616
 31
0.0
  0
ARC
  5
463
330
1F
100
AcDbEntity
  8
LC-001-100-D00-0
 62
     7
370
    50
100
AcDbCircle
 10
-91.52347
 20
338.570616
 30
0.0
 40
9.5
100
AcDbArc
 50
180.0
 51
270.0
  0
LINE
  5
464
330
1F
100
AcDbEntity
  8
LC-001-100-D00-0
 62
     7
370
    50
100
AcDbLine
 10
-91.52347
 20
329.070616
 30
0.0
 11
-89.02347
 21
329.070616
 31
0.0
  0
ARC
  5
465
330
1F
100
AcDbEntity
  8
LC-001-100-D00-0
 62
     7
370
    50
100
AcDbCircle
 10
-89.02347
 20
328.070616
 30
0.0
 40
1.000000000000114
100
AcDbArc
 50
0.0
 51
90.0
  0
LINE
  5
466
330
1F
100
AcDbEntity
  8
LC-001-100-D00-0
 62
     7
370
    50
100
AcDbLine
 10
-88.02347
 20
328.070616
 30
0.0
 11
-88.02347
 21
326.570616
 31
0.0
  0
ARC
  5
467
330
1F
100
AcDbEntity
  8
LC-001-100-D00-0
 62
     7
370
    50
100
AcDbCircle
 10
-84.02347
 20
326.570616
 30
0.0
 40
3.999999999999886
100
AcDbArc
 50
180.0
 51
270.0
  0
LINE
  5
468
330
1F
100
AcDbEntity
  8
LC-001-100-D00-0
 62
     7
370
    50
100
AcDbLine
 10
23.97653
 20
322.570616
 30
0.0
 11
-84.02347
 21
322.570616
 31
0.0
  0
ARC
  5
469
330
1F
100
AcDbEntity
  8
LC-001-100-D00-0
 62
     7
370
    50
100
AcDbCircle
 10
23.97653
 20
326.570616
 30
0.0
 40
4.0
100
AcDbArc
 50
270.0
 51
0.0
  0
LINE
  5
46A
330
1F
100
AcDbEntity
  8
LC-001-100-D00-0
 62
     7
370
    50
100
AcDbLine
 10
27.97653
 20
326.570616
 30
0.0
 11
27.97653
 21
328.070616
 31
0.0
  0
ARC
  5
46B
330
1F
100
AcDbEntity
  8
LC-001-100-D00-0
 62
     7
370
    50
100
AcDbCircle
 10
28.97653
 20
328.070616
 30
0.0
 40
1.0
100
AcDbArc
 50
90.0
 51
180.0
  0
LINE
  5
46C
330
1F
100
AcDbEntity
  8
LC-001-100-D00-0
 62
     7
370
    50
100
AcDbLine
 10
28.97653
 20
329.070616
 30
0.0
 11
43.976531
 21
329.070613
 31
0.0
  0
LINE
  5
46D
330
1F
100
AcDbEntity
  8
LC-001-100-D00-0
 62
     7
370
    50
100
AcDbLine
 10
88.473716
 20
327.5701
 30
0.0
 11
82.873716
 21
329.070616
 31
0.0
  0
LINE
  5
46E
330
1F
100
AcDbEntity
  8
LC-001-100-D00-0
 62
     7
370
    50
100
AcDbLine
 10
88.473716
 20
327.136361
 30
0.0
 11
88.473716
 21
327.5701
 31
0.0
  0
ARC
  5
46F
330
1F
100
AcDbEntity
  8
LC-001-100-D00-0
 62
     7
370
    50
100
AcDbCircle
 10
87.973758
 20
327.136361
 30
0.0
 40
0.4999578796799692
100
AcDbArc
 50
301.198872
 51
0.0
  0
ARC
  5
470
330
1F
100
AcDbEntity
  8
LC-001-100-D00-0
 62
     7
370
    50
100
AcDbCircle
 10
72.875034
 20
352.068426
 30
0.0
 40
29.64750216706083
100
AcDbArc
 50
292.382556
 51
301.198872
  0
ARC
  5
471
330
1F
100
AcDbEntity
  8
LC-001-100-D00-0
 62
     7
370
    50
100
AcDbCircle
 10
83.974094
 20
325.116799
 30
0.0
 40
0.4999578796800961
100
AcDbArc
 50
180.0
 51
292.382556
  0
LINE
  5
472
330
1F
100
AcDbEntity
  8
LC-001-100-D00-0
 62
     7
370
    50
100
AcDbLine
 10
83.474136
 20
326.420658
 30
0.0
 11
83.474136
 21
325.116799
 31
0.0
  0
ARC
  5
473
330
1F
100
AcDbEntity
  8
LC-001-100-D00-0
 62
     7
370
    50
100
AcDbCircle
 10
82.974179
 20
326.420658
 30
0.0
 40
0.4999578796800961
100
AcDbArc
 50
0.0
 51
90.0
  0
LINE
  5
474
330
1F
100
AcDbEntity
  8
LC-001-100-D00-0
 62
     7
370
    50
100
AcDbLine
 10
79.474473
 20
326.920616
 30
0.0
 11
82.974179
 21
326.920616
 31
0.0
  0
ARC
  5
475
330
1F
100
AcDbEntity
  8
LC-001-100-D00-0
 62
     7
370
    50
100
AcDbCircle
 10
79.474473
 20
326.420658
 30
0.0
 40
0.4999578796800961
100
AcDbArc
 50
90.0
 51
180.0
  0
LINE
  5
476
330
1F
100
AcDbEntity
  8
LC-001-100-D00-0
 62
     7
370
    50
100
AcDbLine
 10
78.974515
 20
323.463797
 30
0.0
 11
78.974515
 21
326.420658
 31
0.0
  0
ARC
  5
477
330
1F
100
AcDbEntity
  8
LC-001-100-D00-0
 62
     7
370
    50
100
AcDbCircle
 10
78.474558
 20
323.463797
 30
0.0
 40
0.499957879680312
100
AcDbArc
 50
281.075925
 51
0.0
  0
ARC
  5
478
330
1F
100
AcDbEntity
  8
LC-001-100-D00-0
 62
     7
370
    50
100
AcDbCircle
 10
72.875034
 20
352.068426
 30
0.0
 40
29.64750432250037
100
AcDbArc
 50
241.270296
 51
281.075925
  0
LINE
  5
479
330
1F
100
AcDbEntity
  8
LC-001-100-D00-0
 62
     7
370
    50
100
AcDbLine
 10
57.476327
 20
326.070615
 30
0.0
 11
58.624125
 21
326.070616
 31
0.0
  0
LINE
  5
47A
330
1F
100
AcDbEntity
  8
LC-001-100-D00-0
 62
     7
370
    50
100
AcDbLine
 10
57.476327
 20
324.570619
 30
0.0
 11
57.476327
 21
326.070615
 31
0.0
  0
LINE
  5
47B
330
1F
100
AcDbEntity
  8
LC-001-100-D00-0
 62
     7
370
    50
100
AcDbLine
 10
54.976531
 20
324.570619
 30
0.0
 11
57.476327
 21
324.570619
 31
0.0
  0
LINE
  5
47C
330
1F
100
AcDbEntity
  8
LC-001-100-D00-0
 62
     7
370
    50
100
AcDbLine
 10
54.976531
 20
326.070615
 30
0.0
 11
54.976531
 21
324.570619
 31
0.0
  0
ARC
  5
47D
330
1F
100
AcDbEntity
  8
LC-001-100-D00-0
 62
     7
370
    50
100
AcDbCircle
 10
72.875034
 20
352.072806
 30
0.0
 40
29.64750216706094
100
AcDbArc
 50
58.801128
 51
67.617444
  0
ARC
  5
47E
330
1F
100
AcDbEntity
  8
LC-001-100-D00-0
 62
     7
370
    50
100
AcDbCircle
 10
87.973758
 20
377.004871
 30
0.0
 40
0.4999578796799824
100
AcDbArc
 50
0.0
 51
58.801128
  0
ARC
  5
47F
330
1F
100
AcDbEntity
  8
LC-001-100-D00-0
 62
     7
370
    50
100
AcDbCircle
 10
82.974179
 20
377.720574
 30
0.0
 40
0.4999578796798687
100
AcDbArc
 50
270.0
 51
0.0
  0
LINE
  5
480
330
1F
100
AcDbEntity
  8
LC-001-100-D00-0
 62
     7
370
    50
100
AcDbLine
 10
83.474136
 20
379.024433
 30
0.0
 11
83.474136
 21
377.720574
 31
0.0
  0
ARC
  5
481
330
1F
100
AcDbEntity
  8
LC-001-100-D00-0
 62
     7
370
    50
100
AcDbCircle
 10
83.974094
 20
379.024433
 30
0.0
 40
0.4999578796797767
100
AcDbArc
 50
67.617444
 51
180.0
  0
LINE
  5
482
330
1F
100
AcDbEntity
  8
LC-001-100-D00-0
 62
     7
370
    50
100
AcDbLine
 10
88.473716
 20
376.571131
 30
0.0
 11
88.473716
 21
377.004871
 31
0.0
  0
LINE
  5
483
330
1F
100
AcDbEntity
  8
LC-001-100-D00-0
 62
     7
370
    50
100
AcDbLine
 10
82.873716
 20
375.070616
 30
0.0
 11
88.473716
 21
376.571131
 31
0.0
  0
LINE
  5
484
330
1F
100
AcDbEntity
  8
LC-001-100-D00-0
 62
     7
370
    50
100
AcDbLine
 10
40.97653
 20
378.820616
 30
0.0
 11
43.976531
 21
378.820617
 31
0.0
  0
LINE
  5
485
330
1F
100
AcDbEntity
  8
LC-001-100-D00-0
 62
     7
370
    50
100
AcDbLine
 10
54.976531
 20
379.570615
 30
0.0
 11
54.976531
 21
378.070616
 31
0.0
  0
LINE
  5
486
330
1F
100
AcDbEntity
  8
LC-001-100-D00-0
 62
     7
370
    50
100
AcDbLine
 10
57.476327
 20
379.570616
 30
0.0
 11
54.976531
 21
379.570615
 31
0.0
  0
ARC
  5
487
330
1F
100
AcDbEntity
  8
LC-001-100-D00-0
 62
     7
370
    50
100
AcDbCircle
 10
72.838618
 20
352.070616
 30
0.0
 40
31.49999999999995
100
AcDbArc
 50
105.394857
 51
119.188982
  0
LINE
  5
488
330
1F
100
AcDbEntity
  8
LC-001-100-D00-0
 62
     7
370
    50
100
AcDbLine
 10
64.476327
 20
382.440372
 30
0.0
 11
64.476327
 21
380.505819
 31
0.0
  0
ARC
  5
489
330
1F
100
AcDbEntity
  8
LC-001-100-D00-0
 62
     7
370
    50
100
AcDbCircle
 10
72.875034
 20
352.072806
 30
0.0
 40
29.6475043225003
100
AcDbArc
 50
78.924075
 51
106.456389
  0
ARC
  5
48A
330
1F
100
AcDbEntity
  8
LC-001-100-D00-0
 62
     7
370
    50
100
AcDbCircle
 10
78.474558
 20
380.677435
 30
0.0
 40
0.4999578796802098
100
AcDbArc
 50
0.0
 51
78.924075
  0
LINE
  5
48B
330
1F
100
AcDbEntity
  8
LC-001-100-D00-0
 62
     7
370
    50
100
AcDbLine
 10
78.974515
 20
377.720574
 30
0.0
 11
78.974515
 21
380.677435
 31
0.0
  0
ARC
  5
48C
330
1F
100
AcDbEntity
  8
LC-001-100-D00-0
 62
     7
370
    50
100
AcDbCircle
 10
79.474473
 20
377.720574
 30
0.0
 40
0.4999578796798687
100
AcDbArc
 50
180.0
 51
270.0
  0
LINE
  5
48D
330
1F
100
AcDbEntity
  8
LC-001-100-D00-0
 62
     7
370
    50
100
AcDbLine
 10
82.974179
 20
377.220616
 30
0.0
 11
79.474473
 21
377.220616
 31
0.0
  0
LINE
  5
48E
330
1F
100
AcDbEntity
  8
LC-001-100-D00-0
 62
     7
370
    50
100
AcDbLine
 10
88.473716
 20
376.571131
 30
0.0
 11
88.473716
 21
327.5701
 31
0.0
  0
LINE
  5
48F
330
1F
100
AcDbEntity
  8
LC-001-100-D00-0
 62
     7
370
    50
100
AcDbLine
 10
14.41015
 20
329.070616
 30
0.0
 11
28.97653
 21
329.070616
 31
0.0
  0
LINE
  5
490
330
1F
100
AcDbEntity
  8
LC-001-100-D00-0
 62
     7
370
    50
100
AcDbLine
 10
-89.02347
 20
329.070616
 30
0.0
 11
-74.45709
 21
329.070616
 31
0.0
  0
LINE
  5
491
330
1F
100
AcDbEntity
  8
LC-001-100-D00-0
 62
     7
370
    50
100
AcDbLine
 10
-80.323877
 20
378.820616
 30
0.0
 11
-101.02347
 21
378.820616
 31
0.0
  0
LINE
  5
492
330
1F
100
AcDbEntity
  8
LC-001-100-D00-0
 62
     7
370
    50
100
AcDbLine
 10
11.965655
 20
329.070616
 30
0.0
 11
14.41015
 21
329.070616
 31
0.0
  0
LINE
  5
493
330
1F
100
AcDbEntity
  8
LC-001-100-D00-0
 62
     7
370
    50
100
AcDbLine
 10
-74.45709
 20
329.070616
 30
0.0
 11
-72.012595
 21
329.070616
 31
0.0
  0
LINE
  5
494
330
1F
100
AcDbEntity
  8
LC-001-100-D00-0
 62
     7
370
    50
100
AcDbLine
 10
-72.012595
 20
329.070616
 30
0.0
 11
-71.023471
 21
329.070613
 31
0.0
  0
LINE
  5
495
330
1F
100
AcDbEntity
  8
LC-001-100-D00-0
 62
     7
370
    50
100
AcDbLine
 10
10.976531
 20
329.070613
 30
0.0
 11
11.965655
 21
329.070616
 31
0.0
  0
LINE
  5
496
330
1F
100
AcDbEntity
  8
LC-001-100-D00-0
 62
     7
370
    50
100
AcDbLine
 10
20.276937
 20
378.820616
 30
0.0
 11
11.965655
 21
378.820616
 31
0.0
  0
LINE
  5
497
330
1F
100
AcDbEntity
  8
LC-001-100-D00-0
 62
     7
370
    50
100
AcDbLine
 10
-72.012595
 20
378.820616
 30
0.0
 11
-80.323877
 21
378.820616
 31
0.0
  0
LINE
  5
498
330
1F
100
AcDbEntity
  8
LC-001-100-D00-0
 62
     7
370
    50
100
AcDbLine
 10
11.965655
 20
378.820616
 30
0.0
 11
10.976531
 21
378.820617
 31
0.0
  0
LINE
  5
499
330
1F
100
AcDbEntity
  8
LC-001-100-D00-0
 62
     7
370
    50
100
AcDbLine
 10
-71.023471
 20
378.820617
 30
0.0
 11
-72.012595
 21
378.820616
 31
0.0
  0
CIRCLE
  5
49A
330
1F
100
AcDbEntity
  8
LC-001-100-D00-0
 62
     7
370
    50
100
AcDbCircle
 10
24.22653
 20
400.320616
 30
0.0
 40
1.75
  0
CIRCLE
  5
49B
330
1F
100
AcDbEntity
  8
LC-001-100-D00-0
 62
     7
370
    50
100
AcDbCircle
 10
-84.27347
 20
400.320616
 30
0.0
 40
1.750000000000114
  0
LINE
  5
49C
330
1F
100
AcDbEntity
  8
LC-001-100-D00-0
 62
     7
370
    50
100
AcDbLine
 10
24.476529
 20
402.070616
 30
0.0
 11
24.476529
 21
403.570615
 31
0.0
  0
LINE
  5
49D
330
1F
100
AcDbEntity
  8
LC-001-100-D00-0
 62
     7
370
    50
100
AcDbLine
 10
22.476528
 20
402.070616
 30
0.0
 11
24.476529
 21
402.070616
 31
0.0
  0
LINE
  5
49E
330
1F
100
AcDbEntity
  8
LC-001-100-D00-0
 62
     7
370
    50
100
AcDbLine
 10
22.476528
 20
402.070616
 30
0.0
 11
22.476528
 21
398.570616
 31
0.0
  0
LINE
  5
49F
330
1F
100
AcDbEntity
  8
LC-001-100-D00-0
 62
     7
370
    50
100
AcDbLine
 10
22.476528
 20
398.570616
 30
0.0
 11
24.476529
 21
398.570616
 31
0.0
  0
LINE
  5
4A0
330
1F
100
AcDbEntity
  8
LC-001-100-D00-0
 62
     7
370
    50
100
AcDbLine
 10
24.476529
 20
398.570616
 30
0.0
 11
24.476529
 21
397.570614
 31
0.0
  0
LINE
  5
4A1
330
1F
100
AcDbEntity
  8
LC-001-100-D00-0
 62
     7
370
    50
100
AcDbLine
 10
8.97653
 20
397.570616
 30
0.0
 11
24.476529
 21
397.570614
 31
0.0
  0
ARC
  5
4A2
330
1F
100
AcDbEntity
  8
LC-001-100-D00-0
 62
     7
370
    50
100
AcDbCircle
 10
8.97653
 20
387.570616
 30
0.0
 40
10.00000000000046
100
AcDbArc
 50
90.0
 51
180.0
  0
LINE
  5
4A3
330
1F
100
AcDbEntity
  8
LC-001-100-D00-0
 62
     7
370
    50
100
AcDbLine
 10
-1.02347
 20
387.570616
 30
0.0
 11
-1.023471
 21
337.670617
 31
0.0
  0
LINE
  5
4A4
330
1F
100
AcDbEntity
  8
LC-001-100-D00-0
 62
     7
370
    50
100
AcDbLine
 10
-2.52347
 20
337.670616
 30
0.0
 11
-1.023471
 21
337.670617
 31
0.0
  0
LINE
  5
4A5
330
1F
100
AcDbEntity
  8
LC-001-100-D00-0
 62
     7
370
    50
100
AcDbLine
 10
-2.52347
 20
401.570616
 30
0.0
 11
-2.52347
 21
337.670616
 31
0.0
  0
ARC
  5
4A6
330
1F
100
AcDbEntity
  8
LC-001-100-D00-0
 62
     7
370
    50
100
AcDbCircle
 10
-0.52347
 20
401.570616
 30
0.0
 40
2.0
100
AcDbArc
 50
90.0
 51
180.0
  0
LINE
  5
4A7
330
1F
100
AcDbEntity
  8
LC-001-100-D00-0
 62
     7
370
    50
100
AcDbLine
 10
-0.52347
 20
403.570616
 30
0.0
 11
24.476529
 21
403.570615
 31
0.0
  0
LINE
  5
4A8
330
1F
100
AcDbEntity
  8
LC-001-100-D00-0
 62
     7
370
    50
100
AcDbLine
 10
-18.52347
 20
403.570616
 30
0.0
 11
-0.52347
 21
403.570616
 31
0.0
  0
LINE
  5
4A9
330
1F
100
AcDbEntity
  8
LC-001-100-D00-0
 62
     7
370
    50
100
AcDbLine
 10
-18.52347
 20
337.670616
 30
0.0
 11
-2.52347
 21
337.670616
 31
0.0
  0
LINE
  5
4AA
330
1F
100
AcDbEntity
  8
LC-001-100-D00-0
 62
     7
370
    50
100
AcDbLine
 10
-59.023469
 20
337.670617
 30
0.0
 11
-59.02347
 21
387.570616
 31
0.0
  0
ARC
  5
4AB
330
1F
100
AcDbEntity
  8
LC-001-100-D00-0
 62
     7
370
    50
100
AcDbCircle
 10
-59.52347
 20
401.570616
 30
0.0
 40
2.0
100
AcDbArc
 50
0.0
 51
90.0
  0
LINE
  5
4AC
330
1F
100
AcDbEntity
  8
LC-001-100-D00-0
 62
     7
370
    50
100
AcDbLine
 10
-59.52347
 20
403.570616
 30
0.0
 11
-41.52347
 21
403.570616
 31
0.0
  0
LINE
  5
4AD
330
1F
100
AcDbEntity
  8
LC-001-100-D00-0
 62
     7
370
    50
100
AcDbLine
 10
-57.52347
 20
337.670616
 30
0.0
 11
-57.52347
 21
401.570616
 31
0.0
  0
LINE
  5
4AE
330
1F
100
AcDbEntity
  8
LC-001-100-D00-0
 62
     7
370
    50
100
AcDbLine
 10
-57.52347
 20
337.670616
 30
0.0
 11
-41.52347
 21
337.670616
 31
0.0
  0
ARC
  5
4AF
330
1F
100
AcDbEntity
  8
LC-001-100-D00-0
 62
     7
370
    50
100
AcDbCircle
 10
-69.02347
 20
387.570616
 30
0.0
 40
10.00000000000034
100
AcDbArc
 50
0.0
 51
90.0
  0
LINE
  5
4B0
330
1F
100
AcDbEntity
  8
LC-001-100-D00-0
 62
     7
370
    50
100
AcDbLine
 10
-84.523469
 20
397.570614
 30
0.0
 11
-84.523469
 21
398.570616
 31
0.0
  0
LINE
  5
4B1
330
1F
100
AcDbEntity
  8
LC-001-100-D00-0
 62
     7
370
    50
100
AcDbLine
 10
-82.523468
 20
398.570616
 30
0.0
 11
-82.523468
 21
402.070616
 31
0.0
  0
LINE
  5
4B2
330
1F
100
AcDbEntity
  8
LC-001-100-D00-0
 62
     7
370
    50
100
AcDbLine
 10
-84.523469
 20
403.570615
 30
0.0
 11
-84.523469
 21
402.070616
 31
0.0
  0
LINE
  5
4B3
330
1F
100
AcDbEntity
  8
LC-001-100-D00-0
 62
     7
370
    50
100
AcDbLine
 10
-59.023469
 20
337.670617
 30
0.0
 11
-57.52347
 21
337.670616
 31
0.0
  0
LINE
  5
4B4
330
1F
100
AcDbEntity
  8
LC-001-100-D00-0
 62
     7
370
    50
100
AcDbLine
 10
-84.523469
 20
398.570616
 30
0.0
 11
-82.523468
 21
398.570616
 31
0.0
  0
LINE
  5
4B5
330
1F
100
AcDbEntity
  8
LC-001-100-D00-0
 62
     7
370
    50
100
AcDbLine
 10
-84.523469
 20
402.070616
 30
0.0
 11
-82.523468
 21
402.070616
 31
0.0
  0
LINE
  5
4B6
330
1F
100
AcDbEntity
  8
LC-001-100-D00-0
 62
     7
370
    50
100
AcDbLine
 10
-84.523469
 20
397.570614
 30
0.0
 11
-69.02347
 21
397.570616
 31
0.0
  0
LINE
  5
4B7
330
1F
100
AcDbEntity
  8
LC-001-100-D00-0
 62
     7
370
    50
100
AcDbLine
 10
-84.523469
 20
403.570615
 30
0.0
 11
-59.52347
 21
403.570616
 31
0.0
  0
LINE
  5
4B8
330
1F
100
AcDbEntity
  8
LC-001-100-D00-0
 62
     7
370
    50
100
AcDbLine
 10
-41.52347
 20
403.570616
 30
0.0
 11
-18.52347
 21
403.570616
 31
0.0
  0
LINE
  5
4B9
330
1F
100
AcDbEntity
  8
LC-001-100-D00-0
 62
     7
370
    50
100
AcDbLine
 10
-41.52347
 20
337.670616
 30
0.0
 11
-18.52347
 21
337.670616
 31
0.0
  0
LINE
  5
4BA
330
1F
100
AcDbEntity
  8
LC-001-100-D00-0
 62
     7
370
    50
100
AcDbLine
 10
-71.023471
 20
388.070617
 30
0.0
 11
-80.959155
 21
395.376267
 31
0.0
  0
ARC
  5
4BB
330
1F
100
AcDbEntity
  8
LC-001-100-D00-0
 62
     7
370
    50
100
AcDbCircle
 10
-81.551546
 20
394.570616
 30
0.0
 40
0.9999999999999467
100
AcDbArc
 50
53.673174
 51
90.0
  0
LINE
  5
4BC
330
1F
100
AcDbEntity
  8
LC-001-100-D00-0
 62
     7
370
    50
100
AcDbLine
 10
-85.27347
 20
395.570616
 30
0.0
 11
-81.551546
 21
395.570616
 31
0.0
  0
LINE
  5
4BD
330
1F
100
AcDbEntity
  8
LC-001-100-D00-0
 62
     7
370
    50
100
AcDbLine
 10
-85.27347
 20
395.570616
 30
0.0
 11
-85.27347
 21
397.570616
 31
0.0
  0
LINE
  5
4BE
330
1F
100
AcDbEntity
  8
LC-001-100-D00-0
 62
     7
370
    50
100
AcDbLine
 10
-85.27347
 20
397.570616
 30
0.0
 11
-81.551546
 21
397.570616
 31
0.0
  0
ARC
  5
4BF
330
1F
100
AcDbEntity
  8
LC-001-100-D00-0
 62
     7
370
    50
100
AcDbCircle
 10
-81.551546
 20
394.570616
 30
0.0
 40
3.000000000000226
100
AcDbArc
 50
53.673174
 51
90.0
  0
LINE
  5
4C0
330
1F
100
AcDbEntity
  8
LC-001-100-D00-0
 62
     7
370
    50
100
AcDbLine
 10
-79.774374
 20
396.987569
 30
0.0
 11
-69.93108
 21
389.749852
 31
0.0
  0
ARC
  5
4C1
330
1F
100
AcDbEntity
  8
LC-001-100-D00-0
 62
     7
370
    50
100
AcDbCircle
 10
-70.52347
 20
388.944201
 30
0.0
 40
1.0
100
AcDbArc
 50
0.0
 51
53.673174
  0
LINE
  5
4C2
330
1F
100
AcDbEntity
  8
LC-001-100-D00-0
 62
     7
370
    50
100
AcDbLine
 10
-69.52347
 20
327.070616
 30
0.0
 11
-69.52347
 21
388.944201
 31
0.0
  0
ARC
  5
4C3
330
1F
100
AcDbEntity
  8
LC-001-100-D00-0
 62
     7
370
    50
100
AcDbCircle
 10
-66.02347
 20
327.070616
 30
0.0
 40
3.500000000000114
100
AcDbArc
 50
180.0
 51
270.0
  0
LINE
  5
4C4
330
1F
100
AcDbEntity
  8
LC-001-100-D00-0
 62
     7
370
    50
100
AcDbLine
 10
5.97653
 20
323.570616
 30
0.0
 11
-66.02347
 21
323.570616
 31
0.0
  0
ARC
  5
4C5
330
1F
100
AcDbEntity
  8
LC-001-100-D00-0
 62
     7
370
    50
100
AcDbCircle
 10
5.97653
 20
327.070616
 30
0.0
 40
3.5
100
AcDbArc
 50
270.0
 51
0.0
  0
LINE
  5
4C6
330
1F
100
AcDbEntity
  8
LC-001-100-D00-0
 62
     7
370
    50
100
AcDbLine
 10
9.47653
 20
388.944201
 30
0.0
 11
9.47653
 21
327.070616
 31
0.0
  0
ARC
  5
4C7
330
1F
100
AcDbEntity
  8
LC-001-100-D00-0
 62
     7
370
    50
100
AcDbCircle
 10
10.47653
 20
388.944201
 30
0.0
 40
1.000000000000081
100
AcDbArc
 50
126.326826
 51
180.0
  0
LINE
  5
4C8
330
1F
100
AcDbEntity
  8
LC-001-100-D00-0
 62
     7
370
    50
100
AcDbLine
 10
19.727434
 20
396.987569
 30
0.0
 11
9.88414
 21
389.749852
 31
0.0
  0
ARC
  5
4C9
330
1F
100
AcDbEntity
  8
LC-001-100-D00-0
 62
     7
370
    50
100
AcDbCircle
 10
21.504606
 20
394.570616
 30
0.0
 40
3.000000000000227
100
AcDbArc
 50
90.0
 51
126.326826
  0
LINE
  5
4CA
330
1F
100
AcDbEntity
  8
LC-001-100-D00-0
 62
     7
370
    50
100
AcDbLine
 10
21.504606
 20
397.570616
 30
0.0
 11
25.22653
 21
397.570616
 31
0.0
  0
LINE
  5
4CB
330
1F
100
AcDbEntity
  8
LC-001-100-D00-0
 62
     7
370
    50
100
AcDbLine
 10
25.22653
 20
397.570616
 30
0.0
 11
25.22653
 21
395.570616
 31
0.0
  0
LINE
  5
4CC
330
1F
100
AcDbEntity
  8
LC-001-100-D00-0
 62
     7
370
    50
100
AcDbLine
 10
21.504606
 20
395.570616
 30
0.0
 11
25.22653
 21
395.570616
 31
0.0
  0
ARC
  5
4CD
330
1F
100
AcDbEntity
  8
LC-001-100-D00-0
 62
     7
370
    50
100
AcDbCircle
 10
21.504606
 20
394.570616
 30
0.0
 40
1.0
100
AcDbArc
 50
90.0
 51
126.326826
  0
LINE
  5
4CE
330
1F
100
AcDbEntity
  8
LC-001-100-D00-0
 62
     7
370
    50
100
AcDbLine
 10
10.976531
 20
388.070617
 30
0.0
 11
20.912215
 21
395.376267
 31
0.0
  0
LINE
  5
4CF
330
1F
100
AcDbEntity
  8
LC-001-100-D00-0
 62
     7
370
    50
100
AcDbLine
 10
10.976531
 20
388.070617
 30
0.0
 11
10.97653
 21
327.070616
 31
0.0
  0
ARC
  5
4D0
330
1F
100
AcDbEntity
  8
LC-001-100-D00-0
 62
     7
370
    50
100
AcDbCircle
 10
5.97653
 20
327.070616
 30
0.0
 40
5.0
100
AcDbArc
 50
270.0
 51
0.0
  0
LINE
  5
4D1
330
1F
100
AcDbEntity
  8
LC-001-100-D00-0
 62
     7
370
    50
100
AcDbLine
 10
5.97653
 20
322.070616
 30
0.0
 11
-66.02347
 21
322.070616
 31
0.0
  0
ARC
  5
4D2
330
1F
100
AcDbEntity
  8
LC-001-100-D00-0
 62
     7
370
    50
100
AcDbCircle
 10
-66.02347
 20
327.070616
 30
0.0
 40
5.0
100
AcDbArc
 50
180.0
 51
270.0
  0
LINE
  5
4D3
330
1F
100
AcDbEntity
  8
LC-001-100-D00-0
 62
     7
370
    50
100
AcDbLine
 10
-71.02347
 20
327.070616
 30
0.0
 11
-71.023471
 21
388.070617
 31
0.0
  0
ARC
  5
4D4
330
1F
100
AcDbEntity
  8
LC-001-100-D00-0
 62
     7
370
    50
100
AcDbCircle
 10
10.469783
 20
388.938775
 30
0.0
 40
1.000373573444815
100
AcDbArc
 50
126.325165
 51
180.0
  0
LINE
  5
4D5
330
1F
100
AcDbEntity
  8
LC-001-100-D00-0
 62
     7
370
    50
100
AcDbLine
 10
9.877194
 20
389.744744
 30
0.0
 11
9.88414
 21
389.749852
 31
0.0
  0
LINE
  5
4D6
330
1F
100
AcDbEntity
  8
LC-001-100-D00-0
 62
     7
370
    50
100
AcDbLine
 10
9.469409
 20
388.070616
 30
0.0
 11
5.055925
 21
388.070616
 31
0.0
  0
LINE
  5
4D7
330
1F
100
AcDbEntity
  8
LC-001-100-D00-0
 62
     7
370
    50
100
AcDbLine
 10
9.469409
 20
388.938833
 30
0.0
 11
9.469409
 21
388.070616
 31
0.0
  0
LINE
  5
4D8
330
1F
100
AcDbEntity
  8
LC-001-100-D00-0
 62
     7
370
    50
100
AcDbLine
 10
-69.516349
 20
388.938833
 30
0.0
 11
-69.516349
 21
388.070616
 31
0.0
  0
LINE
  5
4D9
330
1F
100
AcDbEntity
  8
LC-001-100-D00-0
 62
     7
370
    50
100
AcDbLine
 10
-65.102865
 20
388.070616
 30
0.0
 11
-69.516349
 21
388.070616
 31
0.0
  0
ARC
  5
4DA
330
1F
100
AcDbEntity
  8
LC-001-100-D00-0
 62
     7
370
    50
100
AcDbCircle
 10
-70.516696
 20
388.938788
 30
0.0
 40
1.000347039120925
100
AcDbArc
 50
0.0
 51
53.675603
  0
LINE
  5
4DB
330
1F
100
AcDbEntity
  8
LC-001-100-D00-0
 62
     7
370
    50
100
AcDbLine
 10
2.904896
 20
395.516385
 30
0.0
 11
2.904896
 21
388.070617
 31
0.0
  0
LINE
  5
4DC
330
1F
100
AcDbEntity
  8
LC-001-100-D00-0
 62
     7
370
    50
100
AcDbLine
 10
2.904895
 20
395.570616
 30
0.0
 11
9.690945
 21
395.570616
 31
0.0
  0
LINE
  5
4DD
330
1F
100
AcDbEntity
  8
LC-001-100-D00-0
 62
     7
370
    50
100
AcDbLine
 10
14.155233
 20
395.570616
 30
0.0
 11
17.800378
 21
395.570616
 31
0.0
  0
LINE
  5
4DE
330
1F
100
AcDbEntity
  8
LC-001-100-D00-0
 62
     7
370
    50
100
AcDbLine
 10
-62.951836
 20
395.516385
 30
0.0
 11
-62.951836
 21
388.070617
 31
0.0
  0
LINE
  5
4DF
330
1F
100
AcDbEntity
  8
LC-001-100-D00-0
 62
     7
370
    50
100
AcDbLine
 10
-77.847318
 20
395.570616
 30
0.0
 11
-74.202173
 21
395.570616
 31
0.0
  0
LINE
  5
4E0
330
1F
100
AcDbEntity
  8
LC-001-100-D00-0
 62
     7
370
    50
100
AcDbLine
 10
-69.737885
 20
395.570616
 30
0.0
 11
-62.951835
 21
395.570616
 31
0.0
  0
LINE
  5
4E1
330
1F
100
AcDbEntity
  8
LC-001-100-D00-0
 62
     7
370
    50
100
AcDbLine
 10
5.055925
 20
388.070616
 30
0.0
 11
-1.010962
 21
388.070616
 31
0.0
  0
LINE
  5
4E2
330
1F
100
AcDbEntity
  8
LC-001-100-D00-0
 62
     7
370
    50
100
AcDbLine
 10
-59.035978
 20
388.070616
 30
0.0
 11
-65.102865
 21
388.070616
 31
0.0
  0
ARC
  5
4E3
330
1F
100
AcDbEntity
  8
LC-001-100-D00-0
 62
     7
370
    50
100
AcDbCircle
 10
72.976327
 20
352.070616
 30
0.0
 40
32.00000000000018
100
AcDbArc
 50
51.375167
 51
90.0
  0
LINE
  5
4E4
330
1F
100
AcDbEntity
  8
LC-001-100-D00-0
 62
     7
370
    50
100
AcDbLine
 10
92.951311
 20
377.070616
 30
0.0
 11
175.976322
 21
377.070617
 31
0.0
  0
LINE
  5
4E5
330
1F
100
AcDbEntity
  8
LC-001-100-D00-0
 62
     7
370
    50
100
AcDbLine
 10
175.976322
 20
377.070617
 30
0.0
 11
179.476321
 21
376.132794
 31
0.0
  0
LINE
  5
4E6
330
1F
100
AcDbEntity
  8
LC-001-100-D00-0
 62
     7
370
    50
100
AcDbLine
 10
179.476321
 20
376.132794
 30
0.0
 11
179.476327
 21
374.820616
 31
0.0
  0
LINE
  5
4E7
330
1F
100
AcDbEntity
  8
LC-001-100-D00-0
 62
     7
370
    50
100
AcDbLine
 10
179.476327
 20
374.820616
 30
0.0
 11
91.756303
 21
374.820616
 31
0.0
  0
ARC
  5
4E8
330
1F
100
AcDbEntity
  8
LC-001-100-D00-0
 62
     7
370
    50
100
AcDbCircle
 10
72.976327
 20
352.070616
 30
0.0
 40
29.50000000000015
100
AcDbArc
 50
50.46055
 51
104.235124
  0
ARC
  5
4E9
330
1F
100
AcDbEntity
  8
LC-001-100-D00-0
 62
     7
370
    50
100
AcDbCircle
 10
65.476327
 20
381.634107
 30
0.0
 40
1.000000000000114
100
AcDbArc
 50
180.0
 51
284.235124
  0
LINE
  5
4EA
330
1F
100
AcDbEntity
  8
LC-001-100-D00-0
 62
     7
370
    50
100
AcDbLine
 10
64.476327
 20
381.634107
 30
0.0
 11
64.476327
 21
384.070617
 31
0.0
  0
LINE
  5
4EB
330
1F
100
AcDbEntity
  8
LC-001-100-D00-0
 62
     7
370
    50
100
AcDbLine
 10
64.476327
 20
384.070617
 30
0.0
 11
72.976327
 21
384.070616
 31
0.0
  0
LINE
  5
4EC
330
1F
100
AcDbEntity
  8
LC-001-100-D00-0
 62
     7
370
    50
100
AcDbLine
 10
64.476327
 20
320.070617
 30
0.0
 11
64.476327
 21
322.507125
 31
0.0
  0
ARC
  5
4ED
330
1F
100
AcDbEntity
  8
LC-001-100-D00-0
 62
     7
370
    50
100
AcDbCircle
 10
65.476327
 20
322.507125
 30
0.0
 40
1.000000000000083
100
AcDbArc
 50
75.764876
 51
180.0
  0
ARC
  5
4EE
330
1F
100
AcDbEntity
  8
LC-001-100-D00-0
 62
     7
370
    50
100
AcDbCircle
 10
72.976327
 20
352.070616
 30
0.0
 40
29.50000000000003
100
AcDbArc
 50
255.764876
 51
309.53945
  0
LINE
  5
4EF
330
1F
100
AcDbEntity
  8
LC-001-100-D00-0
 62
     7
370
    50
100
AcDbLine
 10
91.756303
 20
329.320616
 30
0.0
 11
179.476327
 21
329.320616
 31
0.0
  0
LINE
  5
4F0
330
1F
100
AcDbEntity
  8
LC-001-100-D00-0
 62
     7
370
    50
100
AcDbLine
 10
179.476327
 20
329.320616
 30
0.0
 11
179.476321
 21
328.008436
 31
0.0
  0
LINE
  5
4F1
330
1F
100
AcDbEntity
  8
LC-001-100-D00-0
 62
     7
370
    50
100
AcDbLine
 10
179.476321
 20
328.008436
 30
0.0
 11
175.976322
 21
327.070617
 31
0.0
  0
LINE
  5
4F2
330
1F
100
AcDbEntity
  8
LC-001-100-D00-0
 62
     7
370
    50
100
AcDbLine
 10
175.976322
 20
327.070617
 30
0.0
 11
92.951311
 21
327.070616
 31
0.0
  0
ARC
  5
4F3
330
1F
100
AcDbEntity
  8
LC-001-100-D00-0
 62
     7
370
    50
100
AcDbCircle
 10
72.976327
 20
352.070616
 30
0.0
 40
32.0
100
AcDbArc
 50
270.0
 51
308.624833
  0
LINE
  5
4F4
330
1F
100
AcDbEntity
  8
LC-001-100-D00-0
 62
     7
370
    50
100
AcDbLine
 10
72.976327
 20
320.070616
 30
0.0
 11
64.476327
 21
320.070617
 31
0.0
  0
LINE
  5
4F5
330
1F
100
AcDbEntity
  8
LC-001-100-D00-0
 62
     7
370
    50
100
AcDbLine
 10
179.476327
 20
374.820616
 30
0.0
 11
179.476327
 21
329.320616
 31
0.0
  0
LINE
  5
4F6
330
1F
100
AcDbEntity
  8
LC-001-100-D00-0
 62
     7
370
    50
100
AcDbLine
 10
91.756303
 20
374.820616
 30
0.0
 11
91.756303
 21
329.320616
 31
0.0
  0
LINE
  5
4F7
330
1F
100
AcDbEntity
  8
LC-001-100-D00-0
 62
     7
370
    50
100
AcDbLine
 10
64.476327
 20
323.635412
 30
0.0
 11
64.476327
 21
322.507125
 31
0.0
  0
CIRCLE
  5
4F8
330
1F
100
AcDbEntity
  8
LC-001-100-D00-0
 62
     7
370
    50
100
AcDbCircle
 10
81.224326
 20
379.070616
 30
0.0
 40
2.000000000000114
  0
CIRCLE
  5
4F9
330
1F
100
AcDbEntity
  8
LC-001-100-D00-0
 62
     7
370
    50
100
AcDbCircle
 10
81.224326
 20
325.070616
 30
0.0
 40
2.0
  0
LINE
  5
4FA
330
1F
100
AcDbEntity
  8
LC-001-100-D00-0
 62
     7
370
    50
100
AcDbLine
 10
63.318868
 20
407.48543
 30
0.0
 11
45.485196
 21
402.706912
 31
0.0
  0
ARC
  5
4FB
330
1F
100
AcDbEntity
  8
LC-001-100-D00-0
 62
     7
370
    50
100
AcDbCircle
 10
44.44992
 20
406.570616
 30
0.0
 40
4.000000000000227
100
AcDbArc
 50
270.0
 51
285.0
  0
LINE
  5
4FC
330
1F
100
AcDbEntity
  8
LC-001-100-D00-0
 62
     7
370
    50
100
AcDbLine
 10
44.44992
 20
402.570616
 30
0.0
 11
27.77653
 21
402.570616
 31
0.0
  0
ARC
  5
4FD
330
1F
100
AcDbEntity
  8
LC-001-100-D00-0
 62
     7
370
    50
100
AcDbCircle
 10
27.77653
 20
401.570616
 30
0.0
 40
1.0
100
AcDbArc
 50
90.0
 51
180.0
  0
LINE
  5
4FE
330
1F
100
AcDbEntity
  8
LC-001-100-D00-0
 62
     7
370
    50
100
AcDbLine
 10
26.77653
 20
401.570616
 30
0.0
 11
26.77653
 21
397.570614
 31
0.0
  0
LINE
  5
4FF
330
1F
100
AcDbEntity
  8
LC-001-100-D00-0
 62
     7
370
    50
100
AcDbLine
 10
26.77653
 20
397.570614
 30
0.0
 11
25.27653
 21
397.570616
 31
0.0
  0
LINE
  5
500
330
1F
100
AcDbEntity
  8
LC-001-100-D00-0
 62
     7
370
    50
100
AcDbLine
 10
25.27653
 20
401.570616
 30
0.0
 11
25.27653
 21
397.570616
 31
0.0
  0
ARC
  5
501
330
1F
100
AcDbEntity
  8
LC-001-100-D00-0
 62
     7
370
    50
100
AcDbCircle
 10
27.77653
 20
401.570616
 30
0.0
 40
2.5
100
AcDbArc
 50
90.0
 51
180.0
  0
LINE
  5
502
330
1F
100
AcDbEntity
  8
LC-001-100-D00-0
 62
     7
370
    50
100
AcDbLine
 10
44.44992
 20
404.070616
 30
0.0
 11
27.77653
 21
404.070616
 31
0.0
  0
ARC
  5
503
330
1F
100
AcDbEntity
  8
LC-001-100-D00-0
 62
     7
370
    50
100
AcDbCircle
 10
44.44992
 20
406.570616
 30
0.0
 40
2.5
100
AcDbArc
 50
270.0
 51
285.0
  0
LINE
  5
504
330
1F
100
AcDbEntity
  8
LC-001-100-D00-0
 62
     7
370
    50
100
AcDbLine
 10
62.930639
 20
408.934319
 30
0.0
 11
45.096968
 21
404.155801
 31
0.0
  0
ARC
  5
505
330
1F
100
AcDbEntity
  8
LC-001-100-D00-0
 62
     7
370
    50
100
AcDbCircle
 10
63.965915
 20
405.070616
 30
0.0
 40
4.0
100
AcDbArc
 50
90.0
 51
105.0
  0
LINE
  5
506
330
1F
100
AcDbEntity
  8
LC-001-100-D00-0
 62
     7
370
    50
100
AcDbLine
 10
63.965915
 20
409.070616
 30
0.0
 11
65.47653
 21
409.070615
 31
0.0
  0
LINE
  5
507
330
1F
100
AcDbEntity
  8
LC-001-100-D00-0
 62
     7
370
    50
100
AcDbLine
 10
65.47653
 20
409.070615
 30
0.0
 11
65.47653
 21
410.470617
 31
0.0
  0
LINE
  5
508
330
1F
100
AcDbEntity
  8
LC-001-100-D00-0
 62
     7
370
    50
100
AcDbLine
 10
65.97653
 20
410.470616
 30
0.0
 11
65.47653
 21
410.470617
 31
0.0
  0
ARC
  5
509
330
1F
100
AcDbEntity
  8
LC-001-100-D00-0
 62
     7
370
    50
100
AcDbCircle
 10
64.97653
 20
411.970616
 30
0.0
 40
1.802775637732058
100
AcDbArc
 50
303.690068
 51
56.309932
  0
LINE
  5
50A
330
1F
100
AcDbEntity
  8
LC-001-100-D00-0
 62
     7
370
    50
100
AcDbLine
 10
65.976531
 20
428.070616
 30
0.0
 11
65.97653
 21
413.470616
 31
0.0
  0
LINE
  5
50B
330
1F
100
AcDbEntity
  8
LC-001-100-D00-0
 62
     7
370
    50
100
AcDbLine
 10
66.976533
 20
429.070616
 30
0.0
 11
65.976531
 21
428.070616
 31
0.0
  0
LINE
  5
50C
330
1F
100
AcDbEntity
  8
LC-001-100-D00-0
 62
     7
370
    50
100
AcDbLine
 10
72.97653
 20
429.070616
 30
0.0
 11
66.976533
 21
429.070616
 31
0.0
  0
LINE
  5
50D
330
1F
100
AcDbEntity
  8
LC-001-100-D00-0
 62
     7
370
    50
100
AcDbLine
 10
73.976532
 20
428.070616
 30
0.0
 11
72.97653
 21
429.070616
 31
0.0
  0
LINE
  5
50E
330
1F
100
AcDbEntity
  8
LC-001-100-D00-0
 62
     7
370
    50
100
AcDbLine
 10
73.97653
 20
413.470616
 30
0.0
 11
73.976532
 21
428.070616
 31
0.0
  0
ARC
  5
50F
330
1F
100
AcDbEntity
  8
LC-001-100-D00-0
 62
     7
370
    50
100
AcDbCircle
 10
74.97653
 20
411.970616
 30
0.0
 40
1.802775637732121
100
AcDbArc
 50
123.690068
 51
236.309932
  0
LINE
  5
510
330
1F
100
AcDbEntity
  8
LC-001-100-D00-0
 62
     7
370
    50
100
AcDbLine
 10
74.476533
 20
410.470617
 30
0.0
 11
73.97653
 21
410.470616
 31
0.0
  0
LINE
  5
511
330
1F
100
AcDbEntity
  8
LC-001-100-D00-0
 62
     7
370
    50
100
AcDbLine
 10
74.476533
 20
410.470617
 30
0.0
 11
74.476533
 21
409.070615
 31
0.0
  0
LINE
  5
512
330
1F
100
AcDbEntity
  8
LC-001-100-D00-0
 62
     7
370
    50
100
AcDbLine
 10
74.476533
 20
409.070615
 30
0.0
 11
225.476519
 21
409.070615
 31
0.0
  0
LINE
  5
513
330
1F
100
AcDbEntity
  8
LC-001-100-D00-0
 62
     7
370
    50
100
AcDbLine
 10
225.476519
 20
409.070615
 30
0.0
 11
225.476519
 21
410.470617
 31
0.0
  0
LINE
  5
514
330
1F
100
AcDbEntity
  8
LC-001-100-D00-0
 62
     7
370
    50
100
AcDbLine
 10
225.97653
 20
410.470616
 30
0.0
 11
225.476519
 21
410.470617
 31
0.0
  0
ARC
  5
515
330
1F
100
AcDbEntity
  8
LC-001-100-D00-0
 62
     7
370
    50
100
AcDbCircle
 10
224.97653
 20
411.970616
 30
0.0
 40
1.802775637732058
100
AcDbArc
 50
303.690068
 51
56.309932
  0
LINE
  5
516
330
1F
100
AcDbEntity
  8
LC-001-100-D00-0
 62
     7
370
    50
100
AcDbLine
 10
225.976542
 20
428.070616
 30
0.0
 11
225.97653
 21
413.470616
 31
0.0
  0
LINE
  5
517
330
1F
100
AcDbEntity
  8
LC-001-100-D00-0
 62
     7
370
    50
100
AcDbLine
 10
226.976529
 20
429.070616
 30
0.0
 11
225.976542
 21
428.070616
 31
0.0
  0
LINE
  5
518
330
1F
100
AcDbEntity
  8
LC-001-100-D00-0
 62
     7
370
    50
100
AcDbLine
 10
232.976541
 20
429.070616
 30
0.0
 11
226.976529
 21
429.070616
 31
0.0
  0
LINE
  5
519
330
1F
100
AcDbEntity
  8
LC-001-100-D00-0
 62
     7
370
    50
100
AcDbLine
 10
233.976529
 20
428.070616
 30
0.0
 11
232.976541
 21
429.070616
 31
0.0
  0
LINE
  5
51A
330
1F
100
AcDbEntity
  8
LC-001-100-D00-0
 62
     7
370
    50
100
AcDbLine
 10
233.97653
 20
413.470616
 30
0.0
 11
233.976529
 21
428.070616
 31
0.0
  0
ARC
  5
51B
330
1F
100
AcDbEntity
  8
LC-001-100-D00-0
 62
     7
370
    50
100
AcDbCircle
 10
234.97653
 20
411.970616
 30
0.0
 40
1.802775637732058
100
AcDbArc
 50
123.690068
 51
236.309932
  0
LINE
  5
51C
330
1F
100
AcDbEntity
  8
LC-001-100-D00-0
 62
     7
370
    50
100
AcDbLine
 10
234.476522
 20
410.470617
 30
0.0
 11
233.97653
 21
410.470616
 31
0.0
  0
LINE
  5
51D
330
1F
100
AcDbEntity
  8
LC-001-100-D00-0
 62
     7
370
    50
100
AcDbLine
 10
234.476522
 20
410.470617
 30
0.0
 11
234.476522
 21
409.070615
 31
0.0
  0
LINE
  5
51E
330
1F
100
AcDbEntity
  8
LC-001-100-D00-0
 62
     7
370
    50
100
AcDbLine
 10
234.476522
 20
409.070615
 30
0.0
 11
385.476515
 21
409.070615
 31
0.0
  0
LINE
  5
51F
330
1F
100
AcDbEntity
  8
LC-001-100-D00-0
 62
     7
370
    50
100
AcDbLine
 10
385.476515
 20
409.070615
 30
0.0
 11
385.476515
 21
410.470617
 31
0.0
  0
LINE
  5
520
330
1F
100
AcDbEntity
  8
LC-001-100-D00-0
 62
     7
370
    50
100
AcDbLine
 10
385.97653
 20
410.470616
 30
0.0
 11
385.476515
 21
410.470617
 31
0.0
  0
ARC
  5
521
330
1F
100
AcDbEntity
  8
LC-001-100-D00-0
 62
     7
370
    50
100
AcDbCircle
 10
384.97653
 20
411.970616
 30
0.0
 40
1.802775637731868
100
AcDbArc
 50
303.690068
 51
56.309932
  0
LINE
  5
522
330
1F
100
AcDbEntity
  8
LC-001-100-D00-0
 62
     7
370
    50
100
AcDbLine
 10
385.976539
 20
428.070616
 30
0.0
 11
385.97653
 21
413.470616
 31
0.0
  0
LINE
  5
523
330
1F
100
AcDbEntity
  8
LC-001-100-D00-0
 62
     7
370
    50
100
AcDbLine
 10
386.976526
 20
429.070616
 30
0.0
 11
385.976539
 21
428.070616
 31
0.0
  0
LINE
  5
524
330
1F
100
AcDbEntity
  8
LC-001-100-D00-0
 62
     7
370
    50
100
AcDbLine
 10
392.976538
 20
429.070616
 30
0.0
 11
386.976526
 21
429.070616
 31
0.0
  0
LINE
  5
525
330
1F
100
AcDbEntity
  8
LC-001-100-D00-0
 62
     7
370
    50
100
AcDbLine
 10
393.976525
 20
428.070616
 30
0.0
 11
392.976538
 21
429.070616
 31
0.0
  0
LINE
  5
526
330
1F
100
AcDbEntity
  8
LC-001-100-D00-0
 62
     7
370
    50
100
AcDbLine
 10
393.97653
 20
413.470616
 30
0.0
 11
393.976525
 21
428.070616
 31
0.0
  0
ARC
  5
527
330
1F
100
AcDbEntity
  8
LC-001-100-D00-0
 62
     7
370
    50
100
AcDbCircle
 10
394.97653
 20
411.970616
 30
0.0
 40
1.802775637731868
100
AcDbArc
 50
123.690068
 51
236.309932
  0
LINE
  5
528
330
1F
100
AcDbEntity
  8
LC-001-100-D00-0
 62
     7
370
    50
100
AcDbLine
 10
394.476519
 20
410.470617
 30
0.0
 11
393.97653
 21
410.470616
 31
0.0
  0
LINE
  5
529
330
1F
100
AcDbEntity
  8
LC-001-100-D00-0
 62
     7
370
    50
100
AcDbLine
 10
394.476519
 20
410.470617
 30
0.0
 11
394.476519
 21
409.070615
 31
0.0
  0
LINE
  5
52A
330
1F
100
AcDbEntity
  8
LC-001-100-D00-0
 62
     7
370
    50
100
AcDbLine
 10
394.476519
 20
409.070615
 30
0.0
 11
411.97653
 21
409.070616
 31
0.0
  0
ARC
  5
52B
330
1F
100
AcDbEntity
  8
LC-001-100-D00-0
 62
     7
370
    50
100
AcDbCircle
 10
411.97653
 20
417.070616
 30
0.0
 40
8.000000000000227
100
AcDbArc
 50
270.0
 51
0.0
  0
LINE
  5
52C
330
1F
100
AcDbEntity
  8
LC-001-100-D00-0
 62
     7
370
    50
100
AcDbLine
 10
419.97653
 20
417.070616
 30
0.0
 11
419.97653
 21
426.570616
 31
0.0
  0
ARC
  5
52D
330
1F
100
AcDbEntity
  8
LC-001-100-D00-0
 62
     7
370
    50
100
AcDbCircle
 10
422.97653
 20
426.570616
 30
0.0
 40
3.000000000000227
100
AcDbArc
 50
90.0
 51
180.0
  0
LINE
  5
52E
330
1F
100
AcDbEntity
  8
LC-001-100-D00-0
 62
     7
370
    50
100
AcDbLine
 10
469.97653
 20
429.570616
 30
0.0
 11
422.97653
 21
429.570616
 31
0.0
  0
LINE
  5
52F
330
1F
100
AcDbEntity
  8
LC-001-100-D00-0
 62
     7
370
    50
100
AcDbLine
 10
469.97653
 20
428.070616
 30
0.0
 11
469.97653
 21
429.570616
 31
0.0
  0
LINE
  5
530
330
1F
100
AcDbEntity
  8
LC-001-100-D00-0
 62
     7
370
    50
100
AcDbLine
 10
469.97653
 20
428.070616
 30
0.0
 11
422.97653
 21
428.070616
 31
0.0
  0
ARC
  5
531
330
1F
100
AcDbEntity
  8
LC-001-100-D00-0
 62
     7
370
    50
100
AcDbCircle
 10
422.97653
 20
426.570616
 30
0.0
 40
1.500000000000455
100
AcDbArc
 50
90.0
 51
180.0
  0
LINE
  5
532
330
1F
100
AcDbEntity
  8
LC-001-100-D00-0
 62
     7
370
    50
100
AcDbLine
 10
421.47653
 20
417.070616
 30
0.0
 11
421.47653
 21
426.570616
 31
0.0
  0
ARC
  5
533
330
1F
100
AcDbEntity
  8
LC-001-100-D00-0
 62
     7
370
    50
100
AcDbCircle
 10
411.97653
 20
417.070616
 30
0.0
 40
9.500000000000227
100
AcDbArc
 50
270.0
 51
0.0
  0
LINE
  5
534
330
1F
100
AcDbEntity
  8
LC-001-100-D00-0
 62
     7
370
    50
100
AcDbLine
 10
63.965915
 20
407.570616
 30
0.0
 11
411.97653
 21
407.570616
 31
0.0
  0
ARC
  5
535
330
1F
100
AcDbEntity
  8
LC-001-100-D00-0
 62
     7
370
    50
100
AcDbCircle
 10
63.965915
 20
405.070616
 30
0.0
 40
2.5
100
AcDbArc
 50
90.0
 51
105.0
  0
LINE
  5
536
330
1F
100
AcDbEntity
  8
LC-001-100-D00-0
 62
     7
370
    50
100
AcDbLine
 10
14.370414
 20
404.070616
 30
0.0
 11
27.77653
 21
404.070616
 31
0.0
  0
LINE
  5
537
330
1F
100
AcDbEntity
  8
LC-001-100-D00-0
 62
     7
370
    50
100
AcDbLine
 10
25.27653
 20
397.570616
 30
0.0
 11
25.22653
 21
397.570616
 31
0.0
  0
LINE
  5
538
330
1F
100
AcDbEntity
  8
LC-001-100-D00-0
 62
     7
370
    50
100
AcDbLine
 10
-86.82347
 20
397.570614
 30
0.0
 11
-86.82347
 21
401.570616
 31
0.0
  0
LINE
  5
539
330
1F
100
AcDbEntity
  8
LC-001-100-D00-0
 62
     7
370
    50
100
AcDbLine
 10
-85.27347
 20
397.570616
 30
0.0
 11
-85.32347
 21
397.570616
 31
0.0
  0
LINE
  5
53A
330
1F
100
AcDbEntity
  8
LC-001-100-D00-0
 62
     7
370
    50
100
AcDbLine
 10
-85.32347
 20
397.570616
 30
0.0
 11
-85.32347
 21
401.570616
 31
0.0
  0
LINE
  5
53B
330
1F
100
AcDbEntity
  8
LC-001-100-D00-0
 62
     7
370
    50
100
AcDbLine
 10
-445.523455
 20
410.470617
 30
0.0
 11
-446.02347
 21
410.470616
 31
0.0
  0
LINE
  5
53C
330
1F
100
AcDbEntity
  8
LC-001-100-D00-0
 62
     7
370
    50
100
AcDbLine
 10
-445.523455
 20
410.470617
 30
0.0
 11
-445.523455
 21
409.070615
 31
0.0
  0
LINE
  5
53D
330
1F
100
AcDbEntity
  8
LC-001-100-D00-0
 62
     7
370
    50
100
AcDbLine
 10
-445.523455
 20
409.070615
 30
0.0
 11
-294.523462
 21
409.070615
 31
0.0
  0
LINE
  5
53E
330
1F
100
AcDbEntity
  8
LC-001-100-D00-0
 62
     7
370
    50
100
AcDbLine
 10
-294.523462
 20
409.070615
 30
0.0
 11
-294.523462
 21
410.470617
 31
0.0
  0
LINE
  5
53F
330
1F
100
AcDbEntity
  8
LC-001-100-D00-0
 62
     7
370
    50
100
AcDbLine
 10
-294.02347
 20
410.470616
 30
0.0
 11
-294.523462
 21
410.470617
 31
0.0
  0
ARC
  5
540
330
1F
100
AcDbEntity
  8
LC-001-100-D00-0
 62
     7
370
    50
100
AcDbCircle
 10
-295.02347
 20
411.970616
 30
0.0
 40
1.802775637732121
100
AcDbArc
 50
303.690068
 51
56.309932
  0
LINE
  5
541
330
1F
100
AcDbEntity
  8
LC-001-100-D00-0
 62
     7
370
    50
100
AcDbLine
 10
-294.023469
 20
428.070616
 30
0.0
 11
-294.02347
 21
413.470616
 31
0.0
  0
LINE
  5
542
330
1F
100
AcDbEntity
  8
LC-001-100-D00-0
 62
     7
370
    50
100
AcDbLine
 10
-293.023481
 20
429.070616
 30
0.0
 11
-294.023469
 21
428.070616
 31
0.0
  0
LINE
  5
543
330
1F
100
AcDbEntity
  8
LC-001-100-D00-0
 62
     7
370
    50
100
AcDbLine
 10
-287.023469
 20
429.070616
 30
0.0
 11
-293.023481
 21
429.070616
 31
0.0
  0
LINE
  5
544
330
1F
100
AcDbEntity
  8
LC-001-100-D00-0
 62
     7
370
    50
100
AcDbLine
 10
-286.023482
 20
428.070616
 30
0.0
 11
-287.023469
 21
429.070616
 31
0.0
  0
LINE
  5
545
330
1F
100
AcDbEntity
  8
LC-001-100-D00-0
 62
     7
370
    50
100
AcDbLine
 10
-286.02347
 20
413.470616
 30
0.0
 11
-286.023482
 21
428.070616
 31
0.0
  0
ARC
  5
546
330
1F
100
AcDbEntity
  8
LC-001-100-D00-0
 62
     7
370
    50
100
AcDbCircle
 10
-285.02347
 20
411.970616
 30
0.0
 40
1.802775637732152
100
AcDbArc
 50
123.690068
 51
236.309932
  0
LINE
  5
547
330
1F
100
AcDbEntity
  8
LC-001-100-D00-0
 62
     7
370
    50
100
AcDbLine
 10
-285.523459
 20
410.470617
 30
0.0
 11
-286.02347
 21
410.470616
 31
0.0
  0
LINE
  5
548
330
1F
100
AcDbEntity
  8
LC-001-100-D00-0
 62
     7
370
    50
100
AcDbLine
 10
-285.523459
 20
410.470617
 30
0.0
 11
-285.523459
 21
409.070615
 31
0.0
  0
LINE
  5
549
330
1F
100
AcDbEntity
  8
LC-001-100-D00-0
 62
     7
370
    50
100
AcDbLine
 10
-285.523459
 20
409.070615
 30
0.0
 11
-134.523473
 21
409.070615
 31
0.0
  0
LINE
  5
54A
330
1F
100
AcDbEntity
  8
LC-001-100-D00-0
 62
     7
370
    50
100
AcDbLine
 10
-134.523473
 20
409.070615
 30
0.0
 11
-134.523473
 21
410.470617
 31
0.0
  0
LINE
  5
54B
330
1F
100
AcDbEntity
  8
LC-001-100-D00-0
 62
     7
370
    50
100
AcDbLine
 10
-134.02347
 20
410.470616
 30
0.0
 11
-134.523473
 21
410.470617
 31
0.0
  0
ARC
  5
54C
330
1F
100
AcDbEntity
  8
LC-001-100-D00-0
 62
     7
370
    50
100
AcDbCircle
 10
-135.02347
 20
411.970616
 30
0.0
 40
1.802775637732058
100
AcDbArc
 50
303.690068
 51
56.309932
  0
LINE
  5
54D
330
1F
100
AcDbEntity
  8
LC-001-100-D00-0
 62
     7
370
    50
100
AcDbLine
 10
-134.023472
 20
428.070616
 30
0.0
 11
-134.02347
 21
413.470616
 31
0.0
  0
LINE
  5
54E
330
1F
100
AcDbEntity
  8
LC-001-100-D00-0
 62
     7
370
    50
100
AcDbLine
 10
-133.02347
 20
429.070616
 30
0.0
 11
-134.023472
 21
428.070616
 31
0.0
  0
LINE
  5
54F
330
1F
100
AcDbEntity
  8
LC-001-100-D00-0
 62
     7
370
    50
100
AcDbLine
 10
-127.023473
 20
429.070616
 30
0.0
 11
-133.02347
 21
429.070616
 31
0.0
  0
LINE
  5
550
330
1F
100
AcDbEntity
  8
LC-001-100-D00-0
 62
     7
370
    50
100
AcDbLine
 10
-126.023471
 20
428.070616
 30
0.0
 11
-127.023473
 21
429.070616
 31
0.0
  0
LINE
  5
551
330
1F
100
AcDbEntity
  8
LC-001-100-D00-0
 62
     7
370
    50
100
AcDbLine
 10
-126.02347
 20
413.470616
 30
0.0
 11
-126.023471
 21
428.070616
 31
0.0
  0
ARC
  5
552
330
1F
100
AcDbEntity
  8
LC-001-100-D00-0
 62
     7
370
    50
100
AcDbCircle
 10
-125.02347
 20
411.970616
 30
0.0
 40
1.802775637732121
100
AcDbArc
 50
123.690068
 51
236.309932
  0
LINE
  5
553
330
1F
100
AcDbEntity
  8
LC-001-100-D00-0
 62
     7
370
    50
100
AcDbLine
 10
-125.52347
 20
410.470617
 30
0.0
 11
-126.02347
 21
410.470616
 31
0.0
  0
LINE
  5
554
330
1F
100
AcDbEntity
  8
LC-001-100-D00-0
 62
     7
370
    50
100
AcDbLine
 10
-125.52347
 20
410.470617
 30
0.0
 11
-125.52347
 21
409.070615
 31
0.0
  0
LINE
  5
555
330
1F
100
AcDbEntity
  8
LC-001-100-D00-0
 62
     7
370
    50
100
AcDbLine
 10
-125.52347
 20
409.070615
 30
0.0
 11
-124.012855
 21
409.070616
 31
0.0
  0
ARC
  5
556
330
1F
100
AcDbEntity
  8
LC-001-100-D00-0
 62
     7
370
    50
100
AcDbCircle
 10
-124.012855
 20
405.070616
 30
0.0
 40
4.000000000000122
100
AcDbArc
 50
75.0
 51
90.0
  0
LINE
  5
557
330
1F
100
AcDbEntity
  8
LC-001-100-D00-0
 62
     7
370
    50
100
AcDbLine
 10
-105.143908
 20
404.155801
 30
0.0
 11
-122.977579
 21
408.934319
 31
0.0
  0
ARC
  5
558
330
1F
100
AcDbEntity
  8
LC-001-100-D00-0
 62
     7
370
    50
100
AcDbCircle
 10
-104.49686
 20
406.570616
 30
0.0
 40
2.500000000000091
100
AcDbArc
 50
255.0
 51
270.0
  0
LINE
  5
559
330
1F
100
AcDbEntity
  8
LC-001-100-D00-0
 62
     7
370
    50
100
AcDbLine
 10
-99.100679
 20
404.070616
 30
0.0
 11
-104.49686
 21
404.070616
 31
0.0
  0
LINE
  5
55A
330
1F
100
AcDbEntity
  8
LC-001-100-D00-0
 62
     7
370
    50
100
AcDbLine
 10
-99.100679
 20
403.970616
 30
0.0
 11
-99.100679
 21
404.070616
 31
0.0
  0
LINE
  5
55B
330
1F
100
AcDbEntity
  8
LC-001-100-D00-0
 62
     7
370
    50
100
AcDbLine
 10
-98.576843
 20
403.970616
 30
0.0
 11
-99.100679
 21
403.970616
 31
0.0
  0
LINE
  5
55C
330
1F
100
AcDbEntity
  8
LC-001-100-D00-0
 62
     7
370
    50
100
AcDbLine
 10
-98.576843
 20
404.070616
 30
0.0
 11
-98.576843
 21
403.970616
 31
0.0
  0
LINE
  5
55D
330
1F
100
AcDbEntity
  8
LC-001-100-D00-0
 62
     7
370
    50
100
AcDbLine
 10
-97.882598
 20
404.070616
 30
0.0
 11
-98.576843
 21
404.070616
 31
0.0
  0
LINE
  5
55E
330
1F
100
AcDbEntity
  8
LC-001-100-D00-0
 62
     7
370
    50
100
AcDbLine
 10
-97.882598
 20
403.970616
 30
0.0
 11
-97.882598
 21
404.070616
 31
0.0
  0
LINE
  5
55F
330
1F
100
AcDbEntity
  8
LC-001-100-D00-0
 62
     7
370
    50
100
AcDbLine
 10
-97.358249
 20
403.970616
 30
0.0
 11
-97.882598
 21
403.970616
 31
0.0
  0
LINE
  5
560
330
1F
100
AcDbEntity
  8
LC-001-100-D00-0
 62
     7
370
    50
100
AcDbLine
 10
-97.358249
 20
404.070616
 30
0.0
 11
-97.358249
 21
403.970616
 31
0.0
  0
LINE
  5
561
330
1F
100
AcDbEntity
  8
LC-001-100-D00-0
 62
     7
370
    50
100
AcDbLine
 10
-87.82347
 20
404.070616
 30
0.0
 11
-97.358249
 21
404.070616
 31
0.0
  0
ARC
  5
562
330
1F
100
AcDbEntity
  8
LC-001-100-D00-0
 62
     7
370
    50
100
AcDbCircle
 10
-87.82347
 20
401.570616
 30
0.0
 40
2.5
100
AcDbArc
 50
0.0
 51
90.0
  0
LINE
  5
563
330
1F
100
AcDbEntity
  8
LC-001-100-D00-0
 62
     7
370
    50
100
AcDbLine
 10
-85.32347
 20
397.570616
 30
0.0
 11
-86.82347
 21
397.570614
 31
0.0
  0
ARC
  5
564
330
1F
100
AcDbEntity
  8
LC-001-100-D00-0
 62
     7
370
    50
100
AcDbCircle
 10
-87.82347
 20
401.570616
 30
0.0
 40
1.0
100
AcDbArc
 50
0.0
 51
90.0
  0
LINE
  5
565
330
1F
100
AcDbEntity
  8
LC-001-100-D00-0
 62
     7
370
    50
100
AcDbLine
 10
-87.82347
 20
402.570616
 30
0.0
 11
-104.49686
 21
402.570616
 31
0.0
  0
ARC
  5
566
330
1F
100
AcDbEntity
  8
LC-001-100-D00-0
 62
     7
370
    50
100
AcDbCircle
 10
-104.49686
 20
406.570616
 30
0.0
 40
4.000000000000122
100
AcDbArc
 50
255.0
 51
270.0
  0
LINE
  5
567
330
1F
100
AcDbEntity
  8
LC-001-100-D00-0
 62
     7
370
    50
100
AcDbLine
 10
-105.532136
 20
402.706912
 30
0.0
 11
-123.365808
 21
407.48543
 31
0.0
  0
ARC
  5
568
330
1F
100
AcDbEntity
  8
LC-001-100-D00-0
 62
     7
370
    50
100
AcDbCircle
 10
-124.012855
 20
405.070616
 30
0.0
 40
2.500000000000091
100
AcDbArc
 50
75.0
 51
90.0
  0
LINE
  5
569
330
1F
100
AcDbEntity
  8
LC-001-100-D00-0
 62
     7
370
    50
100
AcDbLine
 10
-472.02347
 20
407.570616
 30
0.0
 11
-124.012855
 21
407.570616
 31
0.0
  0
ARC
  5
56A
330
1F
100
AcDbEntity
  8
LC-001-100-D00-0
 62
     7
370
    50
100
AcDbCircle
 10
-472.02347
 20
417.070616
 30
0.0
 40
9.5
100
AcDbArc
 50
180.0
 51
270.0
  0
LINE
  5
56B
330
1F
100
AcDbEntity
  8
LC-001-100-D00-0
 62
     7
370
    50
100
AcDbLine
 10
-481.52347
 20
426.570616
 30
0.0
 11
-481.52347
 21
417.070616
 31
0.0
  0
ARC
  5
56C
330
1F
100
AcDbEntity
  8
LC-001-100-D00-0
 62
     7
370
    50
100
AcDbCircle
 10
-483.02347
 20
426.570616
 30
0.0
 40
1.499999999999943
100
AcDbArc
 50
0.0
 51
90.0
  0
LINE
  5
56D
330
1F
100
AcDbEntity
  8
LC-001-100-D00-0
 62
     7
370
    50
100
AcDbLine
 10
-530.02347
 20
429.570616
 30
0.0
 11
-530.02347
 21
428.070616
 31
0.0
  0
ARC
  5
56E
330
1F
100
AcDbEntity
  8
LC-001-100-D00-0
 62
     7
370
    50
100
AcDbCircle
 10
-483.02347
 20
426.570616
 30
0.0
 40
2.999999999999943
100
AcDbArc
 50
0.0
 51
90.0
  0
LINE
  5
56F
330
1F
100
AcDbEntity
  8
LC-001-100-D00-0
 62
     7
370
    50
100
AcDbLine
 10
-480.02347
 20
426.570616
 30
0.0
 11
-480.02347
 21
417.070616
 31
0.0
  0
ARC
  5
570
330
1F
100
AcDbEntity
  8
LC-001-100-D00-0
 62
     7
370
    50
100
AcDbCircle
 10
-472.02347
 20
417.070616
 30
0.0
 40
8.0
100
AcDbArc
 50
180.0
 51
270.0
  0
LINE
  5
571
330
1F
100
AcDbEntity
  8
LC-001-100-D00-0
 62
     7
370
    50
100
AcDbLine
 10
-472.02347
 20
409.070616
 30
0.0
 11
-454.523459
 21
409.070615
 31
0.0
  0
LINE
  5
572
330
1F
100
AcDbEntity
  8
LC-001-100-D00-0
 62
     7
370
    50
100
AcDbLine
 10
-454.523459
 20
409.070615
 30
0.0
 11
-454.523459
 21
410.470617
 31
0.0
  0
LINE
  5
573
330
1F
100
AcDbEntity
  8
LC-001-100-D00-0
 62
     7
370
    50
100
AcDbLine
 10
-454.02347
 20
410.470616
 30
0.0
 11
-454.523459
 21
410.470617
 31
0.0
  0
ARC
  5
574
330
1F
100
AcDbEntity
  8
LC-001-100-D00-0
 62
     7
370
    50
100
AcDbCircle
 10
-455.02347
 20
411.970616
 30
0.0
 40
1.802775637731837
100
AcDbArc
 50
303.690068
 51
56.309932
  0
LINE
  5
575
330
1F
100
AcDbEntity
  8
LC-001-100-D00-0
 62
     7
370
    50
100
AcDbLine
 10
-454.023465
 20
428.070616
 30
0.0
 11
-454.02347
 21
413.470616
 31
0.0
  0
LINE
  5
576
330
1F
100
AcDbEntity
  8
LC-001-100-D00-0
 62
     7
370
    50
100
AcDbLine
 10
-453.023478
 20
429.070616
 30
0.0
 11
-454.023465
 21
428.070616
 31
0.0
  0
LINE
  5
577
330
1F
100
AcDbEntity
  8
LC-001-100-D00-0
 62
     7
370
    50
100
AcDbLine
 10
-447.023466
 20
429.070616
 30
0.0
 11
-453.023478
 21
429.070616
 31
0.0
  0
LINE
  5
578
330
1F
100
AcDbEntity
  8
LC-001-100-D00-0
 62
     7
370
    50
100
AcDbLine
 10
-446.023479
 20
428.070616
 30
0.0
 11
-447.023466
 21
429.070616
 31
0.0
  0
LINE
  5
579
330
1F
100
AcDbEntity
  8
LC-001-100-D00-0
 62
     7
370
    50
100
AcDbLine
 10
-446.02347
 20
413.470616
 30
0.0
 11
-446.023479
 21
428.070616
 31
0.0
  0
ARC
  5
57A
330
1F
100
AcDbEntity
  8
LC-001-100-D00-0
 62
     7
370
    50
100
AcDbCircle
 10
-445.02347
 20
411.970616
 30
0.0
 40
1.802775637731868
100
AcDbArc
 50
123.690068
 51
236.309932
  0
LINE
  5
57B
330
1F
100
AcDbEntity
  8
LC-001-100-D00-0
 62
     7
370
    50
100
AcDbLine
 10
-483.02347
 20
429.570616
 30
0.0
 11
-530.02347
 21
429.570616
 31
0.0
  0
LINE
  5
57C
330
1F
100
AcDbEntity
  8
LC-001-100-D00-0
 62
     7
370
    50
100
AcDbLine
 10
-483.02347
 20
428.070616
 30
0.0
 11
-530.02347
 21
428.070616
 31
0.0
  0
LINE
  5
57D
330
1F
100
AcDbEntity
  8
LC-001-100-D00-0
 62
     7
370
    50
100
AcDbLine
 10
-74.417354
 20
404.070616
 30
0.0
 11
-87.82347
 21
404.070616
 31
0.0
  0
LINE
  5
57E
330
1F
100
AcDbEntity
  8
LC-001-100-D00-0
 62
     7
370
    50
100
AcDbLine
 10
-97.882598
 20
404.070616
 30
0.0
 11
-97.358249
 21
404.070616
 31
0.0
  0
LINE
  5
57F
330
1F
100
AcDbEntity
  8
LC-001-100-D00-0
 62
     7
370
    50
100
AcDbLine
 10
-99.100679
 20
404.070616
 30
0.0
 11
-98.576843
 21
404.070616
 31
0.0
  0
ELLIPSE
  5
580
330
1F
100
AcDbEntity
  8
LC-001-100-D00-0
 62
     7
370
    50
100
AcDbEllipse
 10
274.998347
 20
405.070616
 30
0.0
 11
0.0
 21
-2.500000244140613
 31
0.0
210
0.0
220
0.0
230
1.0
 40
0.027578
 41
0.0000000000098939
 42
0.3217505544058075
  0
ELLIPSE
  5
581
330
1F
100
AcDbEntity
  8
LC-001-100-D00-0
 62
     7
370
    50
100
AcDbEllipse
 10
-335.045287
 20
405.070616
 30
0.0
 11
0.0
 21
-2.5
 31
0.0
210
0.0
220
0.0
230
0.9999999999999999
 40
0.027578
 41
5.961434752785035
 42
6.283185307181236
  0
LINE
  5
582
330
1F
100
AcDbEntity
  8
LC-001-100-D00-0
 62
     7
370
    50
100
AcDbLine
 10
274.976537
 20
407.441963
 30
0.0
 11
274.976537
 21
402.776575
 31
0.0
  0
LINE
  5
583
330
1F
100
AcDbEntity
  8
LC-001-100-D00-0
 62
     7
370
    50
100
AcDbLine
 10
-335.023477
 20
407.441963
 30
0.0
 11
-335.023477
 21
402.776575
 31
0.0
  0
INSERT
  5
58D
330
1F
100
AcDbEntity
  8
LC-001-100-D00-0
 62
     7
370
    50
100
AcDbBlockReference
  2
KLON18
 10
0.0
 20
0.0
 30
0.0
  0
INSERT
  5
597
330
1F
100
AcDbEntity
  8
LC-001-100-D00-0
 62
     7
370
    50
100
AcDbBlockReference
  2
KLON19
 10
0.0
 20
0.0
 30
0.0
  0
LINE
  5
598
330
1F
100
AcDbEntity
  8
LC-001-100-D00-0
 62
     7
370
    50
100
AcDbLine
 10
274.976507
 20
402.570615
 30
0.0
 11
274.976507
 21
402.775882
 31
0.0
  0
LINE
  5
599
330
1F
100
AcDbEntity
  8
LC-001-100-D00-0
 62
     7
370
    50
100
AcDbLine
 10
274.976537
 20
402.570615
 30
0.0
 11
402.884201
 21
407.23878
 31
0.0
  0
LINE
  5
59A
330
1F
100
AcDbEntity
  8
LC-001-100-D00-0
 62
     7
370
    50
100
AcDbLine
 10
274.976507
 20
402.570615
 30
0.0
 11
274.976507
 21
402.570615
 31
0.0
  0
LINE
  5
59B
330
1F
100
AcDbEntity
  8
LC-001-100-D00-0
 62
     7
370
    50
100
AcDbLine
 10
-335.023447
 20
402.570615
 30
0.0
 11
-335.023447
 21
402.775882
 31
0.0
  0
LINE
  5
59C
330
1F
100
AcDbEntity
  8
LC-001-100-D00-0
 62
     7
370
    50
100
AcDbLine
 10
-335.023477
 20
402.570615
 30
0.0
 11
-462.931141
 21
407.23878
 31
0.0
  0
LINE
  5
59D
330
1F
100
AcDbEntity
  8
LC-001-100-D00-0
 62
     7
370
    50
100
AcDbLine
 10
-335.023447
 20
402.570615
 30
0.0
 11
-335.023447
 21
402.570615
 31
0.0
  0
LINE
  5
59E
330
1F
100
AcDbEntity
  8
LC-001-100-D00-0
 62
     7
370
    50
100
AcDbLine
 10
11.762686
 20
395.570616
 30
0.0
 11
14.155233
 21
395.570616
 31
0.0
  0
LINE
  5
59F
330
1F
100
AcDbEntity
  8
LC-001-100-D00-0
 62
     7
370
    50
100
AcDbLine
 10
15.126445
 20
394.070616
 30
0.0
 11
15.222032
 21
394.078676
 31
0.0
  0
LINE
  5
5A0
330
1F
100
AcDbEntity
  8
LC-001-100-D00-0
 62
     7
370
    50
100
AcDbLine
 10
15.126445
 20
394.070616
 30
0.0
 11
11.762686
 21
394.070616
 31
0.0
  0
LINE
  5
5A1
330
1F
100
AcDbEntity
  8
LC-001-100-D00-0
 62
     7
370
    50
100
AcDbLine
 10
-75.268972
 20
394.078676
 30
0.0
 11
-75.173385
 21
394.070616
 31
0.0
  0
LINE
  5
5A2
330
1F
100
AcDbEntity
  8
LC-001-100-D00-0
 62
     7
370
    50
100
AcDbLine
 10
-71.809626
 20
394.070616
 30
0.0
 11
-75.173385
 21
394.070616
 31
0.0
  0
LINE
  5
5A3
330
1F
100
AcDbEntity
  8
LC-001-100-D00-0
 62
     7
370
    50
100
AcDbLine
 10
-74.202173
 20
395.570616
 30
0.0
 11
-71.809626
 21
395.570616
 31
0.0
  0
LINE
  5
5A4
330
1F
100
AcDbEntity
  8
LC-001-100-D00-0
 62
     7
370
    50
100
AcDbLine
 10
11.762686
 20
394.070616
 30
0.0
 11
10.985758
 21
394.070616
 31
0.0
  0
LINE
  5
5A5
330
1F
100
AcDbEntity
  8
LC-001-100-D00-0
 62
     7
370
    50
100
AcDbLine
 10
11.762686
 20
395.570616
 30
0.0
 11
10.985758
 21
395.570616
 31
0.0
  0
LINE
  5
5A6
330
1F
100
AcDbEntity
  8
LC-001-100-D00-0
 62
     7
370
    50
100
AcDbLine
 10
-71.809626
 20
394.070616
 30
0.0
 11
-71.032698
 21
394.070616
 31
0.0
  0
LINE
  5
5A7
330
1F
100
AcDbEntity
  8
LC-001-100-D00-0
 62
     7
370
    50
100
AcDbLine
 10
-71.809626
 20
395.570616
 30
0.0
 11
-71.032698
 21
395.570616
 31
0.0
  0
LINE
  5
5A8
330
1F
100
AcDbEntity
  8
LC-001-100-D00-0
 62
     7
370
    50
100
AcDbLine
 10
44.44992
 20
402.570616
 30
0.0
 11
46.55052
 21
402.570615
 31
0.0
  0
LINE
  5
5A9
330
1F
100
AcDbEntity
  8
LC-001-100-D00-0
 62
     7
370
    50
100
AcDbLine
 10
-104.49686
 20
402.570616
 30
0.0
 11
-106.59746
 21
402.570615
 31
0.0
  0
LINE
  5
5AA
330
1F
100
AcDbEntity
  8
LC-001-100-D00-0
 62
     7
370
    50
100
AcDbLine
 10
10.985758
 20
394.070616
 30
0.0
 11
9.690945
 21
394.070616
 31
0.0
  0
LINE
  5
5AB
330
1F
100
AcDbEntity
  8
LC-001-100-D00-0
 62
     7
370
    50
100
AcDbLine
 10
9.706876
 20
395.570616
 30
0.0
 11
10.985758
 21
395.570616
 31
0.0
  0
LINE
  5
5AC
330
1F
100
AcDbEntity
  8
LC-001-100-D00-0
 62
     7
370
    50
100
AcDbLine
 10
-69.737885
 20
394.070616
 30
0.0
 11
-71.032698
 21
394.070616
 31
0.0
  0
LINE
  5
5AD
330
1F
100
AcDbEntity
  8
LC-001-100-D00-0
 62
     7
370
    50
100
AcDbLine
 10
-71.032698
 20
395.570616
 30
0.0
 11
-69.753816
 21
395.570616
 31
0.0
  0
LINE
  5
5AE
330
1F
100
AcDbEntity
  8
LC-001-100-D00-0
 62
     7
370
    50
100
AcDbLine
 10
46.55052
 20
402.570615
 30
0.0
 11
274.976507
 21
402.570615
 31
0.0
  0
LINE
  5
5AF
330
1F
100
AcDbEntity
  8
LC-001-100-D00-0
 62
     7
370
    50
100
AcDbLine
 10
-106.59746
 20
402.570615
 30
0.0
 11
-335.023447
 21
402.570615
 31
0.0
  0
ARC
  5
5B0
330
1F
100
AcDbEntity
  8
LC-001-100-D00-0
 62
     7
370
    50
100
AcDbCircle
 10
14.492158
 20
395.504767
 30
0.0
 40
1.602014939990397
100
AcDbArc
 50
297.103406
 51
2.355668
  0
INSERT
  5
5B9
330
1F
100
AcDbEntity
  8
LC-001-100-D00-0
 62
     7
370
    50
100
AcDbBlockReference
  2
KLON20
 10
0.0
 20
0.0
 30
0.0
  0
INSERT
  5
5C6
330
1F
100
AcDbEntity
  8
LC-001-100-D00-0
 62
     7
370
    50
100
AcDbBlockReference
  2
KLON21
 10
0.0
 20
0.0
 30
0.0
  0
INSERT
  5
5D3
330
1F
100
AcDbEntity
  8
LC-001-100-D00-0
 62
     7
370
    50
100
AcDbBlockReference
  2
KLON22
 10
0.0
 20
0.0
 30
0.0
  0
LINE
  5
5D4
330
1F
100
AcDbEntity
  8
LC-001-100-D00-0
 62
     7
370
    50
100
AcDbLine
 10
417.47653
 20
429.570616
 30
0.0
 11
422.97653
 21
429.570616
 31
0.0
  0
LINE
  5
5D5
330
1F
100
AcDbEntity
  8
LC-001-100-D00-0
 62
     7
370
    50
100
AcDbLine
 10
-477.52347
 20
429.570616
 30
0.0
 11
-483.02347
 21
429.570616
 31
0.0
  0
LINE
  5
5D6
330
1F
100
AcDbEntity
  8
LC-001-100-D00-0
 62
     7
370
    50
100
AcDbLine
 10
417.47653
 20
429.570616
 30
0.0
 11
407.22653
 21
429.570616
 31
0.0
  0
LINE
  5
5D7
330
1F
100
AcDbEntity
  8
LC-001-100-D00-0
 62
     7
370
    50
100
AcDbLine
 10
372.72653
 20
429.570616
 30
0.0
 11
247.22653
 21
429.570616
 31
0.0
  0
LINE
  5
5D8
330
1F
100
AcDbEntity
  8
LC-001-100-D00-0
 62
     7
370
    50
100
AcDbLine
 10
212.72653
 20
429.570616
 30
0.0
 11
87.22653
 21
429.570616
 31
0.0
  0
LINE
  5
5D9
330
1F
100
AcDbEntity
  8
LC-001-100-D00-0
 62
     7
370
    50
100
AcDbLine
 10
52.72653
 20
429.570616
 30
0.0
 11
-112.77347
 21
429.570616
 31
0.0
  0
LINE
  5
5DA
330
1F
100
AcDbEntity
  8
LC-001-100-D00-0
 62
     7
370
    50
100
AcDbLine
 10
-147.27347
 20
429.570616
 30
0.0
 11
-272.77347
 21
429.570616
 31
0.0
  0
LINE
  5
5DB
330
1F
100
AcDbEntity
  8
LC-001-100-D00-0
 62
     7
370
    50
100
AcDbLine
 10
-307.27347
 20
429.570616
 30
0.0
 11
-432.77347
 21
429.570616
 31
0.0
  0
LINE
  5
5DC
330
1F
100
AcDbEntity
  8
LC-001-100-D00-0
 62
     7
370
    50
100
AcDbLine
 10
-467.27347
 20
429.570616
 30
0.0
 11
-477.52347
 21
429.570616
 31
0.0
  0
LINE
  5
5DD
330
1F
100
AcDbEntity
  8
LC-001-100-D00-0
 62
     7
370
    50
100
AcDbLine
 10
-530.02347
 20
429.570616
 30
0.0
 11
-530.02347
 21
431.070616
 31
0.0
  0
LINE
  5
5DE
330
1F
100
AcDbEntity
  8
LC-001-100-D00-0
 62
     7
370
    50
100
AcDbLine
 10
469.97653
 20
431.070616
 30
0.0
 11
469.97653
 21
429.570616
 31
0.0
  0
ARC
  5
5DF
330
1F
100
AcDbEntity
  8
LC-001-100-D00-0
 62
     7
370
    50
100
AcDbCircle
 10
-525.02347
 20
470.570616
 30
0.0
 40
5.0
100
AcDbArc
 50
90.0
 51
180.0
  0
LINE
  5
5E0
330
1F
100
AcDbEntity
  8
LC-001-100-D00-0
 62
     7
370
    50
100
AcDbLine
 10
-525.02347
 20
475.570616
 30
0.0
 11
464.97653
 21
475.570616
 31
0.0
  0
ARC
  5
5E1
330
1F
100
AcDbEntity
  8
LC-001-100-D00-0
 62
     7
370
    50
100
AcDbCircle
 10
464.97653
 20
470.570616
 30
0.0
 40
5.0
100
AcDbArc
 50
0.0
 51
90.0
  0
LINE
  5
5E2
330
1F
100
AcDbEntity
  8
LC-001-100-D00-0
 62
     7
370
    50
100
AcDbLine
 10
-530.02347
 20
470.570616
 30
0.0
 11
-530.02347
 21
431.070616
 31
0.0
  0
LINE
  5
5E3
330
1F
100
AcDbEntity
  8
LC-001-100-D00-0
 62
     7
370
    50
100
AcDbLine
 10
469.97653
 20
470.570616
 30
0.0
 11
469.97653
 21
431.070616
 31
0.0
  0
DIMENSION
  5
5E4
330
1F
100
AcDbEntity
  8
LC-001-100-D00-0
 62
     7
370
    25
100
AcDbDimension
  2
*D27
 10
-566.416459
 20
475.570616
 30
0.0
 11
-621.416459
 21
457.853914
 31
0.0
 70
   160
  1
46
 71
     5
 42
46.0
 53
90.0
  3
LC-DIM-L-0100-02-02
100
AcDbAlignedDimension
 13
-530.02347
 23
429.570616
 33
0.0
 14
-525.02347
 24
475.570616
 34
0.0
 50
90.0
100
AcDbRotatedDimension
  0
DIMENSION
  5
5F3
330
1F
100
AcDbEntity
  8
LC-001-100-D00-0
 62
     7
370
    25
100
AcDbDimension
  2
*D28
 10
-212.742672
 20
388.070616
 30
0.0
 11
-267.742672
 21
299.289886
 31
0.0
 70
   160
  1
50
 71
     5
 42
50.4
 53
90.0
  3
LC-DIM-L-0100-02-02
100
AcDbAlignedDimension
 13
-59.02347
 23
337.670616
 33
0.0
 14
-65.102865
 24
388.070616
 34
0.0
 50
90.0
100
AcDbRotatedDimension
  0
DIMENSION
  5
601
330
1F
100
AcDbEntity
  8
LC-001-100-D00-0
 62
     7
370
    25
100
AcDbDimension
  2
*D29
 10
43.97653
 20
232.464886
 30
0.0
 11
-34.755883
 21
287.464886
 31
0.0
 70
   160
  1
148
 71
     5
 42
148.0
  3
LC-DIM-L-0100-02-02
100
AcDbAlignedDimension
 13
-104.02347
 23
338.570616
 33
0.0
 14
43.97653
 24
378.820616
 34
0.0
100
AcDbRotatedDimension
  0
DIMENSION
  5
60E
330
1F
100
AcDbEntity
  8
LC-001-100-D00-0
 62
     7
370
    25
100
AcDbDimension
  2
*D30
 10
179.476327
 20
138.909886
 30
0.0
 11
29.732084
 21
193.909886
 31
0.0
 70
   160
  1
284
 71
     5
 42
283.499797
  3
LC-DIM-L-0100-02-02
100
AcDbAlignedDimension
 13
-104.02347
 23
338.570616
 33
0.0
 14
179.476327
 24
328.008438
 34
0.0
100
AcDbRotatedDimension
  0
DIMENSION
  5
61B
330
1F
100
AcDbEntity
  8
LC-001-100-D00-0
 62
     7
370
    25
100
AcDbDimension
  2
*D31
 10
469.97653
 20
570.014886
 30
0.0
 11
-21.85829
 21
625.014886
 31
0.0
 70
   160
  1
1000
 71
     5
 42
1000.0
  3
LC-DIM-L-0100-02-02
100
AcDbAlignedDimension
 13
-530.02347
 23
470.570616
 33
0.0
 14
469.97653
 24
470.570616
 34
0.0
100
AcDbRotatedDimension
  0
DIMENSION
  5
628
330
1F
100
AcDbEntity
  8
LC-001-100-D00-0
 62
     7
370
    25
100
AcDbDimension
  2
*D32
 10
419.97653
 20
491.412343
 30
0.0
 11
-26.604366
 21
546.412343
 31
0.0
 70
   160
  1
900
 71
     5
 42
900.0
  3
LC-DIM-L-0100-02-02
100
AcDbAlignedDimension
 13
-480.02347
 23
426.570616
 33
0.0
 14
419.97653
 24
426.570616
 34
0.0
100
AcDbRotatedDimension
  0
DIMENSION
  5
635
330
1F
100
AcDbEntity
  8
LC-001-100-D00-0
 62
     7
370
    25
100
AcDbDimension
  2
*D33
 10
510.526266
 20
352.070616
 30
0.0
 11
455.526266
 21
228.009886
 31
0.0
 70
   160
  1
77,5
 71
     5
 42
77.5
 53
90.0
  3
LC-DIM-L-0100-02-02
100
AcDbAlignedDimension
 13
469.97653
 23
429.570616
 33
0.0
 14
185.976327
 24
352.070616
 34
0.0
 50
90.0
100
AcDbRotatedDimension
  0
DIMENSION
  5
643
330
1F
100
AcDbEntity
  8
LC-001-100-D00-0
 62
     7
370
    25
100
AcDbDimension
  2
*D34
 10
289.173398
 20
327.070616
 30
0.0
 11
234.173398
 21
352.069337
 31
0.0
 70
   160
  1
DN50
 71
     5
 42
50.0
 53
90.0
  3
LC-DIM-L-0100-02-02
100
AcDbAlignedDimension
 13
175.976327
 23
377.070616
 33
0.0
 14
175.976327
 24
327.070616
 34
0.0
 50
90.0
100
AcDbRotatedDimension
  0
DIMENSION
  5
652
330
1F
100
AcDbEntity
  8
LC-001-100-D00-0
 62
     7
370
    25
100
AcDbDimension
  2
*D35
 10
616.621831
 20
319.570616
 30
0.0
 11
561.621831
 21
331.959886
 31
0.0
 70
   160
  1
110
 71
     5
 42
110.0
 53
90.0
  3
LC-DIM-L-0100-02-02
100
AcDbAlignedDimension
 13
469.97653
 23
429.570616
 33
0.0
 14
23.99441
 24
319.570616
 34
0.0
 50
90.0
100
AcDbRotatedDimension
  0
INSERT
  5
67C
330
1F
100
AcDbEntity
  8
LC-001-100-D00-0
 62
     7
370
    25
100
AcDbBlockReference
  2
KLON23
 10
0.0
 20
0.0
 30
0.0
  0
INSERT
  5
698
330
1F
100
AcDbEntity
  8
LC-001-100-D00-0
 62
     7
370
    25
100
AcDbBlockReference
  2
KLON24
 10
0.0
 20
0.0
 30
0.0
  0
INSERT
  5
6A0
330
1F
100
AcDbEntity
  8
LC-001-100-D00-0
 62
     7
370
    25
100
AcDbBlockReference
  2
KLON25
 10
0.0
 20
0.0
 30
0.0
  0
INSERT
  5
6A8
330
1F
100
AcDbEntity
  8
LC-001-100-D00-0
 62
     7
370
    25
100
AcDbBlockReference
  2
KLON26
 10
0.0
 20
0.0
 30
0.0
  0
INSERT
  5
6B7
330
1F
100
AcDbEntity
  8
LC-001-100-D00-0
 62
     7
370
    25
100
AcDbBlockReference
  2
KLON27
 10
0.0
 20
0.0
 30
0.0
  0
INSERT
  5
6BF
330
1F
100
AcDbEntity
  8
LC-001-100-D00-0
 62
     7
370
    25
100
AcDbBlockReference
  2
KLON28
 10
0.0
 20
0.0
 30
0.0
  0
INSERT
  5
6C6
330
1F
100
AcDbEntity
  8
LC-001-100-D00-0
 62
     7
370
    25
100
AcDbBlockReference
  2
KLON29
 10
0.0
 20
0.0
 30
0.0
  0
LINE
  5
6C7
330
1F
100
AcDbEntity
  8
LC-001-100-D00-0
 62
     7
370
    50
100
AcDbLine
 10
-90.52134
 20
398.570616
 30
0.0
 11
-87.383265
 21
401.708691
 31
0.0
  0
LINE
  5
6C8
330
1F
100
AcDbEntity
  8
LC-001-100-D00-0
 62
     7
370
    25
100
AcDbLine
 10
40.97653
 20
395.364649
 30
0.0
 11
43.97653
 21
398.364649
 31
0.0
  0
INSERT
  5
6CE
330
1F
100
AcDbEntity
  8
LC-001-100-D00-0
 62
     7
370
    25
100
AcDbBlockReference
  2
KLON30
 10
0.0
 20
0.0
 30
0.0
  0
INSERT
  5
6DD
330
1F
100
AcDbEntity
  8
LC-001-100-D00-0
 62
     7
370
    25
100
AcDbBlockReference
  2
KLON31
 10
0.0
 20
0.0
 30
0.0
  0
INSERT
  5
6E3
330
1F
100
AcDbEntity
  8
LC-001-100-D00-0
 62
     7
370
    25
100
AcDbBlockReference
  2
KLON32
 10
0.0
 20
0.0
 30
0.0
  0
LINE
  5
6E4
330
1F
100
AcDbEntity
  8
LC-001-100-D00-0
 62
     7
370
    50
100
AcDbLine
 10
393.659309
 20
411.287837
 30
0.0
 11
395.320701
 21
412.949229
 31
0.0
  0
LINE
  5
6E5
330
1F
100
AcDbEntity
  8
LC-001-100-D00-0
 62
     7
370
    25
100
AcDbLine
 10
380.22653
 20
420.305698
 30
0.0
 11
386.07653
 21
426.155699
 31
0.0
  0
INSERT
  5
6EB
330
1F
100
AcDbEntity
  8
LC-001-100-D00-0
 62
     7
370
    25
100
AcDbBlockReference
  2
KLON33
 10
0.0
 20
0.0
 30
0.0
  0
LINE
  5
6EC
330
1F
100
AcDbEntity
  8
LC-001-100-D00-0
 62
     7
370
    50
100
AcDbLine
 10
63.625677
 20
418.013798
 30
0.0
 11
64.182495
 21
418.570616
 31
0.0
  0
INSERT
  5
6F3
330
1F
100
AcDbEntity
  8
LC-001-100-D00-0
 62
     7
370
    25
100
AcDbBlockReference
  2
KLON34
 10
0.0
 20
0.0
 30
0.0
  0
INSERT
  5
6F9
330
1F
100
AcDbEntity
  8
LC-001-100-D00-0
 62
     7
370
    25
100
AcDbBlockReference
  2
KLON35
 10
0.0
 20
0.0
 30
0.0
  0
LINE
  5
6FA
330
1F
100
AcDbEntity
  8
LC-001-100-D00-0
 62
     7
370
    50
100
AcDbLine
 10
-455.22347
 20
415.529359
 30
0.0
 11
-453.42347
 21
417.329359
 31
0.0
  0
INSERT
  5
700
330
1F
100
AcDbEntity
  8
LC-001-100-D00-0
 62
     7
370
    25
100
AcDbBlockReference
  2
KLON36
 10
0.0
 20
0.0
 30
0.0
  0
LINE
  5
701
330
1F
100
AcDbEntity
  8
LC-001-100-D00-0
 62
     7
370
    25
100
AcDbLine
 10
-446.12347
 20
424.629359
 30
0.0
 11
-441.182214
 21
429.570616
 31
0.0
  0
LINE
  5
702
330
1F
100
AcDbEntity
  8
LC-001-100-D00-0
 62
     7
370
    50
100
AcDbLine
 10
-296.374323
 20
417.224029
 30
0.0
 11
-295.027737
 21
418.570616
 31
0.0
  0
INSERT
  5
709
330
1F
100
AcDbEntity
  8
LC-001-100-D00-0
 62
     7
370
    25
100
AcDbBlockReference
  2
KLON37
 10
0.0
 20
0.0
 30
0.0
  0
LINE
  5
70A
330
1F
100
AcDbEntity
  8
LC-001-100-D00-0
 62
     7
370
    25
100
AcDbLine
 10
-286.12347
 20
427.474883
 30
0.0
 11
-284.027738
 21
429.570616
 31
0.0
  0
LINE
  5
70B
330
1F
100
AcDbEntity
  8
LC-001-100-D00-0
 62
     7
370
    50
100
AcDbLine
 10
235.787611
 20
410.570616
 30
0.0
 11
236.327383
 21
411.110387
 31
0.0
  0
LINE
  5
70C
330
1F
100
AcDbEntity
  8
LC-001-100-D00-0
 62
     7
370
    25
100
AcDbLine
 10
220.22653
 20
417.460174
 30
0.0
 11
226.07653
 21
423.310175
 31
0.0
  0
INSERT
  5
712
330
1F
100
AcDbEntity
  8
LC-001-100-D00-0
 62
     7
370
    25
100
AcDbBlockReference
  2
KLON38
 10
0.0
 20
0.0
 30
0.0
  0
LINE
  5
713
330
1F
100
AcDbEntity
  8
LC-001-100-D00-0
 62
     7
370
    25
100
AcDbLine
 10
-139.77347
 20
416.670406
 30
0.0
 11
-133.92347
 21
422.520406
 31
0.0
  0
LINE
  5
714
330
1F
100
AcDbEntity
  8
LC-001-100-D00-0
 62
     7
370
    25
100
AcDbLine
 10
-123.42262
 20
410.570616
 30
0.0
 11
-120.27347
 21
413.719766
 31
0.0
  0
LINE
  5
715
330
1F
100
AcDbEntity
  8
LC-001-100-D00-0
  6
DASHDOT
 62
     7
370
    25
100
AcDbLine
 10
-30.02347
 20
398.070616
 30
0.0
 11
-30.02347
 21
317.070616
 31
0.0
  0
LINE
  5
716
330
1F
100
AcDbEntity
  8
LC-001-100-D00-0
  6
DASHDOT
 62
     7
370
    25
100
AcDbLine
 10
185.976327
 20
352.070616
 30
0.0
 11
82.951311
 21
352.070616
 31
0.0
  0
LINE
  5
717
330
1F
100
AcDbEntity
  8
LC-001-100-D00-0
  6
DASHDOT
 62
     7
370
    25
100
AcDbLine
 10
389.97653
 20
401.570616
 30
0.0
 11
389.97653
 21
435.570616
 31
0.0
  0
LINE
  5
718
330
1F
100
AcDbEntity
  8
LC-001-100-D00-0
  6
DASHDOT
 62
     7
370
    25
100
AcDbLine
 10
229.97653
 20
401.570616
 30
0.0
 11
229.97653
 21
435.570616
 31
0.0
  0
LINE
  5
719
330
1F
100
AcDbEntity
  8
LC-001-100-D00-0
  6
DASHDOT
 62
     7
370
    25
100
AcDbLine
 10
69.97653
 20
401.570616
 30
0.0
 11
69.97653
 21
435.570616
 31
0.0
  0
LINE
  5
71A
330
1F
100
AcDbEntity
  8
LC-001-100-D00-0
  6
DASHDOT
 62
     7
370
    25
100
AcDbLine
 10
-130.02347
 20
401.570616
 30
0.0
 11
-130.02347
 21
435.570616
 31
0.0
  0
LINE
  5
71B
330
1F
100
AcDbEntity
  8
LC-001-100-D00-0
  6
DASHDOT
 62
     7
370
    25
100
AcDbLine
 10
-290.02347
 20
401.570616
 30
0.0
 11
-290.02347
 21
435.570616
 31
0.0
  0
LINE
  5
71C
330
1F
100
AcDbEntity
  8
LC-001-100-D00-0
  6
DASHDOT
 62
     7
370
    25
100
AcDbLine
 10
-450.02347
 20
401.570616
 30
0.0
 11
-450.02347
 21
435.570616
 31
0.0
  0
DIMENSION
  5
71E
330
1F
100
AcDbEntity
  8
LC-002-003-----0
 62
     7
370
    25
100
AcDbDimension
  2
*D52
 10
1009.436197
 20
295.070616
 30
0.0
 11
954.436197
 21
370.472616
 31
0.0
 70
   160
  1
110-129,5
 71
     5
 42
134.5
 53
90.0
  3
LC-DIM-L-0100-02-02
100
AcDbAlignedDimension
 13
963.07653
 23
429.570616
 33
0.0
 14
959.57653
 24
295.070616
 34
0.0
 50
90.0
100
AcDbRotatedDimension
  0
ENDSEC
  0
SECTION
  2
OBJECTS
  0
DICTIONARY
  5
C
330
0
100
AcDbDictionary
281
     1
  3
ACAD_GROUP
350
D
  3
ACAD_LAYOUT
350
1A
  3
ACAD_MLINESTYLE
350
17
  3
ACAD_PLOTSETTINGS
350
19
  3
ACAD_PLOTSTYLENAME
350
E
  0
DICTIONARY
  5
D
102
{ACAD_REACTORS
330
C
102
}
330
C
100
AcDbDictionary
281
     1
  0
DICTIONARY
  5
1A
102
{ACAD_REACTORS
330
C
102
}
330
C
100
AcDbDictionary
281
     1
  3
Layout1
350
1E
  3
Layout2
350
26
  3
Model
350
22
  0
DICTIONARY
  5
17
102
{ACAD_REACTORS
330
C
102
}
330
C
100
AcDbDictionary
281
     1
  3
Standard
350
18
  0
DICTIONARY
  5
19
102
{ACAD_REACTORS
330
C
102
}
330
C
100
AcDbDictionary
281
     1
  0
ACDBDICTIONARYWDFLT
  5
E
102
{ACAD_REACTORS
330
C
102
}
330
C
100
AcDbDictionary
281
     1
  3
Normal
350
F
100
AcDbDictionaryWithDefault
340
F
  0
LAYOUT
  5
1E
102
{ACAD_REACTORS
330
1A
102
}
330
1A
100
AcDbPlotSettings
  1

  2

  4

  6

 40
0.0
 41
0.0
 42
0.0
 43
0.0
 44
0.0
 45
0.0
 46
0.0
 47
0.0
 48
0.0
 49
0.0
140
0.0
141
0.0
142
1.0
143
1.0
 70
   688
 72
     0
 73
     0
 74
     5
  7

 75
    16
147
1.0
148
0.0
149
0.0
100
AcDbLayout
  1
Layout1
 70
     1
 71
     1
 10
-839.701608
 20
-611.015114
 11
1260.298392
 21
873.984886
 12
0.0
 22
0.0
 32
0.0
 14
-839.701608
 24
-611.015114
 34
0.0
 15
1260.298392
 25
873.984886
 35
0.0
146
0.0
 13
0.0
 23
0.0
 33
0.0
 16
1.0
 26
0.0
 36
0.0
 17
0.0
 27
1.0
 37
0.0
 76
     0
330
1B
  0
LAYOUT
  5
26
102
{ACAD_REACTORS
330
1A
102
}
330
1A
100
AcDbPlotSettings
  1

  2

  4

  6

 40
0.0
 41
0.0
 42
0.0
 43
0.0
 44
0.0
 45
0.0
 46
0.0
 47
0.0
 48
0.0
 49
0.0
140
0.0
141
0.0
142
1.0
143
1.0
 70
   688
 72
     0
 73
     0
 74
     5
  7

 75
    16
147
1.0
148
0.0
149
0.0
100
AcDbLayout
  1
Layout2
 70
     1
 71
     2
 10
0.0
 20
0.0
 11
0.0
 21
0.0
 12
0.0
 22
0.0
 32
0.0
 14
0.0
 24
0.0
 34
0.0
 15
0.0
 25
0.0
 35
0.0
146
0.0
 13
0.0
 23
0.0
 33
0.0
 16
1.0
 26
0.0
 36
0.0
 17
0.0
 27
1.0
 37
0.0
 76
     0
330
23
  0
LAYOUT
  5
22
102
{ACAD_REACTORS
330
1A
102
}
330
1A
100
AcDbPlotSettings
  1

  2

  4

  6

 40
0.0
 41
0.0
 42
0.0
 43
0.0
 44
0.0
 45
0.0
 46
0.0
 47
0.0
 48
0.0
 49
0.0
140
0.0
141
0.0
142
1.0
143
1.0
 70
  1776
 72
     0
 73
     0
 74
     0
  7

 75
     0
147
1.0
148
0.0
149
0.0
100
AcDbLayout
  1
Model
 70
     1
 71
     0
 10
-839.701608
 20
-611.015114
 11
1260.298392
 21
873.984886
 12
0.0
 22
0.0
 32
0.0
 14
-839.701608
 24
-611.015114
 34
0.0
 15
1260.298392
 25
873.984886
 35
0.0
146
0.0
 13
0.0
 23
0.0
 33
0.0
 16
1.0
 26
0.0
 36
0.0
 17
0.0
 27
1.0
 37
0.0
 76
     0
330
1F
  0
MLINESTYLE
  5
18
102
{ACAD_REACTORS
330
17
102
}
330
17
100
AcDbMlineStyle
  2
Standard
 70
     0
  3

 62
   256
 51
90.0
 52
90.0
 71
     2
 49
0.5
 62
   256
  6
BYLAYER
 49
-0.5
 62
   256
  6
BYLAYER
  0
ACDBPLACEHOLDER
  5
F
102
{ACAD_REACTORS
330
E
102
}
330
E
  0
ENDSEC
  0
EOF
