  0
SECTION
  2
HEADER
  9
$ACADVER
  1
AC1009
  9
$INSBASE
 10
0.0
 20
0.0
 30
0.0
  9
$EXTMIN
 10
0.0
 20
0.0
 30
0.0
  9
$EXTMAX
 10
840.0
 20
594.0
 30
0.0
  9
$LIMMIN
 10
0.0
 20
0.0
  9
$LIMMAX
 10
840.0
 20
594.0
  9
$ORTHOMODE
 70
     0
  9
$REGENMODE
 70
     1
  9
$FILLMODE
 70
     1
  9
$QTEXTMODE
 70
     0
  9
$MIRRTEXT
 70
     1
  9
$DRAGMODE
 70
     2
  9
$LTSCALE
 40
2.0
  9
$OSMODE
 70
     0
  9
$ATTMODE
 70
     1
  9
$TEXTSIZE
 40
0.2
  9
$TRACEWID
 40
0.05
  9
$TEXTSTYLE
  7
STANDARD
  9
$CLAYER
  8
0
  9
$CELTYPE
  6
BYLAYER
  9
$CECOLOR
 62
     7
  9
$DIMSCALE
 40
2.0
  9
$DIMASZ
 40
3.5
  9
$DIMEXO
 40
0.0625
  9
$DIMDLI
 40
0.38
  9
$DIMRND
 40
0.0
  9
$DIMDLE
 40
0.0
  9
$DIMEXE
 40
0.18
  9
$DIMTP
 40
0.0
  9
$DIMTM
 40
0.0
  9
$DIMTXT
 40
3.5
  9
$DIMCEN
 40
0.09
  9
$DIMTSZ
 40
0.0
  9
$DIMTOL
 70
     0
  9
$DIMLIM
 70
     0
  9
$DIMTIH
 70
     1
  9
$DIMTOH
 70
     1
  9
$DIMSE1
 70
     0
  9
$DIMSE2
 70
     0
  9
$DIMTAD
 70
     1
  9
$DIMZIN
 70
     0
  9
$DIMBLK
  1

  9
$DIMASO
 70
     1
  9
$DIMSHO
 70
     1
  9
$DIMPOST
  1

  9
$DIMAPOST
  1

  9
$DIMALT
 70
     0
  9
$DIMALTD
 70
     2
  9
$DIMALTF
 40
25.4
  9
$DIMLFAC
 40
1.0
  9
$DIMTOFL
 70
     0
  9
$DIMTVP
 40
0.0
  9
$DIMTIX
 70
     0
  9
$DIMSOXD
 70
     0
  9
$DIMSAH
 70
     0
  9
$DIMBLK1
  1

  9
$DIMBLK2
  1

  9
$DIMSTYLE
  2
STANDARD
  9
$DIMCLRD
 70
     0
  9
$DIMCLRE
 70
     0
  9
$DIMCLRT
 70
     0
  9
$DIMTFAC
 40
1.0
  9
$DIMGAP
 40
0.09
  9
$LUNITS
 70
     2
  9
$LUPREC
 70
     2
  9
$AXISMODE
 70
     0
  9
$AXISUNIT
 10
0.0
 20
0.0
  9
$SKETCHINC
 40
0.1
  9
$FILLETRAD
 40
0.0
  9
$AUNITS
 70
     0
  9
$AUPREC
 70
     0
  9
$MENU
  1
acad
  9
$ELEVATION
 40
0.0
  9
$PELEVATION
 40
0.0
  9
$THICKNESS
 40
0.0
  9
$LIMCHECK
 70
     0
  9
$BLIPMODE
 70
     1
  9
$CHAMFERA
 40
0.0
  9
$CHAMFERB
 40
0.0
  9
$SKPOLY
 70
     0
  9
$TDCREATE
 40
0.000000000
  9
$TDUPDATE
 40
0.000000000
  9
$TDINDWG
 40
0.0000000000
  9
$TDUSRTIMER
 40
0.0000000000
  9
$USRTIMER
 70
     1
  9
$ANGBASE
 50
0.0
  9
$ANGDIR
 70
     0
  9
$PDMODE
 70
     0
  9
$PDSIZE
 40
0.0
  9
$PLINEWID
 40
0.0
  9
$COORDS
 70
     0
  9
$SPLFRAME
 70
     0
  9
$SPLINETYPE
 70
     6
  9
$SPLINESEGS
 70
     8
  9
$ATTDIA
 70
     0
  9
$ATTREQ
 70
     1
  9
$HANDLING
 70
     1
  9
$HANDSEED
  5
8A7
  9
$SURFTAB1
 70
     6
  9
$SURFTAB2
 70
     6
  9
$SURFTYPE
 70
     6
  9
$SURFU
 70
     6
  9
$SURFV
 70
     6
  9
$UCSNAME
  2

  9
$UCSORG
 10
0.0
 20
0.0
 30
0.0
  9
$UCSXDIR
 10
1.0
 20
0.0
 30
0.0
  9
$UCSYDIR
 10
0.0
 20
1.0
 30
0.0
  9
$PUCSNAME
  2

  9
$PUCSORG
 10
0.0
 20
0.0
 30
0.0
  9
$PUCSXDIR
 10
1.0
 20
0.0
 30
0.0
  9
$PUCSYDIR
 10
0.0
 20
1.0
 30
0.0
  9
$USERI1
 70
     0
  9
$USERI2
 70
     0
  9
$USERI3
 70
     0
  9
$USERI4
 70
     0
  9
$USERI5
 70
     0
  9
$USERR1
 40
0.0
  9
$USERR2
 40
0.0
  9
$USERR3
 40
0.0
  9
$USERR4
 40
0.0
  9
$USERR5
 40
0.0
  9
$WORLDVIEW
 70
     1
  9
$SHADEDGE
 70
     3
  9
$SHADEDIF
 70
    70
  9
$TILEMODE
 70
     1
  9
$MAXACTVP
 70
    16
  9
$PINSBASE
 10
0.0
 20
0.0
 30
0.0
  9
$PLIMCHECK
 70
     0
  9
$PEXTMIN
 10
1.000000E+20
 20
1.000000E+20
 30
1.000000E+20
  9
$PEXTMAX
 10
-1.000000E+20
 20
-1.000000E+20
 30
-1.000000E+20
  9
$PLIMMIN
 10
0.0
 20
0.0
  9
$PLIMMAX
 10
840.0
 20
594.0
  9
$UNITMODE
 70
     0
  9
$VISRETAIN
 70
     0
  9
$PLINEGEN
 70
     1
  9
$PSLTSCALE
 70
     0
  9
$TREEDEPTH
 70
  3020
  9
$DWGCODEPAGE
  3
dos850
  0
ENDSEC
  0
SECTION
  2
TABLES
  0
TABLE
  2
VPORT
 70
     1
  0
VPORT
  2
*ACTIVE
 70
     0
 10
0.0
 20
0.0
 11
1.0
 21
1.0
 12
420.0
 22
297.0
 13
0.0
 23
0.0
 14
1.0
 24
1.0
 15
0.0
 25
0.0
 16
0.0
 26
0.0
 36
1.0
 17
0.0
 27
0.0
 37
0.0
 40
594.0
 41
1.604229
 42
50.0
 43
0.0
 44
0.0
 50
0.0
 51
0.0
 71
     0
 72
   100
 73
     1
 74
     1
 75
     0
 76
     0
 77
     0
 78
     0
  0
ENDTAB
  0
TABLE
  2
LTYPE
 70
     3
  0
LTYPE
  2
CONTINUOUS
 70
    64
  3
Solid line
 72
    65
 73
     0
 40
0.0
  0
LTYPE
  2
DASHED
 70
    64
  3
__ __ __ __ __
 72
    65
 73
     2
 40
6.25
 49
5.0
 49
-1.25
  0
LTYPE
  2
DASHDOT
 70
    64
  3
__ . __ . __ . __ . __
 72
    65
 73
     4
 40
7.5
 49
5.0
 49
-1.25
 49
0.0
 49
-1.25
  0
ENDTAB
  0
TABLE
  2
LAYER
 70
    18
  0
LAYER
  2
0
 70
     0
 62
     7
  6
CONTINUOUS
  0
LAYER
  2
LC-INFO-1-2-MM-A3-0
 70
     1
 62
    -1
  6
CONTINUOUS
  0
LAYER
  2
LC-006-005-----0
 70
     0
 62
     2
  6
CONTINUOUS
  0
LAYER
  2
LC-014-003-MTH-0
 70
     0
 62
     2
  6
CONTINUOUS
  0
LAYER
  2
LC-013-003-----0
 70
     0
 62
     2
  6
CONTINUOUS
  0
LAYER
  2
LC-015-003-MTG-0
 70
     0
 62
     2
  6
CONTINUOUS
  0
LAYER
  2
LC-002-000-----0
 70
     0
 62
     7
  6
CONTINUOUS
  0
LAYER
  2
LC-011-000-----0
 70
     0
 62
     7
  6
CONTINUOUS
  0
LAYER
  2
LC-001-205-----0
 70
     0
 62
     1
  6
CONTINUOUS
  0
LAYER
  2
LC-003-002-----0
 70
     0
 62
     1
  6
CONTINUOUS
  0
LAYER
  2
LC-004-205-RND-0
 70
     0
 62
     1
  6
CONTINUOUS
  0
LAYER
  2
LC-005-002-RND-0
 70
     0
 62
     1
  6
CONTINUOUS
  0
LAYER
  2
LC-007-209-----0
 70
     0
 62
     2
  6
DASHED
  0
LAYER
  2
LC-008-208-----0
 70
     0
 62
     2
  6
DASHED
  0
LAYER
  2
LC-009-207-----0
 70
     0
 62
     1
  6
CONTINUOUS
  0
LAYER
  2
LC-010-207-RND-0
 70
     0
 62
     1
  6
CONTINUOUS
  0
LAYER
  2
LC-012-206-----0
 70
     0
 62
     1
  6
CONTINUOUS
  0
LAYER
  2
LC-000
 70
     0
 62
     7
  6
CONTINUOUS
  0
ENDTAB
  0
TABLE
  2
STYLE
 70
     4
  0
STYLE
  2
STANDARD
 70
     0
 40
0.0
 41
1.0
 50
0.0
 71
     0
 42
0.0
  3
txt
  4

  0
STYLE
  2
LC-STANDARD
 70
    64
 40
0.0
 41
1.0
 50
0.0
 71
     0
 42
3.5
  3
MONOTXT
  4

  0
STYLE
  2
LC-TXTSTYLE-150-400-0-0-A2
 70
    64
 40
0.0
 41
1.0
 50
15.0
 71
     0
 42
3.5
  3
MONOTXT
  4

  0
STYLE
  2
LC-TXTSTYLE-150-400-0-0-D3
 70
    64
 40
0.0
 41
1.0
 50
15.0
 71
     0
 42
3.5
  3
LC-STANDARD
  4

  0
ENDTAB
  0
TABLE
  2
VIEW
 70
     0
  0
ENDTAB
  0
TABLE
  2
UCS
 70
     0
  0
ENDTAB
  0
TABLE
  2
APPID
 70
     1
  0
APPID
  2
ACAD
 70
     0
  0
ENDTAB
  0
TABLE
  2
DIMSTYLE
 70
     4
  0
DIMSTYLE
  2
STANDARD
 70
     0
  3

  4

  5

  6

  7

 40
1.0
 41
0.18
 42
0.0625
 43
0.38
 44
0.18
 45
0.0
 46
0.0
 47
0.0
 48
0.0
 71
     0
 72
     0
 73
     1
 74
     1
 75
     0
 76
     0
 77
     0
 78
     0
140
0.18
141
0.09
142
0.0
143
25.4
144
1.0
145
0.0
146
1.0
147
0.09
170
     0
171
     2
172
     0
173
     0
174
     0
175
     0
176
     0
177
     0
178
     0
  0
DIMSTYLE
  2
LC-STANDARD
 70
     0
  3

  4

  5

  6

  7

 40
1.0
 41
3.5
 42
0.0
 43
7.5
 44
1.8
 45
0.0
 46
0.0
 47
0.0
 48
0.0
 71
     0
 72
     0
 73
     0
 74
     0
 75
     0
 76
     0
 77
     1
 78
     8
140
3.5
141
0.0
142
0.0
143
25.4
144
1.0
145
0.0
146
0.71
147
1.5
170
     0
171
     2
172
     1
173
     0
174
     0
175
     0
176
     0
177
     0
178
     3
  0
DIMSTYLE
  2
LC-DIM-L-0140-02-02
 70
     0
  3

  4

  5

  6

  7

 40
2.0
 41
3.5
 42
0.0
 43
7.5
 44
1.8
 45
0.0
 46
0.0
 47
0.0
 48
0.0
 71
     0
 72
     0
 73
     0
 74
     0
 75
     0
 76
     0
 77
     1
 78
     8
140
14.0
141
0.0
142
0.0
143
25.4
144
1.0
145
0.0
146
0.71
147
1.5
170
     0
171
     2
172
     0
173
     0
174
     0
175
     0
176
     2
177
     2
178
     8
  0
DIMSTYLE
  2
LC-DIM-W-0140-02-02
 70
     0
  3

  4

  5

  6

  7

 40
2.0
 41
3.5
 42
0.0
 43
7.5
 44
1.8
 45
0.0
 46
0.0
 47
0.0
 48
0.0
 71
     0
 72
     0
 73
     0
 74
     0
 75
     0
 76
     0
 77
     1
 78
     8
140
14.0
141
0.0
142
0.0
143
25.4
144
1.0
145
0.0
146
0.71
147
1.5
170
     0
171
     2
172
     0
173
     0
174
     0
175
     0
176
     2
177
     2
178
     8
  0
ENDTAB
  0
ENDSEC
  0
SECTION
  2
BLOCKS
  0
BLOCK
  8
0
  5
24
  2
BLK1
 70
    64
 10
0.0
 20
0.0
 30
0.0
  3
BLK1
  0
ENDBLK
  8
0
  5
25
  0
BLOCK
  8
0
  5
27
  2
*X1
 70
    65
 10
178.594566
 20
316.944788
 30
0.0
  3
*X1
  0
LINE
  8
LC-006-005-----0
  6
CONTINUOUS
  5
29
 10
178.648035
 20
319.155139
 30
0.0
 11
180.804917
 21
316.998257
 31
0.0
  0
LINE
  8
LC-006-005-----0
  6
CONTINUOUS
  5
2A
 10
178.715631
 20
320.501757
 30
0.0
 11
182.2726
 21
316.944788
 31
0.0
  0
LINE
  8
LC-006-005-----0
  6
CONTINUOUS
  5
2B
 10
179.206863
 20
321.424738
 30
0.0
 11
183.686813
 21
316.944788
 31
0.0
  0
LINE
  8
LC-006-005-----0
  6
CONTINUOUS
  5
2C
 10
179.969497
 20
322.076318
 30
0.0
 11
185.017437
 21
317.028377
 31
0.0
  0
LINE
  8
LC-006-005-----0
  6
CONTINUOUS
  5
2D
 10
181.032953
 20
322.427076
 30
0.0
 11
185.977752
 21
317.482277
 31
0.0
  0
LINE
  8
LC-006-005-----0
  6
CONTINUOUS
  5
2E
 10
182.429454
 20
322.444788
 30
0.0
 11
186.661218
 21
318.213024
 31
0.0
  0
LINE
  8
LC-006-005-----0
  6
CONTINUOUS
  5
2F
 10
183.843668
 20
322.444788
 30
0.0
 11
187.055508
 21
319.232948
 31
0.0
  0
LINE
  8
LC-006-005-----0
  6
CONTINUOUS
  5
30
 10
185.523322
 20
322.179347
 30
0.0
 11
186.829126
 21
320.873543
 31
0.0
  0
ENDBLK
  8
0
  5
31
  0
BLOCK
  8
0
  5
33
  2
*X2
 70
    65
 10
178.594566
 20
262.444788
 30
0.0
  3
*X2
  0
LINE
  8
LC-006-005-----0
  6
CONTINUOUS
  5
34
 10
178.607005
 20
265.456053
 30
0.0
 11
181.618271
 21
262.444788
 31
0.0
  0
LINE
  8
LC-006-005-----0
  6
CONTINUOUS
  5
35
 10
178.942898
 20
266.534374
 30
0.0
 11
183.032484
 21
262.444788
 31
0.0
  0
LINE
  8
LC-006-005-----0
  6
CONTINUOUS
  5
36
 10
179.584076
 20
267.30741
 30
0.0
 11
184.444868
 21
262.446617
 31
0.0
  0
LINE
  8
LC-006-005-----0
  6
CONTINUOUS
  5
37
 10
180.495326
 20
267.810374
 30
0.0
 11
185.571858
 21
262.733842
 31
0.0
  0
LINE
  8
LC-006-005-----0
  6
CONTINUOUS
  5
38
 10
181.775125
 20
267.944788
 30
0.0
 11
186.377293
 21
263.34262
 31
0.0
  0
LINE
  8
LC-006-005-----0
  6
CONTINUOUS
  5
39
 10
183.189339
 20
267.944788
 30
0.0
 11
186.915487
 21
264.218639
 31
0.0
  0
LINE
  8
LC-006-005-----0
  6
CONTINUOUS
  5
3A
 10
184.617089
 20
267.931251
 30
0.0
 11
187.08103
 21
265.46731
 31
0.0
  0
ENDBLK
  8
0
  5
3B
  0
BLOCK
  8
0
  5
3D
  2
*X3
 70
    65
 10
372.069197
 20
317.335137
 30
0.0
  3
*X3
  0
LINE
  8
LC-006-005-----0
  6
CONTINUOUS
  5
3E
 10
372.069197
 20
317.501336
 30
0.0
 11
372.235396
 21
317.335137
 31
0.0
  0
LINE
  8
LC-006-005-----0
  6
CONTINUOUS
  5
3F
 10
372.069197
 20
317.784178
 30
0.0
 11
372.518239
 21
317.335137
 31
0.0
  0
LINE
  8
LC-006-005-----0
  6
CONTINUOUS
  5
40
 10
372.069197
 20
318.067021
 30
0.0
 11
372.801081
 21
317.335137
 31
0.0
  0
LINE
  8
LC-006-005-----0
  6
CONTINUOUS
  5
41
 10
372.069197
 20
318.349864
 30
0.0
 11
373.083924
 21
317.335137
 31
0.0
  0
LINE
  8
LC-006-005-----0
  6
CONTINUOUS
  5
42
 10
372.176767
 20
318.525137
 30
0.0
 11
373.366767
 21
317.335137
 31
0.0
  0
LINE
  8
LC-006-005-----0
  6
CONTINUOUS
  5
43
 10
372.459609
 20
318.525137
 30
0.0
 11
373.649609
 21
317.335137
 31
0.0
  0
LINE
  8
LC-006-005-----0
  6
CONTINUOUS
  5
44
 10
372.742452
 20
318.525137
 30
0.0
 11
373.932452
 21
317.335137
 31
0.0
  0
LINE
  8
LC-006-005-----0
  6
CONTINUOUS
  5
45
 10
373.025295
 20
318.525137
 30
0.0
 11
374.215295
 21
317.335137
 31
0.0
  0
LINE
  8
LC-006-005-----0
  6
CONTINUOUS
  5
46
 10
373.308138
 20
318.525137
 30
0.0
 11
374.498138
 21
317.335137
 31
0.0
  0
LINE
  8
LC-006-005-----0
  6
CONTINUOUS
  5
47
 10
373.59098
 20
318.525137
 30
0.0
 11
374.78098
 21
317.335137
 31
0.0
  0
LINE
  8
LC-006-005-----0
  6
CONTINUOUS
  5
48
 10
373.873823
 20
318.525137
 30
0.0
 11
375.063823
 21
317.335137
 31
0.0
  0
LINE
  8
LC-006-005-----0
  6
CONTINUOUS
  5
49
 10
374.156666
 20
318.525137
 30
0.0
 11
375.346666
 21
317.335137
 31
0.0
  0
LINE
  8
LC-006-005-----0
  6
CONTINUOUS
  5
4A
 10
374.439508
 20
318.525137
 30
0.0
 11
375.629508
 21
317.335137
 31
0.0
  0
LINE
  8
LC-006-005-----0
  6
CONTINUOUS
  5
4B
 10
374.722351
 20
318.525137
 30
0.0
 11
375.912351
 21
317.335137
 31
0.0
  0
LINE
  8
LC-006-005-----0
  6
CONTINUOUS
  5
4C
 10
375.005194
 20
318.525137
 30
0.0
 11
376.195194
 21
317.335137
 31
0.0
  0
LINE
  8
LC-006-005-----0
  6
CONTINUOUS
  5
4D
 10
375.288037
 20
318.525137
 30
0.0
 11
376.219197
 21
317.593976
 31
0.0
  0
LINE
  8
LC-006-005-----0
  6
CONTINUOUS
  5
4E
 10
375.570879
 20
318.525137
 30
0.0
 11
376.219197
 21
317.876819
 31
0.0
  0
LINE
  8
LC-006-005-----0
  6
CONTINUOUS
  5
4F
 10
375.853722
 20
318.525137
 30
0.0
 11
376.219197
 21
318.159662
 31
0.0
  0
LINE
  8
LC-006-005-----0
  6
CONTINUOUS
  5
50
 10
376.136565
 20
318.525137
 30
0.0
 11
376.219197
 21
318.442505
 31
0.0
  0
ENDBLK
  8
0
  5
51
  0
BLOCK
  8
0
  5
53
  2
*X4
 70
    65
 10
410.919197
 20
317.335137
 30
0.0
  3
*X4
  0
LINE
  8
LC-006-005-----0
  6
CONTINUOUS
  5
54
 10
410.919197
 20
317.400787
 30
0.0
 11
410.984847
 21
317.335137
 31
0.0
  0
LINE
  8
LC-006-005-----0
  6
CONTINUOUS
  5
55
 10
410.919197
 20
317.68363
 30
0.0
 11
411.26769
 21
317.335137
 31
0.0
  0
LINE
  8
LC-006-005-----0
  6
CONTINUOUS
  5
56
 10
410.919197
 20
317.966473
 30
0.0
 11
411.550533
 21
317.335137
 31
0.0
  0
LINE
  8
LC-006-005-----0
  6
CONTINUOUS
  5
57
 10
410.919197
 20
318.249315
 30
0.0
 11
411.833376
 21
317.335137
 31
0.0
  0
LINE
  8
LC-006-005-----0
  6
CONTINUOUS
  5
58
 10
410.926218
 20
318.525137
 30
0.0
 11
412.116218
 21
317.335137
 31
0.0
  0
LINE
  8
LC-006-005-----0
  6
CONTINUOUS
  5
59
 10
411.209061
 20
318.525137
 30
0.0
 11
412.399061
 21
317.335137
 31
0.0
  0
LINE
  8
LC-006-005-----0
  6
CONTINUOUS
  5
5A
 10
411.491904
 20
318.525137
 30
0.0
 11
412.681904
 21
317.335137
 31
0.0
  0
LINE
  8
LC-006-005-----0
  6
CONTINUOUS
  5
5B
 10
411.774746
 20
318.525137
 30
0.0
 11
412.964746
 21
317.335137
 31
0.0
  0
LINE
  8
LC-006-005-----0
  6
CONTINUOUS
  5
5C
 10
412.057589
 20
318.525137
 30
0.0
 11
413.247589
 21
317.335137
 31
0.0
  0
LINE
  8
LC-006-005-----0
  6
CONTINUOUS
  5
5D
 10
412.340432
 20
318.525137
 30
0.0
 11
413.530432
 21
317.335137
 31
0.0
  0
LINE
  8
LC-006-005-----0
  6
CONTINUOUS
  5
5E
 10
412.623275
 20
318.525137
 30
0.0
 11
413.813275
 21
317.335137
 31
0.0
  0
LINE
  8
LC-006-005-----0
  6
CONTINUOUS
  5
5F
 10
412.906117
 20
318.525137
 30
0.0
 11
414.096117
 21
317.335137
 31
0.0
  0
LINE
  8
LC-006-005-----0
  6
CONTINUOUS
  5
60
 10
413.18896
 20
318.525137
 30
0.0
 11
414.37896
 21
317.335137
 31
0.0
  0
LINE
  8
LC-006-005-----0
  6
CONTINUOUS
  5
61
 10
413.471803
 20
318.525137
 30
0.0
 11
414.661803
 21
317.335137
 31
0.0
  0
LINE
  8
LC-006-005-----0
  6
CONTINUOUS
  5
62
 10
413.754645
 20
318.525137
 30
0.0
 11
414.944645
 21
317.335137
 31
0.0
  0
LINE
  8
LC-006-005-----0
  6
CONTINUOUS
  5
63
 10
414.037488
 20
318.525137
 30
0.0
 11
415.069197
 21
317.493428
 31
0.0
  0
LINE
  8
LC-006-005-----0
  6
CONTINUOUS
  5
64
 10
414.320331
 20
318.525137
 30
0.0
 11
415.069197
 21
317.776271
 31
0.0
  0
LINE
  8
LC-006-005-----0
  6
CONTINUOUS
  5
65
 10
414.603174
 20
318.525137
 30
0.0
 11
415.069197
 21
318.059113
 31
0.0
  0
LINE
  8
LC-006-005-----0
  6
CONTINUOUS
  5
66
 10
414.886016
 20
318.525137
 30
0.0
 11
415.069197
 21
318.341956
 31
0.0
  0
ENDBLK
  8
0
  5
67
  0
BLOCK
  8
0
  5
69
  2
BLK2
 70
    64
 10
0.0
 20
0.0
 30
0.0
  3
BLK2
  0
ENDBLK
  8
0
  5
6A
  0
BLOCK
  8
0
  5
6C
  2
*X6
 70
    65
 10
431.151623
 20
291.692069
 30
0.0
  3
*X6
  0
LINE
  8
LC-006-005-----0
  6
CONTINUOUS
  5
6D
 10
431.153595
 20
294.337963
 30
0.0
 11
433.797517
 21
291.69404
 31
0.0
  0
LINE
  8
LC-006-005-----0
  6
CONTINUOUS
  5
6E
 10
431.151623
 20
295.754148
 30
0.0
 11
434.989413
 21
291.916358
 31
0.0
  0
LINE
  8
LC-006-005-----0
  6
CONTINUOUS
  5
6F
 10
431.210746
 20
297.109238
 30
0.0
 11
435.834277
 21
292.485708
 31
0.0
  0
LINE
  8
LC-006-005-----0
  6
CONTINUOUS
  5
70
 10
431.634965
 20
298.099233
 30
0.0
 11
436.412881
 21
293.321317
 31
0.0
  0
LINE
  8
LC-006-005-----0
  6
CONTINUOUS
  5
71
 10
432.34163
 20
298.806781
 30
0.0
 11
436.651623
 21
294.496788
 31
0.0
  0
LINE
  8
LC-006-005-----0
  6
CONTINUOUS
  5
72
 10
433.330513
 20
299.232112
 30
0.0
 11
436.651623
 21
295.911002
 31
0.0
  0
LINE
  8
LC-006-005-----0
  6
CONTINUOUS
  5
73
 10
434.855504
 20
299.121335
 30
0.0
 11
436.480889
 21
297.49595
 31
0.0
  0
ENDBLK
  8
0
  5
74
  0
BLOCK
  8
0
  5
76
  2
*X7
 70
    65
 10
345.609197
 20
312.025137
 30
0.0
  3
*X7
  0
LINE
  8
LC-006-005-----0
  6
CONTINUOUS
  5
77
 10
373.669197
 20
313.638594
 30
0.0
 11
375.282654
 21
312.025137
 31
0.0
  0
LINE
  8
LC-006-005-----0
  6
CONTINUOUS
  5
78
 10
374.807171
 20
315.329047
 30
0.0
 11
378.111081
 21
312.025137
 31
0.0
  0
LINE
  8
LC-006-005-----0
  6
CONTINUOUS
  5
79
 10
372.069197
 20
320.895448
 30
0.0
 11
374.439508
 21
318.525137
 31
0.0
  0
LINE
  8
LC-006-005-----0
  6
CONTINUOUS
  5
7A
 10
376.219197
 20
316.745448
 30
0.0
 11
378.219197
 21
314.745448
 31
0.0
  0
LINE
  8
LC-006-005-----0
  6
CONTINUOUS
  5
7B
 10
374.267936
 20
321.525137
 30
0.0
 11
378.219197
 21
317.573875
 31
0.0
  0
LINE
  8
LC-006-005-----0
  6
CONTINUOUS
  5
7C
 10
377.096363
 20
321.525137
 30
0.0
 11
379.673213
 21
318.948286
 31
0.0
  0
LINE
  8
LC-006-005-----0
  6
CONTINUOUS
  5
7D
 10
380.735691
 20
320.714236
 30
0.0
 11
383.487208
 21
317.962719
 31
0.0
  0
LINE
  8
LC-006-005-----0
  6
CONTINUOUS
  5
7E
 10
384.485537
 20
319.792817
 30
0.0
 11
386.924824
 21
317.35353
 31
0.0
  0
LINE
  8
LC-006-005-----0
  6
CONTINUOUS
  5
7F
 10
387.865175
 20
319.241606
 30
0.0
 11
390.089324
 21
317.017457
 31
0.0
  0
LINE
  8
LC-006-005-----0
  6
CONTINUOUS
  5
80
 10
390.97567
 20
318.959538
 30
0.0
 11
393.041258
 21
316.893951
 31
0.0
  0
ENDBLK
  8
0
  5
81
  0
BLOCK
  8
0
  5
83
  2
*X8
 70
    65
 10
345.609197
 20
312.025137
 30
0.0
  3
*X8
  0
LINE
  8
LC-006-005-----0
  6
CONTINUOUS
  5
84
 10
393.876299
 20
318.887337
 30
0.0
 11
395.819757
 21
316.943879
 31
0.0
  0
LINE
  8
LC-006-005-----0
  6
CONTINUOUS
  5
85
 10
396.605366
 20
318.986696
 30
0.0
 11
398.451829
 21
317.140234
 31
0.0
  0
LINE
  8
LC-006-005-----0
  6
CONTINUOUS
  5
86
 10
399.1893
 20
319.231189
 30
0.0
 11
400.957014
 21
317.463475
 31
0.0
  0
LINE
  8
LC-006-005-----0
  6
CONTINUOUS
  5
87
 10
401.647209
 20
319.601708
 30
0.0
 11
403.349957
 21
317.898959
 31
0.0
  0
LINE
  8
LC-006-005-----0
  6
CONTINUOUS
  5
88
 10
408.919197
 20
312.32972
 30
0.0
 11
409.22378
 21
312.025137
 31
0.0
  0
LINE
  8
LC-006-005-----0
  6
CONTINUOUS
  5
89
 10
403.993395
 20
320.083949
 30
0.0
 11
405.641929
 21
318.435415
 31
0.0
  0
LINE
  8
LC-006-005-----0
  6
CONTINUOUS
  5
8A
 10
408.919197
 20
315.158147
 30
0.0
 11
412.052207
 21
312.025137
 31
0.0
  0
LINE
  8
LC-006-005-----0
  6
CONTINUOUS
  5
8B
 10
406.238849
 20
320.666922
 30
0.0
 11
407.841786
 21
319.063985
 31
0.0
  0
LINE
  8
LC-006-005-----0
  6
CONTINUOUS
  5
8C
 10
408.919197
 20
317.986574
 30
0.0
 11
410.919197
 21
315.986574
 31
0.0
  0
LINE
  8
LC-006-005-----0
  6
CONTINUOUS
  5
8D
 10
411.576724
 20
315.329047
 30
0.0
 11
413.469197
 21
313.436574
 31
0.0
  0
LINE
  8
LC-006-005-----0
  6
CONTINUOUS
  5
8E
 10
408.392185
 20
321.342013
 30
0.0
 11
411.209061
 21
318.525137
 31
0.0
  0
LINE
  8
LC-006-005-----0
  6
CONTINUOUS
  5
8F
 10
411.037488
 20
321.525137
 30
0.0
 11
414.037488
 21
318.525137
 31
0.0
  0
LINE
  8
LC-006-005-----0
  6
CONTINUOUS
  5
90
 10
413.865915
 20
321.525137
 30
0.0
 11
415.069197
 21
320.321855
 31
0.0
  0
ENDBLK
  8
0
  5
91
  0
BLOCK
  8
0
  5
93
  2
*X9
 70
    65
 10
308.671497
 20
240.462768
 30
0.0
  3
*X9
  0
LINE
  8
LC-006-005-----0
  6
CONTINUOUS
  5
94
 10
311.471321
 20
240.760643
 30
0.0
 11
312.471314
 21
241.760636
 31
0.0
  0
LINE
  8
LC-006-005-----0
  6
CONTINUOUS
  5
95
 10
311.471323
 20
243.589072
 30
0.0
 11
312.471316
 21
244.589065
 31
0.0
  0
LINE
  8
LC-006-005-----0
  6
CONTINUOUS
  5
96
 10
311.471325
 20
246.417501
 30
0.0
 11
312.471318
 21
247.417494
 31
0.0
  0
LINE
  8
LC-006-005-----0
  6
CONTINUOUS
  5
97
 10
311.471327
 20
249.24593
 30
0.0
 11
312.47132
 21
250.245923
 31
0.0
  0
LINE
  8
LC-006-005-----0
  6
CONTINUOUS
  5
98
 10
311.471329
 20
252.074359
 30
0.0
 11
312.471322
 21
253.074352
 31
0.0
  0
LINE
  8
LC-006-005-----0
  6
CONTINUOUS
  5
99
 10
311.471331
 20
254.902788
 30
0.0
 11
312.471324
 21
255.902781
 31
0.0
  0
LINE
  8
LC-006-005-----0
  6
CONTINUOUS
  5
9A
 10
311.471333
 20
257.731217
 30
0.0
 11
312.471326
 21
258.731211
 31
0.0
  0
LINE
  8
LC-006-005-----0
  6
CONTINUOUS
  5
9B
 10
311.471334
 20
260.559646
 30
0.0
 11
312.471329
 21
261.55964
 31
0.0
  0
LINE
  8
LC-006-005-----0
  6
CONTINUOUS
  5
9C
 10
311.471336
 20
263.388075
 30
0.0
 11
312.471331
 21
264.38807
 31
0.0
  0
LINE
  8
LC-006-005-----0
  6
CONTINUOUS
  5
9D
 10
311.471338
 20
266.216504
 30
0.0
 11
312.471334
 21
267.2165
 31
0.0
  0
LINE
  8
LC-006-005-----0
  6
CONTINUOUS
  5
9E
 10
311.47134
 20
269.044933
 30
0.0
 11
312.471336
 21
270.044929
 31
0.0
  0
LINE
  8
LC-006-005-----0
  6
CONTINUOUS
  5
9F
 10
311.471342
 20
271.873362
 30
0.0
 11
312.471339
 21
272.873359
 31
0.0
  0
LINE
  8
LC-006-005-----0
  6
CONTINUOUS
  5
A0
 10
311.471344
 20
274.701791
 30
0.0
 11
312.471341
 21
275.701788
 31
0.0
  0
LINE
  8
LC-006-005-----0
  6
CONTINUOUS
  5
A1
 10
311.471345
 20
277.53022
 30
0.0
 11
312.471344
 21
278.530218
 31
0.0
  0
LINE
  8
LC-006-005-----0
  6
CONTINUOUS
  5
A2
 10
311.471347
 20
280.358649
 30
0.0
 11
312.471346
 21
281.358648
 31
0.0
  0
LINE
  8
LC-006-005-----0
  6
CONTINUOUS
  5
A3
 10
311.471349
 20
283.187078
 30
0.0
 11
312.471349
 21
284.187077
 31
0.0
  0
LINE
  8
LC-006-005-----0
  6
CONTINUOUS
  5
A4
 10
311.471351
 20
286.015507
 30
0.0
 11
312.471351
 21
287.015507
 31
0.0
  0
LINE
  8
LC-006-005-----0
  6
CONTINUOUS
  5
A5
 10
311.471353
 20
288.843936
 30
0.0
 11
312.471353
 21
289.843936
 31
0.0
  0
LINE
  8
LC-006-005-----0
  6
CONTINUOUS
  5
A6
 10
313.109868
 20
290.482451
 30
0.0
 11
315.786164
 21
293.158747
 31
0.0
  0
LINE
  8
LC-006-005-----0
  6
CONTINUOUS
  5
A7
 10
310.289941
 20
290.490951
 30
0.0
 11
311.491219
 21
291.69223
 31
0.0
  0
LINE
  8
LC-006-005-----0
  6
CONTINUOUS
  5
A8
 10
313.77178
 20
293.97279
 30
0.0
 11
315.780515
 21
295.981525
 31
0.0
  0
LINE
  8
LC-006-005-----0
  6
CONTINUOUS
  5
A9
 10
313.771508
 20
296.800945
 30
0.0
 11
315.774865
 21
298.804302
 31
0.0
  0
LINE
  8
LC-006-005-----0
  6
CONTINUOUS
  5
AA
 10
313.413714
 20
299.271579
 30
0.0
 11
314.634365
 21
300.49223
 31
0.0
  0
LINE
  8
LC-006-005-----0
  6
CONTINUOUS
  5
AB
 10
310.605938
 20
299.29223
 30
0.0
 11
311.805938
 21
300.49223
 31
0.0
  0
LINE
  8
LC-006-005-----0
  6
CONTINUOUS
  5
AC
 10
308.671498
 20
300.186217
 30
0.0
 11
308.977511
 21
300.49223
 31
0.0
  0
ENDBLK
  8
0
  5
AD
  0
BLOCK
  8
0
  5
AF
  2
*X10
 70
    65
 10
358.301022
 20
240.462768
 30
0.0
  3
*X10
  0
LINE
  8
LC-006-005-----0
  6
CONTINUOUS
  5
B0
 10
359.256707
 20
240.462768
 30
0.0
 11
360.43687
 21
241.642931
 31
0.0
  0
LINE
  8
LC-006-005-----0
  6
CONTINUOUS
  5
B1
 10
358.522306
 20
242.556794
 30
0.0
 11
360.771078
 21
244.805566
 31
0.0
  0
LINE
  8
LC-006-005-----0
  6
CONTINUOUS
  5
B2
 10
358.856514
 20
245.719429
 30
0.0
 11
361.105287
 21
247.968202
 31
0.0
  0
LINE
  8
LC-006-005-----0
  6
CONTINUOUS
  5
B3
 10
359.190722
 20
248.882064
 30
0.0
 11
361.439495
 21
251.130837
 31
0.0
  0
LINE
  8
LC-006-005-----0
  6
CONTINUOUS
  5
B4
 10
359.52493
 20
252.044699
 30
0.0
 11
361.773703
 21
254.293472
 31
0.0
  0
LINE
  8
LC-006-005-----0
  6
CONTINUOUS
  5
B5
 10
359.859138
 20
255.207335
 30
0.0
 11
362.107911
 21
257.456107
 31
0.0
  0
LINE
  8
LC-006-005-----0
  6
CONTINUOUS
  5
B6
 10
360.193346
 20
258.36997
 30
0.0
 11
362.442119
 21
260.618743
 31
0.0
  0
LINE
  8
LC-006-005-----0
  6
CONTINUOUS
  5
B7
 10
360.527555
 20
261.532605
 30
0.0
 11
362.776327
 21
263.781378
 31
0.0
  0
LINE
  8
LC-006-005-----0
  6
CONTINUOUS
  5
B8
 10
360.861763
 20
264.69524
 30
0.0
 11
363.110535
 21
266.944013
 31
0.0
  0
LINE
  8
LC-006-005-----0
  6
CONTINUOUS
  5
B9
 10
361.195971
 20
267.857876
 30
0.0
 11
363.444743
 21
270.106648
 31
0.0
  0
LINE
  8
LC-006-005-----0
  6
CONTINUOUS
  5
BA
 10
361.530179
 20
271.020511
 30
0.0
 11
363.778952
 21
273.269284
 31
0.0
  0
LINE
  8
LC-006-005-----0
  6
CONTINUOUS
  5
BB
 10
361.864387
 20
274.183146
 30
0.0
 11
364.11316
 21
276.431919
 31
0.0
  0
LINE
  8
LC-006-005-----0
  6
CONTINUOUS
  5
BC
 10
362.198595
 20
277.345781
 30
0.0
 11
364.447368
 21
279.594554
 31
0.0
  0
LINE
  8
LC-006-005-----0
  6
CONTINUOUS
  5
BD
 10
362.532803
 20
280.508417
 30
0.0
 11
364.781576
 21
282.757189
 31
0.0
  0
LINE
  8
LC-006-005-----0
  6
CONTINUOUS
  5
BE
 10
362.867011
 20
283.671052
 30
0.0
 11
365.115784
 21
285.919824
 31
0.0
  0
LINE
  8
LC-006-005-----0
  6
CONTINUOUS
  5
BF
 10
363.201219
 20
286.833687
 30
0.0
 11
365.449992
 21
289.08246
 31
0.0
  0
LINE
  8
LC-006-005-----0
  6
CONTINUOUS
  5
C0
 10
366.01968
 20
289.652148
 30
0.0
 11
367.973661
 21
291.606129
 31
0.0
  0
LINE
  8
LC-006-005-----0
  6
CONTINUOUS
  5
C1
 10
363.535428
 20
289.996322
 30
0.0
 11
367.973661
 21
294.434556
 31
0.0
  0
LINE
  8
LC-006-005-----0
  6
CONTINUOUS
  5
C2
 10
363.869636
 20
293.158958
 30
0.0
 11
367.973661
 21
297.262983
 31
0.0
  0
LINE
  8
LC-006-005-----0
  6
CONTINUOUS
  5
C3
 10
364.203844
 20
296.321593
 30
0.0
 11
367.973661
 21
300.09141
 31
0.0
  0
LINE
  8
LC-006-005-----0
  6
CONTINUOUS
  5
C4
 10
364.538052
 20
299.484228
 30
0.0
 11
367.973661
 21
302.919837
 31
0.0
  0
LINE
  8
LC-006-005-----0
  6
CONTINUOUS
  5
C5
 10
364.87226
 20
302.646863
 30
0.0
 11
367.973661
 21
305.748265
 31
0.0
  0
LINE
  8
LC-006-005-----0
  6
CONTINUOUS
  5
C6
 10
365.206468
 20
305.809499
 30
0.0
 11
367.973661
 21
308.576692
 31
0.0
  0
LINE
  8
LC-006-005-----0
  6
CONTINUOUS
  5
C7
 10
365.540676
 20
308.972134
 30
0.0
 11
367.973661
 21
311.405119
 31
0.0
  0
LINE
  8
LC-006-005-----0
  6
CONTINUOUS
  5
C8
 10
371.900107
 20
315.331565
 30
0.0
 11
372.450851
 21
315.882309
 31
0.0
  0
LINE
  8
LC-006-005-----0
  6
CONTINUOUS
  5
C9
 10
365.874884
 20
312.134769
 30
0.0
 11
371.075253
 21
317.335137
 31
0.0
  0
ENDBLK
  8
0
  5
CA
  0
BLOCK
  8
0
  5
CC
  2
*X11
 70
    65
 10
410.919197
 20
290.487914
 30
0.0
  3
*X11
  0
LINE
  8
LC-006-005-----0
  6
CONTINUOUS
  5
CD
 10
434.737697
 20
290.487914
 30
0.0
 11
435.919555
 21
291.669772
 31
0.0
  0
LINE
  8
LC-006-005-----0
  6
CONTINUOUS
  5
CE
 10
431.91305
 20
290.491694
 30
0.0
 11
433.113507
 21
291.69215
 31
0.0
  0
LINE
  8
LC-006-005-----0
  6
CONTINUOUS
  5
CF
 10
429.861118
 20
291.268189
 30
0.0
 11
431.171634
 21
292.578705
 31
0.0
  0
LINE
  8
LC-006-005-----0
  6
CONTINUOUS
  5
D0
 10
429.171565
 20
293.407063
 30
0.0
 11
431.171645
 21
295.407144
 31
0.0
  0
LINE
  8
LC-006-005-----0
  6
CONTINUOUS
  5
D1
 10
435.05665
 20
299.292148
 30
0.0
 11
436.256657
 21
300.492155
 31
0.0
  0
LINE
  8
LC-006-005-----0
  6
CONTINUOUS
  5
D2
 10
429.171364
 20
296.235289
 30
0.0
 11
431.171657
 21
298.235582
 31
0.0
  0
LINE
  8
LC-006-005-----0
  6
CONTINUOUS
  5
D3
 10
432.228226
 20
299.292152
 30
0.0
 11
433.42823
 21
300.492155
 31
0.0
  0
LINE
  8
LC-006-005-----0
  6
CONTINUOUS
  5
D4
 10
429.171365
 20
299.063717
 30
0.0
 11
432.436295
 21
302.328647
 31
0.0
  0
LINE
  8
LC-006-005-----0
  6
CONTINUOUS
  5
D5
 10
429.171366
 20
301.892145
 30
0.0
 11
432.181543
 21
304.902322
 31
0.0
  0
LINE
  8
LC-006-005-----0
  6
CONTINUOUS
  5
D6
 10
429.171366
 20
304.720573
 30
0.0
 11
431.926791
 21
307.475997
 31
0.0
  0
LINE
  8
LC-006-005-----0
  6
CONTINUOUS
  5
D7
 10
429.171367
 20
307.549001
 30
0.0
 11
431.639245
 21
310.016879
 31
0.0
  0
LINE
  8
LC-006-005-----0
  6
CONTINUOUS
  5
D8
 10
428.933243
 20
310.139304
 30
0.0
 11
430.947562
 21
312.153623
 31
0.0
  0
LINE
  8
LC-006-005-----0
  6
CONTINUOUS
  5
D9
 10
428.067528
 20
312.102016
 30
0.0
 11
429.868649
 21
313.903137
 31
0.0
  0
LINE
  8
LC-006-005-----0
  6
CONTINUOUS
  5
DA
 10
426.755921
 20
313.618836
 30
0.0
 11
428.464349
 21
315.327264
 31
0.0
  0
LINE
  8
LC-006-005-----0
  6
CONTINUOUS
  5
DB
 10
425.028204
 20
314.719547
 30
0.0
 11
426.736272
 21
316.427614
 31
0.0
  0
LINE
  8
LC-006-005-----0
  6
CONTINUOUS
  5
DC
 10
422.782546
 20
315.302315
 30
0.0
 11
424.627425
 21
317.147194
 31
0.0
  0
LINE
  8
LC-006-005-----0
  6
CONTINUOUS
  5
DD
 10
419.980851
 20
315.329047
 30
0.0
 11
421.986941
 21
317.335137
 31
0.0
  0
LINE
  8
LC-006-005-----0
  6
CONTINUOUS
  5
DE
 10
417.152424
 20
315.329047
 30
0.0
 11
419.158514
 21
317.335137
 31
0.0
  0
LINE
  8
LC-006-005-----0
  6
CONTINUOUS
  5
DF
 10
414.323997
 20
315.329047
 30
0.0
 11
416.330087
 21
317.335137
 31
0.0
  0
LINE
  8
LC-006-005-----0
  6
CONTINUOUS
  5
E0
 10
411.49557
 20
315.329047
 30
0.0
 11
413.501659
 21
317.335137
 31
0.0
  0
ENDBLK
  8
0
  5
E1
  0
BLOCK
  8
0
  5
E3
  2
*X12
 70
    65
 10
236.494566
 20
250.857085
 30
0.0
  3
*X12
  0
LINE
  8
LC-006-005-----0
  6
CONTINUOUS
  5
E4
 10
236.543635
 20
252.774258
 30
0.0
 11
238.411739
 21
250.906154
 31
0.0
  0
LINE
  8
LC-006-005-----0
  6
CONTINUOUS
  5
E5
 10
236.494566
 20
254.23754
 30
0.0
 11
239.726294
 21
251.005812
 31
0.0
  0
LINE
  8
LC-006-005-----0
  6
CONTINUOUS
  5
E6
 10
236.811486
 20
256.749048
 30
0.0
 11
241.142951
 21
252.417582
 31
0.0
  0
LINE
  8
LC-006-005-----0
  6
CONTINUOUS
  5
E7
 10
237.479334
 20
257.495413
 30
0.0
 11
241.294566
 21
253.680181
 31
0.0
  0
LINE
  8
LC-006-005-----0
  6
CONTINUOUS
  5
E8
 10
238.469769
 20
257.919191
 30
0.0
 11
241.294566
 21
255.094394
 31
0.0
  0
LINE
  8
LC-006-005-----0
  6
CONTINUOUS
  5
E9
 10
240.302328
 20
257.500846
 30
0.0
 11
240.838327
 21
256.964847
 31
0.0
  0
ENDBLK
  8
0
  5
EA
  0
BLOCK
  8
0
  5
EC
  2
*X13
 70
    65
 10
236.494566
 20
250.857085
 30
0.0
  3
*X13
  0
LINE
  8
LC-006-005-----0
  6
CONTINUOUS
  5
ED
 10
239.67319
 20
250.986899
 30
0.0
 11
241.164752
 21
252.478461
 31
0.0
  0
LINE
  8
LC-006-005-----0
  6
CONTINUOUS
  5
EE
 10
238.224577
 20
250.952499
 30
0.0
 11
241.294566
 21
254.022488
 31
0.0
  0
LINE
  8
LC-006-005-----0
  6
CONTINUOUS
  5
EF
 10
237.311283
 20
251.453418
 30
0.0
 11
241.294566
 21
255.436702
 31
0.0
  0
LINE
  8
LC-006-005-----0
  6
CONTINUOUS
  5
F0
 10
236.709038
 20
252.265387
 30
0.0
 11
241.05205
 21
256.608399
 31
0.0
  0
LINE
  8
LC-006-005-----0
  6
CONTINUOUS
  5
F1
 10
236.494566
 20
253.465129
 30
0.0
 11
240.430597
 21
257.401159
 31
0.0
  0
LINE
  8
LC-006-005-----0
  6
CONTINUOUS
  5
F2
 10
236.494566
 20
254.879343
 30
0.0
 11
239.495784
 21
257.88056
 31
0.0
  0
LINE
  8
LC-006-005-----0
  6
CONTINUOUS
  5
F3
 10
236.677765
 20
256.476755
 30
0.0
 11
237.974896
 21
257.773886
 31
0.0
  0
ENDBLK
  8
0
  5
F4
  0
BLOCK
  8
0
  5
F6
  2
*X14
 70
    65
 10
285.894566
 20
250.857085
 30
0.0
  3
*X14
  0
LINE
  8
LC-006-005-----0
  6
CONTINUOUS
  5
F7
 10
289.231137
 20
251.047371
 30
0.0
 11
290.50428
 21
252.320514
 31
0.0
  0
LINE
  8
LC-006-005-----0
  6
CONTINUOUS
  5
F8
 10
287.701156
 20
250.931603
 30
0.0
 11
290.694566
 21
253.925014
 31
0.0
  0
LINE
  8
LC-006-005-----0
  6
CONTINUOUS
  5
F9
 10
286.763897
 20
251.408558
 30
0.0
 11
290.694566
 21
255.339227
 31
0.0
  0
LINE
  8
LC-006-005-----0
  6
CONTINUOUS
  5
FA
 10
286.140306
 20
252.19918
 30
0.0
 11
290.483149
 21
256.542024
 31
0.0
  0
LINE
  8
LC-006-005-----0
  6
CONTINUOUS
  5
FB
 10
285.894566
 20
253.367654
 30
0.0
 11
289.883069
 21
257.356157
 31
0.0
  0
LINE
  8
LC-006-005-----0
  6
CONTINUOUS
  5
FC
 10
285.894566
 20
254.781868
 30
0.0
 11
288.972148
 21
257.85945
 31
0.0
  0
LINE
  8
LC-006-005-----0
  6
CONTINUOUS
  5
FD
 10
286.01934
 20
256.320855
 30
0.0
 11
287.530796
 21
257.832311
 31
0.0
  0
ENDBLK
  8
0
  5
FE
  0
BLOCK
  8
0
  5
100
  2
*X15
 70
    65
 10
285.894566
 20
250.857085
 30
0.0
  3
*X15
  0
LINE
  8
LC-006-005-----0
  6
CONTINUOUS
  5
101
 10
285.922339
 20
252.893028
 30
0.0
 11
287.93051
 21
250.884857
 31
0.0
  0
LINE
  8
LC-006-005-----0
  6
CONTINUOUS
  5
102
 10
285.894566
 20
254.335015
 30
0.0
 11
289.196551
 21
251.033029
 31
0.0
  0
LINE
  8
LC-006-005-----0
  6
CONTINUOUS
  5
103
 10
285.901707
 20
255.742087
 30
0.0
 11
290.037069
 21
251.606726
 31
0.0
  0
LINE
  8
LC-006-005-----0
  6
CONTINUOUS
  5
104
 10
286.247735
 20
256.810273
 30
0.0
 11
290.568508
 21
252.4895
 31
0.0
  0
LINE
  8
LC-006-005-----0
  6
CONTINUOUS
  5
105
 10
286.936402
 20
257.535819
 30
0.0
 11
290.694566
 21
253.777655
 31
0.0
  0
LINE
  8
LC-006-005-----0
  6
CONTINUOUS
  5
106
 10
287.953682
 20
257.932753
 30
0.0
 11
290.694566
 21
255.191869
 31
0.0
  0
ENDBLK
  8
0
  5
107
  0
BLOCK
  8
0
  5
109
  2
*X16
 70
    65
 10
300.92392
 20
218.491462
 30
0.0
  3
*X16
  0
LINE
  8
LC-006-005-----0
  6
CONTINUOUS
  5
10A
 10
486.562708
 20
237.661121
 30
0.0
 11
489.011972
 21
240.110385
 31
0.0
  0
LINE
  8
LC-006-005-----0
  6
CONTINUOUS
  5
10B
 10
482.01424
 20
235.94108
 30
0.0
 11
486.757753
 21
240.684593
 31
0.0
  0
LINE
  8
LC-006-005-----0
  6
CONTINUOUS
  5
10C
 10
477.317945
 20
234.073213
 30
0.0
 11
477.515698
 21
234.270965
 31
0.0
  0
LINE
  8
LC-006-005-----0
  6
CONTINUOUS
  5
10D
 10
481.229576
 20
237.984844
 30
0.0
 11
483.929326
 21
240.684593
 31
0.0
  0
LINE
  8
LC-006-005-----0
  6
CONTINUOUS
  5
10E
 10
474.007472
 20
233.591167
 30
0.0
 11
477.515698
 21
237.099392
 31
0.0
  0
LINE
  8
LC-006-005-----0
  6
CONTINUOUS
  5
10F
 10
478.401699
 20
237.985393
 30
0.0
 11
481.100899
 21
240.684593
 31
0.0
  0
LINE
  8
LC-006-005-----0
  6
CONTINUOUS
  5
110
 10
471.06734
 20
233.479462
 30
0.0
 11
478.272472
 21
240.684593
 31
0.0
  0
LINE
  8
LC-006-005-----0
  6
CONTINUOUS
  5
111
 10
468.392463
 20
233.633012
 30
0.0
 11
475.444045
 21
240.684593
 31
0.0
  0
LINE
  8
LC-006-005-----0
  6
CONTINUOUS
  5
112
 10
465.92455
 20
233.993526
 30
0.0
 11
472.615618
 21
240.684593
 31
0.0
  0
LINE
  8
LC-006-005-----0
  6
CONTINUOUS
  5
113
 10
463.627463
 20
234.524866
 30
0.0
 11
469.78719
 21
240.684593
 31
0.0
  0
LINE
  8
LC-006-005-----0
  6
CONTINUOUS
  5
114
 10
461.477193
 20
235.203023
 30
0.0
 11
466.958763
 21
240.684593
 31
0.0
  0
LINE
  8
LC-006-005-----0
  6
CONTINUOUS
  5
115
 10
459.457078
 20
236.011335
 30
0.0
 11
464.130336
 21
240.684593
 31
0.0
  0
LINE
  8
LC-006-005-----0
  6
CONTINUOUS
  5
116
 10
457.555255
 20
236.937939
 30
0.0
 11
461.301909
 21
240.684593
 31
0.0
  0
LINE
  8
LC-006-005-----0
  6
CONTINUOUS
  5
117
 10
455.763212
 20
237.974323
 30
0.0
 11
458.473482
 21
240.684593
 31
0.0
  0
LINE
  8
LC-006-005-----0
  6
CONTINUOUS
  5
118
 10
452.94593
 20
237.985468
 30
0.0
 11
455.645055
 21
240.684593
 31
0.0
  0
LINE
  8
LC-006-005-----0
  6
CONTINUOUS
  5
119
 10
433.950851
 20
221.818817
 30
0.0
 11
436.950851
 21
224.818817
 31
0.0
  0
LINE
  8
LC-006-005-----0
  6
CONTINUOUS
  5
11A
 10
450.117502
 20
237.985468
 30
0.0
 11
452.816628
 21
240.684593
 31
0.0
  0
LINE
  8
LC-006-005-----0
  6
CONTINUOUS
  5
11B
 10
433.950851
 20
224.647244
 30
0.0
 11
436.950851
 21
227.647244
 31
0.0
  0
LINE
  8
LC-006-005-----0
  6
CONTINUOUS
  5
11C
 10
447.289075
 20
237.985468
 30
0.0
 11
449.988201
 21
240.684593
 31
0.0
  0
LINE
  8
LC-006-005-----0
  6
CONTINUOUS
  5
11D
 10
433.950851
 20
227.475671
 30
0.0
 11
436.950851
 21
230.475671
 31
0.0
  0
LINE
  8
LC-006-005-----0
  6
CONTINUOUS
  5
11E
 10
444.460648
 20
237.985468
 30
0.0
 11
447.159773
 21
240.684593
 31
0.0
  0
LINE
  8
LC-006-005-----0
  6
CONTINUOUS
  5
11F
 10
433.950851
 20
230.304098
 30
0.0
 11
436.950851
 21
233.304098
 31
0.0
  0
LINE
  8
LC-006-005-----0
  6
CONTINUOUS
  5
120
 10
441.632221
 20
237.985468
 30
0.0
 11
444.331346
 21
240.684593
 31
0.0
  0
LINE
  8
LC-006-005-----0
  6
CONTINUOUS
  5
121
 10
433.950851
 20
233.132525
 30
0.0
 11
436.956705
 21
236.138379
 31
0.0
  0
LINE
  8
LC-006-005-----0
  6
CONTINUOUS
  5
122
 10
438.79794
 20
237.979614
 30
0.0
 11
441.502919
 21
240.684593
 31
0.0
  0
LINE
  8
LC-006-005-----0
  6
CONTINUOUS
  5
123
 10
433.950851
 20
235.960953
 30
0.0
 11
438.674492
 21
240.684593
 31
0.0
  0
LINE
  8
LC-006-005-----0
  6
CONTINUOUS
  5
124
 10
416.652934
 20
221.491462
 30
0.0
 11
416.950851
 21
221.78938
 31
0.0
  0
LINE
  8
LC-006-005-----0
  6
CONTINUOUS
  5
125
 10
433.065612
 20
237.90414
 30
0.0
 11
435.846065
 21
240.684593
 31
0.0
  0
LINE
  8
LC-006-005-----0
  6
CONTINUOUS
  5
126
 10
413.824507
 20
221.491462
 30
0.0
 11
416.950851
 21
224.617807
 31
0.0
  0
LINE
  8
LC-006-005-----0
  6
CONTINUOUS
  5
127
 10
430.618881
 20
238.285837
 30
0.0
 11
433.045072
 21
240.712028
 31
0.0
  0
LINE
  8
LC-006-005-----0
  6
CONTINUOUS
  5
128
 10
410.996079
 20
221.491462
 30
0.0
 11
413.996079
 21
224.491462
 31
0.0
  0
LINE
  8
LC-006-005-----0
  6
CONTINUOUS
  5
129
 10
414.950851
 20
225.446234
 30
0.0
 11
416.950851
 21
227.446234
 31
0.0
  0
LINE
  8
LC-006-005-----0
  6
CONTINUOUS
  5
12A
 10
427.875422
 20
238.370804
 30
0.0
 11
430.301613
 21
240.796995
 31
0.0
  0
LINE
  8
LC-006-005-----0
  6
CONTINUOUS
  5
12B
 10
408.167652
 20
221.491462
 30
0.0
 11
411.167652
 21
224.491462
 31
0.0
  0
LINE
  8
LC-006-005-----0
  6
CONTINUOUS
  5
12C
 10
414.950851
 20
228.274661
 30
0.0
 11
416.950851
 21
230.274661
 31
0.0
  0
LINE
  8
LC-006-005-----0
  6
CONTINUOUS
  5
12D
 10
425.131962
 20
238.455772
 30
0.0
 11
427.558153
 21
240.881963
 31
0.0
  0
LINE
  8
LC-006-005-----0
  6
CONTINUOUS
  5
12E
 10
405.339225
 20
221.491462
 30
0.0
 11
408.339225
 21
224.491462
 31
0.0
  0
LINE
  8
LC-006-005-----0
  6
CONTINUOUS
  5
12F
 10
414.950851
 20
231.103088
 30
0.0
 11
416.950851
 21
233.103088
 31
0.0
  0
LINE
  8
LC-006-005-----0
  6
CONTINUOUS
  5
130
 10
422.388503
 20
238.54074
 30
0.0
 11
424.814694
 21
240.966931
 31
0.0
  0
LINE
  8
LC-006-005-----0
  6
CONTINUOUS
  5
131
 10
402.510798
 20
221.491462
 30
0.0
 11
405.510798
 21
224.491462
 31
0.0
  0
LINE
  8
LC-006-005-----0
  6
CONTINUOUS
  5
132
 10
414.950851
 20
233.931515
 30
0.0
 11
416.950851
 21
235.931515
 31
0.0
  0
LINE
  8
LC-006-005-----0
  6
CONTINUOUS
  5
133
 10
419.645044
 20
238.625708
 30
0.0
 11
422.071235
 21
241.051899
 31
0.0
  0
LINE
  8
LC-006-005-----0
  6
CONTINUOUS
  5
134
 10
399.682371
 20
221.491462
 30
0.0
 11
402.682371
 21
224.491462
 31
0.0
  0
LINE
  8
LC-006-005-----0
  6
CONTINUOUS
  5
135
 10
414.950851
 20
236.759942
 30
0.0
 11
419.327775
 21
241.136867
 31
0.0
  0
LINE
  8
LC-006-005-----0
  6
CONTINUOUS
  5
136
 10
396.853944
 20
221.491462
 30
0.0
 11
399.853944
 21
224.491462
 31
0.0
  0
LINE
  8
LC-006-005-----0
  6
CONTINUOUS
  5
137
 10
414.950851
 20
239.58837
 30
0.0
 11
416.950851
 21
241.58837
 31
0.0
  0
LINE
  8
LC-006-005-----0
  6
CONTINUOUS
  5
138
 10
394.025517
 20
221.491462
 30
0.0
 11
397.025517
 21
224.491462
 31
0.0
  0
LINE
  8
LC-006-005-----0
  6
CONTINUOUS
  5
139
 10
414.950851
 20
242.416797
 30
0.0
 11
416.950851
 21
244.416797
 31
0.0
  0
LINE
  8
LC-006-005-----0
  6
CONTINUOUS
  5
13A
 10
391.19709
 20
221.491462
 30
0.0
 11
394.19709
 21
224.491462
 31
0.0
  0
LINE
  8
LC-006-005-----0
  6
CONTINUOUS
  5
13B
 10
414.950851
 20
245.245224
 30
0.0
 11
416.950851
 21
247.245224
 31
0.0
  0
LINE
  8
LC-006-005-----0
  6
CONTINUOUS
  5
13C
 10
388.368662
 20
221.491462
 30
0.0
 11
391.368662
 21
224.491462
 31
0.0
  0
LINE
  8
LC-006-005-----0
  6
CONTINUOUS
  5
13D
 10
414.950851
 20
248.073651
 30
0.0
 11
416.950851
 21
250.073651
 31
0.0
  0
LINE
  8
LC-006-005-----0
  6
CONTINUOUS
  5
13E
 10
385.540235
 20
221.491462
 30
0.0
 11
388.540235
 21
224.491462
 31
0.0
  0
LINE
  8
LC-006-005-----0
  6
CONTINUOUS
  5
13F
 10
414.950851
 20
250.902078
 30
0.0
 11
416.950851
 21
252.902078
 31
0.0
  0
LINE
  8
LC-006-005-----0
  6
CONTINUOUS
  5
140
 10
382.711808
 20
221.491462
 30
0.0
 11
385.711808
 21
224.491462
 31
0.0
  0
LINE
  8
LC-006-005-----0
  6
CONTINUOUS
  5
141
 10
414.950851
 20
253.730505
 30
0.0
 11
416.950851
 21
255.730505
 31
0.0
  0
LINE
  8
LC-006-005-----0
  6
CONTINUOUS
  5
142
 10
379.883381
 20
221.491462
 30
0.0
 11
382.883381
 21
224.491462
 31
0.0
  0
LINE
  8
LC-006-005-----0
  6
CONTINUOUS
  5
143
 10
414.950851
 20
256.558932
 30
0.0
 11
416.950851
 21
258.558932
 31
0.0
  0
LINE
  8
LC-006-005-----0
  6
CONTINUOUS
  5
144
 10
377.054954
 20
221.491462
 30
0.0
 11
380.054954
 21
224.491462
 31
0.0
  0
LINE
  8
LC-006-005-----0
  6
CONTINUOUS
  5
145
 10
414.950851
 20
259.387359
 30
0.0
 11
416.950851
 21
261.387359
 31
0.0
  0
LINE
  8
LC-006-005-----0
  6
CONTINUOUS
  5
146
 10
374.226527
 20
221.491462
 30
0.0
 11
377.226527
 21
224.491462
 31
0.0
  0
LINE
  8
LC-006-005-----0
  6
CONTINUOUS
  5
147
 10
414.950851
 20
262.215787
 30
0.0
 11
416.950851
 21
264.215787
 31
0.0
  0
LINE
  8
LC-006-005-----0
  6
CONTINUOUS
  5
148
 10
371.3981
 20
221.491462
 30
0.0
 11
374.3981
 21
224.491462
 31
0.0
  0
LINE
  8
LC-006-005-----0
  6
CONTINUOUS
  5
149
 10
414.950851
 20
265.044214
 30
0.0
 11
416.950851
 21
267.044214
 31
0.0
  0
LINE
  8
LC-006-005-----0
  6
CONTINUOUS
  5
14A
 10
368.569673
 20
221.491462
 30
0.0
 11
371.569673
 21
224.491462
 31
0.0
  0
LINE
  8
LC-006-005-----0
  6
CONTINUOUS
  5
14B
 10
414.950851
 20
267.872641
 30
0.0
 11
416.950851
 21
269.872641
 31
0.0
  0
LINE
  8
LC-006-005-----0
  6
CONTINUOUS
  5
14C
 10
365.741245
 20
221.491462
 30
0.0
 11
368.741245
 21
224.491462
 31
0.0
  0
LINE
  8
LC-006-005-----0
  6
CONTINUOUS
  5
14D
 10
414.950851
 20
270.701068
 30
0.0
 11
416.950851
 21
272.701068
 31
0.0
  0
LINE
  8
LC-006-005-----0
  6
CONTINUOUS
  5
14E
 10
362.912818
 20
221.491462
 30
0.0
 11
365.912818
 21
224.491462
 31
0.0
  0
LINE
  8
LC-006-005-----0
  6
CONTINUOUS
  5
14F
 10
414.950851
 20
273.529495
 30
0.0
 11
416.950851
 21
275.529495
 31
0.0
  0
LINE
  8
LC-006-005-----0
  6
CONTINUOUS
  5
150
 10
360.084391
 20
221.491462
 30
0.0
 11
363.084391
 21
224.491462
 31
0.0
  0
LINE
  8
LC-006-005-----0
  6
CONTINUOUS
  5
151
 10
414.950851
 20
276.357922
 30
0.0
 11
416.950851
 21
278.357922
 31
0.0
  0
LINE
  8
LC-006-005-----0
  6
CONTINUOUS
  5
152
 10
357.255964
 20
221.491462
 30
0.0
 11
360.255964
 21
224.491462
 31
0.0
  0
LINE
  8
LC-006-005-----0
  6
CONTINUOUS
  5
153
 10
414.950851
 20
279.186349
 30
0.0
 11
416.950851
 21
281.186349
 31
0.0
  0
LINE
  8
LC-006-005-----0
  6
CONTINUOUS
  5
154
 10
354.427537
 20
221.491462
 30
0.0
 11
357.427537
 21
224.491462
 31
0.0
  0
LINE
  8
LC-006-005-----0
  6
CONTINUOUS
  5
155
 10
414.950851
 20
282.014776
 30
0.0
 11
416.950851
 21
284.014776
 31
0.0
  0
LINE
  8
LC-006-005-----0
  6
CONTINUOUS
  5
156
 10
351.59911
 20
221.491462
 30
0.0
 11
354.59911
 21
224.491462
 31
0.0
  0
LINE
  8
LC-006-005-----0
  6
CONTINUOUS
  5
157
 10
414.950851
 20
284.843204
 30
0.0
 11
416.950851
 21
286.843204
 31
0.0
  0
LINE
  8
LC-006-005-----0
  6
CONTINUOUS
  5
158
 10
348.770683
 20
221.491462
 30
0.0
 11
351.770683
 21
224.491462
 31
0.0
  0
LINE
  8
LC-006-005-----0
  6
CONTINUOUS
  5
159
 10
414.950851
 20
287.671631
 30
0.0
 11
416.950851
 21
289.671631
 31
0.0
  0
LINE
  8
LC-006-005-----0
  6
CONTINUOUS
  5
15A
 10
345.942256
 20
221.491462
 30
0.0
 11
348.942256
 21
224.491462
 31
0.0
  0
LINE
  8
LC-006-005-----0
  6
CONTINUOUS
  5
15B
 10
343.113828
 20
221.491462
 30
0.0
 11
346.113828
 21
224.491462
 31
0.0
  0
LINE
  8
LC-006-005-----0
  6
CONTINUOUS
  5
15C
 10
340.285401
 20
221.491462
 30
0.0
 11
344.190246
 21
225.396306
 31
0.0
  0
LINE
  8
LC-006-005-----0
  6
CONTINUOUS
  5
15D
 10
337.456974
 20
221.491462
 30
0.0
 11
344.190246
 21
228.224734
 31
0.0
  0
LINE
  8
LC-006-005-----0
  6
CONTINUOUS
  5
15E
 10
334.628547
 20
221.491462
 30
0.0
 11
337.649702
 21
224.512617
 31
0.0
  0
LINE
  8
LC-006-005-----0
  6
CONTINUOUS
  5
15F
 10
342.169091
 20
229.032006
 30
0.0
 11
344.190246
 21
231.053161
 31
0.0
  0
LINE
  8
LC-006-005-----0
  6
CONTINUOUS
  5
160
 10
331.80012
 20
221.491462
 30
0.0
 11
334.80012
 21
224.491462
 31
0.0
  0
LINE
  8
LC-006-005-----0
  6
CONTINUOUS
  5
161
 10
342.190246
 20
231.881588
 30
0.0
 11
344.190246
 21
233.881588
 31
0.0
  0
LINE
  8
LC-006-005-----0
  6
CONTINUOUS
  5
162
 10
328.971693
 20
221.491462
 30
0.0
 11
331.971693
 21
224.491462
 31
0.0
  0
LINE
  8
LC-006-005-----0
  6
CONTINUOUS
  5
163
 10
342.190246
 20
234.710015
 30
0.0
 11
344.190246
 21
236.710015
 31
0.0
  0
LINE
  8
LC-006-005-----0
  6
CONTINUOUS
  5
164
 10
326.143266
 20
221.491462
 30
0.0
 11
329.143266
 21
224.491462
 31
0.0
  0
LINE
  8
LC-006-005-----0
  6
CONTINUOUS
  5
165
 10
342.190246
 20
237.538442
 30
0.0
 11
344.190246
 21
239.538442
 31
0.0
  0
LINE
  8
LC-006-005-----0
  6
CONTINUOUS
  5
166
 10
323.314839
 20
221.491462
 30
0.0
 11
326.314839
 21
224.491462
 31
0.0
  0
LINE
  8
LC-006-005-----0
  6
CONTINUOUS
  5
167
 10
342.190246
 20
240.366869
 30
0.0
 11
343.227006
 21
241.40363
 31
0.0
  0
LINE
  8
LC-006-005-----0
  6
CONTINUOUS
  5
168
 10
320.486411
 20
221.491462
 30
0.0
 11
323.486411
 21
224.491462
 31
0.0
  0
LINE
  8
LC-006-005-----0
  6
CONTINUOUS
  5
169
 10
317.657984
 20
221.491462
 30
0.0
 11
320.657984
 21
224.491462
 31
0.0
  0
LINE
  8
LC-006-005-----0
  6
CONTINUOUS
  5
16A
 10
314.829557
 20
221.491462
 30
0.0
 11
317.829557
 21
224.491462
 31
0.0
  0
LINE
  8
LC-006-005-----0
  6
CONTINUOUS
  5
16B
 10
312.00113
 20
221.491462
 30
0.0
 11
315.00113
 21
224.491462
 31
0.0
  0
LINE
  8
LC-006-005-----0
  6
CONTINUOUS
  5
16C
 10
309.172703
 20
221.491462
 30
0.0
 11
312.172703
 21
224.491462
 31
0.0
  0
LINE
  8
LC-006-005-----0
  6
CONTINUOUS
  5
16D
 10
306.344276
 20
221.491462
 30
0.0
 11
309.344276
 21
224.491462
 31
0.0
  0
LINE
  8
LC-006-005-----0
  6
CONTINUOUS
  5
16E
 10
300.92392
 20
218.899533
 30
0.0
 11
302.17392
 21
220.149533
 31
0.0
  0
LINE
  8
LC-006-005-----0
  6
CONTINUOUS
  5
16F
 10
303.515849
 20
221.491462
 30
0.0
 11
306.515849
 21
224.491462
 31
0.0
  0
LINE
  8
LC-006-005-----0
  6
CONTINUOUS
  5
170
 10
300.92392
 20
221.727961
 30
0.0
 11
303.687422
 21
224.491462
 31
0.0
  0
ENDBLK
  8
0
  5
171
  0
BLOCK
  8
0
  5
173
  2
*X17
 70
    65
 10
433.930876
 20
233.477368
 30
0.0
  3
*X17
  0
LINE
  8
LC-006-005-----0
  6
CONTINUOUS
  5
174
 10
488.916896
 20
285.270143
 30
0.0
 11
489.011972
 21
285.365219
 31
0.0
  0
LINE
  8
LC-006-005-----0
  6
CONTINUOUS
  5
175
 10
486.088469
 20
285.270143
 30
0.0
 11
488.115714
 21
287.297388
 31
0.0
  0
LINE
  8
LC-006-005-----0
  6
CONTINUOUS
  5
176
 10
483.260042
 20
285.270143
 30
0.0
 11
486.387501
 21
288.397602
 31
0.0
  0
LINE
  8
LC-006-005-----0
  6
CONTINUOUS
  5
177
 10
480.431614
 20
285.270143
 30
0.0
 11
484.553445
 21
289.391973
 31
0.0
  0
LINE
  8
LC-006-005-----0
  6
CONTINUOUS
  5
178
 10
477.603187
 20
285.270143
 30
0.0
 11
480.302757
 21
287.969713
 31
0.0
  0
LINE
  8
LC-006-005-----0
  6
CONTINUOUS
  5
179
 10
482.01424
 20
289.681195
 30
0.0
 11
482.60662
 21
290.273575
 31
0.0
  0
LINE
  8
LC-006-005-----0
  6
CONTINUOUS
  5
17A
 10
474.77476
 20
285.270143
 30
0.0
 11
477.515698
 21
288.01108
 31
0.0
  0
LINE
  8
LC-006-005-----0
  6
CONTINUOUS
  5
17B
 10
522.621893
 20
333.117276
 30
0.0
 11
523.450851
 21
333.946234
 31
0.0
  0
LINE
  8
LC-006-005-----0
  6
CONTINUOUS
  5
17C
 10
471.946333
 20
285.270143
 30
0.0
 11
477.515698
 21
290.839508
 31
0.0
  0
LINE
  8
LC-006-005-----0
  6
CONTINUOUS
  5
17D
 10
519.582813
 20
332.906623
 30
0.0
 11
522.813978
 21
336.137788
 31
0.0
  0
LINE
  8
LC-006-005-----0
  6
CONTINUOUS
  5
17E
 10
469.117906
 20
285.270143
 30
0.0
 11
475.971681
 21
292.123918
 31
0.0
  0
LINE
  8
LC-006-005-----0
  6
CONTINUOUS
  5
17F
 10
516.543733
 20
332.69597
 30
0.0
 11
519.774898
 21
335.927135
 31
0.0
  0
LINE
  8
LC-006-005-----0
  6
CONTINUOUS
  5
180
 10
466.289479
 20
285.270143
 30
0.0
 11
473.42819
 21
292.408854
 31
0.0
  0
LINE
  8
LC-006-005-----0
  6
CONTINUOUS
  5
181
 10
513.504653
 20
332.485317
 30
0.0
 11
516.735818
 21
335.716482
 31
0.0
  0
LINE
  8
LC-006-005-----0
  6
CONTINUOUS
  5
182
 10
463.461052
 20
285.270143
 30
0.0
 11
470.658477
 21
292.467568
 31
0.0
  0
LINE
  8
LC-006-005-----0
  6
CONTINUOUS
  5
183
 10
510.465573
 20
332.274664
 30
0.0
 11
513.696738
 21
335.505829
 31
0.0
  0
LINE
  8
LC-006-005-----0
  6
CONTINUOUS
  5
184
 10
460.632625
 20
285.270143
 30
0.0
 11
467.590372
 21
292.227891
 31
0.0
  0
LINE
  8
LC-006-005-----0
  6
CONTINUOUS
  5
185
 10
507.426493
 20
332.064011
 30
0.0
 11
510.657658
 21
335.295176
 31
0.0
  0
LINE
  8
LC-006-005-----0
  6
CONTINUOUS
  5
186
 10
457.804197
 20
285.270143
 30
0.0
 11
464.085374
 21
291.55132
 31
0.0
  0
LINE
  8
LC-006-005-----0
  6
CONTINUOUS
  5
187
 10
504.387413
 20
331.853358
 30
0.0
 11
507.618578
 21
335.084524
 31
0.0
  0
LINE
  8
LC-006-005-----0
  6
CONTINUOUS
  5
188
 10
454.97577
 20
285.270143
 30
0.0
 11
459.797461
 21
290.091834
 31
0.0
  0
LINE
  8
LC-006-005-----0
  6
CONTINUOUS
  5
189
 10
501.348333
 20
331.642705
 30
0.0
 11
504.579498
 21
334.873871
 31
0.0
  0
LINE
  8
LC-006-005-----0
  6
CONTINUOUS
  5
18A
 10
452.147343
 20
285.270143
 30
0.0
 11
454.846468
 21
287.969268
 31
0.0
  0
LINE
  8
LC-006-005-----0
  6
CONTINUOUS
  5
18B
 10
498.309253
 20
331.432052
 30
0.0
 11
501.540418
 21
334.663218
 31
0.0
  0
LINE
  8
LC-006-005-----0
  6
CONTINUOUS
  5
18C
 10
449.318916
 20
285.270143
 30
0.0
 11
452.018041
 21
287.969268
 31
0.0
  0
LINE
  8
LC-006-005-----0
  6
CONTINUOUS
  5
18D
 10
495.270173
 20
331.221399
 30
0.0
 11
498.501338
 21
334.452565
 31
0.0
  0
LINE
  8
LC-006-005-----0
  6
CONTINUOUS
  5
18E
 10
446.490489
 20
285.270143
 30
0.0
 11
449.189614
 21
287.969268
 31
0.0
  0
LINE
  8
LC-006-005-----0
  6
CONTINUOUS
  5
18F
 10
492.231092
 20
331.010746
 30
0.0
 11
495.462258
 21
334.241912
 31
0.0
  0
LINE
  8
LC-006-005-----0
  6
CONTINUOUS
  5
190
 10
443.662062
 20
285.270143
 30
0.0
 11
446.361187
 21
287.969268
 31
0.0
  0
LINE
  8
LC-006-005-----0
  6
CONTINUOUS
  5
191
 10
488.341258
 20
329.949339
 30
0.0
 11
492.423178
 21
334.031259
 31
0.0
  0
LINE
  8
LC-006-005-----0
  6
CONTINUOUS
  5
192
 10
440.833635
 20
285.270143
 30
0.0
 11
443.53276
 21
287.969268
 31
0.0
  0
LINE
  8
LC-006-005-----0
  6
CONTINUOUS
  5
193
 10
453.242816
 20
297.679325
 30
0.0
 11
457.027577
 21
301.464085
 31
0.0
  0
LINE
  8
LC-006-005-----0
  6
CONTINUOUS
  5
194
 10
484.157559
 20
328.594068
 30
0.0
 11
489.384098
 21
333.820606
 31
0.0
  0
LINE
  8
LC-006-005-----0
  6
CONTINUOUS
  5
195
 10
438.005208
 20
285.270143
 30
0.0
 11
440.704333
 21
287.969268
 31
0.0
  0
LINE
  8
LC-006-005-----0
  6
CONTINUOUS
  5
196
 10
450.414389
 20
297.679325
 30
0.0
 11
459.493549
 21
306.758484
 31
0.0
  0
LINE
  8
LC-006-005-----0
  6
CONTINUOUS
  5
197
 10
480.923469
 20
328.188404
 30
0.0
 11
486.345018
 21
333.609953
 31
0.0
  0
LINE
  8
LC-006-005-----0
  6
CONTINUOUS
  5
198
 10
435.17678
 20
285.270143
 30
0.0
 11
437.875906
 21
287.969268
 31
0.0
  0
LINE
  8
LC-006-005-----0
  6
CONTINUOUS
  5
199
 10
438.543839
 20
288.637201
 30
0.0
 11
439.492974
 21
289.586337
 31
0.0
  0
LINE
  8
LC-006-005-----0
  6
CONTINUOUS
  5
19A
 10
447.585962
 20
297.679325
 30
0.0
 11
461.450851
 21
311.544214
 31
0.0
  0
LINE
  8
LC-006-005-----0
  6
CONTINUOUS
  5
19B
 10
477.882389
 20
327.975751
 30
0.0
 11
482.723376
 21
332.816739
 31
0.0
  0
LINE
  8
LC-006-005-----0
  6
CONTINUOUS
  5
19C
 10
433.930878
 20
286.852668
 30
0.0
 11
439.950851
 21
292.872641
 31
0.0
  0
LINE
  8
LC-006-005-----0
  6
CONTINUOUS
  5
19D
 10
444.757535
 20
297.679325
 30
0.0
 11
447.761886
 21
300.683676
 31
0.0
  0
LINE
  8
LC-006-005-----0
  6
CONTINUOUS
  5
19E
 10
450.156903
 20
303.078693
 30
0.0
 11
456.456077
 21
309.377867
 31
0.0
  0
LINE
  8
LC-006-005-----0
  6
CONTINUOUS
  5
19F
 10
459.200144
 20
312.121934
 30
0.0
 11
461.450851
 21
314.372641
 31
0.0
  0
LINE
  8
LC-006-005-----0
  6
CONTINUOUS
  5
1A0
 10
474.841309
 20
327.763098
 30
0.0
 11
478.325299
 21
331.247089
 31
0.0
  0
LINE
  8
LC-006-005-----0
  6
CONTINUOUS
  5
1A1
 10
433.930877
 20
289.681094
 30
0.0
 11
434.737697
 21
290.487914
 31
0.0
  0
LINE
  8
LC-006-005-----0
  6
CONTINUOUS
  5
1A2
 10
436.629846
 20
292.380062
 30
0.0
 11
444.933459
 21
300.683676
 31
0.0
  0
LINE
  8
LC-006-005-----0
  6
CONTINUOUS
  5
1A3
 10
450.30738
 20
306.057596
 30
0.0
 11
453.62765
 21
309.377867
 31
0.0
  0
LINE
  8
LC-006-005-----0
  6
CONTINUOUS
  5
1A4
 10
459.200144
 20
314.950361
 30
0.0
 11
461.450851
 21
317.201068
 31
0.0
  0
LINE
  8
LC-006-005-----0
  6
CONTINUOUS
  5
1A5
 10
462.504519
 20
318.254736
 30
0.0
 11
467.700851
 21
323.451068
 31
0.0
  0
LINE
  8
LC-006-005-----0
  6
CONTINUOUS
  5
1A6
 10
471.800229
 20
327.550446
 30
0.0
 11
475.065243
 21
330.81546
 31
0.0
  0
LINE
  8
LC-006-005-----0
  6
CONTINUOUS
  5
1A7
 10
436.629846
 20
295.208489
 30
0.0
 11
442.105032
 21
300.683676
 31
0.0
  0
LINE
  8
LC-006-005-----0
  6
CONTINUOUS
  5
1A8
 10
449.315797
 20
307.894441
 30
0.0
 11
449.991631
 21
308.570275
 31
0.0
  0
LINE
  8
LC-006-005-----0
  6
CONTINUOUS
  5
1A9
 10
450.439296
 20
309.01794
 30
0.0
 11
450.667306
 21
309.24595
 31
0.0
  0
LINE
  8
LC-006-005-----0
  6
CONTINUOUS
  5
1AA
 10
459.200144
 20
317.778788
 30
0.0
 11
462.727105
 21
321.305748
 31
0.0
  0
LINE
  8
LC-006-005-----0
  6
CONTINUOUS
  5
1AB
 10
464.298762
 20
322.877406
 30
0.0
 11
466.700851
 21
325.279495
 31
0.0
  0
LINE
  8
LC-006-005-----0
  6
CONTINUOUS
  5
1AC
 10
468.759149
 20
327.337793
 30
0.0
 11
472.015169
 21
330.593813
 31
0.0
  0
LINE
  8
LC-006-005-----0
  6
CONTINUOUS
  5
1AD
 10
436.629846
 20
298.036916
 30
0.0
 11
439.276605
 21
300.683676
 31
0.0
  0
LINE
  8
LC-006-005-----0
  6
CONTINUOUS
  5
1AE
 10
459.200144
 20
320.607215
 30
0.0
 11
461.200144
 21
322.607215
 31
0.0
  0
LINE
  8
LC-006-005-----0
  6
CONTINUOUS
  5
1AF
 10
464.298762
 20
325.705833
 30
0.0
 11
468.965095
 21
330.372166
 31
0.0
  0
LINE
  8
LC-006-005-----0
  6
CONTINUOUS
  5
1B0
 10
459.200144
 20
323.435642
 30
0.0
 11
461.200144
 21
325.435642
 31
0.0
  0
LINE
  8
LC-006-005-----0
  6
CONTINUOUS
  5
1B1
 10
464.298762
 20
328.53426
 30
0.0
 11
465.915021
 21
330.150519
 31
0.0
  0
LINE
  8
LC-006-005-----0
  6
CONTINUOUS
  5
1B2
 10
459.700144
 20
326.764069
 30
0.0
 11
460.414794
 21
327.47872
 31
0.0
  0
ENDBLK
  8
0
  5
1B3
  0
BLOCK
  8
0
  5
1B5
  2
BLK3
 70
    64
 10
0.0
 20
0.0
 30
0.0
  3
BLK3
  0
ENDBLK
  8
0
  5
1B6
  0
BLOCK
  8
0
  5
1B8
  2
BLK4
 70
    64
 10
0.0
 20
0.0
 30
0.0
  3
BLK4
  0
ENDBLK
  8
0
  5
1B9
  0
BLOCK
  8
0
  5
1BB
  2
*X20
 70
    65
 10
441.950851
 20
310.195056
 30
0.0
  3
*X20
  0
LINE
  8
LC-006-005-----0
  6
CONTINUOUS
  5
1BC
 10
441.950851
 20
310.410764
 30
0.0
 11
442.166559
 21
310.195056
 31
0.0
  0
LINE
  8
LC-006-005-----0
  6
CONTINUOUS
  5
1BD
 10
441.994986
 20
313.195056
 30
0.0
 11
444.994986
 21
310.195056
 31
0.0
  0
LINE
  8
LC-006-005-----0
  6
CONTINUOUS
  5
1BE
 10
444.700851
 20
313.317618
 30
0.0
 11
447.823413
 21
310.195056
 31
0.0
  0
LINE
  8
LC-006-005-----0
  6
CONTINUOUS
  5
1BF
 10
444.700851
 20
316.146045
 30
0.0
 11
450.63478
 21
310.212117
 31
0.0
  0
LINE
  8
LC-006-005-----0
  6
CONTINUOUS
  5
1C0
 10
444.700851
 20
318.974472
 30
0.0
 11
451.450851
 21
312.224472
 31
0.0
  0
LINE
  8
LC-006-005-----0
  6
CONTINUOUS
  5
1C1
 10
444.700851
 20
321.8029
 30
0.0
 11
451.450851
 21
315.0529
 31
0.0
  0
LINE
  8
LC-006-005-----0
  6
CONTINUOUS
  5
1C2
 10
444.700851
 20
324.631327
 30
0.0
 11
451.450851
 21
317.881327
 31
0.0
  0
LINE
  8
LC-006-005-----0
  6
CONTINUOUS
  5
1C3
 10
444.700851
 20
327.459754
 30
0.0
 11
451.450851
 21
320.709754
 31
0.0
  0
LINE
  8
LC-006-005-----0
  6
CONTINUOUS
  5
1C4
 10
446.06272
 20
328.926312
 30
0.0
 11
451.450851
 21
323.538181
 31
0.0
  0
LINE
  8
LC-006-005-----0
  6
CONTINUOUS
  5
1C5
 10
448.70629
 20
329.111169
 30
0.0
 11
451.450851
 21
326.366608
 31
0.0
  0
LINE
  8
LC-006-005-----0
  6
CONTINUOUS
  5
1C6
 10
451.349861
 20
329.296025
 30
0.0
 11
453.692175
 21
326.953711
 31
0.0
  0
LINE
  8
LC-006-005-----0
  6
CONTINUOUS
  5
1C7
 10
453.993432
 20
329.480882
 30
0.0
 11
456.335746
 21
327.138568
 31
0.0
  0
LINE
  8
LC-006-005-----0
  6
CONTINUOUS
  5
1C8
 10
456.637002
 20
329.665738
 30
0.0
 11
458.979317
 21
327.323424
 31
0.0
  0
LINE
  8
LC-006-005-----0
  6
CONTINUOUS
  5
1C9
 10
461.450637
 20
324.852104
 30
0.0
 11
463.107684
 21
323.195056
 31
0.0
  0
LINE
  8
LC-006-005-----0
  6
CONTINUOUS
  5
1CA
 10
459.280573
 20
329.850595
 30
0.0
 11
463.542776
 21
325.588392
 31
0.0
  0
LINE
  8
LC-006-005-----0
  6
CONTINUOUS
  5
1CB
 10
461.924144
 20
330.035451
 30
0.0
 11
463.896347
 21
328.063248
 31
0.0
  0
ENDBLK
  8
0
  5
1CC
  0
BLOCK
  8
0
  5
1CE
  2
*X21
 70
    65
 10
280.700851
 20
310.195056
 30
0.0
  3
*X21
  0
LINE
  8
LC-006-005-----0
  6
CONTINUOUS
  5
1CF
 10
281.636264
 20
323.647141
 30
0.0
 11
282.088348
 21
323.195056
 31
0.0
  0
LINE
  8
LC-006-005-----0
  6
CONTINUOUS
  5
1D0
 10
293.450851
 20
311.832553
 30
0.0
 11
295.088348
 21
310.195056
 31
0.0
  0
LINE
  8
LC-006-005-----0
  6
CONTINUOUS
  5
1D1
 10
281.164828
 20
326.947004
 30
0.0
 11
283.451066
 21
324.660766
 31
0.0
  0
LINE
  8
LC-006-005-----0
  6
CONTINUOUS
  5
1D2
 10
293.450851
 20
314.660981
 30
0.0
 11
297.916776
 21
310.195056
 31
0.0
  0
LINE
  8
LC-006-005-----0
  6
CONTINUOUS
  5
1D3
 10
280.74897
 20
330.191289
 30
0.0
 11
283.451066
 21
327.489193
 31
0.0
  0
LINE
  8
LC-006-005-----0
  6
CONTINUOUS
  5
1D4
 10
293.450851
 20
317.489408
 30
0.0
 11
300.745203
 21
310.195056
 31
0.0
  0
LINE
  8
LC-006-005-----0
  6
CONTINUOUS
  5
1D5
 10
283.79005
 20
329.978636
 30
0.0
 11
286.484574
 21
327.284112
 31
0.0
  0
LINE
  8
LC-006-005-----0
  6
CONTINUOUS
  5
1D6
 10
293.450851
 20
320.317835
 30
0.0
 11
300.200851
 21
313.567835
 31
0.0
  0
LINE
  8
LC-006-005-----0
  6
CONTINUOUS
  5
1D7
 10
300.57363
 20
313.195056
 30
0.0
 11
302.950851
 21
310.817835
 31
0.0
  0
LINE
  8
LC-006-005-----0
  6
CONTINUOUS
  5
1D8
 10
286.83113
 20
329.765983
 30
0.0
 11
289.525654
 21
327.071459
 31
0.0
  0
LINE
  8
LC-006-005-----0
  6
CONTINUOUS
  5
1D9
 10
293.450851
 20
323.146262
 30
0.0
 11
300.200851
 21
316.396262
 31
0.0
  0
LINE
  8
LC-006-005-----0
  6
CONTINUOUS
  5
1DA
 10
289.87221
 20
329.55333
 30
0.0
 11
292.566734
 21
326.858806
 31
0.0
  0
LINE
  8
LC-006-005-----0
  6
CONTINUOUS
  5
1DB
 10
293.450851
 20
325.974689
 30
0.0
 11
300.200851
 21
319.224689
 31
0.0
  0
LINE
  8
LC-006-005-----0
  6
CONTINUOUS
  5
1DC
 10
292.91329
 20
329.340677
 30
0.0
 11
300.200851
 21
322.053116
 31
0.0
  0
LINE
  8
LC-006-005-----0
  6
CONTINUOUS
  5
1DD
 10
295.95437
 20
329.128024
 30
0.0
 11
300.200851
 21
324.881543
 31
0.0
  0
LINE
  8
LC-006-005-----0
  6
CONTINUOUS
  5
1DE
 10
298.995451
 20
328.915371
 30
0.0
 11
300.200851
 21
327.70997
 31
0.0
  0
ENDBLK
  8
0
  5
1DF
  0
BLOCK
  8
0
  5
1E1
  2
*X22
 70
    65
 10
478.34881
 20
230.177368
 30
0.0
  3
*X22
  0
LINE
  8
LC-006-005-----0
  6
CONTINUOUS
  5
1E2
 10
503.489469
 20
294.12698
 30
0.0
 11
505.603881
 21
292.012568
 31
0.0
  0
LINE
  8
LC-006-005-----0
  6
CONTINUOUS
  5
1E3
 10
507.195935
 20
296.077368
 30
0.0
 11
510.703005
 21
292.570298
 31
0.0
  0
LINE
  8
LC-006-005-----0
  6
CONTINUOUS
  5
1E4
 10
512.85279
 20
296.077368
 30
0.0
 11
516.875023
 21
292.055135
 31
0.0
  0
LINE
  8
LC-006-005-----0
  6
CONTINUOUS
  5
1E5
 10
519.409164
 20
295.177848
 30
0.0
 11
525.781054
 21
288.805958
 31
0.0
  0
LINE
  8
LC-006-005-----0
  6
CONTINUOUS
  5
1E6
 10
529.52009
 20
290.723776
 30
0.0
 11
534.496498
 21
285.747368
 31
0.0
  0
LINE
  8
LC-006-005-----0
  6
CONTINUOUS
  5
1E7
 10
537.823352
 20
288.077368
 30
0.0
 11
540.153352
 21
285.747368
 31
0.0
  0
LINE
  8
LC-006-005-----0
  6
CONTINUOUS
  5
1E8
 10
543.480207
 20
288.077368
 30
0.0
 11
547.409525
 21
284.148049
 31
0.0
  0
LINE
  8
LC-006-005-----0
  6
CONTINUOUS
  5
1E9
 10
549.060955
 20
288.153474
 30
0.0
 11
554.945246
 21
282.269183
 31
0.0
  0
LINE
  8
LC-006-005-----0
  6
CONTINUOUS
  5
1EA
 10
552.647257
 20
290.224026
 30
0.0
 11
554.755563
 21
288.11572
 31
0.0
  0
LINE
  8
LC-006-005-----0
  6
CONTINUOUS
  5
1EB
 10
558.573571
 20
284.297712
 30
0.0
 11
562.480966
 21
280.390317
 31
0.0
  0
LINE
  8
LC-006-005-----0
  6
CONTINUOUS
  5
1EC
 10
556.233559
 20
292.294579
 30
0.0
 11
558.341865
 21
290.186272
 31
0.0
  0
LINE
  8
LC-006-005-----0
  6
CONTINUOUS
  5
1ED
 10
566.300978
 20
282.227159
 30
0.0
 11
570.016686
 21
278.511451
 31
0.0
  0
LINE
  8
LC-006-005-----0
  6
CONTINUOUS
  5
1EE
 10
559.819861
 20
294.365131
 30
0.0
 11
561.928167
 21
292.256825
 31
0.0
  0
LINE
  8
LC-006-005-----0
  6
CONTINUOUS
  5
1EF
 10
574.028385
 20
280.156607
 30
0.0
 11
577.552407
 21
276.632585
 31
0.0
  0
LINE
  8
LC-006-005-----0
  6
CONTINUOUS
  5
1F0
 10
564.007411
 20
295.834435
 30
0.0
 11
568.064412
 21
291.777434
 31
0.0
  0
LINE
  8
LC-006-005-----0
  6
CONTINUOUS
  5
1F1
 10
581.755791
 20
278.086055
 30
0.0
 11
585.088127
 21
274.753719
 31
0.0
  0
LINE
  8
LC-006-005-----0
  6
CONTINUOUS
  5
1F2
 10
571.734818
 20
293.763883
 30
0.0
 11
575.600133
 21
289.898568
 31
0.0
  0
LINE
  8
LC-006-005-----0
  6
CONTINUOUS
  5
1F3
 10
589.483198
 20
276.015502
 30
0.0
 11
592.623847
 21
272.874853
 31
0.0
  0
LINE
  8
LC-006-005-----0
  6
CONTINUOUS
  5
1F4
 10
579.462224
 20
291.69333
 30
0.0
 11
583.135853
 21
288.019701
 31
0.0
  0
LINE
  8
LC-006-005-----0
  6
CONTINUOUS
  5
1F5
 10
597.210604
 20
273.94495
 30
0.0
 11
600.159568
 21
270.995987
 31
0.0
  0
LINE
  8
LC-006-005-----0
  6
CONTINUOUS
  5
1F6
 10
587.189631
 20
289.622778
 30
0.0
 11
590.671573
 21
286.140835
 31
0.0
  0
LINE
  8
LC-006-005-----0
  6
CONTINUOUS
  5
1F7
 10
604.938011
 20
271.874398
 30
0.0
 11
607.695288
 21
269.117121
 31
0.0
  0
LINE
  8
LC-006-005-----0
  6
CONTINUOUS
  5
1F8
 10
594.917037
 20
287.552225
 30
0.0
 11
598.207294
 21
284.261969
 31
0.0
  0
LINE
  8
LC-006-005-----0
  6
CONTINUOUS
  5
1F9
 10
602.644444
 20
285.481673
 30
0.0
 11
605.743014
 21
282.383103
 31
0.0
  0
LINE
  8
LC-006-005-----0
  6
CONTINUOUS
  5
1FA
 10
610.371851
 20
283.411121
 30
0.0
 11
613.278734
 21
280.504237
 31
0.0
  0
ENDBLK
  8
0
  5
1FB
  0
BLOCK
  8
0
  5
1FD
  2
BLK5
 70
    64
 10
0.0
 20
0.0
 30
0.0
  3
BLK5
  0
ENDBLK
  8
0
  5
1FE
  0
BLOCK
  8
0
  5
200
  2
*X24
 70
    65
 10
478.34881
 20
210.031912
 30
0.0
  3
*X24
  0
LINE
  8
LC-006-005-----0
  6
CONTINUOUS
  5
201
 10
597.526428
 20
210.031912
 30
0.0
 11
597.744593
 21
210.250076
 31
0.0
  0
LINE
  8
LC-006-005-----0
  6
CONTINUOUS
  5
202
 10
594.698001
 20
210.031912
 30
0.0
 11
596.14167
 21
211.475581
 31
0.0
  0
LINE
  8
LC-006-005-----0
  6
CONTINUOUS
  5
203
 10
592.251379
 20
210.413718
 30
0.0
 11
593.943545
 21
212.105883
 31
0.0
  0
LINE
  8
LC-006-005-----0
  6
CONTINUOUS
  5
204
 10
590.020669
 20
211.011435
 30
0.0
 11
591.74542
 21
212.736185
 31
0.0
  0
LINE
  8
LC-006-005-----0
  6
CONTINUOUS
  5
205
 10
587.789959
 20
211.609152
 30
0.0
 11
589.547295
 21
213.366487
 31
0.0
  0
LINE
  8
LC-006-005-----0
  6
CONTINUOUS
  5
206
 10
598.286792
 20
222.105984
 30
0.0
 11
599.572065
 21
223.391257
 31
0.0
  0
LINE
  8
LC-006-005-----0
  6
CONTINUOUS
  5
207
 10
585.559249
 20
212.206869
 30
0.0
 11
587.34917
 21
213.996789
 31
0.0
  0
LINE
  8
LC-006-005-----0
  6
CONTINUOUS
  5
208
 10
595.806281
 20
222.453901
 30
0.0
 11
597.37394
 21
224.021559
 31
0.0
  0
LINE
  8
LC-006-005-----0
  6
CONTINUOUS
  5
209
 10
583.328539
 20
212.804586
 30
0.0
 11
585.151045
 21
214.627092
 31
0.0
  0
LINE
  8
LC-006-005-----0
  6
CONTINUOUS
  5
20A
 10
593.575571
 20
223.051618
 30
0.0
 11
595.175815
 21
224.651862
 31
0.0
  0
LINE
  8
LC-006-005-----0
  6
CONTINUOUS
  5
20B
 10
581.097829
 20
213.402302
 30
0.0
 11
582.95292
 21
215.257394
 31
0.0
  0
LINE
  8
LC-006-005-----0
  6
CONTINUOUS
  5
20C
 10
591.344861
 20
223.649335
 30
0.0
 11
592.97769
 21
225.282164
 31
0.0
  0
LINE
  8
LC-006-005-----0
  6
CONTINUOUS
  5
20D
 10
578.867119
 20
214.000019
 30
0.0
 11
580.754795
 21
215.887696
 31
0.0
  0
LINE
  8
LC-006-005-----0
  6
CONTINUOUS
  5
20E
 10
589.114151
 20
224.247052
 30
0.0
 11
590.779565
 21
225.912466
 31
0.0
  0
LINE
  8
LC-006-005-----0
  6
CONTINUOUS
  5
20F
 10
576.636408
 20
214.597736
 30
0.0
 11
578.55667
 21
216.517998
 31
0.0
  0
LINE
  8
LC-006-005-----0
  6
CONTINUOUS
  5
210
 10
586.883441
 20
224.844769
 30
0.0
 11
588.58144
 21
226.542768
 31
0.0
  0
LINE
  8
LC-006-005-----0
  6
CONTINUOUS
  5
211
 10
574.405698
 20
215.195453
 30
0.0
 11
576.358545
 21
217.1483
 31
0.0
  0
LINE
  8
LC-006-005-----0
  6
CONTINUOUS
  5
212
 10
584.65273
 20
225.442486
 30
0.0
 11
586.383315
 21
227.17307
 31
0.0
  0
LINE
  8
LC-006-005-----0
  6
CONTINUOUS
  5
213
 10
572.174988
 20
215.79317
 30
0.0
 11
574.16042
 21
217.778603
 31
0.0
  0
LINE
  8
LC-006-005-----0
  6
CONTINUOUS
  5
214
 10
582.42202
 20
226.040203
 30
0.0
 11
584.18519
 21
227.803372
 31
0.0
  0
LINE
  8
LC-006-005-----0
  6
CONTINUOUS
  5
215
 10
569.944278
 20
216.390887
 30
0.0
 11
571.962295
 21
218.408905
 31
0.0
  0
LINE
  8
LC-006-005-----0
  6
CONTINUOUS
  5
216
 10
580.19131
 20
226.637919
 30
0.0
 11
581.987065
 21
228.433675
 31
0.0
  0
LINE
  8
LC-006-005-----0
  6
CONTINUOUS
  5
217
 10
567.713568
 20
216.988604
 30
0.0
 11
569.76417
 21
219.039207
 31
0.0
  0
LINE
  8
LC-006-005-----0
  6
CONTINUOUS
  5
218
 10
577.9606
 20
227.235636
 30
0.0
 11
579.78894
 21
229.063977
 31
0.0
  0
LINE
  8
LC-006-005-----0
  6
CONTINUOUS
  5
219
 10
565.482858
 20
217.586321
 30
0.0
 11
567.566045
 21
219.669509
 31
0.0
  0
LINE
  8
LC-006-005-----0
  6
CONTINUOUS
  5
21A
 10
575.72989
 20
227.833353
 30
0.0
 11
577.590815
 21
229.694279
 31
0.0
  0
LINE
  8
LC-006-005-----0
  6
CONTINUOUS
  5
21B
 10
563.252148
 20
218.184038
 30
0.0
 11
565.367921
 21
220.299811
 31
0.0
  0
LINE
  8
LC-006-005-----0
  6
CONTINUOUS
  5
21C
 10
573.49918
 20
228.43107
 30
0.0
 11
575.39269
 21
230.324581
 31
0.0
  0
LINE
  8
LC-006-005-----0
  6
CONTINUOUS
  5
21D
 10
561.021437
 20
218.781755
 30
0.0
 11
563.169796
 21
220.930113
 31
0.0
  0
LINE
  8
LC-006-005-----0
  6
CONTINUOUS
  5
21E
 10
571.26847
 20
229.028787
 30
0.0
 11
573.194565
 21
230.954883
 31
0.0
  0
LINE
  8
LC-006-005-----0
  6
CONTINUOUS
  5
21F
 10
558.790727
 20
219.379472
 30
0.0
 11
560.971671
 21
221.560416
 31
0.0
  0
LINE
  8
LC-006-005-----0
  6
CONTINUOUS
  5
220
 10
569.037759
 20
229.626504
 30
0.0
 11
570.996441
 21
231.585186
 31
0.0
  0
LINE
  8
LC-006-005-----0
  6
CONTINUOUS
  5
221
 10
556.560017
 20
219.977189
 30
0.0
 11
558.773546
 21
222.190718
 31
0.0
  0
LINE
  8
LC-006-005-----0
  6
CONTINUOUS
  5
222
 10
566.807049
 20
230.224221
 30
0.0
 11
568.798316
 21
232.215488
 31
0.0
  0
LINE
  8
LC-006-005-----0
  6
CONTINUOUS
  5
223
 10
554.329307
 20
220.574906
 30
0.0
 11
556.575421
 21
222.82102
 31
0.0
  0
LINE
  8
LC-006-005-----0
  6
CONTINUOUS
  5
224
 10
564.576339
 20
230.821938
 30
0.0
 11
566.600191
 21
232.84579
 31
0.0
  0
LINE
  8
LC-006-005-----0
  6
CONTINUOUS
  5
225
 10
552.098597
 20
221.172623
 30
0.0
 11
554.377296
 21
223.451322
 31
0.0
  0
LINE
  8
LC-006-005-----0
  6
CONTINUOUS
  5
226
 10
562.345629
 20
231.419655
 30
0.0
 11
564.402066
 21
233.476092
 31
0.0
  0
LINE
  8
LC-006-005-----0
  6
CONTINUOUS
  5
227
 10
549.867887
 20
221.77034
 30
0.0
 11
552.179171
 21
224.081624
 31
0.0
  0
LINE
  8
LC-006-005-----0
  6
CONTINUOUS
  5
228
 10
560.114919
 20
232.017372
 30
0.0
 11
562.203941
 21
234.106394
 31
0.0
  0
LINE
  8
LC-006-005-----0
  6
CONTINUOUS
  5
229
 10
547.637177
 20
222.368057
 30
0.0
 11
549.981046
 21
224.711927
 31
0.0
  0
LINE
  8
LC-006-005-----0
  6
CONTINUOUS
  5
22A
 10
557.884209
 20
232.615089
 30
0.0
 11
560.005816
 21
234.736696
 31
0.0
  0
LINE
  8
LC-006-005-----0
  6
CONTINUOUS
  5
22B
 10
545.406466
 20
222.965774
 30
0.0
 11
547.782921
 21
225.342229
 31
0.0
  0
LINE
  8
LC-006-005-----0
  6
CONTINUOUS
  5
22C
 10
555.653499
 20
233.212806
 30
0.0
 11
557.807691
 21
235.366999
 31
0.0
  0
LINE
  8
LC-006-005-----0
  6
CONTINUOUS
  5
22D
 10
543.307865
 20
223.695599
 30
0.0
 11
545.584796
 21
225.972531
 31
0.0
  0
LINE
  8
LC-006-005-----0
  6
CONTINUOUS
  5
22E
 10
553.422788
 20
233.810523
 30
0.0
 11
555.609566
 21
235.997301
 31
0.0
  0
LINE
  8
LC-006-005-----0
  6
CONTINUOUS
  5
22F
 10
542.272588
 20
225.48875
 30
0.0
 11
544.380895
 21
227.597057
 31
0.0
  0
LINE
  8
LC-006-005-----0
  6
CONTINUOUS
  5
230
 10
551.192078
 20
234.40824
 30
0.0
 11
553.411441
 21
236.627603
 31
0.0
  0
LINE
  8
LC-006-005-----0
  6
CONTINUOUS
  5
231
 10
541.237312
 20
227.281901
 30
0.0
 11
543.345619
 21
229.390208
 31
0.0
  0
LINE
  8
LC-006-005-----0
  6
CONTINUOUS
  5
232
 10
548.961368
 20
235.005957
 30
0.0
 11
551.213316
 21
237.257905
 31
0.0
  0
LINE
  8
LC-006-005-----0
  6
CONTINUOUS
  5
233
 10
540.202036
 20
229.075052
 30
0.0
 11
542.310342
 21
231.183359
 31
0.0
  0
LINE
  8
LC-006-005-----0
  6
CONTINUOUS
  5
234
 10
546.730658
 20
235.603674
 30
0.0
 11
549.015191
 21
237.888207
 31
0.0
  0
LINE
  8
LC-006-005-----0
  6
CONTINUOUS
  5
235
 10
539.16676
 20
230.868203
 30
0.0
 11
541.275066
 21
232.97651
 31
0.0
  0
LINE
  8
LC-006-005-----0
  6
CONTINUOUS
  5
236
 10
544.499948
 20
236.201391
 30
0.0
 11
546.817066
 21
238.51851
 31
0.0
  0
LINE
  8
LC-006-005-----0
  6
CONTINUOUS
  5
237
 10
538.131484
 20
232.661354
 30
0.0
 11
540.23979
 21
234.76966
 31
0.0
  0
LINE
  8
LC-006-005-----0
  6
CONTINUOUS
  5
238
 10
542.269238
 20
236.799108
 30
0.0
 11
544.618941
 21
239.148812
 31
0.0
  0
LINE
  8
LC-006-005-----0
  6
CONTINUOUS
  5
239
 10
537.096207
 20
234.454505
 30
0.0
 11
539.204514
 21
236.562811
 31
0.0
  0
LINE
  8
LC-006-005-----0
  6
CONTINUOUS
  5
23A
 10
540.038528
 20
237.396825
 30
0.0
 11
542.420816
 21
239.779114
 31
0.0
  0
LINE
  8
LC-006-005-----0
  6
CONTINUOUS
  5
23B
 10
536.060931
 20
236.247656
 30
0.0
 11
540.220643
 21
240.407368
 31
0.0
  0
LINE
  8
LC-006-005-----0
  6
CONTINUOUS
  5
23C
 10
535.025655
 20
238.040807
 30
0.0
 11
537.392216
 21
240.407368
 31
0.0
  0
LINE
  8
LC-006-005-----0
  6
CONTINUOUS
  5
23D
 10
529.720909
 20
235.564488
 30
0.0
 11
534.563789
 21
240.407368
 31
0.0
  0
LINE
  8
LC-006-005-----0
  6
CONTINUOUS
  5
23E
 10
523.706578
 20
232.378584
 30
0.0
 11
531.735362
 21
240.407368
 31
0.0
  0
LINE
  8
LC-006-005-----0
  6
CONTINUOUS
  5
23F
 10
519.499292
 20
230.999725
 30
0.0
 11
525.935712
 21
237.436146
 31
0.0
  0
LINE
  8
LC-006-005-----0
  6
CONTINUOUS
  5
240
 10
515.974282
 20
230.303143
 30
0.0
 11
520.805247
 21
235.134108
 31
0.0
  0
LINE
  8
LC-006-005-----0
  6
CONTINUOUS
  5
241
 10
512.926895
 20
230.084183
 30
0.0
 11
516.958324
 21
234.115611
 31
0.0
  0
LINE
  8
LC-006-005-----0
  6
CONTINUOUS
  5
242
 10
510.098468
 20
230.084183
 30
0.0
 11
513.684244
 21
233.669958
 31
0.0
  0
LINE
  8
LC-006-005-----0
  6
CONTINUOUS
  5
243
 10
507.270041
 20
230.084183
 30
0.0
 11
510.768926
 21
233.583068
 31
0.0
  0
LINE
  8
LC-006-005-----0
  6
CONTINUOUS
  5
244
 10
504.441614
 20
230.084183
 30
0.0
 11
508.112821
 21
233.75539
 31
0.0
  0
LINE
  8
LC-006-005-----0
  6
CONTINUOUS
  5
245
 10
503.489469
 20
231.960465
 30
0.0
 11
505.660072
 21
234.131068
 31
0.0
  0
ENDBLK
  8
0
  5
246
  0
BLOCK
  8
0
  5
248
  2
*X25
 70
    65
 10
438.41881
 20
229.977368
 30
0.0
  3
*X25
  0
LINE
  8
LC-006-005-----0
  6
CONTINUOUS
  5
249
 10
528.947674
 20
285.639338
 30
0.0
 11
526.011932
 21
288.57508
 31
0.0
  0
LINE
  8
LC-006-005-----0
  6
CONTINUOUS
  5
24A
 10
523.65279
 20
285.277368
 30
0.0
 11
520.952206
 21
287.977952
 31
0.0
  0
LINE
  8
LC-006-005-----0
  6
CONTINUOUS
  5
24B
 10
517.447674
 20
291.482484
 30
0.0
 11
516.998927
 21
291.931231
 31
0.0
  0
LINE
  8
LC-006-005-----0
  6
CONTINUOUS
  5
24C
 10
517.995935
 20
285.277368
 30
0.0
 11
510.801022
 21
292.472282
 31
0.0
  0
LINE
  8
LC-006-005-----0
  6
CONTINUOUS
  5
24D
 10
512.339081
 20
285.277368
 30
0.0
 11
505.68742
 21
291.929029
 31
0.0
  0
LINE
  8
LC-006-005-----0
  6
CONTINUOUS
  5
24E
 10
506.682227
 20
285.277368
 30
0.0
 11
501.26074
 21
290.698855
 31
0.0
  0
LINE
  8
LC-006-005-----0
  6
CONTINUOUS
  5
24F
 10
501.025373
 20
285.277368
 30
0.0
 11
497.355463
 21
288.947278
 31
0.0
  0
LINE
  8
LC-006-005-----0
  6
CONTINUOUS
  5
250
 10
495.368518
 20
285.277368
 30
0.0
 11
491.422587
 21
289.2233
 31
0.0
  0
LINE
  8
LC-006-005-----0
  6
CONTINUOUS
  5
251
 10
486.90067
 20
288.088362
 30
0.0
 11
480.201982
 21
294.787051
 31
0.0
  0
LINE
  8
LC-006-005-----0
  6
CONTINUOUS
  5
252
 10
477.48532
 20
291.846858
 30
0.0
 11
473.415256
 21
295.916922
 31
0.0
  0
LINE
  8
LC-006-005-----0
  6
CONTINUOUS
  5
253
 10
471.198776
 20
292.476547
 30
0.0
 11
467.697956
 21
295.977368
 31
0.0
  0
LINE
  8
LC-006-005-----0
  6
CONTINUOUS
  5
254
 10
466.036299
 20
291.982171
 30
0.0
 11
463.559469
 21
294.459
 31
0.0
  0
ENDBLK
  8
0
  5
255
  0
BLOCK
  8
0
  5
257
  2
*X26
 70
    65
 10
438.41881
 20
229.977368
 30
0.0
  3
*X26
  0
LINE
  8
LC-006-005-----0
  6
CONTINUOUS
  5
258
 10
528.947674
 20
240.384504
 30
0.0
 11
528.65481
 21
240.677368
 31
0.0
  0
LINE
  8
LC-006-005-----0
  6
CONTINUOUS
  5
259
 10
526.191794
 20
237.483529
 30
0.0
 11
522.997956
 21
240.677368
 31
0.0
  0
LINE
  8
LC-006-005-----0
  6
CONTINUOUS
  5
25A
 10
522.394947
 20
235.623523
 30
0.0
 11
521.947674
 21
236.070796
 31
0.0
  0
LINE
  8
LC-006-005-----0
  6
CONTINUOUS
  5
25B
 10
520.041508
 20
237.976961
 30
0.0
 11
517.341101
 21
240.677368
 31
0.0
  0
LINE
  8
LC-006-005-----0
  6
CONTINUOUS
  5
25C
 10
517.447674
 20
234.913941
 30
0.0
 11
511.684247
 21
240.677368
 31
0.0
  0
LINE
  8
LC-006-005-----0
  6
CONTINUOUS
  5
25D
 10
513.171058
 20
233.533703
 30
0.0
 11
506.027393
 21
240.677368
 31
0.0
  0
LINE
  8
LC-006-005-----0
  6
CONTINUOUS
  5
25E
 10
507.289983
 20
233.757924
 30
0.0
 11
500.370539
 21
240.677368
 31
0.0
  0
LINE
  8
LC-006-005-----0
  6
CONTINUOUS
  5
25F
 10
499.373843
 20
236.017209
 30
0.0
 11
494.713684
 21
240.677368
 31
0.0
  0
LINE
  8
LC-006-005-----0
  6
CONTINUOUS
  5
260
 10
492.305626
 20
237.428573
 30
0.0
 11
489.816821
 21
239.917377
 31
0.0
  0
LINE
  8
LC-006-005-----0
  6
CONTINUOUS
  5
261
 10
489.016379
 20
235.060965
 30
0.0
 11
486.47091
 21
237.606434
 31
0.0
  0
LINE
  8
LC-006-005-----0
  6
CONTINUOUS
  5
262
 10
485.355709
 20
233.064781
 30
0.0
 11
482.700614
 21
235.719876
 31
0.0
  0
LINE
  8
LC-006-005-----0
  6
CONTINUOUS
  5
263
 10
481.278812
 20
231.484823
 30
0.0
 11
478.43883
 21
234.324806
 31
0.0
  0
LINE
  8
LC-006-005-----0
  6
CONTINUOUS
  5
264
 10
476.703512
 20
230.403269
 30
0.0
 11
473.552172
 21
233.554609
 31
0.0
  0
LINE
  8
LC-006-005-----0
  6
CONTINUOUS
  5
265
 10
471.472515
 20
229.977412
 30
0.0
 11
467.742603
 21
233.707324
 31
0.0
  0
LINE
  8
LC-006-005-----0
  6
CONTINUOUS
  5
266
 10
465.815705
 20
229.977368
 30
0.0
 11
463.559469
 21
232.233603
 31
0.0
  0
ENDBLK
  8
0
  5
267
  0
BLOCK
  8
0
  5
269
  2
BLK6
 70
    64
 10
0.0
 20
0.0
 30
0.0
  3
BLK6
  0
ENDBLK
  8
0
  5
26A
  0
BLOCK
  8
0
  5
26C
  2
BLK7
 70
    64
 10
0.0
 20
0.0
 30
0.0
  3
BLK7
  0
ENDBLK
  8
0
  5
26D
  0
BLOCK
  8
0
  5
26F
  2
BLK8
 70
    64
 10
0.0
 20
0.0
 30
0.0
  3
BLK8
  0
ENDBLK
  8
0
  5
270
  0
BLOCK
  8
0
  5
272
  2
*X30
 70
    65
 10
477.764969
 20
287.969608
 30
0.0
  3
*X30
  0
LINE
  8
LC-006-005-----0
  6
DASHED
  5
274
 10
481.591504
 20
289.154888
 30
0.0
 11
478.950248
 21
291.796143
 31
0.0
  0
LINE
  8
LC-006-005-----0
  6
DASHED
  5
275
 10
480.963597
 20
288.36858
 30
0.0
 11
478.163941
 21
291.168237
 31
0.0
  0
ENDBLK
  8
0
  5
276
  0
BLOCK
  8
0
  5
278
  2
*X31
 70
    65
 10
477.764969
 20
233.985128
 30
0.0
  3
*X31
  0
LINE
  8
LC-006-005-----0
  6
CONTINUOUS
  5
279
 10
481.566267
 20
236.854223
 30
0.0
 11
480.634064
 21
237.786426
 31
0.0
  0
LINE
  8
LC-006-005-----0
  6
DASHED
  5
27A
 10
481.097956
 20
234.494107
 30
0.0
 11
478.273947
 21
237.318115
 31
0.0
  0
LINE
  8
LC-006-005-----0
  6
DASHED
  5
27B
 10
480.154434
 20
234.023415
 30
0.0
 11
477.803256
 21
236.374593
 31
0.0
  0
ENDBLK
  8
0
  5
27C
  0
BLOCK
  8
0
  5
27E
  2
*X32
 70
    65
 10
517.697674
 20
287.977708
 30
0.0
  3
*X32
  0
LINE
  8
LC-006-005-----0
  6
CONTINUOUS
  5
27F
 10
521.695866
 20
290.062719
 30
0.0
 11
519.782684
 21
291.975901
 31
0.0
  0
LINE
  8
LC-006-005-----0
  6
DASHED
  5
280
 10
520.689305
 20
288.240853
 30
0.0
 11
517.960818
 21
290.969339
 31
0.0
  0
LINE
  8
LC-006-005-----0
  6
DASHED
  5
281
 10
519.531304
 20
287.98464
 30
0.0
 11
517.704606
 21
289.811339
 31
0.0
  0
ENDBLK
  8
0
  5
282
  0
BLOCK
  8
0
  5
284
  2
*X33
 70
    65
 10
517.697674
 20
233.977028
 30
0.0
  3
*X33
  0
LINE
  8
LC-006-005-----0
  6
CONTINUOUS
  5
285
 10
521.661194
 20
236.357275
 30
0.0
 11
520.077921
 21
237.940548
 31
0.0
  0
LINE
  8
LC-006-005-----0
  6
DASHED
  5
286
 10
520.848641
 20
234.341401
 30
0.0
 11
518.062047
 21
237.127995
 31
0.0
  0
LINE
  8
LC-006-005-----0
  6
DASHED
  5
287
 10
519.796364
 20
233.979464
 30
0.0
 11
517.70011
 21
236.075719
 31
0.0
  0
ENDBLK
  8
0
  5
288
  0
BLOCK
  8
0
  5
28A
  2
BLK9
 70
    64
 10
0.0
 20
0.0
 30
0.0
  3
BLK9
  0
ENDBLK
  8
0
  5
28B
  0
BLOCK
  8
0
  5
28D
  2
*X35
 70
    65
 10
168.594566
 20
261.444788
 30
0.0
  3
*X35
  0
LINE
  8
LC-006-005-----0
  6
CONTINUOUS
  5
28E
 10
194.385584
 20
267.92469
 30
0.0
 11
195.594566
 21
269.133671
 31
0.0
  0
LINE
  8
LC-006-005-----0
  6
CONTINUOUS
  5
28F
 10
191.077255
 20
267.444788
 30
0.0
 11
195.594566
 21
271.962099
 31
0.0
  0
LINE
  8
LC-006-005-----0
  6
CONTINUOUS
  5
290
 10
188.248828
 20
267.444788
 30
0.0
 11
190.248828
 21
269.444788
 31
0.0
  0
LINE
  8
LC-006-005-----0
  6
CONTINUOUS
  5
291
 10
193.594566
 20
272.790526
 30
0.0
 11
195.594566
 21
274.790526
 31
0.0
  0
LINE
  8
LC-006-005-----0
  6
CONTINUOUS
  5
292
 10
185.420401
 20
267.444788
 30
0.0
 11
187.420401
 21
269.444788
 31
0.0
  0
LINE
  8
LC-006-005-----0
  6
CONTINUOUS
  5
293
 10
193.594566
 20
275.618953
 30
0.0
 11
195.594566
 21
277.618953
 31
0.0
  0
LINE
  8
LC-006-005-----0
  6
CONTINUOUS
  5
294
 10
182.591974
 20
267.444788
 30
0.0
 11
184.591974
 21
269.444788
 31
0.0
  0
LINE
  8
LC-006-005-----0
  6
CONTINUOUS
  5
295
 10
193.594566
 20
278.44738
 30
0.0
 11
195.594566
 21
280.44738
 31
0.0
  0
LINE
  8
LC-006-005-----0
  6
CONTINUOUS
  5
296
 10
179.763547
 20
267.444788
 30
0.0
 11
181.763547
 21
269.444788
 31
0.0
  0
LINE
  8
LC-006-005-----0
  6
CONTINUOUS
  5
297
 10
193.594566
 20
281.275807
 30
0.0
 11
195.594566
 21
283.275807
 31
0.0
  0
LINE
  8
LC-006-005-----0
  6
CONTINUOUS
  5
298
 10
176.93512
 20
267.444788
 30
0.0
 11
178.93512
 21
269.444788
 31
0.0
  0
LINE
  8
LC-006-005-----0
  6
CONTINUOUS
  5
299
 10
193.594566
 20
284.104234
 30
0.0
 11
195.594566
 21
286.104234
 31
0.0
  0
LINE
  8
LC-006-005-----0
  6
CONTINUOUS
  5
29A
 10
168.594566
 20
261.932661
 30
0.0
 11
170.594566
 21
263.932661
 31
0.0
  0
LINE
  8
LC-006-005-----0
  6
CONTINUOUS
  5
29B
 10
174.106693
 20
267.444788
 30
0.0
 11
176.106693
 21
269.444788
 31
0.0
  0
LINE
  8
LC-006-005-----0
  6
CONTINUOUS
  5
29C
 10
193.594566
 20
286.932661
 30
0.0
 11
195.594566
 21
288.932661
 31
0.0
  0
LINE
  8
LC-006-005-----0
  6
CONTINUOUS
  5
29D
 10
168.594566
 20
264.761088
 30
0.0
 11
170.594566
 21
266.761088
 31
0.0
  0
LINE
  8
LC-006-005-----0
  6
CONTINUOUS
  5
29E
 10
171.278265
 20
267.444788
 30
0.0
 11
173.278265
 21
269.444788
 31
0.0
  0
LINE
  8
LC-006-005-----0
  6
CONTINUOUS
  5
29F
 10
193.594566
 20
289.761088
 30
0.0
 11
195.594566
 21
291.761088
 31
0.0
  0
LINE
  8
LC-006-005-----0
  6
CONTINUOUS
  5
2A0
 10
168.594566
 20
267.589516
 30
0.0
 11
170.449838
 21
269.444788
 31
0.0
  0
LINE
  8
LC-006-005-----0
  6
CONTINUOUS
  5
2A1
 10
193.594566
 20
292.589516
 30
0.0
 11
195.594566
 21
294.589516
 31
0.0
  0
LINE
  8
LC-006-005-----0
  6
CONTINUOUS
  5
2A2
 10
193.594566
 20
295.417943
 30
0.0
 11
195.594566
 21
297.417943
 31
0.0
  0
LINE
  8
LC-006-005-----0
  6
CONTINUOUS
  5
2A3
 10
193.594566
 20
298.24637
 30
0.0
 11
195.594566
 21
300.24637
 31
0.0
  0
LINE
  8
LC-006-005-----0
  6
CONTINUOUS
  5
2A4
 10
193.594566
 20
301.074797
 30
0.0
 11
195.594566
 21
303.074797
 31
0.0
  0
LINE
  8
LC-006-005-----0
  6
CONTINUOUS
  5
2A5
 10
193.594566
 20
303.903224
 30
0.0
 11
195.594566
 21
305.903224
 31
0.0
  0
LINE
  8
LC-006-005-----0
  6
CONTINUOUS
  5
2A6
 10
193.594566
 20
306.731651
 30
0.0
 11
195.594566
 21
308.731651
 31
0.0
  0
LINE
  8
LC-006-005-----0
  6
CONTINUOUS
  5
2A7
 10
193.594566
 20
309.560078
 30
0.0
 11
195.594566
 21
311.560078
 31
0.0
  0
LINE
  8
LC-006-005-----0
  6
CONTINUOUS
  5
2A8
 10
193.594566
 20
312.388505
 30
0.0
 11
195.594566
 21
314.388505
 31
0.0
  0
LINE
  8
LC-006-005-----0
  6
CONTINUOUS
  5
2A9
 10
193.406362
 20
315.028729
 30
0.0
 11
195.140295
 21
316.762662
 31
0.0
  0
LINE
  8
LC-006-005-----0
  6
CONTINUOUS
  5
2AA
 10
190.993994
 20
315.444788
 30
0.0
 11
192.909585
 21
317.360379
 31
0.0
  0
LINE
  8
LC-006-005-----0
  6
CONTINUOUS
  5
2AB
 10
188.165567
 20
315.444788
 30
0.0
 11
190.165567
 21
317.444788
 31
0.0
  0
LINE
  8
LC-006-005-----0
  6
CONTINUOUS
  5
2AC
 10
185.33714
 20
315.444788
 30
0.0
 11
187.33714
 21
317.444788
 31
0.0
  0
LINE
  8
LC-006-005-----0
  6
CONTINUOUS
  5
2AD
 10
182.508713
 20
315.444788
 30
0.0
 11
184.508713
 21
317.444788
 31
0.0
  0
LINE
  8
LC-006-005-----0
  6
CONTINUOUS
  5
2AE
 10
179.680286
 20
315.444788
 30
0.0
 11
181.680286
 21
317.444788
 31
0.0
  0
LINE
  8
LC-006-005-----0
  6
CONTINUOUS
  5
2AF
 10
176.851859
 20
315.444788
 30
0.0
 11
178.851859
 21
317.444788
 31
0.0
  0
LINE
  8
LC-006-005-----0
  6
CONTINUOUS
  5
2B0
 10
174.023431
 20
315.444788
 30
0.0
 11
176.023431
 21
317.444788
 31
0.0
  0
LINE
  8
LC-006-005-----0
  6
CONTINUOUS
  5
2B1
 10
171.195004
 20
315.444788
 30
0.0
 11
173.195004
 21
317.444788
 31
0.0
  0
LINE
  8
LC-006-005-----0
  6
CONTINUOUS
  5
2B2
 10
168.594566
 20
315.672777
 30
0.0
 11
170.594566
 21
317.672777
 31
0.0
  0
LINE
  8
LC-006-005-----0
  6
CONTINUOUS
  5
2B3
 10
168.594566
 20
318.501204
 30
0.0
 11
170.594566
 21
320.501204
 31
0.0
  0
LINE
  8
LC-006-005-----0
  6
CONTINUOUS
  5
2B4
 10
168.594566
 20
321.329631
 30
0.0
 11
170.594566
 21
323.329631
 31
0.0
  0
ENDBLK
  8
0
  5
2B5
  0
BLOCK
  8
0
  5
2B7
  2
*X36
 70
    65
 10
170.594566
 20
215.194788
 30
0.0
  3
*X36
  0
LINE
  8
LC-006-005-----0
  6
CONTINUOUS
  5
2B8
 10
284.563378
 20
244.965398
 30
0.0
 11
285.885037
 21
246.287057
 31
0.0
  0
LINE
  8
LC-006-005-----0
  6
CONTINUOUS
  5
2B9
 10
283.594566
 20
246.825014
 30
0.0
 11
287.725421
 21
250.955869
 31
0.0
  0
LINE
  8
LC-006-005-----0
  6
CONTINUOUS
  5
2BA
 10
283.594566
 20
249.653441
 30
0.0
 11
285.894566
 21
251.953441
 31
0.0
  0
LINE
  8
LC-006-005-----0
  6
CONTINUOUS
  5
2BB
 10
283.594566
 20
252.481868
 30
0.0
 11
285.894566
 21
254.781868
 31
0.0
  0
LINE
  8
LC-006-005-----0
  6
CONTINUOUS
  5
2BC
 10
289.068635
 20
257.955936
 30
0.0
 11
290.544566
 21
259.431868
 31
0.0
  0
LINE
  8
LC-006-005-----0
  6
CONTINUOUS
  5
2BD
 10
283.594566
 20
255.310295
 30
0.0
 11
288.740208
 21
260.455936
 31
0.0
  0
LINE
  8
LC-006-005-----0
  6
CONTINUOUS
  5
2BE
 10
283.594566
 20
258.138722
 30
0.0
 11
286.342548
 21
260.886704
 31
0.0
  0
LINE
  8
LC-006-005-----0
  6
CONTINUOUS
  5
2BF
 10
290.200632
 20
264.744788
 30
0.0
 11
292.694566
 21
267.238722
 31
0.0
  0
LINE
  8
LC-006-005-----0
  6
CONTINUOUS
  5
2C0
 10
283.594566
 20
260.967149
 30
0.0
 11
285.894566
 21
263.267149
 31
0.0
  0
LINE
  8
LC-006-005-----0
  6
CONTINUOUS
  5
2C1
 10
287.372205
 20
264.744788
 30
0.0
 11
289.872205
 21
267.244788
 31
0.0
  0
LINE
  8
LC-006-005-----0
  6
CONTINUOUS
  5
2C2
 10
283.594566
 20
263.795576
 30
0.0
 11
287.043778
 21
267.244788
 31
0.0
  0
LINE
  8
LC-006-005-----0
  6
CONTINUOUS
  5
2C3
 10
283.594566
 20
266.624003
 30
0.0
 11
286.023025
 21
269.052463
 31
0.0
  0
LINE
  8
LC-006-005-----0
  6
CONTINUOUS
  5
2C4
 10
283.564705
 20
269.422569
 30
0.0
 11
285.884336
 21
271.7422
 31
0.0
  0
LINE
  8
LC-006-005-----0
  6
CONTINUOUS
  5
2C5
 10
283.401231
 20
272.087523
 30
0.0
 11
285.62232
 21
274.308612
 31
0.0
  0
LINE
  8
LC-006-005-----0
  6
CONTINUOUS
  5
2C6
 10
283.111753
 20
274.626471
 30
0.0
 11
285.251008
 21
276.765727
 31
0.0
  0
LINE
  8
LC-006-005-----0
  6
CONTINUOUS
  5
2C7
 10
282.710815
 20
277.053961
 30
0.0
 11
284.781315
 21
279.124461
 31
0.0
  0
LINE
  8
LC-006-005-----0
  6
CONTINUOUS
  5
2C8
 10
282.209657
 20
279.38123
 30
0.0
 11
284.221901
 21
281.393474
 31
0.0
  0
LINE
  8
LC-006-005-----0
  6
CONTINUOUS
  5
2C9
 10
281.617144
 20
281.617144
 30
0.0
 11
283.579748
 21
283.579748
 31
0.0
  0
LINE
  8
LC-006-005-----0
  6
CONTINUOUS
  5
2CA
 10
242.235514
 20
245.063942
 30
0.0
 11
243.594566
 21
246.422993
 31
0.0
  0
LINE
  8
LC-006-005-----0
  6
CONTINUOUS
  5
2CB
 10
280.940379
 20
283.768806
 30
0.0
 11
282.86055
 21
285.688977
 31
0.0
  0
LINE
  8
LC-006-005-----0
  6
CONTINUOUS
  5
2CC
 10
241.294566
 20
246.95142
 30
0.0
 11
243.594566
 21
249.25142
 31
0.0
  0
LINE
  8
LC-006-005-----0
  6
CONTINUOUS
  5
2CD
 10
280.185119
 20
285.841974
 30
0.0
 11
282.068994
 21
287.725848
 31
0.0
  0
LINE
  8
LC-006-005-----0
  6
CONTINUOUS
  5
2CE
 10
239.970587
 20
248.455869
 30
0.0
 11
243.594566
 21
252.079848
 31
0.0
  0
LINE
  8
LC-006-005-----0
  6
CONTINUOUS
  5
2CF
 10
279.356076
 20
287.841357
 30
0.0
 11
281.208959
 21
289.694241
 31
0.0
  0
LINE
  8
LC-006-005-----0
  6
CONTINUOUS
  5
2D0
 10
238.594566
 20
249.908275
 30
0.0
 11
239.64216
 21
250.955869
 31
0.0
  0
LINE
  8
LC-006-005-----0
  6
CONTINUOUS
  5
2D1
 10
241.294566
 20
252.608275
 30
0.0
 11
243.594566
 21
254.908275
 31
0.0
  0
LINE
  8
LC-006-005-----0
  6
CONTINUOUS
  5
2D2
 10
278.457118
 20
289.770826
 30
0.0
 11
280.28367
 21
291.597378
 31
0.0
  0
LINE
  8
LC-006-005-----0
  6
CONTINUOUS
  5
2D3
 10
241.294566
 20
255.436702
 30
0.0
 11
243.594566
 21
257.736702
 31
0.0
  0
LINE
  8
LC-006-005-----0
  6
CONTINUOUS
  5
2D4
 10
277.491432
 20
291.633568
 30
0.0
 11
279.295803
 21
293.437939
 31
0.0
  0
LINE
  8
LC-006-005-----0
  6
CONTINUOUS
  5
2D5
 10
240.63997
 20
257.610533
 30
0.0
 11
243.594566
 21
260.565129
 31
0.0
  0
LINE
  8
LC-006-005-----0
  6
CONTINUOUS
  5
2D6
 10
276.461636
 20
293.432199
 30
0.0
 11
278.247576
 21
295.218138
 31
0.0
  0
LINE
  8
LC-006-005-----0
  6
CONTINUOUS
  5
2D7
 10
238.156947
 20
257.955936
 30
0.0
 11
243.594566
 21
263.393556
 31
0.0
  0
LINE
  8
LC-006-005-----0
  6
CONTINUOUS
  5
2D8
 10
275.369865
 20
295.168855
 30
0.0
 11
277.140806
 21
296.939796
 31
0.0
  0
LINE
  8
LC-006-005-----0
  6
CONTINUOUS
  5
2D9
 10
236.644566
 20
259.271983
 30
0.0
 11
237.828519
 21
260.455936
 31
0.0
  0
LINE
  8
LC-006-005-----0
  6
CONTINUOUS
  5
2DA
 10
241.281076
 20
263.908493
 30
0.0
 11
243.424478
 21
266.051895
 31
0.0
  0
LINE
  8
LC-006-005-----0
  6
CONTINUOUS
  5
2DB
 10
274.217838
 20
296.845255
 30
0.0
 11
275.976968
 21
298.604385
 31
0.0
  0
LINE
  8
LC-006-005-----0
  6
CONTINUOUS
  5
2DC
 10
239.288944
 20
264.744788
 30
0.0
 11
241.780301
 21
267.236145
 31
0.0
  0
LINE
  8
LC-006-005-----0
  6
CONTINUOUS
  5
2DD
 10
273.006906
 20
298.46275
 30
0.0
 11
274.757224
 21
300.213068
 31
0.0
  0
LINE
  8
LC-006-005-----0
  6
CONTINUOUS
  5
2DE
 10
236.460516
 20
264.744788
 30
0.0
 11
238.910516
 21
267.194788
 31
0.0
  0
LINE
  8
LC-006-005-----0
  6
CONTINUOUS
  5
2DF
 10
271.738087
 20
300.022358
 30
0.0
 11
273.482454
 21
301.766725
 31
0.0
  0
LINE
  8
LC-006-005-----0
  6
CONTINUOUS
  5
2E0
 10
233.632089
 20
264.744788
 30
0.0
 11
236.082089
 21
267.194788
 31
0.0
  0
LINE
  8
LC-006-005-----0
  6
CONTINUOUS
  5
2E1
 10
270.412097
 20
301.524795
 30
0.0
 11
272.15328
 21
303.265979
 31
0.0
  0
LINE
  8
LC-006-005-----0
  6
CONTINUOUS
  5
2E2
 10
230.803662
 20
264.744788
 30
0.0
 11
233.253662
 21
267.194788
 31
0.0
  0
LINE
  8
LC-006-005-----0
  6
CONTINUOUS
  5
2E3
 10
269.029364
 20
302.970489
 30
0.0
 11
270.770076
 21
304.711201
 31
0.0
  0
LINE
  8
LC-006-005-----0
  6
CONTINUOUS
  5
2E4
 10
227.975235
 20
264.744788
 30
0.0
 11
230.425235
 21
267.194788
 31
0.0
  0
LINE
  8
LC-006-005-----0
  6
CONTINUOUS
  5
2E5
 10
267.590039
 20
304.359592
 30
0.0
 11
269.332976
 21
306.102529
 31
0.0
  0
LINE
  8
LC-006-005-----0
  6
CONTINUOUS
  5
2E6
 10
225.146808
 20
264.744788
 30
0.0
 11
227.596808
 21
267.194788
 31
0.0
  0
LINE
  8
LC-006-005-----0
  6
CONTINUOUS
  5
2E7
 10
266.094001
 20
305.691981
 30
0.0
 11
267.841882
 21
307.439862
 31
0.0
  0
LINE
  8
LC-006-005-----0
  6
CONTINUOUS
  5
2E8
 10
222.318381
 20
264.744788
 30
0.0
 11
224.768381
 21
267.194788
 31
0.0
  0
LINE
  8
LC-006-005-----0
  6
CONTINUOUS
  5
2E9
 10
264.540855
 20
306.967262
 30
0.0
 11
266.296455
 21
308.722862
 31
0.0
  0
LINE
  8
LC-006-005-----0
  6
CONTINUOUS
  5
2EA
 10
219.489954
 20
264.744788
 30
0.0
 11
221.939954
 21
267.194788
 31
0.0
  0
LINE
  8
LC-006-005-----0
  6
CONTINUOUS
  5
2EB
 10
262.929917
 20
308.184751
 30
0.0
 11
264.696113
 21
309.950947
 31
0.0
  0
LINE
  8
LC-006-005-----0
  6
CONTINUOUS
  5
2EC
 10
216.661527
 20
264.744788
 30
0.0
 11
219.111527
 21
267.194788
 31
0.0
  0
LINE
  8
LC-006-005-----0
  6
CONTINUOUS
  5
2ED
 10
261.260205
 20
309.343466
 30
0.0
 11
263.040014
 21
311.123276
 31
0.0
  0
LINE
  8
LC-006-005-----0
  6
CONTINUOUS
  5
2EE
 10
213.833099
 20
264.744788
 30
0.0
 11
216.283099
 21
267.194788
 31
0.0
  0
LINE
  8
LC-006-005-----0
  6
CONTINUOUS
  5
2EF
 10
259.530406
 20
310.442094
 30
0.0
 11
261.327041
 21
312.238729
 31
0.0
  0
LINE
  8
LC-006-005-----0
  6
CONTINUOUS
  5
2F0
 10
211.004672
 20
264.744788
 30
0.0
 11
213.454672
 21
267.194788
 31
0.0
  0
LINE
  8
LC-006-005-----0
  6
CONTINUOUS
  5
2F1
 10
257.738845
 20
311.478961
 30
0.0
 11
259.55577
 21
313.295885
 31
0.0
  0
LINE
  8
LC-006-005-----0
  6
CONTINUOUS
  5
2F2
 10
208.176245
 20
264.744788
 30
0.0
 11
210.626245
 21
267.194788
 31
0.0
  0
LINE
  8
LC-006-005-----0
  6
CONTINUOUS
  5
2F3
 10
255.883437
 20
312.45198
 30
0.0
 11
257.724435
 21
314.292978
 31
0.0
  0
LINE
  8
LC-006-005-----0
  6
CONTINUOUS
  5
2F4
 10
205.347818
 20
264.744788
 30
0.0
 11
207.797818
 21
267.194788
 31
0.0
  0
LINE
  8
LC-006-005-----0
  6
CONTINUOUS
  5
2F5
 10
253.961622
 20
313.358592
 30
0.0
 11
255.830885
 21
315.227855
 31
0.0
  0
LINE
  8
LC-006-005-----0
  6
CONTINUOUS
  5
2F6
 10
202.519391
 20
264.744788
 30
0.0
 11
204.969391
 21
267.194788
 31
0.0
  0
LINE
  8
LC-006-005-----0
  6
CONTINUOUS
  5
2F7
 10
251.970284
 20
314.19568
 30
0.0
 11
253.872516
 21
316.097913
 31
0.0
  0
LINE
  8
LC-006-005-----0
  6
CONTINUOUS
  5
2F8
 10
199.690964
 20
264.744788
 30
0.0
 11
202.140964
 21
267.194788
 31
0.0
  0
LINE
  8
LC-006-005-----0
  6
CONTINUOUS
  5
2F9
 10
249.905634
 20
314.959458
 30
0.0
 11
251.846194
 21
316.900017
 31
0.0
  0
LINE
  8
LC-006-005-----0
  6
CONTINUOUS
  5
2FA
 10
196.862537
 20
264.744788
 30
0.0
 11
199.312537
 21
267.194788
 31
0.0
  0
LINE
  8
LC-006-005-----0
  6
CONTINUOUS
  5
2FB
 10
247.763069
 20
315.64532
 30
0.0
 11
249.748145
 21
317.630396
 31
0.0
  0
LINE
  8
LC-006-005-----0
  6
CONTINUOUS
  5
2FC
 10
194.03411
 20
264.744788
 30
0.0
 11
196.48411
 21
267.194788
 31
0.0
  0
LINE
  8
LC-006-005-----0
  6
CONTINUOUS
  5
2FD
 10
245.53696
 20
316.247638
 30
0.0
 11
247.573816
 21
318.284494
 31
0.0
  0
LINE
  8
LC-006-005-----0
  6
CONTINUOUS
  5
2FE
 10
186.405682
 20
259.944788
 30
0.0
 11
189.094566
 21
262.633671
 31
0.0
  0
LINE
  8
LC-006-005-----0
  6
CONTINUOUS
  5
2FF
 10
191.205682
 20
264.744788
 30
0.0
 11
193.655682
 21
267.194788
 31
0.0
  0
LINE
  8
LC-006-005-----0
  6
CONTINUOUS
  5
300
 10
243.220373
 20
316.759478
 30
0.0
 11
245.31768
 21
318.856785
 31
0.0
  0
LINE
  8
LC-006-005-----0
  6
CONTINUOUS
  5
301
 10
183.577255
 20
259.944788
 30
0.0
 11
186.077255
 21
262.444788
 31
0.0
  0
LINE
  8
LC-006-005-----0
  6
CONTINUOUS
  5
302
 10
187.094566
 20
263.462099
 30
0.0
 11
190.827255
 21
267.194788
 31
0.0
  0
LINE
  8
LC-006-005-----0
  6
CONTINUOUS
  5
303
 10
240.804669
 20
317.172201
 30
0.0
 11
242.972972
 21
319.340504
 31
0.0
  0
LINE
  8
LC-006-005-----0
  6
CONTINUOUS
  5
304
 10
180.748828
 20
259.944788
 30
0.0
 11
183.248828
 21
262.444788
 31
0.0
  0
LINE
  8
LC-006-005-----0
  6
CONTINUOUS
  5
305
 10
187.094566
 20
266.290526
 30
0.0
 11
187.998828
 21
267.194788
 31
0.0
  0
LINE
  8
LC-006-005-----0
  6
CONTINUOUS
  5
306
 10
238.278913
 20
317.474873
 30
0.0
 11
240.531315
 21
319.727274
 31
0.0
  0
LINE
  8
LC-006-005-----0
  6
CONTINUOUS
  5
307
 10
177.933463
 20
259.95785
 30
0.0
 11
180.420401
 21
262.444788
 31
0.0
  0
LINE
  8
LC-006-005-----0
  6
CONTINUOUS
  5
308
 10
235.628995
 20
317.653382
 30
0.0
 11
237.98218
 21
320.006567
 31
0.0
  0
LINE
  8
LC-006-005-----0
  6
CONTINUOUS
  5
309
 10
177.094566
 20
261.94738
 30
0.0
 11
178.56827
 21
263.421084
 31
0.0
  0
LINE
  8
LC-006-005-----0
  6
CONTINUOUS
  5
30A
 10
232.841974
 20
317.694788
 30
0.0
 11
235.312078
 21
320.164892
 31
0.0
  0
LINE
  8
LC-006-005-----0
  6
CONTINUOUS
  5
30B
 10
175.804057
 20
263.485297
 30
0.0
 11
177.154057
 21
264.835297
 31
0.0
  0
LINE
  8
LC-006-005-----0
  6
CONTINUOUS
  5
30C
 10
230.013547
 20
317.694788
 30
0.0
 11
232.513547
 21
320.194788
 31
0.0
  0
LINE
  8
LC-006-005-----0
  6
CONTINUOUS
  5
30D
 10
174.18512
 20
264.694788
 30
0.0
 11
175.739843
 21
266.249511
 31
0.0
  0
LINE
  8
LC-006-005-----0
  6
CONTINUOUS
  5
30E
 10
227.18512
 20
317.694788
 30
0.0
 11
229.68512
 21
320.194788
 31
0.0
  0
LINE
  8
LC-006-005-----0
  6
CONTINUOUS
  5
30F
 10
171.356693
 20
264.694788
 30
0.0
 11
173.856693
 21
267.194788
 31
0.0
  0
LINE
  8
LC-006-005-----0
  6
CONTINUOUS
  5
310
 10
224.356693
 20
317.694788
 30
0.0
 11
226.856693
 21
320.194788
 31
0.0
  0
LINE
  8
LC-006-005-----0
  6
CONTINUOUS
  5
311
 10
170.594566
 20
266.761088
 30
0.0
 11
171.028265
 21
267.194788
 31
0.0
  0
LINE
  8
LC-006-005-----0
  6
CONTINUOUS
  5
312
 10
221.528265
 20
317.694788
 30
0.0
 11
224.028265
 21
320.194788
 31
0.0
  0
LINE
  8
LC-006-005-----0
  6
CONTINUOUS
  5
313
 10
218.699838
 20
317.694788
 30
0.0
 11
221.199838
 21
320.194788
 31
0.0
  0
LINE
  8
LC-006-005-----0
  6
CONTINUOUS
  5
314
 10
215.871411
 20
317.694788
 30
0.0
 11
218.371411
 21
320.194788
 31
0.0
  0
LINE
  8
LC-006-005-----0
  6
CONTINUOUS
  5
315
 10
213.042984
 20
317.694788
 30
0.0
 11
215.542984
 21
320.194788
 31
0.0
  0
LINE
  8
LC-006-005-----0
  6
CONTINUOUS
  5
316
 10
210.214557
 20
317.694788
 30
0.0
 11
212.714557
 21
320.194788
 31
0.0
  0
LINE
  8
LC-006-005-----0
  6
CONTINUOUS
  5
317
 10
207.38613
 20
317.694788
 30
0.0
 11
209.88613
 21
320.194788
 31
0.0
  0
LINE
  8
LC-006-005-----0
  6
CONTINUOUS
  5
318
 10
204.557703
 20
317.694788
 30
0.0
 11
207.057703
 21
320.194788
 31
0.0
  0
LINE
  8
LC-006-005-----0
  6
CONTINUOUS
  5
319
 10
201.729276
 20
317.694788
 30
0.0
 11
204.229276
 21
320.194788
 31
0.0
  0
LINE
  8
LC-006-005-----0
  6
CONTINUOUS
  5
31A
 10
198.900848
 20
317.694788
 30
0.0
 11
201.400848
 21
320.194788
 31
0.0
  0
LINE
  8
LC-006-005-----0
  6
CONTINUOUS
  5
31B
 10
196.072421
 20
317.694788
 30
0.0
 11
198.572421
 21
320.194788
 31
0.0
  0
LINE
  8
LC-006-005-----0
  6
CONTINUOUS
  5
31C
 10
193.243994
 20
317.694788
 30
0.0
 11
195.743994
 21
320.194788
 31
0.0
  0
LINE
  8
LC-006-005-----0
  6
CONTINUOUS
  5
31D
 10
190.415567
 20
317.694788
 30
0.0
 11
192.915567
 21
320.194788
 31
0.0
  0
LINE
  8
LC-006-005-----0
  6
CONTINUOUS
  5
31E
 10
187.58714
 20
317.694788
 30
0.0
 11
190.08714
 21
320.194788
 31
0.0
  0
LINE
  8
LC-006-005-----0
  6
CONTINUOUS
  5
31F
 10
187.094566
 20
320.030641
 30
0.0
 11
189.094566
 21
322.030641
 31
0.0
  0
LINE
  8
LC-006-005-----0
  6
CONTINUOUS
  5
320
 10
186.673945
 20
322.438447
 30
0.0
 11
188.843233
 21
324.607735
 31
0.0
  0
LINE
  8
LC-006-005-----0
  6
CONTINUOUS
  5
321
 10
183.851859
 20
322.444788
 30
0.0
 11
186.351859
 21
324.944788
 31
0.0
  0
LINE
  8
LC-006-005-----0
  6
CONTINUOUS
  5
322
 10
181.023431
 20
322.444788
 30
0.0
 11
183.523431
 21
324.944788
 31
0.0
  0
LINE
  8
LC-006-005-----0
  6
CONTINUOUS
  5
323
 10
173.445004
 20
317.694788
 30
0.0
 11
180.695004
 21
324.944788
 31
0.0
  0
LINE
  8
LC-006-005-----0
  6
CONTINUOUS
  5
324
 10
170.616577
 20
317.694788
 30
0.0
 11
173.116577
 21
320.194788
 31
0.0
  0
LINE
  8
LC-006-005-----0
  6
CONTINUOUS
  5
325
 10
177.129843
 20
324.208053
 30
0.0
 11
177.831301
 21
324.909511
 31
0.0
  0
ENDBLK
  8
0
  5
326
  0
BLOCK
  8
0
  5
328
  2
*X37
 70
    65
 10
234.139704
 20
219.846667
 30
0.0
  3
*X37
  0
LINE
  8
LC-006-005-----0
  6
CONTINUOUS
  5
329
 10
299.82392
 20
220.627961
 30
0.0
 11
300.92392
 21
221.727961
 31
0.0
  0
LINE
  8
LC-006-005-----0
  6
CONTINUOUS
  5
32A
 10
298.214199
 20
221.846667
 30
0.0
 11
300.957436
 21
224.589903
 31
0.0
  0
LINE
  8
LC-006-005-----0
  6
CONTINUOUS
  5
32B
 10
295.385772
 20
221.846667
 30
0.0
 11
298.385716
 21
224.846611
 31
0.0
  0
LINE
  8
LC-006-005-----0
  6
CONTINUOUS
  5
32C
 10
292.557345
 20
221.846667
 30
0.0
 11
295.557289
 21
224.846611
 31
0.0
  0
LINE
  8
LC-006-005-----0
  6
CONTINUOUS
  5
32D
 10
289.728918
 20
221.846667
 30
0.0
 11
292.728862
 21
224.846611
 31
0.0
  0
LINE
  8
LC-006-005-----0
  6
CONTINUOUS
  5
32E
 10
286.90049
 20
221.846667
 30
0.0
 11
289.900435
 21
224.846611
 31
0.0
  0
LINE
  8
LC-006-005-----0
  6
CONTINUOUS
  5
32F
 10
284.072063
 20
221.846667
 30
0.0
 11
287.072008
 21
224.846611
 31
0.0
  0
LINE
  8
LC-006-005-----0
  6
CONTINUOUS
  5
330
 10
281.243636
 20
221.846667
 30
0.0
 11
284.24358
 21
224.846611
 31
0.0
  0
LINE
  8
LC-006-005-----0
  6
CONTINUOUS
  5
331
 10
278.415209
 20
221.846667
 30
0.0
 11
281.415153
 21
224.846611
 31
0.0
  0
LINE
  8
LC-006-005-----0
  6
CONTINUOUS
  5
332
 10
275.586782
 20
221.846667
 30
0.0
 11
278.586726
 21
224.846611
 31
0.0
  0
LINE
  8
LC-006-005-----0
  6
CONTINUOUS
  5
333
 10
272.758355
 20
221.846667
 30
0.0
 11
275.758299
 21
224.846611
 31
0.0
  0
LINE
  8
LC-006-005-----0
  6
CONTINUOUS
  5
334
 10
269.929928
 20
221.846667
 30
0.0
 11
272.929872
 21
224.846611
 31
0.0
  0
LINE
  8
LC-006-005-----0
  6
CONTINUOUS
  5
335
 10
267.101501
 20
221.846667
 30
0.0
 11
270.101445
 21
224.846611
 31
0.0
  0
LINE
  8
LC-006-005-----0
  6
CONTINUOUS
  5
336
 10
264.273073
 20
221.846667
 30
0.0
 11
267.273018
 21
224.846611
 31
0.0
  0
LINE
  8
LC-006-005-----0
  6
CONTINUOUS
  5
337
 10
261.444646
 20
221.846667
 30
0.0
 11
264.444591
 21
224.846611
 31
0.0
  0
LINE
  8
LC-006-005-----0
  6
CONTINUOUS
  5
338
 10
258.616219
 20
221.846667
 30
0.0
 11
261.616163
 21
224.846611
 31
0.0
  0
LINE
  8
LC-006-005-----0
  6
CONTINUOUS
  5
339
 10
255.787792
 20
221.846667
 30
0.0
 11
258.787736
 21
224.846611
 31
0.0
  0
LINE
  8
LC-006-005-----0
  6
CONTINUOUS
  5
33A
 10
252.959365
 20
221.846667
 30
0.0
 11
255.959309
 21
224.846611
 31
0.0
  0
LINE
  8
LC-006-005-----0
  6
CONTINUOUS
  5
33B
 10
250.130938
 20
221.846667
 30
0.0
 11
253.130882
 21
224.846611
 31
0.0
  0
LINE
  8
LC-006-005-----0
  6
CONTINUOUS
  5
33C
 10
247.393226
 20
221.937382
 30
0.0
 11
250.302455
 21
224.846611
 31
0.0
  0
LINE
  8
LC-006-005-----0
  6
CONTINUOUS
  5
33D
 10
245.220443
 20
222.593026
 30
0.0
 11
247.57838
 21
224.950963
 31
0.0
  0
LINE
  8
LC-006-005-----0
  6
CONTINUOUS
  5
33E
 10
243.487723
 20
223.688733
 30
0.0
 11
245.623824
 21
225.824834
 31
0.0
  0
LINE
  8
LC-006-005-----0
  6
CONTINUOUS
  5
33F
 10
242.119283
 20
225.14872
 30
0.0
 11
244.28385
 21
227.313287
 31
0.0
  0
LINE
  8
LC-006-005-----0
  6
CONTINUOUS
  5
340
 10
241.124796
 20
226.98266
 30
0.0
 11
243.609007
 21
229.466872
 31
0.0
  0
LINE
  8
LC-006-005-----0
  6
CONTINUOUS
  5
341
 10
240.613294
 20
229.299586
 30
0.0
 11
243.594566
 21
232.280858
 31
0.0
  0
LINE
  8
LC-006-005-----0
  6
CONTINUOUS
  5
342
 10
240.594566
 20
232.109285
 30
0.0
 11
243.594566
 21
235.109285
 31
0.0
  0
LINE
  8
LC-006-005-----0
  6
CONTINUOUS
  5
343
 10
240.594566
 20
234.937712
 30
0.0
 11
243.594566
 21
237.937712
 31
0.0
  0
LINE
  8
LC-006-005-----0
  6
CONTINUOUS
  5
344
 10
240.594566
 20
237.766139
 30
0.0
 11
243.594566
 21
240.766139
 31
0.0
  0
LINE
  8
LC-006-005-----0
  6
CONTINUOUS
  5
345
 10
240.498682
 20
240.498682
 30
0.0
 11
243.594566
 21
243.594566
 31
0.0
  0
LINE
  8
LC-006-005-----0
  6
CONTINUOUS
  5
346
 10
239.35037
 20
242.178797
 30
0.0
 11
241.616361
 21
244.444788
 31
0.0
  0
LINE
  8
LC-006-005-----0
  6
CONTINUOUS
  5
347
 10
237.089424
 20
242.746278
 30
0.0
 11
240.560138
 21
246.216992
 31
0.0
  0
LINE
  8
LC-006-005-----0
  6
CONTINUOUS
  5
348
 10
234.787438
 20
243.272719
 30
0.0
 11
237.731711
 21
246.216992
 31
0.0
  0
LINE
  8
LC-006-005-----0
  6
CONTINUOUS
  5
349
 10
234.151956
 20
245.465665
 30
0.0
 11
236.49507
 21
247.808779
 31
0.0
  0
LINE
  8
LC-006-005-----0
  6
CONTINUOUS
  5
34A
 10
234.202204
 20
248.344339
 30
0.0
 11
236.49507
 21
250.637206
 31
0.0
  0
LINE
  8
LC-006-005-----0
  6
CONTINUOUS
  5
34B
 10
234.252451
 20
251.223014
 30
0.0
 11
236.49507
 21
253.465633
 31
0.0
  0
LINE
  8
LC-006-005-----0
  6
CONTINUOUS
  5
34C
 10
234.302699
 20
254.101689
 30
0.0
 11
236.49507
 21
256.29406
 31
0.0
  0
LINE
  8
LC-006-005-----0
  6
CONTINUOUS
  5
34D
 10
234.352946
 20
256.980363
 30
0.0
 11
236.49507
 21
259.122487
 31
0.0
  0
LINE
  8
LC-006-005-----0
  6
CONTINUOUS
  5
34E
 10
234.403194
 20
259.859038
 30
0.0
 11
237.392016
 21
262.84786
 31
0.0
  0
LINE
  8
LC-006-005-----0
  6
CONTINUOUS
  5
34F
 10
234.453441
 20
262.737712
 30
0.0
 11
235.977803
 21
264.262074
 31
0.0
  0
ENDBLK
  8
0
  5
350
  0
BLOCK
  8
0
  5
352
  2
*X38
 70
    65
 10
283.594566
 20
239.836332
 30
0.0
  3
*X38
  0
LINE
  8
LC-006-005-----0
  6
CONTINUOUS
  5
353
 10
299.781695
 20
240.384726
 30
0.0
 11
300.233283
 21
240.836313
 31
0.0
  0
LINE
  8
LC-006-005-----0
  6
CONTINUOUS
  5
354
 10
297.404856
 20
240.836313
 30
0.0
 11
300.92392
 21
244.355378
 31
0.0
  0
LINE
  8
LC-006-005-----0
  6
CONTINUOUS
  5
355
 10
294.576429
 20
240.836313
 30
0.0
 11
297.576373
 21
243.836258
 31
0.0
  0
LINE
  8
LC-006-005-----0
  6
CONTINUOUS
  5
356
 10
291.748002
 20
240.836313
 30
0.0
 11
294.747946
 21
243.836258
 31
0.0
  0
LINE
  8
LC-006-005-----0
  6
CONTINUOUS
  5
357
 10
288.919574
 20
240.836313
 30
0.0
 11
293.045955
 21
244.962694
 31
0.0
  0
LINE
  8
LC-006-005-----0
  6
CONTINUOUS
  5
358
 10
286.091147
 20
240.836313
 30
0.0
 11
292.997432
 21
247.742598
 31
0.0
  0
LINE
  8
LC-006-005-----0
  6
CONTINUOUS
  5
359
 10
283.594566
 20
241.168159
 30
0.0
 11
288.643399
 21
246.216992
 31
0.0
  0
LINE
  8
LC-006-005-----0
  6
CONTINUOUS
  5
35A
 10
290.694062
 20
248.267655
 30
0.0
 11
292.948909
 21
250.522502
 31
0.0
  0
LINE
  8
LC-006-005-----0
  6
CONTINUOUS
  5
35B
 10
283.594566
 20
243.996586
 30
0.0
 11
284.042767
 21
244.444788
 31
0.0
  0
LINE
  8
LC-006-005-----0
  6
CONTINUOUS
  5
35C
 10
290.694062
 20
251.096082
 30
0.0
 11
292.900385
 21
253.302406
 31
0.0
  0
LINE
  8
LC-006-005-----0
  6
CONTINUOUS
  5
35D
 10
290.694062
 20
253.92451
 30
0.0
 11
292.851862
 21
256.082309
 31
0.0
  0
LINE
  8
LC-006-005-----0
  6
CONTINUOUS
  5
35E
 10
290.694062
 20
256.752937
 30
0.0
 11
292.803338
 21
258.862213
 31
0.0
  0
LINE
  8
LC-006-005-----0
  6
CONTINUOUS
  5
35F
 10
290.694062
 20
259.581364
 30
0.0
 11
292.754815
 21
261.642117
 31
0.0
  0
LINE
  8
LC-006-005-----0
  6
CONTINUOUS
  5
360
 10
289.346984
 20
261.062712
 30
0.0
 11
292.684525
 21
264.400254
 31
0.0
  0
ENDBLK
  8
0
  5
361
  0
BLOCK
  8
0
  5
363
  2
BLK10
 70
    64
 10
0.0
 20
0.0
 30
0.0
  3
BLK10
  0
ENDBLK
  8
0
  5
364
  0
BLOCK
  8
0
  5
366
  2
*D40
 70
    65
 10
0.0
 20
0.0
 30
0.0
  3
*D40
  0
LINE
  8
LC-014-003-MTH-0
  6
CONTINUOUS
  5
368
 10
170.594566
 20
292.444788
 30
0.0
 11
140.0
 21
292.444788
 31
0.0
  0
LINE
  8
LC-014-003-MTH-0
  6
CONTINUOUS
  5
369
 10
221.450851
 20
333.174735
 30
0.0
 11
140.0
 21
333.174735
 31
0.0
  0
LINE
  8
LC-013-003-----0
  6
CONTINUOUS
  5
36B
 10
160.454733
 20
264.684332
 30
0.0
 11
156.8
 21
292.444788
 31
0.0
  0
LINE
  8
LC-013-003-----0
  6
CONTINUOUS
  5
36C
 10
156.8
 20
292.444788
 30
0.0
 11
153.145267
 21
264.684332
 31
0.0
  0
LINE
  8
LC-013-003-----0
  6
CONTINUOUS
  5
36D
 10
153.145267
 20
264.684332
 30
0.0
 11
160.454733
 21
264.684332
 31
0.0
  0
LINE
  8
LC-013-003-----0
  6
CONTINUOUS
  5
36E
 10
159.504503
 20
264.62205
 30
0.0
 11
156.8
 21
285.164788
 31
0.0
  0
LINE
  8
LC-013-003-----0
  6
CONTINUOUS
  5
36F
 10
156.8
 20
285.164788
 30
0.0
 11
154.095497
 21
264.62205
 31
0.0
  0
LINE
  8
LC-013-003-----0
  6
CONTINUOUS
  5
370
 10
158.554272
 20
264.559769
 30
0.0
 11
156.8
 21
277.884788
 31
0.0
  0
LINE
  8
LC-013-003-----0
  6
CONTINUOUS
  5
371
 10
156.8
 20
277.884788
 30
0.0
 11
155.045728
 21
264.559769
 31
0.0
  0
LINE
  8
LC-013-003-----0
  6
CONTINUOUS
  5
372
 10
157.604041
 20
264.497487
 30
0.0
 11
156.8
 21
270.604788
 31
0.0
  0
LINE
  8
LC-013-003-----0
  6
CONTINUOUS
  5
373
 10
156.8
 20
270.604788
 30
0.0
 11
155.995959
 21
264.497487
 31
0.0
  0
LINE
  8
LC-013-003-----0
  6
CONTINUOUS
  5
374
 10
153.145267
 20
360.935191
 30
0.0
 11
156.8
 21
333.174735
 31
0.0
  0
LINE
  8
LC-013-003-----0
  6
CONTINUOUS
  5
375
 10
156.8
 20
333.174735
 30
0.0
 11
160.454733
 21
360.935191
 31
0.0
  0
LINE
  8
LC-013-003-----0
  6
CONTINUOUS
  5
376
 10
160.454733
 20
360.935191
 30
0.0
 11
153.145267
 21
360.935191
 31
0.0
  0
LINE
  8
LC-013-003-----0
  6
CONTINUOUS
  5
377
 10
154.095497
 20
360.997472
 30
0.0
 11
156.8
 21
340.454735
 31
0.0
  0
LINE
  8
LC-013-003-----0
  6
CONTINUOUS
  5
378
 10
156.8
 20
340.454735
 30
0.0
 11
159.504503
 21
360.997472
 31
0.0
  0
LINE
  8
LC-013-003-----0
  6
CONTINUOUS
  5
379
 10
155.045728
 20
361.059754
 30
0.0
 11
156.8
 21
347.734735
 31
0.0
  0
LINE
  8
LC-013-003-----0
  6
CONTINUOUS
  5
37A
 10
156.8
 20
347.734735
 30
0.0
 11
158.554272
 21
361.059754
 31
0.0
  0
LINE
  8
LC-013-003-----0
  6
CONTINUOUS
  5
37B
 10
155.995959
 20
361.122035
 30
0.0
 11
156.8
 21
355.014735
 31
0.0
  0
LINE
  8
LC-013-003-----0
  6
CONTINUOUS
  5
37C
 10
156.8
 20
355.014735
 30
0.0
 11
157.604041
 21
361.122035
 31
0.0
  0
LINE
  8
LC-015-003-MTG-0
  6
CONTINUOUS
  5
37E
 10
156.8
 20
253.244788
 30
0.0
 11
156.8
 21
416.539135
 31
0.0
  0
TEXT
  8
LC-013-003-----0
  6
CONTINUOUS
 62
     8
  5
380
 10
148.972446
 20
375.602895
 30
0.0
 40
28.0
  1
40
 50
90.0
 41
0.9
 51
15.0
  7
LC-TXTSTYLE-150-400-0-0-D0
  0
ENDBLK
  8
0
  5
381
  0
BLOCK
  8
0
  5
383
  2
*D41
 70
    65
 10
0.0
 20
0.0
 30
0.0
  3
*D41
  0
LINE
  8
LC-014-003-MTH-0
  6
CONTINUOUS
  5
384
 10
248.594566
 20
221.846667
 30
0.0
 11
98.882844
 21
221.846667
 31
0.0
  0
LINE
  8
LC-014-003-MTH-0
  6
CONTINUOUS
  5
385
 10
71.882844
 20
221.846667
 30
0.0
 11
22.4
 21
221.846667
 31
0.0
  0
LINE
  8
LC-014-003-MTH-0
  6
CONTINUOUS
  5
386
 10
221.450851
 20
333.174735
 30
0.0
 11
22.4
 21
333.174735
 31
0.0
  0
LINE
  8
LC-015-003-MTG-0
  6
CONTINUOUS
  5
387
 10
39.2
 20
221.846667
 30
0.0
 11
39.2
 21
333.174735
 31
0.0
  0
LINE
  8
LC-013-003-----0
  6
CONTINUOUS
  5
388
 10
35.545267
 20
249.607123
 30
0.0
 11
39.2
 21
221.846667
 31
0.0
  0
LINE
  8
LC-013-003-----0
  6
CONTINUOUS
  5
389
 10
39.2
 20
221.846667
 30
0.0
 11
42.854733
 21
249.607123
 31
0.0
  0
LINE
  8
LC-013-003-----0
  6
CONTINUOUS
  5
38A
 10
42.854733
 20
249.607123
 30
0.0
 11
35.545267
 21
249.607123
 31
0.0
  0
LINE
  8
LC-013-003-----0
  6
CONTINUOUS
  5
38B
 10
36.495497
 20
249.669404
 30
0.0
 11
39.2
 21
229.126667
 31
0.0
  0
LINE
  8
LC-013-003-----0
  6
CONTINUOUS
  5
38C
 10
39.2
 20
229.126667
 30
0.0
 11
41.904503
 21
249.669404
 31
0.0
  0
LINE
  8
LC-013-003-----0
  6
CONTINUOUS
  5
38D
 10
37.445728
 20
249.731686
 30
0.0
 11
39.2
 21
236.406667
 31
0.0
  0
LINE
  8
LC-013-003-----0
  6
CONTINUOUS
  5
38E
 10
39.2
 20
236.406667
 30
0.0
 11
40.954272
 21
249.731686
 31
0.0
  0
LINE
  8
LC-013-003-----0
  6
CONTINUOUS
  5
38F
 10
38.395959
 20
249.793967
 30
0.0
 11
39.2
 21
243.686667
 31
0.0
  0
LINE
  8
LC-013-003-----0
  6
CONTINUOUS
  5
390
 10
39.2
 20
243.686667
 30
0.0
 11
40.004041
 21
249.793967
 31
0.0
  0
LINE
  8
LC-013-003-----0
  6
CONTINUOUS
  5
391
 10
42.854733
 20
305.414279
 30
0.0
 11
39.2
 21
333.174735
 31
0.0
  0
LINE
  8
LC-013-003-----0
  6
CONTINUOUS
  5
392
 10
39.2
 20
333.174735
 30
0.0
 11
35.545267
 21
305.414279
 31
0.0
  0
LINE
  8
LC-013-003-----0
  6
CONTINUOUS
  5
393
 10
35.545267
 20
305.414279
 30
0.0
 11
42.854733
 21
305.414279
 31
0.0
  0
LINE
  8
LC-013-003-----0
  6
CONTINUOUS
  5
394
 10
41.904503
 20
305.351997
 30
0.0
 11
39.2
 21
325.894735
 31
0.0
  0
LINE
  8
LC-013-003-----0
  6
CONTINUOUS
  5
395
 10
39.2
 20
325.894735
 30
0.0
 11
36.495497
 21
305.351997
 31
0.0
  0
LINE
  8
LC-013-003-----0
  6
CONTINUOUS
  5
396
 10
40.954272
 20
305.289716
 30
0.0
 11
39.2
 21
318.614735
 31
0.0
  0
LINE
  8
LC-013-003-----0
  6
CONTINUOUS
  5
397
 10
39.2
 20
318.614735
 30
0.0
 11
37.445728
 21
305.289716
 31
0.0
  0
LINE
  8
LC-013-003-----0
  6
CONTINUOUS
  5
398
 10
40.004041
 20
305.227434
 30
0.0
 11
39.2
 21
311.334735
 31
0.0
  0
LINE
  8
LC-013-003-----0
  6
CONTINUOUS
  5
399
 10
39.2
 20
311.334735
 30
0.0
 11
38.395959
 21
305.227434
 31
0.0
  0
TEXT
  8
LC-013-003-----0
  6
CONTINUOUS
 62
     8
  5
39A
 10
31.372446
 20
252.095081
 30
0.0
 40
28.0
  1
110
 50
90.0
 51
15.0
  7
LC-TXTSTYLE-150-400-0-0-D0
 72
     1
 11
31.372446
 21
281.858861
 31
0.0
  0
ENDBLK
  8
0
  5
39B
  0
BLOCK
  8
0
  5
39D
  2
*D42
 70
    65
 10
0.0
 20
0.0
 30
0.0
  3
*D42
  0
LINE
  8
LC-014-003-MTH-0
  6
CONTINUOUS
  5
39E
 10
221.450851
 20
336.181933
 30
0.0
 11
221.450851
 21
526.4
 31
0.0
  0
LINE
  8
LC-014-003-MTH-0
  6
CONTINUOUS
  5
39F
 10
523.450851
 20
336.181933
 30
0.0
 11
523.450851
 21
526.4
 31
0.0
  0
LINE
  8
LC-015-003-MTG-0
  6
CONTINUOUS
  5
3A0
 10
221.450851
 20
509.6
 30
0.0
 11
523.450851
 21
509.6
 31
0.0
  0
LINE
  8
LC-013-003-----0
  6
CONTINUOUS
  5
3A1
 10
249.211307
 20
513.254733
 30
0.0
 11
221.450851
 21
509.6
 31
0.0
  0
LINE
  8
LC-013-003-----0
  6
CONTINUOUS
  5
3A2
 10
221.450851
 20
509.6
 30
0.0
 11
249.211307
 21
505.945267
 31
0.0
  0
LINE
  8
LC-013-003-----0
  6
CONTINUOUS
  5
3A3
 10
249.211307
 20
505.945267
 30
0.0
 11
249.211307
 21
513.254733
 31
0.0
  0
LINE
  8
LC-013-003-----0
  6
CONTINUOUS
  5
3A4
 10
249.273589
 20
512.304503
 30
0.0
 11
228.730851
 21
509.6
 31
0.0
  0
LINE
  8
LC-013-003-----0
  6
CONTINUOUS
  5
3A5
 10
228.730851
 20
509.6
 30
0.0
 11
249.273589
 21
506.895497
 31
0.0
  0
LINE
  8
LC-013-003-----0
  6
CONTINUOUS
  5
3A6
 10
249.33587
 20
511.354272
 30
0.0
 11
236.010851
 21
509.6
 31
0.0
  0
LINE
  8
LC-013-003-----0
  6
CONTINUOUS
  5
3A7
 10
236.010851
 20
509.6
 30
0.0
 11
249.33587
 21
507.845728
 31
0.0
  0
LINE
  8
LC-013-003-----0
  6
CONTINUOUS
  5
3A8
 10
249.398152
 20
510.404041
 30
0.0
 11
243.290851
 21
509.6
 31
0.0
  0
LINE
  8
LC-013-003-----0
  6
CONTINUOUS
  5
3A9
 10
243.290851
 20
509.6
 30
0.0
 11
249.398152
 21
508.795959
 31
0.0
  0
LINE
  8
LC-013-003-----0
  6
CONTINUOUS
  5
3AA
 10
495.690395
 20
505.945267
 30
0.0
 11
523.450851
 21
509.6
 31
0.0
  0
LINE
  8
LC-013-003-----0
  6
CONTINUOUS
  5
3AB
 10
523.450851
 20
509.6
 30
0.0
 11
495.690395
 21
513.254733
 31
0.0
  0
LINE
  8
LC-013-003-----0
  6
CONTINUOUS
  5
3AC
 10
495.690395
 20
513.254733
 30
0.0
 11
495.690395
 21
505.945267
 31
0.0
  0
LINE
  8
LC-013-003-----0
  6
CONTINUOUS
  5
3AD
 10
495.628114
 20
506.895497
 30
0.0
 11
516.170851
 21
509.6
 31
0.0
  0
LINE
  8
LC-013-003-----0
  6
CONTINUOUS
  5
3AE
 10
516.170851
 20
509.6
 30
0.0
 11
495.628114
 21
512.304503
 31
0.0
  0
LINE
  8
LC-013-003-----0
  6
CONTINUOUS
  5
3AF
 10
495.565832
 20
507.845728
 30
0.0
 11
508.890851
 21
509.6
 31
0.0
  0
LINE
  8
LC-013-003-----0
  6
CONTINUOUS
  5
3B0
 10
508.890851
 20
509.6
 30
0.0
 11
495.565832
 21
511.354272
 31
0.0
  0
LINE
  8
LC-013-003-----0
  6
CONTINUOUS
  5
3B1
 10
495.503551
 20
508.795959
 30
0.0
 11
501.610851
 21
509.6
 31
0.0
  0
LINE
  8
LC-013-003-----0
  6
CONTINUOUS
  5
3B2
 10
501.610851
 20
509.6
 30
0.0
 11
495.503551
 21
510.404041
 31
0.0
  0
TEXT
  8
LC-013-003-----0
  6
CONTINUOUS
 62
     8
  5
3B3
 10
338.701373
 20
517.427554
 30
0.0
 40
28.0
  1
Ø300
 51
15.0
  7
LC-TXTSTYLE-150-400-0-0-D0
 72
     1
 11
376.799011
 21
517.427554
 31
0.0
  0
ENDBLK
  8
0
  5
3B4
  0
BLOCK
  8
0
  5
3B6
  2
*D43
 70
    65
 10
0.0
 20
0.0
 30
0.0
  3
*D43
  0
LINE
  8
LC-014-003-MTH-0
  6
CONTINUOUS
  5
3B7
 10
170.594566
 20
261.444788
 30
0.0
 11
170.594566
 21
140.0
 31
0.0
  0
LINE
  8
LC-014-003-MTH-0
  6
CONTINUOUS
  5
3B8
 10
372.450851
 20
221.491462
 30
0.0
 11
372.450851
 21
140.0
 31
0.0
  0
LINE
  8
LC-015-003-MTG-0
  6
CONTINUOUS
  5
3B9
 10
170.594566
 20
156.8
 30
0.0
 11
372.450851
 21
156.8
 31
0.0
  0
LINE
  8
LC-013-003-----0
  6
CONTINUOUS
  5
3BA
 10
198.355022
 20
160.454733
 30
0.0
 11
170.594566
 21
156.8
 31
0.0
  0
LINE
  8
LC-013-003-----0
  6
CONTINUOUS
  5
3BB
 10
170.594566
 20
156.8
 30
0.0
 11
198.355022
 21
153.145267
 31
0.0
  0
LINE
  8
LC-013-003-----0
  6
CONTINUOUS
  5
3BC
 10
198.355022
 20
153.145267
 30
0.0
 11
198.355022
 21
160.454733
 31
0.0
  0
LINE
  8
LC-013-003-----0
  6
CONTINUOUS
  5
3BD
 10
198.417304
 20
159.504503
 30
0.0
 11
177.874566
 21
156.8
 31
0.0
  0
LINE
  8
LC-013-003-----0
  6
CONTINUOUS
  5
3BE
 10
177.874566
 20
156.8
 30
0.0
 11
198.417304
 21
154.095497
 31
0.0
  0
LINE
  8
LC-013-003-----0
  6
CONTINUOUS
  5
3BF
 10
198.479585
 20
158.554272
 30
0.0
 11
185.154566
 21
156.8
 31
0.0
  0
LINE
  8
LC-013-003-----0
  6
CONTINUOUS
  5
3C0
 10
185.154566
 20
156.8
 30
0.0
 11
198.479585
 21
155.045728
 31
0.0
  0
LINE
  8
LC-013-003-----0
  6
CONTINUOUS
  5
3C1
 10
198.541867
 20
157.604041
 30
0.0
 11
192.434566
 21
156.8
 31
0.0
  0
LINE
  8
LC-013-003-----0
  6
CONTINUOUS
  5
3C2
 10
192.434566
 20
156.8
 30
0.0
 11
198.541867
 21
155.995959
 31
0.0
  0
LINE
  8
LC-013-003-----0
  6
CONTINUOUS
  5
3C3
 10
344.690395
 20
153.145267
 30
0.0
 11
372.450851
 21
156.8
 31
0.0
  0
LINE
  8
LC-013-003-----0
  6
CONTINUOUS
  5
3C4
 10
372.450851
 20
156.8
 30
0.0
 11
344.690395
 21
160.454733
 31
0.0
  0
LINE
  8
LC-013-003-----0
  6
CONTINUOUS
  5
3C5
 10
344.690395
 20
160.454733
 30
0.0
 11
344.690395
 21
153.145267
 31
0.0
  0
LINE
  8
LC-013-003-----0
  6
CONTINUOUS
  5
3C6
 10
344.628114
 20
154.095497
 30
0.0
 11
365.170851
 21
156.8
 31
0.0
  0
LINE
  8
LC-013-003-----0
  6
CONTINUOUS
  5
3C7
 10
365.170851
 20
156.8
 30
0.0
 11
344.628114
 21
159.504503
 31
0.0
  0
LINE
  8
LC-013-003-----0
  6
CONTINUOUS
  5
3C8
 10
344.565832
 20
155.045728
 30
0.0
 11
357.890851
 21
156.8
 31
0.0
  0
LINE
  8
LC-013-003-----0
  6
CONTINUOUS
  5
3C9
 10
357.890851
 20
156.8
 30
0.0
 11
344.565832
 21
158.554272
 31
0.0
  0
LINE
  8
LC-013-003-----0
  6
CONTINUOUS
  5
3CA
 10
344.503551
 20
155.995959
 30
0.0
 11
350.610851
 21
156.8
 31
0.0
  0
LINE
  8
LC-013-003-----0
  6
CONTINUOUS
  5
3CB
 10
350.610851
 20
156.8
 30
0.0
 11
344.503551
 21
157.604041
 31
0.0
  0
TEXT
  8
LC-013-003-----0
  6
CONTINUOUS
 62
     8
  5
3CC
 10
246.107089
 20
164.627554
 30
0.0
 40
28.0
  1
200
 51
15.0
  7
LC-TXTSTYLE-150-400-0-0-D0
 72
     1
 11
275.870869
 21
164.627554
 31
0.0
  0
ENDBLK
  8
0
  5
3CD
  0
BLOCK
  8
0
  5
3CF
  2
*D44
 70
    65
 10
0.0
 20
0.0
 30
0.0
  3
*D44
  0
LINE
  8
LC-014-003-MTH-0
  6
CONTINUOUS
  5
3D0
 10
170.594566
 20
261.444788
 30
0.0
 11
170.594566
 21
100.8
 31
0.0
  0
LINE
  8
LC-014-003-MTH-0
  6
CONTINUOUS
  5
3D1
 10
607.149123
 20
245.348263
 30
0.0
 11
607.149123
 21
100.8
 31
0.0
  0
LINE
  8
LC-015-003-MTG-0
  6
CONTINUOUS
  5
3D2
 10
170.594566
 20
117.6
 30
0.0
 11
607.149123
 21
117.6
 31
0.0
  0
LINE
  8
LC-013-003-----0
  6
CONTINUOUS
  5
3D3
 10
198.355022
 20
121.254733
 30
0.0
 11
170.594566
 21
117.6
 31
0.0
  0
LINE
  8
LC-013-003-----0
  6
CONTINUOUS
  5
3D4
 10
170.594566
 20
117.6
 30
0.0
 11
198.355022
 21
113.945267
 31
0.0
  0
LINE
  8
LC-013-003-----0
  6
CONTINUOUS
  5
3D5
 10
198.355022
 20
113.945267
 30
0.0
 11
198.355022
 21
121.254733
 31
0.0
  0
LINE
  8
LC-013-003-----0
  6
CONTINUOUS
  5
3D6
 10
198.417304
 20
120.304503
 30
0.0
 11
177.874566
 21
117.6
 31
0.0
  0
LINE
  8
LC-013-003-----0
  6
CONTINUOUS
  5
3D7
 10
177.874566
 20
117.6
 30
0.0
 11
198.417304
 21
114.895497
 31
0.0
  0
LINE
  8
LC-013-003-----0
  6
CONTINUOUS
  5
3D8
 10
198.479585
 20
119.354272
 30
0.0
 11
185.154566
 21
117.6
 31
0.0
  0
LINE
  8
LC-013-003-----0
  6
CONTINUOUS
  5
3D9
 10
185.154566
 20
117.6
 30
0.0
 11
198.479585
 21
115.845728
 31
0.0
  0
LINE
  8
LC-013-003-----0
  6
CONTINUOUS
  5
3DA
 10
198.541867
 20
118.404041
 30
0.0
 11
192.434566
 21
117.6
 31
0.0
  0
LINE
  8
LC-013-003-----0
  6
CONTINUOUS
  5
3DB
 10
192.434566
 20
117.6
 30
0.0
 11
198.541867
 21
116.795959
 31
0.0
  0
LINE
  8
LC-013-003-----0
  6
CONTINUOUS
  5
3DC
 10
579.388667
 20
113.945267
 30
0.0
 11
607.149123
 21
117.6
 31
0.0
  0
LINE
  8
LC-013-003-----0
  6
CONTINUOUS
  5
3DD
 10
607.149123
 20
117.6
 30
0.0
 11
579.388667
 21
121.254733
 31
0.0
  0
LINE
  8
LC-013-003-----0
  6
CONTINUOUS
  5
3DE
 10
579.388667
 20
121.254733
 30
0.0
 11
579.388667
 21
113.945267
 31
0.0
  0
LINE
  8
LC-013-003-----0
  6
CONTINUOUS
  5
3DF
 10
579.326386
 20
114.895497
 30
0.0
 11
599.869123
 21
117.6
 31
0.0
  0
LINE
  8
LC-013-003-----0
  6
CONTINUOUS
  5
3E0
 10
599.869123
 20
117.6
 30
0.0
 11
579.326386
 21
120.304503
 31
0.0
  0
LINE
  8
LC-013-003-----0
  6
CONTINUOUS
  5
3E1
 10
579.264105
 20
115.845728
 30
0.0
 11
592.589123
 21
117.6
 31
0.0
  0
LINE
  8
LC-013-003-----0
  6
CONTINUOUS
  5
3E2
 10
592.589123
 20
117.6
 30
0.0
 11
579.264105
 21
119.354272
 31
0.0
  0
LINE
  8
LC-013-003-----0
  6
CONTINUOUS
  5
3E3
 10
579.201823
 20
116.795959
 30
0.0
 11
585.309123
 21
117.6
 31
0.0
  0
LINE
  8
LC-013-003-----0
  6
CONTINUOUS
  5
3E4
 10
585.309123
 20
117.6
 30
0.0
 11
579.201823
 21
118.404041
 31
0.0
  0
TEXT
  8
LC-013-003-----0
  6
CONTINUOUS
 62
     8
  5
3E5
 10
363.456225
 20
125.427554
 30
0.0
 40
28.0
  1
435
 51
15.0
  7
LC-TXTSTYLE-150-400-0-0-D0
 72
     1
 11
393.220005
 21
125.427554
 31
0.0
  0
ENDBLK
  8
0
  5
3E6
  0
BLOCK
  8
0
  5
3E8
  2
*D45
 70
    65
 10
0.0
 20
0.0
 30
0.0
  3
*D45
  0
LINE
  8
LC-014-003-MTH-0
  6
CONTINUOUS
  5
3E9
 10
530.22528
 20
263.077368
 30
0.0
 11
644.0
 21
263.077368
 31
0.0
  0
LINE
  8
LC-014-003-MTH-0
  6
CONTINUOUS
  5
3EA
 10
523.450851
 20
333.174735
 30
0.0
 11
644.0
 21
333.174735
 31
0.0
  0
LINE
  8
LC-015-003-MTG-0
  6
CONTINUOUS
  5
3EB
 10
627.2
 20
263.077368
 30
0.0
 11
627.2
 21
333.174735
 31
0.0
  0
LINE
  8
LC-013-003-----0
  6
CONTINUOUS
  5
3EC
 10
623.545267
 20
290.837824
 30
0.0
 11
627.2
 21
263.077368
 31
0.0
  0
LINE
  8
LC-013-003-----0
  6
CONTINUOUS
  5
3ED
 10
627.2
 20
263.077368
 30
0.0
 11
630.854733
 21
290.837824
 31
0.0
  0
LINE
  8
LC-013-003-----0
  6
CONTINUOUS
  5
3EE
 10
630.854733
 20
290.837824
 30
0.0
 11
623.545267
 21
290.837824
 31
0.0
  0
LINE
  8
LC-013-003-----0
  6
CONTINUOUS
  5
3EF
 10
624.495497
 20
290.900106
 30
0.0
 11
627.2
 21
270.357368
 31
0.0
  0
LINE
  8
LC-013-003-----0
  6
CONTINUOUS
  5
3F0
 10
627.2
 20
270.357368
 30
0.0
 11
629.904503
 21
290.900106
 31
0.0
  0
LINE
  8
LC-013-003-----0
  6
CONTINUOUS
  5
3F1
 10
625.445728
 20
290.962387
 30
0.0
 11
627.2
 21
277.637368
 31
0.0
  0
LINE
  8
LC-013-003-----0
  6
CONTINUOUS
  5
3F2
 10
627.2
 20
277.637368
 30
0.0
 11
628.954272
 21
290.962387
 31
0.0
  0
LINE
  8
LC-013-003-----0
  6
CONTINUOUS
  5
3F3
 10
626.395959
 20
291.024668
 30
0.0
 11
627.2
 21
284.917368
 31
0.0
  0
LINE
  8
LC-013-003-----0
  6
CONTINUOUS
  5
3F4
 10
627.2
 20
284.917368
 30
0.0
 11
628.004041
 21
291.024668
 31
0.0
  0
LINE
  8
LC-013-003-----0
  6
CONTINUOUS
  5
3F5
 10
630.854733
 20
305.414279
 30
0.0
 11
627.2
 21
333.174735
 31
0.0
  0
LINE
  8
LC-013-003-----0
  6
CONTINUOUS
  5
3F6
 10
627.2
 20
333.174735
 30
0.0
 11
623.545267
 21
305.414279
 31
0.0
  0
LINE
  8
LC-013-003-----0
  6
CONTINUOUS
  5
3F7
 10
623.545267
 20
305.414279
 30
0.0
 11
630.854733
 21
305.414279
 31
0.0
  0
LINE
  8
LC-013-003-----0
  6
CONTINUOUS
  5
3F8
 10
629.904503
 20
305.351997
 30
0.0
 11
627.2
 21
325.894735
 31
0.0
  0
LINE
  8
LC-013-003-----0
  6
CONTINUOUS
  5
3F9
 10
627.2
 20
325.894735
 30
0.0
 11
624.495497
 21
305.351997
 31
0.0
  0
LINE
  8
LC-013-003-----0
  6
CONTINUOUS
  5
3FA
 10
628.954272
 20
305.289716
 30
0.0
 11
627.2
 21
318.614735
 31
0.0
  0
LINE
  8
LC-013-003-----0
  6
CONTINUOUS
  5
3FB
 10
627.2
 20
318.614735
 30
0.0
 11
625.445728
 21
305.289716
 31
0.0
  0
LINE
  8
LC-013-003-----0
  6
CONTINUOUS
  5
3FC
 10
628.004041
 20
305.227434
 30
0.0
 11
627.2
 21
311.334735
 31
0.0
  0
LINE
  8
LC-013-003-----0
  6
CONTINUOUS
  5
3FD
 10
627.2
 20
311.334735
 30
0.0
 11
626.395959
 21
305.227434
 31
0.0
  0
TEXT
  8
LC-013-003-----0
  6
CONTINUOUS
 62
     8
  5
3FE
 10
619.372446
 20
289.428617
 30
0.0
 40
28.0
  1
70
 50
90.0
 51
15.0
  7
LC-TXTSTYLE-150-400-0-0-D0
 72
     1
 11
619.372446
 21
307.88216
 31
0.0
  0
ENDBLK
  8
0
  5
3FF
  0
BLOCK
  8
0
  5
401
  2
BLK11
 70
    64
 10
0.0
 20
0.0
 30
0.0
  3
BLK11
  0
ENDBLK
  8
0
  5
402
  0
BLOCK
  8
0
  5
404
  2
*D47
 70
    65
 10
0.0
 20
0.0
 30
0.0
  3
*D47
  0
LINE
  8
LC-014-003-MTH-0
  6
CONTINUOUS
  5
405
 10
360.312158
 20
240.462768
 30
0.0
 11
408.8
 21
240.462768
 31
0.0
  0
LINE
  8
LC-014-003-MTH-0
  6
CONTINUOUS
  5
406
 10
414.950851
 20
290.487914
 30
0.0
 11
375.2
 21
290.487914
 31
0.0
  0
LINE
  8
LC-013-003-----0
  6
CONTINUOUS
  5
407
 10
395.654733
 20
212.702312
 30
0.0
 11
392.0
 21
240.462768
 31
0.0
  0
LINE
  8
LC-013-003-----0
  6
CONTINUOUS
  5
408
 10
392.0
 20
240.462768
 30
0.0
 11
388.345267
 21
212.702312
 31
0.0
  0
LINE
  8
LC-013-003-----0
  6
CONTINUOUS
  5
409
 10
388.345267
 20
212.702312
 30
0.0
 11
395.654733
 21
212.702312
 31
0.0
  0
LINE
  8
LC-013-003-----0
  6
CONTINUOUS
  5
40A
 10
394.704503
 20
212.64003
 30
0.0
 11
392.0
 21
233.182768
 31
0.0
  0
LINE
  8
LC-013-003-----0
  6
CONTINUOUS
  5
40B
 10
392.0
 20
233.182768
 30
0.0
 11
389.295497
 21
212.64003
 31
0.0
  0
LINE
  8
LC-013-003-----0
  6
CONTINUOUS
  5
40C
 10
393.754272
 20
212.577749
 30
0.0
 11
392.0
 21
225.902768
 31
0.0
  0
LINE
  8
LC-013-003-----0
  6
CONTINUOUS
  5
40D
 10
392.0
 20
225.902768
 30
0.0
 11
390.245728
 21
212.577749
 31
0.0
  0
LINE
  8
LC-013-003-----0
  6
CONTINUOUS
  5
40E
 10
392.804041
 20
212.515467
 30
0.0
 11
392.0
 21
218.622768
 31
0.0
  0
LINE
  8
LC-013-003-----0
  6
CONTINUOUS
  5
40F
 10
392.0
 20
218.622768
 30
0.0
 11
391.195959
 21
212.515467
 31
0.0
  0
LINE
  8
LC-013-003-----0
  6
CONTINUOUS
  5
410
 10
388.345267
 20
318.24837
 30
0.0
 11
392.0
 21
290.487914
 31
0.0
  0
LINE
  8
LC-013-003-----0
  6
CONTINUOUS
  5
411
 10
392.0
 20
290.487914
 30
0.0
 11
395.654733
 21
318.24837
 31
0.0
  0
LINE
  8
LC-013-003-----0
  6
CONTINUOUS
  5
412
 10
395.654733
 20
318.24837
 30
0.0
 11
388.345267
 21
318.24837
 31
0.0
  0
LINE
  8
LC-013-003-----0
  6
CONTINUOUS
  5
413
 10
389.295497
 20
318.310651
 30
0.0
 11
392.0
 21
297.767914
 31
0.0
  0
LINE
  8
LC-013-003-----0
  6
CONTINUOUS
  5
414
 10
392.0
 20
297.767914
 30
0.0
 11
394.704503
 21
318.310651
 31
0.0
  0
LINE
  8
LC-013-003-----0
  6
CONTINUOUS
  5
415
 10
390.245728
 20
318.372933
 30
0.0
 11
392.0
 21
305.047914
 31
0.0
  0
LINE
  8
LC-013-003-----0
  6
CONTINUOUS
  5
416
 10
392.0
 20
305.047914
 30
0.0
 11
393.754272
 21
318.372933
 31
0.0
  0
LINE
  8
LC-013-003-----0
  6
CONTINUOUS
  5
417
 10
391.195959
 20
318.435214
 30
0.0
 11
392.0
 21
312.327914
 31
0.0
  0
LINE
  8
LC-013-003-----0
  6
CONTINUOUS
  5
418
 10
392.0
 20
312.327914
 30
0.0
 11
392.804041
 21
318.435214
 31
0.0
  0
LINE
  8
LC-015-003-MTG-0
  6
CONTINUOUS
  5
419
 10
392.0
 20
201.262768
 30
0.0
 11
392.0
 21
329.687914
 31
0.0
  0
TEXT
  8
LC-013-003-----0
  6
CONTINUOUS
 62
     8
  5
41A
 10
389.772446
 20
253.420351
 30
0.0
 40
28.0
  1
50
 50
90.0
 51
15.0
  7
LC-TXTSTYLE-150-400-0-0-D0
 72
     1
 11
389.772446
 21
269.823501
 31
0.0
  0
ENDBLK
  8
0
  5
41B
  0
BLOCK
  8
0
  5
41D
  2
*D48
 70
    65
 10
0.0
 20
0.0
 30
0.0
  3
*D48
  0
LINE
  8
LC-014-003-MTH-0
  6
CONTINUOUS
  5
41E
 10
593.676299
 20
210.031912
 30
0.0
 11
714.332981
 21
177.702051
 31
0.0
  0
LINE
  8
LC-014-003-MTH-0
  6
CONTINUOUS
  5
41F
 10
613.139491
 20
282.669534
 30
0.0
 11
733.796173
 21
250.339673
 31
0.0
  0
LINE
  8
LC-013-003-----0
  6
CONTINUOUS
  5
420
 10
694.450694
 20
154.289755
 30
0.0
 11
698.105427
 21
182.050211
 31
0.0
  0
LINE
  8
LC-013-003-----0
  6
CONTINUOUS
  5
421
 10
698.105427
 20
182.050211
 30
0.0
 11
687.390291
 21
156.181584
 31
0.0
  0
LINE
  8
LC-013-003-----0
  6
CONTINUOUS
  5
422
 10
687.390291
 20
156.181584
 30
0.0
 11
694.450694
 21
154.289755
 31
0.0
  0
LINE
  8
LC-013-003-----0
  6
CONTINUOUS
  5
423
 10
693.516722
 20
154.475533
 30
0.0
 11
696.221225
 21
175.018271
 31
0.0
  0
LINE
  8
LC-013-003-----0
  6
CONTINUOUS
  5
424
 10
696.221225
 20
175.018271
 30
0.0
 11
688.292024
 21
155.875487
 31
0.0
  0
LINE
  8
LC-013-003-----0
  6
CONTINUOUS
  5
425
 10
692.58275
 20
154.661312
 30
0.0
 11
694.337022
 21
167.986331
 31
0.0
  0
LINE
  8
LC-013-003-----0
  6
CONTINUOUS
  5
426
 10
694.337022
 20
167.986331
 30
0.0
 11
689.193757
 21
155.56939
 31
0.0
  0
LINE
  8
LC-013-003-----0
  6
CONTINUOUS
  5
427
 10
691.648778
 20
154.847091
 30
0.0
 11
692.452819
 21
160.954391
 31
0.0
  0
LINE
  8
LC-013-003-----0
  6
CONTINUOUS
  5
428
 10
692.452819
 20
160.954391
 30
0.0
 11
690.095489
 21
155.263293
 31
0.0
  0
LINE
  8
LC-013-003-----0
  6
CONTINUOUS
  5
429
 10
721.223353
 20
282.448289
 30
0.0
 11
717.56862
 21
254.687833
 31
0.0
  0
LINE
  8
LC-013-003-----0
  6
CONTINUOUS
  5
42A
 10
717.56862
 20
254.687833
 30
0.0
 11
728.283756
 21
280.55646
 31
0.0
  0
LINE
  8
LC-013-003-----0
  6
CONTINUOUS
  5
42B
 10
728.283756
 20
280.55646
 30
0.0
 11
721.223353
 21
282.448289
 31
0.0
  0
LINE
  8
LC-013-003-----0
  6
CONTINUOUS
  5
42C
 10
722.157325
 20
282.262511
 30
0.0
 11
719.452822
 21
261.719773
 31
0.0
  0
LINE
  8
LC-013-003-----0
  6
CONTINUOUS
  5
42D
 10
719.452822
 20
261.719773
 30
0.0
 11
727.382023
 21
280.862557
 31
0.0
  0
LINE
  8
LC-013-003-----0
  6
CONTINUOUS
  5
42E
 10
723.091297
 20
282.076732
 30
0.0
 11
721.337025
 21
268.751713
 31
0.0
  0
LINE
  8
LC-013-003-----0
  6
CONTINUOUS
  5
42F
 10
721.337025
 20
268.751713
 30
0.0
 11
726.48029
 21
281.168654
 31
0.0
  0
LINE
  8
LC-013-003-----0
  6
CONTINUOUS
  5
430
 10
724.025269
 20
281.890953
 30
0.0
 11
723.221227
 21
275.783653
 31
0.0
  0
LINE
  8
LC-013-003-----0
  6
CONTINUOUS
  5
431
 10
723.221227
 20
275.783653
 30
0.0
 11
725.578557
 21
281.474751
 31
0.0
  0
LINE
  8
LC-015-003-MTG-0
  6
CONTINUOUS
  5
432
 10
687.959721
 20
144.185919
 30
0.0
 11
750.948538
 21
379.263383
 31
0.0
  0
TEXT
  8
LC-013-003-----0
  6
CONTINUOUS
 62
     8
  5
433
 10
720.988999
 20
297.696209
 30
0.0
 40
28.0
  1
DN70
 50
75.0
 51
15.0
  7
LC-TXTSTYLE-150-400-0-0-D0
  0
ENDBLK
  8
0
  5
434
  0
BLOCK
  8
0
  5
436
  2
*D49
 70
    65
 10
0.0
 20
0.0
 30
0.0
  3
*D49
  0
LINE
  8
LC-014-003-MTH-0
  6
CONTINUOUS
  5
437
 10
597.104722
 20
222.105984
 30
0.0
 11
679.716868
 21
199.970127
 31
0.0
  0
LINE
  8
LC-014-003-MTH-0
  6
CONTINUOUS
  5
438
 10
610.071556
 20
270.498868
 30
0.0
 11
692.683702
 21
248.363011
 31
0.0
  0
LINE
  8
LC-013-003-----0
  6
CONTINUOUS
  5
439
 10
659.834581
 20
176.55783
 30
0.0
 11
663.489314
 21
204.318287
 31
0.0
  0
LINE
  8
LC-013-003-----0
  6
CONTINUOUS
  5
43A
 10
663.489314
 20
204.318287
 30
0.0
 11
652.774178
 21
178.44966
 31
0.0
  0
LINE
  8
LC-013-003-----0
  6
CONTINUOUS
  5
43B
 10
652.774178
 20
178.44966
 30
0.0
 11
659.834581
 21
176.55783
 31
0.0
  0
LINE
  8
LC-013-003-----0
  6
CONTINUOUS
  5
43C
 10
658.900609
 20
176.743609
 30
0.0
 11
661.605111
 21
197.286347
 31
0.0
  0
LINE
  8
LC-013-003-----0
  6
CONTINUOUS
  5
43D
 10
661.605111
 20
197.286347
 30
0.0
 11
653.675911
 21
178.143563
 31
0.0
  0
LINE
  8
LC-013-003-----0
  6
CONTINUOUS
  5
43E
 10
657.966637
 20
176.929388
 30
0.0
 11
659.720909
 21
190.254407
 31
0.0
  0
LINE
  8
LC-013-003-----0
  6
CONTINUOUS
  5
43F
 10
659.720909
 20
190.254407
 30
0.0
 11
654.577643
 21
177.837466
 31
0.0
  0
LINE
  8
LC-013-003-----0
  6
CONTINUOUS
  5
440
 10
657.032665
 20
177.115166
 30
0.0
 11
657.836706
 21
183.222467
 31
0.0
  0
LINE
  8
LC-013-003-----0
  6
CONTINUOUS
  5
441
 10
657.836706
 20
183.222467
 30
0.0
 11
655.479376
 21
177.531369
 31
0.0
  0
LINE
  8
LC-013-003-----0
  6
CONTINUOUS
  5
442
 10
680.110882
 20
280.471627
 30
0.0
 11
676.456148
 21
252.711171
 31
0.0
  0
LINE
  8
LC-013-003-----0
  6
CONTINUOUS
  5
443
 10
676.456148
 20
252.711171
 30
0.0
 11
687.171284
 21
278.579797
 31
0.0
  0
LINE
  8
LC-013-003-----0
  6
CONTINUOUS
  5
444
 10
687.171284
 20
278.579797
 30
0.0
 11
680.110882
 21
280.471627
 31
0.0
  0
LINE
  8
LC-013-003-----0
  6
CONTINUOUS
  5
445
 10
681.044853
 20
280.285848
 30
0.0
 11
678.340351
 21
259.743111
 31
0.0
  0
LINE
  8
LC-013-003-----0
  6
CONTINUOUS
  5
446
 10
678.340351
 20
259.743111
 30
0.0
 11
686.269552
 21
278.885894
 31
0.0
  0
LINE
  8
LC-013-003-----0
  6
CONTINUOUS
  5
447
 10
681.978825
 20
280.100069
 30
0.0
 11
680.224553
 21
266.775051
 31
0.0
  0
LINE
  8
LC-013-003-----0
  6
CONTINUOUS
  5
448
 10
680.224553
 20
266.775051
 30
0.0
 11
685.367819
 21
279.191991
 31
0.0
  0
LINE
  8
LC-013-003-----0
  6
CONTINUOUS
  5
449
 10
682.912797
 20
279.914291
 30
0.0
 11
682.108756
 21
273.806991
 31
0.0
  0
LINE
  8
LC-013-003-----0
  6
CONTINUOUS
  5
44A
 10
682.108756
 20
273.806991
 30
0.0
 11
684.466086
 21
279.498088
 31
0.0
  0
LINE
  8
LC-015-003-MTG-0
  6
CONTINUOUS
  5
44B
 10
653.343607
 20
166.453994
 30
0.0
 11
714.088514
 21
393.157072
 31
0.0
  0
TEXT
  8
LC-013-003-----0
  6
CONTINUOUS
 62
     8
  5
44C
 10
684.128975
 20
311.589897
 30
0.0
 40
28.0
  1
DN50
 50
75.0
 51
15.0
  7
LC-TXTSTYLE-150-400-0-0-D0
  0
ENDBLK
  8
0
  5
44D
  0
BLOCK
  8
0
  5
44F
  2
*D50
 70
    65
 10
0.0
 20
0.0
 30
0.0
  3
*D50
  0
TEXT
  8
LC-013-003-----0
  6
CONTINUOUS
 62
     8
  5
450
 10
637.393145
 20
96.877256
 30
0.0
 40
28.0
  1
 55Ý
 50
46.3
 51
15.0
  7
LC-TXTSTYLE-150-400-0-0-D0
 72
     1
 11
661.931983
 21
122.555683
 31
0.0
  0
ARC
  8
LC-015-003-MTG-0
  6
CONTINUOUS
  5
451
 10
508.733358
 20
262.977368
 30
0.0
 40
224.0
 50
305.0
 51
360.0
  0
LINE
  8
LC-013-003-----0
  6
CONTINUOUS
  5
452
 10
656.638063
 20
99.65472
 30
0.0
 11
637.21448
 21
79.48731
 31
0.0
  0
LINE
  8
LC-013-003-----0
  6
CONTINUOUS
  5
453
 10
637.21448
 20
79.48731
 30
0.0
 11
661.19593
 21
93.940339
 31
0.0
  0
LINE
  8
LC-013-003-----0
  6
CONTINUOUS
  5
454
 10
661.19593
 20
93.940339
 30
0.0
 11
656.638063
 21
99.65472
 31
0.0
  0
LINE
  8
LC-013-003-----0
  6
CONTINUOUS
  5
455
 10
657.279276
 20
98.950687
 30
0.0
 11
642.905824
 21
84.026803
 31
0.0
  0
LINE
  8
LC-013-003-----0
  6
CONTINUOUS
  5
456
 10
642.905824
 20
84.026803
 30
0.0
 11
660.652097
 21
94.722045
 31
0.0
  0
LINE
  8
LC-013-003-----0
  6
CONTINUOUS
  5
457
 10
657.920489
 20
98.246653
 30
0.0
 11
648.597169
 21
88.566296
 31
0.0
  0
LINE
  8
LC-013-003-----0
  6
CONTINUOUS
  5
458
 10
648.597169
 20
88.566296
 30
0.0
 11
660.108265
 21
95.50375
 31
0.0
  0
LINE
  8
LC-013-003-----0
  6
CONTINUOUS
  5
459
 10
658.561702
 20
97.54262
 30
0.0
 11
654.288513
 21
93.105789
 31
0.0
  0
LINE
  8
LC-013-003-----0
  6
CONTINUOUS
  5
45A
 10
654.288513
 20
93.105789
 30
0.0
 11
659.564432
 21
96.285456
 31
0.0
  0
LINE
  8
LC-013-003-----0
  6
CONTINUOUS
  5
45B
 10
734.649325
 20
235.042997
 30
0.0
 11
732.733358
 21
262.977368
 31
0.0
  0
LINE
  8
LC-013-003-----0
  6
CONTINUOUS
  5
45C
 10
732.733358
 20
262.977368
 30
0.0
 11
727.354092
 21
235.498949
 31
0.0
  0
LINE
  8
LC-013-003-----0
  6
CONTINUOUS
  5
45D
 10
727.354092
 20
235.498949
 30
0.0
 11
734.649325
 21
235.042997
 31
0.0
  0
LINE
  8
LC-013-003-----0
  6
CONTINUOUS
  5
45E
 10
733.697059
 20
235.040111
 30
0.0
 11
732.279244
 21
255.711545
 31
0.0
  0
LINE
  8
LC-013-003-----0
  6
CONTINUOUS
  5
45F
 10
732.279244
 20
255.711545
 30
0.0
 11
728.298588
 21
235.377515
 31
0.0
  0
LINE
  8
LC-013-003-----0
  6
CONTINUOUS
  5
460
 10
732.744794
 20
235.037225
 30
0.0
 11
731.82513
 21
248.445723
 31
0.0
  0
LINE
  8
LC-013-003-----0
  6
CONTINUOUS
  5
461
 10
731.82513
 20
248.445723
 30
0.0
 11
729.243083
 21
235.256082
 31
0.0
  0
LINE
  8
LC-013-003-----0
  6
CONTINUOUS
  5
462
 10
731.792529
 20
235.034338
 30
0.0
 11
731.371016
 21
241.1799
 31
0.0
  0
LINE
  8
LC-013-003-----0
  6
CONTINUOUS
  5
463
 10
731.371016
 20
241.1799
 30
0.0
 11
730.187578
 21
235.134648
 31
0.0
  0
LINE
  8
LC-014-003-MTH-0
  6
CONTINUOUS
  5
464
 10
570.859366
 20
174.252234
 30
0.0
 11
639.508786
 21
76.210702
 31
0.0
  0
LINE
  8
LC-014-003-MTH-0
  6
CONTINUOUS
  5
465
 10
528.947674
 20
262.977368
 30
0.0
 11
736.733358
 21
262.977368
 31
0.0
  0
ENDBLK
  8
0
  5
466
  0
BLOCK
  8
0
  5
468
  2
*X51
 70
    65
 10
298.450851
 20
313.195056
 30
0.0
  3
*X51
  0
LINE
  8
LC-006-005-----0
  6
CONTINUOUS
  5
469
 10
301.881348
 20
313.195056
 30
0.0
 11
302.650851
 21
313.96456
 31
0.0
  0
LINE
  8
LC-006-005-----0
  6
CONTINUOUS
  5
46A
 10
300.183746
 20
314.325882
 30
0.0
 11
302.650851
 21
316.792987
 31
0.0
  0
LINE
  8
LC-006-005-----0
  6
CONTINUOUS
  5
46B
 10
299.950851
 20
316.921414
 30
0.0
 11
302.650851
 21
319.621414
 31
0.0
  0
LINE
  8
LC-006-005-----0
  6
CONTINUOUS
  5
46C
 10
299.950851
 20
319.749841
 30
0.0
 11
302.650851
 21
322.449841
 31
0.0
  0
LINE
  8
LC-006-005-----0
  6
CONTINUOUS
  5
46D
 10
299.950851
 20
322.578268
 30
0.0
 11
302.650851
 21
325.278268
 31
0.0
  0
LINE
  8
LC-006-005-----0
  6
CONTINUOUS
  5
46E
 10
299.950851
 20
325.406695
 30
0.0
 11
302.650851
 21
328.106695
 31
0.0
  0
LINE
  8
LC-006-005-----0
  6
CONTINUOUS
  5
46F
 10
299.950851
 20
328.235122
 30
0.0
 11
302.650851
 21
330.935122
 31
0.0
  0
LINE
  8
LC-006-005-----0
  6
CONTINUOUS
  5
470
 10
299.950851
 20
331.06355
 30
0.0
 11
302.650851
 21
333.76355
 31
0.0
  0
LINE
  8
LC-006-005-----0
  6
CONTINUOUS
  5
471
 10
299.950851
 20
333.891977
 30
0.0
 11
302.650851
 21
336.591977
 31
0.0
  0
LINE
  8
LC-006-005-----0
  6
CONTINUOUS
  5
472
 10
299.950851
 20
336.720404
 30
0.0
 11
302.650851
 21
339.420404
 31
0.0
  0
LINE
  8
LC-006-005-----0
  6
CONTINUOUS
  5
473
 10
299.950851
 20
339.548831
 30
0.0
 11
302.650851
 21
342.248831
 31
0.0
  0
LINE
  8
LC-006-005-----0
  6
CONTINUOUS
  5
474
 10
299.950851
 20
342.377258
 30
0.0
 11
302.650851
 21
345.077258
 31
0.0
  0
LINE
  8
LC-006-005-----0
  6
CONTINUOUS
  5
475
 10
299.950851
 20
345.205685
 30
0.0
 11
302.650851
 21
347.905685
 31
0.0
  0
LINE
  8
LC-006-005-----0
  6
CONTINUOUS
  5
476
 10
299.950851
 20
348.034112
 30
0.0
 11
302.650851
 21
350.734112
 31
0.0
  0
LINE
  8
LC-006-005-----0
  6
CONTINUOUS
  5
477
 10
299.950851
 20
350.862539
 30
0.0
 11
302.650851
 21
353.562539
 31
0.0
  0
LINE
  8
LC-006-005-----0
  6
CONTINUOUS
  5
478
 10
299.950851
 20
353.690967
 30
0.0
 11
302.650851
 21
356.390967
 31
0.0
  0
LINE
  8
LC-006-005-----0
  6
CONTINUOUS
  5
479
 10
299.950851
 20
356.519394
 30
0.0
 11
302.650851
 21
359.219394
 31
0.0
  0
LINE
  8
LC-006-005-----0
  6
CONTINUOUS
  5
47A
 10
299.950851
 20
359.347821
 30
0.0
 11
302.650851
 21
362.047821
 31
0.0
  0
LINE
  8
LC-006-005-----0
  6
CONTINUOUS
  5
47B
 10
299.950851
 20
362.176248
 30
0.0
 11
302.650851
 21
364.876248
 31
0.0
  0
LINE
  8
LC-006-005-----0
  6
CONTINUOUS
  5
47C
 10
299.950851
 20
365.004675
 30
0.0
 11
302.650851
 21
367.704675
 31
0.0
  0
LINE
  8
LC-006-005-----0
  6
CONTINUOUS
  5
47D
 10
299.950851
 20
367.833102
 30
0.0
 11
302.650851
 21
370.533102
 31
0.0
  0
LINE
  8
LC-006-005-----0
  6
CONTINUOUS
  5
47E
 10
299.950851
 20
370.661529
 30
0.0
 11
302.650851
 21
373.361529
 31
0.0
  0
LINE
  8
LC-006-005-----0
  6
CONTINUOUS
  5
47F
 10
299.950851
 20
373.489956
 30
0.0
 11
302.650851
 21
376.189956
 31
0.0
  0
LINE
  8
LC-006-005-----0
  6
CONTINUOUS
  5
480
 10
299.950851
 20
376.318384
 30
0.0
 11
302.650851
 21
379.018384
 31
0.0
  0
LINE
  8
LC-006-005-----0
  6
CONTINUOUS
  5
481
 10
299.950851
 20
379.146811
 30
0.0
 11
302.650851
 21
381.846811
 31
0.0
  0
LINE
  8
LC-006-005-----0
  6
CONTINUOUS
  5
482
 10
299.950851
 20
381.975238
 30
0.0
 11
302.650851
 21
384.675238
 31
0.0
  0
LINE
  8
LC-006-005-----0
  6
CONTINUOUS
  5
483
 10
299.950851
 20
384.803665
 30
0.0
 11
302.650851
 21
387.503665
 31
0.0
  0
LINE
  8
LC-006-005-----0
  6
CONTINUOUS
  5
484
 10
299.950851
 20
387.632092
 30
0.0
 11
302.450851
 21
390.132092
 31
0.0
  0
LINE
  8
LC-006-005-----0
  6
CONTINUOUS
  5
485
 10
298.685388
 20
389.195056
 30
0.0
 11
302.450851
 21
392.960519
 31
0.0
  0
LINE
  8
LC-006-005-----0
  6
CONTINUOUS
  5
486
 10
298.450851
 20
391.788946
 30
0.0
 11
302.450851
 21
395.788946
 31
0.0
  0
LINE
  8
LC-006-005-----0
  6
CONTINUOUS
  5
487
 10
298.450851
 20
394.617373
 30
0.0
 11
302.450851
 21
398.617373
 31
0.0
  0
LINE
  8
LC-006-005-----0
  6
CONTINUOUS
  5
488
 10
298.450851
 20
397.445801
 30
0.0
 11
302.450851
 21
401.445801
 31
0.0
  0
LINE
  8
LC-006-005-----0
  6
CONTINUOUS
  5
489
 10
298.450851
 20
400.274228
 30
0.0
 11
301.37168
 21
403.195056
 31
0.0
  0
LINE
  8
LC-006-005-----0
  6
CONTINUOUS
  5
48A
 10
298.450851
 20
403.102655
 30
0.0
 11
298.543253
 21
403.195056
 31
0.0
  0
ENDBLK
  8
0
  5
48B
  0
BLOCK
  8
0
  5
48D
  2
*X52
 70
    65
 10
442.250851
 20
313.195056
 30
0.0
  3
*X52
  0
LINE
  8
LC-006-005-----0
  6
CONTINUOUS
  5
48E
 10
443.302704
 20
313.195056
 30
0.0
 11
444.822064
 21
314.714416
 31
0.0
  0
LINE
  8
LC-006-005-----0
  6
CONTINUOUS
  5
48F
 10
442.250851
 20
314.971631
 30
0.0
 11
444.950851
 21
317.671631
 31
0.0
  0
LINE
  8
LC-006-005-----0
  6
CONTINUOUS
  5
490
 10
442.250851
 20
317.800058
 30
0.0
 11
444.950851
 21
320.500058
 31
0.0
  0
LINE
  8
LC-006-005-----0
  6
CONTINUOUS
  5
491
 10
442.250851
 20
320.628485
 30
0.0
 11
444.950851
 21
323.328485
 31
0.0
  0
LINE
  8
LC-006-005-----0
  6
CONTINUOUS
  5
492
 10
442.250851
 20
323.456912
 30
0.0
 11
444.950851
 21
326.156912
 31
0.0
  0
LINE
  8
LC-006-005-----0
  6
CONTINUOUS
  5
493
 10
442.250851
 20
326.285339
 30
0.0
 11
444.950851
 21
328.985339
 31
0.0
  0
LINE
  8
LC-006-005-----0
  6
CONTINUOUS
  5
494
 10
442.250851
 20
329.113766
 30
0.0
 11
444.950851
 21
331.813766
 31
0.0
  0
LINE
  8
LC-006-005-----0
  6
CONTINUOUS
  5
495
 10
442.250851
 20
331.942193
 30
0.0
 11
444.950851
 21
334.642193
 31
0.0
  0
LINE
  8
LC-006-005-----0
  6
CONTINUOUS
  5
496
 10
442.250851
 20
334.770621
 30
0.0
 11
444.950851
 21
337.470621
 31
0.0
  0
LINE
  8
LC-006-005-----0
  6
CONTINUOUS
  5
497
 10
442.250851
 20
337.599048
 30
0.0
 11
444.950851
 21
340.299048
 31
0.0
  0
LINE
  8
LC-006-005-----0
  6
CONTINUOUS
  5
498
 10
442.250851
 20
340.427475
 30
0.0
 11
444.950851
 21
343.127475
 31
0.0
  0
LINE
  8
LC-006-005-----0
  6
CONTINUOUS
  5
499
 10
442.250851
 20
343.255902
 30
0.0
 11
444.950851
 21
345.955902
 31
0.0
  0
LINE
  8
LC-006-005-----0
  6
CONTINUOUS
  5
49A
 10
442.250851
 20
346.084329
 30
0.0
 11
444.950851
 21
348.784329
 31
0.0
  0
LINE
  8
LC-006-005-----0
  6
CONTINUOUS
  5
49B
 10
442.250851
 20
348.912756
 30
0.0
 11
444.950851
 21
351.612756
 31
0.0
  0
LINE
  8
LC-006-005-----0
  6
CONTINUOUS
  5
49C
 10
442.250851
 20
351.741183
 30
0.0
 11
444.950851
 21
354.441183
 31
0.0
  0
LINE
  8
LC-006-005-----0
  6
CONTINUOUS
  5
49D
 10
442.250851
 20
354.56961
 30
0.0
 11
444.950851
 21
357.26961
 31
0.0
  0
LINE
  8
LC-006-005-----0
  6
CONTINUOUS
  5
49E
 10
442.250851
 20
357.398038
 30
0.0
 11
444.950851
 21
360.098038
 31
0.0
  0
LINE
  8
LC-006-005-----0
  6
CONTINUOUS
  5
49F
 10
442.250851
 20
360.226465
 30
0.0
 11
444.950851
 21
362.926465
 31
0.0
  0
LINE
  8
LC-006-005-----0
  6
CONTINUOUS
  5
4A0
 10
442.250851
 20
363.054892
 30
0.0
 11
444.950851
 21
365.754892
 31
0.0
  0
LINE
  8
LC-006-005-----0
  6
CONTINUOUS
  5
4A1
 10
442.250851
 20
365.883319
 30
0.0
 11
444.950851
 21
368.583319
 31
0.0
  0
LINE
  8
LC-006-005-----0
  6
CONTINUOUS
  5
4A2
 10
442.250851
 20
368.711746
 30
0.0
 11
444.950851
 21
371.411746
 31
0.0
  0
LINE
  8
LC-006-005-----0
  6
CONTINUOUS
  5
4A3
 10
442.250851
 20
371.540173
 30
0.0
 11
444.950851
 21
374.240173
 31
0.0
  0
LINE
  8
LC-006-005-----0
  6
CONTINUOUS
  5
4A4
 10
442.250851
 20
374.3686
 30
0.0
 11
444.950851
 21
377.0686
 31
0.0
  0
LINE
  8
LC-006-005-----0
  6
CONTINUOUS
  5
4A5
 10
442.250851
 20
377.197027
 30
0.0
 11
444.950851
 21
379.897027
 31
0.0
  0
LINE
  8
LC-006-005-----0
  6
CONTINUOUS
  5
4A6
 10
442.250851
 20
380.025455
 30
0.0
 11
444.950851
 21
382.725455
 31
0.0
  0
LINE
  8
LC-006-005-----0
  6
CONTINUOUS
  5
4A7
 10
442.250851
 20
382.853882
 30
0.0
 11
444.950851
 21
385.553882
 31
0.0
  0
LINE
  8
LC-006-005-----0
  6
CONTINUOUS
  5
4A8
 10
442.250851
 20
385.682309
 30
0.0
 11
444.950851
 21
388.382309
 31
0.0
  0
LINE
  8
LC-006-005-----0
  6
CONTINUOUS
  5
4A9
 10
445.763599
 20
389.195056
 30
0.0
 11
446.450851
 21
389.882309
 31
0.0
  0
LINE
  8
LC-006-005-----0
  6
CONTINUOUS
  5
4AA
 10
442.250851
 20
388.510736
 30
0.0
 11
446.450851
 21
392.710736
 31
0.0
  0
LINE
  8
LC-006-005-----0
  6
CONTINUOUS
  5
4AB
 10
442.450851
 20
391.539163
 30
0.0
 11
446.450851
 21
395.539163
 31
0.0
  0
LINE
  8
LC-006-005-----0
  6
CONTINUOUS
  5
4AC
 10
442.450851
 20
394.36759
 30
0.0
 11
446.450851
 21
398.36759
 31
0.0
  0
LINE
  8
LC-006-005-----0
  6
CONTINUOUS
  5
4AD
 10
442.450851
 20
397.196017
 30
0.0
 11
446.450851
 21
401.196017
 31
0.0
  0
LINE
  8
LC-006-005-----0
  6
CONTINUOUS
  5
4AE
 10
442.450851
 20
400.024444
 30
0.0
 11
445.621463
 21
403.195056
 31
0.0
  0
LINE
  8
LC-006-005-----0
  6
CONTINUOUS
  5
4AF
 10
442.450851
 20
402.852872
 30
0.0
 11
442.793036
 21
403.195056
 31
0.0
  0
ENDBLK
  8
0
  5
4B0
  0
BLOCK
  8
0
  5
4B2
  2
BLK12
 70
    64
 10
0.0
 20
0.0
 30
0.0
  3
BLK12
  0
ENDBLK
  8
0
  5
4B3
  0
BLOCK
  8
0
  5
4B5
  2
BLK13
 70
    64
 10
0.0
 20
0.0
 30
0.0
  3
BLK13
  0
ENDBLK
  8
0
  5
4B6
  0
BLOCK
  8
0
  5
4B8
  2
BLK14
 70
    64
 10
0.0
 20
0.0
 30
0.0
  3
BLK14
  0
ENDBLK
  8
0
  5
4B9
  0
BLOCK
  8
0
  5
4BB
  2
BLK15
 70
    64
 10
0.0
 20
0.0
 30
0.0
  3
BLK15
  0
ENDBLK
  8
0
  5
4BC
  0
BLOCK
  8
0
  5
4BE
  2
BLK16
 70
    64
 10
0.0
 20
0.0
 30
0.0
  3
BLK16
  0
ENDBLK
  8
0
  5
4BF
  0
BLOCK
  8
0
  5
4C1
  2
*X58
 70
    65
 10
431.950851
 20
393.295056
 30
0.0
  3
*X58
  0
LINE
  8
LC-006-005-----0
  6
CONTINUOUS
  5
4C2
 10
441.378317
 20
393.295056
 30
0.0
 11
441.450851
 21
393.36759
 31
0.0
  0
LINE
  8
LC-006-005-----0
  6
CONTINUOUS
  5
4C3
 10
440.450851
 20
395.196017
 30
0.0
 11
441.450851
 21
396.196017
 31
0.0
  0
LINE
  8
LC-006-005-----0
  6
CONTINUOUS
  5
4C4
 10
440.450851
 20
398.024444
 30
0.0
 11
441.450851
 21
399.024444
 31
0.0
  0
LINE
  8
LC-006-005-----0
  6
CONTINUOUS
  5
4C5
 10
440.255387
 20
400.657408
 30
0.0
 11
440.990294
 21
401.392314
 31
0.0
  0
LINE
  8
LC-006-005-----0
  6
CONTINUOUS
  5
4C6
 10
438.561543
 20
401.791991
 30
0.0
 11
439.407868
 21
402.638315
 31
0.0
  0
LINE
  8
LC-006-005-----0
  6
CONTINUOUS
  5
4C7
 10
431.950851
 20
398.009726
 30
0.0
 11
432.950851
 21
399.009726
 31
0.0
  0
LINE
  8
LC-006-005-----0
  6
CONTINUOUS
  5
4C8
 10
435.736182
 20
401.795056
 30
0.0
 11
436.736182
 21
402.795056
 31
0.0
  0
LINE
  8
LC-006-005-----0
  6
CONTINUOUS
  5
4C9
 10
432.286386
 20
401.173687
 30
0.0
 11
433.57222
 21
402.459522
 31
0.0
  0
ENDBLK
  8
0
  5
4CA
  0
BLOCK
  8
0
  5
4CC
  2
*X59
 70
    65
 10
399.950851
 20
396.795056
 30
0.0
  3
*X59
  0
LINE
  8
LC-006-005-----0
  6
CONTINUOUS
  5
4CD
 10
423.950851
 20
398.495007
 30
0.0
 11
424.950851
 21
399.495007
 31
0.0
  0
LINE
  8
LC-006-005-----0
  6
CONTINUOUS
  5
4CE
 10
423.581077
 20
400.95366
 30
0.0
 11
424.294835
 21
401.667418
 31
0.0
  0
LINE
  8
LC-006-005-----0
  6
CONTINUOUS
  5
4CF
 10
421.594046
 20
401.795056
 30
0.0
 11
422.536356
 21
402.737366
 31
0.0
  0
LINE
  8
LC-006-005-----0
  6
CONTINUOUS
  5
4D0
 10
415.950851
 20
398.980289
 30
0.0
 11
416.960354
 21
399.989792
 31
0.0
  0
LINE
  8
LC-006-005-----0
  6
CONTINUOUS
  5
4D1
 10
418.756116
 20
401.785553
 30
0.0
 11
419.765619
 21
402.795056
 31
0.0
  0
LINE
  8
LC-006-005-----0
  6
CONTINUOUS
  5
4D2
 10
407.950851
 20
399.46557
 30
0.0
 11
408.888551
 21
400.403269
 31
0.0
  0
LINE
  8
LC-006-005-----0
  6
CONTINUOUS
  5
4D3
 10
407.093417
 20
401.436563
 30
0.0
 11
407.807981
 21
402.151127
 31
0.0
  0
LINE
  8
LC-006-005-----0
  6
CONTINUOUS
  5
4D4
 10
400.623483
 20
397.795056
 30
0.0
 11
400.950851
 21
398.122424
 31
0.0
  0
LINE
  8
LC-006-005-----0
  6
CONTINUOUS
  5
4D5
 10
404.623483
 20
401.795056
 30
0.0
 11
405.623483
 21
402.795056
 31
0.0
  0
LINE
  8
LC-006-005-----0
  6
CONTINUOUS
  5
4D6
 10
399.955125
 20
399.955125
 30
0.0
 11
402.790783
 21
402.790783
 31
0.0
  0
ENDBLK
  8
0
  5
4D7
  0
BLOCK
  8
0
  5
4D9
  2
*X60
 70
    65
 10
351.950851
 20
396.795056
 30
0.0
  3
*X60
  0
LINE
  8
LC-006-005-----0
  6
CONTINUOUS
  5
4DA
 10
392.138202
 20
397.795056
 30
0.0
 11
392.950851
 21
398.607706
 31
0.0
  0
LINE
  8
LC-006-005-----0
  6
CONTINUOUS
  5
4DB
 10
391.870608
 20
400.355889
 30
0.0
 11
392.639873
 21
401.125155
 31
0.0
  0
LINE
  8
LC-006-005-----0
  6
CONTINUOUS
  5
4DC
 10
390.424462
 20
401.73817
 30
0.0
 11
391.20611
 21
402.519818
 31
0.0
  0
LINE
  8
LC-006-005-----0
  6
CONTINUOUS
  5
4DD
 10
387.652921
 20
401.795056
 30
0.0
 11
388.652921
 21
402.795056
 31
0.0
  0
LINE
  8
LC-006-005-----0
  6
CONTINUOUS
  5
4DE
 10
384.824494
 20
401.795056
 30
0.0
 11
385.824494
 21
402.795056
 31
0.0
  0
LINE
  8
LC-006-005-----0
  6
CONTINUOUS
  5
4DF
 10
381.996066
 20
401.795056
 30
0.0
 11
382.996066
 21
402.795056
 31
0.0
  0
LINE
  8
LC-006-005-----0
  6
CONTINUOUS
  5
4E0
 10
379.167639
 20
401.795056
 30
0.0
 11
380.167639
 21
402.795056
 31
0.0
  0
LINE
  8
LC-006-005-----0
  6
CONTINUOUS
  5
4E1
 10
376.339212
 20
401.795056
 30
0.0
 11
377.339212
 21
402.795056
 31
0.0
  0
LINE
  8
LC-006-005-----0
  6
CONTINUOUS
  5
4E2
 10
373.510785
 20
401.795056
 30
0.0
 11
374.510785
 21
402.795056
 31
0.0
  0
LINE
  8
LC-006-005-----0
  6
CONTINUOUS
  5
4E3
 10
370.682358
 20
401.795056
 30
0.0
 11
371.682358
 21
402.795056
 31
0.0
  0
LINE
  8
LC-006-005-----0
  6
CONTINUOUS
  5
4E4
 10
367.853931
 20
401.795056
 30
0.0
 11
368.853931
 21
402.795056
 31
0.0
  0
LINE
  8
LC-006-005-----0
  6
CONTINUOUS
  5
4E5
 10
365.025504
 20
401.795056
 30
0.0
 11
366.025504
 21
402.795056
 31
0.0
  0
LINE
  8
LC-006-005-----0
  6
CONTINUOUS
  5
4E6
 10
362.197077
 20
401.795056
 30
0.0
 11
363.197077
 21
402.795056
 31
0.0
  0
LINE
  8
LC-006-005-----0
  6
CONTINUOUS
  5
4E7
 10
359.368649
 20
401.795056
 30
0.0
 11
360.368649
 21
402.795056
 31
0.0
  0
LINE
  8
LC-006-005-----0
  6
CONTINUOUS
  5
4E8
 10
352.540222
 20
397.795056
 30
0.0
 11
352.950851
 21
398.205685
 31
0.0
  0
LINE
  8
LC-006-005-----0
  6
CONTINUOUS
  5
4E9
 10
356.540222
 20
401.795056
 30
0.0
 11
357.540222
 21
402.795056
 31
0.0
  0
LINE
  8
LC-006-005-----0
  6
CONTINUOUS
  5
4EA
 10
351.96124
 20
400.044501
 30
0.0
 11
354.701407
 21
402.784668
 31
0.0
  0
ENDBLK
  8
0
  5
4EB
  0
BLOCK
  8
0
  5
4ED
  2
*X61
 70
    65
 10
319.950851
 20
396.795056
 30
0.0
  3
*X61
  0
LINE
  8
LC-006-005-----0
  6
CONTINUOUS
  5
4EE
 10
344.054941
 20
397.795056
 30
0.0
 11
344.950851
 21
398.690967
 31
0.0
  0
LINE
  8
LC-006-005-----0
  6
CONTINUOUS
  5
4EF
 10
343.850891
 20
400.419434
 30
0.0
 11
344.611841
 21
401.180384
 31
0.0
  0
LINE
  8
LC-006-005-----0
  6
CONTINUOUS
  5
4F0
 10
342.356514
 20
401.753484
 30
0.0
 11
343.148609
 21
402.545579
 31
0.0
  0
LINE
  8
LC-006-005-----0
  6
CONTINUOUS
  5
4F1
 10
335.950851
 20
398.176248
 30
0.0
 11
336.950851
 21
399.176248
 31
0.0
  0
LINE
  8
LC-006-005-----0
  6
CONTINUOUS
  5
4F2
 10
339.56966
 20
401.795056
 30
0.0
 11
340.56966
 21
402.795056
 31
0.0
  0
LINE
  8
LC-006-005-----0
  6
CONTINUOUS
  5
4F3
 10
336.581888
 20
401.635712
 30
0.0
 11
337.110196
 21
402.16402
 31
0.0
  0
LINE
  8
LC-006-005-----0
  6
CONTINUOUS
  5
4F4
 10
327.950851
 20
398.661529
 30
0.0
 11
328.950851
 21
399.661529
 31
0.0
  0
LINE
  8
LC-006-005-----0
  6
CONTINUOUS
  5
4F5
 10
327.509363
 20
401.048468
 30
0.0
 11
328.219229
 21
401.758334
 31
0.0
  0
LINE
  8
LC-006-005-----0
  6
CONTINUOUS
  5
4F6
 10
325.427524
 20
401.795056
 30
0.0
 11
326.394534
 21
402.762066
 31
0.0
  0
LINE
  8
LC-006-005-----0
  6
CONTINUOUS
  5
4F7
 10
319.950851
 20
399.146811
 30
0.0
 11
320.989282
 21
400.185241
 31
0.0
  0
LINE
  8
LC-006-005-----0
  6
CONTINUOUS
  5
4F8
 10
322.560667
 20
401.756626
 30
0.0
 11
323.599097
 21
402.795056
 31
0.0
  0
ENDBLK
  8
0
  5
4F9
  0
BLOCK
  8
0
  5
4FB
  2
*X62
 70
    65
 10
303.450851
 20
393.295056
 30
0.0
  3
*X62
  0
LINE
  8
LC-006-005-----0
  6
CONTINUOUS
  5
4FC
 10
312.942243
 20
397.795056
 30
0.0
 11
312.950851
 21
397.803665
 31
0.0
  0
LINE
  8
LC-006-005-----0
  6
CONTINUOUS
  5
4FD
 10
311.950851
 20
399.632092
 30
0.0
 11
312.857271
 21
400.538512
 31
0.0
  0
LINE
  8
LC-006-005-----0
  6
CONTINUOUS
  5
4FE
 10
303.450851
 20
393.960519
 30
0.0
 11
304.450851
 21
394.960519
 31
0.0
  0
LINE
  8
LC-006-005-----0
  6
CONTINUOUS
  5
4FF
 10
310.992634
 20
401.502302
 30
0.0
 11
311.713183
 21
402.222851
 31
0.0
  0
LINE
  8
LC-006-005-----0
  6
CONTINUOUS
  5
500
 10
303.450851
 20
396.788946
 30
0.0
 11
304.450851
 21
397.788946
 31
0.0
  0
LINE
  8
LC-006-005-----0
  6
CONTINUOUS
  5
501
 10
308.456961
 20
401.795056
 30
0.0
 11
309.456961
 21
402.795056
 31
0.0
  0
LINE
  8
LC-006-005-----0
  6
CONTINUOUS
  5
502
 10
303.450851
 20
399.617373
 30
0.0
 11
304.946787
 21
401.11331
 31
0.0
  0
LINE
  8
LC-006-005-----0
  6
CONTINUOUS
  5
503
 10
305.132598
 20
401.29912
 30
0.0
 11
306.628534
 21
402.795056
 31
0.0
  0
ENDBLK
  8
0
  5
504
  0
BLOCK
  8
0
  5
506
  2
*D63
 70
    65
 10
0.0
 20
0.0
 30
0.0
  3
*D63
  0
LINE
  8
LC-014-003-MTH-0
  6
CONTINUOUS
  5
507
 10
523.450851
 20
336.181933
 30
0.0
 11
487.2
 21
336.181933
 31
0.0
  0
LINE
  8
LC-014-003-MTH-0
  6
CONTINUOUS
  5
508
 10
446.450851
 20
403.195056
 30
0.0
 11
520.8
 21
403.195056
 31
0.0
  0
LINE
  8
LC-015-003-MTG-0
  6
CONTINUOUS
  5
509
 10
504.0
 20
336.181933
 30
0.0
 11
504.0
 21
403.195056
 31
0.0
  0
LINE
  8
LC-013-003-----0
  6
CONTINUOUS
  5
50A
 10
500.345267
 20
363.942389
 30
0.0
 11
504.0
 21
336.181933
 31
0.0
  0
LINE
  8
LC-013-003-----0
  6
CONTINUOUS
  5
50B
 10
504.0
 20
336.181933
 30
0.0
 11
507.654733
 21
363.942389
 31
0.0
  0
LINE
  8
LC-013-003-----0
  6
CONTINUOUS
  5
50C
 10
507.654733
 20
363.942389
 30
0.0
 11
500.345267
 21
363.942389
 31
0.0
  0
LINE
  8
LC-013-003-----0
  6
CONTINUOUS
  5
50D
 10
501.295497
 20
364.00467
 30
0.0
 11
504.0
 21
343.461933
 31
0.0
  0
LINE
  8
LC-013-003-----0
  6
CONTINUOUS
  5
50E
 10
504.0
 20
343.461933
 30
0.0
 11
506.704503
 21
364.00467
 31
0.0
  0
LINE
  8
LC-013-003-----0
  6
CONTINUOUS
  5
50F
 10
502.245728
 20
364.066952
 30
0.0
 11
504.0
 21
350.741933
 31
0.0
  0
LINE
  8
LC-013-003-----0
  6
CONTINUOUS
  5
510
 10
504.0
 20
350.741933
 30
0.0
 11
505.754272
 21
364.066952
 31
0.0
  0
LINE
  8
LC-013-003-----0
  6
CONTINUOUS
  5
511
 10
503.195959
 20
364.129233
 30
0.0
 11
504.0
 21
358.021933
 31
0.0
  0
LINE
  8
LC-013-003-----0
  6
CONTINUOUS
  5
512
 10
504.0
 20
358.021933
 30
0.0
 11
504.804041
 21
364.129233
 31
0.0
  0
LINE
  8
LC-013-003-----0
  6
CONTINUOUS
  5
513
 10
507.654733
 20
375.4346
 30
0.0
 11
504.0
 21
403.195056
 31
0.0
  0
LINE
  8
LC-013-003-----0
  6
CONTINUOUS
  5
514
 10
504.0
 20
403.195056
 30
0.0
 11
500.345267
 21
375.4346
 31
0.0
  0
LINE
  8
LC-013-003-----0
  6
CONTINUOUS
  5
515
 10
500.345267
 20
375.4346
 30
0.0
 11
507.654733
 21
375.4346
 31
0.0
  0
LINE
  8
LC-013-003-----0
  6
CONTINUOUS
  5
516
 10
506.704503
 20
375.372319
 30
0.0
 11
504.0
 21
395.915056
 31
0.0
  0
LINE
  8
LC-013-003-----0
  6
CONTINUOUS
  5
517
 10
504.0
 20
395.915056
 30
0.0
 11
501.295497
 21
375.372319
 31
0.0
  0
LINE
  8
LC-013-003-----0
  6
CONTINUOUS
  5
518
 10
505.754272
 20
375.310037
 30
0.0
 11
504.0
 21
388.635056
 31
0.0
  0
LINE
  8
LC-013-003-----0
  6
CONTINUOUS
  5
519
 10
504.0
 20
388.635056
 30
0.0
 11
502.245728
 21
375.310037
 31
0.0
  0
LINE
  8
LC-013-003-----0
  6
CONTINUOUS
  5
51A
 10
504.804041
 20
375.247756
 30
0.0
 11
504.0
 21
381.355056
 31
0.0
  0
LINE
  8
LC-013-003-----0
  6
CONTINUOUS
  5
51B
 10
504.0
 20
381.355056
 30
0.0
 11
503.195959
 21
375.247756
 31
0.0
  0
TEXT
  8
LC-013-003-----0
  6
CONTINUOUS
 62
     8
  5
51C
 10
496.172446
 20
341.087048
 30
0.0
 40
28.0
  1
9-67
 50
90.0
 51
15.0
  7
LC-TXTSTYLE-150-400-0-0-D0
 72
     1
 11
496.172446
 21
374.036655
 31
0.0
  0
ENDBLK
  8
0
  5
51D
  0
BLOCK
  8
0
  5
51F
  2
*D64
 70
    65
 10
0.0
 20
0.0
 30
0.0
  3
*D64
  0
LINE
  8
LC-014-003-MTH-0
  6
CONTINUOUS
  5
520
 10
298.450851
 20
403.195056
 30
0.0
 11
298.450851
 21
448.0
 31
0.0
  0
LINE
  8
LC-014-003-MTH-0
  6
CONTINUOUS
  5
521
 10
446.450851
 20
403.195056
 30
0.0
 11
446.450851
 21
448.0
 31
0.0
  0
LINE
  8
LC-015-003-MTG-0
  6
CONTINUOUS
  5
522
 10
298.450851
 20
431.2
 30
0.0
 11
446.450851
 21
431.2
 31
0.0
  0
LINE
  8
LC-013-003-----0
  6
CONTINUOUS
  5
523
 10
326.211307
 20
434.854733
 30
0.0
 11
298.450851
 21
431.2
 31
0.0
  0
LINE
  8
LC-013-003-----0
  6
CONTINUOUS
  5
524
 10
298.450851
 20
431.2
 30
0.0
 11
326.211307
 21
427.545267
 31
0.0
  0
LINE
  8
LC-013-003-----0
  6
CONTINUOUS
  5
525
 10
326.211307
 20
427.545267
 30
0.0
 11
326.211307
 21
434.854733
 31
0.0
  0
LINE
  8
LC-013-003-----0
  6
CONTINUOUS
  5
526
 10
326.273589
 20
433.904503
 30
0.0
 11
305.730851
 21
431.2
 31
0.0
  0
LINE
  8
LC-013-003-----0
  6
CONTINUOUS
  5
527
 10
305.730851
 20
431.2
 30
0.0
 11
326.273589
 21
428.495497
 31
0.0
  0
LINE
  8
LC-013-003-----0
  6
CONTINUOUS
  5
528
 10
326.33587
 20
432.954272
 30
0.0
 11
313.010851
 21
431.2
 31
0.0
  0
LINE
  8
LC-013-003-----0
  6
CONTINUOUS
  5
529
 10
313.010851
 20
431.2
 30
0.0
 11
326.33587
 21
429.445728
 31
0.0
  0
LINE
  8
LC-013-003-----0
  6
CONTINUOUS
  5
52A
 10
326.398152
 20
432.004041
 30
0.0
 11
320.290851
 21
431.2
 31
0.0
  0
LINE
  8
LC-013-003-----0
  6
CONTINUOUS
  5
52B
 10
320.290851
 20
431.2
 30
0.0
 11
326.398152
 21
430.395959
 31
0.0
  0
LINE
  8
LC-013-003-----0
  6
CONTINUOUS
  5
52C
 10
418.690395
 20
427.545267
 30
0.0
 11
446.450851
 21
431.2
 31
0.0
  0
LINE
  8
LC-013-003-----0
  6
CONTINUOUS
  5
52D
 10
446.450851
 20
431.2
 30
0.0
 11
418.690395
 21
434.854733
 31
0.0
  0
LINE
  8
LC-013-003-----0
  6
CONTINUOUS
  5
52E
 10
418.690395
 20
434.854733
 30
0.0
 11
418.690395
 21
427.545267
 31
0.0
  0
LINE
  8
LC-013-003-----0
  6
CONTINUOUS
  5
52F
 10
418.628114
 20
428.495497
 30
0.0
 11
439.170851
 21
431.2
 31
0.0
  0
LINE
  8
LC-013-003-----0
  6
CONTINUOUS
  5
530
 10
439.170851
 20
431.2
 30
0.0
 11
418.628114
 21
433.904503
 31
0.0
  0
LINE
  8
LC-013-003-----0
  6
CONTINUOUS
  5
531
 10
418.565832
 20
429.445728
 30
0.0
 11
431.890851
 21
431.2
 31
0.0
  0
LINE
  8
LC-013-003-----0
  6
CONTINUOUS
  5
532
 10
431.890851
 20
431.2
 30
0.0
 11
418.565832
 21
432.954272
 31
0.0
  0
LINE
  8
LC-013-003-----0
  6
CONTINUOUS
  5
533
 10
418.503551
 20
430.395959
 30
0.0
 11
424.610851
 21
431.2
 31
0.0
  0
LINE
  8
LC-013-003-----0
  6
CONTINUOUS
  5
534
 10
424.610851
 20
431.2
 30
0.0
 11
418.503551
 21
432.004041
 31
0.0
  0
TEXT
  8
LC-013-003-----0
  6
CONTINUOUS
 62
     8
  5
535
 10
347.035232
 20
439.027554
 30
0.0
 40
28.0
  1
150
 51
15.0
  7
LC-TXTSTYLE-150-400-0-0-D0
 72
     1
 11
376.799011
 21
439.027554
 31
0.0
  0
ENDBLK
  8
0
  5
536
  0
BLOCK
  8
0
  5
538
  2
*D65
 70
    65
 10
0.0
 20
0.0
 30
0.0
  3
*D65
  0
LINE
  8
LC-014-003-MTH-0
  6
CONTINUOUS
  5
539
 10
277.200851
 20
322.754736
 30
0.0
 11
277.200851
 21
487.2
 31
0.0
  0
LINE
  8
LC-014-003-MTH-0
  6
CONTINUOUS
  5
53A
 10
467.700851
 20
323.754736
 30
0.0
 11
467.700851
 21
487.2
 31
0.0
  0
LINE
  8
LC-015-003-MTG-0
  6
CONTINUOUS
  5
53B
 10
277.200851
 20
470.4
 30
0.0
 11
467.700851
 21
470.4
 31
0.0
  0
LINE
  8
LC-013-003-----0
  6
CONTINUOUS
  5
53C
 10
304.961307
 20
474.054733
 30
0.0
 11
277.200851
 21
470.4
 31
0.0
  0
LINE
  8
LC-013-003-----0
  6
CONTINUOUS
  5
53D
 10
277.200851
 20
470.4
 30
0.0
 11
304.961307
 21
466.745267
 31
0.0
  0
LINE
  8
LC-013-003-----0
  6
CONTINUOUS
  5
53E
 10
304.961307
 20
466.745267
 30
0.0
 11
304.961307
 21
474.054733
 31
0.0
  0
LINE
  8
LC-013-003-----0
  6
CONTINUOUS
  5
53F
 10
305.023589
 20
473.104503
 30
0.0
 11
284.480851
 21
470.4
 31
0.0
  0
LINE
  8
LC-013-003-----0
  6
CONTINUOUS
  5
540
 10
284.480851
 20
470.4
 30
0.0
 11
305.023589
 21
467.695497
 31
0.0
  0
LINE
  8
LC-013-003-----0
  6
CONTINUOUS
  5
541
 10
305.08587
 20
472.154272
 30
0.0
 11
291.760851
 21
470.4
 31
0.0
  0
LINE
  8
LC-013-003-----0
  6
CONTINUOUS
  5
542
 10
291.760851
 20
470.4
 30
0.0
 11
305.08587
 21
468.645728
 31
0.0
  0
LINE
  8
LC-013-003-----0
  6
CONTINUOUS
  5
543
 10
305.148152
 20
471.204041
 30
0.0
 11
299.040851
 21
470.4
 31
0.0
  0
LINE
  8
LC-013-003-----0
  6
CONTINUOUS
  5
544
 10
299.040851
 20
470.4
 30
0.0
 11
305.148152
 21
469.595959
 31
0.0
  0
LINE
  8
LC-013-003-----0
  6
CONTINUOUS
  5
545
 10
439.940395
 20
466.745267
 30
0.0
 11
467.700851
 21
470.4
 31
0.0
  0
LINE
  8
LC-013-003-----0
  6
CONTINUOUS
  5
546
 10
467.700851
 20
470.4
 30
0.0
 11
439.940395
 21
474.054733
 31
0.0
  0
LINE
  8
LC-013-003-----0
  6
CONTINUOUS
  5
547
 10
439.940395
 20
474.054733
 30
0.0
 11
439.940395
 21
466.745267
 31
0.0
  0
LINE
  8
LC-013-003-----0
  6
CONTINUOUS
  5
548
 10
439.878114
 20
467.695497
 30
0.0
 11
460.420851
 21
470.4
 31
0.0
  0
LINE
  8
LC-013-003-----0
  6
CONTINUOUS
  5
549
 10
460.420851
 20
470.4
 30
0.0
 11
439.878114
 21
473.104503
 31
0.0
  0
LINE
  8
LC-013-003-----0
  6
CONTINUOUS
  5
54A
 10
439.815832
 20
468.645728
 30
0.0
 11
453.140851
 21
470.4
 31
0.0
  0
LINE
  8
LC-013-003-----0
  6
CONTINUOUS
  5
54B
 10
453.140851
 20
470.4
 30
0.0
 11
439.815832
 21
472.154272
 31
0.0
  0
LINE
  8
LC-013-003-----0
  6
CONTINUOUS
  5
54C
 10
439.753551
 20
469.595959
 30
0.0
 11
445.860851
 21
470.4
 31
0.0
  0
LINE
  8
LC-013-003-----0
  6
CONTINUOUS
  5
54D
 10
445.860851
 20
470.4
 30
0.0
 11
439.753551
 21
471.204041
 31
0.0
  0
TEXT
  8
LC-013-003-----0
  6
CONTINUOUS
 62
     8
  5
54E
 10
338.701373
 20
478.227554
 30
0.0
 40
28.0
  1
Ø190
 51
15.0
  7
LC-TXTSTYLE-150-400-0-0-D0
 72
     1
 11
376.799011
 21
478.227554
 31
0.0
  0
ENDBLK
  8
0
  5
54F
  0
BLOCK
  8
0
  5
551
  2
*D66
 70
    65
 10
0.0
 20
0.0
 30
0.0
  3
*D66
  0
LINE
  8
LC-014-003-MTH-0
  6
CONTINUOUS
  5
552
 10
170.594566
 20
265.944788
 30
0.0
 11
100.8
 21
265.944788
 31
0.0
  0
LINE
  8
LC-014-003-MTH-0
  6
CONTINUOUS
  5
553
 10
170.594566
 20
318.944788
 30
0.0
 11
100.8
 21
318.944788
 31
0.0
  0
LINE
  8
LC-013-003-----0
  6
CONTINUOUS
  5
554
 10
121.254733
 20
238.184332
 30
0.0
 11
117.6
 21
265.944788
 31
0.0
  0
LINE
  8
LC-013-003-----0
  6
CONTINUOUS
  5
555
 10
117.6
 20
265.944788
 30
0.0
 11
113.945267
 21
238.184332
 31
0.0
  0
LINE
  8
LC-013-003-----0
  6
CONTINUOUS
  5
556
 10
113.945267
 20
238.184332
 30
0.0
 11
121.254733
 21
238.184332
 31
0.0
  0
LINE
  8
LC-013-003-----0
  6
CONTINUOUS
  5
557
 10
120.304503
 20
238.12205
 30
0.0
 11
117.6
 21
258.664788
 31
0.0
  0
LINE
  8
LC-013-003-----0
  6
CONTINUOUS
  5
558
 10
117.6
 20
258.664788
 30
0.0
 11
114.895497
 21
238.12205
 31
0.0
  0
LINE
  8
LC-013-003-----0
  6
CONTINUOUS
  5
559
 10
119.354272
 20
238.059769
 30
0.0
 11
117.6
 21
251.384788
 31
0.0
  0
LINE
  8
LC-013-003-----0
  6
CONTINUOUS
  5
55A
 10
117.6
 20
251.384788
 30
0.0
 11
115.845728
 21
238.059769
 31
0.0
  0
LINE
  8
LC-013-003-----0
  6
CONTINUOUS
  5
55B
 10
118.404041
 20
237.997487
 30
0.0
 11
117.6
 21
244.104788
 31
0.0
  0
LINE
  8
LC-013-003-----0
  6
CONTINUOUS
  5
55C
 10
117.6
 20
244.104788
 30
0.0
 11
116.795959
 21
237.997487
 31
0.0
  0
LINE
  8
LC-013-003-----0
  6
CONTINUOUS
  5
55D
 10
113.945267
 20
346.705244
 30
0.0
 11
117.6
 21
318.944788
 31
0.0
  0
LINE
  8
LC-013-003-----0
  6
CONTINUOUS
  5
55E
 10
117.6
 20
318.944788
 30
0.0
 11
121.254733
 21
346.705244
 31
0.0
  0
LINE
  8
LC-013-003-----0
  6
CONTINUOUS
  5
55F
 10
121.254733
 20
346.705244
 30
0.0
 11
113.945267
 21
346.705244
 31
0.0
  0
LINE
  8
LC-013-003-----0
  6
CONTINUOUS
  5
560
 10
114.895497
 20
346.767525
 30
0.0
 11
117.6
 21
326.224788
 31
0.0
  0
LINE
  8
LC-013-003-----0
  6
CONTINUOUS
  5
561
 10
117.6
 20
326.224788
 30
0.0
 11
120.304503
 21
346.767525
 31
0.0
  0
LINE
  8
LC-013-003-----0
  6
CONTINUOUS
  5
562
 10
115.845728
 20
346.829807
 30
0.0
 11
117.6
 21
333.504788
 31
0.0
  0
LINE
  8
LC-013-003-----0
  6
CONTINUOUS
  5
563
 10
117.6
 20
333.504788
 30
0.0
 11
119.354272
 21
346.829807
 31
0.0
  0
LINE
  8
LC-013-003-----0
  6
CONTINUOUS
  5
564
 10
116.795959
 20
346.892088
 30
0.0
 11
117.6
 21
340.784788
 31
0.0
  0
LINE
  8
LC-013-003-----0
  6
CONTINUOUS
  5
565
 10
117.6
 20
340.784788
 30
0.0
 11
118.404041
 21
346.892088
 31
0.0
  0
LINE
  8
LC-015-003-MTG-0
  6
CONTINUOUS
  5
566
 10
117.6
 20
226.744788
 30
0.0
 11
117.6
 21
447.914888
 31
0.0
  0
TEXT
  8
LC-013-003-----0
  6
CONTINUOUS
 62
     8
  5
567
 10
109.772446
 20
361.372948
 30
0.0
 40
28.0
  1
DN50
 50
90.0
 51
15.0
  7
LC-TXTSTYLE-150-400-0-0-D0
  0
ENDBLK
  8
0
  5
568
  0
ENDSEC
  0
SECTION
  2
ENTITIES
  0
VIEWPORT
  8
LC-000
  5
893
 67
     1
 68
     1
 10
420.0
 20
297.0
 30
0.0
 40
840.0
 41
594.0
 69
     1
1001
ACAD
1000
MVIEW
1002
{
1070
    16
1010
0.0
1020
0.0
1030
0.0
1010
0.0
1020
0.0
1030
1.0
1040
0.0
1040
594.0
1040
420.0
1040
297.0
1040
50.0
1040
0.0
1040
0.0
1070
     0
1070
   100
1070
     1
1070
     1
1070
     0
1070
     0
1070
     0
1070
     0
1040
0.0
1040
0.0
1040
0.0
1040
1.0
1040
1.0
1040
0.0
1040
0.0
1070
     0
1002
{
1002
}
1002
}
  0
VIEWPORT
  8
0
  5
894
 67
     1
 68
     1
 10
0.0
 20
0.0
 30
0.0
 40
0.0
 41
0.0
 69
     1
1001
ACAD
1000
MVIEW
1002
{
1070
    16
1010
0.0
1020
0.0
1030
0.0
1010
0.0
1020
0.0
1030
1.0
1040
0.0
1040
594.0
1040
0.0
1040
0.0
1040
50.0
1040
0.0
1040
0.0
1070
     0
1070
   100
1070
     0
1070
     1
1070
     0
1070
     0
1070
     0
1070
     0
1040
0.0
1040
0.0
1040
0.0
1040
0.5
1040
0.5
1040
0.5
1040
0.5
1070
     0
1002
{
1002
}
1002
}
  0
INSERT
  8
0
  5
56A
  2
BLK1
 10
0.0
 20
0.0
 30
0.0
  0
INSERT
  8
0
  5
56B
  2
*X1
 10
178.594566
 20
316.944788
 30
0.0
  0
INSERT
  8
0
  5
56C
  2
*X2
 10
178.594566
 20
262.444788
 30
0.0
  0
INSERT
  8
0
  5
56D
  2
*X3
 10
372.069197
 20
317.335137
 30
0.0
  0
INSERT
  8
0
  5
56E
  2
*X4
 10
410.919197
 20
317.335137
 30
0.0
  0
INSERT
  8
0
  5
56F
  2
BLK2
 10
0.0
 20
0.0
 30
0.0
  0
INSERT
  8
0
  5
570
  2
*X6
 10
431.151623
 20
291.692069
 30
0.0
  0
INSERT
  8
0
  5
571
  2
*X7
 10
345.609197
 20
312.025137
 30
0.0
  0
INSERT
  8
0
  5
572
  2
*X8
 10
345.609197
 20
312.025137
 30
0.0
  0
INSERT
  8
0
  5
573
  2
*X9
 10
308.671497
 20
240.462768
 30
0.0
  0
INSERT
  8
0
  5
574
  2
*X10
 10
358.301022
 20
240.462768
 30
0.0
  0
INSERT
  8
0
  5
575
  2
*X11
 10
410.919197
 20
290.487914
 30
0.0
  0
INSERT
  8
0
  5
576
  2
*X12
 10
236.494566
 20
250.857085
 30
0.0
  0
INSERT
  8
0
  5
577
  2
*X13
 10
236.494566
 20
250.857085
 30
0.0
  0
INSERT
  8
0
  5
578
  2
*X14
 10
285.894566
 20
250.857085
 30
0.0
  0
INSERT
  8
0
  5
579
  2
*X15
 10
285.894566
 20
250.857085
 30
0.0
  0
INSERT
  8
0
  5
57A
  2
*X16
 10
300.92392
 20
218.491462
 30
0.0
  0
INSERT
  8
0
  5
57B
  2
*X17
 10
433.930876
 20
233.477368
 30
0.0
  0
INSERT
  8
0
  5
57D
  2
BLK3
 10
0.0
 20
0.0
 30
0.0
  0
INSERT
  8
0
  5
57E
  2
BLK4
 10
0.0
 20
0.0
 30
0.0
  0
INSERT
  8
0
  5
57F
  2
*X20
 10
441.950851
 20
310.195056
 30
0.0
  0
INSERT
  8
0
  5
580
  2
*X21
 10
280.700851
 20
310.195056
 30
0.0
  0
INSERT
  8
0
  5
581
  2
*X22
 10
478.34881
 20
230.177368
 30
0.0
  0
INSERT
  8
0
  5
582
  2
BLK5
 10
0.0
 20
0.0
 30
0.0
  0
INSERT
  8
0
  5
583
  2
*X24
 10
478.34881
 20
210.031912
 30
0.0
  0
INSERT
  8
0
  5
584
  2
*X25
 10
438.41881
 20
229.977368
 30
0.0
  0
INSERT
  8
0
  5
585
  2
*X26
 10
438.41881
 20
229.977368
 30
0.0
  0
INSERT
  8
0
  5
586
  2
BLK6
 10
0.0
 20
0.0
 30
0.0
  0
INSERT
  8
0
  5
587
  2
BLK7
 10
0.0
 20
0.0
 30
0.0
  0
INSERT
  8
0
  5
588
  2
BLK8
 10
0.0
 20
0.0
 30
0.0
  0
INSERT
  8
0
  5
589
  2
*X30
 10
477.764969
 20
287.969608
 30
0.0
  0
INSERT
  8
0
  5
58A
  2
*X31
 10
477.764969
 20
233.985128
 30
0.0
  0
INSERT
  8
0
  5
58B
  2
*X32
 10
517.697674
 20
287.977708
 30
0.0
  0
INSERT
  8
0
  5
58C
  2
*X33
 10
517.697674
 20
233.977028
 30
0.0
  0
INSERT
  8
0
  5
58D
  2
BLK9
 10
0.0
 20
0.0
 30
0.0
  0
INSERT
  8
0
  5
58E
  2
*X35
 10
168.594566
 20
261.444788
 30
0.0
  0
INSERT
  8
0
  5
58F
  2
*X36
 10
170.594566
 20
215.194788
 30
0.0
  0
INSERT
  8
0
  5
590
  2
*X37
 10
234.139704
 20
219.846667
 30
0.0
  0
INSERT
  8
0
  5
591
  2
*X38
 10
283.594566
 20
239.836332
 30
0.0
  0
INSERT
  8
0
  5
592
  2
BLK10
 10
0.0
 20
0.0
 30
0.0
  0
DIMENSION
  8
0
  5
593
  2
*D40
 10
156.8
 20
312.809761
 30
0.0
 11
156.8
 21
312.809761
 31
0.0
  1
40
 13
221.450851
 23
333.174735
 33
0.0
 14
170.594566
 24
292.444788
 34
0.0
 50
90.0
  3
LC-DIM-L-0140-02-02
  0
DIMENSION
  8
0
  5
594
  2
*D41
 10
39.2
 20
277.510701
 30
0.0
 11
39.2
 21
277.510701
 31
0.0
  1
110
 13
221.450851
 23
333.174735
 33
0.0
 14
248.594566
 24
221.846667
 34
0.0
 50
90.0
  3
LC-DIM-L-0140-02-02
  0
DIMENSION
  8
0
  5
595
  2
*D42
 10
372.450851
 20
509.6
 30
0.0
 11
372.450851
 21
509.6
 31
0.0
  1
%%c300
 13
221.450851
 23
336.181933
 33
0.0
 14
523.450851
 24
336.181933
 34
0.0
  3
LC-DIM-L-0140-02-02
  0
DIMENSION
  8
0
  5
596
  2
*D43
 10
271.522709
 20
156.8
 30
0.0
 11
271.522709
 21
156.8
 31
0.0
  1
200
 13
372.450851
 23
221.491462
 33
0.0
 14
170.594566
 24
261.444788
 34
0.0
  3
LC-DIM-L-0140-02-02
  0
DIMENSION
  8
0
  5
597
  2
*D44
 10
388.871845
 20
117.6
 30
0.0
 11
388.871845
 21
117.6
 31
0.0
  1
435
 13
170.594566
 23
261.444788
 33
0.0
 14
607.149123
 24
245.348263
 34
0.0
  3
LC-DIM-L-0140-02-02
  0
DIMENSION
  8
0
  5
598
  2
*D45
 10
627.2
 20
303.534
 30
0.0
 11
627.2
 21
303.534
 31
0.0
  1
70
 13
523.450851
 23
333.174735
 33
0.0
 14
530.22528
 24
263.077368
 34
0.0
 50
90.0
  3
LC-DIM-L-0140-02-02
  0
INSERT
  8
0
  5
599
  2
BLK11
 10
0.0
 20
0.0
 30
0.0
  0
DIMENSION
  8
0
  5
59A
  2
*D47
 10
392.0
 20
265.475341
 30
0.0
 11
392.0
 21
265.475341
 31
0.0
  1
50
 13
414.950851
 23
290.487914
 33
0.0
 14
360.312158
 24
240.462768
 34
0.0
 50
90.0
  3
LC-DIM-L-0140-02-02
  0
DIMENSION
  8
0
  5
59B
  2
*D48
 10
723.058869
 20
275.177724
 30
0.0
 11
723.058869
 21
275.177724
 31
0.0
 70
     1
  1
DN70
 13
613.139491
 23
282.669534
 33
0.0
 14
593.676299
 24
210.031912
 34
0.0
  3
LC-DIM-L-0140-02-02
  0
DIMENSION
  8
0
  5
59C
  2
*D49
 10
701.022022
 20
344.392258
 30
0.0
 11
701.022022
 21
344.392258
 31
0.0
 70
     1
  1
DN50
 13
610.071556
 23
270.498868
 33
0.0
 14
597.104722
 24
222.105984
 34
0.0
  3
LC-DIM-L-0140-02-02
  0
DIMENSION
  8
0
  5
59D
  2
*D50
 10
707.423785
 20
159.545679
 30
0.0
 11
670.659904
 21
108.200775
 31
0.0
 70
   133
 13
570.859366
 23
174.252234
 33
0.0
 14
528.947674
 24
262.977368
 34
0.0
 15
508.733358
 25
262.977368
 35
0.0
  3
LC-DIM-W-0140-02-02
  0
INSERT
  8
0
  5
59E
  2
*X51
 10
298.450851
 20
313.195056
 30
0.0
  0
INSERT
  8
0
  5
59F
  2
*X52
 10
442.250851
 20
313.195056
 30
0.0
  0
INSERT
  8
0
  5
5A0
  2
BLK12
 10
0.0
 20
0.0
 30
0.0
  0
INSERT
  8
0
  5
5A1
  2
BLK13
 10
0.0
 20
0.0
 30
0.0
  0
INSERT
  8
0
  5
5A2
  2
BLK14
 10
0.0
 20
0.0
 30
0.0
  0
INSERT
  8
0
  5
5A3
  2
BLK15
 10
0.0
 20
0.0
 30
0.0
  0
INSERT
  8
0
  5
5A4
  2
BLK16
 10
0.0
 20
0.0
 30
0.0
  0
INSERT
  8
0
  5
5A5
  2
*X58
 10
431.950851
 20
393.295056
 30
0.0
  0
INSERT
  8
0
  5
5A6
  2
*X59
 10
399.950851
 20
396.795056
 30
0.0
  0
INSERT
  8
0
  5
5A7
  2
*X60
 10
351.950851
 20
396.795056
 30
0.0
  0
INSERT
  8
0
  5
5A8
  2
*X61
 10
319.950851
 20
396.795056
 30
0.0
  0
INSERT
  8
0
  5
5A9
  2
*X62
 10
303.450851
 20
393.295056
 30
0.0
  0
DIMENSION
  8
0
  5
5AA
  2
*D63
 10
504.0
 20
369.688495
 30
0.0
 11
504.0
 21
369.688495
 31
0.0
  1
9-67
 13
523.450851
 23
336.181933
 33
0.0
 14
446.450851
 24
403.195056
 34
0.0
 50
90.0
  3
LC-DIM-L-0140-02-02
  0
DIMENSION
  8
0
  5
5AB
  2
*D64
 10
372.450851
 20
431.2
 30
0.0
 11
372.450851
 21
431.2
 31
0.0
  1
150
 13
298.450851
 23
403.195056
 33
0.0
 14
446.450851
 24
403.195056
 34
0.0
  3
LC-DIM-L-0140-02-02
  0
DIMENSION
  8
0
  5
5AC
  2
*D65
 10
372.450851
 20
470.4
 30
0.0
 11
372.450851
 21
470.4
 31
0.0
  1
%%c190
 13
277.200851
 23
322.754736
 33
0.0
 14
467.700851
 24
323.754736
 34
0.0
  3
LC-DIM-L-0140-02-02
  0
DIMENSION
  8
0
  5
5AD
  2
*D66
 10
117.6
 20
292.444788
 30
0.0
 11
117.6
 21
292.444788
 31
0.0
  1
DN50
 13
170.594566
 23
318.944788
 33
0.0
 14
170.594566
 24
265.944788
 34
0.0
 50
90.0
  3
LC-DIM-L-0140-02-02
  0
LINE
  8
LC-001-205-----0
  6
CONTINUOUS
  5
5AF
 10
315.771497
 20
300.49223
 30
0.0
 11
364.644571
 21
300.49223
 31
0.0
  0
LINE
  8
LC-001-205-----0
  6
CONTINUOUS
  5
5B0
 10
308.671497
 20
300.49223
 30
0.0
 11
315.771497
 21
300.49223
 31
0.0
  0
LINE
  8
LC-001-205-----0
  6
CONTINUOUS
  5
5B1
 10
315.771519
 20
292.992237
 30
0.0
 11
315.771497
 21
300.486962
 31
0.0
  0
LINE
  8
LC-001-205-----0
  6
CONTINUOUS
  5
5B2
 10
311.471321
 20
240.462768
 30
0.0
 11
332.450851
 21
240.462768
 31
0.0
  0
LINE
  8
LC-001-205-----0
  6
CONTINUOUS
  5
5B3
 10
312.471313
 20
240.462768
 30
0.0
 11
312.471323
 21
254.79784
 31
0.0
  0
LINE
  8
LC-001-205-----0
  6
CONTINUOUS
  5
5B4
 10
312.471331
 20
254.79784
 30
0.0
 11
312.471354
 21
289.99223
 31
0.0
  0
LINE
  8
LC-003-002-----0
  6
CONTINUOUS
  5
5B6
 10
365.998578
 20
313.305296
 30
0.0
 11
358.301022
 21
240.462768
 31
0.0
  0
LINE
  8
LC-003-002-----0
  6
CONTINUOUS
  5
5B7
 10
367.973661
 20
312.832396
 30
0.0
 11
367.973661
 21
289.652148
 31
0.0
  0
ARC
  8
LC-004-205-RND-0
  6
CONTINUOUS
  5
5B9
 10
370.473661
 20
312.832396
 30
0.0
 40
2.5
 50
92.0
 51
180.0
  0
ARC
  8
LC-004-205-RND-0
  6
CONTINUOUS
  5
5BA
 10
370.473661
 20
312.832396
 30
0.0
 40
4.5
 50
88.0
 51
173.967717
  0
LINE
  8
LC-003-002-----0
  6
CONTINUOUS
  5
5BB
 10
410.919197
 20
315.329047
 30
0.0
 11
422.171367
 21
315.329047
 31
0.0
  0
LINE
  8
LC-003-002-----0
  6
DASHDOT
 62
     2
  5
5BD
 10
393.569197
 20
321.461665
 30
0.0
 11
393.569197
 21
312.025137
 31
0.0
  0
ARC
  8
LC-005-002-RND-0
  6
CONTINUOUS
  5
5BF
 10
422.171367
 20
308.329047
 30
0.0
 40
7.0
 50
359.999987
 51
90.0
  0
LINE
  8
LC-003-002-----0
  6
CONTINUOUS
  5
5C0
 10
370.630709
 20
317.335137
 30
0.0
 11
376.019197
 21
317.335137
 31
0.0
  0
LINE
  8
LC-003-002-----0
  6
CONTINUOUS
  5
5C1
 10
376.019197
 20
317.335137
 30
0.0
 11
376.219197
 21
317.335137
 31
0.0
  0
LINE
  8
LC-001-205-----0
  6
CONTINUOUS
  5
5C2
 10
429.171364
 20
294.58664
 30
0.0
 11
429.171367
 21
308.329046
 31
0.0
  0
LINE
  8
LC-003-002-----0
  6
CONTINUOUS
  5
5C3
 10
436.271667
 20
300.492155
 30
0.0
 11
436.271667
 21
299.792145
 31
0.0
  0
ARC
  8
LC-005-002-RND-0
  6
CONTINUOUS
  5
5C4
 10
422.797767
 20
308.335137
 30
0.0
 40
9.0
 50
5.652944
 51
90.0
  0
LINE
  8
LC-001-205-----0
  6
CONTINUOUS
  5
5C5
 10
431.753998
 20
309.22166
 30
0.0
 11
432.618071
 21
300.49223
 31
0.0
  0
ARC
  8
LC-001-205-----0
  6
CONTINUOUS
  5
5C6
 10
431.671635
 20
292.992146
 30
0.0
 40
2.5
 50
179.999761
 51
270.0
  0
ARC
  8
LC-001-205-----0
  6
CONTINUOUS
  5
5C7
 10
435.771655
 20
291.192147
 30
0.0
 40
0.5
 50
359.999925
 51
89.999925
  0
LINE
  8
LC-001-205-----0
  6
CONTINUOUS
  5
5C8
 10
429.171635
 20
292.992157
 30
0.0
 11
429.171667
 21
300.486887
 31
0.0
  0
ARC
  8
LC-001-205-----0
  6
CONTINUOUS
  5
5C9
 10
431.671632
 20
292.192152
 30
0.0
 40
0.5
 50
179.999761
 51
269.999925
  0
LINE
  8
LC-001-205-----0
  6
CONTINUOUS
  5
5CA
 10
435.771655
 20
291.692147
 30
0.0
 11
431.671631
 21
291.692152
 31
0.0
  0
ARC
  8
LC-001-205-----0
  6
CONTINUOUS
  5
5CB
 10
431.67166
 20
298.792152
 30
0.0
 40
0.5
 50
89.999925
 51
179.999761
  0
ARC
  8
LC-001-205-----0
  6
CONTINUOUS
  5
5CC
 10
435.771664
 20
299.792147
 30
0.0
 40
0.5
 50
269.999925
 51
359.999761
  0
LINE
  8
LC-001-205-----0
  6
CONTINUOUS
  5
5CD
 10
435.771663
 20
299.292147
 30
0.0
 11
431.67166
 21
299.292152
 31
0.0
  0
LINE
  8
LC-001-205-----0
  6
CONTINUOUS
  5
5CE
 10
432.618071
 20
300.492155
 30
0.0
 11
436.271667
 21
300.492155
 31
0.0
  0
LINE
  8
LC-003-002-----0
  6
CONTINUOUS
  5
5CF
 10
370.456318
 20
315.329047
 30
0.0
 11
376.219197
 21
315.329047
 31
0.0
  0
LINE
  8
LC-003-002-----0
  6
CONTINUOUS
  5
5D0
 10
376.219197
 20
315.329047
 30
0.0
 11
373.669197
 21
315.329047
 31
0.0
  0
ARC
  8
LC-001-205-----0
  6
CONTINUOUS
  5
5D1
 10
313.271519
 20
292.99223
 30
0.0
 40
2.5
 50
270.0
 51
0.000164
  0
ARC
  8
LC-001-205-----0
  6
CONTINUOUS
  5
5D2
 10
313.271521
 20
292.19223
 30
0.0
 40
0.5
 50
270.0
 51
0.000164
  0
ARC
  8
LC-001-205-----0
  6
CONTINUOUS
  5
5D3
 10
312.971354
 20
289.99223
 30
0.0
 40
0.5
 50
90.0
 51
179.999963
  0
LINE
  8
LC-001-205-----0
  6
CONTINUOUS
  5
5D4
 10
312.971354
 20
290.49223
 30
0.0
 11
313.271519
 21
290.49223
 31
0.0
  0
LINE
  8
LC-001-205-----0
  6
CONTINUOUS
  5
5D5
 10
309.171497
 20
291.69223
 30
0.0
 11
313.271521
 21
291.69223
 31
0.0
  0
ARC
  8
LC-001-205-----0
  6
CONTINUOUS
  5
5D6
 10
313.271502
 20
298.79223
 30
0.0
 40
0.5
 50
0.000164
 51
90.0
  0
LINE
  8
LC-001-205-----0
  6
CONTINUOUS
  5
5D7
 10
309.171499
 20
299.29223
 30
0.0
 11
313.271502
 21
299.29223
 31
0.0
  0
ARC
  8
LC-001-205-----0
  6
CONTINUOUS
  5
5D8
 10
309.171497
 20
291.19223
 30
0.0
 40
0.5
 50
90.0
 51
180.0
  0
ARC
  8
LC-001-205-----0
  6
CONTINUOUS
  5
5D9
 10
309.171499
 20
299.79223
 30
0.0
 40
0.5
 50
180.000164
 51
270.0
  0
LINE
  8
LC-001-205-----0
  6
CONTINUOUS
  5
5DA
 10
311.471321
 20
240.462768
 30
0.0
 11
311.471354
 21
289.992229
 31
0.0
  0
ARC
  8
LC-001-205-----0
  6
CONTINUOUS
  5
5DB
 10
310.971354
 20
289.99223
 30
0.0
 40
0.5
 50
359.999963
 51
85.018931
  0
LINE
  8
LC-001-205-----0
  6
CONTINUOUS
  5
5DC
 10
308.671497
 20
290.487914
 30
0.0
 11
308.671497
 21
291.19223
 31
0.0
  0
LINE
  8
LC-001-205-----0
  6
CONTINUOUS
  5
5DD
 10
308.671499
 20
299.792228
 30
0.0
 11
308.671497
 21
300.486962
 31
0.0
  0
LINE
  8
LC-003-002-----0
  6
CONTINUOUS
  5
5DE
 10
365.510193
 20
289.652148
 30
0.0
 11
360.312158
 21
240.462768
 31
0.0
  0
LINE
  8
LC-001-205-----0
  6
CONTINUOUS
  5
5DF
 10
436.271654
 20
290.492146
 30
0.0
 11
436.271655
 21
291.192146
 31
0.0
  0
LINE
  8
LC-003-002-----0
  6
CONTINUOUS
  5
5E0
 10
365.510193
 20
289.652148
 30
0.0
 11
367.973661
 21
289.652148
 31
0.0
  0
LINE
  8
LC-003-002-----0
  6
CONTINUOUS
  5
5E1
 10
181.344566
 20
267.944788
 30
0.0
 11
184.344566
 21
267.944788
 31
0.0
  0
LINE
  8
LC-003-002-----0
  6
CONTINUOUS
  5
5E2
 10
372.069197
 20
321.525137
 30
0.0
 11
415.069197
 21
321.525137
 31
0.0
  0
LINE
  8
LC-003-002-----0
  6
CONTINUOUS
  5
5E3
 10
372.069197
 20
321.525137
 30
0.0
 11
372.069197
 21
317.332396
 31
0.0
  0
LINE
  8
LC-003-002-----0
  6
CONTINUOUS
  5
5E4
 10
415.069197
 20
321.525137
 30
0.0
 11
415.069197
 21
317.335137
 31
0.0
  0
LINE
  8
LC-003-002-----0
  6
CONTINUOUS
  5
5E5
 10
410.919197
 20
318.525137
 30
0.0
 11
410.919197
 21
315.325137
 31
0.0
  0
LINE
  8
LC-003-002-----0
  6
CONTINUOUS
  5
5E6
 10
376.219197
 20
318.525137
 30
0.0
 11
376.219197
 21
315.325137
 31
0.0
  0
LINE
  8
LC-003-002-----0
  6
CONTINUOUS
  5
5E7
 10
413.469197
 20
315.325137
 30
0.0
 11
413.469197
 21
312.025137
 31
0.0
  0
LINE
  8
LC-003-002-----0
  6
CONTINUOUS
  5
5E8
 10
413.469197
 20
312.025137
 30
0.0
 11
373.669197
 21
312.025137
 31
0.0
  0
LINE
  8
LC-003-002-----0
  6
CONTINUOUS
  5
5E9
 10
373.669197
 20
315.325137
 30
0.0
 11
373.669197
 21
312.025137
 31
0.0
  0
LINE
  8
LC-003-002-----0
  6
CONTINUOUS
  5
5EA
 10
372.069197
 20
318.525137
 30
0.0
 11
376.219197
 21
318.525137
 31
0.0
  0
LINE
  8
LC-003-002-----0
  6
CONTINUOUS
  5
5EB
 10
410.919197
 20
318.525137
 30
0.0
 11
415.069197
 21
318.525137
 31
0.0
  0
ARC
  8
LC-003-002-----0
  6
CONTINUOUS
  5
5EC
 10
181.344566
 20
319.694788
 30
0.0
 40
2.75
 50
90.0
 51
270.0
  0
ARC
  8
LC-003-002-----0
  6
CONTINUOUS
  5
5ED
 10
184.344566
 20
319.694788
 30
0.0
 40
2.75
 50
270.0
 51
90.0
  0
LINE
  8
LC-003-002-----0
  6
CONTINUOUS
  5
5EE
 10
181.344566
 20
316.944788
 30
0.0
 11
184.344566
 21
316.944788
 31
0.0
  0
ARC
  8
LC-003-002-----0
  6
CONTINUOUS
  5
5EF
 10
181.344566
 20
265.194788
 30
0.0
 40
2.75
 50
90.0
 51
270.0
  0
ARC
  8
LC-003-002-----0
  6
CONTINUOUS
  5
5F0
 10
184.344566
 20
265.194788
 30
0.0
 40
2.75
 50
270.0
 51
90.0
  0
LINE
  8
LC-001-205-----0
  6
CONTINUOUS
  5
5F1
 10
313.771521
 20
292.192231
 30
0.0
 11
313.771514
 21
294.44223
 31
0.0
  0
LINE
  8
LC-003-002-----0
  6
CONTINUOUS
  5
5F2
 10
410.919197
 20
317.335137
 30
0.0
 11
422.797767
 21
317.335137
 31
0.0
  0
ARC
  8
LC-005-002-RND-0
  6
DASHDOT
 62
     2
  5
5F3
 10
233.594566
 20
262.444788
 30
0.0
 40
30.0
 50
0.0
 51
90.0
  0
ARC
  8
LC-003-002-----0
  6
CONTINUOUS
  5
5F4
 10
311.021848
 20
296.54223
 30
0.0
 40
2.75
 50
0.000164
 51
176.699173
  0
ARC
  8
LC-003-002-----0
  6
CONTINUOUS
  5
5F5
 10
311.021848
 20
294.44223
 30
0.0
 40
2.75
 50
180.0
 51
0.0
  0
LINE
  8
LC-001-205-----0
  6
CONTINUOUS
  5
5F6
 10
313.771508
 20
296.542237
 30
0.0
 11
313.771502
 21
298.792231
 31
0.0
  0
LINE
  8
LC-003-002-----0
  6
CONTINUOUS
  5
5F7
 10
313.771848
 20
296.542237
 30
0.0
 11
313.771848
 21
294.44223
 31
0.0
  0
LINE
  8
LC-006-005-----0
  6
CONTINUOUS
  5
5F8
 10
308.328062
 20
293.889041
 30
0.0
 11
310.468659
 21
291.748444
 31
0.0
  0
LINE
  8
LC-006-005-----0
  6
CONTINUOUS
  5
5F9
 10
308.271848
 20
295.359468
 30
0.0
 11
311.820547
 21
291.81077
 31
0.0
  0
LINE
  8
LC-006-005-----0
  6
CONTINUOUS
  5
5FA
 10
308.280859
 20
296.764671
 30
0.0
 11
312.745824
 21
292.299706
 31
0.0
  0
LINE
  8
LC-006-005-----0
  6
CONTINUOUS
  5
5FB
 10
308.605181
 20
297.854563
 30
0.0
 11
313.399419
 21
293.060325
 31
0.0
  0
LINE
  8
LC-006-005-----0
  6
CONTINUOUS
  5
5FC
 10
309.238427
 20
298.63553
 30
0.0
 11
313.753016
 21
294.120942
 31
0.0
  0
LINE
  8
LC-006-005-----0
  6
CONTINUOUS
  5
5FD
 10
310.140873
 20
299.147298
 30
0.0
 11
313.771848
 21
295.516323
 31
0.0
  0
LINE
  8
LC-006-005-----0
  6
CONTINUOUS
  5
5FE
 10
311.442521
 20
299.259864
 30
0.0
 11
313.739482
 21
296.962902
 31
0.0
  0
ARC
  8
LC-003-002-----0
  6
CONTINUOUS
  5
5FF
 10
433.901623
 20
296.542069
 30
0.0
 40
2.75
 50
352.068577
 51
179.999761
  0
LINE
  8
LC-003-002-----0
  6
CONTINUOUS
  5
600
 10
408.919197
 20
319.413845
 30
0.0
 11
408.919197
 21
312.025137
 31
0.0
  0
LINE
  8
LC-003-002-----0
  6
CONTINUOUS
  5
601
 10
378.219197
 20
319.413845
 30
0.0
 11
378.219197
 21
312.025137
 31
0.0
  0
ARC
  8
LC-003-002-----0
  6
CONTINUOUS
  5
602
 10
393.569197
 20
364.851045
 30
0.0
 40
45.964734
 50
250.491197
 51
289.440613
  0
ARC
  8
LC-003-002-----0
  6
CONTINUOUS
  5
603
 10
393.569197
 20
364.851045
 30
0.0
 40
47.96
 50
251.333544
 51
288.666456
  0
LINE
  8
LC-003-002-----0
  6
CONTINUOUS
  5
604
 10
431.17166
 20
298.792154
 30
0.0
 11
431.17166
 21
292.192154
 31
0.0
  0
ARC
  8
LC-003-002-----0
  6
CONTINUOUS
  5
605
 10
433.901632
 20
294.442149
 30
0.0
 40
2.75
 50
180.0
 51
0.0
  0
ARC
  8
LC-007-209-----0
  5
607
 10
471.444671
 20
263.240209
 30
0.0
 40
33.0
 50
28.721796
 51
65.538402
  0
ARC
  8
LC-003-002-----0
  6
DASHED
 62
     2
  5
608
 10
471.410469
 20
263.146239
 30
0.0
 40
29.5
 50
28.811089
 51
82.996787
  0
LINE
  8
LC-003-002-----0
  6
DASHED
 62
     2
  5
609
 10
496.045873
 20
279.392493
 30
0.0
 11
479.770989
 21
234.677616
 31
0.0
  0
LINE
  8
LC-003-002-----0
  6
DASHED
 62
     2
  5
60A
 10
482.004667
 20
235.452685
 30
0.0
 11
497.258765
 21
277.362975
 31
0.0
  0
ARC
  8
LC-007-209-----0
  5
60B
 10
471.307863
 20
262.864332
 30
0.0
 40
33.0
 50
254.461598
 51
291.278204
  0
LINE
  8
LC-003-002-----0
  6
DASHED
 62
     2
  5
60C
 10
452.670036
 20
234.636497
 30
0.0
 11
462.467685
 21
231.070445
 31
0.0
  0
LINE
  8
LC-003-002-----0
  6
DASHED
 62
     2
  5
60D
 10
452.670036
 20
234.636497
 30
0.0
 11
453.792316
 21
237.719937
 31
0.0
  0
LINE
  8
LC-008-208-----0
  5
60F
 10
517.808667
 20
222.421094
 30
0.0
 11
482.004667
 21
235.452685
 31
0.0
  0
LINE
  8
LC-008-208-----0
  5
610
 10
533.062765
 20
264.331385
 30
0.0
 11
497.258765
 21
277.362975
 31
0.0
  0
LINE
  8
LC-008-208-----0
  5
611
 10
500.384464
 20
279.098594
 30
0.0
 11
502.732679
 21
278.243914
 31
0.0
  0
ARC
  8
LC-003-002-----0
  6
DASHED
 62
     2
  5
612
 10
508.898194
 20
249.395406
 30
0.0
 40
29.5
 50
62.1854
 51
102.063786
  0
ARC
  8
LC-003-002-----0
  6
DASHED
 62
     2
  5
613
 10
508.868117
 20
249.412771
 30
0.0
 40
29.5
 50
10.217104
 51
63.4332
  0
ARC
  8
LC-007-209-----0
  5
614
 10
508.932396
 20
249.489375
 30
0.0
 40
33.0
 50
8.985433
 51
45.538402
  0
LINE
  8
LC-003-002-----0
  6
DASHED
 62
     2
  5
615
 10
524.059504
 20
279.744124
 30
0.0
 11
532.04662
 21
273.042137
 31
0.0
  0
LINE
  8
LC-003-002-----0
  6
DASHED
 62
     2
  5
616
 10
524.059504
 20
279.744124
 30
0.0
 11
521.950306
 21
277.230481
 31
0.0
  0
ARC
  8
LC-005-002-RND-0
  6
DASHED
 62
     2
  5
617
 10
522.716351
 20
276.587693
 30
0.0
 40
1.0
 50
140.0
 51
242.996787
  0
LINE
  8
LC-003-002-----0
  6
DASHED
 62
     2
  5
618
 10
481.635521
 20
229.185191
 30
0.0
 11
489.622638
 21
222.483204
 31
0.0
  0
LINE
  8
LC-003-002-----0
  6
DASHED
 62
     2
  5
619
 10
481.635521
 20
229.185191
 30
0.0
 11
483.744719
 21
231.698834
 31
0.0
  0
ARC
  8
LC-005-002-RND-0
  6
DASHED
 62
     2
  5
61A
 10
484.510763
 20
231.056047
 30
0.0
 40
1.0
 50
37.003213
 51
140.0
  0
ARC
  8
LC-007-209-----0
  5
61B
 10
508.803838
 20
249.336166
 30
0.0
 40
33.0
 50
234.461598
 51
271.014567
  0
LINE
  8
LC-007-209-----0
  5
61C
 10
510.919772
 20
215.056045
 30
0.0
 11
509.388021
 21
216.341337
 31
0.0
  0
LINE
  8
LC-007-209-----0
  5
61D
 10
507.996326
 20
198.476359
 30
0.0
 11
510.919772
 21
215.056045
 31
0.0
  0
LINE
  8
LC-003-002-----0
  6
DASHED
 62
     2
  5
61E
 10
507.996326
 20
198.476359
 30
0.0
 11
537.83767
 21
155.858504
 31
0.0
  0
LINE
  8
LC-007-209-----0
  5
61F
 10
541.697553
 20
153.832913
 30
0.0
 11
511.042348
 21
199.281124
 31
0.0
  0
LINE
  8
LC-007-209-----0
  5
620
 10
511.058448
 20
199.257255
 30
0.0
 11
513.41444
 21
212.618749
 31
0.0
  0
LINE
  8
LC-003-002-----0
  6
DASHED
 62
     2
  5
621
 10
513.41444
 20
212.618749
 30
0.0
 11
548.225059
 21
162.904032
 31
0.0
  0
LINE
  8
LC-007-209-----0
  5
622
 10
551.856281
 20
160.946131
 30
0.0
 11
516.420269
 21
213.482179
 31
0.0
  0
LINE
  8
LC-003-002-----0
  6
DASHED
 62
     2
  5
623
 10
546.150417
 20
247.722789
 30
0.0
 11
516.420269
 21
213.482179
 31
0.0
  0
LINE
  8
LC-003-002-----0
  6
DASHED
 62
     2
  5
624
 10
537.900327
 20
254.645437
 30
0.0
 11
508.756336
 21
219.912982
 31
0.0
  0
LINE
  8
LC-003-002-----0
  6
DASHED
 62
     2
  5
625
 10
533.533219
 20
265.623946
 30
0.0
 11
517.348984
 21
221.158127
 31
0.0
  0
LINE
  8
LC-007-209-----0
  5
626
 10
553.726006
 20
244.407714
 30
0.0
 11
541.438909
 21
254.717813
 31
0.0
  0
LINE
  8
LC-007-209-----0
  5
627
 10
569.59656
 20
241.609307
 30
0.0
 11
553.726006
 21
244.407714
 31
0.0
  0
LINE
  8
LC-007-209-----0
  5
628
 10
567.815451
 20
238.998936
 30
0.0
 11
554.453957
 21
241.354928
 31
0.0
  0
LINE
  8
LC-003-002-----0
  6
DASHED
 62
     2
  5
629
 10
554.453957
 20
241.354928
 30
0.0
 11
589.264576
 21
191.640212
 31
0.0
  0
LINE
  8
LC-007-209-----0
  5
62A
 10
589.86245
 20
187.558337
 30
0.0
 11
546.150417
 21
247.722789
 31
0.0
  0
LINE
  8
LC-003-002-----0
  6
DASHED
 62
     2
  5
62B
 10
569.59656
 20
241.609307
 30
0.0
 11
599.437903
 21
198.991452
 31
0.0
  0
LINE
  8
LC-007-209-----0
  5
62C
 10
600.021178
 20
194.671555
 30
0.0
 11
567.815451
 21
238.998936
 31
0.0
  0
LINE
  8
LC-007-209-----0
  5
62D
 10
599.437903
 20
198.991452
 30
0.0
 11
600.809348
 21
195.223438
 31
0.0
  0
LINE
  8
LC-007-209-----0
  5
62E
 10
589.264576
 20
191.640212
 30
0.0
 11
590.569948
 21
188.053732
 31
0.0
  0
LINE
  8
LC-007-209-----0
  5
62F
 10
537.83767
 20
155.858504
 30
0.0
 11
540.909383
 21
153.28103
 31
0.0
  0
LINE
  8
LC-007-209-----0
  5
630
 10
548.225059
 20
162.904032
 30
0.0
 11
551.148784
 21
160.450736
 31
0.0
  0
LINE
  8
LC-007-209-----0
  5
631
 10
540.96218
 20
153.318
 30
0.0
 11
600.809348
 21
195.223438
 31
0.0
  0
LINE
  8
LC-007-209-----0
  6
DASHDOT
  5
632
 10
531.56938
 20
230.364149
 30
0.0
 11
570.859366
 21
174.252234
 31
0.0
  0
LINE
  8
LC-007-209-----0
  6
DASHDOT
  5
633
 10
499.201786
 20
252.92461
 30
0.0
 11
536.745415
 21
239.259846
 31
0.0
  0
LINE
  8
LC-003-002-----0
  6
DASHDOT
 62
     2
  5
634
 10
499.201786
 20
252.92461
 30
0.0
 11
471.392837
 21
263.046239
 31
0.0
  0
LINE
  8
LC-003-002-----0
  6
DASHED
 62
     2
  5
635
 10
475.311769
 20
296.844149
 30
0.0
 11
474.189489
 21
293.760709
 31
0.0
  0
ARC
  8
LC-005-002-RND-0
  6
DASHED
 62
     2
  5
636
 10
475.129182
 20
293.418688
 30
0.0
 40
1.0
 50
160.0
 51
262.996787
  0
LINE
  8
LC-003-002-----0
  6
DASHED
 62
     2
  5
637
 10
475.311769
 20
296.844149
 30
0.0
 11
485.109419
 21
293.278096
 31
0.0
  0
LINE
  8
LC-003-002-----0
  6
DASHED
 62
     2
  5
638
 10
537.900327
 20
254.645437
 30
0.0
 11
546.150417
 21
247.722789
 31
0.0
  0
LINE
  8
LC-003-002-----0
  6
DASHED
 62
     2
  5
639
 10
508.868117
 20
219.912771
 30
0.0
 11
516.420269
 21
213.482179
 31
0.0
  0
ARC
  8
LC-003-002-----0
  6
CONTINUOUS
  5
63A
 10
238.894566
 20
255.557085
 30
0.0
 40
2.4
 50
0.0
 51
176.454881
  0
ARC
  8
LC-003-002-----0
  6
CONTINUOUS
  5
63B
 10
238.894566
 20
253.257085
 30
0.0
 40
2.4
 50
180.0
 51
0.0
  0
ARC
  8
LC-003-002-----0
  6
CONTINUOUS
  5
63C
 10
288.294566
 20
255.557085
 30
0.0
 40
2.4
 50
3.545119
 51
180.0
  0
ARC
  8
LC-003-002-----0
  6
CONTINUOUS
  5
63D
 10
288.294566
 20
253.257085
 30
0.0
 40
2.4
 50
180.0
 51
360.0
  0
ARC
  8
LC-003-002-----0
  6
DASHED
 62
     2
  5
63E
 10
508.868117
 20
249.412771
 30
0.0
 40
29.5
 50
236.634136
 51
286.707567
  0
LINE
  8
LC-008-208-----0
  5
63F
 10
483.283457
 20
232.113963
 30
0.0
 11
485.631672
 21
231.259283
 31
0.0
  0
ARC
  8
LC-003-002-----0
  6
DASHED
 62
     2
  5
640
 10
508.898194
 20
249.395406
 30
0.0
 40
29.5
 50
216.941149
 51
236.5668
  0
LINE
  8
LC-003-002-----0
  6
CONTINUOUS
  5
641
 10
344.190246
 20
224.491462
 30
0.0
 11
344.190246
 21
241.371653
 31
0.0
  0
LINE
  8
LC-003-002-----0
  6
CONTINUOUS
  5
642
 10
342.190246
 20
229.491462
 30
0.0
 11
342.190246
 21
241.371653
 31
0.0
  0
LINE
  8
LC-009-207-----0
  6
CONTINUOUS
  5
644
 10
344.190246
 20
224.491462
 30
0.0
 11
414.950851
 21
224.491462
 31
0.0
  0
ARC
  8
LC-010-207-RND-0
  6
CONTINUOUS
  5
646
 10
337.190246
 20
229.491462
 30
0.0
 40
5.0
 50
270.0
 51
0.0
  0
LINE
  8
LC-003-002-----0
  6
CONTINUOUS
  5
647
 10
416.950851
 20
238.70915
 30
0.0
 11
416.950851
 21
221.491462
 31
0.0
  0
LINE
  8
LC-003-002-----0
  6
CONTINUOUS
  5
648
 10
332.450851
 20
224.491462
 30
0.0
 11
332.450851
 21
241.371653
 31
0.0
  0
LINE
  8
LC-003-002-----0
  6
CONTINUOUS
  5
649
 10
433.930879
 20
240.684593
 30
0.0
 11
416.950851
 21
241.210482
 31
0.0
  0
LINE
  8
LC-003-002-----0
  6
CONTINUOUS
  5
64A
 10
436.950851
 20
288.179325
 30
0.0
 11
436.950851
 21
287.969268
 31
0.0
  0
LINE
  8
LC-003-002-----0
  6
CONTINUOUS
  5
64B
 10
310.950851
 20
244.493446
 30
0.0
 11
311.471324
 21
244.476449
 31
0.0
  0
ARC
  8
LC-003-002-----0
  6
CONTINUOUS
  5
64C
 10
431.950851
 20
236.243625
 30
0.0
 40
2.0
 50
0.0
 51
88.226057
  0
LINE
  8
LC-003-002-----0
  6
CONTINUOUS
  5
64D
 10
311.471322
 20
241.97596
 30
0.0
 11
310.970791
 21
241.991462
 31
0.0
  0
ARC
  8
LC-005-002-RND-0
  6
CONTINUOUS
  5
64E
 10
453.352607
 20
300.679325
 30
0.0
 40
3.0
 50
270.0
 51
335.025313
  0
LINE
  8
LC-003-002-----0
  6
CONTINUOUS
  5
64F
 10
432.012764
 20
238.242667
 30
0.0
 11
416.950851
 21
238.70915
 31
0.0
  0
LINE
  8
LC-003-002-----0
  6
CONTINUOUS
  5
650
 10
433.950851
 20
290.487914
 30
0.0
 11
433.950851
 21
285.270143
 31
0.0
  0
LINE
  8
LC-003-002-----0
  6
CONTINUOUS
  5
651
 10
310.950851
 20
290.487914
 30
0.0
 11
310.950851
 21
244.493446
 31
0.0
  0
LINE
  8
LC-003-002-----0
  6
CONTINUOUS
  5
652
 10
307.950851
 20
288.179325
 30
0.0
 11
307.950851
 21
246.191462
 31
0.0
  0
ARC
  8
LC-005-002-RND-0
  6
CONTINUOUS
  5
653
 10
305.950851
 20
246.191462
 30
0.0
 40
2.0
 50
270.0
 51
0.0
  0
LINE
  8
LC-003-002-----0
  6
CONTINUOUS
  5
654
 10
300.92392
 20
241.991462
 30
0.0
 11
300.92392
 21
224.491462
 31
0.0
  0
LINE
  8
LC-003-002-----0
  6
CONTINUOUS
  5
655
 10
332.450851
 20
241.40363
 30
0.0
 11
344.190246
 21
241.40363
 31
0.0
  0
LINE
  8
LC-003-002-----0
  6
CONTINUOUS
  5
656
 10
300.92392
 20
224.491462
 30
0.0
 11
300.92392
 21
218.491462
 31
0.0
  0
ARC
  8
LC-005-002-RND-0
  6
CONTINUOUS
  5
657
 10
277.700851
 20
326.727605
 30
0.0
 40
0.5
 50
0.0
 51
86.000003
  0
LINE
  8
LC-003-002-----0
  6
CONTINUOUS
  5
658
 10
288.826098
 20
299.41278
 30
0.0
 11
283.450851
 21
310.960779
 31
0.0
  0
LINE
  8
LC-003-002-----0
  6
CONTINUOUS
  5
659
 10
456.07209
 20
299.412671
 30
0.0
 11
461.450851
 21
310.960779
 31
0.0
  0
LINE
  8
LC-003-002-----0
  6
CONTINUOUS
  5
65A
 10
523.450851
 20
336.181933
 30
0.0
 11
444.950851
 21
336.181933
 31
0.0
  0
ARC
  8
LC-005-002-RND-0
  6
CONTINUOUS
  5
65B
 10
307.950851
 20
291.179325
 30
0.0
 40
3.0
 50
180.0
 51
270.0
  0
LINE
  8
LC-003-002-----0
  6
CONTINUOUS
  5
65C
 10
433.930876
 20
290.487914
 30
0.0
 11
436.629835
 21
290.487914
 31
0.0
  0
LINE
  8
LC-003-002-----0
  6
CONTINUOUS
  5
65D
 10
306.772334
 20
300.683676
 30
0.0
 11
296.593675
 21
300.683676
 31
0.0
  0
ARC
  8
LC-005-002-RND-0
  6
CONTINUOUS
  5
65E
 10
296.593675
 20
302.673031
 30
0.0
 40
1.999352
 50
180.0
 51
270.0
  0
LINE
  8
LC-003-002-----0
  6
CONTINUOUS
  5
65F
 10
294.594323
 20
306.578693
 30
0.0
 11
294.594323
 21
305.078693
 31
0.0
  0
LINE
  8
LC-003-002-----0
  6
CONTINUOUS
  5
660
 10
291.545012
 20
297.679325
 30
0.0
 11
301.450851
 21
297.679325
 31
0.0
  0
ARC
  8
LC-005-002-RND-0
  6
CONTINUOUS
  5
661
 10
291.545012
 20
300.678353
 30
0.0
 40
2.999028
 50
204.960562
 51
270.0
  0
LINE
  8
LC-003-002-----0
  6
CONTINUOUS
  5
662
 10
364.664793
 20
300.68359
 30
0.0
 11
306.78838
 21
300.68359
 31
0.0
  0
LINE
  8
LC-003-002-----0
  6
CONTINUOUS
  5
663
 10
450.10738
 20
308.578693
 30
0.0
 11
450.30738
 21
308.578693
 31
0.0
  0
LINE
  8
LC-003-002-----0
  6
CONTINUOUS
  5
664
 10
308.571751
 20
290.487914
 30
0.0
 11
310.970826
 21
290.487914
 31
0.0
  0
LINE
  8
LC-003-002-----0
  6
CONTINUOUS
  5
665
 10
308.271848
 20
290.787816
 30
0.0
 11
308.271848
 21
294.46549
 31
0.0
  0
LINE
  8
LC-003-002-----0
  6
CONTINUOUS
  5
666
 10
221.450851
 20
336.181933
 30
0.0
 11
221.450851
 21
333.174735
 31
0.0
  0
LINE
  8
LC-003-002-----0
  6
CONTINUOUS
  5
667
 10
450.30738
 20
306.578693
 30
0.0
 11
450.10738
 21
306.578693
 31
0.0
  0
LINE
  8
LC-003-002-----0
  6
CONTINUOUS
  5
668
 10
450.30738
 20
305.078693
 30
0.0
 11
450.10738
 21
305.078693
 31
0.0
  0
LINE
  8
LC-003-002-----0
  6
CONTINUOUS
  5
669
 10
455.745427
 20
287.969268
 30
0.0
 11
436.950851
 21
287.969268
 31
0.0
  0
ARC
  8
LC-003-002-----0
  6
CONTINUOUS
  5
66A
 10
308.571751
 20
290.787816
 30
0.0
 40
0.299903
 50
180.0
 51
270.0
  0
LINE
  8
LC-003-002-----0
  6
CONTINUOUS
  5
66B
 10
450.30738
 20
303.078693
 30
0.0
 11
450.10738
 21
303.078693
 31
0.0
  0
ARC
  8
LC-003-002-----0
  6
CONTINUOUS
  5
66C
 10
306.772334
 20
299.184162
 30
0.0
 40
1.499514
 50
0.0
 51
90.0
  0
LINE
  8
LC-003-002-----0
  6
CONTINUOUS
  5
66D
 10
432.599129
 20
300.68359
 30
0.0
 11
438.113322
 21
300.68359
 31
0.0
  0
LINE
  8
LC-003-002-----0
  6
CONTINUOUS
  5
66E
 10
308.271848
 20
296.700833
 30
0.0
 11
308.271848
 21
299.184162
 31
0.0
  0
LINE
  8
LC-003-002-----0
  6
CONTINUOUS
  5
66F
 10
477.515698
 20
287.969171
 30
0.0
 11
482.01424
 21
287.970045
 31
0.0
  0
LINE
  8
LC-003-002-----0
  6
CONTINUOUS
  5
670
 10
489.011972
 20
286.65712
 30
0.0
 11
489.011972
 21
285.270143
 31
0.0
  0
LINE
  8
LC-003-002-----0
  6
CONTINUOUS
  5
671
 10
482.01424
 20
290.508929
 30
0.0
 11
482.01424
 21
287.970045
 31
0.0
  0
LINE
  8
LC-003-002-----0
  6
CONTINUOUS
  5
672
 10
477.515698
 20
291.840458
 30
0.0
 11
477.515698
 21
287.969171
 31
0.0
  0
LINE
  8
LC-003-002-----0
  6
CONTINUOUS
  5
673
 10
489.011972
 20
285.270143
 30
0.0
 11
433.930879
 21
285.270143
 31
0.0
  0
LINE
  8
LC-003-002-----0
  6
CONTINUOUS
  5
674
 10
278.200851
 20
321.022685
 30
0.0
 11
278.200851
 21
320.754736
 31
0.0
  0
ARC
  8
LC-003-002-----0
  6
CONTINUOUS
  5
675
 10
451.2916
 20
264.999042
 30
0.0
 40
26.689176
 50
130.577646
 51
245.647084
  0
LINE
  8
LC-003-002-----0
  6
CONTINUOUS
  5
676
 10
455.745427
 20
237.985468
 30
0.0
 11
438.950851
 21
237.985468
 31
0.0
  0
LINE
  8
LC-003-002-----0
  6
CONTINUOUS
  5
677
 10
489.011972
 20
240.684593
 30
0.0
 11
433.930879
 21
240.684593
 31
0.0
  0
LINE
  8
LC-003-002-----0
  6
CONTINUOUS
  5
678
 10
221.450851
 20
336.181933
 30
0.0
 11
299.950851
 21
336.181933
 31
0.0
  0
ARC
  8
LC-005-002-RND-0
  6
CONTINUOUS
  5
679
 10
294.794323
 20
307.378693
 30
0.0
 40
0.8
 50
270.0
 51
0.0
  0
LINE
  8
LC-003-002-----0
  6
CONTINUOUS
  5
67A
 10
304.950851
 20
294.179325
 30
0.0
 11
304.950851
 21
291.179325
 31
0.0
  0
LINE
  8
LC-003-002-----0
  6
CONTINUOUS
  5
67B
 10
261.450851
 20
328.365136
 30
0.0
 11
277.735729
 21
327.226387
 31
0.0
  0
ARC
  8
LC-005-002-RND-0
  6
CONTINUOUS
  5
67C
 10
280.700851
 20
320.754736
 30
0.0
 40
2.5
 50
180.0
 51
270.0
  0
ARC
  8
LC-005-002-RND-0
  6
CONTINUOUS
  5
67D
 10
467.200851
 20
326.727605
 30
0.0
 40
0.5
 50
93.999997
 51
180.0
  0
LINE
  8
LC-003-002-----0
  6
CONTINUOUS
  5
67E
 10
278.200851
 20
326.727605
 30
0.0
 11
278.200851
 21
324.754736
 31
0.0
  0
LINE
  8
LC-003-002-----0
  6
CONTINUOUS
  5
67F
 10
280.700851
 20
318.254736
 30
0.0
 11
282.450851
 21
318.254736
 31
0.0
  0
ARC
  8
LC-003-002-----0
  6
CONTINUOUS
  5
680
 10
272.190526
 20
353.923982
 30
0.0
 40
23.361504
 50
241.241457
 51
259.497843
  0
LINE
  8
LC-003-002-----0
  6
CONTINUOUS
  5
681
 10
221.450851
 20
336.181933
 30
0.0
 11
260.950851
 21
333.444002
 31
0.0
  0
LINE
  8
LC-003-002-----0
  6
CONTINUOUS
  5
682
 10
280.60294
 20
330.033066
 30
0.0
 11
267.932365
 21
330.953829
 31
0.0
  0
LINE
  8
LC-003-002-----0
  6
CONTINUOUS
  5
683
 10
221.450851
 20
333.174735
 30
0.0
 11
253.450851
 21
330.956664
 31
0.0
  0
LINE
  8
LC-003-002-----0
  6
CONTINUOUS
  5
684
 10
523.450851
 20
333.174735
 30
0.0
 11
491.450851
 21
330.956664
 31
0.0
  0
LINE
  8
LC-003-002-----0
  6
CONTINUOUS
  5
685
 10
523.450851
 20
336.181933
 30
0.0
 11
483.950851
 21
333.444002
 31
0.0
  0
LINE
  8
LC-003-002-----0
  6
CONTINUOUS
  5
686
 10
523.450851
 20
336.181933
 30
0.0
 11
523.450851
 21
333.174735
 31
0.0
  0
ARC
  8
LC-003-002-----0
  6
CONTINUOUS
  5
687
 10
472.711177
 20
353.923982
 30
0.0
 40
23.361504
 50
280.502157
 51
298.758543
  0
LINE
  8
LC-003-002-----0
  6
CONTINUOUS
  5
688
 10
464.298762
 20
330.033066
 30
0.0
 11
476.969337
 21
330.953829
 31
0.0
  0
LINE
  8
LC-003-002-----0
  6
CONTINUOUS
  5
689
 10
491.450851
 20
330.956664
 30
0.0
 11
483.450851
 21
328.365136
 31
0.0
  0
LINE
  8
LC-003-002-----0
  6
CONTINUOUS
  5
68A
 10
483.450851
 20
328.365136
 30
0.0
 11
467.165973
 21
327.226387
 31
0.0
  0
LINE
  8
LC-003-002-----0
  6
CONTINUOUS
  5
68B
 10
464.298762
 20
330.033066
 30
0.0
 11
464.298762
 21
322.348164
 31
0.0
  0
LINE
  8
LC-003-002-----0
  6
CONTINUOUS
  5
68C
 10
461.200144
 20
321.198973
 30
0.0
 11
461.200144
 21
327.47872
 31
0.0
  0
LINE
  8
LC-003-002-----0
  6
CONTINUOUS
  5
68D
 10
285.201558
 20
327.47872
 30
0.0
 11
285.201558
 21
325.97872
 31
0.0
  0
LINE
  8
LC-003-002-----0
  6
CONTINUOUS
  5
68E
 10
489.011972
 20
286.65712
 30
0.0
 11
489.011972
 21
239.297616
 31
0.0
  0
LINE
  8
LC-003-002-----0
  6
CONTINUOUS
  5
68F
 10
477.515698
 20
234.114278
 30
0.0
 11
477.515698
 21
237.985565
 31
0.0
  0
LINE
  8
LC-003-002-----0
  6
CONTINUOUS
  5
690
 10
477.515698
 20
237.985565
 30
0.0
 11
482.01424
 21
237.984691
 31
0.0
  0
LINE
  8
LC-003-002-----0
  6
CONTINUOUS
  5
691
 10
482.01424
 20
235.445807
 30
0.0
 11
482.01424
 21
237.984691
 31
0.0
  0
ARC
  8
LC-005-002-RND-0
  6
CONTINUOUS
  5
692
 10
281.60294
 20
322.348164
 30
0.0
 40
1.0
 50
180.0
 51
266.0
  0
LINE
  8
LC-003-002-----0
  6
CONTINUOUS
  5
693
 10
308.271848
 20
296.700833
 30
0.0
 11
308.271848
 21
294.465403
 31
0.0
  0
LINE
  8
LC-003-002-----0
  6
CONTINUOUS
  5
694
 10
436.629846
 20
299.178839
 30
0.0
 11
436.629846
 21
290.487914
 31
0.0
  0
LINE
  8
LC-003-002-----0
  6
CONTINUOUS
  5
695
 10
285.201558
 20
325.97872
 30
0.0
 11
285.701558
 21
325.112694
 31
0.0
  0
LINE
  8
LC-003-002-----0
  6
CONTINUOUS
  5
696
 10
283.701558
 20
327.47872
 30
0.0
 11
285.201558
 21
327.47872
 31
0.0
  0
LINE
  8
LC-003-002-----0
  6
CONTINUOUS
  5
697
 10
459.200144
 20
325.112694
 30
0.0
 11
459.200144
 21
310.877867
 31
0.0
  0
LINE
  8
LC-003-002-----0
  6
CONTINUOUS
  5
698
 10
293.794323
 20
309.377867
 30
0.0
 11
365.583552
 21
309.377867
 31
0.0
  0
ARC
  8
LC-005-002-RND-0
  6
CONTINUOUS
  5
699
 10
457.700144
 20
310.877867
 30
0.0
 40
1.5
 50
270.0
 51
0.0
  0
LINE
  8
LC-003-002-----0
  6
CONTINUOUS
  5
69A
 10
283.701558
 20
321.198973
 30
0.0
 11
283.701558
 21
327.47872
 31
0.0
  0
LINE
  8
LC-003-002-----0
  6
CONTINUOUS
  5
69B
 10
457.700144
 20
309.377867
 30
0.0
 11
451.10738
 21
309.377867
 31
0.0
  0
ARC
  8
LC-005-002-RND-0
  6
CONTINUOUS
  5
69C
 10
294.794323
 20
307.778693
 30
0.0
 40
0.8
 50
0.0
 51
90.0
  0
LINE
  8
LC-003-002-----0
  6
CONTINUOUS
  5
69D
 10
295.594323
 20
307.378693
 30
0.0
 11
295.594323
 21
307.778693
 31
0.0
  0
ARC
  8
LC-005-002-RND-0
  6
CONTINUOUS
  5
69E
 10
294.794323
 20
304.278693
 30
0.0
 40
0.8
 50
0.0
 51
90.0
  0
LINE
  8
LC-003-002-----0
  6
CONTINUOUS
  5
69F
 10
295.594323
 20
303.878693
 30
0.0
 11
295.594323
 21
304.278693
 31
0.0
  0
ARC
  8
LC-005-002-RND-0
  6
CONTINUOUS
  5
6A0
 10
294.794323
 20
303.878693
 30
0.0
 40
0.8
 50
270.0
 51
0.0
  0
LINE
  8
LC-003-002-----0
  6
CONTINUOUS
  5
6A1
 10
294.594323
 20
305.078693
 30
0.0
 11
294.794323
 21
305.078693
 31
0.0
  0
LINE
  8
LC-003-002-----0
  6
CONTINUOUS
  5
6A2
 10
294.594323
 20
303.078693
 30
0.0
 11
294.794323
 21
303.078693
 31
0.0
  0
LINE
  8
LC-003-002-----0
  6
CONTINUOUS
  5
6A3
 10
294.594323
 20
303.078693
 30
0.0
 11
294.594323
 21
302.673031
 31
0.0
  0
LINE
  8
LC-003-002-----0
  6
CONTINUOUS
  5
6A4
 10
461.450851
 20
317.254736
 30
0.0
 11
461.450851
 21
310.960779
 31
0.0
  0
LINE
  8
LC-003-002-----0
  6
CONTINUOUS
  5
6A5
 10
464.200851
 20
318.254736
 30
0.0
 11
462.450851
 21
318.254736
 31
0.0
  0
ARC
  8
LC-005-002-RND-0
  6
CONTINUOUS
  5
6A6
 10
464.200851
 20
320.754736
 30
0.0
 40
2.5
 50
270.0
 51
0.0
  0
ARC
  8
LC-005-002-RND-0
  6
CONTINUOUS
  5
6A7
 10
462.450851
 20
317.254736
 30
0.0
 40
1.0
 50
90.0
 51
180.0
  0
ARC
  8
LC-005-002-RND-0
  6
CONTINUOUS
  5
6A8
 10
282.450851
 20
317.254736
 30
0.0
 40
1.0
 50
0.0
 51
90.0
  0
LINE
  8
LC-003-002-----0
  6
CONTINUOUS
  5
6A9
 10
467.700851
 20
322.754736
 30
0.0
 11
466.700851
 21
321.022685
 31
0.0
  0
LINE
  8
LC-003-002-----0
  6
CONTINUOUS
  5
6AA
 10
467.700851
 20
323.754736
 30
0.0
 11
467.700851
 21
322.754736
 31
0.0
  0
LINE
  8
LC-003-002-----0
  6
CONTINUOUS
  5
6AB
 10
466.700851
 20
326.727605
 30
0.0
 11
466.700851
 21
324.754736
 31
0.0
  0
LINE
  8
LC-003-002-----0
  6
CONTINUOUS
  5
6AC
 10
280.60294
 20
330.033066
 30
0.0
 11
280.60294
 21
322.348164
 31
0.0
  0
LINE
  8
LC-003-002-----0
  6
CONTINUOUS
  5
6AD
 10
285.701558
 20
325.112694
 30
0.0
 11
285.701558
 21
310.877867
 31
0.0
  0
LINE
  8
LC-003-002-----0
  6
CONTINUOUS
  5
6AE
 10
287.201558
 20
309.377867
 30
0.0
 11
293.794323
 21
309.377867
 31
0.0
  0
ARC
  8
LC-005-002-RND-0
  6
CONTINUOUS
  5
6AF
 10
287.201558
 20
310.877867
 30
0.0
 40
1.5
 50
180.0
 51
270.0
  0
LINE
  8
LC-003-002-----0
  6
CONTINUOUS
  5
6B0
 10
283.701558
 20
321.198973
 30
0.0
 11
281.533184
 21
321.3506
 31
0.0
  0
ARC
  8
LC-005-002-RND-0
  6
CONTINUOUS
  5
6B1
 10
293.794323
 20
308.577867
 30
0.0
 40
0.8
 50
0.059159
 51
90.0
  0
LINE
  8
LC-003-002-----0
  6
CONTINUOUS
  5
6B2
 10
294.794323
 20
308.578693
 30
0.0
 11
294.594323
 21
308.578693
 31
0.0
  0
LINE
  8
LC-003-002-----0
  6
CONTINUOUS
  5
6B3
 10
294.794323
 20
306.578693
 30
0.0
 11
294.594323
 21
306.578693
 31
0.0
  0
ARC
  8
LC-003-002-----0
  6
CONTINUOUS
  5
6B4
 10
467.700203
 20
326.261952
 30
0.0
 40
0.999352
 50
180.0
 51
180.236759
  0
LINE
  8
LC-003-002-----0
  6
CONTINUOUS
  5
6B5
 10
466.700851
 20
324.754736
 30
0.0
 11
467.700851
 21
323.754736
 31
0.0
  0
LINE
  8
LC-003-002-----0
  6
CONTINUOUS
  5
6B6
 10
461.200144
 20
321.198973
 30
0.0
 11
463.368519
 21
321.3506
 31
0.0
  0
LINE
  8
LC-003-002-----0
  6
CONTINUOUS
  5
6B7
 10
453.352607
 20
297.679325
 30
0.0
 11
443.450851
 21
297.679325
 31
0.0
  0
ARC
  8
LC-003-002-----0
  6
CONTINUOUS
  5
6B8
 10
438.129368
 20
299.184162
 30
0.0
 40
1.499514
 50
90.0
 51
180.0
  0
LINE
  8
LC-003-002-----0
  6
CONTINUOUS
  5
6B9
 10
438.129368
 20
300.683676
 30
0.0
 11
448.308028
 21
300.683676
 31
0.0
  0
LINE
  8
LC-003-002-----0
  6
CONTINUOUS
  5
6BA
 10
443.450851
 20
297.679325
 30
0.0
 11
439.950851
 21
294.179325
 31
0.0
  0
LINE
  8
LC-003-002-----0
  6
CONTINUOUS
  5
6BB
 10
439.950851
 20
294.179325
 30
0.0
 11
439.950851
 21
291.179325
 31
0.0
  0
ARC
  8
LC-005-002-RND-0
  6
CONTINUOUS
  5
6BC
 10
436.950851
 20
291.179325
 30
0.0
 40
3.0
 50
270.0
 51
0.0
  0
ARC
  8
LC-003-002-----0
  6
CONTINUOUS
  5
6BD
 10
471.41881
 20
262.977368
 30
0.0
 40
29.5
 50
78.07248
 51
122.093408
  0
ARC
  8
LC-003-002-----0
  6
CONTINUOUS
  5
6BE
 10
471.41881
 20
262.977368
 30
0.0
 40
29.5
 50
291.049054
 51
306.610955
  0
ARC
  8
LC-003-002-----0
  6
CONTINUOUS
  5
6BF
 10
471.41881
 20
262.977368
 30
0.0
 40
29.5
 50
237.906592
 51
281.92752
  0
ARC
  8
LC-003-002-----0
  6
CONTINUOUS
  5
6C0
 10
471.41881
 20
262.977368
 30
0.0
 40
29.5
 50
53.389045
 51
68.950946
  0
LINE
  8
LC-003-002-----0
  6
CONTINUOUS
  5
6C1
 10
367.973661
 20
290.487914
 30
0.0
 11
433.930876
 21
290.487914
 31
0.0
  0
ARC
  8
LC-005-002-RND-0
  6
CONTINUOUS
  5
6C2
 10
463.298762
 20
322.348164
 30
0.0
 40
1.0
 50
274.0
 51
0.0
  0
LINE
  8
LC-003-002-----0
  6
CONTINUOUS
  5
6C3
 10
416.950851
 20
290.487914
 30
0.0
 11
416.950851
 21
241.210482
 31
0.0
  0
LINE
  8
LC-003-002-----0
  6
CONTINUOUS
  5
6C4
 10
433.950851
 20
236.243625
 30
0.0
 11
433.950851
 21
221.491462
 31
0.0
  0
LINE
  8
LC-003-002-----0
  6
CONTINUOUS
  5
6C5
 10
436.950851
 20
235.985468
 30
0.0
 11
436.950851
 21
222.491462
 31
0.0
  0
LINE
  8
LC-003-002-----0
  6
CONTINUOUS
  5
6C6
 10
414.950851
 20
290.487914
 30
0.0
 11
414.950851
 21
224.491462
 31
0.0
  0
LINE
  8
LC-003-002-----0
  6
CONTINUOUS
  5
6C7
 10
466.700851
 20
321.022685
 30
0.0
 11
466.700851
 21
320.754736
 31
0.0
  0
ARC
  8
LC-005-002-RND-0
  6
CONTINUOUS
  5
6C8
 10
438.950851
 20
235.985468
 30
0.0
 40
2.0
 50
90.0
 51
180.0
  0
LINE
  8
LC-009-207-----0
  6
CONTINUOUS
  5
6C9
 10
416.950851
 20
221.491462
 30
0.0
 11
435.950851
 21
221.491462
 31
0.0
  0
LINE
  8
LC-003-002-----0
  6
CONTINUOUS
  5
6CA
 10
253.450851
 20
330.956664
 30
0.0
 11
261.450851
 21
328.365136
 31
0.0
  0
LINE
  8
LC-003-002-----0
  6
CONTINUOUS
  5
6CB
 10
283.450851
 20
317.254736
 30
0.0
 11
283.450851
 21
310.960779
 31
0.0
  0
LINE
  8
LC-003-002-----0
  6
CONTINUOUS
  5
6CC
 10
461.200144
 20
327.47872
 30
0.0
 11
459.200144
 21
327.47872
 31
0.0
  0
LINE
  8
LC-003-002-----0
  6
CONTINUOUS
  5
6CD
 10
277.200851
 20
323.754736
 30
0.0
 11
277.200851
 21
322.754736
 31
0.0
  0
LINE
  8
LC-003-002-----0
  6
CONTINUOUS
  5
6CE
 10
278.200851
 20
324.754736
 30
0.0
 11
277.200851
 21
323.754736
 31
0.0
  0
LINE
  8
LC-003-002-----0
  6
CONTINUOUS
  5
6CF
 10
459.700144
 20
327.47872
 30
0.0
 11
459.700144
 21
325.97872
 31
0.0
  0
LINE
  8
LC-003-002-----0
  6
CONTINUOUS
  5
6D0
 10
301.450851
 20
297.679325
 30
0.0
 11
304.950851
 21
294.179325
 31
0.0
  0
LINE
  8
LC-003-002-----0
  6
CONTINUOUS
  5
6D1
 10
277.200851
 20
322.754736
 30
0.0
 11
278.200851
 21
321.022685
 31
0.0
  0
LINE
  8
LC-003-002-----0
  6
CONTINUOUS
  5
6D2
 10
459.700144
 20
325.97872
 30
0.0
 11
459.200144
 21
325.112694
 31
0.0
  0
ARC
  8
LC-005-002-RND-0
  6
CONTINUOUS
  5
6D3
 10
448.308028
 20
302.673031
 30
0.0
 40
1.999352
 50
270.0
 51
0.0
  0
LINE
  8
LC-003-002-----0
  6
CONTINUOUS
  5
6D4
 10
450.30738
 20
303.078693
 30
0.0
 11
450.30738
 21
302.673031
 31
0.0
  0
ARC
  8
LC-005-002-RND-0
  6
CONTINUOUS
  5
6D5
 10
450.10738
 20
303.878693
 30
0.0
 40
0.8
 50
180.0
 51
270.0
  0
LINE
  8
LC-003-002-----0
  6
CONTINUOUS
  5
6D6
 10
449.30738
 20
303.878693
 30
0.0
 11
449.30738
 21
304.278693
 31
0.0
  0
ARC
  8
LC-005-002-RND-0
  6
CONTINUOUS
  5
6D7
 10
450.10738
 20
304.278693
 30
0.0
 40
0.8
 50
90.0
 51
180.0
  0
LINE
  8
LC-003-002-----0
  6
CONTINUOUS
  5
6D8
 10
450.30738
 20
306.578693
 30
0.0
 11
450.30738
 21
305.078693
 31
0.0
  0
ARC
  8
LC-005-002-RND-0
  6
CONTINUOUS
  5
6D9
 10
450.10738
 20
307.378693
 30
0.0
 40
0.8
 50
180.0
 51
270.0
  0
LINE
  8
LC-003-002-----0
  6
CONTINUOUS
  5
6DA
 10
449.30738
 20
307.378693
 30
0.0
 11
449.30738
 21
307.778693
 31
0.0
  0
ARC
  8
LC-005-002-RND-0
  6
CONTINUOUS
  5
6DB
 10
450.10738
 20
307.778693
 30
0.0
 40
0.8
 50
90.0
 51
180.0
  0
ARC
  8
LC-005-002-RND-0
  6
CONTINUOUS
  5
6DC
 10
451.10738
 20
308.577867
 30
0.0
 40
0.8
 50
90.0
 51
179.940841
  0
ARC
  8
LC-010-207-RND-0
  6
CONTINUOUS
  5
6DD
 10
435.950851
 20
222.491462
 30
0.0
 40
1.0
 50
270.0
 51
0.0
  0
LINE
  8
LC-003-002-----0
  6
CONTINUOUS
  5
6DE
 10
302.17392
 20
244.191462
 30
0.0
 11
305.950851
 21
244.191462
 31
0.0
  0
LINE
  8
LC-003-002-----0
  6
CONTINUOUS
  5
6DF
 10
302.17392
 20
218.491462
 30
0.0
 11
300.92392
 21
218.491462
 31
0.0
  0
LINE
  8
LC-003-002-----0
  6
CONTINUOUS
  5
6E0
 10
302.17392
 20
218.491462
 30
0.0
 11
302.17392
 21
221.491462
 31
0.0
  0
LINE
  8
LC-003-002-----0
  6
CONTINUOUS
  5
6E1
 10
302.17392
 20
218.491462
 30
0.0
 11
301.67392
 21
218.491462
 31
0.0
  0
LINE
  8
LC-003-002-----0
  6
CONTINUOUS
  5
6E2
 10
302.17392
 20
247.191462
 30
0.0
 11
300.92392
 21
247.191462
 31
0.0
  0
LINE
  8
LC-003-002-----0
  6
CONTINUOUS
  5
6E3
 10
302.17392
 20
244.191462
 30
0.0
 11
302.17392
 21
247.191462
 31
0.0
  0
LINE
  8
LC-009-207-----0
  6
CONTINUOUS
  5
6E4
 10
302.17392
 20
221.491462
 30
0.0
 11
416.950851
 21
221.491462
 31
0.0
  0
LINE
  8
LC-009-207-----0
  6
CONTINUOUS
  5
6E5
 10
300.92392
 20
224.491462
 30
0.0
 11
337.190246
 21
224.491462
 31
0.0
  0
LINE
  8
LC-003-002-----0
  6
CONTINUOUS
  5
6E6
 10
300.92392
 20
241.991462
 30
0.0
 11
310.970791
 21
241.991462
 31
0.0
  0
LINE
  8
LC-003-002-----0
  6
CONTINUOUS
  5
6E7
 10
300.92392
 20
247.191462
 30
0.0
 11
300.92392
 21
241.991462
 31
0.0
  0
LINE
  8
LC-003-002-----0
  6
CONTINUOUS
  5
6E8
 10
464.200851
 20
330.194654
 30
0.0
 11
445.450851
 21
328.883526
 31
0.0
  0
LINE
  8
LC-003-002-----0
  6
CONTINUOUS
  5
6E9
 10
283.451066
 20
327.496236
 30
0.0
 11
293.450851
 21
326.796983
 31
0.0
  0
LINE
  8
LC-003-002-----0
  6
CONTINUOUS
  5
6EA
 10
441.697511
 20
310.195056
 30
0.0
 11
441.697511
 21
313.195056
 31
0.0
  0
LINE
  8
LC-003-002-----0
  6
CONTINUOUS
  5
6EB
 10
436.038131
 20
310.195056
 30
0.0
 11
436.038131
 21
313.195056
 31
0.0
  0
LINE
  8
LC-003-002-----0
  6
CONTINUOUS
  5
6EC
 10
445.450851
 20
328.883526
 30
0.0
 11
444.700851
 21
328.133526
 31
0.0
  0
LINE
  8
LC-003-002-----0
  6
CONTINUOUS
  5
6ED
 10
441.950851
 20
310.195056
 30
0.0
 11
441.950851
 21
313.195056
 31
0.0
  0
LINE
  8
LC-003-002-----0
  6
CONTINUOUS
  5
6EE
 10
444.700851
 20
313.195056
 30
0.0
 11
444.700851
 21
328.133526
 31
0.0
  0
LINE
  8
LC-003-002-----0
  6
CONTINUOUS
  5
6EF
 10
303.204191
 20
310.195056
 30
0.0
 11
303.204191
 21
313.195056
 31
0.0
  0
LINE
  8
LC-003-002-----0
  6
CONTINUOUS
  5
6F0
 10
308.863572
 20
310.195056
 30
0.0
 11
308.863572
 21
313.195056
 31
0.0
  0
LINE
  8
LC-003-002-----0
  6
CONTINUOUS
  5
6F1
 10
315.682997
 20
310.195056
 30
0.0
 11
315.682997
 21
313.195056
 31
0.0
  0
LINE
  8
LC-003-002-----0
  6
CONTINUOUS
  5
6F2
 10
331.408591
 20
310.195056
 30
0.0
 11
331.408591
 21
313.195056
 31
0.0
  0
LINE
  8
LC-003-002-----0
  6
CONTINUOUS
  5
6F3
 10
299.450851
 20
328.883526
 30
0.0
 11
300.200851
 21
328.133526
 31
0.0
  0
LINE
  8
LC-003-002-----0
  6
CONTINUOUS
  5
6F4
 10
328.141146
 20
310.195056
 30
0.0
 11
328.141146
 21
313.195056
 31
0.0
  0
LINE
  8
LC-003-002-----0
  6
CONTINUOUS
  5
6F5
 10
343.773991
 20
310.195056
 30
0.0
 11
343.773991
 21
313.195056
 31
0.0
  0
LINE
  8
LC-003-002-----0
  6
CONTINUOUS
  5
6F6
 10
302.950851
 20
310.195056
 30
0.0
 11
302.950851
 21
313.195056
 31
0.0
  0
LINE
  8
LC-003-002-----0
  6
CONTINUOUS
  5
6F7
 10
300.200851
 20
313.195056
 30
0.0
 11
300.200851
 21
328.133526
 31
0.0
  0
ARC
  8
LC-005-002-RND-0
  6
CONTINUOUS
  5
6F8
 10
450.450851
 20
311.195056
 30
0.0
 40
1.0
 50
270.0
 51
0.0
  0
LINE
  8
LC-003-002-----0
  6
CONTINUOUS
  5
6F9
 10
280.700851
 20
330.194654
 30
0.0
 11
281.700851
 21
323.195056
 31
0.0
  0
LINE
  8
LC-003-002-----0
  6
CONTINUOUS
  5
6FA
 10
282.873716
 20
323.195056
 30
0.0
 11
281.700851
 21
323.195056
 31
0.0
  0
LINE
  8
LC-003-002-----0
  6
CONTINUOUS
  5
6FB
 10
283.451066
 20
324.195056
 30
0.0
 11
282.873716
 21
323.195056
 31
0.0
  0
LINE
  8
LC-003-002-----0
  6
CONTINUOUS
  5
6FC
 10
283.451066
 20
324.195056
 30
0.0
 11
283.451066
 21
327.496236
 31
0.0
  0
ARC
  8
LC-005-002-RND-0
  6
CONTINUOUS
  5
6FD
 10
294.450851
 20
311.195056
 30
0.0
 40
1.0
 50
180.0
 51
270.0
  0
LINE
  8
LC-003-002-----0
  6
CONTINUOUS
  5
6FE
 10
294.450851
 20
310.195056
 30
0.0
 11
365.669907
 21
310.195056
 31
0.0
  0
LINE
  8
LC-003-002-----0
  6
CONTINUOUS
  5
6FF
 10
461.450637
 20
324.195056
 30
0.0
 11
462.027987
 21
323.195056
 31
0.0
  0
LINE
  8
LC-003-002-----0
  6
CONTINUOUS
  5
700
 10
293.450851
 20
311.195056
 30
0.0
 11
293.450851
 21
326.796983
 31
0.0
  0
LINE
  8
LC-003-002-----0
  6
CONTINUOUS
  5
701
 10
461.450637
 20
324.195056
 30
0.0
 11
461.450637
 21
327.496236
 31
0.0
  0
LINE
  8
LC-003-002-----0
  6
CONTINUOUS
  5
702
 10
450.450851
 20
310.195056
 30
0.0
 11
441.950851
 21
310.195056
 31
0.0
  0
LINE
  8
LC-003-002-----0
  6
CONTINUOUS
  5
703
 10
451.450851
 20
311.195056
 30
0.0
 11
451.450851
 21
326.796983
 31
0.0
  0
LINE
  8
LC-003-002-----0
  6
CONTINUOUS
  5
704
 10
461.624987
 20
323.195056
 30
0.0
 11
463.200851
 21
323.195056
 31
0.0
  0
LINE
  8
LC-003-002-----0
  6
CONTINUOUS
  5
705
 10
441.950851
 20
310.195056
 30
0.0
 11
431.603487
 21
310.195056
 31
0.0
  0
LINE
  8
LC-003-002-----0
  6
CONTINUOUS
  5
706
 10
441.950851
 20
313.195056
 30
0.0
 11
444.700851
 21
313.195056
 31
0.0
  0
LINE
  8
LC-003-002-----0
  6
CONTINUOUS
  5
707
 10
430.372804
 20
313.195056
 30
0.0
 11
441.950851
 21
313.195056
 31
0.0
  0
LINE
  8
LC-003-002-----0
  6
CONTINUOUS
  5
708
 10
343.773991
 20
313.195056
 30
0.0
 11
328.141146
 21
313.195056
 31
0.0
  0
LINE
  8
LC-003-002-----0
  6
CONTINUOUS
  5
709
 10
461.450637
 20
327.496236
 30
0.0
 11
451.450851
 21
326.796983
 31
0.0
  0
LINE
  8
LC-003-002-----0
  6
CONTINUOUS
  5
70A
 10
315.682997
 20
313.195056
 30
0.0
 11
300.200851
 21
313.195056
 31
0.0
  0
LINE
  8
LC-003-002-----0
  6
CONTINUOUS
  5
70B
 10
464.200851
 20
330.194654
 30
0.0
 11
463.200851
 21
323.195056
 31
0.0
  0
LINE
  8
LC-003-002-----0
  6
CONTINUOUS
  5
70C
 10
280.700851
 20
330.194654
 30
0.0
 11
299.450851
 21
328.883526
 31
0.0
  0
LINE
  8
LC-003-002-----0
  6
CONTINUOUS
  5
70D
 10
562.885466
 20
296.135059
 30
0.0
 11
613.139491
 21
282.669534
 31
0.0
  0
LINE
  8
LC-003-002-----0
  6
CONTINUOUS
  5
70E
 10
530.22528
 20
285.747368
 30
0.0
 11
530.22528
 21
240.407368
 31
0.0
  0
LINE
  8
LC-003-002-----0
  6
CONTINUOUS
  5
70F
 10
543.422274
 20
223.497437
 30
0.0
 11
593.676299
 21
210.031912
 31
0.0
  0
LINE
  8
LC-003-002-----0
  6
CONTINUOUS
  5
710
 10
551.449071
 20
286.206716
 30
0.0
 11
610.071556
 21
270.498868
 31
0.0
  0
LINE
  8
LC-003-002-----0
  6
CONTINUOUS
  5
711
 10
538.482237
 20
237.813832
 30
0.0
 11
597.104722
 21
222.105984
 31
0.0
  0
LINE
  8
LC-007-209-----0
  6
CONTINUOUS
 62
     1
  5
712
 10
530.22528
 20
285.747368
 30
0.0
 11
540.995008
 21
285.747368
 31
0.0
  0
LINE
  8
LC-007-209-----0
  6
CONTINUOUS
 62
     1
  5
713
 10
530.22528
 20
240.407368
 30
0.0
 11
540.229834
 21
240.407368
 31
0.0
  0
LINE
  8
LC-007-209-----0
  6
CONTINUOUS
 62
     1
  5
714
 10
535.004547
 20
238.077368
 30
0.0
 11
533.004987
 21
238.077368
 31
0.0
  0
LINE
  8
LC-007-209-----0
  6
CONTINUOUS
 62
     1
  5
715
 10
545.266045
 20
226.063931
 30
0.0
 11
538.482237
 21
237.813832
 31
0.0
  0
LINE
  8
LC-007-209-----0
  6
CONTINUOUS
 62
     1
  5
716
 10
593.676299
 20
210.031912
 30
0.0
 11
597.686135
 21
210.031912
 31
0.0
  0
ARC
  8
LC-007-209-----0
  6
CONTINUOUS
 62
     1
  5
717
 10
511.34881
 20
262.977368
 30
0.0
 40
33.0
 50
274.461598
 51
311.014567
  0
LINE
  8
LC-003-002-----0
  6
CONTINUOUS
  5
718
 10
540.995008
 20
285.747368
 30
0.0
 11
540.229834
 21
240.407368
 31
0.0
  0
LINE
  8
LC-007-209-----0
  6
CONTINUOUS
 62
     1
  5
719
 10
613.139491
 20
282.669534
 30
0.0
 11
616.612111
 21
280.664615
 31
0.0
  0
LINE
  8
LC-007-209-----0
  6
CONTINUOUS
 62
     1
  5
71A
 10
562.885466
 20
296.135059
 30
0.0
 11
548.929135
 21
288.077368
 31
0.0
  0
LINE
  8
LC-007-209-----0
  6
CONTINUOUS
 62
     1
  5
71B
 10
543.422274
 20
223.497437
 30
0.0
 11
535.004547
 21
238.077368
 31
0.0
  0
LINE
  8
LC-007-209-----0
  6
CONTINUOUS
 62
     1
  5
71C
 10
616.363081
 20
279.735223
 30
0.0
 11
563.198972
 21
292.990524
 31
0.0
  0
LINE
  8
LC-007-209-----0
  6
CONTINUOUS
 62
     1
  5
71D
 10
610.071556
 20
270.498868
 30
0.0
 11
613.376873
 21
268.590542
 31
0.0
  0
LINE
  8
LC-007-209-----0
  6
CONTINUOUS
 62
     1
  5
71E
 10
597.104722
 20
222.105984
 30
0.0
 11
600.921374
 21
222.105984
 31
0.0
  0
LINE
  8
LC-007-209-----0
  6
CONTINUOUS
 62
     1
  5
71F
 10
601.144914
 20
222.94025
 30
0.0
 11
540.229834
 21
240.407368
 31
0.0
  0
LINE
  8
LC-007-209-----0
  6
CONTINUOUS
 62
     1
  5
720
 10
548.929135
 20
288.077368
 30
0.0
 11
532.889469
 21
288.077368
 31
0.0
  0
LINE
  8
LC-007-209-----0
  6
CONTINUOUS
 62
     1
  5
721
 10
597.935165
 20
210.961304
 30
0.0
 11
545.238369
 21
226.071867
 31
0.0
  0
LINE
  8
LC-007-209-----0
  6
CONTINUOUS
 62
     1
  5
722
 10
613.153333
 20
267.756277
 30
0.0
 11
540.995008
 21
285.747368
 31
0.0
  0
LINE
  8
LC-007-209-----0
  6
CONTINUOUS
 62
     1
  5
723
 10
597.702817
 20
210.094169
 30
0.0
 11
600.921374
 21
222.105984
 31
0.0
  0
LINE
  8
LC-007-209-----0
  6
CONTINUOUS
 62
     1
  5
724
 10
563.198972
 20
292.990524
 30
0.0
 11
551.449071
 21
286.206716
 31
0.0
  0
LINE
  8
LC-003-002-----0
  6
CONTINUOUS
  5
725
 10
563.198972
 20
292.990524
 30
0.0
 11
560.702984
 21
283.675373
 31
0.0
  0
LINE
  8
LC-003-002-----0
  6
CONTINUOUS
  5
726
 10
547.762032
 20
235.379082
 30
0.0
 11
545.266045
 21
226.063931
 31
0.0
  0
LINE
  8
LC-003-002-----0
  6
CONTINUOUS
  5
727
 10
503.489469
 20
296.077368
 30
0.0
 11
513.91591
 21
296.077368
 31
0.0
  0
ARC
  8
LC-007-209-----0
  6
CONTINUOUS
 62
     1
  5
728
 10
511.34881
 20
263.177368
 30
0.0
 40
33.0
 50
48.985433
 51
85.538402
  0
LINE
  8
LC-003-002-----0
  6
CONTINUOUS
  5
729
 10
503.489469
 20
296.077368
 30
0.0
 11
503.489469
 21
292.79604
 31
0.0
  0
ARC
  8
LC-003-002-----0
  6
CONTINUOUS
  5
72A
 10
511.34881
 20
263.077368
 30
0.0
 40
29.5
 50
50.217104
 51
102.996787
  0
ARC
  8
LC-003-002-----0
  6
CONTINUOUS
  5
72B
 10
511.34881
 20
263.077368
 30
0.0
 40
29.5
 50
257.003213
 51
309.782896
  0
ARC
  8
LC-005-002-RND-0
  6
CONTINUOUS
  5
72C
 10
504.489469
 20
292.79604
 30
0.0
 40
1.0
 50
180.0
 51
282.996787
  0
ARC
  8
LC-005-002-RND-0
  6
CONTINUOUS
  5
72D
 10
504.489469
 20
233.358696
 30
0.0
 40
1.0
 50
77.003213
 51
180.0
  0
LINE
  8
LC-003-002-----0
  6
CONTINUOUS
  5
72E
 10
503.489469
 20
230.084183
 30
0.0
 11
503.489469
 21
233.358696
 31
0.0
  0
LINE
  8
LC-003-002-----0
  6
CONTINUOUS
  5
72F
 10
503.489469
 20
230.084183
 30
0.0
 11
513.91591
 21
230.084183
 31
0.0
  0
LINE
  8
LC-007-209-----0
  6
CONTINUOUS
 62
     1
  5
730
 10
600.921374
 20
222.105984
 30
0.0
 11
607.149123
 21
245.348263
 31
0.0
  0
LINE
  8
LC-007-209-----0
  6
CONTINUOUS
 62
     1
  5
731
 10
607.149123
 20
245.348263
 30
0.0
 11
616.612111
 21
280.664615
 31
0.0
  0
LINE
  8
LC-003-002-----0
  6
CONTINUOUS
  5
732
 10
503.489469
 20
263.080775
 30
0.0
 11
503.489469
 21
263.077368
 31
0.0
  0
LINE
  8
LC-003-002-----0
  6
CONTINUOUS
  5
733
 10
463.559469
 20
295.977368
 30
0.0
 11
463.559469
 21
292.79604
 31
0.0
  0
LINE
  8
LC-008-208-----0
  6
CONTINUOUS
 62
     1
  5
734
 10
492.959469
 20
287.977368
 30
0.0
 11
495.68835
 21
287.977368
 31
0.0
  0
LINE
  8
LC-008-208-----0
  6
CONTINUOUS
 62
     1
  5
735
 10
517.447674
 20
291.840041
 30
0.0
 11
517.447674
 21
287.977271
 31
0.0
  0
LINE
  8
LC-008-208-----0
  6
CONTINUOUS
 62
     1
  5
736
 10
517.447674
 20
287.977271
 30
0.0
 11
521.947674
 21
287.978145
 31
0.0
  0
LINE
  8
LC-008-208-----0
  6
CONTINUOUS
 62
     1
  5
737
 10
521.947674
 20
290.507608
 30
0.0
 11
521.947674
 21
287.978145
 31
0.0
  0
LINE
  8
LC-008-208-----0
  6
CONTINUOUS
 62
     1
  5
738
 10
528.947674
 20
286.652883
 30
0.0
 11
528.947674
 21
285.277368
 31
0.0
  0
LINE
  8
LC-008-208-----0
  6
CONTINUOUS
 62
     1
  5
739
 10
528.947674
 20
285.277368
 30
0.0
 11
490.730983
 21
285.277368
 31
0.0
  0
LINE
  8
LC-003-002-----0
  6
CONTINUOUS
  5
73A
 10
463.559469
 20
229.977368
 30
0.0
 11
471.41881
 21
229.977368
 31
0.0
  0
LINE
  8
LC-003-002-----0
  6
CONTINUOUS
  5
73B
 10
463.559469
 20
295.977368
 30
0.0
 11
471.41881
 21
295.977368
 31
0.0
  0
ARC
  8
LC-003-002-----0
  6
CONTINUOUS
  5
73C
 10
471.41881
 20
262.977368
 30
0.0
 40
33.0
 50
270.0
 51
310.749054
  0
LINE
  8
LC-003-002-----0
  6
CONTINUOUS
  5
73D
 10
463.559469
 20
229.977368
 30
0.0
 11
463.559469
 21
233.158696
 31
0.0
  0
LINE
  8
LC-003-002-----0
  6
CONTINUOUS
  5
73E
 10
528.947674
 20
286.652883
 30
0.0
 11
528.947674
 21
262.977368
 31
0.0
  0
ARC
  8
LC-003-002-----0
  6
CONTINUOUS
  5
73F
 10
471.41881
 20
262.977368
 30
0.0
 40
29.5
 50
257.003213
 51
310.89311
  0
LINE
  8
LC-008-208-----0
  6
CONTINUOUS
 62
     1
  5
740
 10
492.959469
 20
237.977368
 30
0.0
 11
495.68835
 21
237.977368
 31
0.0
  0
ARC
  8
LC-003-002-----0
  6
CONTINUOUS
  5
741
 10
511.34881
 20
262.977368
 30
0.0
 40
29.5
 50
78.068557
 51
122.063786
  0
LINE
  8
LC-008-208-----0
  6
CONTINUOUS
 62
     1
  5
742
 10
528.947674
 20
240.677368
 30
0.0
 11
490.730983
 21
240.677368
 31
0.0
  0
ARC
  8
LC-003-002-----0
  6
CONTINUOUS
  5
743
 10
511.34881
 20
262.977368
 30
0.0
 40
29.5
 50
237.936214
 51
281.931443
  0
LINE
  8
LC-008-208-----0
  6
CONTINUOUS
 62
     1
  5
744
 10
517.447674
 20
234.114696
 30
0.0
 11
517.447674
 21
237.977465
 31
0.0
  0
LINE
  8
LC-008-208-----0
  6
CONTINUOUS
 62
     1
  5
745
 10
517.447674
 20
237.977465
 30
0.0
 11
521.947674
 21
237.976591
 31
0.0
  0
LINE
  8
LC-008-208-----0
  6
CONTINUOUS
 62
     1
  5
746
 10
521.947674
 20
235.447129
 30
0.0
 11
521.947674
 21
237.976591
 31
0.0
  0
ARC
  8
LC-003-002-----0
  6
CONTINUOUS
  5
747
 10
511.34881
 20
262.977368
 30
0.0
 40
29.5
 50
53.375247
 51
68.943799
  0
ARC
  8
LC-003-002-----0
  6
CONTINUOUS
  5
748
 10
511.34881
 20
262.977368
 30
0.0
 40
29.5
 50
291.056201
 51
306.624753
  0
ARC
  8
LC-003-002-----0
  6
CONTINUOUS
  5
749
 10
471.41881
 20
262.977368
 30
0.0
 40
33.0
 50
49.250946
 51
90.0
  0
LINE
  8
LC-003-002-----0
  6
CONTINUOUS
  5
74A
 10
528.947674
 20
239.301853
 30
0.0
 11
528.947674
 21
262.977368
 31
0.0
  0
ARC
  8
LC-005-002-RND-0
  6
CONTINUOUS
  5
74B
 10
464.559469
 20
292.69604
 30
0.0
 40
1.0
 50
180.0
 51
282.996787
  0
ARC
  8
LC-005-002-RND-0
  6
CONTINUOUS
  5
74C
 10
464.559469
 20
233.258696
 30
0.0
 40
1.0
 50
77.003213
 51
180.0
  0
ARC
  8
LC-003-002-----0
  6
CONTINUOUS
  5
74D
 10
471.41881
 20
262.977368
 30
0.0
 40
29.5
 50
49.10689
 51
102.996787
  0
LINE
  8
LC-003-002-----0
  6
CONTINUOUS
  5
74E
 10
490.730983
 20
240.677368
 30
0.0
 11
490.730983
 21
285.277368
 31
0.0
  0
CIRCLE
  8
LC-003-002-----0
  6
CONTINUOUS
  5
74F
 10
519.697674
 20
289.977708
 30
0.0
 40
2.0
  0
CIRCLE
  8
LC-003-002-----0
  6
CONTINUOUS
  5
750
 10
479.764969
 20
235.985128
 30
0.0
 40
2.0
  0
CIRCLE
  8
LC-003-002-----0
  6
CONTINUOUS
  5
751
 10
479.764969
 20
289.969608
 30
0.0
 40
2.0
  0
CIRCLE
  8
LC-003-002-----0
  6
CONTINUOUS
  5
752
 10
519.697674
 20
235.977028
 30
0.0
 40
2.0
  0
LINE
  8
LC-003-002-----0
  6
CONTINUOUS
  5
753
 10
168.594566
 20
323.444788
 30
0.0
 11
168.594566
 21
261.444788
 31
0.0
  0
LINE
  8
LC-003-002-----0
  6
CONTINUOUS
  5
754
 10
168.594566
 20
261.444788
 30
0.0
 11
170.594566
 21
261.444788
 31
0.0
  0
LINE
  8
LC-003-002-----0
  6
CONTINUOUS
  5
755
 10
170.594566
 20
261.444788
 30
0.0
 11
170.594566
 21
267.444788
 31
0.0
  0
LINE
  8
LC-003-002-----0
  6
CONTINUOUS
  5
756
 10
170.594566
 20
267.444788
 30
0.0
 11
192.594566
 21
267.444788
 31
0.0
  0
LINE
  8
LC-003-002-----0
  6
CONTINUOUS
  5
757
 10
195.594566
 20
268.248635
 30
0.0
 11
195.594566
 21
316.64094
 31
0.0
  0
LINE
  8
LC-003-002-----0
  6
CONTINUOUS
  5
758
 10
192.594566
 20
317.444788
 30
0.0
 11
170.594566
 21
317.444788
 31
0.0
  0
LINE
  8
LC-003-002-----0
  6
CONTINUOUS
  5
759
 10
170.594566
 20
317.444788
 30
0.0
 11
170.594566
 21
323.444788
 31
0.0
  0
LINE
  8
LC-003-002-----0
  6
CONTINUOUS
  5
75A
 10
170.594566
 20
323.444788
 30
0.0
 11
168.594566
 21
323.444788
 31
0.0
  0
LINE
  8
LC-003-002-----0
  6
CONTINUOUS
  5
75B
 10
193.594566
 20
270.444788
 30
0.0
 11
193.594566
 21
314.444788
 31
0.0
  0
LINE
  8
LC-003-002-----0
  6
CONTINUOUS
  5
75C
 10
192.594566
 20
315.444788
 30
0.0
 11
168.594566
 21
315.444788
 31
0.0
  0
LINE
  8
LC-003-002-----0
  6
CONTINUOUS
  5
75D
 10
168.594566
 20
269.444788
 30
0.0
 11
192.594566
 21
269.444788
 31
0.0
  0
LINE
  8
LC-003-002-----0
  6
CONTINUOUS
  5
75E
 10
195.594566
 20
316.64094
 30
0.0
 11
192.594566
 21
317.444788
 31
0.0
  0
LINE
  8
LC-003-002-----0
  6
CONTINUOUS
  5
75F
 10
195.594566
 20
268.248635
 30
0.0
 11
192.594566
 21
267.444788
 31
0.0
  0
ARC
  8
LC-005-002-RND-0
  6
CONTINUOUS
  5
760
 10
192.594566
 20
314.444788
 30
0.0
 40
1.0
 50
0.0
 51
90.0
  0
ARC
  8
LC-005-002-RND-0
  6
CONTINUOUS
  5
761
 10
192.594566
 20
270.444788
 30
0.0
 40
1.0
 50
270.0
 51
0.0
  0
LINE
  8
LC-012-206-----0
  6
CONTINUOUS
  5
763
 10
292.694566
 20
267.244788
 30
0.0
 11
292.694566
 21
264.744788
 31
0.0
  0
LINE
  8
LC-012-206-----0
  6
CONTINUOUS
  5
764
 10
233.594566
 20
317.694788
 30
0.0
 11
187.094566
 21
317.694788
 31
0.0
  0
LINE
  8
LC-012-206-----0
  6
CONTINUOUS
  5
765
 10
243.594566
 20
244.955869
 30
0.0
 11
283.594566
 21
244.955869
 31
0.0
  0
LINE
  8
LC-012-206-----0
  6
CONTINUOUS
  5
766
 10
241.294566
 20
246.455869
 30
0.0
 11
241.294566
 21
248.455869
 31
0.0
  0
LINE
  8
LC-012-206-----0
  6
CONTINUOUS
  5
767
 10
170.594566
 20
320.194788
 30
0.0
 11
170.594566
 21
317.694788
 31
0.0
  0
LINE
  8
LC-012-206-----0
  6
CONTINUOUS
  5
768
 10
239.794566
 20
260.455936
 30
0.0
 11
237.144566
 21
260.455936
 31
0.0
  0
LINE
  8
LC-012-206-----0
  6
CONTINUOUS
  5
769
 10
177.094566
 20
322.694788
 30
0.0
 11
174.594566
 21
320.194788
 31
0.0
  0
LINE
  8
LC-012-206-----0
  6
CONTINUOUS
  5
76A
 10
174.594566
 20
320.194788
 30
0.0
 11
170.594566
 21
320.194788
 31
0.0
  0
LINE
  8
LC-012-206-----0
  6
CONTINUOUS
  5
76B
 10
241.294566
 20
263.744788
 30
0.0
 11
241.294566
 21
261.955936
 31
0.0
  0
ARC
  8
LC-012-206-----0
  6
CONTINUOUS
  5
76C
 10
241.594566
 20
265.244788
 30
0.0
 40
2.0
 50
0.0
 51
90.0
  0
ARC
  8
LC-012-206-----0
  6
CONTINUOUS
  5
76D
 10
240.294566
 20
263.744788
 30
0.0
 40
1.0
 50
0.0
 51
90.0
  0
ARC
  8
LC-012-206-----0
  6
CONTINUOUS
  5
76E
 10
239.794566
 20
261.955936
 30
0.0
 40
1.5
 50
270.0
 51
0.0
  0
LINE
  8
LC-012-206-----0
  6
CONTINUOUS
  5
76F
 10
243.594566
 20
265.244788
 30
0.0
 11
243.594566
 21
244.955869
 31
0.0
  0
LINE
  8
LC-012-206-----0
  6
CONTINUOUS
  5
770
 10
240.294566
 20
264.744788
 30
0.0
 11
189.594566
 21
264.744788
 31
0.0
  0
LINE
  8
LC-012-206-----0
  6
CONTINUOUS
  5
771
 10
286.54056
 20
267.244788
 30
0.0
 11
292.694566
 21
267.244788
 31
0.0
  0
LINE
  8
LC-012-206-----0
  6
CONTINUOUS
  5
772
 10
286.394566
 20
264.744788
 30
0.0
 11
292.694566
 21
264.744788
 31
0.0
  0
LINE
  8
LC-012-206-----0
  6
CONTINUOUS
  5
773
 10
237.144566
 20
257.955936
 30
0.0
 11
240.294566
 21
257.955936
 31
0.0
  0
ARC
  8
LC-012-206-----0
  6
CONTINUOUS
  5
774
 10
286.54056
 20
267.744788
 30
0.0
 40
0.5
 50
180.054053
 51
270.0
  0
ARC
  8
LC-012-206-----0
  6
CONTINUOUS
  5
775
 10
242.794566
 20
246.455869
 30
0.0
 40
1.5
 50
180.0
 51
270.0
  0
LINE
  8
LC-012-206-----0
  6
CONTINUOUS
  5
776
 10
174.594566
 20
264.694788
 30
0.0
 11
177.094566
 21
262.194788
 31
0.0
  0
LINE
  8
LC-003-002-----0
  6
CONTINUOUS
  5
777
 10
179.39812
 20
262.591234
 30
0.0
 11
174.794566
 21
267.194788
 31
0.0
  0
ARC
  8
LC-012-206-----0
  6
CONTINUOUS
  5
778
 10
233.540583
 20
267.694788
 30
0.0
 40
52.5
 50
0.054053
 51
17.036286
  0
ARC
  8
LC-012-206-----0
  6
CONTINUOUS
  5
779
 10
284.394566
 20
246.455869
 30
0.0
 40
1.5
 50
270.0
 51
0.0
  0
LINE
  8
LC-012-206-----0
  6
CONTINUOUS
  5
77A
 10
283.594566
 20
244.955869
 30
0.0
 11
284.394566
 21
244.955869
 31
0.0
  0
LINE
  8
LC-012-206-----0
  6
CONTINUOUS
  5
77B
 10
285.894566
 20
246.455869
 30
0.0
 11
285.894566
 21
248.455869
 31
0.0
  0
LINE
  8
LC-012-206-----0
  6
CONTINUOUS
  5
77C
 10
283.594566
 20
267.694788
 30
0.0
 11
283.594566
 21
244.955869
 31
0.0
  0
LINE
  8
LC-012-206-----0
  6
CONTINUOUS
  5
77D
 10
290.044566
 20
257.955936
 30
0.0
 11
286.894566
 21
257.955936
 31
0.0
  0
LINE
  8
LC-003-002-----0
  6
CONTINUOUS
  5
77E
 10
179.39812
 20
322.298341
 30
0.0
 11
174.794566
 21
317.694788
 31
0.0
  0
ARC
  8
LC-012-206-----0
  6
CONTINUOUS
  5
77F
 10
290.044566
 20
258.455936
 30
0.0
 40
0.5
 50
270.0
 51
0.0
  0
ARC
  8
LC-012-206-----0
  6
CONTINUOUS
  5
780
 10
290.044566
 20
259.955936
 30
0.0
 40
0.5
 50
0.0
 51
90.0
  0
LINE
  8
LC-012-206-----0
  6
CONTINUOUS
  5
781
 10
287.394566
 20
260.455936
 30
0.0
 11
290.044566
 21
260.455936
 31
0.0
  0
ARC
  8
LC-012-206-----0
  6
CONTINUOUS
  5
782
 10
233.540583
 20
267.694788
 30
0.0
 40
52.5
 50
17.036286
 51
90.0
  0
ARC
  8
LC-012-206-----0
  6
CONTINUOUS
  5
783
 10
287.394566
 20
261.955936
 30
0.0
 40
1.5
 50
180.0
 51
270.0
  0
ARC
  8
LC-012-206-----0
  6
CONTINUOUS
  5
784
 10
233.594566
 20
267.694788
 30
0.0
 40
50.0
 50
0.0
 51
90.0
  0
LINE
  8
LC-012-206-----0
  6
CONTINUOUS
  5
785
 10
290.544566
 20
259.955936
 30
0.0
 11
290.544566
 21
258.455936
 31
0.0
  0
LINE
  8
LC-012-206-----0
  6
CONTINUOUS
  5
786
 10
243.594566
 20
244.955869
 30
0.0
 11
242.794566
 21
244.955869
 31
0.0
  0
ARC
  8
LC-012-206-----0
  6
CONTINUOUS
  5
787
 10
237.144566
 20
258.455936
 30
0.0
 40
0.5
 50
180.0
 51
270.0
  0
ARC
  8
LC-012-206-----0
  6
CONTINUOUS
  5
788
 10
237.144566
 20
259.955936
 30
0.0
 40
0.5
 50
90.0
 51
180.0
  0
LINE
  8
LC-012-206-----0
  6
CONTINUOUS
  5
789
 10
236.644566
 20
259.955936
 30
0.0
 11
236.644566
 21
258.455936
 31
0.0
  0
ARC
  8
LC-012-206-----0
  6
CONTINUOUS
  5
78A
 10
286.394566
 20
264.244788
 30
0.0
 40
0.5
 50
90.0
 51
180.0
  0
LINE
  8
LC-012-206-----0
  6
CONTINUOUS
  5
78B
 10
285.894566
 20
264.244788
 30
0.0
 11
285.894566
 21
261.955936
 31
0.0
  0
ARC
  8
LC-012-206-----0
  6
CONTINUOUS
  5
78C
 10
179.751673
 20
321.944788
 30
0.0
 40
0.5
 50
90.0
 51
135.0
  0
LINE
  8
LC-012-206-----0
  6
CONTINUOUS
  5
78D
 10
186.594566
 20
322.444788
 30
0.0
 11
179.751673
 21
322.444788
 31
0.0
  0
LINE
  8
LC-012-206-----0
  6
CONTINUOUS
  5
78E
 10
188.094566
 20
324.944788
 30
0.0
 11
178.094566
 21
324.944788
 31
0.0
  0
LINE
  8
LC-012-206-----0
  6
CONTINUOUS
  5
78F
 10
174.794566
 20
317.694788
 30
0.0
 11
170.594566
 21
317.694788
 31
0.0
  0
LINE
  8
LC-012-206-----0
  6
CONTINUOUS
  5
790
 10
189.594566
 20
320.194788
 30
0.0
 11
233.540583
 21
320.194788
 31
0.0
  0
ARC
  8
LC-012-206-----0
  6
CONTINUOUS
  5
791
 10
178.094566
 20
323.944788
 30
0.0
 40
1.0
 50
90.0
 51
180.0
  0
ARC
  8
LC-012-206-----0
  6
CONTINUOUS
  5
792
 10
188.094566
 20
323.944788
 30
0.0
 40
1.0
 50
0.0
 51
90.0
  0
ARC
  8
LC-012-206-----0
  6
CONTINUOUS
  5
793
 10
189.594566
 20
320.694788
 30
0.0
 40
0.5
 50
180.0
 51
270.0
  0
ARC
  8
LC-012-206-----0
  6
CONTINUOUS
  5
794
 10
186.594566
 20
321.944788
 30
0.0
 40
0.5
 50
0.0
 51
90.0
  0
LINE
  8
LC-012-206-----0
  6
CONTINUOUS
  5
795
 10
187.094566
 20
321.944788
 30
0.0
 11
187.094566
 21
317.694788
 31
0.0
  0
LINE
  8
LC-012-206-----0
  6
CONTINUOUS
  5
796
 10
189.094566
 20
323.944788
 30
0.0
 11
189.094566
 21
320.694788
 31
0.0
  0
LINE
  8
LC-012-206-----0
  6
CONTINUOUS
  5
797
 10
177.094566
 20
323.944788
 30
0.0
 11
177.094566
 21
322.694788
 31
0.0
  0
LINE
  8
LC-012-206-----0
  6
CONTINUOUS
  5
798
 10
241.594566
 20
267.194788
 30
0.0
 11
187.094566
 21
267.194788
 31
0.0
  0
LINE
  8
LC-012-206-----0
  6
CONTINUOUS
  5
799
 10
170.594566
 20
264.694788
 30
0.0
 11
170.594566
 21
267.194788
 31
0.0
  0
LINE
  8
LC-012-206-----0
  6
CONTINUOUS
  5
79A
 10
170.594566
 20
264.694788
 30
0.0
 11
174.594566
 21
264.694788
 31
0.0
  0
ARC
  8
LC-012-206-----0
  6
CONTINUOUS
  5
79B
 10
179.751673
 20
262.944788
 30
0.0
 40
0.5
 50
225.0
 51
270.0
  0
LINE
  8
LC-012-206-----0
  6
CONTINUOUS
  5
79C
 10
186.594566
 20
262.444788
 30
0.0
 11
179.751673
 21
262.444788
 31
0.0
  0
LINE
  8
LC-012-206-----0
  6
CONTINUOUS
  5
79D
 10
188.094566
 20
259.944788
 30
0.0
 11
178.094566
 21
259.944788
 31
0.0
  0
LINE
  8
LC-012-206-----0
  6
CONTINUOUS
  5
79E
 10
174.794566
 20
267.194788
 30
0.0
 11
170.594566
 21
267.194788
 31
0.0
  0
LINE
  8
LC-003-002-----0
  6
CONTINUOUS
  5
79F
 10
238.594566
 20
249.455869
 30
0.0
 11
239.594566
 21
248.455869
 31
0.0
  0
ARC
  8
LC-012-206-----0
  6
CONTINUOUS
  5
7A0
 10
178.094566
 20
260.944788
 30
0.0
 40
1.0
 50
180.0
 51
270.0
  0
ARC
  8
LC-012-206-----0
  6
CONTINUOUS
  5
7A1
 10
188.094566
 20
260.944788
 30
0.0
 40
1.0
 50
270.0
 51
0.0
  0
ARC
  8
LC-012-206-----0
  6
CONTINUOUS
  5
7A2
 10
189.594566
 20
264.244788
 30
0.0
 40
0.5
 50
90.0
 51
180.0
  0
ARC
  8
LC-012-206-----0
  6
CONTINUOUS
  5
7A3
 10
186.594566
 20
262.944788
 30
0.0
 40
0.5
 50
270.0
 51
0.0
  0
LINE
  8
LC-012-206-----0
  6
CONTINUOUS
  5
7A4
 10
187.094566
 20
262.944788
 30
0.0
 11
187.094566
 21
267.194788
 31
0.0
  0
LINE
  8
LC-012-206-----0
  6
CONTINUOUS
  5
7A5
 10
189.094566
 20
260.944788
 30
0.0
 11
189.094566
 21
264.244788
 31
0.0
  0
LINE
  8
LC-012-206-----0
  6
CONTINUOUS
  5
7A6
 10
177.094566
 20
262.194788
 30
0.0
 11
177.094566
 21
260.944788
 31
0.0
  0
LINE
  8
LC-003-002-----0
  6
CONTINUOUS
  5
7A7
 10
288.594566
 20
249.455869
 30
0.0
 11
287.594566
 21
248.455869
 31
0.0
  0
LINE
  8
LC-003-002-----0
  6
CONTINUOUS
  5
7A8
 10
239.594566
 20
248.455869
 30
0.0
 11
241.294566
 21
248.455869
 31
0.0
  0
LINE
  8
LC-003-002-----0
  6
CONTINUOUS
  5
7A9
 10
238.594566
 20
250.955869
 30
0.0
 11
238.594566
 21
249.455869
 31
0.0
  0
LINE
  8
LC-003-002-----0
  6
CONTINUOUS
  5
7AA
 10
238.594566
 20
250.955869
 30
0.0
 11
241.294566
 21
250.955869
 31
0.0
  0
LINE
  8
LC-003-002-----0
  6
CONTINUOUS
  5
7AB
 10
287.594566
 20
248.455869
 30
0.0
 11
285.894566
 21
248.455869
 31
0.0
  0
LINE
  8
LC-003-002-----0
  6
CONTINUOUS
  5
7AC
 10
288.594566
 20
250.955869
 30
0.0
 11
288.594566
 21
249.455869
 31
0.0
  0
LINE
  8
LC-003-002-----0
  6
CONTINUOUS
  5
7AD
 10
288.594566
 20
250.955869
 30
0.0
 11
285.894566
 21
250.955869
 31
0.0
  0
LINE
  8
LC-012-206-----0
  6
CONTINUOUS
  5
7AE
 10
285.894566
 20
256.955936
 30
0.0
 11
285.894566
 21
250.955869
 31
0.0
  0
LINE
  8
LC-012-206-----0
  6
CONTINUOUS
  5
7AF
 10
241.294566
 20
256.955936
 30
0.0
 11
241.294566
 21
250.955869
 31
0.0
  0
LINE
  8
LC-012-206-----0
  6
CONTINUOUS
  5
7B0
 10
240.294566
 20
257.955936
 30
0.0
 11
241.294566
 21
256.955936
 31
0.0
  0
LINE
  8
LC-012-206-----0
  6
CONTINUOUS
  5
7B1
 10
286.894566
 20
257.955936
 30
0.0
 11
285.894566
 21
256.955936
 31
0.0
  0
LINE
  8
LC-003-002-----0
  6
CONTINUOUS
  5
7B2
 10
248.594566
 20
224.846611
 30
0.0
 11
300.92392
 21
224.846611
 31
0.0
  0
LINE
  8
LC-003-002-----0
  6
CONTINUOUS
  5
7B3
 10
248.594566
 20
221.846667
 30
0.0
 11
263.594566
 21
221.846667
 31
0.0
  0
LINE
  8
LC-003-002-----0
  6
CONTINUOUS
  5
7B4
 10
234.479752
 20
264.245065
 30
0.0
 11
234.140009
 21
244.781183
 31
0.0
  0
LINE
  8
LC-003-002-----0
  6
CONTINUOUS
  5
7B5
 10
237.995042
 20
261.07559
 30
0.0
 11
237.995042
 21
262.244834
 31
0.0
  0
LINE
  8
LC-003-002-----0
  6
CONTINUOUS
  5
7B6
 10
290.694062
 20
246.216992
 30
0.0
 11
290.694062
 21
260.944858
 31
0.0
  0
LINE
  8
LC-003-002-----0
  6
CONTINUOUS
  5
7B7
 10
236.49507
 20
260.944858
 30
0.0
 11
237.989335
 21
261.07559
 31
0.0
  0
LINE
  8
LC-003-002-----0
  6
CONTINUOUS
  5
7B8
 10
235.495089
 20
264.744788
 30
0.0
 11
234.995098
 21
264.744788
 31
0.0
  0
LINE
  8
LC-003-002-----0
  6
CONTINUOUS
  5
7B9
 10
289.19409
 20
262.244834
 30
0.0
 11
291.694044
 21
264.744788
 31
0.0
  0
LINE
  8
LC-003-002-----0
  6
CONTINUOUS
  5
7BA
 10
289.19409
 20
261.076089
 30
0.0
 11
289.19409
 21
262.244834
 31
0.0
  0
LINE
  8
LC-003-002-----0
  6
CONTINUOUS
  5
7BB
 10
290.694062
 20
260.944858
 30
0.0
 11
289.19409
 21
261.076089
 31
0.0
  0
LINE
  8
LC-003-002-----0
  6
CONTINUOUS
  5
7BC
 10
292.709233
 20
264.253514
 30
0.0
 11
293.057042
 21
244.327531
 31
0.0
  0
ARC
  8
LC-003-002-----0
  6
CONTINUOUS
  5
7BD
 10
234.995098
 20
264.244797
 30
0.0
 40
0.499991
 50
90.0
 51
180.0
  0
LINE
  8
LC-003-002-----0
  6
CONTINUOUS
  5
7BE
 10
236.49507
 20
246.216992
 30
0.0
 11
236.49507
 21
260.944858
 31
0.0
  0
LINE
  8
LC-003-002-----0
  6
CONTINUOUS
  5
7BF
 10
291.694044
 20
264.744788
 30
0.0
 11
292.209309
 21
264.744788
 31
0.0
  0
LINE
  8
LC-003-002-----0
  6
CONTINUOUS
  5
7C0
 10
263.594566
 20
221.846667
 30
0.0
 11
298.82392
 21
221.846667
 31
0.0
  0
LINE
  8
LC-003-002-----0
  6
CONTINUOUS
  5
7C1
 10
237.995042
 20
262.244834
 30
0.0
 11
235.495089
 21
264.744788
 31
0.0
  0
LINE
  8
LC-003-002-----0
  6
CONTINUOUS
  5
7C2
 10
300.92392
 20
219.846667
 30
0.0
 11
300.92392
 21
245.83622
 31
0.0
  0
LINE
  8
LC-003-002-----0
  6
CONTINUOUS
  5
7C3
 10
283.594566
 20
240.836313
 30
0.0
 11
300.92392
 21
240.836313
 31
0.0
  0
LINE
  8
LC-003-002-----0
  6
CONTINUOUS
  5
7C4
 10
300.92392
 20
244.833242
 30
0.0
 11
300.92392
 21
245.277014
 31
0.0
  0
LINE
  8
LC-003-002-----0
  6
CONTINUOUS
  5
7C5
 10
236.139704
 20
242.746278
 30
0.0
 11
237.594566
 21
242.746278
 31
0.0
  0
LINE
  8
LC-003-002-----0
  6
CONTINUOUS
  5
7C6
 10
300.92392
 20
224.846629
 30
0.0
 11
300.92392
 21
240.836313
 31
0.0
  0
LINE
  8
LC-003-002-----0
  6
CONTINUOUS
  5
7C7
 10
300.32392
 20
245.83622
 30
0.0
 11
300.92392
 21
245.83622
 31
0.0
  0
LINE
  8
LC-003-002-----0
  6
CONTINUOUS
  5
7C8
 10
243.594566
 20
244.444788
 30
0.0
 11
243.594566
 21
229.846611
 31
0.0
  0
LINE
  8
LC-003-002-----0
  6
CONTINUOUS
  5
7C9
 10
241.194566
 20
244.444788
 30
0.0
 11
285.994566
 21
244.444788
 31
0.0
  0
LINE
  8
LC-003-002-----0
  6
CONTINUOUS
  5
7CA
 10
285.994566
 20
246.216992
 30
0.0
 11
285.994566
 21
244.444788
 31
0.0
  0
LINE
  8
LC-003-002-----0
  6
CONTINUOUS
  5
7CB
 10
285.994566
 20
246.216992
 30
0.0
 11
290.694062
 21
246.216992
 31
0.0
  0
LINE
  8
LC-003-002-----0
  6
CONTINUOUS
  5
7CC
 10
283.594566
 20
244.444788
 30
0.0
 11
283.594566
 21
240.836313
 31
0.0
  0
LINE
  8
LC-003-002-----0
  6
CONTINUOUS
  5
7CD
 10
299.82392
 20
244.836258
 30
0.0
 11
299.82392
 21
245.33622
 31
0.0
  0
LINE
  8
LC-003-002-----0
  6
CONTINUOUS
  5
7CE
 10
241.194566
 20
246.216992
 30
0.0
 11
241.194566
 21
244.444788
 31
0.0
  0
LINE
  8
LC-003-002-----0
  6
CONTINUOUS
  5
7CF
 10
240.594566
 20
239.746278
 30
0.0
 11
240.594566
 21
229.846667
 31
0.0
  0
LINE
  8
LC-003-002-----0
  6
CONTINUOUS
  5
7D0
 10
241.194566
 20
246.216992
 30
0.0
 11
236.49507
 21
246.216992
 31
0.0
  0
ARC
  8
LC-005-002-RND-0
  6
CONTINUOUS
  5
7D1
 10
236.139704
 20
244.746278
 30
0.0
 40
2.0
 50
179.0
 51
270.0
  0
ARC
  8
LC-005-002-RND-0
  6
CONTINUOUS
  5
7D2
 10
237.594566
 20
239.746278
 30
0.0
 40
3.0
 50
0.0
 51
90.0
  0
ARC
  8
LC-005-002-RND-0
  6
CONTINUOUS
  5
7D3
 10
248.594566
 20
229.846611
 30
0.0
 40
5.0
 50
180.0
 51
270.0
  0
ARC
  8
LC-005-002-RND-0
  6
CONTINUOUS
  5
7D4
 10
248.594566
 20
229.846667
 30
0.0
 40
8.0
 50
180.0
 51
270.0
  0
LINE
  8
LC-003-002-----0
  6
CONTINUOUS
  5
7D5
 10
299.82392
 20
220.846667
 30
0.0
 11
299.82392
 21
220.346667
 31
0.0
  0
LINE
  8
LC-003-002-----0
  6
CONTINUOUS
  5
7D6
 10
300.32392
 20
219.846667
 30
0.0
 11
300.92392
 21
219.846667
 31
0.0
  0
ARC
  8
LC-005-002-RND-0
  6
CONTINUOUS
  5
7D7
 10
298.82392
 20
220.846667
 30
0.0
 40
1.0
 50
0.0
 51
90.0
  0
ARC
  8
LC-005-002-RND-0
  6
CONTINUOUS
  5
7D8
 10
300.32392
 20
220.346667
 30
0.0
 40
0.5
 50
180.0
 51
270.0
  0
ARC
  8
LC-005-002-RND-0
  6
CONTINUOUS
  5
7D9
 10
292.209309
 20
264.244788
 30
0.0
 40
0.5
 50
1.0
 51
90.0
  0
LINE
  8
LC-003-002-----0
  6
CONTINUOUS
  5
7DA
 10
293.556966
 20
243.836258
 30
0.0
 11
298.82392
 21
243.836258
 31
0.0
  0
ARC
  8
LC-005-002-RND-0
  6
CONTINUOUS
  5
7DB
 10
300.32392
 20
245.33622
 30
0.0
 40
0.5
 50
90.0
 51
180.0
  0
ARC
  8
LC-005-002-RND-0
  6
CONTINUOUS
  5
7DC
 10
298.82392
 20
244.836258
 30
0.0
 40
1.0
 50
270.0
 51
0.0
  0
ARC
  8
LC-005-002-RND-0
  6
CONTINUOUS
  5
7DD
 10
293.556966
 20
244.336258
 30
0.0
 40
0.5
 50
181.0
 51
270.0
  0
LINE
  8
LC-003-002-----0
  6
DASHDOT
 62
     2
  5
7DE
 10
263.594566
 20
262.444788
 30
0.0
 11
263.594566
 21
244.955869
 31
0.0
  0
LINE
  8
LC-003-002-----0
  6
DASHDOT
 62
     2
  5
7DF
 10
233.594566
 20
292.444788
 30
0.0
 11
170.594566
 21
292.444788
 31
0.0
  0
LINE
  8
LC-001-205-----0
  6
CONTINUOUS
  5
7E0
 10
344.190246
 20
240.462768
 30
0.0
 11
360.312158
 21
240.462768
 31
0.0
  0
LINE
  8
LC-006-005-----0
  6
CONTINUOUS
  5
7E1
 10
307.960139
 20
241.991462
 30
0.0
 11
310.950851
 21
244.982174
 31
0.0
  0
LINE
  8
LC-006-005-----0
  6
CONTINUOUS
  5
7E2
 10
305.131712
 20
241.991462
 30
0.0
 11
310.950851
 21
247.810601
 31
0.0
  0
LINE
  8
LC-006-005-----0
  6
CONTINUOUS
  5
7E3
 10
302.303285
 20
241.991462
 30
0.0
 11
304.503285
 21
244.191462
 31
0.0
  0
LINE
  8
LC-006-005-----0
  6
CONTINUOUS
  5
7E4
 10
307.950851
 20
247.639028
 30
0.0
 11
310.950851
 21
250.639028
 31
0.0
  0
LINE
  8
LC-006-005-----0
  6
CONTINUOUS
  5
7E5
 10
300.92392
 20
243.440524
 30
0.0
 11
302.17392
 21
244.690524
 31
0.0
  0
LINE
  8
LC-006-005-----0
  6
CONTINUOUS
  5
7E6
 10
307.950851
 20
250.467455
 30
0.0
 11
310.950851
 21
253.467455
 31
0.0
  0
LINE
  8
LC-006-005-----0
  6
CONTINUOUS
  5
7E7
 10
300.92392
 20
246.268951
 30
0.0
 11
301.846431
 21
247.191462
 31
0.0
  0
LINE
  8
LC-006-005-----0
  6
CONTINUOUS
  5
7E8
 10
307.950851
 20
253.295883
 30
0.0
 11
310.950851
 21
256.295883
 31
0.0
  0
LINE
  8
LC-006-005-----0
  6
CONTINUOUS
  5
7E9
 10
307.950851
 20
256.12431
 30
0.0
 11
310.950851
 21
259.12431
 31
0.0
  0
LINE
  8
LC-006-005-----0
  6
CONTINUOUS
  5
7EA
 10
307.950851
 20
258.952737
 30
0.0
 11
310.950851
 21
261.952737
 31
0.0
  0
LINE
  8
LC-006-005-----0
  6
CONTINUOUS
  5
7EB
 10
307.950851
 20
261.781164
 30
0.0
 11
310.950851
 21
264.781164
 31
0.0
  0
LINE
  8
LC-006-005-----0
  6
CONTINUOUS
  5
7EC
 10
307.950851
 20
264.609591
 30
0.0
 11
310.950851
 21
267.609591
 31
0.0
  0
LINE
  8
LC-006-005-----0
  6
CONTINUOUS
  5
7ED
 10
307.950851
 20
267.438018
 30
0.0
 11
310.950851
 21
270.438018
 31
0.0
  0
LINE
  8
LC-006-005-----0
  6
CONTINUOUS
  5
7EE
 10
307.950851
 20
270.266445
 30
0.0
 11
310.950851
 21
273.266445
 31
0.0
  0
LINE
  8
LC-006-005-----0
  6
CONTINUOUS
  5
7EF
 10
307.950851
 20
273.094872
 30
0.0
 11
310.950851
 21
276.094872
 31
0.0
  0
LINE
  8
LC-006-005-----0
  6
CONTINUOUS
  5
7F0
 10
307.950851
 20
275.9233
 30
0.0
 11
310.950851
 21
278.9233
 31
0.0
  0
LINE
  8
LC-006-005-----0
  6
CONTINUOUS
  5
7F1
 10
307.950851
 20
278.751727
 30
0.0
 11
310.950851
 21
281.751727
 31
0.0
  0
LINE
  8
LC-006-005-----0
  6
CONTINUOUS
  5
7F2
 10
307.950851
 20
281.580154
 30
0.0
 11
310.950851
 21
284.580154
 31
0.0
  0
LINE
  8
LC-006-005-----0
  6
CONTINUOUS
  5
7F3
 10
307.950851
 20
284.408581
 30
0.0
 11
310.950851
 21
287.408581
 31
0.0
  0
LINE
  8
LC-006-005-----0
  6
CONTINUOUS
  5
7F4
 10
307.950851
 20
287.237008
 30
0.0
 11
310.950851
 21
290.237008
 31
0.0
  0
LINE
  8
LC-006-005-----0
  6
CONTINUOUS
  5
7F5
 10
306.460893
 20
288.575477
 30
0.0
 11
308.416588
 21
290.531172
 31
0.0
  0
LINE
  8
LC-006-005-----0
  6
CONTINUOUS
  5
7F6
 10
305.153198
 20
290.096209
 30
0.0
 11
308.271848
 21
293.214859
 31
0.0
  0
LINE
  8
LC-006-005-----0
  6
CONTINUOUS
  5
7F7
 10
304.950851
 20
292.722289
 30
0.0
 11
308.271848
 21
296.043287
 31
0.0
  0
LINE
  8
LC-006-005-----0
  6
CONTINUOUS
  5
7F8
 10
304.265155
 20
294.865021
 30
0.0
 11
308.271848
 21
298.871714
 31
0.0
  0
LINE
  8
LC-006-005-----0
  6
CONTINUOUS
  5
7F9
 10
302.850942
 20
296.279234
 30
0.0
 11
307.194677
 21
300.62297
 31
0.0
  0
LINE
  8
LC-006-005-----0
  6
CONTINUOUS
  5
7FA
 10
301.422605
 20
297.679325
 30
0.0
 11
304.426956
 21
300.683676
 31
0.0
  0
LINE
  8
LC-006-005-----0
  6
CONTINUOUS
  5
7FB
 10
298.594178
 20
297.679325
 30
0.0
 11
301.598529
 21
300.683676
 31
0.0
  0
LINE
  8
LC-006-005-----0
  6
CONTINUOUS
  5
7FC
 10
295.765751
 20
297.679325
 30
0.0
 11
298.770102
 21
300.683676
 31
0.0
  0
LINE
  8
LC-006-005-----0
  6
CONTINUOUS
  5
7FD
 10
292.937324
 20
297.679325
 30
0.0
 11
296.01673
 21
300.758731
 31
0.0
  0
LINE
  8
LC-006-005-----0
  6
CONTINUOUS
  5
7FE
 10
290.35507
 20
297.925498
 30
0.0
 11
294.646939
 21
302.217368
 31
0.0
  0
LINE
  8
LC-006-005-----0
  6
CONTINUOUS
  5
7FF
 10
288.888223
 20
299.287079
 30
0.0
 11
294.679837
 21
305.078693
 31
0.0
  0
LINE
  8
LC-006-005-----0
  6
CONTINUOUS
  5
800
 10
287.989371
 20
301.216654
 30
0.0
 11
295.225359
 21
308.452642
 31
0.0
  0
LINE
  8
LC-006-005-----0
  6
CONTINUOUS
  5
801
 10
287.090597
 20
303.146307
 30
0.0
 11
293.322157
 21
309.377867
 31
0.0
  0
LINE
  8
LC-006-005-----0
  6
CONTINUOUS
  5
802
 10
286.191823
 20
305.07596
 30
0.0
 11
290.49373
 21
309.377867
 31
0.0
  0
LINE
  8
LC-006-005-----0
  6
CONTINUOUS
  5
803
 10
285.293049
 20
307.005613
 30
0.0
 11
287.665303
 21
309.377867
 31
0.0
  0
LINE
  8
LC-006-005-----0
  6
CONTINUOUS
  5
804
 10
284.394275
 20
308.935265
 30
0.0
 11
285.800671
 21
310.341662
 31
0.0
  0
LINE
  8
LC-006-005-----0
  6
CONTINUOUS
  5
805
 10
283.4955
 20
310.864918
 30
0.0
 11
285.701558
 21
313.070976
 31
0.0
  0
LINE
  8
LC-006-005-----0
  6
CONTINUOUS
  5
806
 10
283.450851
 20
313.648696
 30
0.0
 11
285.701558
 21
315.899403
 31
0.0
  0
LINE
  8
LC-006-005-----0
  6
CONTINUOUS
  5
807
 10
283.450851
 20
316.477123
 30
0.0
 11
285.701558
 21
318.72783
 31
0.0
  0
LINE
  8
LC-006-005-----0
  6
CONTINUOUS
  5
808
 10
282.400036
 20
318.254736
 30
0.0
 11
285.701558
 21
321.556258
 31
0.0
  0
LINE
  8
LC-006-005-----0
  6
CONTINUOUS
  5
809
 10
279.756735
 20
318.439861
 30
0.0
 11
282.59334
 21
321.276467
 31
0.0
  0
LINE
  8
LC-006-005-----0
  6
CONTINUOUS
  5
80A
 10
283.701558
 20
322.384685
 30
0.0
 11
285.701558
 21
324.384685
 31
0.0
  0
LINE
  8
LC-006-005-----0
  6
CONTINUOUS
  5
80B
 10
278.361489
 20
319.873042
 30
0.0
 11
280.625482
 21
322.137035
 31
0.0
  0
LINE
  8
LC-006-005-----0
  6
CONTINUOUS
  5
80C
 10
283.701558
 20
325.213112
 30
0.0
 11
285.201558
 21
326.713112
 31
0.0
  0
LINE
  8
LC-006-005-----0
  6
CONTINUOUS
  5
80D
 10
277.645171
 20
321.985152
 30
0.0
 11
280.60294
 21
324.942921
 31
0.0
  0
LINE
  8
LC-006-005-----0
  6
CONTINUOUS
  5
80E
 10
278.200851
 20
325.369259
 30
0.0
 11
280.60294
 21
327.771348
 31
0.0
  0
LINE
  8
LC-006-005-----0
  6
CONTINUOUS
  5
80F
 10
277.262634
 20
327.259469
 30
0.0
 11
280.074624
 21
330.071459
 31
0.0
  0
LINE
  8
LC-006-005-----0
  6
CONTINUOUS
  5
810
 10
274.619063
 20
327.444326
 30
0.0
 11
277.437812
 21
330.263074
 31
0.0
  0
LINE
  8
LC-006-005-----0
  6
CONTINUOUS
  5
811
 10
271.975493
 20
327.629182
 30
0.0
 11
274.801
 21
330.45469
 31
0.0
  0
LINE
  8
LC-006-005-----0
  6
CONTINUOUS
  5
812
 10
269.331922
 20
327.814038
 30
0.0
 11
272.164189
 21
330.646305
 31
0.0
  0
LINE
  8
LC-006-005-----0
  6
CONTINUOUS
  5
813
 10
266.688351
 20
327.998894
 30
0.0
 11
269.527377
 21
330.83792
 31
0.0
  0
LINE
  8
LC-006-005-----0
  6
CONTINUOUS
  5
814
 10
264.04478
 20
328.183751
 30
0.0
 11
267.00605
 21
331.145021
 31
0.0
  0
LINE
  8
LC-006-005-----0
  6
CONTINUOUS
  5
815
 10
261.410734
 20
328.378132
 30
0.0
 11
264.79618
 21
331.763578
 31
0.0
  0
LINE
  8
LC-006-005-----0
  6
CONTINUOUS
  5
816
 10
259.274364
 20
329.070189
 30
0.0
 11
262.756317
 21
332.552142
 31
0.0
  0
LINE
  8
LC-006-005-----0
  6
CONTINUOUS
  5
817
 10
257.137995
 20
329.762247
 30
0.0
 11
260.828248
 21
333.4525
 31
0.0
  0
LINE
  8
LC-006-005-----0
  6
CONTINUOUS
  5
818
 10
255.001626
 20
330.454305
 30
0.0
 11
258.183164
 21
333.635843
 31
0.0
  0
LINE
  8
LC-006-005-----0
  6
CONTINUOUS
  5
819
 10
252.725814
 20
331.00692
 30
0.0
 11
255.53808
 21
333.819187
 31
0.0
  0
LINE
  8
LC-006-005-----0
  6
CONTINUOUS
  5
81A
 10
250.08073
 20
331.190263
 30
0.0
 11
252.892996
 21
334.00253
 31
0.0
  0
LINE
  8
LC-006-005-----0
  6
CONTINUOUS
  5
81B
 10
247.435646
 20
331.373606
 30
0.0
 11
250.247913
 21
334.185873
 31
0.0
  0
LINE
  8
LC-006-005-----0
  6
CONTINUOUS
  5
81C
 10
244.790562
 20
331.55695
 30
0.0
 11
247.602829
 21
334.369216
 31
0.0
  0
LINE
  8
LC-006-005-----0
  6
CONTINUOUS
  5
81D
 10
242.145478
 20
331.740293
 30
0.0
 11
244.957745
 21
334.552559
 31
0.0
  0
LINE
  8
LC-006-005-----0
  6
CONTINUOUS
  5
81E
 10
239.500394
 20
331.923636
 30
0.0
 11
242.312661
 21
334.735903
 31
0.0
  0
LINE
  8
LC-006-005-----0
  6
CONTINUOUS
  5
81F
 10
236.85531
 20
332.106979
 30
0.0
 11
239.667577
 21
334.919246
 31
0.0
  0
LINE
  8
LC-006-005-----0
  6
CONTINUOUS
  5
820
 10
234.210226
 20
332.290322
 30
0.0
 11
237.022493
 21
335.102589
 31
0.0
  0
LINE
  8
LC-006-005-----0
  6
CONTINUOUS
  5
821
 10
231.565142
 20
332.473666
 30
0.0
 11
234.377409
 21
335.285932
 31
0.0
  0
LINE
  8
LC-006-005-----0
  6
CONTINUOUS
  5
822
 10
228.920058
 20
332.657009
 30
0.0
 11
231.732325
 21
335.469276
 31
0.0
  0
LINE
  8
LC-006-005-----0
  6
CONTINUOUS
  5
823
 10
226.274975
 20
332.840352
 30
0.0
 11
229.087241
 21
335.652619
 31
0.0
  0
LINE
  8
LC-006-005-----0
  6
CONTINUOUS
  5
824
 10
223.629891
 20
333.023695
 30
0.0
 11
226.442157
 21
335.835962
 31
0.0
  0
LINE
  8
LC-006-005-----0
  6
CONTINUOUS
  5
825
 10
221.450851
 20
333.673083
 30
0.0
 11
223.797073
 21
336.019305
 31
0.0
  0
LINE
  8
LC-003-002-----0
  6
CONTINUOUS
  5
826
 10
431.753998
 20
309.377867
 30
0.0
 11
451.10738
 21
309.377867
 31
0.0
  0
LINE
  8
LC-003-002-----0
  6
DASHDOT
 62
     2
  5
827
 10
372.450851
 20
313.195056
 30
0.0
 11
372.450851
 21
286.902
 31
0.0
  0
LINE
  8
LC-003-002-----0
  6
DASHDOT
 62
     2
  5
828
 10
424.679103
 20
262.977368
 30
0.0
 11
528.947674
 21
262.977368
 31
0.0
  0
LINE
  8
LC-003-002-----0
  6
DASHDOT
 62
     2
  5
829
 10
607.149123
 20
245.348263
 30
0.0
 11
540.970488
 21
263.080775
 31
0.0
  0
LINE
  8
LC-003-002-----0
  6
DASHDOT
 62
     2
  5
82A
 10
372.450851
 20
253.044
 30
0.0
 11
372.450851
 21
221.491462
 31
0.0
  0
LINE
  8
LC-003-002-----0
  6
CONTINUOUS
  5
82B
 10
302.450851
 20
389.795056
 30
0.0
 11
302.450851
 21
403.195056
 31
0.0
  0
LINE
  8
LC-003-002-----0
  6
CONTINUOUS
  5
82C
 10
442.450851
 20
389.795056
 30
0.0
 11
442.450851
 21
403.195056
 31
0.0
  0
LINE
  8
LC-003-002-----0
  6
CONTINUOUS
  5
82D
 10
299.950851
 20
389.195056
 30
0.0
 11
299.950851
 21
315.195056
 31
0.0
  0
LINE
  8
LC-003-002-----0
  6
CONTINUOUS
  5
82E
 10
298.450851
 20
389.195056
 30
0.0
 11
298.450851
 21
403.195056
 31
0.0
  0
LINE
  8
LC-003-002-----0
  6
CONTINUOUS
  5
82F
 10
298.450851
 20
389.195056
 30
0.0
 11
299.950851
 21
389.195056
 31
0.0
  0
LINE
  8
LC-003-002-----0
  6
CONTINUOUS
  5
830
 10
299.950851
 20
315.195056
 30
0.0
 11
300.48675
 21
313.195056
 31
0.0
  0
LINE
  8
LC-003-002-----0
  6
CONTINUOUS
  5
831
 10
298.450851
 20
403.195056
 30
0.0
 11
302.450851
 21
403.195056
 31
0.0
  0
LINE
  8
LC-003-002-----0
  6
CONTINUOUS
  5
832
 10
300.48675
 20
313.195056
 30
0.0
 11
301.950851
 21
313.195056
 31
0.0
  0
LINE
  8
LC-003-002-----0
  6
CONTINUOUS
  5
833
 10
301.950851
 20
313.195056
 30
0.0
 11
365.986929
 21
313.195056
 31
0.0
  0
LINE
  8
LC-003-002-----0
  6
CONTINUOUS
  5
834
 10
444.950851
 20
389.195056
 30
0.0
 11
444.950851
 21
315.195056
 31
0.0
  0
LINE
  8
LC-003-002-----0
  6
CONTINUOUS
  5
835
 10
446.450851
 20
389.195056
 30
0.0
 11
446.450851
 21
403.195056
 31
0.0
  0
LINE
  8
LC-003-002-----0
  6
CONTINUOUS
  5
836
 10
446.450851
 20
389.195056
 30
0.0
 11
444.950851
 21
389.195056
 31
0.0
  0
LINE
  8
LC-003-002-----0
  6
CONTINUOUS
  5
837
 10
444.950851
 20
315.195056
 30
0.0
 11
444.414953
 21
313.195056
 31
0.0
  0
LINE
  8
LC-003-002-----0
  6
CONTINUOUS
  5
838
 10
446.450851
 20
403.195056
 30
0.0
 11
442.450851
 21
403.195056
 31
0.0
  0
LINE
  8
LC-003-002-----0
  6
CONTINUOUS
  5
839
 10
444.414953
 20
313.195056
 30
0.0
 11
442.950851
 21
313.195056
 31
0.0
  0
LINE
  8
LC-003-002-----0
  6
CONTINUOUS
  5
83A
 10
442.250851
 20
389.795056
 30
0.0
 11
442.250851
 21
313.195056
 31
0.0
  0
LINE
  8
LC-003-002-----0
  6
CONTINUOUS
  5
83B
 10
302.450851
 20
392.795056
 30
0.0
 11
352.822046
 21
392.795056
 31
0.0
  0
LINE
  8
LC-003-002-----0
  6
DASHDOT
 62
     2
  5
83C
 10
372.450851
 20
313.195056
 30
0.0
 11
372.450851
 21
402.795056
 31
0.0
  0
LINE
  8
LC-003-002-----0
  6
CONTINUOUS
  5
83D
 10
302.450851
 20
389.795056
 30
0.0
 11
442.450851
 21
389.795056
 31
0.0
  0
LINE
  8
LC-003-002-----0
  6
CONTINUOUS
  5
83E
 10
302.650851
 20
389.795056
 30
0.0
 11
302.650851
 21
313.195056
 31
0.0
  0
LINE
  8
LC-003-002-----0
  6
CONTINUOUS
  5
83F
 10
352.822046
 20
389.795056
 30
0.0
 11
352.822046
 21
392.795056
 31
0.0
  0
LINE
  8
LC-003-002-----0
  6
CONTINUOUS
  5
840
 10
442.450851
 20
392.795056
 30
0.0
 11
392.079657
 21
392.795056
 31
0.0
  0
LINE
  8
LC-003-002-----0
  6
CONTINUOUS
  5
841
 10
392.079657
 20
389.795056
 30
0.0
 11
392.079657
 21
392.795056
 31
0.0
  0
LINE
  8
LC-003-002-----0
  6
CONTINUOUS
  5
842
 10
442.450851
 20
392.795056
 30
0.0
 11
392.079657
 21
392.795056
 31
0.0
  0
LINE
  8
LC-003-002-----0
  6
CONTINUOUS
  5
843
 10
303.450851
 20
393.295056
 30
0.0
 11
304.450851
 21
393.295056
 31
0.0
  0
LINE
  8
LC-003-002-----0
  6
CONTINUOUS
  5
844
 10
441.450851
 20
393.295056
 30
0.0
 11
440.450851
 21
393.295056
 31
0.0
  0
LINE
  8
LC-003-002-----0
  6
CONTINUOUS
  5
845
 10
306.450851
 20
402.795056
 30
0.0
 11
372.450851
 21
402.795056
 31
0.0
  0
LINE
  8
LC-003-002-----0
  6
CONTINUOUS
  5
846
 10
389.950851
 20
401.795056
 30
0.0
 11
372.450851
 21
401.795056
 31
0.0
  0
LINE
  8
LC-003-002-----0
  6
CONTINUOUS
  5
847
 10
438.450851
 20
402.795056
 30
0.0
 11
372.450851
 21
402.795056
 31
0.0
  0
LINE
  8
LC-003-002-----0
  6
CONTINUOUS
  5
848
 10
391.950851
 20
399.795056
 30
0.0
 11
391.950851
 21
397.795056
 31
0.0
  0
ARC
  8
LC-003-002-----0
  6
CONTINUOUS
  5
849
 10
389.950851
 20
399.795056
 30
0.0
 40
2.0
 50
0.0
 51
90.0
  0
ARC
  8
LC-003-002-----0
  6
CONTINUOUS
  5
84A
 10
389.950851
 20
399.795056
 30
0.0
 40
3.0
 50
0.0
 51
90.0
  0
LINE
  8
LC-003-002-----0
  6
CONTINUOUS
  5
84B
 10
392.950851
 20
399.795056
 30
0.0
 11
392.950851
 21
397.795056
 31
0.0
  0
LINE
  8
LC-003-002-----0
  6
CONTINUOUS
  5
84C
 10
391.950851
 20
397.795056
 30
0.0
 11
400.950851
 21
397.795056
 31
0.0
  0
LINE
  8
LC-003-002-----0
  6
CONTINUOUS
  5
84D
 10
399.950851
 20
397.795056
 30
0.0
 11
399.950851
 21
399.795056
 31
0.0
  0
LINE
  8
LC-003-002-----0
  6
CONTINUOUS
  5
84E
 10
400.950851
 20
397.795056
 30
0.0
 11
400.950851
 21
399.795056
 31
0.0
  0
ARC
  8
LC-003-002-----0
  6
CONTINUOUS
  5
84F
 10
402.950851
 20
399.795056
 30
0.0
 40
2.0
 50
90.0
 51
180.0
  0
ARC
  8
LC-003-002-----0
  6
CONTINUOUS
  5
850
 10
402.950851
 20
399.795056
 30
0.0
 40
3.0
 50
90.0
 51
180.0
  0
LINE
  8
LC-003-002-----0
  6
CONTINUOUS
  5
851
 10
405.950851
 20
401.795056
 30
0.0
 11
402.950851
 21
401.795056
 31
0.0
  0
ARC
  8
LC-003-002-----0
  6
CONTINUOUS
  5
852
 10
405.950851
 20
399.795056
 30
0.0
 40
2.0
 50
0.0
 51
90.0
  0
LINE
  8
LC-003-002-----0
  6
CONTINUOUS
  5
853
 10
407.950851
 20
399.795056
 30
0.0
 11
407.950851
 21
397.795056
 31
0.0
  0
ARC
  8
LC-003-002-----0
  6
CONTINUOUS
  5
854
 10
405.950851
 20
399.795056
 30
0.0
 40
3.0
 50
0.0
 51
90.0
  0
LINE
  8
LC-003-002-----0
  6
CONTINUOUS
  5
855
 10
408.950851
 20
399.795056
 30
0.0
 11
408.950851
 21
397.795056
 31
0.0
  0
LINE
  8
LC-003-002-----0
  6
CONTINUOUS
  5
856
 10
407.950851
 20
397.795056
 30
0.0
 11
416.950851
 21
397.795056
 31
0.0
  0
LINE
  8
LC-003-002-----0
  6
CONTINUOUS
  5
857
 10
415.950851
 20
397.795056
 30
0.0
 11
415.950851
 21
399.795056
 31
0.0
  0
LINE
  8
LC-003-002-----0
  6
CONTINUOUS
  5
858
 10
416.950851
 20
397.795056
 30
0.0
 11
416.950851
 21
399.795056
 31
0.0
  0
ARC
  8
LC-003-002-----0
  6
CONTINUOUS
  5
859
 10
418.950851
 20
399.795056
 30
0.0
 40
3.0
 50
90.0
 51
180.0
  0
ARC
  8
LC-003-002-----0
  6
CONTINUOUS
  5
85A
 10
418.950851
 20
399.795056
 30
0.0
 40
2.0
 50
90.0
 51
180.0
  0
LINE
  8
LC-003-002-----0
  6
CONTINUOUS
  5
85B
 10
418.950851
 20
401.795056
 30
0.0
 11
421.950851
 21
401.795056
 31
0.0
  0
ARC
  8
LC-003-002-----0
  6
CONTINUOUS
  5
85C
 10
421.950851
 20
399.795056
 30
0.0
 40
3.0
 50
0.0
 51
90.0
  0
ARC
  8
LC-003-002-----0
  6
CONTINUOUS
  5
85D
 10
421.950851
 20
399.795056
 30
0.0
 40
2.0
 50
0.0
 51
90.0
  0
LINE
  8
LC-003-002-----0
  6
CONTINUOUS
  5
85E
 10
423.950851
 20
399.795056
 30
0.0
 11
423.950851
 21
397.795056
 31
0.0
  0
LINE
  8
LC-003-002-----0
  6
CONTINUOUS
  5
85F
 10
424.950851
 20
399.795056
 30
0.0
 11
424.950851
 21
397.795056
 31
0.0
  0
LINE
  8
LC-003-002-----0
  6
CONTINUOUS
  5
860
 10
423.950851
 20
397.795056
 30
0.0
 11
432.950851
 21
397.795056
 31
0.0
  0
LINE
  8
LC-003-002-----0
  6
CONTINUOUS
  5
861
 10
431.950851
 20
397.795056
 30
0.0
 11
431.950851
 21
399.795056
 31
0.0
  0
LINE
  8
LC-003-002-----0
  6
CONTINUOUS
  5
862
 10
432.950851
 20
397.795056
 30
0.0
 11
432.950851
 21
399.795056
 31
0.0
  0
ARC
  8
LC-003-002-----0
  6
CONTINUOUS
  5
863
 10
434.950851
 20
399.795056
 30
0.0
 40
2.0
 50
90.0
 51
180.0
  0
ARC
  8
LC-003-002-----0
  6
CONTINUOUS
  5
864
 10
434.950851
 20
399.795056
 30
0.0
 40
3.0
 50
90.0
 51
180.0
  0
LINE
  8
LC-003-002-----0
  6
CONTINUOUS
  5
865
 10
434.950851
 20
401.795056
 30
0.0
 11
438.450851
 21
401.795056
 31
0.0
  0
ARC
  8
LC-003-002-----0
  6
CONTINUOUS
  5
866
 10
438.450851
 20
399.795056
 30
0.0
 40
2.0
 50
0.0
 51
90.0
  0
ARC
  8
LC-003-002-----0
  6
CONTINUOUS
  5
867
 10
438.450851
 20
399.795056
 30
0.0
 40
3.0
 50
0.0
 51
90.0
  0
LINE
  8
LC-003-002-----0
  6
CONTINUOUS
  5
868
 10
440.450851
 20
399.795056
 30
0.0
 11
440.450851
 21
393.295056
 31
0.0
  0
LINE
  8
LC-003-002-----0
  6
CONTINUOUS
  5
869
 10
441.450851
 20
399.795056
 30
0.0
 11
441.450851
 21
393.295056
 31
0.0
  0
LINE
  8
LC-003-002-----0
  6
CONTINUOUS
  5
86A
 10
303.450851
 20
399.795056
 30
0.0
 11
303.450851
 21
393.295056
 31
0.0
  0
LINE
  8
LC-003-002-----0
  6
CONTINUOUS
  5
86B
 10
352.950851
 20
397.795056
 30
0.0
 11
343.950851
 21
397.795056
 31
0.0
  0
LINE
  8
LC-003-002-----0
  6
CONTINUOUS
  5
86C
 10
352.950851
 20
399.795056
 30
0.0
 11
352.950851
 21
397.795056
 31
0.0
  0
ARC
  8
LC-003-002-----0
  6
CONTINUOUS
  5
86D
 10
354.950851
 20
399.795056
 30
0.0
 40
2.0
 50
90.0
 51
180.0
  0
LINE
  8
LC-003-002-----0
  6
CONTINUOUS
  5
86E
 10
343.950851
 20
397.795056
 30
0.0
 11
343.950851
 21
399.795056
 31
0.0
  0
LINE
  8
LC-003-002-----0
  6
CONTINUOUS
  5
86F
 10
325.950851
 20
401.795056
 30
0.0
 11
322.950851
 21
401.795056
 31
0.0
  0
LINE
  8
LC-003-002-----0
  6
CONTINUOUS
  5
870
 10
336.950851
 20
397.795056
 30
0.0
 11
327.950851
 21
397.795056
 31
0.0
  0
ARC
  8
LC-003-002-----0
  6
CONTINUOUS
  5
871
 10
341.950851
 20
399.795056
 30
0.0
 40
3.0
 50
0.0
 51
90.0
  0
LINE
  8
LC-003-002-----0
  6
CONTINUOUS
  5
872
 10
336.950851
 20
399.795056
 30
0.0
 11
336.950851
 21
397.795056
 31
0.0
  0
LINE
  8
LC-003-002-----0
  6
CONTINUOUS
  5
873
 10
311.950851
 20
397.795056
 30
0.0
 11
311.950851
 21
399.795056
 31
0.0
  0
LINE
  8
LC-003-002-----0
  6
CONTINUOUS
  5
874
 10
312.950851
 20
397.795056
 30
0.0
 11
312.950851
 21
399.795056
 31
0.0
  0
LINE
  8
LC-003-002-----0
  6
CONTINUOUS
  5
875
 10
320.950851
 20
397.795056
 30
0.0
 11
311.950851
 21
397.795056
 31
0.0
  0
ARC
  8
LC-003-002-----0
  6
CONTINUOUS
  5
876
 10
325.950851
 20
399.795056
 30
0.0
 40
3.0
 50
0.0
 51
90.0
  0
LINE
  8
LC-003-002-----0
  6
CONTINUOUS
  5
877
 10
320.950851
 20
399.795056
 30
0.0
 11
320.950851
 21
397.795056
 31
0.0
  0
ARC
  8
LC-003-002-----0
  6
CONTINUOUS
  5
878
 10
338.950851
 20
399.795056
 30
0.0
 40
2.0
 50
90.0
 51
180.0
  0
ARC
  8
LC-003-002-----0
  6
CONTINUOUS
  5
879
 10
322.950851
 20
399.795056
 30
0.0
 40
2.0
 50
90.0
 51
180.0
  0
ARC
  8
LC-003-002-----0
  6
CONTINUOUS
  5
87A
 10
309.950851
 20
399.795056
 30
0.0
 40
2.0
 50
0.0
 51
90.0
  0
ARC
  8
LC-003-002-----0
  6
CONTINUOUS
  5
87B
 10
306.450851
 20
399.795056
 30
0.0
 40
2.0
 50
90.0
 51
180.0
  0
LINE
  8
LC-003-002-----0
  6
CONTINUOUS
  5
87C
 10
304.450851
 20
399.795056
 30
0.0
 11
304.450851
 21
393.295056
 31
0.0
  0
ARC
  8
LC-003-002-----0
  6
CONTINUOUS
  5
87D
 10
309.950851
 20
399.795056
 30
0.0
 40
3.0
 50
0.0
 51
90.0
  0
ARC
  8
LC-003-002-----0
  6
CONTINUOUS
  5
87E
 10
306.450851
 20
399.795056
 30
0.0
 40
3.0
 50
90.0
 51
180.0
  0
LINE
  8
LC-003-002-----0
  6
CONTINUOUS
  5
87F
 10
309.950851
 20
401.795056
 30
0.0
 11
306.450851
 21
401.795056
 31
0.0
  0
ARC
  8
LC-003-002-----0
  6
CONTINUOUS
  5
880
 10
325.950851
 20
399.795056
 30
0.0
 40
2.0
 50
0.0
 51
90.0
  0
LINE
  8
LC-003-002-----0
  6
CONTINUOUS
  5
881
 10
327.950851
 20
397.795056
 30
0.0
 11
327.950851
 21
399.795056
 31
0.0
  0
ARC
  8
LC-003-002-----0
  6
CONTINUOUS
  5
882
 10
341.950851
 20
399.795056
 30
0.0
 40
2.0
 50
0.0
 51
90.0
  0
LINE
  8
LC-003-002-----0
  6
CONTINUOUS
  5
883
 10
338.950851
 20
401.795056
 30
0.0
 11
341.950851
 21
401.795056
 31
0.0
  0
LINE
  8
LC-003-002-----0
  6
CONTINUOUS
  5
884
 10
354.950851
 20
401.795056
 30
0.0
 11
372.450851
 21
401.795056
 31
0.0
  0
ARC
  8
LC-003-002-----0
  6
CONTINUOUS
  5
885
 10
322.950851
 20
399.795056
 30
0.0
 40
3.0
 50
90.0
 51
180.0
  0
ARC
  8
LC-003-002-----0
  6
CONTINUOUS
  5
886
 10
338.950851
 20
399.795056
 30
0.0
 40
3.0
 50
90.0
 51
180.0
  0
ARC
  8
LC-003-002-----0
  6
CONTINUOUS
  5
887
 10
354.950851
 20
399.795056
 30
0.0
 40
3.0
 50
90.0
 51
180.0
  0
LINE
  8
LC-003-002-----0
  6
CONTINUOUS
  5
888
 10
319.950851
 20
399.795056
 30
0.0
 11
319.950851
 21
397.795056
 31
0.0
  0
LINE
  8
LC-003-002-----0
  6
CONTINUOUS
  5
889
 10
328.950851
 20
397.795056
 30
0.0
 11
328.950851
 21
399.795056
 31
0.0
  0
LINE
  8
LC-003-002-----0
  6
CONTINUOUS
  5
88A
 10
335.950851
 20
399.795056
 30
0.0
 11
335.950851
 21
397.795056
 31
0.0
  0
LINE
  8
LC-003-002-----0
  6
CONTINUOUS
  5
88B
 10
344.950851
 20
397.795056
 30
0.0
 11
344.950851
 21
399.795056
 31
0.0
  0
LINE
  8
LC-003-002-----0
  6
CONTINUOUS
  5
88C
 10
351.950851
 20
399.795056
 30
0.0
 11
351.950851
 21
397.795056
 31
0.0
  0
LINE
  8
LC-003-002-----0
  6
CONTINUOUS
 62
     2
  5
88D
 10
335.435409
 20
441.342
 30
0.0
 11
350.435409
 21
441.342
 31
0.0
  0
LINE
  8
LC-003-002-----0
  6
CONTINUOUS
 62
     2
  5
88E
 10
335.435409
 20
456.342
 30
0.0
 11
335.435409
 21
441.342
 31
0.0
  0
LINE
  8
LC-003-002-----0
  6
CONTINUOUS
 62
     2
  5
88F
 10
335.435409
 20
456.342
 30
0.0
 11
350.435409
 21
456.342
 31
0.0
  0
LINE
  8
LC-003-002-----0
  6
CONTINUOUS
 62
     2
  5
890
 10
350.435409
 20
456.342
 30
0.0
 11
350.435409
 21
441.342
 31
0.0
  0
LINE
  8
LC-003-002-----0
  6
CONTINUOUS
  5
891
 10
430.372804
 20
313.195056
 30
0.0
 11
442.950851
 21
313.195056
 31
0.0
  0
ENDSEC
  0
EOF
