  0
SECTION
  2
HEADER
  9
$ACADVER
  1
AC1015
  9
$ACADMAINTVER
 70
     6
  9
$DWGCODEPAGE
  3
ANSI_1252
  9
$INSBASE
 10
0.0
 20
0.0
 30
0.0
  9
$EXTMIN
 10
0.0
 20
0.0
 30
0.0
  9
$EXTMAX
 10
840.0
 20
594.0
 30
0.0
  9
$LIMMIN
 10
0.0
 20
0.0
  9
$LIMMAX
 10
840.0
 20
594.0
  9
$ORTHOMODE
 70
     0
  9
$REGENMODE
 70
     1
  9
$FILLMODE
 70
     1
  9
$QTEXTMODE
 70
     0
  9
$MIRRTEXT
 70
     1
  9
$LTSCALE
 40
2.0
  9
$ATTMODE
 70
     1
  9
$TEXTSIZE
 40
2.5
  9
$TRACEWID
 40
1.0
  9
$TEXTSTYLE
  7
Standard
  9
$CLAYER
  8
0
  9
$CELTYPE
  6
ByLayer
  9
$CECOLOR
 62
     7
  9
$CELTSCALE
 40
1.0
  9
$DISPSILH
 70
     0
  9
$DIMSCALE
 40
2.0
  9
$DIMASZ
 40
3.5
  9
$DIMEXO
 40
0.625
  9
$DIMDLI
 40
3.75
  9
$DIMRND
 40
0.0
  9
$DIMDLE
 40
0.0
  9
$DIMEXE
 40
1.25
  9
$DIMTP
 40
0.0
  9
$DIMTM
 40
0.0
  9
$DIMTXT
 40
3.5
  9
$DIMCEN
 40
2.5
  9
$DIMTSZ
 40
0.0
  9
$DIMTOL
 70
     0
  9
$DIMLIM
 70
     0
  9
$DIMTIH
 70
     0
  9
$DIMTOH
 70
     0
  9
$DIMSE1
 70
     0
  9
$DIMSE2
 70
     0
  9
$DIMTAD
 70
     1
  9
$DIMZIN
 70
     8
  9
$DIMBLK
  1

  9
$DIMASO
 70
     1
  9
$DIMSHO
 70
     1
  9
$DIMPOST
  1

  9
$DIMAPOST
  1

  9
$DIMALT
 70
     0
  9
$DIMALTD
 70
     3
  9
$DIMALTF
 40
0.03937
  9
$DIMLFAC
 40
1.0
  9
$DIMTOFL
 70
     1
  9
$DIMTVP
 40
0.0
  9
$DIMTIX
 70
     0
  9
$DIMSOXD
 70
     0
  9
$DIMSAH
 70
     0
  9
$DIMBLK1
  1

  9
$DIMBLK2
  1

  9
$DIMSTYLE
  2
ISO-25
  9
$DIMCLRD
 70
     0
  9
$DIMCLRE
 70
     0
  9
$DIMCLRT
 70
     0
  9
$DIMTFAC
 40
1.0
  9
$DIMGAP
 40
0.625
  9
$DIMJUST
 70
     0
  9
$DIMSD1
 70
     0
  9
$DIMSD2
 70
     0
  9
$DIMTOLJ
 70
     0
  9
$DIMTZIN
 70
     8
  9
$DIMALTZ
 70
     0
  9
$DIMALTTZ
 70
     0
  9
$DIMUPT
 70
     0
  9
$DIMDEC
 70
     2
  9
$DIMTDEC
 70
     2
  9
$DIMALTU
 70
     2
  9
$DIMALTTD
 70
     3
  9
$DIMTXSTY
  7
Standard
  9
$DIMAUNIT
 70
     0
  9
$DIMADEC
 70
     0
  9
$DIMALTRND
 40
0.0
  9
$DIMAZIN
 70
     0
  9
$DIMDSEP
 70
    44
  9
$DIMATFIT
 70
     3
  9
$DIMFRAC
 70
     0
  9
$DIMLDRBLK
  1

  9
$DIMLUNIT
 70
     2
  9
$DIMLWD
 70
    -2
  9
$DIMLWE
 70
    -2
  9
$DIMTMOVE
 70
     0
  9
$LUNITS
 70
     2
  9
$LUPREC
 70
     4
  9
$SKETCHINC
 40
1.0
  9
$FILLETRAD
 40
10.0
  9
$AUNITS
 70
     0
  9
$AUPREC
 70
     0
  9
$MENU
  1
.
  9
$ELEVATION
 40
0.0
  9
$PELEVATION
 40
0.0
  9
$THICKNESS
 40
0.0
  9
$LIMCHECK
 70
     0
  9
$CHAMFERA
 40
10.0
  9
$CHAMFERB
 40
10.0
  9
$CHAMFERC
 40
20.0
  9
$CHAMFERD
 40
0.0
  9
$SKPOLY
 70
     0
  9
$TDCREATE
 40
2455765.382690312
  9
$TDUCREATE
 40
2455765.299356979
  9
$TDUPDATE
 40
2455765.382690324
  9
$TDUUPDATE
 40
2455765.299356991
  9
$TDINDWG
 40
0.0000000116
  9
$TDUSRTIMER
 40
0.0000000116
  9
$USRTIMER
 70
     1
  9
$ANGBASE
 50
0.0
  9
$ANGDIR
 70
     0
  9
$PDMODE
 70
     0
  9
$PDSIZE
 40
0.0
  9
$PLINEWID
 40
0.0
  9
$SPLFRAME
 70
     0
  9
$SPLINETYPE
 70
     6
  9
$SPLINESEGS
 70
     8
  9
$HANDSEED
  5
6FB
  9
$SURFTAB1
 70
     6
  9
$SURFTAB2
 70
     6
  9
$SURFTYPE
 70
     6
  9
$SURFU
 70
     6
  9
$SURFV
 70
     6
  9
$UCSBASE
  2

  9
$UCSNAME
  2

  9
$UCSORG
 10
0.0
 20
0.0
 30
0.0
  9
$UCSXDIR
 10
1.0
 20
0.0
 30
0.0
  9
$UCSYDIR
 10
0.0
 20
1.0
 30
0.0
  9
$UCSORTHOREF
  2

  9
$UCSORTHOVIEW
 70
     0
  9
$UCSORGTOP
 10
0.0
 20
0.0
 30
0.0
  9
$UCSORGBOTTOM
 10
0.0
 20
0.0
 30
0.0
  9
$UCSORGLEFT
 10
0.0
 20
0.0
 30
0.0
  9
$UCSORGRIGHT
 10
0.0
 20
0.0
 30
0.0
  9
$UCSORGFRONT
 10
0.0
 20
0.0
 30
0.0
  9
$UCSORGBACK
 10
0.0
 20
0.0
 30
0.0
  9
$PUCSBASE
  2

  9
$PUCSNAME
  2

  9
$PUCSORG
 10
0.0
 20
0.0
 30
0.0
  9
$PUCSXDIR
 10
1.0
 20
0.0
 30
0.0
  9
$PUCSYDIR
 10
0.0
 20
1.0
 30
0.0
  9
$PUCSORTHOREF
  2

  9
$PUCSORTHOVIEW
 70
     0
  9
$PUCSORGTOP
 10
0.0
 20
0.0
 30
0.0
  9
$PUCSORGBOTTOM
 10
0.0
 20
0.0
 30
0.0
  9
$PUCSORGLEFT
 10
0.0
 20
0.0
 30
0.0
  9
$PUCSORGRIGHT
 10
0.0
 20
0.0
 30
0.0
  9
$PUCSORGFRONT
 10
0.0
 20
0.0
 30
0.0
  9
$PUCSORGBACK
 10
0.0
 20
0.0
 30
0.0
  9
$USERI1
 70
     0
  9
$USERI2
 70
     0
  9
$USERI3
 70
     0
  9
$USERI4
 70
     0
  9
$USERI5
 70
     0
  9
$USERR1
 40
0.0
  9
$USERR2
 40
0.0
  9
$USERR3
 40
0.0
  9
$USERR4
 40
0.0
  9
$USERR5
 40
0.0
  9
$WORLDVIEW
 70
     1
  9
$SHADEDGE
 70
     3
  9
$SHADEDIF
 70
    70
  9
$TILEMODE
 70
     1
  9
$MAXACTVP
 70
    64
  9
$PINSBASE
 10
0.0
 20
0.0
 30
0.0
  9
$PLIMCHECK
 70
     0
  9
$PEXTMIN
 10
0.0
 20
0.0
 30
0.0
  9
$PEXTMAX
 10
840.0
 20
594.0
 30
0.0
  9
$PLIMMIN
 10
0.0
 20
0.0
  9
$PLIMMAX
 10
840.0
 20
594.0
  9
$UNITMODE
 70
     0
  9
$VISRETAIN
 70
     1
  9
$PLINEGEN
 70
     0
  9
$PSLTSCALE
 70
     1
  9
$TREEDEPTH
 70
  3020
  9
$CMLSTYLE
  2
Standard
  9
$CMLJUST
 70
     0
  9
$CMLSCALE
 40
20.0
  9
$PROXYGRAPHICS
 70
     1
  9
$MEASUREMENT
 70
     1
  9
$CELWEIGHT
370
    -1
  9
$ENDCAPS
280
     0
  9
$JOINSTYLE
280
     0
  9
$LWDISPLAY
290
     0
  9
$INSUNITS
 70
     4
  9
$HYPERLINKBASE
  1

  9
$STYLESHEET
  1

  9
$XEDIT
290
     1
  9
$CEPSNTYPE
380
     0
  9
$PSTYLEMODE
290
     1
  9
$FINGERPRINTGUID
  2
{FAEB1C30-E019-11D5-929B-00C0DF256EC4}
  9
$VERSIONGUID
  2
{FAEB1C32-E019-11D5-929B-00C0DF256EC4}
  9
$EXTNAMES
290
     1
  9
$PSVPSCALE
 40
0.0
  9
$OLESTARTUP
290
     0
  0
ENDSEC
  0
SECTION
  2
CLASSES
  0
CLASS
  1
ACDBDICTIONARYWDFLT
  2
AcDbDictionaryWithDefault
  3
ObjectDBX Classes
 90
        0
280
     0
281
     0
  0
CLASS
  1
ACDBPLACEHOLDER
  2
AcDbPlaceHolder
  3
ObjectDBX Classes
 90
        0
280
     0
281
     0
  0
CLASS
  1
LAYOUT
  2
AcDbLayout
  3
ObjectDBX Classes
 90
        0
280
     0
281
     0
  0
ENDSEC
  0
SECTION
  2
TABLES
  0
TABLE
  2
VPORT
  5
8
330
0
100
AcDbSymbolTable
 70
     2
  0
VPORT
  5
29
330
8
100
AcDbSymbolTableRecord
100
AcDbViewportTableRecord
  2
*ACTIVE
 70
     0
 10
0.0
 20
0.0
 11
1.0
 21
1.0
 12
420.0
 22
297.0
 13
0.0
 23
0.0
 14
1.0
 24
1.0
 15
0.0
 25
0.0
 16
0.0
 26
0.0
 36
1.0
 17
0.0
 27
0.0
 37
0.0
 40
594.0
 41
1.414141
 42
50.0
 43
0.0
 44
0.0
 50
0.0
 51
0.0
 71
    16
 72
   100
 73
     1
 74
     0
 75
     0
 76
     0
 77
     0
 78
     0
281
     0
 65
     0
110
0.0
120
0.0
130
0.0
111
1.0
121
0.0
131
0.0
112
0.0
122
1.0
132
0.0
 79
     0
146
0.0
  0
ENDTAB
  0
TABLE
  2
LTYPE
  5
5
330
0
100
AcDbSymbolTable
 70
     4
  0
LTYPE
  5
14
330
5
100
AcDbSymbolTableRecord
100
AcDbLinetypeTableRecord
  2
ByBlock
 70
     0
  3

 72
    65
 73
     0
 40
0.0
  0
LTYPE
  5
15
330
5
100
AcDbSymbolTableRecord
100
AcDbLinetypeTableRecord
  2
ByLayer
 70
     0
  3

 72
    65
 73
     0
 40
0.0
  0
LTYPE
  5
16
330
5
100
AcDbSymbolTableRecord
100
AcDbLinetypeTableRecord
  2
Continuous
 70
     0
  3
Solid line
 72
    65
 73
     0
 40
0.0
  0
LTYPE
  5
2A
330
5
100
AcDbSymbolTableRecord
100
AcDbLinetypeTableRecord
  2
DASHED
 70
     0
  3
__ __ __ __ __
 72
    65
 73
     2
 40
6.25
 49
5.0
 74
     4
 75
     0
340
0
 46
1.0
 50
0.0
 44
0.0
 45
0.0
 49
-1.25
 74
     4
 75
     0
340
0
 46
1.0
 50
0.0
 44
0.0
 45
0.0
  0
LTYPE
  5
30
330
5
100
AcDbSymbolTableRecord
100
AcDbLinetypeTableRecord
  2
DASHDOT
 70
     0
  3
__ . __ . __ . __ . __
 72
    65
 73
     4
 40
7.5
 49
5.0
 74
     4
 75
     0
340
0
 46
1.0
 50
0.0
 44
0.0
 45
0.0
 49
-1.25
 74
     4
 75
     0
340
0
 46
1.0
 50
0.0
 44
0.0
 45
0.0
 49
0.0
 74
     4
 75
     0
340
0
 46
1.0
 50
0.0
 44
0.0
 45
0.0
 49
-1.25
 74
     4
 75
     0
340
0
 46
1.0
 50
0.0
 44
0.0
 45
0.0
  0
LTYPE
  5
628
330
5
100
AcDbSymbolTableRecord
100
AcDbLinetypeTableRecord
  2
CENTER
 70
     0
  3
__ . __ . __ . __ . __
 72
    65
 73
     4
 40
7.5
 49
5.0
 74
     4
 75
     0
340
0
 46
1.0
 50
0.0
 44
0.0
 45
0.0
 49
-1.25
 74
     4
 75
     0
340
0
 46
1.0
 50
0.0
 44
0.0
 45
0.0
 49
0.0
 74
     4
 75
     0
340
0
 46
1.0
 50
0.0
 44
0.0
 45
0.0
 49
-1.25
 74
     4
 75
     0
340
0
 46
1.0
 50
0.0
 44
0.0
 45
0.0
  0
ENDTAB
  0
TABLE
  2
LAYER
  5
2
330
0
100
AcDbSymbolTable
 70
    15
  0
LAYER
  5
10
330
2
100
AcDbSymbolTableRecord
100
AcDbLayerTableRecord
  2
0
 70
     0
 62
     7
  6
Continuous
370
    -3
390
F
  0
LAYER
  5
2B
330
2
100
AcDbSymbolTableRecord
100
AcDbLayerTableRecord
  2
LC-INFO-1-2-mm-A3-0
 70
     1
 62
     7
  6
ByBlock
370
    -3
390
F
  0
LAYER
  5
2C
330
2
100
AcDbSymbolTableRecord
100
AcDbLayerTableRecord
  2
LC-CUT-HIDDEN
 70
     0
 62
     7
  6
DASHED
370
    -3
390
F
  0
LAYER
  5
2D
330
2
100
AcDbSymbolTableRecord
100
AcDbLayerTableRecord
  2
LC-VIEWPORT
 70
     0
 62
     7
  6
ByBlock
370
    -3
390
F
  0
LAYER
  5
2E
330
2
100
AcDbSymbolTableRecord
100
AcDbLayerTableRecord
  2
LC-3D-HIDDEN
 70
     0
 62
     9
  6
DASHED
370
    -3
390
F
  0
LAYER
  5
31
330
2
100
AcDbSymbolTableRecord
100
AcDbLayerTableRecord
  2
LC-001-002-----0
 70
     0
 62
     2
  6
DASHDOT
370
    -3
390
F
  0
LAYER
  5
33
330
2
100
AcDbSymbolTableRecord
100
AcDbLayerTableRecord
  2
LC-002-020-RND-0
 70
     0
 62
     1
  6
ByBlock
370
    -3
390
F
  0
LAYER
  5
3A
330
2
100
AcDbSymbolTableRecord
100
AcDbLayerTableRecord
  2
LC-003-020-----0
 70
     0
 62
     1
  6
ByBlock
370
    -3
390
F
  0
LAYER
  5
3D
330
2
100
AcDbSymbolTableRecord
100
AcDbLayerTableRecord
  2
LC-004-002-RND-0
 70
     0
 62
     1
  6
ByBlock
370
    -3
390
F
  0
LAYER
  5
71
330
2
100
AcDbSymbolTableRecord
100
AcDbLayerTableRecord
  2
LC-005-005-----0
 70
     0
 62
     2
  6
ByBlock
370
    -3
390
F
  0
LAYER
  5
BD
330
2
100
AcDbSymbolTableRecord
100
AcDbLayerTableRecord
  2
LC-006-001-----0
 70
     0
 62
     1
  6
ByBlock
370
    -3
390
F
  0
LAYER
  5
27C
330
2
100
AcDbSymbolTableRecord
100
AcDbLayerTableRecord
  2
LC-007-003-----0
 70
     0
 62
     2
  6
ByBlock
370
    -3
390
F
  0
LAYER
  5
27E
330
2
100
AcDbSymbolTableRecord
100
AcDbLayerTableRecord
  2
Defpoints
 70
     0
 62
     7
  6
Continuous
290
     0
370
    -3
390
F
  0
LAYER
  5
629
330
2
100
AcDbSymbolTableRecord
100
AcDbLayerTableRecord
  2
LC-008-006-MLN-0
 70
     0
 62
     2
  6
CENTER
370
    -3
390
F
  0
LAYER
  5
683
330
2
100
AcDbSymbolTableRecord
100
AcDbLayerTableRecord
  2
LC-009-100-D00-0
 70
     0
 62
     1
  6
ByBlock
370
    -3
390
F
  0
ENDTAB
  0
TABLE
  2
STYLE
  5
3
330
0
100
AcDbSymbolTable
 70
     3
  0
STYLE
  5
11
330
3
100
AcDbSymbolTableRecord
100
AcDbTextStyleTableRecord
  2
Standard
 70
     0
 40
0.0
 41
1.0
 50
0.0
 71
     0
 42
2.5
  3
txt
  4

  0
STYLE
  5
2F
330
3
100
AcDbSymbolTableRecord
100
AcDbTextStyleTableRecord
  2
LCTX15-400-0-0-Arial
 70
     0
 40
0.0
 41
0.9
 50
0.0
 71
     0
 42
3.5
  3

  4

1001
ACAD
1000
Arial
1071
 16777218
  0
STYLE
  5
27A
330
3
100
AcDbSymbolTableRecord
100
AcDbTextStyleTableRecord
  2
LCTX15-400-0-0pDIN-Schrift
 70
     0
 40
2.5
 41
0.8
 50
15.0
 71
     0
 42
3.5
  3
STANDARD
  4

  0
ENDTAB
  0
TABLE
  2
VIEW
  5
6
330
0
100
AcDbSymbolTable
 70
     0
  0
ENDTAB
  0
TABLE
  2
UCS
  5
7
330
0
100
AcDbSymbolTable
 70
     0
  0
ENDTAB
  0
TABLE
  2
APPID
  5
9
330
0
100
AcDbSymbolTable
 70
     1
  0
APPID
  5
12
330
9
100
AcDbSymbolTableRecord
100
AcDbRegAppTableRecord
  2
ACAD
 70
     0
  0
ENDTAB
  0
TABLE
  2
DIMSTYLE
  5
A
330
0
100
AcDbSymbolTable
 70
     2
100
AcDbDimStyleTable
  0
DIMSTYLE
105
27
330
A
100
AcDbSymbolTableRecord
100
AcDbDimStyleTableRecord
  2
ISO-25
 70
     0
 41
2.5
 42
0.625
 43
3.75
 44
1.25
 73
     0
 74
     0
 77
     1
 78
     8
140
2.5
141
2.5
143
0.03937
147
0.625
171
     3
172
     1
271
     2
272
     2
274
     3
278
    44
283
     0
284
     8
340
11
  0
DIMSTYLE
105
27B
102
{ACAD_REACTORS
330
27D
330
28B
330
298
330
2A5
330
2B3
330
2C0
330
5A8
330
6D8
330
6E5
102
}
330
A
100
AcDbSymbolTableRecord
100
AcDbDimStyleTableRecord
  2
LC-DIM-L-0140-02-02
 70
     0
 40
2.0
 41
14.0
 42
0.0
 43
7.5
 44
1.8
 73
     0
 74
     0
 77
     1
 78
     8
 79
     2
140
14.0
141
0.0
146
0.71
147
1.5
176
     2
177
     2
178
     2
179
     2
271
     2
278
    44
289
     1
340
27A
  0
ENDTAB
  0
TABLE
  2
BLOCK_RECORD
  5
1
330
0
100
AcDbSymbolTable
 70
    46
  0
BLOCK_RECORD
  5
1F
330
1
100
AcDbSymbolTableRecord
100
AcDbBlockTableRecord
  2
*Model_Space
340
22
  0
BLOCK_RECORD
  5
1B
330
1
100
AcDbSymbolTableRecord
100
AcDbBlockTableRecord
  2
*Paper_Space
340
1E
  0
BLOCK_RECORD
  5
23
330
1
100
AcDbSymbolTableRecord
100
AcDbBlockTableRecord
  2
*Paper_Space0
340
26
  0
BLOCK_RECORD
  5
6E
330
1
100
AcDbSymbolTableRecord
100
AcDbBlockTableRecord
  2
*X11
340
0
102
{BLKREFS
331
B0
102
}
  0
BLOCK_RECORD
  5
D5
330
1
100
AcDbSymbolTableRecord
100
AcDbBlockTableRecord
  2
*X22
340
0
102
{BLKREFS
331
195
102
}
  0
BLOCK_RECORD
  5
1CD
330
1
100
AcDbSymbolTableRecord
100
AcDbBlockTableRecord
  2
*X33
340
0
102
{BLKREFS
331
1D5
102
}
  0
BLOCK_RECORD
  5
1D7
330
1
100
AcDbSymbolTableRecord
100
AcDbBlockTableRecord
  2
*X44
340
0
102
{BLKREFS
331
1DF
102
}
  0
BLOCK_RECORD
  5
1E0
330
1
100
AcDbSymbolTableRecord
100
AcDbBlockTableRecord
  2
*X55
340
0
102
{BLKREFS
331
210
102
}
  0
BLOCK_RECORD
  5
211
330
1
100
AcDbSymbolTableRecord
100
AcDbBlockTableRecord
  2
*X66
340
0
102
{BLKREFS
331
230
102
}
  0
BLOCK_RECORD
  5
233
330
1
100
AcDbSymbolTableRecord
100
AcDbBlockTableRecord
  2
*X77
340
0
102
{BLKREFS
331
243
102
}
  0
BLOCK_RECORD
  5
244
330
1
100
AcDbSymbolTableRecord
100
AcDbBlockTableRecord
  2
*X88
340
0
102
{BLKREFS
331
250
102
}
  0
BLOCK_RECORD
  5
251
330
1
100
AcDbSymbolTableRecord
100
AcDbBlockTableRecord
  2
*X99
340
0
102
{BLKREFS
331
25E
102
}
  0
BLOCK_RECORD
  5
25F
330
1
100
AcDbSymbolTableRecord
100
AcDbBlockTableRecord
  2
*X1010
340
0
102
{BLKREFS
331
26C
102
}
  0
BLOCK_RECORD
  5
26D
330
1
100
AcDbSymbolTableRecord
100
AcDbBlockTableRecord
  2
*X1111
340
0
102
{BLKREFS
331
279
102
}
  0
BLOCK_RECORD
  5
27F
330
1
100
AcDbSymbolTableRecord
100
AcDbBlockTableRecord
  2
*D12
340
0
  0
BLOCK_RECORD
  5
28C
330
1
100
AcDbSymbolTableRecord
100
AcDbBlockTableRecord
  2
*D13
340
0
  0
BLOCK_RECORD
  5
299
330
1
100
AcDbSymbolTableRecord
100
AcDbBlockTableRecord
  2
*D14
340
0
  0
BLOCK_RECORD
  5
2A6
330
1
100
AcDbSymbolTableRecord
100
AcDbBlockTableRecord
  2
*D15
340
0
  0
BLOCK_RECORD
  5
2B4
330
1
100
AcDbSymbolTableRecord
100
AcDbBlockTableRecord
  2
*D16
340
0
  0
BLOCK_RECORD
  5
2C1
330
1
100
AcDbSymbolTableRecord
100
AcDbBlockTableRecord
  2
*D17
340
0
  0
BLOCK_RECORD
  5
2FB
330
1
100
AcDbSymbolTableRecord
100
AcDbBlockTableRecord
  2
*X1218
340
0
102
{BLKREFS
331
317
102
}
  0
BLOCK_RECORD
  5
320
330
1
100
AcDbSymbolTableRecord
100
AcDbBlockTableRecord
  2
*X1319
340
0
102
{BLKREFS
331
33D
102
}
  0
BLOCK_RECORD
  5
33E
330
1
100
AcDbSymbolTableRecord
100
AcDbBlockTableRecord
  2
*X1420
340
0
102
{BLKREFS
331
35B
102
}
  0
BLOCK_RECORD
  5
35C
330
1
100
AcDbSymbolTableRecord
100
AcDbBlockTableRecord
  2
*X1521
340
0
102
{BLKREFS
331
379
102
}
  0
BLOCK_RECORD
  5
37A
330
1
100
AcDbSymbolTableRecord
100
AcDbBlockTableRecord
  2
*X1622
340
0
102
{BLKREFS
331
397
102
}
  0
BLOCK_RECORD
  5
398
330
1
100
AcDbSymbolTableRecord
100
AcDbBlockTableRecord
  2
*X1723
340
0
102
{BLKREFS
331
3B5
102
}
  0
BLOCK_RECORD
  5
3B8
330
1
100
AcDbSymbolTableRecord
100
AcDbBlockTableRecord
  2
*X1824
340
0
102
{BLKREFS
331
3D6
102
}
  0
BLOCK_RECORD
  5
3D7
330
1
100
AcDbSymbolTableRecord
100
AcDbBlockTableRecord
  2
*X1925
340
0
102
{BLKREFS
331
3F6
102
}
  0
BLOCK_RECORD
  5
3F7
330
1
100
AcDbSymbolTableRecord
100
AcDbBlockTableRecord
  2
*X2026
340
0
102
{BLKREFS
331
419
102
}
  0
BLOCK_RECORD
  5
437
330
1
100
AcDbSymbolTableRecord
100
AcDbBlockTableRecord
  2
*X2127
340
0
102
{BLKREFS
331
443
102
}
  0
BLOCK_RECORD
  5
446
330
1
100
AcDbSymbolTableRecord
100
AcDbBlockTableRecord
  2
*X2228
340
0
102
{BLKREFS
331
454
102
}
  0
BLOCK_RECORD
  5
461
330
1
100
AcDbSymbolTableRecord
100
AcDbBlockTableRecord
  2
*X2329
340
0
102
{BLKREFS
331
47E
102
}
  0
BLOCK_RECORD
  5
47F
330
1
100
AcDbSymbolTableRecord
100
AcDbBlockTableRecord
  2
*X2430
340
0
102
{BLKREFS
331
49C
102
}
  0
BLOCK_RECORD
  5
49D
330
1
100
AcDbSymbolTableRecord
100
AcDbBlockTableRecord
  2
*X2531
340
0
102
{BLKREFS
331
4B9
102
}
  0
BLOCK_RECORD
  5
4BA
330
1
100
AcDbSymbolTableRecord
100
AcDbBlockTableRecord
  2
*X2632
340
0
102
{BLKREFS
331
4D7
102
}
  0
BLOCK_RECORD
  5
4D8
330
1
100
AcDbSymbolTableRecord
100
AcDbBlockTableRecord
  2
*X2733
340
0
102
{BLKREFS
331
4F5
102
}
  0
BLOCK_RECORD
  5
4F9
330
1
100
AcDbSymbolTableRecord
100
AcDbBlockTableRecord
  2
*X2834
340
0
102
{BLKREFS
331
515
102
}
  0
BLOCK_RECORD
  5
516
330
1
100
AcDbSymbolTableRecord
100
AcDbBlockTableRecord
  2
*X2935
340
0
102
{BLKREFS
331
532
102
}
  0
BLOCK_RECORD
  5
537
330
1
100
AcDbSymbolTableRecord
100
AcDbBlockTableRecord
  2
*X3036
340
0
102
{BLKREFS
331
550
102
}
  0
BLOCK_RECORD
  5
56A
330
1
100
AcDbSymbolTableRecord
100
AcDbBlockTableRecord
  2
*X3137
340
0
102
{BLKREFS
331
580
102
}
  0
BLOCK_RECORD
  5
5A9
330
1
100
AcDbSymbolTableRecord
100
AcDbBlockTableRecord
  2
*D38
340
0
  0
BLOCK_RECORD
  5
5BC
330
1
100
AcDbSymbolTableRecord
100
AcDbBlockTableRecord
  2
*X3239
340
0
102
{BLKREFS
331
5C9
102
}
  0
BLOCK_RECORD
  5
5DE
330
1
100
AcDbSymbolTableRecord
100
AcDbBlockTableRecord
  2
*X3340
340
0
102
{BLKREFS
331
5F0
102
}
  0
BLOCK_RECORD
  5
62B
330
1
100
AcDbSymbolTableRecord
100
AcDbBlockTableRecord
  2
*X3441
340
0
102
{BLKREFS
331
67D
102
}
  0
BLOCK_RECORD
  5
6A3
330
1
100
AcDbSymbolTableRecord
100
AcDbBlockTableRecord
  2
KLON1
340
0
102
{BLKREFS
331
6AD
102
}
  0
BLOCK_RECORD
  5
6CD
330
1
100
AcDbSymbolTableRecord
100
AcDbBlockTableRecord
  2
KLON2
340
0
102
{BLKREFS
331
6D7
102
}
  0
BLOCK_RECORD
  5
6D9
330
1
100
AcDbSymbolTableRecord
100
AcDbBlockTableRecord
  2
*D44
340
0
  0
BLOCK_RECORD
  5
6E6
330
1
100
AcDbSymbolTableRecord
100
AcDbBlockTableRecord
  2
*D45
340
0
  0
ENDTAB
  0
ENDSEC
  0
SECTION
  2
BLOCKS
  0
BLOCK
  5
20
330
1F
100
AcDbEntity
  8
0
100
AcDbBlockBegin
  2
*Model_Space
 70
     0
 71
     0
 10
0.0
 20
0.0
 30
0.0
  3
*Model_Space
  1

  0
ENDBLK
  5
21
330
1F
100
AcDbEntity
  8
0
100
AcDbBlockEnd
  0
BLOCK
  5
1C
330
1B
100
AcDbEntity
 67
     1
  8
0
100
AcDbBlockBegin
  2
*Paper_Space
 70
     0
 71
     0
 10
0.0
 20
0.0
 30
0.0
  3
*Paper_Space
  1

  0
ENDBLK
  5
1D
330
1B
100
AcDbEntity
 67
     1
  8
0
100
AcDbBlockEnd
  0
BLOCK
  5
24
330
23
100
AcDbEntity
  8
0
100
AcDbBlockBegin
  2
*Paper_Space0
 70
     0
 71
     0
 10
0.0
 20
0.0
 30
0.0
  3
*Paper_Space0
  1

  0
ENDBLK
  5
25
330
23
100
AcDbEntity
  8
0
100
AcDbBlockEnd
  0
BLOCK
  5
6F
330
6E
100
AcDbEntity
  8
0
100
AcDbBlockBegin
  2
*X11
 70
     1
 71
     0
 10
0.0
 20
0.0
 30
0.0
  3
*X11
  1

  4
*X1
  0
LINE
  5
72
330
6E
100
AcDbEntity
  8
LC-005-005-----0
 62
     7
370
    25
100
AcDbLine
 10
499.428687
 20
324.066205
 30
0.0
 11
500.631059
 21
325.268577
 31
0.0
  0
LINE
  5
73
330
6E
100
AcDbEntity
  8
LC-005-005-----0
 62
     7
370
    25
100
AcDbLine
 10
496.600249
 20
324.066194
 30
0.0
 11
498.829612
 21
326.295558
 31
0.0
  0
LINE
  5
74
330
6E
100
AcDbEntity
  8
LC-005-005-----0
 62
     7
370
    25
100
AcDbLine
 10
493.771812
 20
324.066184
 30
0.0
 11
496.322332
 21
326.616704
 31
0.0
  0
LINE
  5
75
330
6E
100
AcDbEntity
  8
LC-005-005-----0
 62
     7
370
    25
100
AcDbLine
 10
490.943374
 20
324.066174
 30
0.0
 11
493.493893
 21
326.616693
 31
0.0
  0
LINE
  5
76
330
6E
100
AcDbEntity
  8
LC-005-005-----0
 62
     7
370
    25
100
AcDbLine
 10
488.114936
 20
324.066163
 30
0.0
 11
490.665455
 21
326.616681
 31
0.0
  0
LINE
  5
77
330
6E
100
AcDbEntity
  8
LC-005-005-----0
 62
     7
370
    25
100
AcDbLine
 10
485.286499
 20
324.066153
 30
0.0
 11
487.837016
 21
326.61667
 31
0.0
  0
LINE
  5
78
330
6E
100
AcDbEntity
  8
LC-005-005-----0
 62
     7
370
    25
100
AcDbLine
 10
482.458061
 20
324.066142
 30
0.0
 11
485.008578
 21
326.616659
 31
0.0
  0
LINE
  5
79
330
6E
100
AcDbEntity
  8
LC-005-005-----0
 62
     7
370
    25
100
AcDbLine
 10
479.629624
 20
324.066132
 30
0.0
 11
482.180139
 21
326.616647
 31
0.0
  0
LINE
  5
7A
330
6E
100
AcDbEntity
  8
LC-005-005-----0
 62
     7
370
    25
100
AcDbLine
 10
476.801186
 20
324.066122
 30
0.0
 11
479.351701
 21
326.616636
 31
0.0
  0
LINE
  5
7B
330
6E
100
AcDbEntity
  8
LC-005-005-----0
 62
     7
370
    25
100
AcDbLine
 10
473.972749
 20
324.066111
 30
0.0
 11
476.523262
 21
326.616625
 31
0.0
  0
LINE
  5
7C
330
6E
100
AcDbEntity
  8
LC-005-005-----0
 62
     7
370
    25
100
AcDbLine
 10
471.144311
 20
324.066101
 30
0.0
 11
473.694824
 21
326.616614
 31
0.0
  0
LINE
  5
7D
330
6E
100
AcDbEntity
  8
LC-005-005-----0
 62
     7
370
    25
100
AcDbLine
 10
468.315874
 20
324.06609
 30
0.0
 11
470.866386
 21
326.616602
 31
0.0
  0
LINE
  5
7E
330
6E
100
AcDbEntity
  8
LC-005-005-----0
 62
     7
370
    25
100
AcDbLine
 10
512.288147
 20
368.038364
 30
0.0
 11
512.650629
 21
368.400845
 31
0.0
  0
LINE
  5
7F
330
6E
100
AcDbEntity
  8
LC-005-005-----0
 62
     7
370
    25
100
AcDbLine
 10
465.487436
 20
324.06608
 30
0.0
 11
468.037947
 21
326.616591
 31
0.0
  0
LINE
  5
80
330
6E
100
AcDbEntity
  8
LC-005-005-----0
 62
     7
370
    25
100
AcDbLine
 10
509.246022
 20
367.824665
 30
0.0
 11
512.478466
 21
371.05711
 31
0.0
  0
LINE
  5
81
330
6E
100
AcDbEntity
  8
LC-005-005-----0
 62
     7
370
    25
100
AcDbLine
 10
462.658999
 20
324.06607
 30
0.0
 11
465.209509
 21
326.61658
 31
0.0
  0
LINE
  5
82
330
6E
100
AcDbEntity
  8
LC-005-005-----0
 62
     7
370
    25
100
AcDbLine
 10
506.203896
 20
367.610967
 30
0.0
 11
509.43634
 21
370.843411
 31
0.0
  0
LINE
  5
83
330
6E
100
AcDbEntity
  8
LC-005-005-----0
 62
     7
370
    25
100
AcDbLine
 10
459.830561
 20
324.066059
 30
0.0
 11
462.38107
 21
326.616568
 31
0.0
  0
LINE
  5
84
330
6E
100
AcDbEntity
  8
LC-005-005-----0
 62
     7
370
    25
100
AcDbLine
 10
503.161771
 20
367.397269
 30
0.0
 11
506.394215
 21
370.629713
 31
0.0
  0
LINE
  5
85
330
6E
100
AcDbEntity
  8
LC-005-005-----0
 62
     7
370
    25
100
AcDbLine
 10
457.002124
 20
324.066049
 30
0.0
 11
459.552632
 21
326.616557
 31
0.0
  0
LINE
  5
86
330
6E
100
AcDbEntity
  8
LC-005-005-----0
 62
     7
370
    25
100
AcDbLine
 10
500.119646
 20
367.183571
 30
0.0
 11
503.35209
 21
370.416015
 31
0.0
  0
LINE
  5
87
330
6E
100
AcDbEntity
  8
LC-005-005-----0
 62
     7
370
    25
100
AcDbLine
 10
454.173686
 20
324.066038
 30
0.0
 11
456.724193
 21
326.616546
 31
0.0
  0
LINE
  5
88
330
6E
100
AcDbEntity
  8
LC-005-005-----0
 62
     7
370
    25
100
AcDbLine
 10
497.077521
 20
366.969873
 30
0.0
 11
500.309965
 21
370.202317
 31
0.0
  0
LINE
  5
89
330
6E
100
AcDbEntity
  8
LC-005-005-----0
 62
     7
370
    25
100
AcDbLine
 10
451.345249
 20
324.066028
 30
0.0
 11
453.895755
 21
326.616534
 31
0.0
  0
LINE
  5
8A
330
6E
100
AcDbEntity
  8
LC-005-005-----0
 62
     7
370
    25
100
AcDbLine
 10
494.035395
 20
366.756175
 30
0.0
 11
497.267839
 21
369.988619
 31
0.0
  0
LINE
  5
8B
330
6E
100
AcDbEntity
  8
LC-005-005-----0
 62
     7
370
    25
100
AcDbLine
 10
448.516811
 20
324.066018
 30
0.0
 11
451.067316
 21
326.616523
 31
0.0
  0
LINE
  5
8C
330
6E
100
AcDbEntity
  8
LC-005-005-----0
 62
     7
370
    25
100
AcDbLine
 10
490.99327
 20
366.542476
 30
0.0
 11
494.225714
 21
369.774921
 31
0.0
  0
LINE
  5
8D
330
6E
100
AcDbEntity
  8
LC-005-005-----0
 62
     7
370
    25
100
AcDbLine
 10
445.688374
 20
324.066007
 30
0.0
 11
448.238878
 21
326.616512
 31
0.0
  0
LINE
  5
8E
330
6E
100
AcDbEntity
  8
LC-005-005-----0
 62
     7
370
    25
100
AcDbLine
 10
487.951145
 20
366.328778
 30
0.0
 11
491.183589
 21
369.561222
 31
0.0
  0
LINE
  5
8F
330
6E
100
AcDbEntity
  8
LC-005-005-----0
 62
     7
370
    25
100
AcDbLine
 10
442.859936
 20
324.065997
 30
0.0
 11
445.41044
 21
326.6165
 31
0.0
  0
LINE
  5
90
330
6E
100
AcDbEntity
  8
LC-005-005-----0
 62
     7
370
    25
100
AcDbLine
 10
484.909019
 20
366.11508
 30
0.0
 11
488.141463
 21
369.347524
 31
0.0
  0
LINE
  5
91
330
6E
100
AcDbEntity
  8
LC-005-005-----0
 62
     7
370
    25
100
AcDbLine
 10
440.031499
 20
324.065986
 30
0.0
 11
442.582001
 21
326.616489
 31
0.0
  0
LINE
  5
92
330
6E
100
AcDbEntity
  8
LC-005-005-----0
 62
     7
370
    25
100
AcDbLine
 10
481.866894
 20
365.901382
 30
0.0
 11
485.099338
 21
369.133826
 31
0.0
  0
LINE
  5
93
330
6E
100
AcDbEntity
  8
LC-005-005-----0
 62
     7
370
    25
100
AcDbLine
 10
437.203061
 20
324.065976
 30
0.0
 11
439.753563
 21
326.616478
 31
0.0
  0
LINE
  5
94
330
6E
100
AcDbEntity
  8
LC-005-005-----0
 62
     7
370
    25
100
AcDbLine
 10
478.260853
 20
365.123768
 30
0.0
 11
482.057213
 21
368.920128
 31
0.0
  0
LINE
  5
95
330
6E
100
AcDbEntity
  8
LC-005-005-----0
 62
     7
370
    25
100
AcDbLine
 10
434.374624
 20
324.065966
 30
0.0
 11
436.925124
 21
326.616466
 31
0.0
  0
LINE
  5
96
330
6E
100
AcDbEntity
  8
LC-005-005-----0
 62
     7
370
    25
100
AcDbLine
 10
442.875439
 20
332.566781
 30
0.0
 11
446.777743
 21
336.469085
 31
0.0
  0
LINE
  5
97
330
6E
100
AcDbEntity
  8
LC-005-005-----0
 62
     7
370
    25
100
AcDbLine
 10
473.875406
 20
363.566748
 30
0.0
 11
479.015088
 21
368.70643
 31
0.0
  0
LINE
  5
98
330
6E
100
AcDbEntity
  8
LC-005-005-----0
 62
     7
370
    25
100
AcDbLine
 10
432.635516
 20
325.155285
 30
0.0
 11
435.135566
 21
327.655336
 31
0.0
  0
LINE
  5
99
330
6E
100
AcDbEntity
  8
LC-005-005-----0
 62
     7
370
    25
100
AcDbLine
 10
440.04702
 20
332.566789
 30
0.0
 11
449.243758
 21
341.763527
 31
0.0
  0
LINE
  5
9A
330
6E
100
AcDbEntity
  8
LC-005-005-----0
 62
     7
370
    25
100
AcDbLine
 10
470.551285
 20
363.071054
 30
0.0
 11
475.972962
 21
368.492731
 31
0.0
  0
LINE
  5
9B
330
6E
100
AcDbEntity
  8
LC-005-005-----0
 62
     7
370
    25
100
AcDbLine
 10
432.635535
 20
327.983731
 30
0.0
 11
435.13557
 21
330.483767
 31
0.0
  0
LINE
  5
9C
330
6E
100
AcDbEntity
  8
LC-005-005-----0
 62
     7
370
    25
100
AcDbLine
 10
437.218601
 20
332.566798
 30
0.0
 11
451.340343
 21
346.688539
 31
0.0
  0
LINE
  5
9D
330
6E
100
AcDbEntity
  8
LC-005-005-----0
 62
     7
370
    25
100
AcDbLine
 10
467.510214
 20
362.85841
 30
0.0
 11
472.789028
 21
368.137225
 31
0.0
  0
LINE
  5
9E
330
6E
100
AcDbEntity
  8
LC-005-005-----0
 62
     7
370
    25
100
AcDbLine
 10
432.635553
 20
330.812177
 30
0.0
 11
437.389162
 21
335.565785
 31
0.0
  0
LINE
  5
9F
330
6E
100
AcDbEntity
  8
LC-005-005-----0
 62
     7
370
    25
100
AcDbLine
 10
439.502807
 20
337.67943
 30
0.0
 11
446.297161
 21
344.473784
 31
0.0
  0
LINE
  5
A0
330
6E
100
AcDbEntity
  8
LC-005-005-----0
 62
     7
370
    25
100
AcDbLine
 10
448.817508
 20
346.994131
 30
0.0
 11
451.340372
 21
349.516996
 31
0.0
  0
LINE
  5
A1
330
6E
100
AcDbEntity
  8
LC-005-005-----0
 62
     7
370
    25
100
AcDbLine
 10
464.469143
 20
362.645766
 30
0.0
 11
468.08478
 21
366.261403
 31
0.0
  0
LINE
  5
A2
330
6E
100
AcDbEntity
  8
LC-005-005-----0
 62
     7
370
    25
100
AcDbLine
 10
432.635572
 20
333.640623
 30
0.0
 11
434.560769
 21
335.56582
 31
0.0
  0
LINE
  5
A3
330
6E
100
AcDbEntity
  8
LC-005-005-----0
 62
     7
370
    25
100
AcDbLine
 10
439.502814
 20
340.507865
 30
0.0
 11
443.261097
 21
344.266148
 31
0.0
  0
LINE
  5
A4
330
6E
100
AcDbEntity
  8
LC-005-005-----0
 62
     7
370
    25
100
AcDbLine
 10
449.025154
 20
350.030204
 30
0.0
 11
456.337196
 21
357.342247
 31
0.0
  0
LINE
  5
A5
330
6E
100
AcDbEntity
  8
LC-005-005-----0
 62
     7
370
    25
100
AcDbLine
 10
461.428071
 20
362.433122
 30
0.0
 11
464.692875
 21
365.697926
 31
0.0
  0
LINE
  5
A6
330
6E
100
AcDbEntity
  8
LC-005-005-----0
 62
     7
370
    25
100
AcDbLine
 10
438.370391
 20
342.203869
 30
0.0
 11
439.286614
 21
343.120092
 31
0.0
  0
LINE
  5
A7
330
6E
100
AcDbEntity
  8
LC-005-005-----0
 62
     7
370
    25
100
AcDbLine
 10
439.502822
 20
343.3363
 30
0.0
 11
440.432677
 21
344.266155
 31
0.0
  0
LINE
  5
A8
330
6E
100
AcDbEntity
  8
LC-005-005-----0
 62
     7
370
    25
100
AcDbLine
 10
449.025161
 20
352.858639
 30
0.0
 11
452.354974
 21
356.188452
 31
0.0
  0
LINE
  5
A9
330
6E
100
AcDbEntity
  8
LC-005-005-----0
 62
     7
370
    25
100
AcDbLine
 10
453.884499
 20
357.717977
 30
0.0
 11
456.337216
 21
360.170694
 31
0.0
  0
LINE
  5
AA
330
6E
100
AcDbEntity
  8
LC-005-005-----0
 62
     7
370
    25
100
AcDbLine
 10
458.387
 20
362.220478
 30
0.0
 11
461.64281
 21
365.476288
 31
0.0
  0
LINE
  5
AB
330
6E
100
AcDbEntity
  8
LC-005-005-----0
 62
     7
370
    25
100
AcDbLine
 10
449.025169
 20
355.687073
 30
0.0
 11
450.743116
 21
357.405021
 31
0.0
  0
LINE
  5
AC
330
6E
100
AcDbEntity
  8
LC-005-005-----0
 62
     7
370
    25
100
AcDbLine
 10
453.884506
 20
360.546411
 30
0.0
 11
458.592745
 21
365.254649
 31
0.0
  0
LINE
  5
AD
330
6E
100
AcDbEntity
  8
LC-005-005-----0
 62
     7
370
    25
100
AcDbLine
 10
449.025176
 20
358.515508
 30
0.0
 11
450.743124
 21
360.233456
 31
0.0
  0
LINE
  5
AE
330
6E
100
AcDbEntity
  8
LC-005-005-----0
 62
     7
370
    25
100
AcDbLine
 10
453.884514
 20
363.374846
 30
0.0
 11
455.542679
 21
365.033011
 31
0.0
  0
LINE
  5
AF
330
6E
100
AcDbEntity
  8
LC-005-005-----0
 62
     7
370
    25
100
AcDbLine
 10
449.025184
 20
361.343943
 30
0.0
 11
449.736545
 21
362.055304
 31
0.0
  0
ENDBLK
  5
70
330
6E
100
AcDbEntity
  8
0
100
AcDbBlockEnd
  0
BLOCK
  5
D6
330
D5
100
AcDbEntity
  8
0
100
AcDbBlockBegin
  2
*X22
 70
     1
 71
     0
 10
0.0
 20
0.0
 30
0.0
  3
*X22
  1

  4
*X2
  0
LINE
  5
D8
330
D5
100
AcDbEntity
  8
LC-005-005-----0
 62
     7
370
    25
100
AcDbLine
 10
497.711871
 20
251.638711
 30
0.0
 11
500.240216
 21
254.167056
 31
0.0
  0
LINE
  5
D9
330
D5
100
AcDbEntity
  8
LC-005-005-----0
 62
     7
370
    25
100
AcDbLine
 10
494.86178
 20
251.617047
 30
0.0
 11
497.411779
 21
254.167046
 31
0.0
  0
LINE
  5
DA
330
D5
100
AcDbEntity
  8
LC-005-005-----0
 62
     7
370
    25
100
AcDbLine
 10
492.033341
 20
251.617036
 30
0.0
 11
494.583341
 21
254.167036
 31
0.0
  0
LINE
  5
DB
330
D5
100
AcDbEntity
  8
LC-005-005-----0
 62
     7
370
    25
100
AcDbLine
 10
489.204903
 20
251.617025
 30
0.0
 11
491.754904
 21
254.167026
 31
0.0
  0
LINE
  5
DC
330
D5
100
AcDbEntity
  8
LC-005-005-----0
 62
     7
370
    25
100
AcDbLine
 10
486.376465
 20
251.617013
 30
0.0
 11
488.926467
 21
254.167015
 31
0.0
  0
LINE
  5
DD
330
D5
100
AcDbEntity
  8
LC-005-005-----0
 62
     7
370
    25
100
AcDbLine
 10
483.548026
 20
251.617002
 30
0.0
 11
486.098029
 21
254.167005
 31
0.0
  0
LINE
  5
DE
330
D5
100
AcDbEntity
  8
LC-005-005-----0
 62
     7
370
    25
100
AcDbLine
 10
480.719588
 20
251.616991
 30
0.0
 11
483.269592
 21
254.166995
 31
0.0
  0
LINE
  5
DF
330
D5
100
AcDbEntity
  8
LC-005-005-----0
 62
     7
370
    25
100
AcDbLine
 10
477.89115
 20
251.61698
 30
0.0
 11
480.441155
 21
254.166985
 31
0.0
  0
LINE
  5
E0
330
D5
100
AcDbEntity
  8
LC-005-005-----0
 62
     7
370
    25
100
AcDbLine
 10
475.062712
 20
251.616969
 30
0.0
 11
477.612717
 21
254.166974
 31
0.0
  0
LINE
  5
E1
330
D5
100
AcDbEntity
  8
LC-005-005-----0
 62
     7
370
    25
100
AcDbLine
 10
472.234273
 20
251.616958
 30
0.0
 11
474.78428
 21
254.166964
 31
0.0
  0
LINE
  5
E2
330
D5
100
AcDbEntity
  8
LC-005-005-----0
 62
     7
370
    25
100
AcDbLine
 10
469.405835
 20
251.616947
 30
0.0
 11
471.955842
 21
254.166954
 31
0.0
  0
LINE
  5
E3
330
D5
100
AcDbEntity
  8
LC-005-005-----0
 62
     7
370
    25
100
AcDbLine
 10
466.577397
 20
251.616935
 30
0.0
 11
469.127405
 21
254.166944
 31
0.0
  0
LINE
  5
E4
330
D5
100
AcDbEntity
  8
LC-005-005-----0
 62
     7
370
    25
100
AcDbLine
 10
463.748959
 20
251.616924
 30
0.0
 11
466.298968
 21
254.166933
 31
0.0
  0
LINE
  5
E5
330
D5
100
AcDbEntity
  8
LC-005-005-----0
 62
     7
370
    25
100
AcDbLine
 10
460.92052
 20
251.616913
 30
0.0
 11
463.47053
 21
254.166923
 31
0.0
  0
LINE
  5
E6
330
D5
100
AcDbEntity
  8
LC-005-005-----0
 62
     7
370
    25
100
AcDbLine
 10
458.092082
 20
251.616902
 30
0.0
 11
460.642093
 21
254.166913
 31
0.0
  0
LINE
  5
E7
330
D5
100
AcDbEntity
  8
LC-005-005-----0
 62
     7
370
    25
100
AcDbLine
 10
422.59282
 20
218.946067
 30
0.0
 11
432.258613
 21
228.61186
 31
0.0
  0
LINE
  5
E8
330
D5
100
AcDbEntity
  8
LC-005-005-----0
 62
     7
370
    25
100
AcDbLine
 10
455.263644
 20
251.616891
 30
0.0
 11
457.813656
 21
254.166903
 31
0.0
  0
LINE
  5
E9
330
D5
100
AcDbEntity
  8
LC-005-005-----0
 62
     7
370
    25
100
AcDbLine
 10
418.333697
 20
217.515371
 30
0.0
 11
422.536779
 21
221.718453
 31
0.0
  0
LINE
  5
EA
330
D5
100
AcDbEntity
  8
LC-005-005-----0
 62
     7
370
    25
100
AcDbLine
 10
429.486227
 20
228.667901
 30
0.0
 11
433.689309
 21
232.870983
 31
0.0
  0
LINE
  5
EB
330
D5
100
AcDbEntity
  8
LC-005-005-----0
 62
     7
370
    25
100
AcDbLine
 10
452.435206
 20
251.61688
 30
0.0
 11
454.985218
 21
254.166892
 31
0.0
  0
LINE
  5
EC
330
D5
100
AcDbEntity
  8
LC-005-005-----0
 62
     7
370
    25
100
AcDbLine
 10
415.082011
 20
217.092112
 30
0.0
 11
417.9893
 21
219.999401
 31
0.0
  0
LINE
  5
ED
330
D5
100
AcDbEntity
  8
LC-005-005-----0
 62
     7
370
    25
100
AcDbLine
 10
431.205279
 20
233.21538
 30
0.0
 11
434.112568
 21
236.122669
 31
0.0
  0
LINE
  5
EE
330
D5
100
AcDbEntity
  8
LC-005-005-----0
 62
     7
370
    25
100
AcDbLine
 10
449.606767
 20
251.616869
 30
0.0
 11
452.156781
 21
254.166882
 31
0.0
  0
LINE
  5
EF
330
D5
100
AcDbEntity
  8
LC-005-005-----0
 62
     7
370
    25
100
AcDbLine
 10
412.231153
 20
217.069681
 30
0.0
 11
414.741669
 21
219.580198
 31
0.0
  0
LINE
  5
F0
330
D5
100
AcDbEntity
  8
LC-005-005-----0
 62
     7
370
    25
100
AcDbLine
 10
431.624482
 20
236.463011
 30
0.0
 11
434.134944
 21
238.973473
 31
0.0
  0
LINE
  5
F1
330
D5
100
AcDbEntity
  8
LC-005-005-----0
 62
     7
370
    25
100
AcDbLine
 10
446.778329
 20
251.616857
 30
0.0
 11
449.328343
 21
254.166872
 31
0.0
  0
LINE
  5
F2
330
D5
100
AcDbEntity
  8
LC-005-005-----0
 62
     7
370
    25
100
AcDbLine
 10
409.40273
 20
217.069685
 30
0.0
 11
411.902726
 21
219.569682
 31
0.0
  0
LINE
  5
F3
330
D5
100
AcDbEntity
  8
LC-005-005-----0
 62
     7
370
    25
100
AcDbLine
 10
431.634946
 20
239.301902
 30
0.0
 11
434.134963
 21
241.801919
 31
0.0
  0
LINE
  5
F4
330
D5
100
AcDbEntity
  8
LC-005-005-----0
 62
     7
370
    25
100
AcDbLine
 10
443.949891
 20
251.616846
 30
0.0
 11
446.499906
 21
254.166862
 31
0.0
  0
LINE
  5
F5
330
D5
100
AcDbEntity
  8
LC-005-005-----0
 62
     7
370
    25
100
AcDbLine
 10
406.574306
 20
217.069689
 30
0.0
 11
409.074303
 21
219.569686
 31
0.0
  0
LINE
  5
F6
330
D5
100
AcDbEntity
  8
LC-005-005-----0
 62
     7
370
    25
100
AcDbLine
 10
431.634965
 20
242.130348
 30
0.0
 11
434.134982
 21
244.630365
 31
0.0
  0
LINE
  5
F7
330
D5
100
AcDbEntity
  8
LC-005-005-----0
 62
     7
370
    25
100
AcDbLine
 10
441.121453
 20
251.616835
 30
0.0
 11
443.671469
 21
254.166851
 31
0.0
  0
LINE
  5
F8
330
D5
100
AcDbEntity
  8
LC-005-005-----0
 62
     7
370
    25
100
AcDbLine
 10
403.745883
 20
217.069693
 30
0.0
 11
406.24588
 21
219.569689
 31
0.0
  0
LINE
  5
F9
330
D5
100
AcDbEntity
  8
LC-005-005-----0
 62
     7
370
    25
100
AcDbLine
 10
431.634984
 20
244.958794
 30
0.0
 11
434.135001
 21
247.45881
 31
0.0
  0
LINE
  5
FA
330
D5
100
AcDbEntity
  8
LC-005-005-----0
 62
     7
370
    25
100
AcDbLine
 10
438.293014
 20
251.616824
 30
0.0
 11
440.843031
 21
254.166841
 31
0.0
  0
LINE
  5
FB
330
D5
100
AcDbEntity
  8
LC-005-005-----0
 62
     7
370
    25
100
AcDbLine
 10
400.917459
 20
217.069696
 30
0.0
 11
404.635423
 21
220.787659
 31
0.0
  0
LINE
  5
FC
330
D5
100
AcDbEntity
  8
LC-005-005-----0
 62
     7
370
    25
100
AcDbLine
 10
431.635003
 20
247.78724
 30
0.0
 11
434.13502
 21
250.287256
 31
0.0
  0
LINE
  5
FD
330
D5
100
AcDbEntity
  8
LC-005-005-----0
 62
     7
370
    25
100
AcDbLine
 10
435.464576
 20
251.616813
 30
0.0
 11
438.014594
 21
254.166831
 31
0.0
  0
LINE
  5
FE
330
D5
100
AcDbEntity
  8
LC-005-005-----0
 62
     7
370
    25
100
AcDbLine
 10
398.089036
 20
217.0697
 30
0.0
 11
400.589033
 21
219.569697
 31
0.0
  0
LINE
  5
FF
330
D5
100
AcDbEntity
  8
LC-005-005-----0
 62
     7
370
    25
100
AcDbLine
 10
402.635423
 20
221.616087
 30
0.0
 11
404.635426
 21
223.61609
 31
0.0
  0
LINE
  5
100
330
D5
100
AcDbEntity
  8
LC-005-005-----0
 62
     7
370
    25
100
AcDbLine
 10
431.635021
 20
250.615685
 30
0.0
 11
435.186157
 21
254.166821
 31
0.0
  0
LINE
  5
101
330
D5
100
AcDbEntity
  8
LC-005-005-----0
 62
     7
370
    25
100
AcDbLine
 10
395.260613
 20
217.069704
 30
0.0
 11
397.760609
 21
219.569701
 31
0.0
  0
LINE
  5
102
330
D5
100
AcDbEntity
  8
LC-005-005-----0
 62
     7
370
    25
100
AcDbLine
 10
402.635427
 20
224.444518
 30
0.0
 11
404.635429
 21
226.44452
 31
0.0
  0
LINE
  5
103
330
D5
100
AcDbEntity
  8
LC-005-005-----0
 62
     7
370
    25
100
AcDbLine
 10
431.63504
 20
253.444131
 30
0.0
 11
432.357719
 21
254.16681
 31
0.0
  0
LINE
  5
104
330
D5
100
AcDbEntity
  8
LC-005-005-----0
 62
     7
370
    25
100
AcDbLine
 10
392.432189
 20
217.069708
 30
0.0
 11
394.932186
 21
219.569704
 31
0.0
  0
LINE
  5
105
330
D5
100
AcDbEntity
  8
LC-005-005-----0
 62
     7
370
    25
100
AcDbLine
 10
402.63543
 20
227.272948
 30
0.0
 11
404.635432
 21
229.272951
 31
0.0
  0
LINE
  5
106
330
D5
100
AcDbEntity
  8
LC-005-005-----0
 62
     7
370
    25
100
AcDbLine
 10
389.603766
 20
217.069711
 30
0.0
 11
392.103763
 21
219.569708
 31
0.0
  0
LINE
  5
107
330
D5
100
AcDbEntity
  8
LC-005-005-----0
 62
     7
370
    25
100
AcDbLine
 10
402.635433
 20
230.101379
 30
0.0
 11
404.635435
 21
232.101381
 31
0.0
  0
LINE
  5
108
330
D5
100
AcDbEntity
  8
LC-005-005-----0
 62
     7
370
    25
100
AcDbLine
 10
386.775343
 20
217.069715
 30
0.0
 11
389.275339
 21
219.569712
 31
0.0
  0
LINE
  5
109
330
D5
100
AcDbEntity
  8
LC-005-005-----0
 62
     7
370
    25
100
AcDbLine
 10
402.635436
 20
232.929809
 30
0.0
 11
404.635439
 21
234.929811
 31
0.0
  0
LINE
  5
10A
330
D5
100
AcDbEntity
  8
LC-005-005-----0
 62
     7
370
    25
100
AcDbLine
 10
383.946919
 20
217.069719
 30
0.0
 11
386.446916
 21
219.569716
 31
0.0
  0
LINE
  5
10B
330
D5
100
AcDbEntity
  8
LC-005-005-----0
 62
     7
370
    25
100
AcDbLine
 10
402.63544
 20
235.758239
 30
0.0
 11
404.635442
 21
237.758242
 31
0.0
  0
LINE
  5
10C
330
D5
100
AcDbEntity
  8
LC-005-005-----0
 62
     7
370
    25
100
AcDbLine
 10
381.118496
 20
217.069723
 30
0.0
 11
383.618493
 21
219.569719
 31
0.0
  0
LINE
  5
10D
330
D5
100
AcDbEntity
  8
LC-005-005-----0
 62
     7
370
    25
100
AcDbLine
 10
402.635443
 20
238.58667
 30
0.0
 11
404.635445
 21
240.586672
 31
0.0
  0
LINE
  5
10E
330
D5
100
AcDbEntity
  8
LC-005-005-----0
 62
     7
370
    25
100
AcDbLine
 10
378.290072
 20
217.069726
 30
0.0
 11
380.790069
 21
219.569723
 31
0.0
  0
LINE
  5
10F
330
D5
100
AcDbEntity
  8
LC-005-005-----0
 62
     7
370
    25
100
AcDbLine
 10
402.635446
 20
241.4151
 30
0.0
 11
404.635448
 21
243.415102
 31
0.0
  0
LINE
  5
110
330
D5
100
AcDbEntity
  8
LC-005-005-----0
 62
     7
370
    25
100
AcDbLine
 10
375.461649
 20
217.06973
 30
0.0
 11
377.961646
 21
219.569727
 31
0.0
  0
LINE
  5
111
330
D5
100
AcDbEntity
  8
LC-005-005-----0
 62
     7
370
    25
100
AcDbLine
 10
402.635449
 20
244.24353
 30
0.0
 11
404.635452
 21
246.243533
 31
0.0
  0
LINE
  5
112
330
D5
100
AcDbEntity
  8
LC-005-005-----0
 62
     7
370
    25
100
AcDbLine
 10
372.633226
 20
217.069734
 30
0.0
 11
375.133222
 21
219.569731
 31
0.0
  0
LINE
  5
113
330
D5
100
AcDbEntity
  8
LC-005-005-----0
 62
     7
370
    25
100
AcDbLine
 10
402.635453
 20
247.071961
 30
0.0
 11
404.635455
 21
249.071963
 31
0.0
  0
LINE
  5
114
330
D5
100
AcDbEntity
  8
LC-005-005-----0
 62
     7
370
    25
100
AcDbLine
 10
369.804802
 20
217.069738
 30
0.0
 11
372.304799
 21
219.569734
 31
0.0
  0
LINE
  5
115
330
D5
100
AcDbEntity
  8
LC-005-005-----0
 62
     7
370
    25
100
AcDbLine
 10
402.635456
 20
249.900391
 30
0.0
 11
404.635458
 21
251.900393
 31
0.0
  0
LINE
  5
116
330
D5
100
AcDbEntity
  8
LC-005-005-----0
 62
     7
370
    25
100
AcDbLine
 10
366.976379
 20
217.069741
 30
0.0
 11
369.476376
 21
219.569738
 31
0.0
  0
LINE
  5
117
330
D5
100
AcDbEntity
  8
LC-005-005-----0
 62
     7
370
    25
100
AcDbLine
 10
402.635459
 20
252.728822
 30
0.0
 11
404.635461
 21
254.728824
 31
0.0
  0
LINE
  5
118
330
D5
100
AcDbEntity
  8
LC-005-005-----0
 62
     7
370
    25
100
AcDbLine
 10
364.147956
 20
217.069745
 30
0.0
 11
366.647952
 21
219.569742
 31
0.0
  0
LINE
  5
119
330
D5
100
AcDbEntity
  8
LC-005-005-----0
 62
     7
370
    25
100
AcDbLine
 10
402.635462
 20
255.557252
 30
0.0
 11
404.635465
 21
257.557254
 31
0.0
  0
LINE
  5
11A
330
D5
100
AcDbEntity
  8
LC-005-005-----0
 62
     7
370
    25
100
AcDbLine
 10
361.319532
 20
217.069749
 30
0.0
 11
363.819529
 21
219.569746
 31
0.0
  0
LINE
  5
11B
330
D5
100
AcDbEntity
  8
LC-005-005-----0
 62
     7
370
    25
100
AcDbLine
 10
402.635466
 20
258.385682
 30
0.0
 11
404.635468
 21
260.385685
 31
0.0
  0
LINE
  5
11C
330
D5
100
AcDbEntity
  8
LC-005-005-----0
 62
     7
370
    25
100
AcDbLine
 10
358.491109
 20
217.069753
 30
0.0
 11
360.991106
 21
219.569749
 31
0.0
  0
LINE
  5
11D
330
D5
100
AcDbEntity
  8
LC-005-005-----0
 62
     7
370
    25
100
AcDbLine
 10
402.635469
 20
261.214113
 30
0.0
 11
404.635471
 21
263.214115
 31
0.0
  0
LINE
  5
11E
330
D5
100
AcDbEntity
  8
LC-005-005-----0
 62
     7
370
    25
100
AcDbLine
 10
355.662686
 20
217.069756
 30
0.0
 11
358.162682
 21
219.569753
 31
0.0
  0
LINE
  5
11F
330
D5
100
AcDbEntity
  8
LC-005-005-----0
 62
     7
370
    25
100
AcDbLine
 10
402.635472
 20
264.042543
 30
0.0
 11
404.635474
 21
266.042545
 31
0.0
  0
LINE
  5
120
330
D5
100
AcDbEntity
  8
LC-005-005-----0
 62
     7
370
    25
100
AcDbLine
 10
352.834262
 20
217.06976
 30
0.0
 11
355.334259
 21
219.569757
 31
0.0
  0
LINE
  5
121
330
D5
100
AcDbEntity
  8
LC-005-005-----0
 62
     7
370
    25
100
AcDbLine
 10
402.635475
 20
266.870973
 30
0.0
 11
404.635478
 21
268.870976
 31
0.0
  0
LINE
  5
122
330
D5
100
AcDbEntity
  8
LC-005-005-----0
 62
     7
370
    25
100
AcDbLine
 10
350.005839
 20
217.069764
 30
0.0
 11
352.505835
 21
219.569761
 31
0.0
  0
LINE
  5
123
330
D5
100
AcDbEntity
  8
LC-005-005-----0
 62
     7
370
    25
100
AcDbLine
 10
402.635479
 20
269.699404
 30
0.0
 11
404.635481
 21
271.699406
 31
0.0
  0
LINE
  5
124
330
D5
100
AcDbEntity
  8
LC-005-005-----0
 62
     7
370
    25
100
AcDbLine
 10
347.177415
 20
217.069768
 30
0.0
 11
349.677412
 21
219.569764
 31
0.0
  0
LINE
  5
125
330
D5
100
AcDbEntity
  8
LC-005-005-----0
 62
     7
370
    25
100
AcDbLine
 10
402.635482
 20
272.527834
 30
0.0
 11
404.635484
 21
274.527836
 31
0.0
  0
LINE
  5
126
330
D5
100
AcDbEntity
  8
LC-005-005-----0
 62
     7
370
    25
100
AcDbLine
 10
344.348992
 20
217.069771
 30
0.0
 11
346.848989
 21
219.569768
 31
0.0
  0
LINE
  5
127
330
D5
100
AcDbEntity
  8
LC-005-005-----0
 62
     7
370
    25
100
AcDbLine
 10
402.635485
 20
275.356265
 30
0.0
 11
404.635487
 21
277.356267
 31
0.0
  0
LINE
  5
128
330
D5
100
AcDbEntity
  8
LC-005-005-----0
 62
     7
370
    25
100
AcDbLine
 10
341.520569
 20
217.069775
 30
0.0
 11
344.020565
 21
219.569772
 31
0.0
  0
LINE
  5
129
330
D5
100
AcDbEntity
  8
LC-005-005-----0
 62
     7
370
    25
100
AcDbLine
 10
402.635488
 20
278.184695
 30
0.0
 11
404.635491
 21
280.184697
 31
0.0
  0
LINE
  5
12A
330
D5
100
AcDbEntity
  8
LC-005-005-----0
 62
     7
370
    25
100
AcDbLine
 10
338.692145
 20
217.069779
 30
0.0
 11
341.192142
 21
219.569776
 31
0.0
  0
LINE
  5
12B
330
D5
100
AcDbEntity
  8
LC-005-005-----0
 62
     7
370
    25
100
AcDbLine
 10
402.635492
 20
281.013125
 30
0.0
 11
404.635494
 21
283.013128
 31
0.0
  0
LINE
  5
12C
330
D5
100
AcDbEntity
  8
LC-005-005-----0
 62
     7
370
    25
100
AcDbLine
 10
335.863722
 20
217.069783
 30
0.0
 11
338.363719
 21
219.569779
 31
0.0
  0
LINE
  5
12D
330
D5
100
AcDbEntity
  8
LC-005-005-----0
 62
     7
370
    25
100
AcDbLine
 10
402.635495
 20
283.841556
 30
0.0
 11
404.635497
 21
285.841558
 31
0.0
  0
LINE
  5
12E
330
D5
100
AcDbEntity
  8
LC-005-005-----0
 62
     7
370
    25
100
AcDbLine
 10
333.035299
 20
217.069786
 30
0.0
 11
335.535295
 21
219.569783
 31
0.0
  0
LINE
  5
12F
330
D5
100
AcDbEntity
  8
LC-005-005-----0
 62
     7
370
    25
100
AcDbLine
 10
402.635498
 20
286.669986
 30
0.0
 11
404.6355
 21
288.669988
 31
0.0
  0
LINE
  5
130
330
D5
100
AcDbEntity
  8
LC-005-005-----0
 62
     7
370
    25
100
AcDbLine
 10
330.206875
 20
217.06979
 30
0.0
 11
332.706872
 21
219.569787
 31
0.0
  0
LINE
  5
131
330
D5
100
AcDbEntity
  8
LC-005-005-----0
 62
     7
370
    25
100
AcDbLine
 10
402.635501
 20
289.498416
 30
0.0
 11
404.635504
 21
291.498419
 31
0.0
  0
LINE
  5
132
330
D5
100
AcDbEntity
  8
LC-005-005-----0
 62
     7
370
    25
100
AcDbLine
 10
327.378452
 20
217.069794
 30
0.0
 11
329.878448
 21
219.569791
 31
0.0
  0
LINE
  5
133
330
D5
100
AcDbEntity
  8
LC-005-005-----0
 62
     7
370
    25
100
AcDbLine
 10
402.635505
 20
292.326847
 30
0.0
 11
404.635507
 21
294.326849
 31
0.0
  0
LINE
  5
134
330
D5
100
AcDbEntity
  8
LC-005-005-----0
 62
     7
370
    25
100
AcDbLine
 10
324.550028
 20
217.069798
 30
0.0
 11
327.050025
 21
219.569794
 31
0.0
  0
LINE
  5
135
330
D5
100
AcDbEntity
  8
LC-005-005-----0
 62
     7
370
    25
100
AcDbLine
 10
402.635508
 20
295.155277
 30
0.0
 11
404.549922
 21
297.069692
 31
0.0
  0
LINE
  5
136
330
D5
100
AcDbEntity
  8
LC-005-005-----0
 62
     7
370
    25
100
AcDbLine
 10
321.721605
 20
217.069801
 30
0.0
 11
324.221602
 21
219.569798
 31
0.0
  0
LINE
  5
137
330
D5
100
AcDbEntity
  8
LC-005-005-----0
 62
     7
370
    25
100
AcDbLine
 10
318.893182
 20
217.069805
 30
0.0
 11
321.393178
 21
219.569802
 31
0.0
  0
LINE
  5
138
330
D5
100
AcDbEntity
  8
LC-005-005-----0
 62
     7
370
    25
100
AcDbLine
 10
316.064758
 20
217.069809
 30
0.0
 11
318.564755
 21
219.569806
 31
0.0
  0
LINE
  5
139
330
D5
100
AcDbEntity
  8
LC-005-005-----0
 62
     7
370
    25
100
AcDbLine
 10
313.236335
 20
217.069813
 30
0.0
 11
315.736332
 21
219.569809
 31
0.0
  0
LINE
  5
13A
330
D5
100
AcDbEntity
  8
LC-005-005-----0
 62
     7
370
    25
100
AcDbLine
 10
310.420367
 20
217.082272
 30
0.0
 11
312.907908
 21
219.569813
 31
0.0
  0
LINE
  5
13B
330
D5
100
AcDbEntity
  8
LC-005-005-----0
 62
     7
370
    25
100
AcDbLine
 10
307.84969
 20
217.340022
 30
0.0
 11
310.109064
 21
219.599396
 31
0.0
  0
LINE
  5
13C
330
D5
100
AcDbEntity
  8
LC-005-005-----0
 62
     7
370
    25
100
AcDbLine
 10
305.545444
 20
217.864203
 30
0.0
 11
307.608287
 21
219.927046
 31
0.0
  0
LINE
  5
13D
330
D5
100
AcDbEntity
  8
LC-005-005-----0
 62
     7
370
    25
100
AcDbLine
 10
303.45309
 20
218.600276
 30
0.0
 11
305.389583
 21
220.536769
 31
0.0
  0
LINE
  5
13E
330
D5
100
AcDbEntity
  8
LC-005-005-----0
 62
     7
370
    25
100
AcDbLine
 10
301.540822
 20
219.516435
 30
0.0
 11
303.394699
 21
221.370312
 31
0.0
  0
LINE
  5
13F
330
D5
100
AcDbEntity
  8
LC-005-005-----0
 62
     7
370
    25
100
AcDbLine
 10
299.789278
 20
220.593319
 30
0.0
 11
301.591381
 21
222.395421
 31
0.0
  0
LINE
  5
140
330
D5
100
AcDbEntity
  8
LC-005-005-----0
 62
     7
370
    25
100
AcDbLine
 10
298.186914
 20
221.819382
 30
0.0
 11
299.961465
 21
223.593933
 31
0.0
  0
LINE
  5
141
330
D5
100
AcDbEntity
  8
LC-005-005-----0
 62
     7
370
    25
100
AcDbLine
 10
296.727774
 20
223.188669
 30
0.0
 11
298.495879
 21
224.956773
 31
0.0
  0
LINE
  5
142
330
D5
100
AcDbEntity
  8
LC-005-005-----0
 62
     7
370
    25
100
AcDbLine
 10
295.410482
 20
224.699804
 30
0.0
 11
297.192556
 21
226.481877
 31
0.0
  0
LINE
  5
143
330
D5
100
AcDbEntity
  8
LC-005-005-----0
 62
     7
370
    25
100
AcDbLine
 10
294.238026
 20
226.355775
 30
0.0
 11
296.056
 21
228.173749
 31
0.0
  0
LINE
  5
144
330
D5
100
AcDbEntity
  8
LC-005-005-----0
 62
     7
370
    25
100
AcDbLine
 10
293.218241
 20
228.164417
 30
0.0
 11
295.098256
 21
230.044432
 31
0.0
  0
LINE
  5
145
330
D5
100
AcDbEntity
  8
LC-005-005-----0
 62
     7
370
    25
100
AcDbLine
 10
292.365181
 20
230.139784
 30
0.0
 11
294.341831
 21
232.116434
 31
0.0
  0
LINE
  5
146
330
D5
100
AcDbEntity
  8
LC-005-005-----0
 62
     7
370
    25
100
AcDbLine
 10
291.702032
 20
232.305062
 30
0.0
 11
293.826492
 21
234.429522
 31
0.0
  0
LINE
  5
147
330
D5
100
AcDbEntity
  8
LC-005-005-----0
 62
     7
370
    25
100
AcDbLine
 10
291.267224
 20
234.698681
 30
0.0
 11
293.626174
 21
237.057631
 31
0.0
  0
LINE
  5
148
330
D5
100
AcDbEntity
  8
LC-005-005-----0
 62
     7
370
    25
100
AcDbLine
 10
291.126156
 20
237.386041
 30
0.0
 11
293.62617
 21
239.886054
 31
0.0
  0
LINE
  5
149
330
D5
100
AcDbEntity
  8
LC-005-005-----0
 62
     7
370
    25
100
AcDbLine
 10
291.12616
 20
240.214472
 30
0.0
 11
293.62617
 21
242.714481
 31
0.0
  0
LINE
  5
14A
330
D5
100
AcDbEntity
  8
LC-005-005-----0
 62
     7
370
    25
100
AcDbLine
 10
291.126164
 20
243.042902
 30
0.0
 11
293.62617
 21
245.542908
 31
0.0
  0
LINE
  5
14B
330
D5
100
AcDbEntity
  8
LC-005-005-----0
 62
     7
370
    25
100
AcDbLine
 10
291.126167
 20
245.871333
 30
0.0
 11
293.62617
 21
248.371336
 31
0.0
  0
LINE
  5
14C
330
D5
100
AcDbEntity
  8
LC-005-005-----0
 62
     7
370
    25
100
AcDbLine
 10
291.126171
 20
248.699764
 30
0.0
 11
293.62617
 21
251.199763
 31
0.0
  0
LINE
  5
14D
330
D5
100
AcDbEntity
  8
LC-005-005-----0
 62
     7
370
    25
100
AcDbLine
 10
291.126175
 20
251.528195
 30
0.0
 11
293.62617
 21
254.02819
 31
0.0
  0
LINE
  5
14E
330
D5
100
AcDbEntity
  8
LC-005-005-----0
 62
     7
370
    25
100
AcDbLine
 10
291.126179
 20
254.356626
 30
0.0
 11
293.62617
 21
256.856617
 31
0.0
  0
LINE
  5
14F
330
D5
100
AcDbEntity
  8
LC-005-005-----0
 62
     7
370
    25
100
AcDbLine
 10
291.126182
 20
257.185057
 30
0.0
 11
293.62617
 21
259.685044
 31
0.0
  0
LINE
  5
150
330
D5
100
AcDbEntity
  8
LC-005-005-----0
 62
     7
370
    25
100
AcDbLine
 10
291.126186
 20
260.013488
 30
0.0
 11
293.62617
 21
262.513471
 31
0.0
  0
LINE
  5
151
330
D5
100
AcDbEntity
  8
LC-005-005-----0
 62
     7
370
    25
100
AcDbLine
 10
291.12619
 20
262.841919
 30
0.0
 11
293.62617
 21
265.341898
 31
0.0
  0
LINE
  5
152
330
D5
100
AcDbEntity
  8
LC-005-005-----0
 62
     7
370
    25
100
AcDbLine
 10
291.126194
 20
265.670349
 30
0.0
 11
293.62617
 21
268.170325
 31
0.0
  0
LINE
  5
153
330
D5
100
AcDbEntity
  8
LC-005-005-----0
 62
     7
370
    25
100
AcDbLine
 10
291.126197
 20
268.49878
 30
0.0
 11
293.62617
 21
270.998753
 31
0.0
  0
LINE
  5
154
330
D5
100
AcDbEntity
  8
LC-005-005-----0
 62
     7
370
    25
100
AcDbLine
 10
291.126201
 20
271.327211
 30
0.0
 11
293.62617
 21
273.82718
 31
0.0
  0
LINE
  5
155
330
D5
100
AcDbEntity
  8
LC-005-005-----0
 62
     7
370
    25
100
AcDbLine
 10
291.126205
 20
274.155642
 30
0.0
 11
293.62617
 21
276.655607
 31
0.0
  0
LINE
  5
156
330
D5
100
AcDbEntity
  8
LC-005-005-----0
 62
     7
370
    25
100
AcDbLine
 10
291.126209
 20
276.984073
 30
0.0
 11
293.62617
 21
279.484034
 31
0.0
  0
LINE
  5
157
330
D5
100
AcDbEntity
  8
LC-005-005-----0
 62
     7
370
    25
100
AcDbLine
 10
291.126212
 20
279.812504
 30
0.0
 11
293.62617
 21
282.312461
 31
0.0
  0
LINE
  5
158
330
D5
100
AcDbEntity
  8
LC-005-005-----0
 62
     7
370
    25
100
AcDbLine
 10
291.126216
 20
282.640935
 30
0.0
 11
293.62617
 21
285.140888
 31
0.0
  0
LINE
  5
159
330
D5
100
AcDbEntity
  8
LC-005-005-----0
 62
     7
370
    25
100
AcDbLine
 10
291.12622
 20
285.469366
 30
0.0
 11
293.62617
 21
287.969315
 31
0.0
  0
LINE
  5
15A
330
D5
100
AcDbEntity
  8
LC-005-005-----0
 62
     7
370
    25
100
AcDbLine
 10
291.126224
 20
288.297796
 30
0.0
 11
293.62617
 21
290.797742
 31
0.0
  0
LINE
  5
15B
330
D5
100
AcDbEntity
  8
LC-005-005-----0
 62
     7
370
    25
100
AcDbLine
 10
291.126227
 20
291.126227
 30
0.0
 11
293.62617
 21
293.62617
 31
0.0
  0
LINE
  5
15C
330
D5
100
AcDbEntity
  8
LC-005-005-----0
 62
     7
370
    25
100
AcDbLine
 10
291.126231
 20
293.954658
 30
0.0
 11
293.62617
 21
296.454597
 31
0.0
  0
LINE
  5
15D
330
D5
100
AcDbEntity
  8
LC-005-005-----0
 62
     7
370
    25
100
AcDbLine
 10
291.126235
 20
296.783089
 30
0.0
 11
293.62617
 21
299.283024
 31
0.0
  0
LINE
  5
15E
330
D5
100
AcDbEntity
  8
LC-005-005-----0
 62
     7
370
    25
100
AcDbLine
 10
291.126239
 20
299.61152
 30
0.0
 11
293.62617
 21
302.111451
 31
0.0
  0
LINE
  5
15F
330
D5
100
AcDbEntity
  8
LC-005-005-----0
 62
     7
370
    25
100
AcDbLine
 10
291.126242
 20
302.439951
 30
0.0
 11
293.62617
 21
304.939878
 31
0.0
  0
LINE
  5
160
330
D5
100
AcDbEntity
  8
LC-005-005-----0
 62
     7
370
    25
100
AcDbLine
 10
291.126246
 20
305.268382
 30
0.0
 11
293.62617
 21
307.768305
 31
0.0
  0
LINE
  5
161
330
D5
100
AcDbEntity
  8
LC-005-005-----0
 62
     7
370
    25
100
AcDbLine
 10
291.12625
 20
308.096813
 30
0.0
 11
293.62617
 21
310.596732
 31
0.0
  0
LINE
  5
162
330
D5
100
AcDbEntity
  8
LC-005-005-----0
 62
     7
370
    25
100
AcDbLine
 10
291.126254
 20
310.925243
 30
0.0
 11
293.62617
 21
313.425159
 31
0.0
  0
LINE
  5
163
330
D5
100
AcDbEntity
  8
LC-005-005-----0
 62
     7
370
    25
100
AcDbLine
 10
291.126257
 20
313.753674
 30
0.0
 11
293.62617
 21
316.253587
 31
0.0
  0
LINE
  5
164
330
D5
100
AcDbEntity
  8
LC-005-005-----0
 62
     7
370
    25
100
AcDbLine
 10
291.126261
 20
316.582105
 30
0.0
 11
293.62617
 21
319.082014
 31
0.0
  0
LINE
  5
165
330
D5
100
AcDbEntity
  8
LC-005-005-----0
 62
     7
370
    25
100
AcDbLine
 10
291.126265
 20
319.410536
 30
0.0
 11
293.62617
 21
321.910441
 31
0.0
  0
LINE
  5
166
330
D5
100
AcDbEntity
  8
LC-005-005-----0
 62
     7
370
    25
100
AcDbLine
 10
291.126269
 20
322.238967
 30
0.0
 11
293.62617
 21
324.738868
 31
0.0
  0
LINE
  5
167
330
D5
100
AcDbEntity
  8
LC-005-005-----0
 62
     7
370
    25
100
AcDbLine
 10
290.175072
 20
324.116198
 30
0.0
 11
292.675082
 21
326.616208
 31
0.0
  0
LINE
  5
168
330
D5
100
AcDbEntity
  8
LC-005-005-----0
 62
     7
370
    25
100
AcDbLine
 10
290.126275
 20
326.895827
 30
0.0
 11
292.626295
 21
329.395848
 31
0.0
  0
LINE
  5
169
330
D5
100
AcDbEntity
  8
LC-005-005-----0
 62
     7
370
    25
100
AcDbLine
 10
290.126279
 20
329.724258
 30
0.0
 11
292.626284
 21
332.224263
 31
0.0
  0
LINE
  5
16A
330
D5
100
AcDbEntity
  8
LC-005-005-----0
 62
     7
370
    25
100
AcDbLine
 10
290.126282
 20
332.552689
 30
0.0
 11
292.412079
 21
334.838486
 31
0.0
  0
LINE
  5
16B
330
D5
100
AcDbEntity
  8
LC-005-005-----0
 62
     7
370
    25
100
AcDbLine
 10
287.31216
 20
332.566994
 30
0.0
 11
290.311166
 21
335.566
 31
0.0
  0
LINE
  5
16C
330
D5
100
AcDbEntity
  8
LC-005-005-----0
 62
     7
370
    25
100
AcDbLine
 10
284.483733
 20
332.566994
 30
0.0
 11
287.499584
 21
335.582845
 31
0.0
  0
LINE
  5
16D
330
D5
100
AcDbEntity
  8
LC-005-005-----0
 62
     7
370
    25
100
AcDbLine
 10
281.699297
 20
332.610985
 30
0.0
 11
285.904661
 21
336.816349
 31
0.0
  0
LINE
  5
16E
330
D5
100
AcDbEntity
  8
LC-005-005-----0
 62
     7
370
    25
100
AcDbLine
 10
279.905951
 20
333.646067
 30
0.0
 11
285.759054
 21
339.499169
 31
0.0
  0
LINE
  5
16F
330
D5
100
AcDbEntity
  8
LC-005-005-----0
 62
     7
370
    25
100
AcDbLine
 10
278.934277
 20
335.50282
 30
0.0
 11
286.386987
 21
342.95553
 31
0.0
  0
LINE
  5
170
330
D5
100
AcDbEntity
  8
LC-005-005-----0
 62
     7
370
    25
100
AcDbLine
 10
278.035501
 20
337.432471
 30
0.0
 11
284.869392
 21
344.266362
 31
0.0
  0
LINE
  5
171
330
D5
100
AcDbEntity
  8
LC-005-005-----0
 62
     7
370
    25
100
AcDbLine
 10
277.136726
 20
339.362122
 30
0.0
 11
282.040965
 21
344.266362
 31
0.0
  0
LINE
  5
172
330
D5
100
AcDbEntity
  8
LC-005-005-----0
 62
     7
370
    25
100
AcDbLine
 10
276.23795
 20
341.291774
 30
0.0
 11
279.319196
 21
344.37302
 31
0.0
  0
LINE
  5
173
330
D5
100
AcDbEntity
  8
LC-005-005-----0
 62
     7
370
    25
100
AcDbLine
 10
275.339174
 20
343.221425
 30
0.0
 11
277.482958
 21
345.365209
 31
0.0
  0
LINE
  5
174
330
D5
100
AcDbEntity
  8
LC-005-005-----0
 62
     7
370
    25
100
AcDbLine
 10
274.440398
 20
345.151076
 30
0.0
 11
276.405633
 21
347.116311
 31
0.0
  0
LINE
  5
175
330
D5
100
AcDbEntity
  8
LC-005-005-----0
 62
     7
370
    25
100
AcDbLine
 10
273.921536
 20
347.460641
 30
0.0
 11
276.23674
 21
349.775845
 31
0.0
  0
LINE
  5
176
330
D5
100
AcDbEntity
  8
LC-005-005-----0
 62
     7
370
    25
100
AcDbLine
 10
273.921514
 20
350.289047
 30
0.0
 11
276.23674
 21
352.604273
 31
0.0
  0
LINE
  5
177
330
D5
100
AcDbEntity
  8
LC-005-005-----0
 62
     7
370
    25
100
AcDbLine
 10
273.44649
 20
352.642449
 30
0.0
 11
276.23674
 21
355.4327
 31
0.0
  0
LINE
  5
178
330
D5
100
AcDbEntity
  8
LC-005-005-----0
 62
     7
370
    25
100
AcDbLine
 10
271.521442
 20
353.545829
 30
0.0
 11
274.082126
 21
356.106513
 31
0.0
  0
LINE
  5
179
330
D5
100
AcDbEntity
  8
LC-005-005-----0
 62
     7
370
    25
100
AcDbLine
 10
274.518797
 20
356.543184
 30
0.0
 11
276.23674
 21
358.261127
 31
0.0
  0
LINE
  5
17A
330
D5
100
AcDbEntity
  8
LC-005-005-----0
 62
     7
370
    25
100
AcDbLine
 10
269.863391
 20
354.716205
 30
0.0
 11
271.689976
 21
356.54279
 31
0.0
  0
LINE
  5
17B
330
D5
100
AcDbEntity
  8
LC-005-005-----0
 62
     7
370
    25
100
AcDbLine
 10
274.518797
 20
359.371611
 30
0.0
 11
276.23674
 21
361.089554
 31
0.0
  0
LINE
  5
17C
330
D5
100
AcDbEntity
  8
LC-005-005-----0
 62
     7
370
    25
100
AcDbLine
 10
268.975211
 20
356.656452
 30
0.0
 11
271.377415
 21
359.058656
 31
0.0
  0
LINE
  5
17D
330
D5
100
AcDbEntity
  8
LC-005-005-----0
 62
     7
370
    25
100
AcDbLine
 10
268.924708
 20
359.434376
 30
0.0
 11
271.377415
 21
361.887083
 31
0.0
  0
LINE
  5
17E
330
D5
100
AcDbEntity
  8
LC-005-005-----0
 62
     7
370
    25
100
AcDbLine
 10
268.570553
 20
361.908648
 30
0.0
 11
271.377415
 21
364.71551
 31
0.0
  0
LINE
  5
17F
330
D5
100
AcDbEntity
  8
LC-005-005-----0
 62
     7
370
    25
100
AcDbLine
 10
266.107849
 20
362.274371
 30
0.0
 11
268.924491
 21
365.091013
 31
0.0
  0
LINE
  5
180
330
D5
100
AcDbEntity
  8
LC-005-005-----0
 62
     7
370
    25
100
AcDbLine
 10
263.464278
 20
362.459227
 30
0.0
 11
266.287679
 21
365.282628
 31
0.0
  0
LINE
  5
181
330
D5
100
AcDbEntity
  8
LC-005-005-----0
 62
     7
370
    25
100
AcDbLine
 10
260.820707
 20
362.644084
 30
0.0
 11
263.650867
 21
365.474244
 31
0.0
  0
LINE
  5
182
330
D5
100
AcDbEntity
  8
LC-005-005-----0
 62
     7
370
    25
100
AcDbLine
 10
258.177136
 20
362.82894
 30
0.0
 11
261.014055
 21
365.665859
 31
0.0
  0
LINE
  5
183
330
D5
100
AcDbEntity
  8
LC-005-005-----0
 62
     7
370
    25
100
AcDbLine
 10
255.533566
 20
363.013796
 30
0.0
 11
258.463341
 21
365.943572
 31
0.0
  0
LINE
  5
184
330
D5
100
AcDbEntity
  8
LC-005-005-----0
 62
     7
370
    25
100
AcDbLine
 10
252.889995
 20
363.198653
 30
0.0
 11
256.235838
 21
366.544496
 31
0.0
  0
LINE
  5
185
330
D5
100
AcDbEntity
  8
LC-005-005-----0
 62
     7
370
    25
100
AcDbLine
 10
250.680595
 20
363.81768
 30
0.0
 11
254.18075
 21
367.317835
 31
0.0
  0
LINE
  5
186
330
D5
100
AcDbEntity
  8
LC-005-005-----0
 62
     7
370
    25
100
AcDbLine
 10
248.593265
 20
364.558777
 30
0.0
 11
252.277135
 21
368.242647
 31
0.0
  0
LINE
  5
187
330
D5
100
AcDbEntity
  8
LC-005-005-----0
 62
     7
370
    25
100
AcDbLine
 10
246.505935
 20
365.299874
 30
0.0
 11
249.672174
 21
368.466113
 31
0.0
  0
LINE
  5
188
330
D5
100
AcDbEntity
  8
LC-005-005-----0
 62
     7
370
    25
100
AcDbLine
 10
244.221289
 20
365.843655
 30
0.0
 11
247.029399
 21
368.651766
 31
0.0
  0
LINE
  5
189
330
D5
100
AcDbEntity
  8
LC-005-005-----0
 62
     7
370
    25
100
AcDbLine
 10
241.578514
 20
366.029308
 30
0.0
 11
244.386624
 21
368.837418
 31
0.0
  0
LINE
  5
18A
330
D5
100
AcDbEntity
  8
LC-005-005-----0
 62
     7
370
    25
100
AcDbLine
 10
238.935739
 20
366.21496
 30
0.0
 11
241.74385
 21
369.02307
 31
0.0
  0
LINE
  5
18B
330
D5
100
AcDbEntity
  8
LC-005-005-----0
 62
     7
370
    25
100
AcDbLine
 10
236.292964
 20
366.400612
 30
0.0
 11
239.101075
 21
369.208723
 31
0.0
  0
LINE
  5
18C
330
D5
100
AcDbEntity
  8
LC-005-005-----0
 62
     7
370
    25
100
AcDbLine
 10
233.65019
 20
366.586265
 30
0.0
 11
236.4583
 21
369.394375
 31
0.0
  0
LINE
  5
18D
330
D5
100
AcDbEntity
  8
LC-005-005-----0
 62
     7
370
    25
100
AcDbLine
 10
231.007415
 20
366.771917
 30
0.0
 11
233.815525
 21
369.580027
 31
0.0
  0
LINE
  5
18E
330
D5
100
AcDbEntity
  8
LC-005-005-----0
 62
     7
370
    25
100
AcDbLine
 10
228.36464
 20
366.957569
 30
0.0
 11
231.17275
 21
369.765679
 31
0.0
  0
LINE
  5
18F
330
D5
100
AcDbEntity
  8
LC-005-005-----0
 62
     7
370
    25
100
AcDbLine
 10
225.721865
 20
367.143221
 30
0.0
 11
228.529976
 21
369.951332
 31
0.0
  0
LINE
  5
190
330
D5
100
AcDbEntity
  8
LC-005-005-----0
 62
     7
370
    25
100
AcDbLine
 10
223.07909
 20
367.328874
 30
0.0
 11
225.887201
 21
370.136984
 31
0.0
  0
LINE
  5
191
330
D5
100
AcDbEntity
  8
LC-005-005-----0
 62
     7
370
    25
100
AcDbLine
 10
220.436316
 20
367.514526
 30
0.0
 11
223.244426
 21
370.322636
 31
0.0
  0
LINE
  5
192
330
D5
100
AcDbEntity
  8
LC-005-005-----0
 62
     7
370
    25
100
AcDbLine
 10
217.793541
 20
367.700178
 30
0.0
 11
220.601651
 21
370.508289
 31
0.0
  0
LINE
  5
193
330
D5
100
AcDbEntity
  8
LC-005-005-----0
 62
     7
370
    25
100
AcDbLine
 10
215.150766
 20
367.885831
 30
0.0
 11
217.958876
 21
370.693941
 31
0.0
  0
LINE
  5
194
330
D5
100
AcDbEntity
  8
LC-005-005-----0
 62
     7
370
    25
100
AcDbLine
 10
212.611314
 20
368.174805
 30
0.0
 11
215.316101
 21
370.879593
 31
0.0
  0
ENDBLK
  5
D7
330
D5
100
AcDbEntity
  8
0
100
AcDbBlockEnd
  0
BLOCK
  5
1CE
330
1CD
100
AcDbEntity
  8
0
100
AcDbBlockBegin
  2
*X33
 70
     1
 71
     0
 10
0.0
 20
0.0
 30
0.0
  3
*X33
  1

  4
*X3
  0
LINE
  5
1D0
330
1CD
100
AcDbEntity
  8
LC-005-005-----0
 62
     7
370
    25
100
AcDbLine
 10
429.332647
 20
328.922981
 30
0.0
 11
431.621025
 21
331.211356
 31
0.0
  0
LINE
  5
1D1
330
1CD
100
AcDbEntity
  8
LC-005-005-----0
 62
     7
370
    25
100
AcDbLine
 10
428.153475
 20
329.158023
 30
0.0
 11
431.385985
 21
332.390529
 31
0.0
  0
LINE
  5
1D2
330
1CD
100
AcDbEntity
  8
LC-005-005-----0
 62
     7
370
    25
100
AcDbLine
 10
427.355172
 20
329.773934
 30
0.0
 11
430.770075
 21
333.188833
 31
0.0
  0
LINE
  5
1D3
330
1CD
100
AcDbEntity
  8
LC-005-005-----0
 62
     7
370
    25
100
AcDbLine
 10
426.866054
 20
330.699029
 30
0.0
 11
429.84498
 21
333.677952
 31
0.0
  0
LINE
  5
1D4
330
1CD
100
AcDbEntity
  8
LC-005-005-----0
 62
     7
370
    25
100
AcDbLine
 10
426.926186
 20
332.173373
 30
0.0
 11
428.370636
 21
333.617822
 31
0.0
  0
ENDBLK
  5
1CF
330
1CD
100
AcDbEntity
  8
0
100
AcDbBlockEnd
  0
BLOCK
  5
1D8
330
1D7
100
AcDbEntity
  8
0
100
AcDbBlockBegin
  2
*X44
 70
     1
 71
     0
 10
0.0
 20
0.0
 30
0.0
  3
*X44
  1

  4
*X4
  0
LINE
  5
1DA
330
1D7
100
AcDbEntity
  8
LC-005-005-----0
 62
     7
370
    25
100
AcDbLine
 10
296.419571
 20
328.946068
 30
0.0
 11
298.456124
 21
330.982619
 31
0.0
  0
LINE
  5
1DB
330
1D7
100
AcDbEntity
  8
LC-005-005-----0
 62
     7
370
    25
100
AcDbLine
 10
295.154302
 20
329.095013
 30
0.0
 11
298.307181
 21
332.247888
 31
0.0
  0
LINE
  5
1DC
330
1D7
100
AcDbEntity
  8
LC-005-005-----0
 62
     7
370
    25
100
AcDbLine
 10
294.310907
 20
329.665833
 30
0.0
 11
297.736363
 21
333.091283
 31
0.0
  0
LINE
  5
1DD
330
1D7
100
AcDbEntity
  8
LC-005-005-----0
 62
     7
370
    25
100
AcDbLine
 10
293.77325
 20
330.542389
 30
0.0
 11
296.859807
 21
333.628942
 31
0.0
  0
LINE
  5
1DE
330
1D7
100
AcDbEntity
  8
LC-005-005-----0
 62
     7
370
    25
100
AcDbLine
 10
293.69839
 20
331.881741
 30
0.0
 11
295.520455
 21
333.703804
 31
0.0
  0
ENDBLK
  5
1D9
330
1D7
100
AcDbEntity
  8
0
100
AcDbBlockEnd
  0
BLOCK
  5
1E1
330
1E0
100
AcDbEntity
  8
0
100
AcDbBlockBegin
  2
*X55
 70
     1
 71
     0
 10
0.0
 20
0.0
 30
0.0
  3
*X55
  1

  4
*X5
  0
LINE
  5
1E3
330
1E0
100
AcDbEntity
  8
LC-005-005-----0
 62
     7
370
    25
100
AcDbLine
 10
316.635096
 20
237.439136
 30
0.0
 11
318.135098
 21
238.939138
 31
0.0
  0
LINE
  5
1E4
330
1E0
100
AcDbEntity
  8
LC-005-005-----0
 62
     7
370
    25
100
AcDbLine
 10
316.635099
 20
240.267567
 30
0.0
 11
318.135101
 21
241.767568
 31
0.0
  0
LINE
  5
1E5
330
1E0
100
AcDbEntity
  8
LC-005-005-----0
 62
     7
370
    25
100
AcDbLine
 10
316.635102
 20
243.095997
 30
0.0
 11
318.135104
 21
244.595999
 31
0.0
  0
LINE
  5
1E6
330
1E0
100
AcDbEntity
  8
LC-005-005-----0
 62
     7
370
    25
100
AcDbLine
 10
316.635106
 20
245.924427
 30
0.0
 11
318.135107
 21
247.424429
 31
0.0
  0
LINE
  5
1E7
330
1E0
100
AcDbEntity
  8
LC-005-005-----0
 62
     7
370
    25
100
AcDbLine
 10
316.635109
 20
248.752858
 30
0.0
 11
318.135111
 21
250.25286
 31
0.0
  0
LINE
  5
1E8
330
1E0
100
AcDbEntity
  8
LC-005-005-----0
 62
     7
370
    25
100
AcDbLine
 10
316.635112
 20
251.581288
 30
0.0
 11
318.135114
 21
253.08129
 31
0.0
  0
LINE
  5
1E9
330
1E0
100
AcDbEntity
  8
LC-005-005-----0
 62
     7
370
    25
100
AcDbLine
 10
316.635115
 20
254.409719
 30
0.0
 11
318.135117
 21
255.90972
 31
0.0
  0
LINE
  5
1EA
330
1E0
100
AcDbEntity
  8
LC-005-005-----0
 62
     7
370
    25
100
AcDbLine
 10
316.635119
 20
257.238149
 30
0.0
 11
318.13512
 21
258.738151
 31
0.0
  0
LINE
  5
1EB
330
1E0
100
AcDbEntity
  8
LC-005-005-----0
 62
     7
370
    25
100
AcDbLine
 10
316.635122
 20
260.066579
 30
0.0
 11
318.135124
 21
261.566581
 31
0.0
  0
LINE
  5
1EC
330
1E0
100
AcDbEntity
  8
LC-005-005-----0
 62
     7
370
    25
100
AcDbLine
 10
316.635125
 20
262.89501
 30
0.0
 11
318.135127
 21
264.395012
 31
0.0
  0
LINE
  5
1ED
330
1E0
100
AcDbEntity
  8
LC-005-005-----0
 62
     7
370
    25
100
AcDbLine
 10
316.635128
 20
265.72344
 30
0.0
 11
318.13513
 21
267.223442
 31
0.0
  0
LINE
  5
1EE
330
1E0
100
AcDbEntity
  8
LC-005-005-----0
 62
     7
370
    25
100
AcDbLine
 10
316.635132
 20
268.55187
 30
0.0
 11
318.135133
 21
270.051872
 31
0.0
  0
LINE
  5
1EF
330
1E0
100
AcDbEntity
  8
LC-005-005-----0
 62
     7
370
    25
100
AcDbLine
 10
316.635135
 20
271.380301
 30
0.0
 11
318.135137
 21
272.880303
 31
0.0
  0
LINE
  5
1F0
330
1E0
100
AcDbEntity
  8
LC-005-005-----0
 62
     7
370
    25
100
AcDbLine
 10
316.635138
 20
274.208731
 30
0.0
 11
318.13514
 21
275.708733
 31
0.0
  0
LINE
  5
1F1
330
1E0
100
AcDbEntity
  8
LC-005-005-----0
 62
     7
370
    25
100
AcDbLine
 10
316.635141
 20
277.037162
 30
0.0
 11
318.135143
 21
278.537163
 31
0.0
  0
LINE
  5
1F2
330
1E0
100
AcDbEntity
  8
LC-005-005-----0
 62
     7
370
    25
100
AcDbLine
 10
316.635145
 20
279.865592
 30
0.0
 11
318.135146
 21
281.365594
 31
0.0
  0
LINE
  5
1F3
330
1E0
100
AcDbEntity
  8
LC-005-005-----0
 62
     7
370
    25
100
AcDbLine
 10
316.635148
 20
282.694022
 30
0.0
 11
318.13515
 21
284.194024
 31
0.0
  0
LINE
  5
1F4
330
1E0
100
AcDbEntity
  8
LC-005-005-----0
 62
     7
370
    25
100
AcDbLine
 10
316.635151
 20
285.522453
 30
0.0
 11
318.135153
 21
287.022455
 31
0.0
  0
LINE
  5
1F5
330
1E0
100
AcDbEntity
  8
LC-005-005-----0
 62
     7
370
    25
100
AcDbLine
 10
316.635154
 20
288.350883
 30
0.0
 11
318.135156
 21
289.850885
 31
0.0
  0
LINE
  5
1F6
330
1E0
100
AcDbEntity
  8
LC-005-005-----0
 62
     7
370
    25
100
AcDbLine
 10
316.635158
 20
291.179314
 30
0.0
 11
318.13516
 21
292.679315
 31
0.0
  0
LINE
  5
1F7
330
1E0
100
AcDbEntity
  8
LC-005-005-----0
 62
     7
370
    25
100
AcDbLine
 10
316.635161
 20
294.007744
 30
0.0
 11
318.135163
 21
295.507746
 31
0.0
  0
LINE
  5
1F8
330
1E0
100
AcDbEntity
  8
LC-005-005-----0
 62
     7
370
    25
100
AcDbLine
 10
316.635164
 20
296.836174
 30
0.0
 11
318.135166
 21
298.336176
 31
0.0
  0
LINE
  5
1F9
330
1E0
100
AcDbEntity
  8
LC-005-005-----0
 62
     7
370
    25
100
AcDbLine
 10
316.635167
 20
299.664605
 30
0.0
 11
318.135169
 21
301.164607
 31
0.0
  0
LINE
  5
1FA
330
1E0
100
AcDbEntity
  8
LC-005-005-----0
 62
     7
370
    25
100
AcDbLine
 10
316.635171
 20
302.493035
 30
0.0
 11
318.135173
 21
303.993037
 31
0.0
  0
LINE
  5
1FB
330
1E0
100
AcDbEntity
  8
LC-005-005-----0
 62
     7
370
    25
100
AcDbLine
 10
316.635174
 20
305.321465
 30
0.0
 11
318.135176
 21
306.821467
 31
0.0
  0
LINE
  5
1FC
330
1E0
100
AcDbEntity
  8
LC-005-005-----0
 62
     7
370
    25
100
AcDbLine
 10
316.635177
 20
308.149896
 30
0.0
 11
318.135179
 21
309.649898
 31
0.0
  0
LINE
  5
1FD
330
1E0
100
AcDbEntity
  8
LC-005-005-----0
 62
     7
370
    25
100
AcDbLine
 10
316.63518
 20
310.978326
 30
0.0
 11
318.135182
 21
312.478328
 31
0.0
  0
LINE
  5
1FE
330
1E0
100
AcDbEntity
  8
LC-005-005-----0
 62
     7
370
    25
100
AcDbLine
 10
316.635184
 20
313.806757
 30
0.0
 11
318.135186
 21
315.306759
 31
0.0
  0
LINE
  5
1FF
330
1E0
100
AcDbEntity
  8
LC-005-005-----0
 62
     7
370
    25
100
AcDbLine
 10
316.635187
 20
316.635187
 30
0.0
 11
318.135189
 21
318.135189
 31
0.0
  0
LINE
  5
200
330
1E0
100
AcDbEntity
  8
LC-005-005-----0
 62
     7
370
    25
100
AcDbLine
 10
316.63519
 20
319.463617
 30
0.0
 11
318.135192
 21
320.963619
 31
0.0
  0
LINE
  5
201
330
1E0
100
AcDbEntity
  8
LC-005-005-----0
 62
     7
370
    25
100
AcDbLine
 10
316.635193
 20
322.292048
 30
0.0
 11
318.135195
 21
323.79205
 31
0.0
  0
LINE
  5
202
330
1E0
100
AcDbEntity
  8
LC-005-005-----0
 62
     7
370
    25
100
AcDbLine
 10
316.635197
 20
325.120478
 30
0.0
 11
318.135199
 21
326.62048
 31
0.0
  0
LINE
  5
203
330
1E0
100
AcDbEntity
  8
LC-005-005-----0
 62
     7
370
    25
100
AcDbLine
 10
315.757613
 20
327.071321
 30
0.0
 11
317.253978
 21
328.567687
 31
0.0
  0
LINE
  5
204
330
1E0
100
AcDbEntity
  8
LC-005-005-----0
 62
     7
370
    25
100
AcDbLine
 10
312.92919
 20
327.071325
 30
0.0
 11
314.425555
 21
328.567691
 31
0.0
  0
LINE
  5
205
330
1E0
100
AcDbEntity
  8
LC-005-005-----0
 62
     7
370
    25
100
AcDbLine
 10
310.100766
 20
327.071329
 30
0.0
 11
311.597132
 21
328.567694
 31
0.0
  0
LINE
  5
206
330
1E0
100
AcDbEntity
  8
LC-005-005-----0
 62
     7
370
    25
100
AcDbLine
 10
307.272343
 20
327.071333
 30
0.0
 11
308.768708
 21
328.567698
 31
0.0
  0
LINE
  5
207
330
1E0
100
AcDbEntity
  8
LC-005-005-----0
 62
     7
370
    25
100
AcDbLine
 10
304.443919
 20
327.071336
 30
0.0
 11
305.940285
 21
328.567702
 31
0.0
  0
LINE
  5
208
330
1E0
100
AcDbEntity
  8
LC-005-005-----0
 62
     7
370
    25
100
AcDbLine
 10
301.615496
 20
327.07134
 30
0.0
 11
303.111861
 21
328.567706
 31
0.0
  0
LINE
  5
209
330
1E0
100
AcDbEntity
  8
LC-005-005-----0
 62
     7
370
    25
100
AcDbLine
 10
298.787073
 20
327.071344
 30
0.0
 11
300.283438
 21
328.567709
 31
0.0
  0
LINE
  5
20A
330
1E0
100
AcDbEntity
  8
LC-005-005-----0
 62
     7
370
    25
100
AcDbLine
 10
295.958649
 20
327.071348
 30
0.0
 11
297.458647
 21
328.571346
 31
0.0
  0
LINE
  5
20B
330
1E0
100
AcDbEntity
  8
LC-005-005-----0
 62
     7
370
    25
100
AcDbLine
 10
298.626366
 20
329.739064
 30
0.0
 11
300.126368
 21
331.239066
 31
0.0
  0
LINE
  5
20C
330
1E0
100
AcDbEntity
  8
LC-005-005-----0
 62
     7
370
    25
100
AcDbLine
 10
293.626363
 20
327.567488
 30
0.0
 11
294.630224
 21
328.571349
 31
0.0
  0
LINE
  5
20D
330
1E0
100
AcDbEntity
  8
LC-005-005-----0
 62
     7
370
    25
100
AcDbLine
 10
298.626369
 20
332.567495
 30
0.0
 11
300.126371
 21
334.067497
 31
0.0
  0
LINE
  5
20E
330
1E0
100
AcDbEntity
  8
LC-005-005-----0
 62
     7
370
    25
100
AcDbLine
 10
297.301793
 20
334.071346
 30
0.0
 11
298.801791
 21
335.571344
 31
0.0
  0
LINE
  5
20F
330
1E0
100
AcDbEntity
  8
LC-005-005-----0
 62
     7
370
    25
100
AcDbLine
 10
294.47337
 20
334.07135
 30
0.0
 11
295.973368
 21
335.571348
 31
0.0
  0
ENDBLK
  5
1E2
330
1E0
100
AcDbEntity
  8
0
100
AcDbBlockEnd
  0
BLOCK
  5
212
330
211
100
AcDbEntity
  8
0
100
AcDbBlockBegin
  2
*X66
 70
     1
 71
     0
 10
0.0
 20
0.0
 30
0.0
  3
*X66
  1

  4
*X6
  0
LINE
  5
214
330
211
100
AcDbEntity
  8
LC-005-005-----0
 62
     7
370
    25
100
AcDbLine
 10
365.38476
 20
238.10554
 30
0.0
 11
367.234852
 21
239.955632
 31
0.0
  0
LINE
  5
215
330
211
100
AcDbEntity
  8
LC-005-005-----0
 62
     7
370
    25
100
AcDbLine
 10
365.993235
 20
241.542441
 30
0.0
 11
367.843327
 21
243.392533
 31
0.0
  0
LINE
  5
216
330
211
100
AcDbEntity
  8
LC-005-005-----0
 62
     7
370
    25
100
AcDbLine
 10
366.60171
 20
244.979343
 30
0.0
 11
368.451802
 21
246.829435
 31
0.0
  0
LINE
  5
217
330
211
100
AcDbEntity
  8
LC-005-005-----0
 62
     7
370
    25
100
AcDbLine
 10
367.210184
 20
248.416245
 30
0.0
 11
369.060276
 21
250.266337
 31
0.0
  0
LINE
  5
218
330
211
100
AcDbEntity
  8
LC-005-005-----0
 62
     7
370
    25
100
AcDbLine
 10
367.818659
 20
251.853147
 30
0.0
 11
369.668751
 21
253.703239
 31
0.0
  0
LINE
  5
219
330
211
100
AcDbEntity
  8
LC-005-005-----0
 62
     7
370
    25
100
AcDbLine
 10
368.427134
 20
255.290049
 30
0.0
 11
370.277226
 21
257.140141
 31
0.0
  0
LINE
  5
21A
330
211
100
AcDbEntity
  8
LC-005-005-----0
 62
     7
370
    25
100
AcDbLine
 10
369.035608
 20
258.726951
 30
0.0
 11
370.885701
 21
260.577043
 31
0.0
  0
LINE
  5
21B
330
211
100
AcDbEntity
  8
LC-005-005-----0
 62
     7
370
    25
100
AcDbLine
 10
369.644083
 20
262.163852
 30
0.0
 11
371.494175
 21
264.013944
 31
0.0
  0
LINE
  5
21C
330
211
100
AcDbEntity
  8
LC-005-005-----0
 62
     7
370
    25
100
AcDbLine
 10
370.252558
 20
265.600754
 30
0.0
 11
372.10265
 21
267.450846
 31
0.0
  0
LINE
  5
21D
330
211
100
AcDbEntity
  8
LC-005-005-----0
 62
     7
370
    25
100
AcDbLine
 10
370.861033
 20
269.037656
 30
0.0
 11
372.711125
 21
270.887748
 31
0.0
  0
LINE
  5
21E
330
211
100
AcDbEntity
  8
LC-005-005-----0
 62
     7
370
    25
100
AcDbLine
 10
371.469507
 20
272.474558
 30
0.0
 11
373.319599
 21
274.32465
 31
0.0
  0
LINE
  5
21F
330
211
100
AcDbEntity
  8
LC-005-005-----0
 62
     7
370
    25
100
AcDbLine
 10
372.077982
 20
275.91146
 30
0.0
 11
373.928074
 21
277.761552
 31
0.0
  0
LINE
  5
220
330
211
100
AcDbEntity
  8
LC-005-005-----0
 62
     7
370
    25
100
AcDbLine
 10
372.686457
 20
279.348362
 30
0.0
 11
374.536549
 21
281.198454
 31
0.0
  0
LINE
  5
221
330
211
100
AcDbEntity
  8
LC-005-005-----0
 62
     7
370
    25
100
AcDbLine
 10
373.294932
 20
282.785264
 30
0.0
 11
375.145024
 21
284.635356
 31
0.0
  0
LINE
  5
222
330
211
100
AcDbEntity
  8
LC-005-005-----0
 62
     7
370
    25
100
AcDbLine
 10
373.903406
 20
286.222165
 30
0.0
 11
375.753498
 21
288.072257
 31
0.0
  0
LINE
  5
223
330
211
100
AcDbEntity
  8
LC-005-005-----0
 62
     7
370
    25
100
AcDbLine
 10
374.511881
 20
289.659067
 30
0.0
 11
376.361973
 21
291.509159
 31
0.0
  0
LINE
  5
224
330
211
100
AcDbEntity
  8
LC-005-005-----0
 62
     7
370
    25
100
AcDbLine
 10
375.120356
 20
293.095969
 30
0.0
 11
376.970448
 21
294.946061
 31
0.0
  0
LINE
  5
225
330
211
100
AcDbEntity
  8
LC-005-005-----0
 62
     7
370
    25
100
AcDbLine
 10
375.72883
 20
296.532871
 30
0.0
 11
377.578922
 21
298.382963
 31
0.0
  0
LINE
  5
226
330
211
100
AcDbEntity
  8
LC-005-005-----0
 62
     7
370
    25
100
AcDbLine
 10
376.337305
 20
299.969773
 30
0.0
 11
378.187397
 21
301.819865
 31
0.0
  0
LINE
  5
227
330
211
100
AcDbEntity
  8
LC-005-005-----0
 62
     7
370
    25
100
AcDbLine
 10
376.94578
 20
303.406675
 30
0.0
 11
378.795872
 21
305.256767
 31
0.0
  0
LINE
  5
228
330
211
100
AcDbEntity
  8
LC-005-005-----0
 62
     7
370
    25
100
AcDbLine
 10
377.554255
 20
306.843577
 30
0.0
 11
379.404347
 21
308.693669
 31
0.0
  0
LINE
  5
229
330
211
100
AcDbEntity
  8
LC-005-005-----0
 62
     7
370
    25
100
AcDbLine
 10
378.162729
 20
310.280478
 30
0.0
 11
380.012821
 21
312.13057
 31
0.0
  0
LINE
  5
22A
330
211
100
AcDbEntity
  8
LC-005-005-----0
 62
     7
370
    25
100
AcDbLine
 10
378.635643
 20
313.581819
 30
0.0
 11
380.103567
 21
315.049743
 31
0.0
  0
LINE
  5
22B
330
211
100
AcDbEntity
  8
LC-005-005-----0
 62
     7
370
    25
100
AcDbLine
 10
378.635647
 20
316.41025
 30
0.0
 11
380.103571
 21
317.878174
 31
0.0
  0
LINE
  5
22C
330
211
100
AcDbEntity
  8
LC-005-005-----0
 62
     7
370
    25
100
AcDbLine
 10
378.63565
 20
319.238681
 30
0.0
 11
380.103574
 21
320.706605
 31
0.0
  0
LINE
  5
22D
330
211
100
AcDbEntity
  8
LC-005-005-----0
 62
     7
370
    25
100
AcDbLine
 10
378.635654
 20
322.067112
 30
0.0
 11
380.103578
 21
323.535036
 31
0.0
  0
LINE
  5
22E
330
211
100
AcDbEntity
  8
LC-005-005-----0
 62
     7
370
    25
100
AcDbLine
 10
383.636141
 20
327.067599
 30
0.0
 11
384.135661
 21
327.567119
 31
0.0
  0
LINE
  5
22F
330
211
100
AcDbEntity
  8
LC-005-005-----0
 62
     7
370
    25
100
AcDbLine
 10
378.635658
 20
324.895542
 30
0.0
 11
382.307716
 21
328.5676
 31
0.0
  0
ENDBLK
  5
213
330
211
100
AcDbEntity
  8
0
100
AcDbBlockEnd
  0
BLOCK
  5
234
330
233
100
AcDbEntity
  8
0
100
AcDbBlockBegin
  2
*X77
 70
     1
 71
     0
 10
0.0
 20
0.0
 30
0.0
  3
*X77
  1

  4
*X7
  0
LINE
  5
236
330
233
100
AcDbEntity
  8
LC-005-005-----0
 62
     7
370
    25
100
AcDbLine
 10
400.143652
 20
326.604547
 30
0.0
 11
401.635662
 21
328.096557
 31
0.0
  0
LINE
  5
237
330
233
100
AcDbEntity
  8
LC-005-005-----0
 62
     7
370
    25
100
AcDbLine
 10
397.555806
 20
326.845128
 30
0.0
 11
399.364027
 21
328.653349
 31
0.0
  0
LINE
  5
238
330
233
100
AcDbEntity
  8
LC-005-005-----0
 62
     7
370
    25
100
AcDbLine
 10
395.155139
 20
327.272888
 30
0.0
 11
396.834831
 21
328.95258
 31
0.0
  0
LINE
  5
239
330
233
100
AcDbEntity
  8
LC-005-005-----0
 62
     7
370
    25
100
AcDbLine
 10
392.912131
 20
327.858307
 30
0.0
 11
394.482891
 21
329.429067
 31
0.0
  0
LINE
  5
23A
330
233
100
AcDbEntity
  8
LC-005-005-----0
 62
     7
370
    25
100
AcDbLine
 10
385.792993
 20
323.567596
 30
0.0
 11
386.635657
 21
324.41026
 31
0.0
  0
LINE
  5
23B
330
233
100
AcDbEntity
  8
LC-005-005-----0
 62
     7
370
    25
100
AcDbLine
 10
390.806638
 20
328.581242
 30
0.0
 11
392.281934
 21
330.056537
 31
0.0
  0
LINE
  5
23C
330
233
100
AcDbEntity
  8
LC-005-005-----0
 62
     7
370
    25
100
AcDbLine
 10
384.135658
 20
324.738688
 30
0.0
 11
386.635661
 21
327.238691
 31
0.0
  0
LINE
  5
23D
330
233
100
AcDbEntity
  8
LC-005-005-----0
 62
     7
370
    25
100
AcDbLine
 10
388.824423
 20
329.427454
 30
0.0
 11
390.213817
 21
330.816848
 31
0.0
  0
LINE
  5
23E
330
233
100
AcDbEntity
  8
LC-005-005-----0
 62
     7
370
    25
100
AcDbLine
 10
384.135661
 20
327.567119
 30
0.0
 11
386.635665
 21
330.067122
 31
0.0
  0
LINE
  5
23F
330
233
100
AcDbEntity
  8
LC-005-005-----0
 62
     7
370
    25
100
AcDbLine
 10
386.955233
 20
330.386691
 30
0.0
 11
388.265624
 21
331.697082
 31
0.0
  0
LINE
  5
240
330
233
100
AcDbEntity
  8
LC-005-005-----0
 62
     7
370
    25
100
AcDbLine
 10
383.807714
 20
330.067598
 30
0.0
 11
386.307711
 21
332.567595
 31
0.0
  0
LINE
  5
241
330
233
100
AcDbEntity
  8
LC-005-005-----0
 62
     7
370
    25
100
AcDbLine
 10
380.97929
 20
330.067602
 30
0.0
 11
383.479287
 21
332.567599
 31
0.0
  0
LINE
  5
242
330
233
100
AcDbEntity
  8
LC-005-005-----0
 62
     7
370
    25
100
AcDbLine
 10
380.135667
 20
332.052406
 30
0.0
 11
380.650864
 21
332.567603
 31
0.0
  0
ENDBLK
  5
235
330
233
100
AcDbEntity
  8
0
100
AcDbBlockEnd
  0
BLOCK
  5
245
330
244
100
AcDbEntity
  8
0
100
AcDbBlockBegin
  2
*X88
 70
     1
 71
     0
 10
0.0
 20
0.0
 30
0.0
  3
*X88
  1

  4
*X8
  0
LINE
  5
247
330
244
100
AcDbEntity
  8
LC-005-005-----0
 62
     7
370
    25
100
AcDbLine
 10
416.90565
 20
323.567555
 30
0.0
 11
419.135659
 21
325.797564
 31
0.0
  0
LINE
  5
248
330
244
100
AcDbEntity
  8
LC-005-005-----0
 62
     7
370
    25
100
AcDbLine
 10
416.635659
 20
326.125991
 30
0.0
 11
419.135663
 21
328.625995
 31
0.0
  0
LINE
  5
249
330
244
100
AcDbEntity
  8
LC-005-005-----0
 62
     7
370
    25
100
AcDbLine
 10
420.577218
 20
330.06755
 30
0.0
 11
423.077214
 21
332.567546
 31
0.0
  0
LINE
  5
24A
330
244
100
AcDbEntity
  8
LC-005-005-----0
 62
     7
370
    25
100
AcDbLine
 10
416.635663
 20
328.954422
 30
0.0
 11
420.248791
 21
332.56755
 31
0.0
  0
LINE
  5
24B
330
244
100
AcDbEntity
  8
LC-005-005-----0
 62
     7
370
    25
100
AcDbLine
 10
414.136552
 20
329.283738
 30
0.0
 11
417.420368
 21
332.567554
 31
0.0
  0
LINE
  5
24C
330
244
100
AcDbEntity
  8
LC-005-005-----0
 62
     7
370
    25
100
AcDbLine
 10
409.688108
 20
327.663721
 30
0.0
 11
412.695671
 21
330.671284
 31
0.0
  0
LINE
  5
24D
330
244
100
AcDbEntity
  8
LC-005-005-----0
 62
     7
370
    25
100
AcDbLine
 10
406.095482
 20
326.899522
 30
0.0
 11
408.573246
 21
329.377287
 31
0.0
  0
LINE
  5
24E
330
244
100
AcDbEntity
  8
LC-005-005-----0
 62
     7
370
    25
100
AcDbLine
 10
402.964424
 20
326.596892
 30
0.0
 11
405.13957
 21
328.772038
 31
0.0
  0
LINE
  5
24F
330
244
100
AcDbEntity
  8
LC-005-005-----0
 62
     7
370
    25
100
AcDbLine
 10
401.635662
 20
328.096557
 30
0.0
 11
402.110421
 21
328.571315
 31
0.0
  0
ENDBLK
  5
246
330
244
100
AcDbEntity
  8
0
100
AcDbBlockEnd
  0
BLOCK
  5
252
330
251
100
AcDbEntity
  8
0
100
AcDbBlockBegin
  2
*X99
 70
     1
 71
     0
 10
0.0
 20
0.0
 30
0.0
  3
*X99
  1

  4
*X9
  0
LINE
  5
254
330
251
100
AcDbEntity
  8
LC-005-005-----0
 62
     7
370
    25
100
AcDbLine
 10
384.00477
 20
328.567598
 30
0.0
 11
384.135663
 21
328.698491
 31
0.0
  0
LINE
  5
255
330
251
100
AcDbEntity
  8
LC-005-005-----0
 62
     7
370
    25
100
AcDbLine
 10
383.439085
 20
328.567599
 30
0.0
 11
384.135664
 21
329.264177
 31
0.0
  0
LINE
  5
256
330
251
100
AcDbEntity
  8
LC-005-005-----0
 62
     7
370
    25
100
AcDbLine
 10
382.8734
 20
328.5676
 30
0.0
 11
384.135664
 21
329.829864
 31
0.0
  0
LINE
  5
257
330
251
100
AcDbEntity
  8
LC-005-005-----0
 62
     7
370
    25
100
AcDbLine
 10
382.307716
 20
328.5676
 30
0.0
 11
383.807714
 21
330.067598
 31
0.0
  0
LINE
  5
258
330
251
100
AcDbEntity
  8
LC-005-005-----0
 62
     7
370
    25
100
AcDbLine
 10
381.742031
 20
328.567601
 30
0.0
 11
383.242029
 21
330.067599
 31
0.0
  0
LINE
  5
259
330
251
100
AcDbEntity
  8
LC-005-005-----0
 62
     7
370
    25
100
AcDbLine
 10
381.176346
 20
328.567602
 30
0.0
 11
382.676344
 21
330.0676
 31
0.0
  0
LINE
  5
25A
330
251
100
AcDbEntity
  8
LC-005-005-----0
 62
     7
370
    25
100
AcDbLine
 10
380.610662
 20
328.567603
 30
0.0
 11
382.11066
 21
330.067601
 31
0.0
  0
LINE
  5
25B
330
251
100
AcDbEntity
  8
LC-005-005-----0
 62
     7
370
    25
100
AcDbLine
 10
380.135663
 20
328.658289
 30
0.0
 11
381.544975
 21
330.067601
 31
0.0
  0
LINE
  5
25C
330
251
100
AcDbEntity
  8
LC-005-005-----0
 62
     7
370
    25
100
AcDbLine
 10
380.135664
 20
329.223975
 30
0.0
 11
380.97929
 21
330.067602
 31
0.0
  0
LINE
  5
25D
330
251
100
AcDbEntity
  8
LC-005-005-----0
 62
     7
370
    25
100
AcDbLine
 10
380.135664
 20
329.789661
 30
0.0
 11
380.413606
 21
330.067603
 31
0.0
  0
ENDBLK
  5
253
330
251
100
AcDbEntity
  8
0
100
AcDbBlockEnd
  0
BLOCK
  5
260
330
25F
100
AcDbEntity
  8
0
100
AcDbBlockBegin
  2
*X1010
 70
     1
 71
     0
 10
0.0
 20
0.0
 30
0.0
  3
*X1010
  1

  4
*X10
  0
LINE
  5
262
330
25F
100
AcDbEntity
  8
LC-005-005-----0
 62
     7
370
    25
100
AcDbLine
 10
423.037012
 20
328.567546
 30
0.0
 11
423.135663
 21
328.666197
 31
0.0
  0
LINE
  5
263
330
25F
100
AcDbEntity
  8
LC-005-005-----0
 62
     7
370
    25
100
AcDbLine
 10
422.471328
 20
328.567547
 30
0.0
 11
423.135664
 21
329.231883
 31
0.0
  0
LINE
  5
264
330
25F
100
AcDbEntity
  8
LC-005-005-----0
 62
     7
370
    25
100
AcDbLine
 10
421.905643
 20
328.567548
 30
0.0
 11
423.135664
 21
329.797569
 31
0.0
  0
LINE
  5
265
330
25F
100
AcDbEntity
  8
LC-005-005-----0
 62
     7
370
    25
100
AcDbLine
 10
421.339958
 20
328.567549
 30
0.0
 11
422.839956
 21
330.067547
 31
0.0
  0
LINE
  5
266
330
25F
100
AcDbEntity
  8
LC-005-005-----0
 62
     7
370
    25
100
AcDbLine
 10
420.774274
 20
328.567549
 30
0.0
 11
422.274272
 21
330.067547
 31
0.0
  0
LINE
  5
267
330
25F
100
AcDbEntity
  8
LC-005-005-----0
 62
     7
370
    25
100
AcDbLine
 10
420.208589
 20
328.56755
 30
0.0
 11
421.708587
 21
330.067548
 31
0.0
  0
LINE
  5
268
330
25F
100
AcDbEntity
  8
LC-005-005-----0
 62
     7
370
    25
100
AcDbLine
 10
419.642904
 20
328.567551
 30
0.0
 11
421.142902
 21
330.067549
 31
0.0
  0
LINE
  5
269
330
25F
100
AcDbEntity
  8
LC-005-005-----0
 62
     7
370
    25
100
AcDbLine
 10
419.135663
 20
328.625995
 30
0.0
 11
420.577218
 21
330.06755
 31
0.0
  0
LINE
  5
26A
330
25F
100
AcDbEntity
  8
LC-005-005-----0
 62
     7
370
    25
100
AcDbLine
 10
419.135664
 20
329.191681
 30
0.0
 11
420.011533
 21
330.06755
 31
0.0
  0
LINE
  5
26B
330
25F
100
AcDbEntity
  8
LC-005-005-----0
 62
     7
370
    25
100
AcDbLine
 10
419.135664
 20
329.757367
 30
0.0
 11
419.445848
 21
330.067551
 31
0.0
  0
ENDBLK
  5
261
330
25F
100
AcDbEntity
  8
0
100
AcDbBlockEnd
  0
BLOCK
  5
26E
330
26D
100
AcDbEntity
  8
0
100
AcDbBlockBegin
  2
*X1111
 70
     1
 71
     0
 10
0.0
 20
0.0
 30
0.0
  3
*X1111
  1

  4
*X11
  0
LINE
  5
270
330
26D
100
AcDbEntity
  8
LC-005-005-----0
 62
     7
370
    25
100
AcDbLine
 10
428.890915
 20
327.067539
 30
0.0
 11
430.390913
 21
328.567537
 31
0.0
  0
LINE
  5
271
330
26D
100
AcDbEntity
  8
LC-005-005-----0
 62
     7
370
    25
100
AcDbLine
 10
426.062492
 20
327.067542
 30
0.0
 11
427.56249
 21
328.56754
 31
0.0
  0
LINE
  5
272
330
26D
100
AcDbEntity
  8
LC-005-005-----0
 62
     7
370
    25
100
AcDbLine
 10
423.234068
 20
327.067546
 30
0.0
 11
424.734066
 21
328.567544
 31
0.0
  0
LINE
  5
273
330
26D
100
AcDbEntity
  8
LC-005-005-----0
 62
     7
370
    25
100
AcDbLine
 10
425.135663
 20
328.969141
 30
0.0
 11
426.635665
 21
330.469143
 31
0.0
  0
LINE
  5
274
330
26D
100
AcDbEntity
  8
LC-005-005-----0
 62
     7
370
    25
100
AcDbLine
 10
430.234059
 20
334.067537
 30
0.0
 11
431.635672
 21
335.46915
 31
0.0
  0
LINE
  5
275
330
26D
100
AcDbEntity
  8
LC-005-005-----0
 62
     7
370
    25
100
AcDbLine
 10
420.405645
 20
327.06755
 30
0.0
 11
421.905643
 21
328.567548
 31
0.0
  0
LINE
  5
276
330
26D
100
AcDbEntity
  8
LC-005-005-----0
 62
     7
370
    25
100
AcDbLine
 10
425.135667
 20
331.797572
 30
0.0
 11
426.635669
 21
333.297574
 31
0.0
  0
LINE
  5
277
330
26D
100
AcDbEntity
  8
LC-005-005-----0
 62
     7
370
    25
100
AcDbLine
 10
427.405636
 20
334.067541
 30
0.0
 11
428.905634
 21
335.567539
 31
0.0
  0
LINE
  5
278
330
26D
100
AcDbEntity
  8
LC-005-005-----0
 62
     7
370
    25
100
AcDbLine
 10
425.135671
 20
334.626003
 30
0.0
 11
426.07721
 21
335.567542
 31
0.0
  0
ENDBLK
  5
26F
330
26D
100
AcDbEntity
  8
0
100
AcDbBlockEnd
  0
BLOCK
  5
289
330
27F
100
AcDbEntity
  8
0
100
AcDbBlockBegin
  2
*D12
 70
     1
 71
     0
 10
0.0
 20
0.0
 30
0.0
  3
*D12
  1

  0
LINE
  5
280
330
27F
100
AcDbEntity
  8
LC-007-003-----0
 62
     2
370
    -2
100
AcDbLine
 10
212.821402
 20
371.054843
 30
0.0
 11
212.817778
 21
446.716984
 31
0.0
  0
LINE
  5
281
330
27F
100
AcDbEntity
  8
LC-007-003-----0
 62
     2
370
    -2
100
AcDbLine
 10
512.650636
 20
371.069204
 30
0.0
 11
512.647012
 21
446.731345
 31
0.0
  0
LINE
  5
282
330
27F
100
AcDbEntity
  8
LC-007-003-----0
 62
     2
370
    -2
100
AcDbLine
 10
240.81795
 20
443.118325
 30
0.0
 11
484.647185
 21
443.130003
 31
0.0
  0
SOLID
  5
283
330
27F
100
AcDbEntity
  8
LC-007-003-----0
 62
     2
100
AcDbTrace
 10
240.817727
 20
447.784992
 30
0.0
 11
240.818174
 21
438.451659
 31
0.0
 12
212.81795
 22
443.116984
 32
0.0
 13
212.81795
 23
443.116984
 33
0.0
  0
SOLID
  5
284
330
27F
100
AcDbEntity
  8
LC-007-003-----0
 62
     2
100
AcDbTrace
 10
484.647408
 20
438.463337
 30
0.0
 11
484.646961
 21
447.79667
 31
0.0
 12
512.647184
 22
443.131345
 32
0.0
 13
512.647184
 23
443.131345
 33
0.0
  0
MTEXT
  5
285
330
27F
100
AcDbEntity
  8
LC-007-003-----0
 62
     2
100
AcDbMText
 10
359.300419
 20
473.924
 30
0.0
 40
28.0
 41
0.0
 71
     5
 72
     1
  1
\A1;%%c300
  7
LCTX15-400-0-0pDIN-Schrift
 11
0.9999999988530246
 21
4.789520643785563E-5
 31
0.0
 73
     1
 44
1.0
  0
POINT
  5
286
330
27F
100
AcDbEntity
  8
Defpoints
 62
     0
100
AcDbPoint
 10
212.821402
 20
371.054843
 30
0.0
  0
POINT
  5
287
330
27F
100
AcDbEntity
  8
Defpoints
 62
     0
100
AcDbPoint
 10
512.650636
 20
371.069204
 30
0.0
  0
POINT
  5
288
330
27F
100
AcDbEntity
  8
Defpoints
 62
     0
100
AcDbPoint
 10
512.647184
 20
443.131345
 30
0.0
  0
ENDBLK
  5
28A
330
27F
100
AcDbEntity
  8
0
100
AcDbBlockEnd
  0
BLOCK
  5
296
330
28C
100
AcDbEntity
  8
0
100
AcDbBlockBegin
  2
*D13
 70
     1
 71
     0
 10
0.0
 20
0.0
 30
0.0
  3
*D13
  1

  0
LINE
  5
28D
330
28C
100
AcDbEntity
  8
LC-007-003-----0
 62
     2
370
    -2
100
AcDbLine
 10
212.611314
 20
368.064225
 30
0.0
 11
192.4
 21
368.064225
 31
0.0
  0
LINE
  5
28E
330
28C
100
AcDbEntity
  8
LC-007-003-----0
 62
     2
370
    -2
100
AcDbLine
 10
311.126143
 20
217.069814
 30
0.0
 11
192.4
 21
217.069814
 31
0.0
  0
LINE
  5
28F
330
28C
100
AcDbEntity
  8
LC-007-003-----0
 62
     2
370
    -2
100
AcDbLine
 10
196.0
 20
340.064225
 30
0.0
 11
196.0
 21
245.069814
 31
0.0
  0
SOLID
  5
290
330
28C
100
AcDbEntity
  8
LC-007-003-----0
 62
     2
100
AcDbTrace
 10
200.666667
 20
340.064225
 30
0.0
 11
191.333333
 21
340.064225
 31
0.0
 12
196.0
 22
368.064225
 32
0.0
 13
196.0
 23
368.064225
 33
0.0
  0
SOLID
  5
291
330
28C
100
AcDbEntity
  8
LC-007-003-----0
 62
     2
100
AcDbTrace
 10
191.333333
 20
245.069814
 30
0.0
 11
200.666667
 21
245.069814
 31
0.0
 12
196.0
 22
217.069814
 32
0.0
 13
196.0
 23
217.069814
 33
0.0
  0
MTEXT
  5
292
330
28C
100
AcDbEntity
  8
LC-007-003-----0
 62
     2
100
AcDbMText
 10
165.2
 20
292.567019
 30
0.0
 40
28.0
 41
0.0
 71
     5
 72
     1
  1
\A1;150
  7
LCTX15-400-0-0pDIN-Schrift
 11
6.123031769111886E-17
 21
1.0
 31
0.0
 73
     1
 44
1.0
  0
POINT
  5
293
330
28C
100
AcDbEntity
  8
Defpoints
 62
     0
100
AcDbPoint
 10
212.611314
 20
368.064225
 30
0.0
  0
POINT
  5
294
330
28C
100
AcDbEntity
  8
Defpoints
 62
     0
100
AcDbPoint
 10
311.126143
 20
217.069814
 30
0.0
  0
POINT
  5
295
330
28C
100
AcDbEntity
  8
Defpoints
 62
     0
100
AcDbPoint
 10
196.0
 20
217.069814
 30
0.0
  0
ENDBLK
  5
297
330
28C
100
AcDbEntity
  8
0
100
AcDbBlockEnd
  0
BLOCK
  5
2A3
330
299
100
AcDbEntity
  8
0
100
AcDbBlockBegin
  2
*D14
 70
     1
 71
     0
 10
0.0
 20
0.0
 30
0.0
  3
*D14
  1

  0
LINE
  5
29A
330
299
100
AcDbEntity
  8
LC-007-003-----0
 62
     2
370
    -2
100
AcDbLine
 10
512.650628
 20
368.063827
 30
0.0
 11
585.461616
 21
368.063827
 31
0.0
  0
LINE
  5
29B
330
299
100
AcDbEntity
  8
LC-007-003-----0
 62
     2
370
    -2
100
AcDbLine
 10
500.631059
 20
289.116633
 30
0.0
 11
585.461616
 21
289.116633
 31
0.0
  0
LINE
  5
29C
330
299
100
AcDbEntity
  8
LC-007-003-----0
 62
     2
370
    -2
100
AcDbLine
 10
581.861616
 20
340.063827
 30
0.0
 11
581.861616
 21
317.116633
 31
0.0
  0
SOLID
  5
29D
330
299
100
AcDbEntity
  8
LC-007-003-----0
 62
     2
100
AcDbTrace
 10
586.528283
 20
340.063827
 30
0.0
 11
577.194949
 21
340.063827
 31
0.0
 12
581.861616
 22
368.063827
 32
0.0
 13
581.861616
 23
368.063827
 33
0.0
  0
SOLID
  5
29E
330
299
100
AcDbEntity
  8
LC-007-003-----0
 62
     2
100
AcDbTrace
 10
577.194949
 20
317.116633
 30
0.0
 11
586.528283
 21
317.116633
 31
0.0
 12
581.861616
 22
289.116633
 32
0.0
 13
581.861616
 23
289.116633
 33
0.0
  0
MTEXT
  5
29F
330
299
100
AcDbEntity
  8
LC-007-003-----0
 62
     2
100
AcDbMText
 10
551.061616
 20
323.136
 30
0.0
 40
28.0
 41
0.0
 71
     5
 72
     1
  1
\A1;80
  7
LCTX15-400-0-0pDIN-Schrift
 11
6.123031769111886E-17
 21
1.0
 31
0.0
 73
     1
 44
1.0
  0
POINT
  5
2A0
330
299
100
AcDbEntity
  8
Defpoints
 62
     0
100
AcDbPoint
 10
512.650628
 20
368.063827
 30
0.0
  0
POINT
  5
2A1
330
299
100
AcDbEntity
  8
Defpoints
 62
     0
100
AcDbPoint
 10
500.631059
 20
289.116633
 30
0.0
  0
POINT
  5
2A2
330
299
100
AcDbEntity
  8
Defpoints
 62
     0
100
AcDbPoint
 10
581.861616
 20
289.116633
 30
0.0
  0
ENDBLK
  5
2A4
330
299
100
AcDbEntity
  8
0
100
AcDbBlockEnd
  0
BLOCK
  5
2B1
330
2A6
100
AcDbEntity
  8
0
100
AcDbBlockBegin
  2
*D15
 70
     1
 71
     0
 10
0.0
 20
0.0
 30
0.0
  3
*D15
  1

  0
LINE
  5
2A7
330
2A6
100
AcDbEntity
  8
LC-007-003-----0
 62
     2
370
    -2
100
AcDbLine
 10
395.63551
 20
297.069703
 30
0.0
 11
343.988224
 21
297.069703
 31
0.0
  0
LINE
  5
2A8
330
2A6
100
AcDbEntity
  8
LC-007-003-----0
 62
     2
370
    -2
100
AcDbLine
 10
371.744358
 20
236.567962
 30
0.0
 11
343.988224
 21
236.567962
 31
0.0
  0
LINE
  5
2A9
330
2A6
100
AcDbEntity
  8
LC-007-003-----0
 62
     2
370
    -2
100
AcDbLine
 10
347.588224
 20
325.069703
 30
0.0
 11
347.588224
 21
353.069703
 31
0.0
  0
LINE
  5
2AA
330
2A6
100
AcDbEntity
  8
LC-007-003-----0
 62
     2
370
    -2
100
AcDbLine
 10
347.588224
 20
208.567962
 30
0.0
 11
347.588224
 21
151.413808
 31
0.0
  0
SOLID
  5
2AB
330
2A6
100
AcDbEntity
  8
LC-007-003-----0
 62
     2
100
AcDbTrace
 10
342.921558
 20
325.069703
 30
0.0
 11
352.254891
 21
325.069703
 31
0.0
 12
347.588224
 22
297.069703
 32
0.0
 13
347.588224
 23
297.069703
 33
0.0
  0
SOLID
  5
2AC
330
2A6
100
AcDbEntity
  8
LC-007-003-----0
 62
     2
100
AcDbTrace
 10
352.254891
 20
208.567962
 30
0.0
 11
342.921558
 21
208.567962
 31
0.0
 12
347.588224
 22
236.567962
 32
0.0
 13
347.588224
 23
236.567962
 33
0.0
  0
MTEXT
  5
2AD
330
2A6
100
AcDbEntity
  8
LC-007-003-----0
 62
     2
100
AcDbMText
 10
316.788224
 20
173.448
 30
0.0
 40
28.0
 41
0.0
 71
     5
 72
     1
  1
\A1;60
  7
LCTX15-400-0-0pDIN-Schrift
 11
6.123031769111886E-17
 21
1.0
 31
0.0
 73
     1
 44
1.0
  0
POINT
  5
2AE
330
2A6
100
AcDbEntity
  8
Defpoints
 62
     0
100
AcDbPoint
 10
395.63551
 20
297.069703
 30
0.0
  0
POINT
  5
2AF
330
2A6
100
AcDbEntity
  8
Defpoints
 62
     0
100
AcDbPoint
 10
371.744358
 20
236.567962
 30
0.0
  0
POINT
  5
2B0
330
2A6
100
AcDbEntity
  8
Defpoints
 62
     0
100
AcDbPoint
 10
347.588224
 20
236.567962
 30
0.0
  0
ENDBLK
  5
2B2
330
2A6
100
AcDbEntity
  8
0
100
AcDbBlockEnd
  0
BLOCK
  5
2BE
330
2B4
100
AcDbEntity
  8
0
100
AcDbBlockBegin
  2
*D16
 70
     1
 71
     0
 10
0.0
 20
0.0
 30
0.0
  3
*D16
  1

  0
LINE
  5
2B5
330
2B4
100
AcDbEntity
  8
LC-007-003-----0
 62
     2
370
    -2
100
AcDbLine
 10
268.924717
 20
357.289787
 30
0.0
 11
268.924758
 21
395.599619
 31
0.0
  0
LINE
  5
2B6
330
2B4
100
AcDbEntity
  8
LC-007-003-----0
 62
     2
370
    -2
100
AcDbLine
 10
456.337196
 20
357.289539
 30
0.0
 11
456.337236
 21
395.599419
 31
0.0
  0
LINE
  5
2B7
330
2B4
100
AcDbEntity
  8
LC-007-003-----0
 62
     2
370
    -2
100
AcDbLine
 10
296.924754
 20
391.999589
 30
0.0
 11
428.337233
 21
391.999449
 31
0.0
  0
SOLID
  5
2B8
330
2B4
100
AcDbEntity
  8
LC-007-003-----0
 62
     2
100
AcDbTrace
 10
296.924759
 20
396.666256
 30
0.0
 11
296.924749
 21
387.332922
 31
0.0
 12
268.924754
 22
391.999619
 32
0.0
 13
268.924754
 23
391.999619
 33
0.0
  0
SOLID
  5
2B9
330
2B4
100
AcDbEntity
  8
LC-007-003-----0
 62
     2
100
AcDbTrace
 10
428.337228
 20
387.332782
 30
0.0
 11
428.337238
 21
396.666116
 31
0.0
 12
456.337233
 22
391.999419
 32
0.0
 13
456.337233
 23
391.999419
 33
0.0
  0
MTEXT
  5
2BA
330
2B4
100
AcDbEntity
  8
LC-007-003-----0
 62
     2
100
AcDbMText
 10
362.631035
 20
422.799519
 30
0.0
 40
28.0
 41
0.0
 71
     5
 72
     1
  1
\A1;%%c190
  7
LCTX15-400-0-0pDIN-Schrift
 11
0.9999999999994326
 21
-1.065264436018092E-6
 31
0.0
 73
     1
 44
1.0
  0
POINT
  5
2BB
330
2B4
100
AcDbEntity
  8
Defpoints
 62
     0
100
AcDbPoint
 10
268.924717
 20
357.289787
 30
0.0
  0
POINT
  5
2BC
330
2B4
100
AcDbEntity
  8
Defpoints
 62
     0
100
AcDbPoint
 10
456.337196
 20
357.289539
 30
0.0
  0
POINT
  5
2BD
330
2B4
100
AcDbEntity
  8
Defpoints
 62
     0
100
AcDbPoint
 10
456.337233
 20
391.999419
 30
0.0
  0
ENDBLK
  5
2BF
330
2B4
100
AcDbEntity
  8
0
100
AcDbBlockEnd
  0
BLOCK
  5
2CB
330
2C1
100
AcDbEntity
  8
0
100
AcDbBlockBegin
  2
*D17
 70
     1
 71
     0
 10
0.0
 20
0.0
 30
0.0
  3
*D17
  1

  0
LINE
  5
2C2
330
2C1
100
AcDbEntity
  8
LC-007-003-----0
 62
     2
370
    -2
100
AcDbLine
 10
497.631059
 20
251.617058
 30
0.0
 11
637.64069
 21
251.617058
 31
0.0
  0
LINE
  5
2C3
330
2C1
100
AcDbEntity
  8
LC-007-003-----0
 62
     2
370
    -2
100
AcDbLine
 10
567.591849
 20
326.616459
 30
0.0
 11
637.64069
 21
326.616459
 31
0.0
  0
LINE
  5
2C4
330
2C1
100
AcDbEntity
  8
LC-007-003-----0
 62
     2
370
    -2
100
AcDbLine
 10
634.04069
 20
279.617058
 30
0.0
 11
634.04069
 21
298.616459
 31
0.0
  0
SOLID
  5
2C5
330
2C1
100
AcDbEntity
  8
LC-007-003-----0
 62
     2
100
AcDbTrace
 10
629.374023
 20
279.617058
 30
0.0
 11
638.707356
 21
279.617058
 31
0.0
 12
634.04069
 22
251.617058
 32
0.0
 13
634.04069
 23
251.617058
 33
0.0
  0
SOLID
  5
2C6
330
2C1
100
AcDbEntity
  8
LC-007-003-----0
 62
     2
100
AcDbTrace
 10
638.707356
 20
298.616459
 30
0.0
 11
629.374023
 21
298.616459
 31
0.0
 12
634.04069
 22
326.616459
 32
0.0
 13
634.04069
 23
326.616459
 33
0.0
  0
MTEXT
  5
2C7
330
2C1
100
AcDbEntity
  8
LC-007-003-----0
 62
     2
100
AcDbMText
 10
603.24069
 20
286.308
 30
0.0
 40
28.0
 41
0.0
 71
     5
 72
     1
  1
\A1;DN70
  7
LCTX15-400-0-0pDIN-Schrift
 11
6.123031769111886E-17
 21
1.0
 31
0.0
 73
     1
 44
1.0
  0
POINT
  5
2C8
330
2C1
100
AcDbEntity
  8
Defpoints
 62
     0
100
AcDbPoint
 10
497.631059
 20
251.617058
 30
0.0
  0
POINT
  5
2C9
330
2C1
100
AcDbEntity
  8
Defpoints
 62
     0
100
AcDbPoint
 10
567.591849
 20
326.616459
 30
0.0
  0
POINT
  5
2CA
330
2C1
100
AcDbEntity
  8
Defpoints
 62
     0
100
AcDbPoint
 10
634.04069
 20
326.616459
 30
0.0
  0
ENDBLK
  5
2CC
330
2C1
100
AcDbEntity
  8
0
100
AcDbBlockEnd
  0
BLOCK
  5
2FC
330
2FB
100
AcDbEntity
  8
0
100
AcDbBlockBegin
  2
*X1218
 70
     1
 71
     0
 10
0.0
 20
0.0
 30
0.0
  3
*X1218
  1

  4
*X12
  0
LINE
  5
2FE
330
2FB
100
AcDbEntity
  8
LC-005-005-----0
 62
     7
370
    25
100
AcDbLine
 10
288.939578
 20
339.851266
 30
0.0
 11
289.639578
 21
340.551266
 31
0.0
  0
LINE
  5
2FF
330
2FB
100
AcDbEntity
  8
LC-005-005-----0
 62
     7
370
    25
100
AcDbLine
 10
286.246315
 20
339.986431
 30
0.0
 11
286.813079
 21
340.553195
 31
0.0
  0
LINE
  5
300
330
2FB
100
AcDbEntity
  8
LC-005-005-----0
 62
     7
370
    25
100
AcDbLine
 10
285.632545
 20
342.201087
 30
0.0
 11
286.018768
 21
342.58731
 31
0.0
  0
LINE
  5
301
330
2FB
100
AcDbEntity
  8
LC-005-005-----0
 62
     7
370
    25
100
AcDbLine
 10
287.168589
 20
343.737131
 30
0.0
 11
287.868589
 21
344.437131
 31
0.0
  0
LINE
  5
302
330
2FB
100
AcDbEntity
  8
LC-005-005-----0
 62
     7
370
    25
100
AcDbLine
 10
286.387516
 20
345.784486
 30
0.0
 11
287.039926
 21
346.436896
 31
0.0
  0
LINE
  5
303
330
2FB
100
AcDbEntity
  8
LC-005-005-----0
 62
     7
370
    25
100
AcDbLine
 10
284.473605
 20
346.699002
 30
0.0
 11
284.968893
 21
347.194289
 31
0.0
  0
LINE
  5
304
330
2FB
100
AcDbEntity
  8
LC-005-005-----0
 62
     7
370
    25
100
AcDbLine
 10
283.44945
 20
348.503274
 30
0.0
 11
284.071426
 21
349.12525
 31
0.0
  0
LINE
  5
305
330
2FB
100
AcDbEntity
  8
LC-005-005-----0
 62
     7
370
    25
100
AcDbLine
 10
283.368589
 20
351.25084
 30
0.0
 11
284.068589
 21
351.95084
 31
0.0
  0
LINE
  5
306
330
2FB
100
AcDbEntity
  8
LC-005-005-----0
 62
     7
370
    25
100
AcDbLine
 10
283.368589
 20
354.079267
 30
0.0
 11
284.068589
 21
354.779267
 31
0.0
  0
LINE
  5
307
330
2FB
100
AcDbEntity
  8
LC-005-005-----0
 62
     7
370
    25
100
AcDbLine
 10
283.368589
 20
356.907694
 30
0.0
 11
284.068589
 21
357.607694
 31
0.0
  0
LINE
  5
308
330
2FB
100
AcDbEntity
  8
LC-005-005-----0
 62
     7
370
    25
100
AcDbLine
 10
283.368589
 20
359.736121
 30
0.0
 11
284.068589
 21
360.436121
 31
0.0
  0
LINE
  5
309
330
2FB
100
AcDbEntity
  8
LC-005-005-----0
 62
     7
370
    25
100
AcDbLine
 10
283.368589
 20
362.564548
 30
0.0
 11
284.060894
 21
363.256854
 31
0.0
  0
LINE
  5
30A
330
2FB
100
AcDbEntity
  8
LC-005-005-----0
 62
     7
370
    25
100
AcDbLine
 10
283.010018
 20
365.034404
 30
0.0
 11
283.549551
 21
365.573938
 31
0.0
  0
LINE
  5
30B
330
2FB
100
AcDbEntity
  8
LC-005-005-----0
 62
     7
370
    25
100
AcDbLine
 10
282.003146
 20
366.85596
 30
0.0
 11
282.496308
 21
367.349122
 31
0.0
  0
LINE
  5
30C
330
2FB
100
AcDbEntity
  8
LC-005-005-----0
 62
     7
370
    25
100
AcDbLine
 10
280.525152
 20
368.206393
 30
0.0
 11
281.023314
 21
368.704554
 31
0.0
  0
LINE
  5
30D
330
2FB
100
AcDbEntity
  8
LC-005-005-----0
 62
     7
370
    25
100
AcDbLine
 10
278.552409
 20
369.062077
 30
0.0
 11
279.113662
 21
369.62333
 31
0.0
  0
LINE
  5
30E
330
2FB
100
AcDbEntity
  8
LC-005-005-----0
 62
     7
370
    25
100
AcDbLine
 10
275.991889
 20
369.329984
 30
0.0
 11
276.637848
 21
369.975943
 31
0.0
  0
LINE
  5
30F
330
2FB
100
AcDbEntity
  8
LC-005-005-----0
 62
     7
370
    25
100
AcDbLine
 10
273.348318
 20
369.514841
 30
0.0
 11
273.994278
 21
370.1608
 31
0.0
  0
LINE
  5
310
330
2FB
100
AcDbEntity
  8
LC-005-005-----0
 62
     7
370
    25
100
AcDbLine
 10
270.704748
 20
369.699697
 30
0.0
 11
271.350707
 21
370.345656
 31
0.0
  0
LINE
  5
311
330
2FB
100
AcDbEntity
  8
LC-005-005-----0
 62
     7
370
    25
100
AcDbLine
 10
268.061177
 20
369.884553
 30
0.0
 11
268.707136
 21
370.530513
 31
0.0
  0
LINE
  5
312
330
2FB
100
AcDbEntity
  8
LC-005-005-----0
 62
     7
370
    25
100
AcDbLine
 10
265.417606
 20
370.06941
 30
0.0
 11
266.063566
 21
370.715369
 31
0.0
  0
LINE
  5
313
330
2FB
100
AcDbEntity
  8
LC-005-005-----0
 62
     7
370
    25
100
AcDbLine
 10
262.774036
 20
370.254266
 30
0.0
 11
263.419995
 21
370.900226
 31
0.0
  0
LINE
  5
314
330
2FB
100
AcDbEntity
  8
LC-005-005-----0
 62
     7
370
    25
100
AcDbLine
 10
260.130465
 20
370.439123
 30
0.0
 11
260.139072
 21
370.44773
 31
0.0
  0
LINE
  5
315
330
2FB
100
AcDbEntity
  8
LC-005-005-----0
 62
     7
370
    25
100
AcDbLine
 10
257.770536
 20
370.907621
 30
0.0
 11
258.318886
 21
371.455971
 31
0.0
  0
LINE
  5
316
330
2FB
100
AcDbEntity
  8
LC-005-005-----0
 62
     7
370
    25
100
AcDbLine
 10
255.962535
 20
371.928047
 30
0.0
 11
256.461683
 21
372.427195
 31
0.0
  0
ENDBLK
  5
2FD
330
2FB
100
AcDbEntity
  8
0
100
AcDbBlockEnd
  0
BLOCK
  5
321
330
320
100
AcDbEntity
  8
0
100
AcDbBlockBegin
  2
*X1319
 70
     1
 71
     0
 10
0.0
 20
0.0
 30
0.0
  3
*X1319
  1

  4
*X13
  0
LINE
  5
323
330
320
100
AcDbEntity
  8
LC-005-005-----0
 62
     7
370
    25
100
AcDbLine
 10
122.725848
 20
371.06175
 30
0.0
 11
122.821376
 21
371.157277
 31
0.0
  0
LINE
  5
324
330
320
100
AcDbEntity
  8
LC-005-005-----0
 62
     7
370
    25
100
AcDbLine
 10
122.160163
 20
371.06175
 30
0.0
 11
122.821376
 21
371.722963
 31
0.0
  0
LINE
  5
325
330
320
100
AcDbEntity
  8
LC-005-005-----0
 62
     7
370
    25
100
AcDbLine
 10
121.594478
 20
371.06175
 30
0.0
 11
122.821376
 21
372.288648
 31
0.0
  0
LINE
  5
326
330
320
100
AcDbEntity
  8
LC-005-005-----0
 62
     7
370
    25
100
AcDbLine
 10
121.028792
 20
371.06175
 30
0.0
 11
122.821376
 21
372.854334
 31
0.0
  0
LINE
  5
327
330
320
100
AcDbEntity
  8
LC-005-005-----0
 62
     7
370
    25
100
AcDbLine
 10
120.463107
 20
371.06175
 30
0.0
 11
122.821376
 21
373.420019
 31
0.0
  0
LINE
  5
328
330
320
100
AcDbEntity
  8
LC-005-005-----0
 62
     7
370
    25
100
AcDbLine
 10
119.897421
 20
371.06175
 30
0.0
 11
122.821376
 21
373.985704
 31
0.0
  0
LINE
  5
329
330
320
100
AcDbEntity
  8
LC-005-005-----0
 62
     7
370
    25
100
AcDbLine
 10
119.331736
 20
371.06175
 30
0.0
 11
122.821376
 21
374.55139
 31
0.0
  0
LINE
  5
32A
330
320
100
AcDbEntity
  8
LC-005-005-----0
 62
     7
370
    25
100
AcDbLine
 10
118.76605
 20
371.06175
 30
0.0
 11
122.821376
 21
375.117075
 31
0.0
  0
LINE
  5
32B
330
320
100
AcDbEntity
  8
LC-005-005-----0
 62
     7
370
    25
100
AcDbLine
 10
118.200365
 20
371.06175
 30
0.0
 11
122.821376
 21
375.682761
 31
0.0
  0
LINE
  5
32C
330
320
100
AcDbEntity
  8
LC-005-005-----0
 62
     7
370
    25
100
AcDbLine
 10
117.63468
 20
371.06175
 30
0.0
 11
122.33468
 21
375.76175
 31
0.0
  0
LINE
  5
32D
330
320
100
AcDbEntity
  8
LC-005-005-----0
 62
     7
370
    25
100
AcDbLine
 10
117.068994
 20
371.06175
 30
0.0
 11
121.768994
 21
375.76175
 31
0.0
  0
LINE
  5
32E
330
320
100
AcDbEntity
  8
LC-005-005-----0
 62
     7
370
    25
100
AcDbLine
 10
116.503309
 20
371.06175
 30
0.0
 11
121.203309
 21
375.76175
 31
0.0
  0
LINE
  5
32F
330
320
100
AcDbEntity
  8
LC-005-005-----0
 62
     7
370
    25
100
AcDbLine
 10
115.937623
 20
371.06175
 30
0.0
 11
120.637623
 21
375.76175
 31
0.0
  0
LINE
  5
330
330
320
100
AcDbEntity
  8
LC-005-005-----0
 62
     7
370
    25
100
AcDbLine
 10
115.371938
 20
371.06175
 30
0.0
 11
120.071938
 21
375.76175
 31
0.0
  0
LINE
  5
331
330
320
100
AcDbEntity
  8
LC-005-005-----0
 62
     7
370
    25
100
AcDbLine
 10
114.806252
 20
371.06175
 30
0.0
 11
119.506252
 21
375.76175
 31
0.0
  0
LINE
  5
332
330
320
100
AcDbEntity
  8
LC-005-005-----0
 62
     7
370
    25
100
AcDbLine
 10
114.240567
 20
371.06175
 30
0.0
 11
118.940567
 21
375.76175
 31
0.0
  0
LINE
  5
333
330
320
100
AcDbEntity
  8
LC-005-005-----0
 62
     7
370
    25
100
AcDbLine
 10
113.674882
 20
371.06175
 30
0.0
 11
118.374882
 21
375.76175
 31
0.0
  0
LINE
  5
334
330
320
100
AcDbEntity
  8
LC-005-005-----0
 62
     7
370
    25
100
AcDbLine
 10
113.109196
 20
371.06175
 30
0.0
 11
117.809196
 21
375.76175
 31
0.0
  0
LINE
  5
335
330
320
100
AcDbEntity
  8
LC-005-005-----0
 62
     7
370
    25
100
AcDbLine
 10
112.821376
 20
371.339615
 30
0.0
 11
117.243511
 21
375.76175
 31
0.0
  0
LINE
  5
336
330
320
100
AcDbEntity
  8
LC-005-005-----0
 62
     7
370
    25
100
AcDbLine
 10
112.821376
 20
371.9053
 30
0.0
 11
116.677825
 21
375.76175
 31
0.0
  0
LINE
  5
337
330
320
100
AcDbEntity
  8
LC-005-005-----0
 62
     7
370
    25
100
AcDbLine
 10
112.821376
 20
372.470986
 30
0.0
 11
116.11214
 21
375.76175
 31
0.0
  0
LINE
  5
338
330
320
100
AcDbEntity
  8
LC-005-005-----0
 62
     7
370
    25
100
AcDbLine
 10
112.821376
 20
373.036671
 30
0.0
 11
115.546454
 21
375.76175
 31
0.0
  0
LINE
  5
339
330
320
100
AcDbEntity
  8
LC-005-005-----0
 62
     7
370
    25
100
AcDbLine
 10
112.821376
 20
373.602357
 30
0.0
 11
114.980769
 21
375.76175
 31
0.0
  0
LINE
  5
33A
330
320
100
AcDbEntity
  8
LC-005-005-----0
 62
     7
370
    25
100
AcDbLine
 10
112.821376
 20
374.168042
 30
0.0
 11
114.415084
 21
375.76175
 31
0.0
  0
LINE
  5
33B
330
320
100
AcDbEntity
  8
LC-005-005-----0
 62
     7
370
    25
100
AcDbLine
 10
112.821376
 20
374.733727
 30
0.0
 11
113.849398
 21
375.76175
 31
0.0
  0
LINE
  5
33C
330
320
100
AcDbEntity
  8
LC-005-005-----0
 62
     7
370
    25
100
AcDbLine
 10
112.821376
 20
375.299413
 30
0.0
 11
113.283713
 21
375.76175
 31
0.0
  0
ENDBLK
  5
322
330
320
100
AcDbEntity
  8
0
100
AcDbBlockEnd
  0
BLOCK
  5
33F
330
33E
100
AcDbEntity
  8
0
100
AcDbBlockBegin
  2
*X1420
 70
     1
 71
     0
 10
0.0
 20
0.0
 30
0.0
  3
*X1420
  1

  4
*X14
  0
LINE
  5
341
330
33E
100
AcDbEntity
  8
LC-005-005-----0
 62
     7
370
    25
100
AcDbLine
 10
142.524838
 20
371.06175
 30
0.0
 11
142.821376
 21
371.358287
 31
0.0
  0
LINE
  5
342
330
33E
100
AcDbEntity
  8
LC-005-005-----0
 62
     7
370
    25
100
AcDbLine
 10
141.959153
 20
371.06175
 30
0.0
 11
142.821376
 21
371.923973
 31
0.0
  0
LINE
  5
343
330
33E
100
AcDbEntity
  8
LC-005-005-----0
 62
     7
370
    25
100
AcDbLine
 10
141.393467
 20
371.06175
 30
0.0
 11
142.821376
 21
372.489658
 31
0.0
  0
LINE
  5
344
330
33E
100
AcDbEntity
  8
LC-005-005-----0
 62
     7
370
    25
100
AcDbLine
 10
140.827782
 20
371.06175
 30
0.0
 11
142.821376
 21
373.055344
 31
0.0
  0
LINE
  5
345
330
33E
100
AcDbEntity
  8
LC-005-005-----0
 62
     7
370
    25
100
AcDbLine
 10
140.262097
 20
371.06175
 30
0.0
 11
142.821376
 21
373.621029
 31
0.0
  0
LINE
  5
346
330
33E
100
AcDbEntity
  8
LC-005-005-----0
 62
     7
370
    25
100
AcDbLine
 10
139.696411
 20
371.06175
 30
0.0
 11
142.821376
 21
374.186715
 31
0.0
  0
LINE
  5
347
330
33E
100
AcDbEntity
  8
LC-005-005-----0
 62
     7
370
    25
100
AcDbLine
 10
139.130726
 20
371.06175
 30
0.0
 11
142.821376
 21
374.7524
 31
0.0
  0
LINE
  5
348
330
33E
100
AcDbEntity
  8
LC-005-005-----0
 62
     7
370
    25
100
AcDbLine
 10
138.56504
 20
371.06175
 30
0.0
 11
142.821376
 21
375.318085
 31
0.0
  0
LINE
  5
349
330
33E
100
AcDbEntity
  8
LC-005-005-----0
 62
     7
370
    25
100
AcDbLine
 10
137.999355
 20
371.06175
 30
0.0
 11
142.699355
 21
375.76175
 31
0.0
  0
LINE
  5
34A
330
33E
100
AcDbEntity
  8
LC-005-005-----0
 62
     7
370
    25
100
AcDbLine
 10
137.433669
 20
371.06175
 30
0.0
 11
142.133669
 21
375.76175
 31
0.0
  0
LINE
  5
34B
330
33E
100
AcDbEntity
  8
LC-005-005-----0
 62
     7
370
    25
100
AcDbLine
 10
136.867984
 20
371.06175
 30
0.0
 11
141.567984
 21
375.76175
 31
0.0
  0
LINE
  5
34C
330
33E
100
AcDbEntity
  8
LC-005-005-----0
 62
     7
370
    25
100
AcDbLine
 10
136.302299
 20
371.06175
 30
0.0
 11
141.002299
 21
375.76175
 31
0.0
  0
LINE
  5
34D
330
33E
100
AcDbEntity
  8
LC-005-005-----0
 62
     7
370
    25
100
AcDbLine
 10
135.736613
 20
371.06175
 30
0.0
 11
140.436613
 21
375.76175
 31
0.0
  0
LINE
  5
34E
330
33E
100
AcDbEntity
  8
LC-005-005-----0
 62
     7
370
    25
100
AcDbLine
 10
135.170928
 20
371.06175
 30
0.0
 11
139.870928
 21
375.76175
 31
0.0
  0
LINE
  5
34F
330
33E
100
AcDbEntity
  8
LC-005-005-----0
 62
     7
370
    25
100
AcDbLine
 10
134.605242
 20
371.06175
 30
0.0
 11
139.305242
 21
375.76175
 31
0.0
  0
LINE
  5
350
330
33E
100
AcDbEntity
  8
LC-005-005-----0
 62
     7
370
    25
100
AcDbLine
 10
134.039557
 20
371.06175
 30
0.0
 11
138.739557
 21
375.76175
 31
0.0
  0
LINE
  5
351
330
33E
100
AcDbEntity
  8
LC-005-005-----0
 62
     7
370
    25
100
AcDbLine
 10
133.473871
 20
371.06175
 30
0.0
 11
138.173871
 21
375.76175
 31
0.0
  0
LINE
  5
352
330
33E
100
AcDbEntity
  8
LC-005-005-----0
 62
     7
370
    25
100
AcDbLine
 10
132.908186
 20
371.06175
 30
0.0
 11
137.608186
 21
375.76175
 31
0.0
  0
LINE
  5
353
330
33E
100
AcDbEntity
  8
LC-005-005-----0
 62
     7
370
    25
100
AcDbLine
 10
132.821376
 20
371.540625
 30
0.0
 11
137.042501
 21
375.76175
 31
0.0
  0
LINE
  5
354
330
33E
100
AcDbEntity
  8
LC-005-005-----0
 62
     7
370
    25
100
AcDbLine
 10
132.821376
 20
372.10631
 30
0.0
 11
136.476815
 21
375.76175
 31
0.0
  0
LINE
  5
355
330
33E
100
AcDbEntity
  8
LC-005-005-----0
 62
     7
370
    25
100
AcDbLine
 10
132.821376
 20
372.671996
 30
0.0
 11
135.91113
 21
375.76175
 31
0.0
  0
LINE
  5
356
330
33E
100
AcDbEntity
  8
LC-005-005-----0
 62
     7
370
    25
100
AcDbLine
 10
132.821376
 20
373.237681
 30
0.0
 11
135.345444
 21
375.76175
 31
0.0
  0
LINE
  5
357
330
33E
100
AcDbEntity
  8
LC-005-005-----0
 62
     7
370
    25
100
AcDbLine
 10
132.821376
 20
373.803367
 30
0.0
 11
134.779759
 21
375.76175
 31
0.0
  0
LINE
  5
358
330
33E
100
AcDbEntity
  8
LC-005-005-----0
 62
     7
370
    25
100
AcDbLine
 10
132.821376
 20
374.369052
 30
0.0
 11
134.214073
 21
375.76175
 31
0.0
  0
LINE
  5
359
330
33E
100
AcDbEntity
  8
LC-005-005-----0
 62
     7
370
    25
100
AcDbLine
 10
132.821376
 20
374.934738
 30
0.0
 11
133.648388
 21
375.76175
 31
0.0
  0
LINE
  5
35A
330
33E
100
AcDbEntity
  8
LC-005-005-----0
 62
     7
370
    25
100
AcDbLine
 10
132.821376
 20
375.500423
 30
0.0
 11
133.082703
 21
375.76175
 31
0.0
  0
ENDBLK
  5
340
330
33E
100
AcDbEntity
  8
0
100
AcDbBlockEnd
  0
BLOCK
  5
35D
330
35C
100
AcDbEntity
  8
0
100
AcDbBlockBegin
  2
*X1521
 70
     1
 71
     0
 10
0.0
 20
0.0
 30
0.0
  3
*X1521
  1

  4
*X15
  0
LINE
  5
35F
330
35C
100
AcDbEntity
  8
LC-005-005-----0
 62
     7
370
    25
100
AcDbLine
 10
162.323828
 20
371.06175
 30
0.0
 11
162.821376
 21
371.559298
 31
0.0
  0
LINE
  5
360
330
35C
100
AcDbEntity
  8
LC-005-005-----0
 62
     7
370
    25
100
AcDbLine
 10
161.758143
 20
371.06175
 30
0.0
 11
162.821376
 21
372.124983
 31
0.0
  0
LINE
  5
361
330
35C
100
AcDbEntity
  8
LC-005-005-----0
 62
     7
370
    25
100
AcDbLine
 10
161.192457
 20
371.06175
 30
0.0
 11
162.821376
 21
372.690668
 31
0.0
  0
LINE
  5
362
330
35C
100
AcDbEntity
  8
LC-005-005-----0
 62
     7
370
    25
100
AcDbLine
 10
160.626772
 20
371.06175
 30
0.0
 11
162.821376
 21
373.256354
 31
0.0
  0
LINE
  5
363
330
35C
100
AcDbEntity
  8
LC-005-005-----0
 62
     7
370
    25
100
AcDbLine
 10
160.061086
 20
371.06175
 30
0.0
 11
162.821376
 21
373.822039
 31
0.0
  0
LINE
  5
364
330
35C
100
AcDbEntity
  8
LC-005-005-----0
 62
     7
370
    25
100
AcDbLine
 10
159.495401
 20
371.06175
 30
0.0
 11
162.821376
 21
374.387725
 31
0.0
  0
LINE
  5
365
330
35C
100
AcDbEntity
  8
LC-005-005-----0
 62
     7
370
    25
100
AcDbLine
 10
158.929716
 20
371.06175
 30
0.0
 11
162.821376
 21
374.95341
 31
0.0
  0
LINE
  5
366
330
35C
100
AcDbEntity
  8
LC-005-005-----0
 62
     7
370
    25
100
AcDbLine
 10
158.36403
 20
371.06175
 30
0.0
 11
162.821376
 21
375.519096
 31
0.0
  0
LINE
  5
367
330
35C
100
AcDbEntity
  8
LC-005-005-----0
 62
     7
370
    25
100
AcDbLine
 10
157.798345
 20
371.06175
 30
0.0
 11
162.498345
 21
375.76175
 31
0.0
  0
LINE
  5
368
330
35C
100
AcDbEntity
  8
LC-005-005-----0
 62
     7
370
    25
100
AcDbLine
 10
157.232659
 20
371.06175
 30
0.0
 11
161.932659
 21
375.76175
 31
0.0
  0
LINE
  5
369
330
35C
100
AcDbEntity
  8
LC-005-005-----0
 62
     7
370
    25
100
AcDbLine
 10
156.666974
 20
371.06175
 30
0.0
 11
161.366974
 21
375.76175
 31
0.0
  0
LINE
  5
36A
330
35C
100
AcDbEntity
  8
LC-005-005-----0
 62
     7
370
    25
100
AcDbLine
 10
156.101288
 20
371.06175
 30
0.0
 11
160.801288
 21
375.76175
 31
0.0
  0
LINE
  5
36B
330
35C
100
AcDbEntity
  8
LC-005-005-----0
 62
     7
370
    25
100
AcDbLine
 10
155.535603
 20
371.06175
 30
0.0
 11
160.235603
 21
375.76175
 31
0.0
  0
LINE
  5
36C
330
35C
100
AcDbEntity
  8
LC-005-005-----0
 62
     7
370
    25
100
AcDbLine
 10
154.969918
 20
371.06175
 30
0.0
 11
159.669918
 21
375.76175
 31
0.0
  0
LINE
  5
36D
330
35C
100
AcDbEntity
  8
LC-005-005-----0
 62
     7
370
    25
100
AcDbLine
 10
154.404232
 20
371.06175
 30
0.0
 11
159.104232
 21
375.76175
 31
0.0
  0
LINE
  5
36E
330
35C
100
AcDbEntity
  8
LC-005-005-----0
 62
     7
370
    25
100
AcDbLine
 10
153.838547
 20
371.06175
 30
0.0
 11
158.538547
 21
375.76175
 31
0.0
  0
LINE
  5
36F
330
35C
100
AcDbEntity
  8
LC-005-005-----0
 62
     7
370
    25
100
AcDbLine
 10
153.272861
 20
371.06175
 30
0.0
 11
157.972861
 21
375.76175
 31
0.0
  0
LINE
  5
370
330
35C
100
AcDbEntity
  8
LC-005-005-----0
 62
     7
370
    25
100
AcDbLine
 10
152.821376
 20
371.17595
 30
0.0
 11
157.407176
 21
375.76175
 31
0.0
  0
LINE
  5
371
330
35C
100
AcDbEntity
  8
LC-005-005-----0
 62
     7
370
    25
100
AcDbLine
 10
152.821376
 20
371.741635
 30
0.0
 11
156.84149
 21
375.76175
 31
0.0
  0
LINE
  5
372
330
35C
100
AcDbEntity
  8
LC-005-005-----0
 62
     7
370
    25
100
AcDbLine
 10
152.821376
 20
372.307321
 30
0.0
 11
156.275805
 21
375.76175
 31
0.0
  0
LINE
  5
373
330
35C
100
AcDbEntity
  8
LC-005-005-----0
 62
     7
370
    25
100
AcDbLine
 10
152.821376
 20
372.873006
 30
0.0
 11
155.71012
 21
375.76175
 31
0.0
  0
LINE
  5
374
330
35C
100
AcDbEntity
  8
LC-005-005-----0
 62
     7
370
    25
100
AcDbLine
 10
152.821376
 20
373.438691
 30
0.0
 11
155.144434
 21
375.76175
 31
0.0
  0
LINE
  5
375
330
35C
100
AcDbEntity
  8
LC-005-005-----0
 62
     7
370
    25
100
AcDbLine
 10
152.821376
 20
374.004377
 30
0.0
 11
154.578749
 21
375.76175
 31
0.0
  0
LINE
  5
376
330
35C
100
AcDbEntity
  8
LC-005-005-----0
 62
     7
370
    25
100
AcDbLine
 10
152.821376
 20
374.570062
 30
0.0
 11
154.013063
 21
375.76175
 31
0.0
  0
LINE
  5
377
330
35C
100
AcDbEntity
  8
LC-005-005-----0
 62
     7
370
    25
100
AcDbLine
 10
152.821376
 20
375.135748
 30
0.0
 11
153.447378
 21
375.76175
 31
0.0
  0
LINE
  5
378
330
35C
100
AcDbEntity
  8
LC-005-005-----0
 62
     7
370
    25
100
AcDbLine
 10
152.821376
 20
375.701433
 30
0.0
 11
152.881692
 21
375.76175
 31
0.0
  0
ENDBLK
  5
35E
330
35C
100
AcDbEntity
  8
0
100
AcDbBlockEnd
  0
BLOCK
  5
37B
330
37A
100
AcDbEntity
  8
0
100
AcDbBlockBegin
  2
*X1622
 70
     1
 71
     0
 10
0.0
 20
0.0
 30
0.0
  3
*X1622
  1

  4
*X16
  0
LINE
  5
37D
330
37A
100
AcDbEntity
  8
LC-005-005-----0
 62
     7
370
    25
100
AcDbLine
 10
182.688503
 20
371.06175
 30
0.0
 11
182.821376
 21
371.194622
 31
0.0
  0
LINE
  5
37E
330
37A
100
AcDbEntity
  8
LC-005-005-----0
 62
     7
370
    25
100
AcDbLine
 10
182.122818
 20
371.06175
 30
0.0
 11
182.821376
 21
371.760308
 31
0.0
  0
LINE
  5
37F
330
37A
100
AcDbEntity
  8
LC-005-005-----0
 62
     7
370
    25
100
AcDbLine
 10
181.557133
 20
371.06175
 30
0.0
 11
182.821376
 21
372.325993
 31
0.0
  0
LINE
  5
380
330
37A
100
AcDbEntity
  8
LC-005-005-----0
 62
     7
370
    25
100
AcDbLine
 10
180.991447
 20
371.06175
 30
0.0
 11
182.821376
 21
372.891679
 31
0.0
  0
LINE
  5
381
330
37A
100
AcDbEntity
  8
LC-005-005-----0
 62
     7
370
    25
100
AcDbLine
 10
180.425762
 20
371.06175
 30
0.0
 11
182.821376
 21
373.457364
 31
0.0
  0
LINE
  5
382
330
37A
100
AcDbEntity
  8
LC-005-005-----0
 62
     7
370
    25
100
AcDbLine
 10
179.860076
 20
371.06175
 30
0.0
 11
182.821376
 21
374.023049
 31
0.0
  0
LINE
  5
383
330
37A
100
AcDbEntity
  8
LC-005-005-----0
 62
     7
370
    25
100
AcDbLine
 10
179.294391
 20
371.06175
 30
0.0
 11
182.821376
 21
374.588735
 31
0.0
  0
LINE
  5
384
330
37A
100
AcDbEntity
  8
LC-005-005-----0
 62
     7
370
    25
100
AcDbLine
 10
178.728705
 20
371.06175
 30
0.0
 11
182.821376
 21
375.15442
 31
0.0
  0
LINE
  5
385
330
37A
100
AcDbEntity
  8
LC-005-005-----0
 62
     7
370
    25
100
AcDbLine
 10
178.16302
 20
371.06175
 30
0.0
 11
182.821376
 21
375.720106
 31
0.0
  0
LINE
  5
386
330
37A
100
AcDbEntity
  8
LC-005-005-----0
 62
     7
370
    25
100
AcDbLine
 10
177.597335
 20
371.06175
 30
0.0
 11
182.297335
 21
375.76175
 31
0.0
  0
LINE
  5
387
330
37A
100
AcDbEntity
  8
LC-005-005-----0
 62
     7
370
    25
100
AcDbLine
 10
177.031649
 20
371.06175
 30
0.0
 11
181.731649
 21
375.76175
 31
0.0
  0
LINE
  5
388
330
37A
100
AcDbEntity
  8
LC-005-005-----0
 62
     7
370
    25
100
AcDbLine
 10
176.465964
 20
371.06175
 30
0.0
 11
181.165964
 21
375.76175
 31
0.0
  0
LINE
  5
389
330
37A
100
AcDbEntity
  8
LC-005-005-----0
 62
     7
370
    25
100
AcDbLine
 10
175.900278
 20
371.06175
 30
0.0
 11
180.600278
 21
375.76175
 31
0.0
  0
LINE
  5
38A
330
37A
100
AcDbEntity
  8
LC-005-005-----0
 62
     7
370
    25
100
AcDbLine
 10
175.334593
 20
371.06175
 30
0.0
 11
180.034593
 21
375.76175
 31
0.0
  0
LINE
  5
38B
330
37A
100
AcDbEntity
  8
LC-005-005-----0
 62
     7
370
    25
100
AcDbLine
 10
174.768907
 20
371.06175
 30
0.0
 11
179.468907
 21
375.76175
 31
0.0
  0
LINE
  5
38C
330
37A
100
AcDbEntity
  8
LC-005-005-----0
 62
     7
370
    25
100
AcDbLine
 10
174.203222
 20
371.06175
 30
0.0
 11
178.903222
 21
375.76175
 31
0.0
  0
LINE
  5
38D
330
37A
100
AcDbEntity
  8
LC-005-005-----0
 62
     7
370
    25
100
AcDbLine
 10
173.637537
 20
371.06175
 30
0.0
 11
178.337537
 21
375.76175
 31
0.0
  0
LINE
  5
38E
330
37A
100
AcDbEntity
  8
LC-005-005-----0
 62
     7
370
    25
100
AcDbLine
 10
173.071851
 20
371.06175
 30
0.0
 11
177.771851
 21
375.76175
 31
0.0
  0
LINE
  5
38F
330
37A
100
AcDbEntity
  8
LC-005-005-----0
 62
     7
370
    25
100
AcDbLine
 10
172.821376
 20
371.37696
 30
0.0
 11
177.206166
 21
375.76175
 31
0.0
  0
LINE
  5
390
330
37A
100
AcDbEntity
  8
LC-005-005-----0
 62
     7
370
    25
100
AcDbLine
 10
172.821376
 20
371.942645
 30
0.0
 11
176.64048
 21
375.76175
 31
0.0
  0
LINE
  5
391
330
37A
100
AcDbEntity
  8
LC-005-005-----0
 62
     7
370
    25
100
AcDbLine
 10
172.821376
 20
372.508331
 30
0.0
 11
176.074795
 21
375.76175
 31
0.0
  0
LINE
  5
392
330
37A
100
AcDbEntity
  8
LC-005-005-----0
 62
     7
370
    25
100
AcDbLine
 10
172.821376
 20
373.074016
 30
0.0
 11
175.509109
 21
375.76175
 31
0.0
  0
LINE
  5
393
330
37A
100
AcDbEntity
  8
LC-005-005-----0
 62
     7
370
    25
100
AcDbLine
 10
172.821376
 20
373.639702
 30
0.0
 11
174.943424
 21
375.76175
 31
0.0
  0
LINE
  5
394
330
37A
100
AcDbEntity
  8
LC-005-005-----0
 62
     7
370
    25
100
AcDbLine
 10
172.821376
 20
374.205387
 30
0.0
 11
174.377739
 21
375.76175
 31
0.0
  0
LINE
  5
395
330
37A
100
AcDbEntity
  8
LC-005-005-----0
 62
     7
370
    25
100
AcDbLine
 10
172.821376
 20
374.771072
 30
0.0
 11
173.812053
 21
375.76175
 31
0.0
  0
LINE
  5
396
330
37A
100
AcDbEntity
  8
LC-005-005-----0
 62
     7
370
    25
100
AcDbLine
 10
172.821376
 20
375.336758
 30
0.0
 11
173.246368
 21
375.76175
 31
0.0
  0
ENDBLK
  5
37C
330
37A
100
AcDbEntity
  8
0
100
AcDbBlockEnd
  0
BLOCK
  5
399
330
398
100
AcDbEntity
  8
0
100
AcDbBlockBegin
  2
*X1723
 70
     1
 71
     0
 10
0.0
 20
0.0
 30
0.0
  3
*X1723
  1

  4
*X17
  0
LINE
  5
39B
330
398
100
AcDbEntity
  8
LC-005-005-----0
 62
     7
370
    25
100
AcDbLine
 10
202.487493
 20
371.06175
 30
0.0
 11
202.821376
 21
371.395632
 31
0.0
  0
LINE
  5
39C
330
398
100
AcDbEntity
  8
LC-005-005-----0
 62
     7
370
    25
100
AcDbLine
 10
201.921808
 20
371.06175
 30
0.0
 11
202.821376
 21
371.961318
 31
0.0
  0
LINE
  5
39D
330
398
100
AcDbEntity
  8
LC-005-005-----0
 62
     7
370
    25
100
AcDbLine
 10
201.356122
 20
371.06175
 30
0.0
 11
202.821376
 21
372.527003
 31
0.0
  0
LINE
  5
39E
330
398
100
AcDbEntity
  8
LC-005-005-----0
 62
     7
370
    25
100
AcDbLine
 10
200.790437
 20
371.06175
 30
0.0
 11
202.821376
 21
373.092689
 31
0.0
  0
LINE
  5
39F
330
398
100
AcDbEntity
  8
LC-005-005-----0
 62
     7
370
    25
100
AcDbLine
 10
200.224752
 20
371.06175
 30
0.0
 11
202.821376
 21
373.658374
 31
0.0
  0
LINE
  5
3A0
330
398
100
AcDbEntity
  8
LC-005-005-----0
 62
     7
370
    25
100
AcDbLine
 10
199.659066
 20
371.06175
 30
0.0
 11
202.821376
 21
374.224059
 31
0.0
  0
LINE
  5
3A1
330
398
100
AcDbEntity
  8
LC-005-005-----0
 62
     7
370
    25
100
AcDbLine
 10
199.093381
 20
371.06175
 30
0.0
 11
202.821376
 21
374.789745
 31
0.0
  0
LINE
  5
3A2
330
398
100
AcDbEntity
  8
LC-005-005-----0
 62
     7
370
    25
100
AcDbLine
 10
198.527695
 20
371.06175
 30
0.0
 11
202.821376
 21
375.35543
 31
0.0
  0
LINE
  5
3A3
330
398
100
AcDbEntity
  8
LC-005-005-----0
 62
     7
370
    25
100
AcDbLine
 10
197.96201
 20
371.06175
 30
0.0
 11
202.66201
 21
375.76175
 31
0.0
  0
LINE
  5
3A4
330
398
100
AcDbEntity
  8
LC-005-005-----0
 62
     7
370
    25
100
AcDbLine
 10
197.396324
 20
371.06175
 30
0.0
 11
202.096324
 21
375.76175
 31
0.0
  0
LINE
  5
3A5
330
398
100
AcDbEntity
  8
LC-005-005-----0
 62
     7
370
    25
100
AcDbLine
 10
196.830639
 20
371.06175
 30
0.0
 11
201.530639
 21
375.76175
 31
0.0
  0
LINE
  5
3A6
330
398
100
AcDbEntity
  8
LC-005-005-----0
 62
     7
370
    25
100
AcDbLine
 10
196.264954
 20
371.06175
 30
0.0
 11
200.964954
 21
375.76175
 31
0.0
  0
LINE
  5
3A7
330
398
100
AcDbEntity
  8
LC-005-005-----0
 62
     7
370
    25
100
AcDbLine
 10
195.699268
 20
371.06175
 30
0.0
 11
200.399268
 21
375.76175
 31
0.0
  0
LINE
  5
3A8
330
398
100
AcDbEntity
  8
LC-005-005-----0
 62
     7
370
    25
100
AcDbLine
 10
195.133583
 20
371.06175
 30
0.0
 11
199.833583
 21
375.76175
 31
0.0
  0
LINE
  5
3A9
330
398
100
AcDbEntity
  8
LC-005-005-----0
 62
     7
370
    25
100
AcDbLine
 10
194.567897
 20
371.06175
 30
0.0
 11
199.267897
 21
375.76175
 31
0.0
  0
LINE
  5
3AA
330
398
100
AcDbEntity
  8
LC-005-005-----0
 62
     7
370
    25
100
AcDbLine
 10
194.002212
 20
371.06175
 30
0.0
 11
198.702212
 21
375.76175
 31
0.0
  0
LINE
  5
3AB
330
398
100
AcDbEntity
  8
LC-005-005-----0
 62
     7
370
    25
100
AcDbLine
 10
193.436526
 20
371.06175
 30
0.0
 11
198.136526
 21
375.76175
 31
0.0
  0
LINE
  5
3AC
330
398
100
AcDbEntity
  8
LC-005-005-----0
 62
     7
370
    25
100
AcDbLine
 10
192.870841
 20
371.06175
 30
0.0
 11
197.570841
 21
375.76175
 31
0.0
  0
LINE
  5
3AD
330
398
100
AcDbEntity
  8
LC-005-005-----0
 62
     7
370
    25
100
AcDbLine
 10
192.821376
 20
371.57797
 30
0.0
 11
197.005156
 21
375.76175
 31
0.0
  0
LINE
  5
3AE
330
398
100
AcDbEntity
  8
LC-005-005-----0
 62
     7
370
    25
100
AcDbLine
 10
192.821376
 20
372.143655
 30
0.0
 11
196.43947
 21
375.76175
 31
0.0
  0
LINE
  5
3AF
330
398
100
AcDbEntity
  8
LC-005-005-----0
 62
     7
370
    25
100
AcDbLine
 10
192.821376
 20
372.709341
 30
0.0
 11
195.873785
 21
375.76175
 31
0.0
  0
LINE
  5
3B0
330
398
100
AcDbEntity
  8
LC-005-005-----0
 62
     7
370
    25
100
AcDbLine
 10
192.821376
 20
373.275026
 30
0.0
 11
195.308099
 21
375.76175
 31
0.0
  0
LINE
  5
3B1
330
398
100
AcDbEntity
  8
LC-005-005-----0
 62
     7
370
    25
100
AcDbLine
 10
192.821376
 20
373.840712
 30
0.0
 11
194.742414
 21
375.76175
 31
0.0
  0
LINE
  5
3B2
330
398
100
AcDbEntity
  8
LC-005-005-----0
 62
     7
370
    25
100
AcDbLine
 10
192.821376
 20
374.406397
 30
0.0
 11
194.176728
 21
375.76175
 31
0.0
  0
LINE
  5
3B3
330
398
100
AcDbEntity
  8
LC-005-005-----0
 62
     7
370
    25
100
AcDbLine
 10
192.821376
 20
374.972083
 30
0.0
 11
193.611043
 21
375.76175
 31
0.0
  0
LINE
  5
3B4
330
398
100
AcDbEntity
  8
LC-005-005-----0
 62
     7
370
    25
100
AcDbLine
 10
192.821376
 20
375.537768
 30
0.0
 11
193.045358
 21
375.76175
 31
0.0
  0
ENDBLK
  5
39A
330
398
100
AcDbEntity
  8
0
100
AcDbBlockEnd
  0
BLOCK
  5
3B9
330
3B8
100
AcDbEntity
  8
0
100
AcDbBlockBegin
  2
*X1824
 70
     1
 71
     0
 10
0.0
 20
0.0
 30
0.0
  3
*X1824
  1

  4
*X18
  0
LINE
  5
3BB
330
3B8
100
AcDbEntity
  8
LC-005-005-----0
 62
     7
370
    25
100
AcDbLine
 10
222.65381
 20
370.297706
 30
0.0
 11
222.821376
 21
370.465272
 31
0.0
  0
LINE
  5
3BC
330
3B8
100
AcDbEntity
  8
LC-005-005-----0
 62
     7
370
    25
100
AcDbLine
 10
222.124793
 20
370.334375
 30
0.0
 11
222.821376
 21
371.030957
 31
0.0
  0
LINE
  5
3BD
330
3B8
100
AcDbEntity
  8
LC-005-005-----0
 62
     7
370
    25
100
AcDbLine
 10
221.595776
 20
370.371043
 30
0.0
 11
222.821376
 21
371.596642
 31
0.0
  0
LINE
  5
3BE
330
3B8
100
AcDbEntity
  8
LC-005-005-----0
 62
     7
370
    25
100
AcDbLine
 10
221.06676
 20
370.407712
 30
0.0
 11
222.821376
 21
372.162328
 31
0.0
  0
LINE
  5
3BF
330
3B8
100
AcDbEntity
  8
LC-005-005-----0
 62
     7
370
    25
100
AcDbLine
 10
220.537743
 20
370.44438
 30
0.0
 11
222.821376
 21
372.728013
 31
0.0
  0
LINE
  5
3C0
330
3B8
100
AcDbEntity
  8
LC-005-005-----0
 62
     7
370
    25
100
AcDbLine
 10
220.008726
 20
370.481049
 30
0.0
 11
222.821376
 21
373.293699
 31
0.0
  0
LINE
  5
3C1
330
3B8
100
AcDbEntity
  8
LC-005-005-----0
 62
     7
370
    25
100
AcDbLine
 10
219.479709
 20
370.517718
 30
0.0
 11
222.821376
 21
373.859384
 31
0.0
  0
LINE
  5
3C2
330
3B8
100
AcDbEntity
  8
LC-005-005-----0
 62
     7
370
    25
100
AcDbLine
 10
218.950693
 20
370.554386
 30
0.0
 11
222.821376
 21
374.42507
 31
0.0
  0
LINE
  5
3C3
330
3B8
100
AcDbEntity
  8
LC-005-005-----0
 62
     7
370
    25
100
AcDbLine
 10
218.421676
 20
370.591055
 30
0.0
 11
222.821376
 21
374.990755
 31
0.0
  0
LINE
  5
3C4
330
3B8
100
AcDbEntity
  8
LC-005-005-----0
 62
     7
370
    25
100
AcDbLine
 10
217.892659
 20
370.627724
 30
0.0
 11
222.298543
 21
375.033608
 31
0.0
  0
LINE
  5
3C5
330
3B8
100
AcDbEntity
  8
LC-005-005-----0
 62
     7
370
    25
100
AcDbLine
 10
217.363642
 20
370.664392
 30
0.0
 11
221.769527
 21
375.070277
 31
0.0
  0
LINE
  5
3C6
330
3B8
100
AcDbEntity
  8
LC-005-005-----0
 62
     7
370
    25
100
AcDbLine
 10
216.834625
 20
370.701061
 30
0.0
 11
221.24051
 21
375.106945
 31
0.0
  0
LINE
  5
3C7
330
3B8
100
AcDbEntity
  8
LC-005-005-----0
 62
     7
370
    25
100
AcDbLine
 10
216.305609
 20
370.73773
 30
0.0
 11
220.711493
 21
375.143614
 31
0.0
  0
LINE
  5
3C8
330
3B8
100
AcDbEntity
  8
LC-005-005-----0
 62
     7
370
    25
100
AcDbLine
 10
215.776592
 20
370.774398
 30
0.0
 11
220.182476
 21
375.180283
 31
0.0
  0
LINE
  5
3C9
330
3B8
100
AcDbEntity
  8
LC-005-005-----0
 62
     7
370
    25
100
AcDbLine
 10
215.247575
 20
370.811067
 30
0.0
 11
219.65346
 21
375.216951
 31
0.0
  0
LINE
  5
3CA
330
3B8
100
AcDbEntity
  8
LC-005-005-----0
 62
     7
370
    25
100
AcDbLine
 10
214.718558
 20
370.847736
 30
0.0
 11
219.124443
 21
375.25362
 31
0.0
  0
LINE
  5
3CB
330
3B8
100
AcDbEntity
  8
LC-005-005-----0
 62
     7
370
    25
100
AcDbLine
 10
214.189541
 20
370.884404
 30
0.0
 11
218.595426
 21
375.290289
 31
0.0
  0
LINE
  5
3CC
330
3B8
100
AcDbEntity
  8
LC-005-005-----0
 62
     7
370
    25
100
AcDbLine
 10
213.660525
 20
370.921073
 30
0.0
 11
218.066409
 21
375.326957
 31
0.0
  0
LINE
  5
3CD
330
3B8
100
AcDbEntity
  8
LC-005-005-----0
 62
     7
370
    25
100
AcDbLine
 10
213.131508
 20
370.957741
 30
0.0
 11
217.537392
 21
375.363626
 31
0.0
  0
LINE
  5
3CE
330
3B8
100
AcDbEntity
  8
LC-005-005-----0
 62
     7
370
    25
100
AcDbLine
 10
212.821376
 20
371.213295
 30
0.0
 11
217.008376
 21
375.400295
 31
0.0
  0
LINE
  5
3CF
330
3B8
100
AcDbEntity
  8
LC-005-005-----0
 62
     7
370
    25
100
AcDbLine
 10
212.821376
 20
371.77898
 30
0.0
 11
216.479359
 21
375.436963
 31
0.0
  0
LINE
  5
3D0
330
3B8
100
AcDbEntity
  8
LC-005-005-----0
 62
     7
370
    25
100
AcDbLine
 10
212.821376
 20
372.344666
 30
0.0
 11
215.950342
 21
375.473632
 31
0.0
  0
LINE
  5
3D1
330
3B8
100
AcDbEntity
  8
LC-005-005-----0
 62
     7
370
    25
100
AcDbLine
 10
212.821376
 20
372.910351
 30
0.0
 11
215.421325
 21
375.510301
 31
0.0
  0
LINE
  5
3D2
330
3B8
100
AcDbEntity
  8
LC-005-005-----0
 62
     7
370
    25
100
AcDbLine
 10
212.821376
 20
373.476036
 30
0.0
 11
214.892309
 21
375.546969
 31
0.0
  0
LINE
  5
3D3
330
3B8
100
AcDbEntity
  8
LC-005-005-----0
 62
     7
370
    25
100
AcDbLine
 10
212.821376
 20
374.041722
 30
0.0
 11
214.363292
 21
375.583638
 31
0.0
  0
LINE
  5
3D4
330
3B8
100
AcDbEntity
  8
LC-005-005-----0
 62
     7
370
    25
100
AcDbLine
 10
212.821376
 20
374.607407
 30
0.0
 11
213.834275
 21
375.620306
 31
0.0
  0
LINE
  5
3D5
330
3B8
100
AcDbEntity
  8
LC-005-005-----0
 62
     7
370
    25
100
AcDbLine
 10
212.821376
 20
375.173093
 30
0.0
 11
213.305258
 21
375.656975
 31
0.0
  0
ENDBLK
  5
3BA
330
3B8
100
AcDbEntity
  8
0
100
AcDbBlockEnd
  0
BLOCK
  5
3D8
330
3D7
100
AcDbEntity
  8
0
100
AcDbBlockBegin
  2
*X1925
 70
     1
 71
     0
 10
0.0
 20
0.0
 30
0.0
  3
*X1925
  1

  4
*X19
  0
LINE
  5
3DA
330
3D7
100
AcDbEntity
  8
LC-005-005-----0
 62
     7
370
    25
100
AcDbLine
 10
242.756448
 20
368.904297
 30
0.0
 11
242.821376
 21
368.969225
 31
0.0
  0
LINE
  5
3DB
330
3D7
100
AcDbEntity
  8
LC-005-005-----0
 62
     7
370
    25
100
AcDbLine
 10
242.227431
 20
368.940966
 30
0.0
 11
242.821376
 21
369.534911
 31
0.0
  0
LINE
  5
3DC
330
3D7
100
AcDbEntity
  8
LC-005-005-----0
 62
     7
370
    25
100
AcDbLine
 10
241.698414
 20
368.977635
 30
0.0
 11
242.821376
 21
370.100596
 31
0.0
  0
LINE
  5
3DD
330
3D7
100
AcDbEntity
  8
LC-005-005-----0
 62
     7
370
    25
100
AcDbLine
 10
241.169397
 20
369.014303
 30
0.0
 11
242.821376
 21
370.666282
 31
0.0
  0
LINE
  5
3DE
330
3D7
100
AcDbEntity
  8
LC-005-005-----0
 62
     7
370
    25
100
AcDbLine
 10
240.640381
 20
369.050972
 30
0.0
 11
242.821376
 21
371.231967
 31
0.0
  0
LINE
  5
3DF
330
3D7
100
AcDbEntity
  8
LC-005-005-----0
 62
     7
370
    25
100
AcDbLine
 10
240.111364
 20
369.087641
 30
0.0
 11
242.821376
 21
371.797653
 31
0.0
  0
LINE
  5
3E0
330
3D7
100
AcDbEntity
  8
LC-005-005-----0
 62
     7
370
    25
100
AcDbLine
 10
239.582347
 20
369.124309
 30
0.0
 11
242.821376
 21
372.363338
 31
0.0
  0
LINE
  5
3E1
330
3D7
100
AcDbEntity
  8
LC-005-005-----0
 62
     7
370
    25
100
AcDbLine
 10
239.05333
 20
369.160978
 30
0.0
 11
242.821376
 21
372.929023
 31
0.0
  0
LINE
  5
3E2
330
3D7
100
AcDbEntity
  8
LC-005-005-----0
 62
     7
370
    25
100
AcDbLine
 10
238.524313
 20
369.197647
 30
0.0
 11
242.821376
 21
373.494709
 31
0.0
  0
LINE
  5
3E3
330
3D7
100
AcDbEntity
  8
LC-005-005-----0
 62
     7
370
    25
100
AcDbLine
 10
237.995297
 20
369.234315
 30
0.0
 11
242.401181
 21
373.6402
 31
0.0
  0
LINE
  5
3E4
330
3D7
100
AcDbEntity
  8
LC-005-005-----0
 62
     7
370
    25
100
AcDbLine
 10
237.46628
 20
369.270984
 30
0.0
 11
241.872164
 21
373.676868
 31
0.0
  0
LINE
  5
3E5
330
3D7
100
AcDbEntity
  8
LC-005-005-----0
 62
     7
370
    25
100
AcDbLine
 10
236.937263
 20
369.307653
 30
0.0
 11
241.343148
 21
373.713537
 31
0.0
  0
LINE
  5
3E6
330
3D7
100
AcDbEntity
  8
LC-005-005-----0
 62
     7
370
    25
100
AcDbLine
 10
236.408246
 20
369.344321
 30
0.0
 11
240.814131
 21
373.750206
 31
0.0
  0
LINE
  5
3E7
330
3D7
100
AcDbEntity
  8
LC-005-005-----0
 62
     7
370
    25
100
AcDbLine
 10
235.87923
 20
369.38099
 30
0.0
 11
240.285114
 21
373.786874
 31
0.0
  0
LINE
  5
3E8
330
3D7
100
AcDbEntity
  8
LC-005-005-----0
 62
     7
370
    25
100
AcDbLine
 10
235.350213
 20
369.417658
 30
0.0
 11
239.756097
 21
373.823543
 31
0.0
  0
LINE
  5
3E9
330
3D7
100
AcDbEntity
  8
LC-005-005-----0
 62
     7
370
    25
100
AcDbLine
 10
234.821196
 20
369.454327
 30
0.0
 11
239.227081
 21
373.860212
 31
0.0
  0
LINE
  5
3EA
330
3D7
100
AcDbEntity
  8
LC-005-005-----0
 62
     7
370
    25
100
AcDbLine
 10
234.292179
 20
369.490996
 30
0.0
 11
238.698064
 21
373.89688
 31
0.0
  0
LINE
  5
3EB
330
3D7
100
AcDbEntity
  8
LC-005-005-----0
 62
     7
370
    25
100
AcDbLine
 10
233.763162
 20
369.527664
 30
0.0
 11
238.169047
 21
373.933549
 31
0.0
  0
LINE
  5
3EC
330
3D7
100
AcDbEntity
  8
LC-005-005-----0
 62
     7
370
    25
100
AcDbLine
 10
233.234146
 20
369.564333
 30
0.0
 11
237.64003
 21
373.970218
 31
0.0
  0
LINE
  5
3ED
330
3D7
100
AcDbEntity
  8
LC-005-005-----0
 62
     7
370
    25
100
AcDbLine
 10
232.821376
 20
369.717249
 30
0.0
 11
237.111013
 21
374.006886
 31
0.0
  0
LINE
  5
3EE
330
3D7
100
AcDbEntity
  8
LC-005-005-----0
 62
     7
370
    25
100
AcDbLine
 10
232.821376
 20
370.282934
 30
0.0
 11
236.581997
 21
374.043555
 31
0.0
  0
LINE
  5
3EF
330
3D7
100
AcDbEntity
  8
LC-005-005-----0
 62
     7
370
    25
100
AcDbLine
 10
232.821376
 20
370.848619
 30
0.0
 11
236.05298
 21
374.080224
 31
0.0
  0
LINE
  5
3F0
330
3D7
100
AcDbEntity
  8
LC-005-005-----0
 62
     7
370
    25
100
AcDbLine
 10
232.821376
 20
371.414305
 30
0.0
 11
235.523963
 21
374.116892
 31
0.0
  0
LINE
  5
3F1
330
3D7
100
AcDbEntity
  8
LC-005-005-----0
 62
     7
370
    25
100
AcDbLine
 10
232.821376
 20
371.97999
 30
0.0
 11
234.994946
 21
374.153561
 31
0.0
  0
LINE
  5
3F2
330
3D7
100
AcDbEntity
  8
LC-005-005-----0
 62
     7
370
    25
100
AcDbLine
 10
232.821376
 20
372.545676
 30
0.0
 11
234.465929
 21
374.190229
 31
0.0
  0
LINE
  5
3F3
330
3D7
100
AcDbEntity
  8
LC-005-005-----0
 62
     7
370
    25
100
AcDbLine
 10
232.821376
 20
373.111361
 30
0.0
 11
233.936913
 21
374.226898
 31
0.0
  0
LINE
  5
3F4
330
3D7
100
AcDbEntity
  8
LC-005-005-----0
 62
     7
370
    25
100
AcDbLine
 10
232.821376
 20
373.677047
 30
0.0
 11
233.407896
 21
374.263567
 31
0.0
  0
LINE
  5
3F5
330
3D7
100
AcDbEntity
  8
LC-005-005-----0
 62
     7
370
    25
100
AcDbLine
 10
232.821376
 20
374.242732
 30
0.0
 11
232.878879
 21
374.300235
 31
0.0
  0
ENDBLK
  5
3D9
330
3D7
100
AcDbEntity
  8
0
100
AcDbBlockEnd
  0
BLOCK
  5
3F8
330
3F7
100
AcDbEntity
  8
0
100
AcDbBlockBegin
  2
*X2026
 70
     1
 71
     0
 10
0.0
 20
0.0
 30
0.0
  3
*X2026
  1

  4
*X20
  0
LINE
  5
3FA
330
3F7
100
AcDbEntity
  8
LC-005-005-----0
 62
     7
370
    25
100
AcDbLine
 10
262.555993
 20
365.51074
 30
0.0
 11
262.821376
 21
365.776123
 31
0.0
  0
LINE
  5
3FB
330
3F7
100
AcDbEntity
  8
LC-005-005-----0
 62
     7
370
    25
100
AcDbLine
 10
262.02863
 20
365.549063
 30
0.0
 11
262.821376
 21
366.341808
 31
0.0
  0
LINE
  5
3FC
330
3F7
100
AcDbEntity
  8
LC-005-005-----0
 62
     7
370
    25
100
AcDbLine
 10
261.501268
 20
365.587386
 30
0.0
 11
262.821376
 21
366.907494
 31
0.0
  0
LINE
  5
3FD
330
3F7
100
AcDbEntity
  8
LC-005-005-----0
 62
     7
370
    25
100
AcDbLine
 10
260.973906
 20
365.625709
 30
0.0
 11
262.821376
 21
367.473179
 31
0.0
  0
LINE
  5
3FE
330
3F7
100
AcDbEntity
  8
LC-005-005-----0
 62
     7
370
    25
100
AcDbLine
 10
260.446543
 20
365.664032
 30
0.0
 11
262.821376
 21
368.038865
 31
0.0
  0
LINE
  5
3FF
330
3F7
100
AcDbEntity
  8
LC-005-005-----0
 62
     7
370
    25
100
AcDbLine
 10
259.919181
 20
365.702355
 30
0.0
 11
262.821376
 21
368.60455
 31
0.0
  0
LINE
  5
400
330
3F7
100
AcDbEntity
  8
LC-005-005-----0
 62
     7
370
    25
100
AcDbLine
 10
259.391819
 20
365.740678
 30
0.0
 11
262.821376
 21
369.170236
 31
0.0
  0
LINE
  5
401
330
3F7
100
AcDbEntity
  8
LC-005-005-----0
 62
     7
370
    25
100
AcDbLine
 10
258.864456
 20
365.779001
 30
0.0
 11
262.821376
 21
369.735921
 31
0.0
  0
LINE
  5
402
330
3F7
100
AcDbEntity
  8
LC-005-005-----0
 62
     7
370
    25
100
AcDbLine
 10
258.337094
 20
365.817325
 30
0.0
 11
262.72852
 21
370.20875
 31
0.0
  0
LINE
  5
403
330
3F7
100
AcDbEntity
  8
LC-005-005-----0
 62
     7
370
    25
100
AcDbLine
 10
257.839933
 20
365.88585
 30
0.0
 11
262.201157
 21
370.247073
 31
0.0
  0
LINE
  5
404
330
3F7
100
AcDbEntity
  8
LC-005-005-----0
 62
     7
370
    25
100
AcDbLine
 10
257.371787
 20
365.983388
 30
0.0
 11
261.673795
 21
370.285396
 31
0.0
  0
LINE
  5
405
330
3F7
100
AcDbEntity
  8
LC-005-005-----0
 62
     7
370
    25
100
AcDbLine
 10
256.911754
 20
366.089041
 30
0.0
 11
261.146432
 21
370.323719
 31
0.0
  0
LINE
  5
406
330
3F7
100
AcDbEntity
  8
LC-005-005-----0
 62
     7
370
    25
100
AcDbLine
 10
256.459533
 20
366.202505
 30
0.0
 11
260.61907
 21
370.362043
 31
0.0
  0
LINE
  5
407
330
3F7
100
AcDbEntity
  8
LC-005-005-----0
 62
     7
370
    25
100
AcDbLine
 10
256.014849
 20
366.323506
 30
0.0
 11
260.091708
 21
370.400366
 31
0.0
  0
LINE
  5
408
330
3F7
100
AcDbEntity
  8
LC-005-005-----0
 62
     7
370
    25
100
AcDbLine
 10
255.577449
 20
366.451793
 30
0.0
 11
259.564345
 21
370.438689
 31
0.0
  0
LINE
  5
409
330
3F7
100
AcDbEntity
  8
LC-005-005-----0
 62
     7
370
    25
100
AcDbLine
 10
255.147106
 20
366.587135
 30
0.0
 11
259.036983
 21
370.477012
 31
0.0
  0
LINE
  5
40A
330
3F7
100
AcDbEntity
  8
LC-005-005-----0
 62
     7
370
    25
100
AcDbLine
 10
254.723609
 20
366.729323
 30
0.0
 11
258.536288
 21
370.542002
 31
0.0
  0
LINE
  5
40B
330
3F7
100
AcDbEntity
  8
LC-005-005-----0
 62
     7
370
    25
100
AcDbLine
 10
254.306764
 20
366.878164
 30
0.0
 11
258.073847
 21
370.645247
 31
0.0
  0
LINE
  5
40C
330
3F7
100
AcDbEntity
  8
LC-005-005-----0
 62
     7
370
    25
100
AcDbLine
 10
253.896396
 20
367.033481
 30
0.0
 11
257.621251
 21
370.758336
 31
0.0
  0
LINE
  5
40D
330
3F7
100
AcDbEntity
  8
LC-005-005-----0
 62
     7
370
    25
100
AcDbLine
 10
253.492341
 20
367.195112
 30
0.0
 11
257.178066
 21
370.880836
 31
0.0
  0
LINE
  5
40E
330
3F7
100
AcDbEntity
  8
LC-005-005-----0
 62
     7
370
    25
100
AcDbLine
 10
253.094451
 20
367.362907
 30
0.0
 11
256.743905
 21
371.012361
 31
0.0
  0
LINE
  5
40F
330
3F7
100
AcDbEntity
  8
LC-005-005-----0
 62
     7
370
    25
100
AcDbLine
 10
252.821376
 20
367.655517
 30
0.0
 11
256.318424
 21
371.152565
 31
0.0
  0
LINE
  5
410
330
3F7
100
AcDbEntity
  8
LC-005-005-----0
 62
     7
370
    25
100
AcDbLine
 10
252.821376
 20
368.221202
 30
0.0
 11
255.901311
 21
371.301138
 31
0.0
  0
LINE
  5
411
330
3F7
100
AcDbEntity
  8
LC-005-005-----0
 62
     7
370
    25
100
AcDbLine
 10
252.821376
 20
368.786888
 30
0.0
 11
255.492289
 21
371.457801
 31
0.0
  0
LINE
  5
412
330
3F7
100
AcDbEntity
  8
LC-005-005-----0
 62
     7
370
    25
100
AcDbLine
 10
252.821376
 20
369.352573
 30
0.0
 11
255.091107
 21
371.622305
 31
0.0
  0
LINE
  5
413
330
3F7
100
AcDbEntity
  8
LC-005-005-----0
 62
     7
370
    25
100
AcDbLine
 10
252.821376
 20
369.918259
 30
0.0
 11
254.69754
 21
371.794423
 31
0.0
  0
LINE
  5
414
330
3F7
100
AcDbEntity
  8
LC-005-005-----0
 62
     7
370
    25
100
AcDbLine
 10
252.821376
 20
370.483944
 30
0.0
 11
254.311384
 21
371.973953
 31
0.0
  0
LINE
  5
415
330
3F7
100
AcDbEntity
  8
LC-005-005-----0
 62
     7
370
    25
100
AcDbLine
 10
252.821376
 20
371.04963
 30
0.0
 11
253.932457
 21
372.160711
 31
0.0
  0
LINE
  5
416
330
3F7
100
AcDbEntity
  8
LC-005-005-----0
 62
     7
370
    25
100
AcDbLine
 10
252.821376
 20
371.615315
 30
0.0
 11
253.560593
 21
372.354532
 31
0.0
  0
LINE
  5
417
330
3F7
100
AcDbEntity
  8
LC-005-005-----0
 62
     7
370
    25
100
AcDbLine
 10
252.821376
 20
372.181
 30
0.0
 11
253.195644
 21
372.555269
 31
0.0
  0
LINE
  5
418
330
3F7
100
AcDbEntity
  8
LC-005-005-----0
 62
     7
370
    25
100
AcDbLine
 10
252.821376
 20
372.746686
 30
0.0
 11
252.837477
 21
372.762787
 31
0.0
  0
ENDBLK
  5
3F9
330
3F7
100
AcDbEntity
  8
0
100
AcDbBlockEnd
  0
BLOCK
  5
438
330
437
100
AcDbEntity
  8
0
100
AcDbBlockBegin
  2
*X2127
 70
     1
 71
     0
 10
0.0
 20
0.0
 30
0.0
  3
*X2127
  1

  4
*X21
  0
LINE
  5
43A
330
437
100
AcDbEntity
  8
LC-005-005-----0
 62
     7
370
    25
100
AcDbLine
 10
436.961601
 20
346.451933
 30
0.0
 11
441.130983
 21
350.621315
 31
0.0
  0
LINE
  5
43B
330
437
100
AcDbEntity
  8
LC-005-005-----0
 62
     7
370
    25
100
AcDbLine
 10
434.133174
 20
346.451933
 30
0.0
 11
436.633174
 21
348.951933
 31
0.0
  0
LINE
  5
43C
330
437
100
AcDbEntity
  8
LC-005-005-----0
 62
     7
370
    25
100
AcDbLine
 10
438.630983
 20
350.949742
 30
0.0
 11
441.130983
 21
353.449742
 31
0.0
  0
LINE
  5
43D
330
437
100
AcDbEntity
  8
LC-005-005-----0
 62
     7
370
    25
100
AcDbLine
 10
431.304747
 20
346.451933
 30
0.0
 11
433.804747
 21
348.951933
 31
0.0
  0
LINE
  5
43E
330
437
100
AcDbEntity
  8
LC-005-005-----0
 62
     7
370
    25
100
AcDbLine
 10
438.630983
 20
353.778169
 30
0.0
 11
441.130983
 21
356.278169
 31
0.0
  0
LINE
  5
43F
330
437
100
AcDbEntity
  8
LC-005-005-----0
 62
     7
370
    25
100
AcDbLine
 10
438.630983
 20
356.606596
 30
0.0
 11
441.130983
 21
359.106596
 31
0.0
  0
LINE
  5
440
330
437
100
AcDbEntity
  8
LC-005-005-----0
 62
     7
370
    25
100
AcDbLine
 10
438.630983
 20
359.435024
 30
0.0
 11
441.130983
 21
361.935024
 31
0.0
  0
LINE
  5
441
330
437
100
AcDbEntity
  8
LC-005-005-----0
 62
     7
370
    25
100
AcDbLine
 10
438.630983
 20
362.263451
 30
0.0
 11
441.130983
 21
364.763451
 31
0.0
  0
LINE
  5
442
330
437
100
AcDbEntity
  8
LC-005-005-----0
 62
     7
370
    25
100
AcDbLine
 10
438.630983
 20
365.091878
 30
0.0
 11
439.990683
 21
366.451578
 31
0.0
  0
ENDBLK
  5
439
330
437
100
AcDbEntity
  8
0
100
AcDbBlockEnd
  0
BLOCK
  5
447
330
446
100
AcDbEntity
  8
0
100
AcDbBlockBegin
  2
*X2228
 70
     1
 71
     0
 10
0.0
 20
0.0
 30
0.0
  3
*X2228
  1

  4
*X22
  0
LINE
  5
449
330
446
100
AcDbEntity
  8
LC-005-005-----0
 62
     7
370
    25
100
AcDbLine
 10
292.711818
 20
346.451933
 30
0.0
 11
294.130983
 21
347.871098
 31
0.0
  0
LINE
  5
44A
330
446
100
AcDbEntity
  8
LC-005-005-----0
 62
     7
370
    25
100
AcDbLine
 10
289.883391
 20
346.451933
 30
0.0
 11
292.383391
 21
348.951933
 31
0.0
  0
LINE
  5
44B
330
446
100
AcDbEntity
  8
LC-005-005-----0
 62
     7
370
    25
100
AcDbLine
 10
287.092973
 20
346.489943
 30
0.0
 11
289.554964
 21
348.951933
 31
0.0
  0
LINE
  5
44C
330
446
100
AcDbEntity
  8
LC-005-005-----0
 62
     7
370
    25
100
AcDbLine
 10
285.67876
 20
347.904157
 30
0.0
 11
286.726537
 21
348.951933
 31
0.0
  0
LINE
  5
44D
330
446
100
AcDbEntity
  8
LC-005-005-----0
 62
     7
370
    25
100
AcDbLine
 10
284.264546
 20
349.31837
 30
0.0
 11
286.630983
 21
351.684807
 31
0.0
  0
LINE
  5
44E
330
446
100
AcDbEntity
  8
LC-005-005-----0
 62
     7
370
    25
100
AcDbLine
 10
284.130983
 20
352.013234
 30
0.0
 11
286.630983
 21
354.513234
 31
0.0
  0
LINE
  5
44F
330
446
100
AcDbEntity
  8
LC-005-005-----0
 62
     7
370
    25
100
AcDbLine
 10
284.130983
 20
354.841661
 30
0.0
 11
286.630983
 21
357.341661
 31
0.0
  0
LINE
  5
450
330
446
100
AcDbEntity
  8
LC-005-005-----0
 62
     7
370
    25
100
AcDbLine
 10
284.130983
 20
357.670088
 30
0.0
 11
286.630983
 21
360.170088
 31
0.0
  0
LINE
  5
451
330
446
100
AcDbEntity
  8
LC-005-005-----0
 62
     7
370
    25
100
AcDbLine
 10
284.130983
 20
360.498515
 30
0.0
 11
286.630983
 21
362.998515
 31
0.0
  0
LINE
  5
452
330
446
100
AcDbEntity
  8
LC-005-005-----0
 62
     7
370
    25
100
AcDbLine
 10
284.130983
 20
363.326943
 30
0.0
 11
286.630983
 21
365.826943
 31
0.0
  0
LINE
  5
453
330
446
100
AcDbEntity
  8
LC-005-005-----0
 62
     7
370
    25
100
AcDbLine
 10
284.130983
 20
366.15537
 30
0.0
 11
284.427191
 21
366.451578
 31
0.0
  0
ENDBLK
  5
448
330
446
100
AcDbEntity
  8
0
100
AcDbBlockEnd
  0
BLOCK
  5
462
330
461
100
AcDbEntity
  8
0
100
AcDbBlockBegin
  2
*X2329
 70
     1
 71
     0
 10
0.0
 20
0.0
 30
0.0
  3
*X2329
  1

  4
*X23
  0
LINE
  5
464
330
461
100
AcDbEntity
  8
LC-005-005-----0
 62
     7
370
    25
100
AcDbLine
 10
612.043741
 20
371.06175
 30
0.0
 11
612.44059
 21
371.458599
 31
0.0
  0
LINE
  5
465
330
461
100
AcDbEntity
  8
LC-005-005-----0
 62
     7
370
    25
100
AcDbLine
 10
611.478056
 20
371.06175
 30
0.0
 11
612.44059
 21
372.024285
 31
0.0
  0
LINE
  5
466
330
461
100
AcDbEntity
  8
LC-005-005-----0
 62
     7
370
    25
100
AcDbLine
 10
610.91237
 20
371.06175
 30
0.0
 11
612.44059
 21
372.58997
 31
0.0
  0
LINE
  5
467
330
461
100
AcDbEntity
  8
LC-005-005-----0
 62
     7
370
    25
100
AcDbLine
 10
610.346685
 20
371.06175
 30
0.0
 11
612.44059
 21
373.155656
 31
0.0
  0
LINE
  5
468
330
461
100
AcDbEntity
  8
LC-005-005-----0
 62
     7
370
    25
100
AcDbLine
 10
609.780999
 20
371.06175
 30
0.0
 11
612.44059
 21
373.721341
 31
0.0
  0
LINE
  5
469
330
461
100
AcDbEntity
  8
LC-005-005-----0
 62
     7
370
    25
100
AcDbLine
 10
609.215314
 20
371.06175
 30
0.0
 11
612.44059
 21
374.287027
 31
0.0
  0
LINE
  5
46A
330
461
100
AcDbEntity
  8
LC-005-005-----0
 62
     7
370
    25
100
AcDbLine
 10
608.649628
 20
371.06175
 30
0.0
 11
612.44059
 21
374.852712
 31
0.0
  0
LINE
  5
46B
330
461
100
AcDbEntity
  8
LC-005-005-----0
 62
     7
370
    25
100
AcDbLine
 10
608.083943
 20
371.06175
 30
0.0
 11
612.44059
 21
375.418397
 31
0.0
  0
LINE
  5
46C
330
461
100
AcDbEntity
  8
LC-005-005-----0
 62
     7
370
    25
100
AcDbLine
 10
607.518258
 20
371.06175
 30
0.0
 11
612.218258
 21
375.76175
 31
0.0
  0
LINE
  5
46D
330
461
100
AcDbEntity
  8
LC-005-005-----0
 62
     7
370
    25
100
AcDbLine
 10
606.952572
 20
371.06175
 30
0.0
 11
611.652572
 21
375.76175
 31
0.0
  0
LINE
  5
46E
330
461
100
AcDbEntity
  8
LC-005-005-----0
 62
     7
370
    25
100
AcDbLine
 10
606.386887
 20
371.06175
 30
0.0
 11
611.086887
 21
375.76175
 31
0.0
  0
LINE
  5
46F
330
461
100
AcDbEntity
  8
LC-005-005-----0
 62
     7
370
    25
100
AcDbLine
 10
605.821201
 20
371.06175
 30
0.0
 11
610.521201
 21
375.76175
 31
0.0
  0
LINE
  5
470
330
461
100
AcDbEntity
  8
LC-005-005-----0
 62
     7
370
    25
100
AcDbLine
 10
605.255516
 20
371.06175
 30
0.0
 11
609.955516
 21
375.76175
 31
0.0
  0
LINE
  5
471
330
461
100
AcDbEntity
  8
LC-005-005-----0
 62
     7
370
    25
100
AcDbLine
 10
604.68983
 20
371.06175
 30
0.0
 11
609.38983
 21
375.76175
 31
0.0
  0
LINE
  5
472
330
461
100
AcDbEntity
  8
LC-005-005-----0
 62
     7
370
    25
100
AcDbLine
 10
604.124145
 20
371.06175
 30
0.0
 11
608.824145
 21
375.76175
 31
0.0
  0
LINE
  5
473
330
461
100
AcDbEntity
  8
LC-005-005-----0
 62
     7
370
    25
100
AcDbLine
 10
603.55846
 20
371.06175
 30
0.0
 11
608.25846
 21
375.76175
 31
0.0
  0
LINE
  5
474
330
461
100
AcDbEntity
  8
LC-005-005-----0
 62
     7
370
    25
100
AcDbLine
 10
602.992774
 20
371.06175
 30
0.0
 11
607.692774
 21
375.76175
 31
0.0
  0
LINE
  5
475
330
461
100
AcDbEntity
  8
LC-005-005-----0
 62
     7
370
    25
100
AcDbLine
 10
602.44059
 20
371.075252
 30
0.0
 11
607.127089
 21
375.76175
 31
0.0
  0
LINE
  5
476
330
461
100
AcDbEntity
  8
LC-005-005-----0
 62
     7
370
    25
100
AcDbLine
 10
602.44059
 20
371.640937
 30
0.0
 11
606.561403
 21
375.76175
 31
0.0
  0
LINE
  5
477
330
461
100
AcDbEntity
  8
LC-005-005-----0
 62
     7
370
    25
100
AcDbLine
 10
602.44059
 20
372.206622
 30
0.0
 11
605.995718
 21
375.76175
 31
0.0
  0
LINE
  5
478
330
461
100
AcDbEntity
  8
LC-005-005-----0
 62
     7
370
    25
100
AcDbLine
 10
602.44059
 20
372.772308
 30
0.0
 11
605.430032
 21
375.76175
 31
0.0
  0
LINE
  5
479
330
461
100
AcDbEntity
  8
LC-005-005-----0
 62
     7
370
    25
100
AcDbLine
 10
602.44059
 20
373.337993
 30
0.0
 11
604.864347
 21
375.76175
 31
0.0
  0
LINE
  5
47A
330
461
100
AcDbEntity
  8
LC-005-005-----0
 62
     7
370
    25
100
AcDbLine
 10
602.44059
 20
373.903679
 30
0.0
 11
604.298662
 21
375.76175
 31
0.0
  0
LINE
  5
47B
330
461
100
AcDbEntity
  8
LC-005-005-----0
 62
     7
370
    25
100
AcDbLine
 10
602.44059
 20
374.469364
 30
0.0
 11
603.732976
 21
375.76175
 31
0.0
  0
LINE
  5
47C
330
461
100
AcDbEntity
  8
LC-005-005-----0
 62
     7
370
    25
100
AcDbLine
 10
602.44059
 20
375.03505
 30
0.0
 11
603.167291
 21
375.76175
 31
0.0
  0
LINE
  5
47D
330
461
100
AcDbEntity
  8
LC-005-005-----0
 62
     7
370
    25
100
AcDbLine
 10
602.44059
 20
375.600735
 30
0.0
 11
602.601605
 21
375.76175
 31
0.0
  0
ENDBLK
  5
463
330
461
100
AcDbEntity
  8
0
100
AcDbBlockEnd
  0
BLOCK
  5
480
330
47F
100
AcDbEntity
  8
0
100
AcDbBlockBegin
  2
*X2430
 70
     1
 71
     0
 10
0.0
 20
0.0
 30
0.0
  3
*X2430
  1

  4
*X24
  0
LINE
  5
482
330
47F
100
AcDbEntity
  8
LC-005-005-----0
 62
     7
370
    25
100
AcDbLine
 10
592.244751
 20
371.06175
 30
0.0
 11
592.44059
 21
371.257589
 31
0.0
  0
LINE
  5
483
330
47F
100
AcDbEntity
  8
LC-005-005-----0
 62
     7
370
    25
100
AcDbLine
 10
591.679066
 20
371.06175
 30
0.0
 11
592.44059
 21
371.823275
 31
0.0
  0
LINE
  5
484
330
47F
100
AcDbEntity
  8
LC-005-005-----0
 62
     7
370
    25
100
AcDbLine
 10
591.11338
 20
371.06175
 30
0.0
 11
592.44059
 21
372.38896
 31
0.0
  0
LINE
  5
485
330
47F
100
AcDbEntity
  8
LC-005-005-----0
 62
     7
370
    25
100
AcDbLine
 10
590.547695
 20
371.06175
 30
0.0
 11
592.44059
 21
372.954646
 31
0.0
  0
LINE
  5
486
330
47F
100
AcDbEntity
  8
LC-005-005-----0
 62
     7
370
    25
100
AcDbLine
 10
589.982009
 20
371.06175
 30
0.0
 11
592.44059
 21
373.520331
 31
0.0
  0
LINE
  5
487
330
47F
100
AcDbEntity
  8
LC-005-005-----0
 62
     7
370
    25
100
AcDbLine
 10
589.416324
 20
371.06175
 30
0.0
 11
592.44059
 21
374.086016
 31
0.0
  0
LINE
  5
488
330
47F
100
AcDbEntity
  8
LC-005-005-----0
 62
     7
370
    25
100
AcDbLine
 10
588.850639
 20
371.06175
 30
0.0
 11
592.44059
 21
374.651702
 31
0.0
  0
LINE
  5
489
330
47F
100
AcDbEntity
  8
LC-005-005-----0
 62
     7
370
    25
100
AcDbLine
 10
588.284953
 20
371.06175
 30
0.0
 11
592.44059
 21
375.217387
 31
0.0
  0
LINE
  5
48A
330
47F
100
AcDbEntity
  8
LC-005-005-----0
 62
     7
370
    25
100
AcDbLine
 10
587.719268
 20
371.06175
 30
0.0
 11
592.419268
 21
375.76175
 31
0.0
  0
LINE
  5
48B
330
47F
100
AcDbEntity
  8
LC-005-005-----0
 62
     7
370
    25
100
AcDbLine
 10
587.153582
 20
371.06175
 30
0.0
 11
591.853582
 21
375.76175
 31
0.0
  0
LINE
  5
48C
330
47F
100
AcDbEntity
  8
LC-005-005-----0
 62
     7
370
    25
100
AcDbLine
 10
586.587897
 20
371.06175
 30
0.0
 11
591.287897
 21
375.76175
 31
0.0
  0
LINE
  5
48D
330
47F
100
AcDbEntity
  8
LC-005-005-----0
 62
     7
370
    25
100
AcDbLine
 10
586.022211
 20
371.06175
 30
0.0
 11
590.722211
 21
375.76175
 31
0.0
  0
LINE
  5
48E
330
47F
100
AcDbEntity
  8
LC-005-005-----0
 62
     7
370
    25
100
AcDbLine
 10
585.456526
 20
371.06175
 30
0.0
 11
590.156526
 21
375.76175
 31
0.0
  0
LINE
  5
48F
330
47F
100
AcDbEntity
  8
LC-005-005-----0
 62
     7
370
    25
100
AcDbLine
 10
584.890841
 20
371.06175
 30
0.0
 11
589.590841
 21
375.76175
 31
0.0
  0
LINE
  5
490
330
47F
100
AcDbEntity
  8
LC-005-005-----0
 62
     7
370
    25
100
AcDbLine
 10
584.325155
 20
371.06175
 30
0.0
 11
589.025155
 21
375.76175
 31
0.0
  0
LINE
  5
491
330
47F
100
AcDbEntity
  8
LC-005-005-----0
 62
     7
370
    25
100
AcDbLine
 10
583.75947
 20
371.06175
 30
0.0
 11
588.45947
 21
375.76175
 31
0.0
  0
LINE
  5
492
330
47F
100
AcDbEntity
  8
LC-005-005-----0
 62
     7
370
    25
100
AcDbLine
 10
583.193784
 20
371.06175
 30
0.0
 11
587.893784
 21
375.76175
 31
0.0
  0
LINE
  5
493
330
47F
100
AcDbEntity
  8
LC-005-005-----0
 62
     7
370
    25
100
AcDbLine
 10
582.628099
 20
371.06175
 30
0.0
 11
587.328099
 21
375.76175
 31
0.0
  0
LINE
  5
494
330
47F
100
AcDbEntity
  8
LC-005-005-----0
 62
     7
370
    25
100
AcDbLine
 10
582.44059
 20
371.439927
 30
0.0
 11
586.762413
 21
375.76175
 31
0.0
  0
LINE
  5
495
330
47F
100
AcDbEntity
  8
LC-005-005-----0
 62
     7
370
    25
100
AcDbLine
 10
582.44059
 20
372.005612
 30
0.0
 11
586.196728
 21
375.76175
 31
0.0
  0
LINE
  5
496
330
47F
100
AcDbEntity
  8
LC-005-005-----0
 62
     7
370
    25
100
AcDbLine
 10
582.44059
 20
372.571298
 30
0.0
 11
585.631043
 21
375.76175
 31
0.0
  0
LINE
  5
497
330
47F
100
AcDbEntity
  8
LC-005-005-----0
 62
     7
370
    25
100
AcDbLine
 10
582.44059
 20
373.136983
 30
0.0
 11
585.065357
 21
375.76175
 31
0.0
  0
LINE
  5
498
330
47F
100
AcDbEntity
  8
LC-005-005-----0
 62
     7
370
    25
100
AcDbLine
 10
582.44059
 20
373.702669
 30
0.0
 11
584.499672
 21
375.76175
 31
0.0
  0
LINE
  5
499
330
47F
100
AcDbEntity
  8
LC-005-005-----0
 62
     7
370
    25
100
AcDbLine
 10
582.44059
 20
374.268354
 30
0.0
 11
583.933986
 21
375.76175
 31
0.0
  0
LINE
  5
49A
330
47F
100
AcDbEntity
  8
LC-005-005-----0
 62
     7
370
    25
100
AcDbLine
 10
582.44059
 20
374.834039
 30
0.0
 11
583.368301
 21
375.76175
 31
0.0
  0
LINE
  5
49B
330
47F
100
AcDbEntity
  8
LC-005-005-----0
 62
     7
370
    25
100
AcDbLine
 10
582.44059
 20
375.399725
 30
0.0
 11
582.802615
 21
375.76175
 31
0.0
  0
ENDBLK
  5
481
330
47F
100
AcDbEntity
  8
0
100
AcDbBlockEnd
  0
BLOCK
  5
49E
330
49D
100
AcDbEntity
  8
0
100
AcDbBlockBegin
  2
*X2531
 70
     1
 71
     0
 10
0.0
 20
0.0
 30
0.0
  3
*X2531
  1

  4
*X25
  0
LINE
  5
4A0
330
49D
100
AcDbEntity
  8
LC-005-005-----0
 62
     7
370
    25
100
AcDbLine
 10
571.880076
 20
371.06175
 30
0.0
 11
572.44059
 21
371.622265
 31
0.0
  0
LINE
  5
4A1
330
49D
100
AcDbEntity
  8
LC-005-005-----0
 62
     7
370
    25
100
AcDbLine
 10
571.31439
 20
371.06175
 30
0.0
 11
572.44059
 21
372.18795
 31
0.0
  0
LINE
  5
4A2
330
49D
100
AcDbEntity
  8
LC-005-005-----0
 62
     7
370
    25
100
AcDbLine
 10
570.748705
 20
371.06175
 30
0.0
 11
572.44059
 21
372.753635
 31
0.0
  0
LINE
  5
4A3
330
49D
100
AcDbEntity
  8
LC-005-005-----0
 62
     7
370
    25
100
AcDbLine
 10
570.183019
 20
371.06175
 30
0.0
 11
572.44059
 21
373.319321
 31
0.0
  0
LINE
  5
4A4
330
49D
100
AcDbEntity
  8
LC-005-005-----0
 62
     7
370
    25
100
AcDbLine
 10
569.617334
 20
371.06175
 30
0.0
 11
572.44059
 21
373.885006
 31
0.0
  0
LINE
  5
4A5
330
49D
100
AcDbEntity
  8
LC-005-005-----0
 62
     7
370
    25
100
AcDbLine
 10
569.051649
 20
371.06175
 30
0.0
 11
572.44059
 21
374.450692
 31
0.0
  0
LINE
  5
4A6
330
49D
100
AcDbEntity
  8
LC-005-005-----0
 62
     7
370
    25
100
AcDbLine
 10
568.485963
 20
371.06175
 30
0.0
 11
572.44059
 21
375.016377
 31
0.0
  0
LINE
  5
4A7
330
49D
100
AcDbEntity
  8
LC-005-005-----0
 62
     7
370
    25
100
AcDbLine
 10
567.920278
 20
371.06175
 30
0.0
 11
572.44059
 21
375.582063
 31
0.0
  0
LINE
  5
4A8
330
49D
100
AcDbEntity
  8
LC-005-005-----0
 62
     7
370
    25
100
AcDbLine
 10
567.354592
 20
371.06175
 30
0.0
 11
572.054592
 21
375.76175
 31
0.0
  0
LINE
  5
4A9
330
49D
100
AcDbEntity
  8
LC-005-005-----0
 62
     7
370
    25
100
AcDbLine
 10
566.788907
 20
371.06175
 30
0.0
 11
571.488907
 21
375.76175
 31
0.0
  0
LINE
  5
4AA
330
49D
100
AcDbEntity
  8
LC-005-005-----0
 62
     7
370
    25
100
AcDbLine
 10
566.223222
 20
371.06175
 30
0.0
 11
570.923222
 21
375.76175
 31
0.0
  0
LINE
  5
4AB
330
49D
100
AcDbEntity
  8
LC-005-005-----0
 62
     7
370
    25
100
AcDbLine
 10
565.657536
 20
371.06175
 30
0.0
 11
570.357536
 21
375.76175
 31
0.0
  0
LINE
  5
4AC
330
49D
100
AcDbEntity
  8
LC-005-005-----0
 62
     7
370
    25
100
AcDbLine
 10
565.091851
 20
371.06175
 30
0.0
 11
569.791851
 21
375.76175
 31
0.0
  0
LINE
  5
4AD
330
49D
100
AcDbEntity
  8
LC-005-005-----0
 62
     7
370
    25
100
AcDbLine
 10
564.526165
 20
371.06175
 30
0.0
 11
569.226165
 21
375.76175
 31
0.0
  0
LINE
  5
4AE
330
49D
100
AcDbEntity
  8
LC-005-005-----0
 62
     7
370
    25
100
AcDbLine
 10
563.96048
 20
371.06175
 30
0.0
 11
568.66048
 21
375.76175
 31
0.0
  0
LINE
  5
4AF
330
49D
100
AcDbEntity
  8
LC-005-005-----0
 62
     7
370
    25
100
AcDbLine
 10
563.394794
 20
371.06175
 30
0.0
 11
568.094794
 21
375.76175
 31
0.0
  0
LINE
  5
4B0
330
49D
100
AcDbEntity
  8
LC-005-005-----0
 62
     7
370
    25
100
AcDbLine
 10
562.829109
 20
371.06175
 30
0.0
 11
567.529109
 21
375.76175
 31
0.0
  0
LINE
  5
4B1
330
49D
100
AcDbEntity
  8
LC-005-005-----0
 62
     7
370
    25
100
AcDbLine
 10
562.44059
 20
371.238917
 30
0.0
 11
566.963424
 21
375.76175
 31
0.0
  0
LINE
  5
4B2
330
49D
100
AcDbEntity
  8
LC-005-005-----0
 62
     7
370
    25
100
AcDbLine
 10
562.44059
 20
371.804602
 30
0.0
 11
566.397738
 21
375.76175
 31
0.0
  0
LINE
  5
4B3
330
49D
100
AcDbEntity
  8
LC-005-005-----0
 62
     7
370
    25
100
AcDbLine
 10
562.44059
 20
372.370288
 30
0.0
 11
565.832053
 21
375.76175
 31
0.0
  0
LINE
  5
4B4
330
49D
100
AcDbEntity
  8
LC-005-005-----0
 62
     7
370
    25
100
AcDbLine
 10
562.44059
 20
372.935973
 30
0.0
 11
565.266367
 21
375.76175
 31
0.0
  0
LINE
  5
4B5
330
49D
100
AcDbEntity
  8
LC-005-005-----0
 62
     7
370
    25
100
AcDbLine
 10
562.44059
 20
373.501658
 30
0.0
 11
564.700682
 21
375.76175
 31
0.0
  0
LINE
  5
4B6
330
49D
100
AcDbEntity
  8
LC-005-005-----0
 62
     7
370
    25
100
AcDbLine
 10
562.44059
 20
374.067344
 30
0.0
 11
564.134996
 21
375.76175
 31
0.0
  0
LINE
  5
4B7
330
49D
100
AcDbEntity
  8
LC-005-005-----0
 62
     7
370
    25
100
AcDbLine
 10
562.44059
 20
374.633029
 30
0.0
 11
563.569311
 21
375.76175
 31
0.0
  0
LINE
  5
4B8
330
49D
100
AcDbEntity
  8
LC-005-005-----0
 62
     7
370
    25
100
AcDbLine
 10
562.44059
 20
375.198715
 30
0.0
 11
563.003626
 21
375.76175
 31
0.0
  0
ENDBLK
  5
49F
330
49D
100
AcDbEntity
  8
0
100
AcDbBlockEnd
  0
BLOCK
  5
4BB
330
4BA
100
AcDbEntity
  8
0
100
AcDbBlockBegin
  2
*X2632
 70
     1
 71
     0
 10
0.0
 20
0.0
 30
0.0
  3
*X2632
  1

  4
*X26
  0
LINE
  5
4BD
330
4BA
100
AcDbEntity
  8
LC-005-005-----0
 62
     7
370
    25
100
AcDbLine
 10
552.081086
 20
371.06175
 30
0.0
 11
552.44059
 21
371.421254
 31
0.0
  0
LINE
  5
4BE
330
4BA
100
AcDbEntity
  8
LC-005-005-----0
 62
     7
370
    25
100
AcDbLine
 10
551.5154
 20
371.06175
 30
0.0
 11
552.44059
 21
371.98694
 31
0.0
  0
LINE
  5
4BF
330
4BA
100
AcDbEntity
  8
LC-005-005-----0
 62
     7
370
    25
100
AcDbLine
 10
550.949715
 20
371.06175
 30
0.0
 11
552.44059
 21
372.552625
 31
0.0
  0
LINE
  5
4C0
330
4BA
100
AcDbEntity
  8
LC-005-005-----0
 62
     7
370
    25
100
AcDbLine
 10
550.38403
 20
371.06175
 30
0.0
 11
552.44059
 21
373.118311
 31
0.0
  0
LINE
  5
4C1
330
4BA
100
AcDbEntity
  8
LC-005-005-----0
 62
     7
370
    25
100
AcDbLine
 10
549.818344
 20
371.06175
 30
0.0
 11
552.44059
 21
373.683996
 31
0.0
  0
LINE
  5
4C2
330
4BA
100
AcDbEntity
  8
LC-005-005-----0
 62
     7
370
    25
100
AcDbLine
 10
549.252659
 20
371.06175
 30
0.0
 11
552.44059
 21
374.249682
 31
0.0
  0
LINE
  5
4C3
330
4BA
100
AcDbEntity
  8
LC-005-005-----0
 62
     7
370
    25
100
AcDbLine
 10
548.686973
 20
371.06175
 30
0.0
 11
552.44059
 21
374.815367
 31
0.0
  0
LINE
  5
4C4
330
4BA
100
AcDbEntity
  8
LC-005-005-----0
 62
     7
370
    25
100
AcDbLine
 10
548.121288
 20
371.06175
 30
0.0
 11
552.44059
 21
375.381052
 31
0.0
  0
LINE
  5
4C5
330
4BA
100
AcDbEntity
  8
LC-005-005-----0
 62
     7
370
    25
100
AcDbLine
 10
547.555602
 20
371.06175
 30
0.0
 11
552.255602
 21
375.76175
 31
0.0
  0
LINE
  5
4C6
330
4BA
100
AcDbEntity
  8
LC-005-005-----0
 62
     7
370
    25
100
AcDbLine
 10
546.989917
 20
371.06175
 30
0.0
 11
551.689917
 21
375.76175
 31
0.0
  0
LINE
  5
4C7
330
4BA
100
AcDbEntity
  8
LC-005-005-----0
 62
     7
370
    25
100
AcDbLine
 10
546.424232
 20
371.06175
 30
0.0
 11
551.124232
 21
375.76175
 31
0.0
  0
LINE
  5
4C8
330
4BA
100
AcDbEntity
  8
LC-005-005-----0
 62
     7
370
    25
100
AcDbLine
 10
545.858546
 20
371.06175
 30
0.0
 11
550.558546
 21
375.76175
 31
0.0
  0
LINE
  5
4C9
330
4BA
100
AcDbEntity
  8
LC-005-005-----0
 62
     7
370
    25
100
AcDbLine
 10
545.292861
 20
371.06175
 30
0.0
 11
549.992861
 21
375.76175
 31
0.0
  0
LINE
  5
4CA
330
4BA
100
AcDbEntity
  8
LC-005-005-----0
 62
     7
370
    25
100
AcDbLine
 10
544.727175
 20
371.06175
 30
0.0
 11
549.427175
 21
375.76175
 31
0.0
  0
LINE
  5
4CB
330
4BA
100
AcDbEntity
  8
LC-005-005-----0
 62
     7
370
    25
100
AcDbLine
 10
544.16149
 20
371.06175
 30
0.0
 11
548.86149
 21
375.76175
 31
0.0
  0
LINE
  5
4CC
330
4BA
100
AcDbEntity
  8
LC-005-005-----0
 62
     7
370
    25
100
AcDbLine
 10
543.595805
 20
371.06175
 30
0.0
 11
548.295805
 21
375.76175
 31
0.0
  0
LINE
  5
4CD
330
4BA
100
AcDbEntity
  8
LC-005-005-----0
 62
     7
370
    25
100
AcDbLine
 10
543.030119
 20
371.06175
 30
0.0
 11
547.730119
 21
375.76175
 31
0.0
  0
LINE
  5
4CE
330
4BA
100
AcDbEntity
  8
LC-005-005-----0
 62
     7
370
    25
100
AcDbLine
 10
542.464434
 20
371.06175
 30
0.0
 11
547.164434
 21
375.76175
 31
0.0
  0
LINE
  5
4CF
330
4BA
100
AcDbEntity
  8
LC-005-005-----0
 62
     7
370
    25
100
AcDbLine
 10
542.44059
 20
371.603592
 30
0.0
 11
546.598748
 21
375.76175
 31
0.0
  0
LINE
  5
4D0
330
4BA
100
AcDbEntity
  8
LC-005-005-----0
 62
     7
370
    25
100
AcDbLine
 10
542.44059
 20
372.169278
 30
0.0
 11
546.033063
 21
375.76175
 31
0.0
  0
LINE
  5
4D1
330
4BA
100
AcDbEntity
  8
LC-005-005-----0
 62
     7
370
    25
100
AcDbLine
 10
542.44059
 20
372.734963
 30
0.0
 11
545.467377
 21
375.76175
 31
0.0
  0
LINE
  5
4D2
330
4BA
100
AcDbEntity
  8
LC-005-005-----0
 62
     7
370
    25
100
AcDbLine
 10
542.44059
 20
373.300648
 30
0.0
 11
544.901692
 21
375.76175
 31
0.0
  0
LINE
  5
4D3
330
4BA
100
AcDbEntity
  8
LC-005-005-----0
 62
     7
370
    25
100
AcDbLine
 10
542.44059
 20
373.866334
 30
0.0
 11
544.336007
 21
375.76175
 31
0.0
  0
LINE
  5
4D4
330
4BA
100
AcDbEntity
  8
LC-005-005-----0
 62
     7
370
    25
100
AcDbLine
 10
542.44059
 20
374.432019
 30
0.0
 11
543.770321
 21
375.76175
 31
0.0
  0
LINE
  5
4D5
330
4BA
100
AcDbEntity
  8
LC-005-005-----0
 62
     7
370
    25
100
AcDbLine
 10
542.44059
 20
374.997705
 30
0.0
 11
543.204636
 21
375.76175
 31
0.0
  0
LINE
  5
4D6
330
4BA
100
AcDbEntity
  8
LC-005-005-----0
 62
     7
370
    25
100
AcDbLine
 10
542.44059
 20
375.56339
 30
0.0
 11
542.63895
 21
375.76175
 31
0.0
  0
ENDBLK
  5
4BC
330
4BA
100
AcDbEntity
  8
0
100
AcDbBlockEnd
  0
BLOCK
  5
4D9
330
4D8
100
AcDbEntity
  8
0
100
AcDbBlockBegin
  2
*X2733
 70
     1
 71
     0
 10
0.0
 20
0.0
 30
0.0
  3
*X2733
  1

  4
*X27
  0
LINE
  5
4DB
330
4D8
100
AcDbEntity
  8
LC-005-005-----0
 62
     7
370
    25
100
AcDbLine
 10
532.282096
 20
371.06175
 30
0.0
 11
532.44059
 21
371.220244
 31
0.0
  0
LINE
  5
4DC
330
4D8
100
AcDbEntity
  8
LC-005-005-----0
 62
     7
370
    25
100
AcDbLine
 10
531.716411
 20
371.06175
 30
0.0
 11
532.44059
 21
371.78593
 31
0.0
  0
LINE
  5
4DD
330
4D8
100
AcDbEntity
  8
LC-005-005-----0
 62
     7
370
    25
100
AcDbLine
 10
531.150725
 20
371.06175
 30
0.0
 11
532.44059
 21
372.351615
 31
0.0
  0
LINE
  5
4DE
330
4D8
100
AcDbEntity
  8
LC-005-005-----0
 62
     7
370
    25
100
AcDbLine
 10
530.58504
 20
371.06175
 30
0.0
 11
532.44059
 21
372.917301
 31
0.0
  0
LINE
  5
4DF
330
4D8
100
AcDbEntity
  8
LC-005-005-----0
 62
     7
370
    25
100
AcDbLine
 10
530.019354
 20
371.06175
 30
0.0
 11
532.44059
 21
373.482986
 31
0.0
  0
LINE
  5
4E0
330
4D8
100
AcDbEntity
  8
LC-005-005-----0
 62
     7
370
    25
100
AcDbLine
 10
529.453669
 20
371.06175
 30
0.0
 11
532.44059
 21
374.048671
 31
0.0
  0
LINE
  5
4E1
330
4D8
100
AcDbEntity
  8
LC-005-005-----0
 62
     7
370
    25
100
AcDbLine
 10
528.887983
 20
371.06175
 30
0.0
 11
532.44059
 21
374.614357
 31
0.0
  0
LINE
  5
4E2
330
4D8
100
AcDbEntity
  8
LC-005-005-----0
 62
     7
370
    25
100
AcDbLine
 10
528.322298
 20
371.06175
 30
0.0
 11
532.44059
 21
375.180042
 31
0.0
  0
LINE
  5
4E3
330
4D8
100
AcDbEntity
  8
LC-005-005-----0
 62
     7
370
    25
100
AcDbLine
 10
527.756613
 20
371.06175
 30
0.0
 11
532.44059
 21
375.745728
 31
0.0
  0
LINE
  5
4E4
330
4D8
100
AcDbEntity
  8
LC-005-005-----0
 62
     7
370
    25
100
AcDbLine
 10
527.190927
 20
371.06175
 30
0.0
 11
531.890927
 21
375.76175
 31
0.0
  0
LINE
  5
4E5
330
4D8
100
AcDbEntity
  8
LC-005-005-----0
 62
     7
370
    25
100
AcDbLine
 10
526.625242
 20
371.06175
 30
0.0
 11
531.325242
 21
375.76175
 31
0.0
  0
LINE
  5
4E6
330
4D8
100
AcDbEntity
  8
LC-005-005-----0
 62
     7
370
    25
100
AcDbLine
 10
526.059556
 20
371.06175
 30
0.0
 11
530.759556
 21
375.76175
 31
0.0
  0
LINE
  5
4E7
330
4D8
100
AcDbEntity
  8
LC-005-005-----0
 62
     7
370
    25
100
AcDbLine
 10
525.493871
 20
371.06175
 30
0.0
 11
530.193871
 21
375.76175
 31
0.0
  0
LINE
  5
4E8
330
4D8
100
AcDbEntity
  8
LC-005-005-----0
 62
     7
370
    25
100
AcDbLine
 10
524.928185
 20
371.06175
 30
0.0
 11
529.628185
 21
375.76175
 31
0.0
  0
LINE
  5
4E9
330
4D8
100
AcDbEntity
  8
LC-005-005-----0
 62
     7
370
    25
100
AcDbLine
 10
524.3625
 20
371.06175
 30
0.0
 11
529.0625
 21
375.76175
 31
0.0
  0
LINE
  5
4EA
330
4D8
100
AcDbEntity
  8
LC-005-005-----0
 62
     7
370
    25
100
AcDbLine
 10
523.796815
 20
371.06175
 30
0.0
 11
528.496815
 21
375.76175
 31
0.0
  0
LINE
  5
4EB
330
4D8
100
AcDbEntity
  8
LC-005-005-----0
 62
     7
370
    25
100
AcDbLine
 10
523.231129
 20
371.06175
 30
0.0
 11
527.931129
 21
375.76175
 31
0.0
  0
LINE
  5
4EC
330
4D8
100
AcDbEntity
  8
LC-005-005-----0
 62
     7
370
    25
100
AcDbLine
 10
522.665444
 20
371.06175
 30
0.0
 11
527.365444
 21
375.76175
 31
0.0
  0
LINE
  5
4ED
330
4D8
100
AcDbEntity
  8
LC-005-005-----0
 62
     7
370
    25
100
AcDbLine
 10
522.44059
 20
371.402582
 30
0.0
 11
526.799758
 21
375.76175
 31
0.0
  0
LINE
  5
4EE
330
4D8
100
AcDbEntity
  8
LC-005-005-----0
 62
     7
370
    25
100
AcDbLine
 10
522.44059
 20
371.968267
 30
0.0
 11
526.234073
 21
375.76175
 31
0.0
  0
LINE
  5
4EF
330
4D8
100
AcDbEntity
  8
LC-005-005-----0
 62
     7
370
    25
100
AcDbLine
 10
522.44059
 20
372.533953
 30
0.0
 11
525.668388
 21
375.76175
 31
0.0
  0
LINE
  5
4F0
330
4D8
100
AcDbEntity
  8
LC-005-005-----0
 62
     7
370
    25
100
AcDbLine
 10
522.44059
 20
373.099638
 30
0.0
 11
525.102702
 21
375.76175
 31
0.0
  0
LINE
  5
4F1
330
4D8
100
AcDbEntity
  8
LC-005-005-----0
 62
     7
370
    25
100
AcDbLine
 10
522.44059
 20
373.665324
 30
0.0
 11
524.537017
 21
375.76175
 31
0.0
  0
LINE
  5
4F2
330
4D8
100
AcDbEntity
  8
LC-005-005-----0
 62
     7
370
    25
100
AcDbLine
 10
522.44059
 20
374.231009
 30
0.0
 11
523.971331
 21
375.76175
 31
0.0
  0
LINE
  5
4F3
330
4D8
100
AcDbEntity
  8
LC-005-005-----0
 62
     7
370
    25
100
AcDbLine
 10
522.44059
 20
374.796694
 30
0.0
 11
523.405646
 21
375.76175
 31
0.0
  0
LINE
  5
4F4
330
4D8
100
AcDbEntity
  8
LC-005-005-----0
 62
     7
370
    25
100
AcDbLine
 10
522.44059
 20
375.36238
 30
0.0
 11
522.83996
 21
375.76175
 31
0.0
  0
ENDBLK
  5
4DA
330
4D8
100
AcDbEntity
  8
0
100
AcDbBlockEnd
  0
BLOCK
  5
4FA
330
4F9
100
AcDbEntity
  8
0
100
AcDbBlockBegin
  2
*X2834
 70
     1
 71
     0
 10
0.0
 20
0.0
 30
0.0
  3
*X2834
  1

  4
*X28
  0
LINE
  5
4FC
330
4F9
100
AcDbEntity
  8
LC-005-005-----0
 62
     7
370
    25
100
AcDbLine
 10
512.397616
 20
370.976259
 30
0.0
 11
512.44059
 21
371.019234
 31
0.0
  0
LINE
  5
4FD
330
4F9
100
AcDbEntity
  8
LC-005-005-----0
 62
     7
370
    25
100
AcDbLine
 10
511.7898
 20
370.934129
 30
0.0
 11
512.44059
 21
371.58492
 31
0.0
  0
LINE
  5
4FE
330
4F9
100
AcDbEntity
  8
LC-005-005-----0
 62
     7
370
    25
100
AcDbLine
 10
511.181984
 20
370.891998
 30
0.0
 11
512.44059
 21
372.150605
 31
0.0
  0
LINE
  5
4FF
330
4F9
100
AcDbEntity
  8
LC-005-005-----0
 62
     7
370
    25
100
AcDbLine
 10
510.574168
 20
370.849868
 30
0.0
 11
512.44059
 21
372.71629
 31
0.0
  0
LINE
  5
500
330
4F9
100
AcDbEntity
  8
LC-005-005-----0
 62
     7
370
    25
100
AcDbLine
 10
509.966352
 20
370.807737
 30
0.0
 11
512.44059
 21
373.281976
 31
0.0
  0
LINE
  5
501
330
4F9
100
AcDbEntity
  8
LC-005-005-----0
 62
     7
370
    25
100
AcDbLine
 10
509.358536
 20
370.765606
 30
0.0
 11
512.44059
 21
373.847661
 31
0.0
  0
LINE
  5
502
330
4F9
100
AcDbEntity
  8
LC-005-005-----0
 62
     7
370
    25
100
AcDbLine
 10
508.75072
 20
370.723476
 30
0.0
 11
512.44059
 21
374.413347
 31
0.0
  0
LINE
  5
503
330
4F9
100
AcDbEntity
  8
LC-005-005-----0
 62
     7
370
    25
100
AcDbLine
 10
508.142904
 20
370.681345
 30
0.0
 11
512.44059
 21
374.979032
 31
0.0
  0
LINE
  5
504
330
4F9
100
AcDbEntity
  8
LC-005-005-----0
 62
     7
370
    25
100
AcDbLine
 10
507.535088
 20
370.639215
 30
0.0
 11
512.44059
 21
375.544718
 31
0.0
  0
LINE
  5
505
330
4F9
100
AcDbEntity
  8
LC-005-005-----0
 62
     7
370
    25
100
AcDbLine
 10
506.927272
 20
370.597084
 30
0.0
 11
511.989431
 21
375.659243
 31
0.0
  0
LINE
  5
506
330
4F9
100
AcDbEntity
  8
LC-005-005-----0
 62
     7
370
    25
100
AcDbLine
 10
506.319456
 20
370.554954
 30
0.0
 11
511.381615
 21
375.617113
 31
0.0
  0
LINE
  5
507
330
4F9
100
AcDbEntity
  8
LC-005-005-----0
 62
     7
370
    25
100
AcDbLine
 10
505.71164
 20
370.512823
 30
0.0
 11
510.773799
 21
375.574982
 31
0.0
  0
LINE
  5
508
330
4F9
100
AcDbEntity
  8
LC-005-005-----0
 62
     7
370
    25
100
AcDbLine
 10
505.103823
 20
370.470692
 30
0.0
 11
510.165983
 21
375.532852
 31
0.0
  0
LINE
  5
509
330
4F9
100
AcDbEntity
  8
LC-005-005-----0
 62
     7
370
    25
100
AcDbLine
 10
504.496007
 20
370.428562
 30
0.0
 11
509.558167
 21
375.490721
 31
0.0
  0
LINE
  5
50A
330
4F9
100
AcDbEntity
  8
LC-005-005-----0
 62
     7
370
    25
100
AcDbLine
 10
503.888191
 20
370.386431
 30
0.0
 11
508.950351
 21
375.44859
 31
0.0
  0
LINE
  5
50B
330
4F9
100
AcDbEntity
  8
LC-005-005-----0
 62
     7
370
    25
100
AcDbLine
 10
503.280375
 20
370.344301
 30
0.0
 11
508.342535
 21
375.40646
 31
0.0
  0
LINE
  5
50C
330
4F9
100
AcDbEntity
  8
LC-005-005-----0
 62
     7
370
    25
100
AcDbLine
 10
502.672559
 20
370.30217
 30
0.0
 11
507.734719
 21
375.364329
 31
0.0
  0
LINE
  5
50D
330
4F9
100
AcDbEntity
  8
LC-005-005-----0
 62
     7
370
    25
100
AcDbLine
 10
502.44059
 20
370.635886
 30
0.0
 11
507.126903
 21
375.322199
 31
0.0
  0
LINE
  5
50E
330
4F9
100
AcDbEntity
  8
LC-005-005-----0
 62
     7
370
    25
100
AcDbLine
 10
502.44059
 20
371.201572
 30
0.0
 11
506.519087
 21
375.280068
 31
0.0
  0
LINE
  5
50F
330
4F9
100
AcDbEntity
  8
LC-005-005-----0
 62
     7
370
    25
100
AcDbLine
 10
502.44059
 20
371.767257
 30
0.0
 11
505.911271
 21
375.237937
 31
0.0
  0
LINE
  5
510
330
4F9
100
AcDbEntity
  8
LC-005-005-----0
 62
     7
370
    25
100
AcDbLine
 10
502.44059
 20
372.332943
 30
0.0
 11
505.303455
 21
375.195807
 31
0.0
  0
LINE
  5
511
330
4F9
100
AcDbEntity
  8
LC-005-005-----0
 62
     7
370
    25
100
AcDbLine
 10
502.44059
 20
372.898628
 30
0.0
 11
504.695639
 21
375.153676
 31
0.0
  0
LINE
  5
512
330
4F9
100
AcDbEntity
  8
LC-005-005-----0
 62
     7
370
    25
100
AcDbLine
 10
502.44059
 20
373.464314
 30
0.0
 11
504.087823
 21
375.111546
 31
0.0
  0
LINE
  5
513
330
4F9
100
AcDbEntity
  8
LC-005-005-----0
 62
     7
370
    25
100
AcDbLine
 10
502.44059
 20
374.029999
 30
0.0
 11
503.480007
 21
375.069415
 31
0.0
  0
LINE
  5
514
330
4F9
100
AcDbEntity
  8
LC-005-005-----0
 62
     7
370
    25
100
AcDbLine
 10
502.44059
 20
374.595684
 30
0.0
 11
502.872191
 21
375.027284
 31
0.0
  0
ENDBLK
  5
4FB
330
4F9
100
AcDbEntity
  8
0
100
AcDbBlockEnd
  0
BLOCK
  5
517
330
516
100
AcDbEntity
  8
0
100
AcDbBlockBegin
  2
*X2935
 70
     1
 71
     0
 10
0.0
 20
0.0
 30
0.0
  3
*X2935
  1

  4
*X29
  0
LINE
  5
519
330
516
100
AcDbEntity
  8
LC-005-005-----0
 62
     7
370
    25
100
AcDbLine
 10
492.339687
 20
369.58595
 30
0.0
 11
492.44059
 21
369.686853
 31
0.0
  0
LINE
  5
51A
330
516
100
AcDbEntity
  8
LC-005-005-----0
 62
     7
370
    25
100
AcDbLine
 10
491.731871
 20
369.543819
 30
0.0
 11
492.44059
 21
370.252539
 31
0.0
  0
LINE
  5
51B
330
516
100
AcDbEntity
  8
LC-005-005-----0
 62
     7
370
    25
100
AcDbLine
 10
491.124055
 20
369.501689
 30
0.0
 11
492.44059
 21
370.818224
 31
0.0
  0
LINE
  5
51C
330
516
100
AcDbEntity
  8
LC-005-005-----0
 62
     7
370
    25
100
AcDbLine
 10
490.516239
 20
369.459558
 30
0.0
 11
492.44059
 21
371.383909
 31
0.0
  0
LINE
  5
51D
330
516
100
AcDbEntity
  8
LC-005-005-----0
 62
     7
370
    25
100
AcDbLine
 10
489.908423
 20
369.417428
 30
0.0
 11
492.44059
 21
371.949595
 31
0.0
  0
LINE
  5
51E
330
516
100
AcDbEntity
  8
LC-005-005-----0
 62
     7
370
    25
100
AcDbLine
 10
489.300607
 20
369.375297
 30
0.0
 11
492.44059
 21
372.51528
 31
0.0
  0
LINE
  5
51F
330
516
100
AcDbEntity
  8
LC-005-005-----0
 62
     7
370
    25
100
AcDbLine
 10
488.692791
 20
369.333166
 30
0.0
 11
492.44059
 21
373.080966
 31
0.0
  0
LINE
  5
520
330
516
100
AcDbEntity
  8
LC-005-005-----0
 62
     7
370
    25
100
AcDbLine
 10
488.084975
 20
369.291036
 30
0.0
 11
492.44059
 21
373.646651
 31
0.0
  0
LINE
  5
521
330
516
100
AcDbEntity
  8
LC-005-005-----0
 62
     7
370
    25
100
AcDbLine
 10
487.477159
 20
369.248905
 30
0.0
 11
492.44059
 21
374.212337
 31
0.0
  0
LINE
  5
522
330
516
100
AcDbEntity
  8
LC-005-005-----0
 62
     7
370
    25
100
AcDbLine
 10
486.869343
 20
369.206775
 30
0.0
 11
491.931502
 21
374.268934
 31
0.0
  0
LINE
  5
523
330
516
100
AcDbEntity
  8
LC-005-005-----0
 62
     7
370
    25
100
AcDbLine
 10
486.261527
 20
369.164644
 30
0.0
 11
491.323686
 21
374.226803
 31
0.0
  0
LINE
  5
524
330
516
100
AcDbEntity
  8
LC-005-005-----0
 62
     7
370
    25
100
AcDbLine
 10
485.653711
 20
369.122514
 30
0.0
 11
490.71587
 21
374.184673
 31
0.0
  0
LINE
  5
525
330
516
100
AcDbEntity
  8
LC-005-005-----0
 62
     7
370
    25
100
AcDbLine
 10
485.045895
 20
369.080383
 30
0.0
 11
490.108054
 21
374.142542
 31
0.0
  0
LINE
  5
526
330
516
100
AcDbEntity
  8
LC-005-005-----0
 62
     7
370
    25
100
AcDbLine
 10
484.438079
 20
369.038252
 30
0.0
 11
489.500238
 21
374.100412
 31
0.0
  0
LINE
  5
527
330
516
100
AcDbEntity
  8
LC-005-005-----0
 62
     7
370
    25
100
AcDbLine
 10
483.830263
 20
368.996122
 30
0.0
 11
488.892422
 21
374.058281
 31
0.0
  0
LINE
  5
528
330
516
100
AcDbEntity
  8
LC-005-005-----0
 62
     7
370
    25
100
AcDbLine
 10
483.222447
 20
368.953991
 30
0.0
 11
488.284606
 21
374.01615
 31
0.0
  0
LINE
  5
529
330
516
100
AcDbEntity
  8
LC-005-005-----0
 62
     7
370
    25
100
AcDbLine
 10
482.614631
 20
368.911861
 30
0.0
 11
487.67679
 21
373.97402
 31
0.0
  0
LINE
  5
52A
330
516
100
AcDbEntity
  8
LC-005-005-----0
 62
     7
370
    25
100
AcDbLine
 10
482.44059
 20
369.303505
 30
0.0
 11
487.068974
 21
373.931889
 31
0.0
  0
LINE
  5
52B
330
516
100
AcDbEntity
  8
LC-005-005-----0
 62
     7
370
    25
100
AcDbLine
 10
482.44059
 20
369.869191
 30
0.0
 11
486.461158
 21
373.889759
 31
0.0
  0
LINE
  5
52C
330
516
100
AcDbEntity
  8
LC-005-005-----0
 62
     7
370
    25
100
AcDbLine
 10
482.44059
 20
370.434876
 30
0.0
 11
485.853342
 21
373.847628
 31
0.0
  0
LINE
  5
52D
330
516
100
AcDbEntity
  8
LC-005-005-----0
 62
     7
370
    25
100
AcDbLine
 10
482.44059
 20
371.000562
 30
0.0
 11
485.245526
 21
373.805497
 31
0.0
  0
LINE
  5
52E
330
516
100
AcDbEntity
  8
LC-005-005-----0
 62
     7
370
    25
100
AcDbLine
 10
482.44059
 20
371.566247
 30
0.0
 11
484.63771
 21
373.763367
 31
0.0
  0
LINE
  5
52F
330
516
100
AcDbEntity
  8
LC-005-005-----0
 62
     7
370
    25
100
AcDbLine
 10
482.44059
 20
372.131933
 30
0.0
 11
484.029894
 21
373.721236
 31
0.0
  0
LINE
  5
530
330
516
100
AcDbEntity
  8
LC-005-005-----0
 62
     7
370
    25
100
AcDbLine
 10
482.44059
 20
372.697618
 30
0.0
 11
483.422078
 21
373.679106
 31
0.0
  0
LINE
  5
531
330
516
100
AcDbEntity
  8
LC-005-005-----0
 62
     7
370
    25
100
AcDbLine
 10
482.44059
 20
373.263303
 30
0.0
 11
482.814262
 21
373.636975
 31
0.0
  0
ENDBLK
  5
518
330
516
100
AcDbEntity
  8
0
100
AcDbBlockEnd
  0
BLOCK
  5
538
330
537
100
AcDbEntity
  8
0
100
AcDbBlockBegin
  2
*X3036
 70
     1
 71
     0
 10
0.0
 20
0.0
 30
0.0
  3
*X3036
  1

  4
*X30
  0
LINE
  5
53A
330
537
100
AcDbEntity
  8
LC-005-005-----0
 62
     7
370
    25
100
AcDbLine
 10
471.901621
 20
367.249817
 30
0.0
 11
472.44059
 21
367.788787
 31
0.0
  0
LINE
  5
53B
330
537
100
AcDbEntity
  8
LC-005-005-----0
 62
     7
370
    25
100
AcDbLine
 10
470.969572
 20
366.883454
 30
0.0
 11
472.44059
 21
368.354472
 31
0.0
  0
LINE
  5
53C
330
537
100
AcDbEntity
  8
LC-005-005-----0
 62
     7
370
    25
100
AcDbLine
 10
470.104058
 20
366.583626
 30
0.0
 11
472.44059
 21
368.920158
 31
0.0
  0
LINE
  5
53D
330
537
100
AcDbEntity
  8
LC-005-005-----0
 62
     7
370
    25
100
AcDbLine
 10
469.29059
 20
366.335843
 30
0.0
 11
472.44059
 21
369.485843
 31
0.0
  0
LINE
  5
53E
330
537
100
AcDbEntity
  8
LC-005-005-----0
 62
     7
370
    25
100
AcDbLine
 10
468.51944
 20
366.130378
 30
0.0
 11
472.44059
 21
370.051528
 31
0.0
  0
LINE
  5
53F
330
537
100
AcDbEntity
  8
LC-005-005-----0
 62
     7
370
    25
100
AcDbLine
 10
467.7837
 20
365.960324
 30
0.0
 11
472.44059
 21
370.617214
 31
0.0
  0
LINE
  5
540
330
537
100
AcDbEntity
  8
LC-005-005-----0
 62
     7
370
    25
100
AcDbLine
 10
467.086781
 20
365.82909
 30
0.0
 11
472.44059
 21
371.182899
 31
0.0
  0
LINE
  5
541
330
537
100
AcDbEntity
  8
LC-005-005-----0
 62
     7
370
    25
100
AcDbLine
 10
466.476767
 20
365.784761
 30
0.0
 11
472.44059
 21
371.748585
 31
0.0
  0
LINE
  5
542
330
537
100
AcDbEntity
  8
LC-005-005-----0
 62
     7
370
    25
100
AcDbLine
 10
465.866752
 20
365.740432
 30
0.0
 11
472.44059
 21
372.31427
 31
0.0
  0
LINE
  5
543
330
537
100
AcDbEntity
  8
LC-005-005-----0
 62
     7
370
    25
100
AcDbLine
 10
465.256737
 20
365.696102
 30
0.0
 11
472.181456
 21
372.620822
 31
0.0
  0
LINE
  5
544
330
537
100
AcDbEntity
  8
LC-005-005-----0
 62
     7
370
    25
100
AcDbLine
 10
464.646722
 20
365.651773
 30
0.0
 11
470.985824
 21
371.990875
 31
0.0
  0
LINE
  5
545
330
537
100
AcDbEntity
  8
LC-005-005-----0
 62
     7
370
    25
100
AcDbLine
 10
464.036707
 20
365.607443
 30
0.0
 11
469.966349
 21
371.537085
 31
0.0
  0
LINE
  5
546
330
537
100
AcDbEntity
  8
LC-005-005-----0
 62
     7
370
    25
100
AcDbLine
 10
463.426693
 20
365.563114
 30
0.0
 11
469.054621
 21
371.191043
 31
0.0
  0
LINE
  5
547
330
537
100
AcDbEntity
  8
LC-005-005-----0
 62
     7
370
    25
100
AcDbLine
 10
462.816678
 20
365.518785
 30
0.0
 11
468.218178
 21
370.920285
 31
0.0
  0
LINE
  5
548
330
537
100
AcDbEntity
  8
LC-005-005-----0
 62
     7
370
    25
100
AcDbLine
 10
462.44059
 20
365.708383
 30
0.0
 11
467.43854
 21
370.706333
 31
0.0
  0
LINE
  5
549
330
537
100
AcDbEntity
  8
LC-005-005-----0
 62
     7
370
    25
100
AcDbLine
 10
462.44059
 20
366.274068
 30
0.0
 11
466.703983
 21
370.537461
 31
0.0
  0
LINE
  5
54A
330
537
100
AcDbEntity
  8
LC-005-005-----0
 62
     7
370
    25
100
AcDbLine
 10
462.44059
 20
366.839754
 30
0.0
 11
466.066319
 21
370.465482
 31
0.0
  0
LINE
  5
54B
330
537
100
AcDbEntity
  8
LC-005-005-----0
 62
     7
370
    25
100
AcDbLine
 10
462.44059
 20
367.405439
 30
0.0
 11
465.456304
 21
370.421152
 31
0.0
  0
LINE
  5
54C
330
537
100
AcDbEntity
  8
LC-005-005-----0
 62
     7
370
    25
100
AcDbLine
 10
462.44059
 20
367.971124
 30
0.0
 11
464.846289
 21
370.376823
 31
0.0
  0
LINE
  5
54D
330
537
100
AcDbEntity
  8
LC-005-005-----0
 62
     7
370
    25
100
AcDbLine
 10
462.44059
 20
368.53681
 30
0.0
 11
464.236274
 21
370.332494
 31
0.0
  0
LINE
  5
54E
330
537
100
AcDbEntity
  8
LC-005-005-----0
 62
     7
370
    25
100
AcDbLine
 10
462.44059
 20
369.102495
 30
0.0
 11
463.626259
 21
370.288164
 31
0.0
  0
LINE
  5
54F
330
537
100
AcDbEntity
  8
LC-005-005-----0
 62
     7
370
    25
100
AcDbLine
 10
462.44059
 20
369.668181
 30
0.0
 11
463.016245
 21
370.243835
 31
0.0
  0
ENDBLK
  5
539
330
537
100
AcDbEntity
  8
0
100
AcDbBlockEnd
  0
BLOCK
  5
56B
330
56A
100
AcDbEntity
  8
0
100
AcDbBlockBegin
  2
*X3137
 70
     1
 71
     0
 10
0.0
 20
0.0
 30
0.0
  3
*X3137
  1

  4
*X31
  0
LINE
  5
56D
330
56A
100
AcDbEntity
  8
LC-005-005-----0
 62
     7
370
    25
100
AcDbLine
 10
438.955543
 20
339.960594
 30
0.0
 11
439.78405
 21
340.7891
 31
0.0
  0
LINE
  5
56E
330
56A
100
AcDbEntity
  8
LC-005-005-----0
 62
     7
370
    25
100
AcDbLine
 10
436.017789
 20
339.851266
 30
0.0
 11
436.717789
 21
340.551266
 31
0.0
  0
LINE
  5
56F
330
56A
100
AcDbEntity
  8
LC-005-005-----0
 62
     7
370
    25
100
AcDbLine
 10
438.320451
 20
342.153929
 30
0.0
 11
438.921676
 21
342.755154
 31
0.0
  0
LINE
  5
570
330
56A
100
AcDbEntity
  8
LC-005-005-----0
 62
     7
370
    25
100
AcDbLine
 10
466.869204
 20
370.702681
 30
0.0
 11
468.176829
 21
372.010307
 31
0.0
  0
LINE
  5
571
330
56A
100
AcDbEntity
  8
LC-005-005-----0
 62
     7
370
    25
100
AcDbLine
 10
437.393377
 20
344.055282
 30
0.0
 11
438.093377
 21
344.755282
 31
0.0
  0
LINE
  5
572
330
56A
100
AcDbEntity
  8
LC-005-005-----0
 62
     7
370
    25
100
AcDbLine
 10
439.178575
 20
345.84048
 30
0.0
 11
441.804164
 21
348.466069
 31
0.0
  0
LINE
  5
573
330
56A
100
AcDbEntity
  8
LC-005-005-----0
 62
     7
370
    25
100
AcDbLine
 10
463.675397
 20
370.337302
 30
0.0
 11
464.418488
 21
371.080393
 31
0.0
  0
LINE
  5
574
330
56A
100
AcDbEntity
  8
LC-005-005-----0
 62
     7
370
    25
100
AcDbLine
 10
441.193377
 20
350.683709
 30
0.0
 11
441.893377
 21
351.383709
 31
0.0
  0
LINE
  5
575
330
56A
100
AcDbEntity
  8
LC-005-005-----0
 62
     7
370
    25
100
AcDbLine
 10
460.634317
 20
370.124649
 30
0.0
 11
461.377408
 21
370.86774
 31
0.0
  0
LINE
  5
576
330
56A
100
AcDbEntity
  8
LC-005-005-----0
 62
     7
370
    25
100
AcDbLine
 10
441.193377
 20
353.512137
 30
0.0
 11
441.893377
 21
354.212137
 31
0.0
  0
LINE
  5
577
330
56A
100
AcDbEntity
  8
LC-005-005-----0
 62
     7
370
    25
100
AcDbLine
 10
457.593237
 20
369.911996
 30
0.0
 11
458.336328
 21
370.655087
 31
0.0
  0
LINE
  5
578
330
56A
100
AcDbEntity
  8
LC-005-005-----0
 62
     7
370
    25
100
AcDbLine
 10
441.193377
 20
356.340564
 30
0.0
 11
441.893377
 21
357.040564
 31
0.0
  0
LINE
  5
579
330
56A
100
AcDbEntity
  8
LC-005-005-----0
 62
     7
370
    25
100
AcDbLine
 10
454.552157
 20
369.699343
 30
0.0
 11
455.295248
 21
370.442434
 31
0.0
  0
LINE
  5
57A
330
56A
100
AcDbEntity
  8
LC-005-005-----0
 62
     7
370
    25
100
AcDbLine
 10
441.193377
 20
359.168991
 30
0.0
 11
441.893377
 21
359.868991
 31
0.0
  0
LINE
  5
57B
330
56A
100
AcDbEntity
  8
LC-005-005-----0
 62
     7
370
    25
100
AcDbLine
 10
451.511077
 20
369.48669
 30
0.0
 11
452.254168
 21
370.229781
 31
0.0
  0
LINE
  5
57C
330
56A
100
AcDbEntity
  8
LC-005-005-----0
 62
     7
370
    25
100
AcDbLine
 10
441.193377
 20
361.997418
 30
0.0
 11
441.893377
 21
362.697418
 31
0.0
  0
LINE
  5
57D
330
56A
100
AcDbEntity
  8
LC-005-005-----0
 62
     7
370
    25
100
AcDbLine
 10
448.469996
 20
369.274037
 30
0.0
 11
449.213088
 21
370.017128
 31
0.0
  0
LINE
  5
57E
330
56A
100
AcDbEntity
  8
LC-005-005-----0
 62
     7
370
    25
100
AcDbLine
 10
441.574489
 20
365.206957
 30
0.0
 11
443.430152
 21
367.062619
 31
0.0
  0
LINE
  5
57F
330
56A
100
AcDbEntity
  8
LC-005-005-----0
 62
     7
370
    25
100
AcDbLine
 10
444.070068
 20
367.702536
 30
0.0
 11
445.91515
 21
369.547618
 31
0.0
  0
ENDBLK
  5
56C
330
56A
100
AcDbEntity
  8
0
100
AcDbBlockEnd
  0
BLOCK
  5
5B3
330
5A9
100
AcDbEntity
  8
0
100
AcDbBlockBegin
  2
*D38
 70
     1
 71
     0
 10
0.0
 20
0.0
 30
0.0
  3
*D38
  1

  0
LINE
  5
5AA
330
5A9
100
AcDbEntity
  8
LC-007-003-----0
 62
     2
370
    -2
100
AcDbLine
 10
112.821376
 20
375.76175
 30
0.0
 11
112.821376
 21
497.214
 31
0.0
  0
LINE
  5
5AB
330
5A9
100
AcDbEntity
  8
LC-007-003-----0
 62
     2
370
    -2
100
AcDbLine
 10
612.44059
 20
375.76175
 30
0.0
 11
612.44059
 21
497.214
 31
0.0
  0
LINE
  5
5AC
330
5A9
100
AcDbEntity
  8
LC-007-003-----0
 62
     2
370
    -2
100
AcDbLine
 10
140.821376
 20
493.614
 30
0.0
 11
584.44059
 21
493.614
 31
0.0
  0
SOLID
  5
5AD
330
5A9
100
AcDbEntity
  8
LC-007-003-----0
 62
     2
100
AcDbTrace
 10
140.821376
 20
498.280667
 30
0.0
 11
140.821376
 21
488.947333
 31
0.0
 12
112.821376
 22
493.614
 32
0.0
 13
112.821376
 23
493.614
 33
0.0
  0
SOLID
  5
5AE
330
5A9
100
AcDbEntity
  8
LC-007-003-----0
 62
     2
100
AcDbTrace
 10
584.44059
 20
488.947333
 30
0.0
 11
584.44059
 21
498.280667
 31
0.0
 12
612.44059
 22
493.614
 32
0.0
 13
612.44059
 23
493.614
 33
0.0
  0
MTEXT
  5
5AF
330
5A9
100
AcDbEntity
  8
LC-007-003-----0
 62
     2
100
AcDbMText
 10
363.56141
 20
524.414
 30
0.0
 40
28.0
 41
0.0
 71
     5
 72
     1
  1
\A1;%%c500
  7
LCTX15-400-0-0pDIN-Schrift
 73
     1
 44
1.0
  0
POINT
  5
5B0
330
5A9
100
AcDbEntity
  8
Defpoints
 62
     0
100
AcDbPoint
 10
112.821376
 20
375.76175
 30
0.0
  0
POINT
  5
5B1
330
5A9
100
AcDbEntity
  8
Defpoints
 62
     0
100
AcDbPoint
 10
612.44059
 20
375.76175
 30
0.0
  0
POINT
  5
5B2
330
5A9
100
AcDbEntity
  8
Defpoints
 62
     0
100
AcDbPoint
 10
612.44059
 20
493.614
 30
0.0
  0
ENDBLK
  5
5B4
330
5A9
100
AcDbEntity
  8
0
100
AcDbBlockEnd
  0
BLOCK
  5
5BD
330
5BC
100
AcDbEntity
  8
0
100
AcDbBlockBegin
  2
*X3239
 70
     1
 71
     0
 10
0.0
 20
0.0
 30
0.0
  3
*X3239
  1

  4
*X32
  0
LINE
  5
5BF
330
5BC
100
AcDbEntity
  8
LC-005-005-----0
 62
     7
370
    25
100
AcDbLine
 10
448.197833
 20
349.202883
 30
0.0
 11
449.025185
 21
350.030236
 31
0.0
  0
LINE
  5
5C0
330
5BC
100
AcDbEntity
  8
LC-005-005-----0
 62
     7
370
    25
100
AcDbLine
 10
446.768567
 20
350.602045
 30
0.0
 11
449.025185
 21
352.858663
 31
0.0
  0
LINE
  5
5C1
330
5BC
100
AcDbEntity
  8
LC-005-005-----0
 62
     7
370
    25
100
AcDbLine
 10
452.354977
 20
356.188455
 30
0.0
 11
453.884511
 21
357.717988
 31
0.0
  0
LINE
  5
5C2
330
5BC
100
AcDbEntity
  8
LC-005-005-----0
 62
     7
370
    25
100
AcDbLine
 10
446.012422
 20
352.674327
 30
0.0
 11
449.025185
 21
355.68709
 31
0.0
  0
LINE
  5
5C3
330
5BC
100
AcDbEntity
  8
LC-005-005-----0
 62
     7
370
    25
100
AcDbLine
 10
450.743129
 20
357.405034
 30
0.0
 11
453.884511
 21
360.546415
 31
0.0
  0
LINE
  5
5C4
330
5BC
100
AcDbEntity
  8
LC-005-005-----0
 62
     7
370
    25
100
AcDbLine
 10
441.953158
 20
351.44349
 30
0.0
 11
449.025185
 21
358.515517
 31
0.0
  0
LINE
  5
5C5
330
5BC
100
AcDbEntity
  8
LC-005-005-----0
 62
     7
370
    25
100
AcDbLine
 10
450.743129
 20
360.233461
 30
0.0
 11
453.884511
 21
363.374843
 31
0.0
  0
LINE
  5
5C6
330
5BC
100
AcDbEntity
  8
LC-005-005-----0
 62
     7
370
    25
100
AcDbLine
 10
446.719363
 20
359.038122
 30
0.0
 11
449.025185
 21
361.343945
 31
0.0
  0
LINE
  5
5C7
330
5BC
100
AcDbEntity
  8
LC-005-005-----0
 62
     7
370
    25
100
AcDbLine
 10
449.736543
 20
362.055302
 30
0.0
 11
452.500651
 21
364.81941
 31
0.0
  0
LINE
  5
5C8
330
5BC
100
AcDbEntity
  8
LC-005-005-----0
 62
     7
370
    25
100
AcDbLine
 10
443.977866
 20
359.125052
 30
0.0
 11
449.459642
 21
364.606828
 31
0.0
  0
ENDBLK
  5
5BE
330
5BC
100
AcDbEntity
  8
0
100
AcDbBlockEnd
  0
BLOCK
  5
5DF
330
5DE
100
AcDbEntity
  8
0
100
AcDbBlockBegin
  2
*X3340
 70
     1
 71
     0
 10
0.0
 20
0.0
 30
0.0
  3
*X3340
  1

  4
*X33
  0
LINE
  5
5E1
330
5DE
100
AcDbEntity
  8
LC-005-005-----0
 62
     7
370
    25
100
AcDbLine
 10
278.491978
 20
349.202656
 30
0.0
 11
278.493484
 21
349.204162
 31
0.0
  0
LINE
  5
5E2
330
5DE
100
AcDbEntity
  8
LC-005-005-----0
 62
     7
370
    25
100
AcDbLine
 10
281.367912
 20
352.07859
 30
0.0
 11
282.360949
 21
353.071627
 31
0.0
  0
LINE
  5
5E3
330
5DE
100
AcDbEntity
  8
LC-005-005-----0
 62
     7
370
    25
100
AcDbLine
 10
276.236822
 20
349.775927
 30
0.0
 11
278.58082
 21
352.119925
 31
0.0
  0
LINE
  5
5E4
330
5DE
100
AcDbEntity
  8
LC-005-005-----0
 62
     7
370
    25
100
AcDbLine
 10
279.075191
 20
352.614296
 30
0.0
 11
280.996088
 21
354.535194
 31
0.0
  0
LINE
  5
5E5
330
5DE
100
AcDbEntity
  8
LC-005-005-----0
 62
     7
370
    25
100
AcDbLine
 10
276.236814
 20
352.604346
 30
0.0
 11
279.631228
 21
355.99876
 31
0.0
  0
LINE
  5
5E6
330
5DE
100
AcDbEntity
  8
LC-005-005-----0
 62
     7
370
    25
100
AcDbLine
 10
282.364207
 20
358.73174
 30
0.0
 11
283.016623
 21
359.384155
 31
0.0
  0
LINE
  5
5E7
330
5DE
100
AcDbEntity
  8
LC-005-005-----0
 62
     7
370
    25
100
AcDbLine
 10
276.236806
 20
355.432766
 30
0.0
 11
278.49325
 21
357.68921
 31
0.0
  0
LINE
  5
5E8
330
5DE
100
AcDbEntity
  8
LC-005-005-----0
 62
     7
370
    25
100
AcDbLine
 10
280.290496
 20
359.486455
 30
0.0
 11
281.651762
 21
360.847722
 31
0.0
  0
LINE
  5
5E9
330
5DE
100
AcDbEntity
  8
LC-005-005-----0
 62
     7
370
    25
100
AcDbLine
 10
274.081688
 20
356.106075
 30
0.0
 11
274.51886
 21
356.543247
 31
0.0
  0
LINE
  5
5EA
330
5DE
100
AcDbEntity
  8
LC-005-005-----0
 62
     7
370
    25
100
AcDbLine
 10
276.236799
 20
358.261185
 30
0.0
 11
280.286902
 21
362.311288
 31
0.0
  0
LINE
  5
5EB
330
5DE
100
AcDbEntity
  8
LC-005-005-----0
 62
     7
370
    25
100
AcDbLine
 10
271.689769
 20
356.542583
 30
0.0
 11
274.518852
 21
359.371666
 31
0.0
  0
LINE
  5
5EC
330
5DE
100
AcDbEntity
  8
LC-005-005-----0
 62
     7
370
    25
100
AcDbLine
 10
276.236791
 20
361.089605
 30
0.0
 11
278.922041
 21
363.774855
 31
0.0
  0
LINE
  5
5ED
330
5DE
100
AcDbEntity
  8
LC-005-005-----0
 62
     7
370
    25
100
AcDbLine
 10
271.377471
 20
359.058712
 30
0.0
 11
276.85198
 21
364.533221
 31
0.0
  0
LINE
  5
5EE
330
5DE
100
AcDbEntity
  8
LC-005-005-----0
 62
     7
370
    25
100
AcDbLine
 10
271.377464
 20
361.887132
 30
0.0
 11
274.208349
 21
364.718017
 31
0.0
  0
LINE
  5
5EF
330
5DE
100
AcDbEntity
  8
LC-005-005-----0
 62
     7
370
    25
100
AcDbLine
 10
271.377456
 20
364.715551
 30
0.0
 11
271.564718
 21
364.902813
 31
0.0
  0
ENDBLK
  5
5E0
330
5DE
100
AcDbEntity
  8
0
100
AcDbBlockEnd
  0
BLOCK
  5
62C
330
62B
100
AcDbEntity
  8
0
100
AcDbBlockBegin
  2
*X3441
 70
     1
 71
     0
 10
0.0
 20
0.0
 30
0.0
  3
*X3441
  1

  4
*X34
  0
LINE
  5
62E
330
62B
100
AcDbEntity
  8
LC-005-005-----0
 62
     7
370
    25
100
AcDbLine
 10
534.324957
 20
335.416383
 30
0.0
 11
532.171762
 21
337.569579
 31
0.0
  0
LINE
  5
62F
330
62B
100
AcDbEntity
  8
LC-005-005-----0
 62
     7
370
    25
100
AcDbLine
 10
530.789423
 20
335.416383
 30
0.0
 11
528.089423
 21
338.116383
 31
0.0
  0
LINE
  5
630
330
62B
100
AcDbEntity
  8
LC-005-005-----0
 62
     7
370
    25
100
AcDbLine
 10
527.25389
 20
335.416383
 30
0.0
 11
524.55389
 21
338.116383
 31
0.0
  0
LINE
  5
631
330
62B
100
AcDbEntity
  8
LC-005-005-----0
 62
     7
370
    25
100
AcDbLine
 10
523.718356
 20
335.416383
 30
0.0
 11
521.018356
 21
338.116383
 31
0.0
  0
LINE
  5
632
330
62B
100
AcDbEntity
  8
LC-005-005-----0
 62
     7
370
    25
100
AcDbLine
 10
520.182822
 20
335.416383
 30
0.0
 11
517.482822
 21
338.116383
 31
0.0
  0
LINE
  5
633
330
62B
100
AcDbEntity
  8
LC-005-005-----0
 62
     7
370
    25
100
AcDbLine
 10
516.647288
 20
335.416383
 30
0.0
 11
513.947288
 21
338.116383
 31
0.0
  0
LINE
  5
634
330
62B
100
AcDbEntity
  8
LC-005-005-----0
 62
     7
370
    25
100
AcDbLine
 10
513.111754
 20
335.416383
 30
0.0
 11
510.411754
 21
338.116383
 31
0.0
  0
LINE
  5
635
330
62B
100
AcDbEntity
  8
LC-005-005-----0
 62
     7
370
    25
100
AcDbLine
 10
509.57622
 20
335.416383
 30
0.0
 11
506.87622
 21
338.116383
 31
0.0
  0
LINE
  5
636
330
62B
100
AcDbEntity
  8
LC-005-005-----0
 62
     7
370
    25
100
AcDbLine
 10
506.040686
 20
335.416383
 30
0.0
 11
503.340686
 21
338.116383
 31
0.0
  0
LINE
  5
637
330
62B
100
AcDbEntity
  8
LC-005-005-----0
 62
     7
370
    25
100
AcDbLine
 10
502.505152
 20
335.416383
 30
0.0
 11
499.805152
 21
338.116383
 31
0.0
  0
LINE
  5
638
330
62B
100
AcDbEntity
  8
LC-005-005-----0
 62
     7
370
    25
100
AcDbLine
 10
498.969618
 20
335.416383
 30
0.0
 11
496.269618
 21
338.116383
 31
0.0
  0
LINE
  5
639
330
62B
100
AcDbEntity
  8
LC-005-005-----0
 62
     7
370
    25
100
AcDbLine
 10
495.434084
 20
335.416383
 30
0.0
 11
492.734084
 21
338.116383
 31
0.0
  0
LINE
  5
63A
330
62B
100
AcDbEntity
  8
LC-005-005-----0
 62
     7
370
    25
100
AcDbLine
 10
500.631059
 20
326.683875
 30
0.0
 11
498.49855
 21
328.816383
 31
0.0
  0
LINE
  5
63B
330
62B
100
AcDbEntity
  8
LC-005-005-----0
 62
     7
370
    25
100
AcDbLine
 10
491.89855
 20
335.416383
 30
0.0
 11
489.19855
 21
338.116383
 31
0.0
  0
LINE
  5
63C
330
62B
100
AcDbEntity
  8
LC-005-005-----0
 62
     7
370
    25
100
AcDbLine
 10
496.963017
 20
326.816383
 30
0.0
 11
494.963017
 21
328.816383
 31
0.0
  0
LINE
  5
63D
330
62B
100
AcDbEntity
  8
LC-005-005-----0
 62
     7
370
    25
100
AcDbLine
 10
488.363017
 20
335.416383
 30
0.0
 11
485.663017
 21
338.116383
 31
0.0
  0
LINE
  5
63E
330
62B
100
AcDbEntity
  8
LC-005-005-----0
 62
     7
370
    25
100
AcDbLine
 10
493.427483
 20
326.816383
 30
0.0
 11
491.427483
 21
328.816383
 31
0.0
  0
LINE
  5
63F
330
62B
100
AcDbEntity
  8
LC-005-005-----0
 62
     7
370
    25
100
AcDbLine
 10
484.827483
 20
335.416383
 30
0.0
 11
482.127483
 21
338.116383
 31
0.0
  0
LINE
  5
640
330
62B
100
AcDbEntity
  8
LC-005-005-----0
 62
     7
370
    25
100
AcDbLine
 10
489.891949
 20
326.816383
 30
0.0
 11
487.891949
 21
328.816383
 31
0.0
  0
LINE
  5
641
330
62B
100
AcDbEntity
  8
LC-005-005-----0
 62
     7
370
    25
100
AcDbLine
 10
481.291949
 20
335.416383
 30
0.0
 11
478.591949
 21
338.116383
 31
0.0
  0
LINE
  5
642
330
62B
100
AcDbEntity
  8
LC-005-005-----0
 62
     7
370
    25
100
AcDbLine
 10
486.356415
 20
326.816383
 30
0.0
 11
484.356415
 21
328.816383
 31
0.0
  0
LINE
  5
643
330
62B
100
AcDbEntity
  8
LC-005-005-----0
 62
     7
370
    25
100
AcDbLine
 10
477.756415
 20
335.416383
 30
0.0
 11
475.056415
 21
338.116383
 31
0.0
  0
LINE
  5
644
330
62B
100
AcDbEntity
  8
LC-005-005-----0
 62
     7
370
    25
100
AcDbLine
 10
482.820881
 20
326.816383
 30
0.0
 11
480.820881
 21
328.816383
 31
0.0
  0
LINE
  5
645
330
62B
100
AcDbEntity
  8
LC-005-005-----0
 62
     7
370
    25
100
AcDbLine
 10
474.220881
 20
335.416383
 30
0.0
 11
471.520881
 21
338.116383
 31
0.0
  0
LINE
  5
646
330
62B
100
AcDbEntity
  8
LC-005-005-----0
 62
     7
370
    25
100
AcDbLine
 10
479.285347
 20
326.816383
 30
0.0
 11
477.285347
 21
328.816383
 31
0.0
  0
LINE
  5
647
330
62B
100
AcDbEntity
  8
LC-005-005-----0
 62
     7
370
    25
100
AcDbLine
 10
470.685347
 20
335.416383
 30
0.0
 11
467.985347
 21
338.116383
 31
0.0
  0
LINE
  5
648
330
62B
100
AcDbEntity
  8
LC-005-005-----0
 62
     7
370
    25
100
AcDbLine
 10
475.749813
 20
326.816383
 30
0.0
 11
473.749813
 21
328.816383
 31
0.0
  0
LINE
  5
649
330
62B
100
AcDbEntity
  8
LC-005-005-----0
 62
     7
370
    25
100
AcDbLine
 10
467.149813
 20
335.416383
 30
0.0
 11
464.449813
 21
338.116383
 31
0.0
  0
LINE
  5
64A
330
62B
100
AcDbEntity
  8
LC-005-005-----0
 62
     7
370
    25
100
AcDbLine
 10
472.214279
 20
326.816383
 30
0.0
 11
470.214279
 21
328.816383
 31
0.0
  0
LINE
  5
64B
330
62B
100
AcDbEntity
  8
LC-005-005-----0
 62
     7
370
    25
100
AcDbLine
 10
463.631059
 20
335.399604
 30
0.0
 11
461.221505
 21
337.809158
 31
0.0
  0
LINE
  5
64C
330
62B
100
AcDbEntity
  8
LC-005-005-----0
 62
     7
370
    25
100
AcDbLine
 10
468.678745
 20
326.816383
 30
0.0
 11
466.678745
 21
328.816383
 31
0.0
  0
LINE
  5
64D
330
62B
100
AcDbEntity
  8
LC-005-005-----0
 62
     7
370
    25
100
AcDbLine
 10
463.631059
 20
331.86407
 30
0.0
 11
460.631059
 21
334.86407
 31
0.0
  0
LINE
  5
64E
330
62B
100
AcDbEntity
  8
LC-005-005-----0
 62
     7
370
    25
100
AcDbLine
 10
465.143211
 20
326.816383
 30
0.0
 11
461.731059
 21
330.228536
 31
0.0
  0
LINE
  5
64F
330
62B
100
AcDbEntity
  8
LC-005-005-----0
 62
     7
370
    25
100
AcDbLine
 10
460.593211
 20
331.366383
 30
0.0
 11
458.843211
 21
333.116383
 31
0.0
  0
LINE
  5
650
330
62B
100
AcDbEntity
  8
LC-005-005-----0
 62
     7
370
    25
100
AcDbLine
 10
457.057678
 20
331.366383
 30
0.0
 11
455.307678
 21
333.116383
 31
0.0
  0
LINE
  5
651
330
62B
100
AcDbEntity
  8
LC-005-005-----0
 62
     7
370
    25
100
AcDbLine
 10
453.522144
 20
331.366383
 30
0.0
 11
452.005068
 21
332.88346
 31
0.0
  0
LINE
  5
652
330
62B
100
AcDbEntity
  8
LC-005-005-----0
 62
     7
370
    25
100
AcDbLine
 10
452.043508
 20
329.309485
 30
0.0
 11
450.579406
 21
330.773587
 31
0.0
  0
LINE
  5
653
330
62B
100
AcDbEntity
  8
LC-005-005-----0
 62
     7
370
    25
100
AcDbLine
 10
450.749413
 20
327.068047
 30
0.0
 11
448.993656
 21
328.823803
 31
0.0
  0
LINE
  5
654
330
62B
100
AcDbEntity
  8
LC-005-005-----0
 62
     7
370
    25
100
AcDbLine
 10
447.465542
 20
326.816383
 30
0.0
 11
445.631059
 21
328.650867
 31
0.0
  0
LINE
  5
655
330
62B
100
AcDbEntity
  8
LC-005-005-----0
 62
     7
370
    25
100
AcDbLine
 10
534.411894
 20
229.26343
 30
0.0
 11
532.85894
 21
230.816383
 31
0.0
  0
LINE
  5
656
330
62B
100
AcDbEntity
  8
LC-005-005-----0
 62
     7
370
    25
100
AcDbLine
 10
531.623506
 20
228.516284
 30
0.0
 11
529.323406
 21
230.816383
 31
0.0
  0
LINE
  5
657
330
62B
100
AcDbEntity
  8
LC-005-005-----0
 62
     7
370
    25
100
AcDbLine
 10
528.487872
 20
228.116383
 30
0.0
 11
525.787872
 21
230.816383
 31
0.0
  0
LINE
  5
658
330
62B
100
AcDbEntity
  8
LC-005-005-----0
 62
     7
370
    25
100
AcDbLine
 10
524.952338
 20
228.116383
 30
0.0
 11
522.252338
 21
230.816383
 31
0.0
  0
LINE
  5
659
330
62B
100
AcDbEntity
  8
LC-005-005-----0
 62
     7
370
    25
100
AcDbLine
 10
521.416805
 20
228.116383
 30
0.0
 11
518.716805
 21
230.816383
 31
0.0
  0
LINE
  5
65A
330
62B
100
AcDbEntity
  8
LC-005-005-----0
 62
     7
370
    25
100
AcDbLine
 10
500.116805
 20
249.416383
 30
0.0
 11
498.014154
 21
251.519034
 31
0.0
  0
LINE
  5
65B
330
62B
100
AcDbEntity
  8
LC-005-005-----0
 62
     7
370
    25
100
AcDbLine
 10
517.881271
 20
228.116383
 30
0.0
 11
515.181271
 21
230.816383
 31
0.0
  0
LINE
  5
65C
330
62B
100
AcDbEntity
  8
LC-005-005-----0
 62
     7
370
    25
100
AcDbLine
 10
496.581271
 20
249.416383
 30
0.0
 11
494.581271
 21
251.416383
 31
0.0
  0
LINE
  5
65D
330
62B
100
AcDbEntity
  8
LC-005-005-----0
 62
     7
370
    25
100
AcDbLine
 10
514.345737
 20
228.116383
 30
0.0
 11
511.645737
 21
230.816383
 31
0.0
  0
LINE
  5
65E
330
62B
100
AcDbEntity
  8
LC-005-005-----0
 62
     7
370
    25
100
AcDbLine
 10
493.045737
 20
249.416383
 30
0.0
 11
491.045737
 21
251.416383
 31
0.0
  0
LINE
  5
65F
330
62B
100
AcDbEntity
  8
LC-005-005-----0
 62
     7
370
    25
100
AcDbLine
 10
510.810203
 20
228.116383
 30
0.0
 11
508.110203
 21
230.816383
 31
0.0
  0
LINE
  5
660
330
62B
100
AcDbEntity
  8
LC-005-005-----0
 62
     7
370
    25
100
AcDbLine
 10
489.510203
 20
249.416383
 30
0.0
 11
487.510203
 21
251.416383
 31
0.0
  0
LINE
  5
661
330
62B
100
AcDbEntity
  8
LC-005-005-----0
 62
     7
370
    25
100
AcDbLine
 10
507.274669
 20
228.116383
 30
0.0
 11
504.574669
 21
230.816383
 31
0.0
  0
LINE
  5
662
330
62B
100
AcDbEntity
  8
LC-005-005-----0
 62
     7
370
    25
100
AcDbLine
 10
485.974669
 20
249.416383
 30
0.0
 11
483.974669
 21
251.416383
 31
0.0
  0
LINE
  5
663
330
62B
100
AcDbEntity
  8
LC-005-005-----0
 62
     7
370
    25
100
AcDbLine
 10
503.739135
 20
228.116383
 30
0.0
 11
501.039135
 21
230.816383
 31
0.0
  0
LINE
  5
664
330
62B
100
AcDbEntity
  8
LC-005-005-----0
 62
     7
370
    25
100
AcDbLine
 10
482.439135
 20
249.416383
 30
0.0
 11
480.439135
 21
251.416383
 31
0.0
  0
LINE
  5
665
330
62B
100
AcDbEntity
  8
LC-005-005-----0
 62
     7
370
    25
100
AcDbLine
 10
500.203601
 20
228.116383
 30
0.0
 11
497.503601
 21
230.816383
 31
0.0
  0
LINE
  5
666
330
62B
100
AcDbEntity
  8
LC-005-005-----0
 62
     7
370
    25
100
AcDbLine
 10
478.903601
 20
249.416383
 30
0.0
 11
476.903601
 21
251.416383
 31
0.0
  0
LINE
  5
667
330
62B
100
AcDbEntity
  8
LC-005-005-----0
 62
     7
370
    25
100
AcDbLine
 10
496.668067
 20
228.116383
 30
0.0
 11
493.968067
 21
230.816383
 31
0.0
  0
LINE
  5
668
330
62B
100
AcDbEntity
  8
LC-005-005-----0
 62
     7
370
    25
100
AcDbLine
 10
475.368067
 20
249.416383
 30
0.0
 11
473.368067
 21
251.416383
 31
0.0
  0
LINE
  5
669
330
62B
100
AcDbEntity
  8
LC-005-005-----0
 62
     7
370
    25
100
AcDbLine
 10
493.132533
 20
228.116383
 30
0.0
 11
490.432533
 21
230.816383
 31
0.0
  0
LINE
  5
66A
330
62B
100
AcDbEntity
  8
LC-005-005-----0
 62
     7
370
    25
100
AcDbLine
 10
471.832533
 20
249.416383
 30
0.0
 11
469.832533
 21
251.416383
 31
0.0
  0
LINE
  5
66B
330
62B
100
AcDbEntity
  8
LC-005-005-----0
 62
     7
370
    25
100
AcDbLine
 10
489.596999
 20
228.116383
 30
0.0
 11
486.896999
 21
230.816383
 31
0.0
  0
LINE
  5
66C
330
62B
100
AcDbEntity
  8
LC-005-005-----0
 62
     7
370
    25
100
AcDbLine
 10
468.296999
 20
249.416383
 30
0.0
 11
466.296999
 21
251.416383
 31
0.0
  0
LINE
  5
66D
330
62B
100
AcDbEntity
  8
LC-005-005-----0
 62
     7
370
    25
100
AcDbLine
 10
486.061466
 20
228.116383
 30
0.0
 11
483.361466
 21
230.816383
 31
0.0
  0
LINE
  5
66E
330
62B
100
AcDbEntity
  8
LC-005-005-----0
 62
     7
370
    25
100
AcDbLine
 10
464.761466
 20
249.416383
 30
0.0
 11
462.761466
 21
251.416383
 31
0.0
  0
LINE
  5
66F
330
62B
100
AcDbEntity
  8
LC-005-005-----0
 62
     7
370
    25
100
AcDbLine
 10
482.525932
 20
228.116383
 30
0.0
 11
479.825932
 21
230.816383
 31
0.0
  0
LINE
  5
670
330
62B
100
AcDbEntity
  8
LC-005-005-----0
 62
     7
370
    25
100
AcDbLine
 10
463.631059
 20
247.011256
 30
0.0
 11
461.731059
 21
248.911256
 31
0.0
  0
LINE
  5
671
330
62B
100
AcDbEntity
  8
LC-005-005-----0
 62
     7
370
    25
100
AcDbLine
 10
478.990398
 20
228.116383
 30
0.0
 11
476.290398
 21
230.816383
 31
0.0
  0
LINE
  5
672
330
62B
100
AcDbEntity
  8
LC-005-005-----0
 62
     7
370
    25
100
AcDbLine
 10
463.631059
 20
243.475723
 30
0.0
 11
460.240398
 21
246.866383
 31
0.0
  0
LINE
  5
673
330
62B
100
AcDbEntity
  8
LC-005-005-----0
 62
     7
370
    25
100
AcDbLine
 10
475.454864
 20
228.116383
 30
0.0
 11
472.754864
 21
230.816383
 31
0.0
  0
LINE
  5
674
330
62B
100
AcDbEntity
  8
LC-005-005-----0
 62
     7
370
    25
100
AcDbLine
 10
463.631059
 20
239.940189
 30
0.0
 11
460.631059
 21
242.940189
 31
0.0
  0
LINE
  5
675
330
62B
100
AcDbEntity
  8
LC-005-005-----0
 62
     7
370
    25
100
AcDbLine
 10
458.454864
 20
245.116383
 30
0.0
 11
456.704864
 21
246.866383
 31
0.0
  0
LINE
  5
676
330
62B
100
AcDbEntity
  8
LC-005-005-----0
 62
     7
370
    25
100
AcDbLine
 10
471.91933
 20
228.116383
 30
0.0
 11
469.21933
 21
230.816383
 31
0.0
  0
LINE
  5
677
330
62B
100
AcDbEntity
  8
LC-005-005-----0
 62
     7
370
    25
100
AcDbLine
 10
463.631059
 20
236.404655
 30
0.0
 11
460.631059
 21
239.404655
 31
0.0
  0
LINE
  5
678
330
62B
100
AcDbEntity
  8
LC-005-005-----0
 62
     7
370
    25
100
AcDbLine
 10
454.91933
 20
245.116383
 30
0.0
 11
448.61933
 21
251.416383
 31
0.0
  0
LINE
  5
679
330
62B
100
AcDbEntity
  8
LC-005-005-----0
 62
     7
370
    25
100
AcDbLine
 10
468.383796
 20
228.116383
 30
0.0
 11
465.683796
 21
230.816383
 31
0.0
  0
LINE
  5
67A
330
62B
100
AcDbEntity
  8
LC-005-005-----0
 62
     7
370
    25
100
AcDbLine
 10
463.631059
 20
232.869121
 30
0.0
 11
460.631059
 21
235.869121
 31
0.0
  0
LINE
  5
67B
330
62B
100
AcDbEntity
  8
LC-005-005-----0
 62
     7
370
    25
100
AcDbLine
 10
447.083796
 20
249.416383
 30
0.0
 11
445.631059
 21
250.869121
 31
0.0
  0
LINE
  5
67C
330
62B
100
AcDbEntity
  8
LC-005-005-----0
 62
     7
370
    25
100
AcDbLine
 10
464.848262
 20
228.116383
 30
0.0
 11
460.631059
 21
232.333587
 31
0.0
  0
ENDBLK
  5
62D
330
62B
100
AcDbEntity
  8
0
100
AcDbBlockEnd
  0
BLOCK
  5
6A4
330
6A3
100
AcDbEntity
  8
0
100
AcDbBlockBegin
  2
KLON1
 70
     0
 71
     0
 10
0.0
 20
0.0
 30
0.0
  3
KLON1
  1

  4
KLON1
  0
LINE
  5
6A6
330
6A3
100
AcDbEntity
  8
LC-009-100-D00-0
 62
     7
370
    25
100
AcDbLine
 10
458.429687
 20
325.942016
 30
0.0
 11
459.002961
 21
326.51529
 31
0.0
  0
LINE
  5
6A7
330
6A3
100
AcDbEntity
  8
LC-009-100-D00-0
 62
     7
370
    25
100
AcDbLine
 10
460.122383
 20
327.634712
 30
0.0
 11
461.338401
 21
328.85073
 31
0.0
  0
LINE
  5
6A8
330
6A3
100
AcDbEntity
  8
LC-009-100-D00-0
 62
     7
370
    25
100
AcDbLine
 10
457.228766
 20
326.635368
 30
0.0
 11
461.137396
 21
330.543998
 31
0.0
  0
LINE
  5
6A9
330
6A3
100
AcDbEntity
  8
LC-009-100-D00-0
 62
     7
370
    25
100
AcDbLine
 10
456.027846
 20
327.32872
 30
0.0
 11
459.63927
 21
330.940145
 31
0.0
  0
LINE
  5
6AA
330
6A3
100
AcDbEntity
  8
LC-009-100-D00-0
 62
     7
370
    25
100
AcDbLine
 10
459.901323
 20
331.202197
 30
0.0
 11
460.040711
 21
331.341586
 31
0.0
  0
LINE
  5
6AB
330
6A3
100
AcDbEntity
  8
LC-009-100-D00-0
 62
     7
370
    25
100
AcDbLine
 10
454.936041
 20
328.131188
 30
0.0
 11
457.920282
 21
331.115429
 31
0.0
  0
LINE
  5
6AC
330
6A3
100
AcDbEntity
  8
LC-009-100-D00-0
 62
     7
370
    25
100
AcDbLine
 10
455.25895
 20
330.348371
 30
0.0
 11
455.830044
 21
330.919464
 31
0.0
  0
ENDBLK
  5
6A5
330
6A3
100
AcDbEntity
  8
0
100
AcDbBlockEnd
  0
BLOCK
  5
6CE
330
6CD
100
AcDbEntity
  8
0
100
AcDbBlockBegin
  2
KLON2
 70
     0
 71
     0
 10
0.0
 20
0.0
 30
0.0
  3
KLON2
  1

  4
KLON2
  0
LINE
  5
6D0
330
6CD
100
AcDbEntity
  8
LC-009-100-D00-0
 62
     7
370
    25
100
AcDbLine
 10
458.429687
 20
252.291251
 30
0.0
 11
459.002961
 21
251.717977
 31
0.0
  0
LINE
  5
6D1
330
6CD
100
AcDbEntity
  8
LC-009-100-D00-0
 62
     7
370
    25
100
AcDbLine
 10
460.122383
 20
250.598555
 30
0.0
 11
461.338401
 21
249.382537
 31
0.0
  0
LINE
  5
6D2
330
6CD
100
AcDbEntity
  8
LC-009-100-D00-0
 62
     7
370
    25
100
AcDbLine
 10
457.228766
 20
251.597899
 30
0.0
 11
461.137396
 21
247.689269
 31
0.0
  0
LINE
  5
6D3
330
6CD
100
AcDbEntity
  8
LC-009-100-D00-0
 62
     7
370
    25
100
AcDbLine
 10
456.027846
 20
250.904547
 30
0.0
 11
459.63927
 21
247.293122
 31
0.0
  0
LINE
  5
6D4
330
6CD
100
AcDbEntity
  8
LC-009-100-D00-0
 62
     7
370
    25
100
AcDbLine
 10
459.901323
 20
247.03107
 30
0.0
 11
460.040711
 21
246.891681
 31
0.0
  0
LINE
  5
6D5
330
6CD
100
AcDbEntity
  8
LC-009-100-D00-0
 62
     7
370
    25
100
AcDbLine
 10
454.936041
 20
250.102079
 30
0.0
 11
457.920282
 21
247.117838
 31
0.0
  0
LINE
  5
6D6
330
6CD
100
AcDbEntity
  8
LC-009-100-D00-0
 62
     7
370
    25
100
AcDbLine
 10
455.25895
 20
247.884896
 30
0.0
 11
455.830044
 21
247.313803
 31
0.0
  0
ENDBLK
  5
6CF
330
6CD
100
AcDbEntity
  8
0
100
AcDbBlockEnd
  0
BLOCK
  5
6E3
330
6D9
100
AcDbEntity
  8
0
100
AcDbBlockBegin
  2
*D44
 70
     1
 71
     0
 10
0.0
 20
0.0
 30
0.0
  3
*D44
  1

  0
LINE
  5
6DA
330
6D9
100
AcDbEntity
  8
LC-007-003-----0
 62
     2
370
    -2
100
AcDbLine
 10
362.631152
 20
219.571259
 30
0.0
 11
362.631152
 21
163.314
 31
0.0
  0
LINE
  5
6DB
330
6D9
100
AcDbEntity
  8
LC-007-003-----0
 62
     2
370
    -2
100
AcDbLine
 10
534.631059
 20
230.816383
 30
0.0
 11
534.631059
 21
163.314
 31
0.0
  0
LINE
  5
6DC
330
6D9
100
AcDbEntity
  8
LC-007-003-----0
 62
     2
370
    -2
100
AcDbLine
 10
390.631152
 20
166.914
 30
0.0
 11
506.631059
 21
166.914
 31
0.0
  0
SOLID
  5
6DD
330
6D9
100
AcDbEntity
  8
LC-007-003-----0
 62
     2
100
AcDbTrace
 10
390.631152
 20
171.580667
 30
0.0
 11
390.631152
 21
162.247333
 31
0.0
 12
362.631152
 22
166.914
 32
0.0
 13
362.631152
 23
166.914
 33
0.0
  0
SOLID
  5
6DE
330
6D9
100
AcDbEntity
  8
LC-007-003-----0
 62
     2
100
AcDbTrace
 10
506.631059
 20
162.247333
 30
0.0
 11
506.631059
 21
171.580667
 31
0.0
 12
534.631059
 22
166.914
 32
0.0
 13
534.631059
 23
166.914
 33
0.0
  0
MTEXT
  5
6DF
330
6D9
100
AcDbEntity
  8
LC-007-003-----0
 62
     2
100
AcDbMText
 10
435.070037
 20
197.714
 30
0.0
 40
28.0
 41
0.0
 71
     5
 72
     1
  1
\A1;172
  7
LCTX15-400-0-0pDIN-Schrift
 73
     1
 44
1.0
  0
POINT
  5
6E0
330
6D9
100
AcDbEntity
  8
Defpoints
 62
     0
100
AcDbPoint
 10
362.631152
 20
219.571259
 30
0.0
  0
POINT
  5
6E1
330
6D9
100
AcDbEntity
  8
Defpoints
 62
     0
100
AcDbPoint
 10
534.631059
 20
230.816383
 30
0.0
  0
POINT
  5
6E2
330
6D9
100
AcDbEntity
  8
Defpoints
 62
     0
100
AcDbPoint
 10
534.631059
 20
166.914
 30
0.0
  0
ENDBLK
  5
6E4
330
6D9
100
AcDbEntity
  8
0
100
AcDbBlockEnd
  0
BLOCK
  5
6F0
330
6E6
100
AcDbEntity
  8
0
100
AcDbBlockBegin
  2
*D45
 70
     1
 71
     0
 10
0.0
 20
0.0
 30
0.0
  3
*D45
  1

  0
LINE
  5
6E7
330
6E6
100
AcDbEntity
  8
LC-007-003-----0
 62
     2
370
    -2
100
AcDbLine
 10
535.631059
 20
228.116383
 30
0.0
 11
698.338796
 21
228.116383
 31
0.0
  0
LINE
  5
6E8
330
6E6
100
AcDbEntity
  8
LC-007-003-----0
 62
     2
370
    -2
100
AcDbLine
 10
535.631059
 20
338.116383
 30
0.0
 11
698.338796
 21
338.116383
 31
0.0
  0
LINE
  5
6E9
330
6E6
100
AcDbEntity
  8
LC-007-003-----0
 62
     2
370
    -2
100
AcDbLine
 10
694.738796
 20
256.116383
 30
0.0
 11
694.738796
 21
310.116383
 31
0.0
  0
SOLID
  5
6EA
330
6E6
100
AcDbEntity
  8
LC-007-003-----0
 62
     2
100
AcDbTrace
 10
690.072129
 20
256.116383
 30
0.0
 11
699.405462
 21
256.116383
 31
0.0
 12
694.738796
 22
228.116383
 32
0.0
 13
694.738796
 23
228.116383
 33
0.0
  0
SOLID
  5
6EB
330
6E6
100
AcDbEntity
  8
LC-007-003-----0
 62
     2
100
AcDbTrace
 10
699.405462
 20
310.116383
 30
0.0
 11
690.072129
 21
310.116383
 31
0.0
 12
694.738796
 22
338.116383
 32
0.0
 13
694.738796
 23
338.116383
 33
0.0
  0
MTEXT
  5
6EC
330
6E6
100
AcDbEntity
  8
LC-007-003-----0
 62
     2
100
AcDbMText
 10
725.538188
 20
284.719521
 30
0.0
 40
28.0
 41
0.0
 71
     5
 72
     1
  1
\A1;DN100
  7
LCTX15-400-0-0pDIN-Schrift
 11
6.123031769111886E-17
 21
1.0
 31
0.0
 73
     1
 44
1.0
  0
POINT
  5
6ED
330
6E6
100
AcDbEntity
  8
Defpoints
 62
     0
100
AcDbPoint
 10
535.631059
 20
228.116383
 30
0.0
  0
POINT
  5
6EE
330
6E6
100
AcDbEntity
  8
Defpoints
 62
     0
100
AcDbPoint
 10
535.631059
 20
338.116383
 30
0.0
  0
POINT
  5
6EF
330
6E6
100
AcDbEntity
  8
Defpoints
 62
     0
100
AcDbPoint
 10
694.738796
 20
338.116383
 30
0.0
  0
ENDBLK
  5
6F1
330
6E6
100
AcDbEntity
  8
0
100
AcDbBlockEnd
  0
ENDSEC
  0
SECTION
  2
ENTITIES
  0
LINE
  5
32
102
{ACAD_REACTORS
330
6F4
102
}
330
1F
100
AcDbEntity
  8
LC-001-002-----0
 62
     7
370
    25
100
AcDbLine
 10
362.631182
 20
217.069747
 30
0.0
 11
362.630972
 21
373.040624
 31
0.0
  0
ARC
  5
34
102
{ACAD_REACTORS
330
6F3
102
}
330
1F
100
AcDbEntity
  8
LC-002-020-RND-0
 62
     7
370
    50
100
AcDbCircle
 10
434.135575
 20
334.065825
 30
0.0
 40
1.500000000000006
100
AcDbArc
 50
89.999468
 51
179.99962
  0
LINE
  5
35
102
{ACAD_REACTORS
330
6F3
102
}
330
1F
100
AcDbEntity
  8
LC-001-002-----0
  6
ByBlock
 62
     7
370
    50
100
AcDbLine
 10
473.074641
 20
368.2914
 30
0.0
 11
473.069907
 21
368.2914
 31
0.0
  0
LINE
  5
36
102
{ACAD_REACTORS
330
6F3
102
}
330
1F
100
AcDbEntity
  8
LC-001-002-----0
  6
ByBlock
 62
     7
370
    50
100
AcDbLine
 10
500.631059
 20
324.066209
 30
0.0
 11
500.631059
 21
254.167058
 31
0.0
  0
LINE
  5
37
102
{ACAD_REACTORS
330
6F3
102
}
330
1F
100
AcDbEntity
  8
LC-001-002-----0
  6
ByBlock
 62
     7
370
    50
100
AcDbLine
 10
293.62617
 20
237.069843
 30
0.0
 11
293.62617
 21
326.616211
 31
0.0
  0
LINE
  5
38
102
{ACAD_REACTORS
330
6F3
102
}
330
1F
100
AcDbEntity
  8
LC-001-002-----0
  6
ByBlock
 62
     7
370
    50
100
AcDbLine
 10
290.126282
 20
332.566993
 30
0.0
 11
290.126271
 21
324.116197
 31
0.0
  0
LINE
  5
39
102
{ACAD_REACTORS
330
6F3
102
}
330
1F
100
AcDbEntity
  8
LC-001-002-----0
  6
ByBlock
 62
     7
370
    50
100
AcDbLine
 10
282.20964
 20
332.566994
 30
0.0
 11
290.126282
 21
332.566994
 31
0.0
  0
LINE
  5
3B
102
{ACAD_REACTORS
330
6F3
102
}
330
1F
100
AcDbEntity
  8
LC-003-020-----0
 62
     7
370
    50
100
AcDbLine
 10
291.126271
 20
324.116201
 30
0.0
 11
291.126156
 21
237.069814
 31
0.0
  0
LINE
  5
3C
102
{ACAD_REACTORS
330
6F3
102
}
330
1F
100
AcDbEntity
  8
LC-003-020-----0
 62
     7
370
    50
100
AcDbLine
 10
287.758406
 20
335.565983
 30
0.0
 11
291.131545
 21
335.566005
 31
0.0
  0
ARC
  5
3E
102
{ACAD_REACTORS
330
6F3
102
}
330
1F
100
AcDbEntity
  8
LC-004-002-RND-0
 62
     7
370
    50
100
AcDbCircle
 10
287.758406
 20
337.565374
 30
0.0
 40
1.999352000000386
100
AcDbArc
 50
180.0
 51
270.0
  0
LINE
  5
3F
102
{ACAD_REACTORS
330
6F3
102
}
330
1F
100
AcDbEntity
  8
LC-001-002-----0
  6
ByBlock
 62
     7
370
    50
100
AcDbLine
 10
435.135565
 20
326.616459
 30
0.0
 11
435.135573
 21
332.566699
 31
0.0
  0
ARC
  5
40
102
{ACAD_REACTORS
330
6F3
102
}
330
1F
100
AcDbEntity
  8
LC-003-020-----0
 62
     7
370
    50
100
AcDbCircle
 10
311.12617
 20
237.069814
 30
0.0
 40
20.00000000000165
100
AcDbArc
 50
179.999905
 51
269.999924
  0
ARC
  5
41
102
{ACAD_REACTORS
330
6F3
102
}
330
1F
100
AcDbEntity
  8
LC-003-020-----0
 62
     7
370
    50
100
AcDbCircle
 10
414.135001
 20
237.069679
 30
0.0
 40
20.00000000000078
100
AcDbArc
 50
269.999924
 51
359.999468
  0
ARC
  5
42
102
{ACAD_REACTORS
330
6F3
102
}
330
1F
100
AcDbEntity
  8
LC-003-020-----0
 62
     7
370
    50
100
AcDbCircle
 10
311.12617
 20
237.069814
 30
0.0
 40
17.50000000000142
100
AcDbArc
 50
179.999905
 51
269.999924
  0
ARC
  5
43
102
{ACAD_REACTORS
330
6F3
102
}
330
1F
100
AcDbEntity
  8
LC-003-020-----0
 62
     7
370
    50
100
AcDbCircle
 10
414.135001
 20
237.069679
 30
0.0
 40
17.50000000000063
100
AcDbArc
 50
269.999924
 51
359.999468
  0
LINE
  5
44
102
{ACAD_REACTORS
330
6F3
102
}
330
1F
100
AcDbEntity
  8
LC-001-002-----0
  6
ByBlock
 62
     7
370
    50
100
AcDbLine
 10
291.126274
 20
324.116201
 30
0.0
 11
290.126274
 21
324.116197
 31
0.0
  0
LINE
  5
45
102
{ACAD_REACTORS
330
6F3
102
}
330
1F
100
AcDbEntity
  8
LC-003-020-----0
 62
     7
370
    50
100
AcDbLine
 10
404.63551
 20
297.06607
 30
0.0
 11
404.635421
 21
219.56607
 31
0.0
  0
LINE
  5
46
102
{ACAD_REACTORS
330
6F3
102
}
330
1F
100
AcDbEntity
  8
LC-003-020-----0
 62
     7
370
    50
100
AcDbLine
 10
402.635421
 20
219.569694
 30
0.0
 11
402.63551
 21
297.069694
 31
0.0
  0
LINE
  5
47
102
{ACAD_REACTORS
330
6F3
102
}
330
1F
100
AcDbEntity
  8
LC-003-020-----0
 62
     7
370
    50
100
AcDbLine
 10
402.63551
 20
297.069694
 30
0.0
 11
404.63551
 21
297.069691
 31
0.0
  0
LINE
  5
48
102
{ACAD_REACTORS
330
6F3
102
}
330
1F
100
AcDbEntity
  8
LC-003-020-----0
 62
     7
370
    50
100
AcDbLine
 10
402.63551
 20
297.069694
 30
0.0
 11
395.63551
 21
297.069703
 31
0.0
  0
LINE
  5
49
102
{ACAD_REACTORS
330
6F3
102
}
330
1F
100
AcDbEntity
  8
LC-003-020-----0
 62
     7
370
    50
100
AcDbLine
 10
395.63551
 20
297.069703
 30
0.0
 11
395.635421
 21
219.569703
 31
0.0
  0
LINE
  5
4A
102
{ACAD_REACTORS
330
6F3
102
}
330
1F
100
AcDbEntity
  8
LC-003-020-----0
 62
     7
370
    50
100
AcDbLine
 10
404.635421
 20
219.569691
 30
0.0
 11
414.134978
 21
219.569679
 31
0.0
  0
LINE
  5
4B
102
{ACAD_REACTORS
330
6F3
102
}
330
1F
100
AcDbEntity
  8
LC-003-020-----0
 62
     7
370
    50
100
AcDbLine
 10
432.635575
 20
334.065835
 30
0.0
 11
432.635526
 21
326.616022
 31
0.0
  0
ARC
  5
4C
102
{ACAD_REACTORS
330
6F3
102
}
330
1F
100
AcDbEntity
  8
LC-004-002-RND-0
 62
     7
370
    50
100
AcDbCircle
 10
287.758406
 20
337.565374
 30
0.0
 40
1.999352000000386
100
AcDbArc
 50
180.0
 51
270.0
  0
LINE
  5
4D
102
{ACAD_REACTORS
330
6F3
102
}
330
1F
100
AcDbEntity
  8
LC-001-002-----0
  6
ByBlock
 62
     7
370
    50
100
AcDbLine
 10
285.759054
 20
341.967852
 30
0.0
 11
285.759054
 21
337.565374
 31
0.0
  0
ARC
  5
4E
102
{ACAD_REACTORS
330
6F3
102
}
330
1F
100
AcDbEntity
  8
LC-001-002-----0
  6
ByBlock
 62
     7
370
    50
100
AcDbCircle
 10
285.762157
 20
343.117107
 30
0.0
 40
1.149254920722569
100
AcDbArc
 50
270.0
 51
90.0
  0
LINE
  5
4F
102
{ACAD_REACTORS
330
6F3
102
}
330
1F
100
AcDbEntity
  8
LC-001-002-----0
  6
ByBlock
 62
     7
370
    50
100
AcDbLine
 10
280.23674
 20
344.266362
 30
0.0
 11
285.762157
 21
344.266362
 31
0.0
  0
ARC
  5
50
102
{ACAD_REACTORS
330
6F3
102
}
330
1F
100
AcDbEntity
  8
LC-004-002-RND-0
 62
     7
370
    50
100
AcDbCircle
 10
280.23674
 20
348.266362
 30
0.0
 40
4.0
100
AcDbArc
 50
180.0
 51
270.0
  0
ARC
  5
51
102
{ACAD_REACTORS
330
6F3
102
}
330
1F
100
AcDbEntity
  8
LC-004-002-RND-0
 62
     7
370
    50
100
AcDbCircle
 10
282.20964
 20
335.566272
 30
0.0
 40
2.999028000000654
100
AcDbArc
 50
202.352488
 51
270.0
  0
LINE
  5
52
102
{ACAD_REACTORS
330
6F3
102
}
330
1F
100
AcDbEntity
  8
LC-001-002-----0
  6
ByBlock
 62
     7
370
    50
100
AcDbLine
 10
273.921545
 20
346.265043
 30
0.0
 11
279.435954
 21
334.425731
 31
0.0
  0
LINE
  5
53
102
{ACAD_REACTORS
330
6F3
102
}
330
1F
100
AcDbEntity
  8
LC-001-002-----0
  6
ByBlock
 62
     7
370
    50
100
AcDbLine
 10
245.160106
 20
365.777704
 30
0.0
 11
212.611314
 21
368.064225
 31
0.0
  0
LINE
  5
54
102
{ACAD_REACTORS
330
6F3
102
}
330
1F
100
AcDbEntity
  8
LC-001-002-----0
  6
ByBlock
 62
     7
370
    50
100
AcDbLine
 10
252.192035
 20
368.289096
 30
0.0
 11
212.821402
 21
371.054843
 31
0.0
  0
LINE
  5
55
102
{ACAD_REACTORS
330
6F3
102
}
330
1F
100
AcDbEntity
  8
LC-001-002-----0
  6
ByBlock
 62
     7
370
    50
100
AcDbLine
 10
212.611314
 20
368.064225
 30
0.0
 11
212.611314
 21
371.069602
 31
0.0
  0
LINE
  5
56
102
{ACAD_REACTORS
330
6F3
102
}
330
1F
100
AcDbEntity
  8
LC-001-002-----0
  6
ByBlock
 62
     7
370
    50
100
AcDbLine
 10
245.160106
 20
365.777704
 30
0.0
 11
252.30985
 21
363.23922
 31
0.0
  0
ARC
  5
57
102
{ACAD_REACTORS
330
6F3
102
}
330
1F
100
AcDbEntity
  8
LC-001-002-----0
  6
ByBlock
 62
     7
370
    50
100
AcDbCircle
 10
263.426976
 20
388.771672
 30
0.0
 40
23.3615037640487
100
AcDbArc
 50
241.254699
 51
259.532639
  0
LINE
  5
58
102
{ACAD_REACTORS
330
6F3
102
}
330
1F
100
AcDbEntity
  8
LC-001-002-----0
  6
ByBlock
 62
     7
370
    50
100
AcDbLine
 10
271.377415
 20
364.91276
 30
0.0
 11
259.182766
 21
365.798938
 31
0.0
  0
LINE
  5
59
102
{ACAD_REACTORS
330
6F3
102
}
330
1F
100
AcDbEntity
  8
LC-001-002-----0
  6
ByBlock
 62
     7
370
    50
100
AcDbLine
 10
252.30985
 20
363.23922
 30
0.0
 11
267.995059
 21
362.142405
 31
0.0
  0
ARC
  5
5A
102
{ACAD_REACTORS
330
6F3
102
}
330
1F
100
AcDbEntity
  8
LC-001-002-----0
  6
ByBlock
 62
     7
370
    50
100
AcDbCircle
 10
267.925348
 20
361.145487
 30
0.0
 40
0.9993521049763463
100
AcDbArc
 50
0.000252
 51
86.000003
  0
LINE
  5
5B
102
{ACAD_REACTORS
330
6F3
102
}
330
1F
100
AcDbEntity
  8
LC-001-002-----0
  6
ByBlock
 62
     7
370
    50
100
AcDbLine
 10
268.9247
 20
361.145491
 30
0.0
 11
268.924717
 21
357.289787
 31
0.0
  0
ARC
  5
5C
102
{ACAD_REACTORS
330
6F3
102
}
330
1F
100
AcDbEntity
  8
LC-001-002-----0
  6
ByBlock
 62
     7
370
    50
100
AcDbCircle
 10
272.922126
 20
357.289805
 30
0.0
 40
3.997408419905613
100
AcDbArc
 50
180.000252
 51
257.709593
  0
ARC
  5
5D
102
{ACAD_REACTORS
330
6F3
102
}
330
1F
100
AcDbEntity
  8
LC-001-002-----0
  6
ByBlock
 62
     7
370
    50
100
AcDbCircle
 10
271.922802
 20
351.34893
 30
0.0
 40
1.998704209952776
100
AcDbArc
 50
0.000267
 51
85.829086
  0
LINE
  5
5E
102
{ACAD_REACTORS
330
6F3
102
}
330
1F
100
AcDbEntity
  8
LC-001-002-----0
  6
ByBlock
 62
     7
370
    50
100
AcDbLine
 10
273.921506
 20
351.348939
 30
0.0
 11
273.921545
 21
346.265043
 31
0.0
  0
LINE
  5
5F
102
{ACAD_REACTORS
330
6F3
102
}
330
1F
100
AcDbEntity
  8
LC-001-002-----0
  6
ByBlock
 62
     7
370
    50
100
AcDbLine
 10
271.377415
 20
364.91276
 30
0.0
 11
271.377415
 21
357.289787
 31
0.0
  0
ARC
  5
60
102
{ACAD_REACTORS
330
6F3
102
}
330
1F
100
AcDbEntity
  8
LC-004-002-RND-0
 62
     7
370
    50
100
AcDbCircle
 10
272.457265
 20
357.302621
 30
0.0
 40
1.079850015200464
100
AcDbArc
 50
180.0
 51
266.000003
  0
LINE
  5
61
102
{ACAD_REACTORS
330
6F3
102
}
330
1F
100
AcDbEntity
  8
LC-001-002-----0
  6
ByBlock
 62
     7
370
    50
100
AcDbLine
 10
272.381939
 20
356.225401
 30
0.0
 11
274.518797
 21
356.075978
 31
0.0
  0
LINE
  5
62
102
{ACAD_REACTORS
330
6F3
102
}
330
1F
100
AcDbEntity
  8
LC-001-002-----0
  6
ByBlock
 62
     7
370
    50
100
AcDbLine
 10
274.518797
 20
356.075978
 30
0.0
 11
274.518797
 21
362.055536
 31
0.0
  0
LINE
  5
63
102
{ACAD_REACTORS
330
6F3
102
}
330
1F
100
AcDbEntity
  8
LC-001-002-----0
  6
ByBlock
 62
     7
370
    50
100
AcDbLine
 10
276.23674
 20
362.055536
 30
0.0
 11
274.518797
 21
362.055536
 31
0.0
  0
LINE
  5
64
102
{ACAD_REACTORS
330
6F3
102
}
330
1F
100
AcDbEntity
  8
LC-001-002-----0
  6
ByBlock
 62
     7
370
    50
100
AcDbLine
 10
276.23674
 20
362.055536
 30
0.0
 11
276.23674
 21
348.266362
 31
0.0
  0
LINE
  5
65
102
{ACAD_REACTORS
330
6F3
102
}
330
1F
100
AcDbEntity
  8
LC-001-002-----0
  6
ByBlock
 62
     7
370
    50
100
AcDbLine
 10
497.631059
 20
326.616709
 30
0.0
 11
500.631059
 21
325.812862
 31
0.0
  0
LINE
  5
66
102
{ACAD_REACTORS
330
6F3
102
}
330
1F
100
AcDbEntity
  8
LC-001-002-----0
  6
ByBlock
 62
     7
370
    50
100
AcDbLine
 10
445.025138
 20
344.266143
 30
0.0
 11
439.502824
 21
344.266158
 31
0.0
  0
ARC
  5
67
102
{ACAD_REACTORS
330
6F3
102
}
330
1F
100
AcDbEntity
  8
LC-004-002-RND-0
 62
     7
370
    50
100
AcDbCircle
 10
443.048015
 20
335.56678
 30
0.0
 40
2.999999999999989
100
AcDbArc
 50
269.999848
 51
335.025107
  0
LINE
  5
68
102
{ACAD_REACTORS
330
6F3
102
}
330
1F
100
AcDbEntity
  8
LC-001-002-----0
  6
ByBlock
 62
     7
370
    50
100
AcDbLine
 10
443.048007
 20
332.56678
 30
0.0
 11
435.135565
 21
332.566804
 31
0.0
  0
LINE
  5
69
102
{ACAD_REACTORS
330
6F3
102
}
330
1F
100
AcDbEntity
  8
LC-003-020-----0
 62
     7
370
    50
100
AcDbLine
 10
437.503449
 20
335.565784
 30
0.0
 11
434.135589
 21
335.565825
 31
0.0
  0
ARC
  5
6A
102
{ACAD_REACTORS
330
6F3
102
}
330
1F
100
AcDbEntity
  8
LC-004-002-RND-0
 62
     7
370
    50
100
AcDbCircle
 10
445.025149
 20
348.266143
 30
0.0
 40
3.999999999999986
100
AcDbArc
 50
269.999848
 51
359.999848
  0
ARC
  5
6B
102
{ACAD_REACTORS
330
6F3
102
}
330
1F
100
AcDbEntity
  8
LC-004-002-RND-0
 62
     7
370
    50
100
AcDbCircle
 10
437.503455
 20
337.565175
 30
0.0
 40
1.999352000000263
100
AcDbArc
 50
269.999848
 51
359.999848
  0
LINE
  5
6C
102
{ACAD_REACTORS
330
6F3
102
}
330
1F
100
AcDbEntity
  8
LC-001-002-----0
  6
ByBlock
 62
     7
370
    50
100
AcDbLine
 10
439.502818
 20
341.967652
 30
0.0
 11
439.502807
 21
337.56517
 31
0.0
  0
ARC
  5
6D
102
{ACAD_REACTORS
330
6F3
102
}
330
1F
100
AcDbEntity
  8
LC-001-002-----0
  6
ByBlock
 62
     7
370
    50
100
AcDbCircle
 10
439.499719
 20
343.116907
 30
0.0
 40
1.149254920722864
100
AcDbArc
 50
89.999848
 51
269.999848
  0
INSERT
  5
B0
102
{ACAD_REACTORS
330
6F3
102
}
330
1F
100
AcDbEntity
  8
LC-005-005-----0
 62
     7
370
    25
100
AcDbBlockReference
  2
*X11
 10
0.0
 20
0.0
 30
0.0
  0
LINE
  5
B1
102
{ACAD_REACTORS
330
6F3
102
}
330
1F
100
AcDbEntity
  8
LC-001-002-----0
  6
ByBlock
 62
     7
370
    50
100
AcDbLine
 10
451.340339
 20
346.264807
 30
0.0
 11
445.767494
 21
334.300117
 31
0.0
  0
LINE
  5
B2
102
{ACAD_REACTORS
330
6F3
102
}
330
1F
100
AcDbEntity
  8
LC-001-002-----0
  6
ByBlock
 62
     7
370
    50
100
AcDbLine
 10
480.10183
 20
365.777393
 30
0.0
 11
512.650628
 21
368.063827
 31
0.0
  0
LINE
  5
B3
102
{ACAD_REACTORS
330
6F3
102
}
330
1F
100
AcDbEntity
  8
LC-001-002-----0
  6
ByBlock
 62
     7
370
    50
100
AcDbLine
 10
473.069907
 20
368.288802
 30
0.0
 11
512.650636
 21
371.069204
 31
0.0
  0
LINE
  5
B4
102
{ACAD_REACTORS
330
6F3
102
}
330
1F
100
AcDbEntity
  8
LC-001-002-----0
  6
ByBlock
 62
     7
370
    50
100
AcDbLine
 10
512.650628
 20
368.063827
 30
0.0
 11
512.650636
 21
371.069204
 31
0.0
  0
LINE
  5
B5
102
{ACAD_REACTORS
330
6F3
102
}
330
1F
100
AcDbEntity
  8
LC-001-002-----0
  6
ByBlock
 62
     7
370
    50
100
AcDbLine
 10
480.10183
 20
365.777393
 30
0.0
 11
472.952079
 21
363.238928
 31
0.0
  0
ARC
  5
B6
102
{ACAD_REACTORS
330
6F3
102
}
330
1F
100
AcDbEntity
  8
LC-001-002-----0
  6
ByBlock
 62
     7
370
    50
100
AcDbCircle
 10
461.83502
 20
388.771409
 30
0.0
 40
23.36150376404896
100
AcDbArc
 50
280.467209
 51
298.758391
  0
LINE
  5
B7
102
{ACAD_REACTORS
330
6F3
102
}
330
1F
100
AcDbEntity
  8
LC-001-002-----0
  6
ByBlock
 62
     7
370
    50
100
AcDbLine
 10
453.884518
 20
364.912518
 30
0.0
 11
466.079169
 21
365.798663
 31
0.0
  0
LINE
  5
B8
102
{ACAD_REACTORS
330
6F3
102
}
330
1F
100
AcDbEntity
  8
LC-001-002-----0
  6
ByBlock
 62
     7
370
    50
100
AcDbLine
 10
472.952079
 20
363.238928
 30
0.0
 11
457.266866
 21
362.142154
 31
0.0
  0
ARC
  5
B9
102
{ACAD_REACTORS
330
6F3
102
}
330
1F
100
AcDbEntity
  8
LC-001-002-----0
  6
ByBlock
 62
     7
370
    50
100
AcDbCircle
 10
457.336575
 20
361.145236
 30
0.0
 40
0.9993521049761769
100
AcDbArc
 50
93.999845
 51
179.999596
  0
LINE
  5
BA
102
{ACAD_REACTORS
330
6F3
102
}
330
1F
100
AcDbEntity
  8
LC-001-002-----0
  6
ByBlock
 62
     7
370
    50
100
AcDbLine
 10
456.337223
 20
361.145243
 30
0.0
 11
456.337196
 21
357.289539
 31
0.0
  0
ARC
  5
BB
102
{ACAD_REACTORS
330
6F3
102
}
330
1F
100
AcDbEntity
  8
LC-001-002-----0
  6
ByBlock
 62
     7
370
    50
100
AcDbCircle
 10
452.339787
 20
357.289567
 30
0.0
 40
3.997408419905932
100
AcDbArc
 50
282.290255
 51
359.999596
  0
ARC
  5
BC
102
{ACAD_REACTORS
330
6F3
102
}
330
1F
100
AcDbEntity
  8
LC-001-002-----0
  6
ByBlock
 62
     7
370
    50
100
AcDbCircle
 10
453.339095
 20
351.348689
 30
0.0
 40
1.998704209953123
100
AcDbArc
 50
94.170762
 51
179.999581
  0
LINE
  5
BE
102
{ACAD_REACTORS
330
6F3
102
}
330
1F
100
AcDbEntity
  8
LC-006-001-----0
 62
     7
370
    50
100
AcDbLine
 10
431.63501
 20
254.166808
 30
0.0
 11
500.631059
 21
254.167058
 31
0.0
  0
LINE
  5
BF
102
{ACAD_REACTORS
330
6F3
102
}
330
1F
100
AcDbEntity
  8
LC-001-002-----0
  6
ByBlock
 62
     7
370
    50
100
AcDbLine
 10
497.631059
 20
251.617058
 30
0.0
 11
500.631059
 21
252.420905
 31
0.0
  0
LINE
  5
C0
102
{ACAD_REACTORS
330
6F3
102
}
330
1F
100
AcDbEntity
  8
LC-001-002-----0
  6
ByBlock
 62
     7
370
    50
100
AcDbLine
 10
434.135024
 20
251.616808
 30
0.0
 11
497.631059
 21
251.617058
 31
0.0
  0
LINE
  5
C1
102
{ACAD_REACTORS
330
6F3
102
}
330
1F
100
AcDbEntity
  8
LC-001-002-----0
  6
ByBlock
 62
     7
370
    50
100
AcDbLine
 10
451.340391
 20
351.348704
 30
0.0
 11
451.340339
 21
346.264807
 31
0.0
  0
LINE
  5
C2
102
{ACAD_REACTORS
330
6F3
102
}
330
1F
100
AcDbEntity
  8
LC-001-002-----0
  6
ByBlock
 62
     7
370
    50
100
AcDbLine
 10
435.135565
 20
326.616459
 30
0.0
 11
497.631059
 21
326.616709
 31
0.0
  0
LINE
  5
C3
102
{ACAD_REACTORS
330
6F3
102
}
330
1F
100
AcDbEntity
  8
LC-006-001-----0
 62
     7
370
    50
100
AcDbLine
 10
431.635509
 20
324.065959
 30
0.0
 11
500.631059
 21
324.066209
 31
0.0
  0
LINE
  5
C4
102
{ACAD_REACTORS
330
6F3
102
}
330
1F
100
AcDbEntity
  8
LC-003-020-----0
 62
     7
370
    50
100
AcDbLine
 10
431.635045
 20
254.166808
 30
0.0
 11
431.634932
 21
237.069516
 31
0.0
  0
LINE
  5
C5
102
{ACAD_REACTORS
330
6F3
102
}
330
1F
100
AcDbEntity
  8
LC-003-020-----0
 62
     7
370
    50
100
AcDbLine
 10
434.134932
 20
237.069493
 30
0.0
 11
434.135028
 21
251.616808
 31
0.0
  0
LINE
  5
C6
102
{ACAD_REACTORS
330
6F3
102
}
330
1F
100
AcDbEntity
  8
LC-001-002-----0
  6
ByBlock
 62
     7
370
    50
100
AcDbLine
 10
293.62617
 20
326.616211
 30
0.0
 11
292.626306
 21
326.616207
 31
0.0
  0
LINE
  5
C7
102
{ACAD_REACTORS
330
6F3
102
}
330
1F
100
AcDbEntity
  8
LC-001-002-----0
  6
ByBlock
 62
     7
370
    50
100
AcDbLine
 10
500.631059
 20
325.812862
 30
0.0
 11
500.631059
 21
324.066209
 31
0.0
  0
ELLIPSE
  5
C8
102
{ACAD_REACTORS
330
6F3
102
}
330
1F
100
AcDbEntity
  8
LC-001-002-----0
  6
ByBlock
 62
     7
370
    50
100
AcDbEllipse
 10
431.635044
 20
289.116383
 30
0.0
 11
-3.382270176285491E-5
 21
-34.94957577995371
 31
0.0
210
0.0
220
0.0
230
1.0
 40
0.200227
 41
6.283123781345879
 42
9.424782888542261
  0
LINE
  5
C9
102
{ACAD_REACTORS
330
6F3
102
}
330
1F
100
AcDbEntity
  8
LC-001-002-----0
  6
ByBlock
 62
     7
370
    50
100
AcDbLine
 10
453.884518
 20
364.912518
 30
0.0
 11
453.884498
 21
357.289545
 31
0.0
  0
ARC
  5
CA
102
{ACAD_REACTORS
330
6F3
102
}
330
1F
100
AcDbEntity
  8
LC-004-002-RND-0
 62
     7
370
    50
100
AcDbCircle
 10
452.804648
 20
357.302381
 30
0.0
 40
1.079850015200113
100
AcDbArc
 50
273.999845
 51
359.999848
  0
LINE
  5
CB
102
{ACAD_REACTORS
330
6F3
102
}
330
1F
100
AcDbEntity
  8
LC-001-002-----0
  6
ByBlock
 62
     7
370
    50
100
AcDbLine
 10
452.879971
 20
356.225162
 30
0.0
 11
450.743113
 21
356.075744
 31
0.0
  0
LINE
  5
CC
102
{ACAD_REACTORS
330
6F3
102
}
330
1F
100
AcDbEntity
  8
LC-001-002-----0
  6
ByBlock
 62
     7
370
    50
100
AcDbLine
 10
450.743113
 20
356.075744
 30
0.0
 11
450.743129
 21
362.055302
 31
0.0
  0
LINE
  5
CD
102
{ACAD_REACTORS
330
6F3
102
}
330
1F
100
AcDbEntity
  8
LC-001-002-----0
  6
ByBlock
 62
     7
370
    50
100
AcDbLine
 10
449.025185
 20
362.055306
 30
0.0
 11
450.743129
 21
362.055302
 31
0.0
  0
LINE
  5
CE
102
{ACAD_REACTORS
330
6F3
102
}
330
1F
100
AcDbEntity
  8
LC-001-002-----0
  6
ByBlock
 62
     7
370
    50
100
AcDbLine
 10
449.025185
 20
362.055306
 30
0.0
 11
449.025149
 21
348.266132
 31
0.0
  0
LINE
  5
CF
102
{ACAD_REACTORS
330
6F3
102
}
330
1F
100
AcDbEntity
  8
LC-001-002-----0
  6
ByBlock
 62
     7
370
    50
100
AcDbLine
 10
431.635525
 20
326.616028
 30
0.0
 11
431.635509
 21
324.065959
 31
0.0
  0
LINE
  5
D0
102
{ACAD_REACTORS
330
6F3
102
}
330
1F
100
AcDbEntity
  8
LC-001-002-----0
  6
ByBlock
 62
     7
370
    50
100
AcDbLine
 10
419.13566
 20
326.616111
 30
0.0
 11
432.635526
 21
326.616022
 31
0.0
  0
LINE
  5
D1
102
{ACAD_REACTORS
330
6F3
102
}
330
1F
100
AcDbEntity
  8
LC-003-020-----0
 62
     7
370
    50
100
AcDbLine
 10
292.626276
 20
334.06602
 30
0.0
 11
292.626306
 21
326.616207
 31
0.0
  0
ARC
  5
D2
102
{ACAD_REACTORS
330
6F3
102
}
330
1F
100
AcDbEntity
  8
LC-002-020-RND-0
 62
     7
370
    50
100
AcDbCircle
 10
291.126276
 20
334.066014
 30
0.0
 40
1.500000000000002
100
AcDbArc
 50
0.000228
 51
90.00038
  0
LINE
  5
D3
102
{ACAD_REACTORS
330
6F3
102
}
330
1F
100
AcDbEntity
  8
LC-001-002-----0
  6
ByBlock
 62
     7
370
    50
100
AcDbLine
 10
316.635198
 20
326.616303
 30
0.0
 11
293.62617
 21
326.616211
 31
0.0
  0
LINE
  5
D4
102
{ACAD_REACTORS
330
6F3
102
}
330
1F
100
AcDbEntity
  8
LC-001-002-----0
  6
ByBlock
 62
     7
370
    50
100
AcDbLine
 10
500.631059
 20
254.167058
 30
0.0
 11
500.631059
 21
252.420905
 31
0.0
  0
INSERT
  5
195
102
{ACAD_REACTORS
330
6F3
102
}
330
1F
100
AcDbEntity
  8
LC-005-005-----0
 62
     7
370
    25
100
AcDbBlockReference
  2
*X22
 10
0.0
 20
0.0
 30
0.0
  0
LINE
  5
196
102
{ACAD_REACTORS
330
6F6
102
}
330
1F
100
AcDbEntity
  8
LC-003-020-----0
 62
     7
370
    50
100
AcDbLine
 10
310.62623
 20
217.071328
 30
0.0
 11
414.134975
 21
217.071191
 31
0.0
  0
LINE
  5
197
102
{ACAD_REACTORS
330
6F6
102
}
330
1F
100
AcDbEntity
  8
LC-003-020-----0
 62
     7
370
    50
100
AcDbLine
 10
310.626233
 20
219.571328
 30
0.0
 11
402.635421
 21
219.571206
 31
0.0
  0
LINE
  5
198
102
{ACAD_REACTORS
330
6F6
102
}
330
1F
100
AcDbEntity
  8
LC-003-020-----0
 62
     7
370
    50
100
AcDbLine
 10
402.135597
 20
297.071207
 30
0.0
 11
404.135597
 21
297.071204
 31
0.0
  0
LINE
  5
199
102
{ACAD_REACTORS
330
6F6
102
}
330
1F
100
AcDbEntity
  8
LC-003-020-----0
 62
     7
370
    50
100
AcDbLine
 10
293.626373
 20
335.571351
 30
0.0
 11
293.626371
 21
334.071351
 31
0.0
  0
LINE
  5
19A
102
{ACAD_REACTORS
330
6F6
102
}
330
1F
100
AcDbEntity
  8
LC-003-020-----0
 62
     7
370
    50
100
AcDbLine
 10
293.626362
 20
327.071351
 30
0.0
 11
313.626362
 21
327.071324
 31
0.0
  0
LINE
  5
19B
102
{ACAD_REACTORS
330
6F6
102
}
330
1F
100
AcDbEntity
  8
LC-003-020-----0
 62
     7
370
    50
100
AcDbLine
 10
298.626371
 20
334.071344
 30
0.0
 11
293.626371
 21
334.071351
 31
0.0
  0
LINE
  5
19C
102
{ACAD_REACTORS
330
6F6
102
}
330
1F
100
AcDbEntity
  8
LC-003-020-----0
 62
     7
370
    50
100
AcDbLine
 10
293.626373
 20
335.571351
 30
0.0
 11
300.126373
 21
335.571342
 31
0.0
  0
LINE
  5
19D
102
{ACAD_REACTORS
330
6F6
102
}
330
1F
100
AcDbEntity
  8
LC-003-020-----0
 62
     7
370
    50
100
AcDbLine
 10
293.626364
 20
328.571351
 30
0.0
 11
293.626362
 21
327.071351
 31
0.0
  0
LINE
  5
19E
102
{ACAD_REACTORS
330
6F6
102
}
330
1F
100
AcDbEntity
  8
LC-003-020-----0
 62
     7
370
    50
100
AcDbLine
 10
300.126373
 20
335.571342
 30
0.0
 11
300.126364
 21
328.567709
 31
0.0
  0
LINE
  5
19F
102
{ACAD_REACTORS
330
6F6
102
}
330
1F
100
AcDbEntity
  8
LC-003-020-----0
 62
     7
370
    50
100
AcDbLine
 10
431.635672
 20
335.567535
 30
0.0
 11
431.63567
 21
334.067535
 31
0.0
  0
LINE
  5
1A0
102
{ACAD_REACTORS
330
6F6
102
}
330
1F
100
AcDbEntity
  8
LC-003-020-----0
 62
     7
370
    50
100
AcDbLine
 10
431.635663
 20
328.567535
 30
0.0
 11
426.635663
 21
328.567542
 31
0.0
  0
LINE
  5
1A1
102
{ACAD_REACTORS
330
6F6
102
}
330
1F
100
AcDbEntity
  8
LC-003-020-----0
 62
     7
370
    50
100
AcDbLine
 10
426.635663
 20
328.567542
 30
0.0
 11
426.63567
 21
334.067542
 31
0.0
  0
LINE
  5
1A2
102
{ACAD_REACTORS
330
6F6
102
}
330
1F
100
AcDbEntity
  8
LC-003-020-----0
 62
     7
370
    50
100
AcDbLine
 10
426.63567
 20
334.067542
 30
0.0
 11
431.63567
 21
334.067535
 31
0.0
  0
LINE
  5
1A3
102
{ACAD_REACTORS
330
6F6
102
}
330
1F
100
AcDbEntity
  8
LC-003-020-----0
 62
     7
370
    50
100
AcDbLine
 10
431.635672
 20
335.567535
 30
0.0
 11
425.135672
 21
335.567544
 31
0.0
  0
LINE
  5
1A4
102
{ACAD_REACTORS
330
6F6
102
}
330
1F
100
AcDbEntity
  8
LC-003-020-----0
 62
     7
370
    50
100
AcDbLine
 10
431.635663
 20
328.567535
 30
0.0
 11
431.635661
 21
327.067535
 31
0.0
  0
LINE
  5
1A5
102
{ACAD_REACTORS
330
6F6
102
}
330
1F
100
AcDbEntity
  8
LC-003-020-----0
 62
     7
370
    50
100
AcDbLine
 10
425.135672
 20
335.567544
 30
0.0
 11
425.135663
 21
328.567544
 31
0.0
  0
LINE
  5
1A6
102
{ACAD_REACTORS
330
6F6
102
}
330
1F
100
AcDbEntity
  8
LC-003-020-----0
 62
     7
370
    50
100
AcDbLine
 10
425.135663
 20
328.567544
 30
0.0
 11
419.135663
 21
328.567552
 31
0.0
  0
LINE
  5
1A7
102
{ACAD_REACTORS
330
6F6
102
}
330
1F
100
AcDbEntity
  8
LC-003-020-----0
 62
     7
370
    50
100
AcDbLine
 10
300.126373
 20
335.571342
 30
0.0
 11
425.135672
 21
335.571176
 31
0.0
  0
CIRCLE
  5
1A8
102
{ACAD_REACTORS
330
6F6
102
}
330
1F
100
AcDbEntity
  8
LC-003-020-----0
 62
     7
370
    50
100
AcDbCircle
 10
429.201845
 20
331.342161
 30
0.0
 40
2.422713426575315
  0
LINE
  5
1A9
102
{ACAD_REACTORS
330
6F6
102
}
330
1F
100
AcDbEntity
  8
LC-003-020-----0
 62
     7
370
    50
100
AcDbLine
 10
316.635199
 20
327.07132
 30
0.0
 11
313.626362
 21
327.071324
 31
0.0
  0
LINE
  5
1AA
102
{ACAD_REACTORS
330
6F6
102
}
330
1F
100
AcDbEntity
  8
LC-003-020-----0
 62
     7
370
    50
100
AcDbLine
 10
316.635199
 20
327.07132
 30
0.0
 11
316.635095
 21
236.568322
 31
0.0
  0
LINE
  5
1AB
102
{ACAD_REACTORS
330
6F6
102
}
330
1F
100
AcDbEntity
  8
LC-003-020-----0
 62
     7
370
    50
100
AcDbLine
 10
316.635095
 20
236.568035
 30
0.0
 11
316.635199
 21
327.07132
 31
0.0
  0
LINE
  5
1AC
102
{ACAD_REACTORS
330
6F6
102
}
330
1F
100
AcDbEntity
  8
LC-003-020-----0
 62
     7
370
    50
100
AcDbLine
 10
318.135095
 20
236.568033
 30
0.0
 11
318.135201
 21
328.567686
 31
0.0
  0
LINE
  5
1AD
102
{ACAD_REACTORS
330
6F6
102
}
330
1F
100
AcDbEntity
  8
LC-003-020-----0
 62
     7
370
    50
100
AcDbLine
 10
380.135663
 20
328.567603
 30
0.0
 11
380.135668
 21
332.567603
 31
0.0
  0
LINE
  5
1AE
102
{ACAD_REACTORS
330
6F6
102
}
330
1F
100
AcDbEntity
  8
LC-003-020-----0
 62
     7
370
    50
100
AcDbLine
 10
380.135668
 20
332.567603
 30
0.0
 11
386.635668
 21
332.567595
 31
0.0
  0
LINE
  5
1AF
102
{ACAD_REACTORS
330
6F6
102
}
330
1F
100
AcDbEntity
  8
LC-003-020-----0
 62
     7
370
    50
100
AcDbLine
 10
423.135668
 20
332.567546
 30
0.0
 11
423.135663
 21
328.567546
 31
0.0
  0
LINE
  5
1B0
102
{ACAD_REACTORS
330
6F6
102
}
330
1F
100
AcDbEntity
  8
LC-003-020-----0
 62
     7
370
    50
100
AcDbLine
 10
378.63566
 20
326.567605
 30
0.0
 11
378.635642
 21
312.951673
 31
0.0
  0
ARC
  5
1B1
102
{ACAD_REACTORS
330
6F6
102
}
330
1F
100
AcDbEntity
  8
LC-003-020-----0
 62
     7
370
    50
100
AcDbCircle
 10
380.63566
 20
326.567603
 30
0.0
 40
2.000000000000055
100
AcDbArc
 50
89.999924
 51
179.999924
  0
LINE
  5
1B2
102
{ACAD_REACTORS
330
6F6
102
}
330
1F
100
AcDbEntity
  8
LC-003-020-----0
 62
     7
370
    50
100
AcDbLine
 10
384.135663
 20
328.567598
 30
0.0
 11
318.135201
 21
328.567686
 31
0.0
  0
LINE
  5
1B3
102
{ACAD_REACTORS
330
6F6
102
}
330
1F
100
AcDbEntity
  8
LC-003-020-----0
 62
     7
370
    50
100
AcDbLine
 10
371.744358
 20
236.567962
 30
0.0
 11
387.509131
 21
323.567594
 31
0.0
  0
LINE
  5
1B4
102
{ACAD_REACTORS
330
6F6
102
}
330
1F
100
AcDbEntity
  8
LC-003-020-----0
 62
     7
370
    50
100
AcDbLine
 10
327.885125
 20
328.567673
 30
0.0
 11
327.885034
 21
250.421246
 31
0.0
  0
LINE
  5
1B5
102
{ACAD_REACTORS
330
6F6
102
}
330
1F
100
AcDbEntity
  8
LC-003-020-----0
 62
     7
370
    50
100
AcDbLine
 10
365.112546
 20
236.567971
 30
0.0
 11
378.635642
 21
312.951673
 31
0.0
  0
LINE
  5
1B6
102
{ACAD_REACTORS
330
6F6
102
}
330
1F
100
AcDbEntity
  8
LC-003-020-----0
 62
     7
370
    50
100
AcDbLine
 10
380.103581
 20
325.567603
 30
0.0
 11
380.103564
 21
312.643118
 31
0.0
  0
ARC
  5
1B7
102
{ACAD_REACTORS
330
6F6
102
}
330
1F
100
AcDbEntity
  8
LC-003-020-----0
 62
     7
370
    50
100
AcDbCircle
 10
381.603581
 20
325.567601
 30
0.0
 40
1.500000000000013
100
AcDbArc
 50
89.999924
 51
179.999924
  0
LINE
  5
1B8
102
{ACAD_REACTORS
330
6F6
102
}
330
1F
100
AcDbEntity
  8
LC-003-020-----0
 62
     7
370
    50
100
AcDbLine
 10
431.635661
 20
327.067535
 30
0.0
 11
419.135661
 21
327.067552
 31
0.0
  0
LINE
  5
1B9
102
{ACAD_REACTORS
330
6F6
102
}
330
1F
100
AcDbEntity
  8
LC-003-020-----0
 62
     7
370
    50
100
AcDbLine
 10
384.135665
 20
330.067598
 30
0.0
 11
384.135659
 21
325.567598
 31
0.0
  0
LINE
  5
1BA
102
{ACAD_REACTORS
330
6F6
102
}
330
1F
100
AcDbEntity
  8
LC-003-020-----0
 62
     7
370
    50
100
AcDbLine
 10
419.135659
 20
325.567552
 30
0.0
 11
419.135665
 21
330.067552
 31
0.0
  0
LINE
  5
1BB
102
{ACAD_REACTORS
330
6F6
102
}
330
1F
100
AcDbEntity
  8
LC-003-020-----0
 62
     7
370
    50
100
AcDbLine
 10
384.135659
 20
325.567598
 30
0.0
 11
384.135656
 21
323.567598
 31
0.0
  0
LINE
  5
1BC
102
{ACAD_REACTORS
330
6F6
102
}
330
1F
100
AcDbEntity
  8
LC-003-020-----0
 62
     7
370
    50
100
AcDbLine
 10
384.135656
 20
323.567598
 30
0.0
 11
386.635656
 21
323.567595
 31
0.0
  0
LINE
  5
1BD
102
{ACAD_REACTORS
330
6F6
102
}
330
1F
100
AcDbEntity
  8
LC-003-020-----0
 62
     7
370
    50
100
AcDbLine
 10
419.135656
 20
323.567552
 30
0.0
 11
419.135659
 21
325.567552
 31
0.0
  0
LINE
  5
1BE
102
{ACAD_REACTORS
330
6F6
102
}
330
1F
100
AcDbEntity
  8
LC-003-020-----0
 62
     7
370
    50
100
AcDbLine
 10
416.635656
 20
323.567555
 30
0.0
 11
416.635665
 21
330.567555
 31
0.0
  0
LINE
  5
1BF
102
{ACAD_REACTORS
330
6F6
102
}
330
1F
100
AcDbEntity
  8
LC-003-020-----0
 62
     7
370
    50
100
AcDbLine
 10
386.635665
 20
330.567525
 30
0.0
 11
386.635656
 21
323.567595
 31
0.0
  0
LINE
  5
1C0
102
{ACAD_REACTORS
330
6F6
102
}
330
1F
100
AcDbEntity
  8
LC-003-020-----0
 62
     7
370
    50
100
AcDbLine
 10
384.135661
 20
327.067598
 30
0.0
 11
381.603583
 21
327.067601
 31
0.0
  0
LINE
  5
1C1
102
{ACAD_REACTORS
330
6F6
102
}
330
1F
100
AcDbEntity
  8
LC-003-020-----0
 62
     7
370
    50
100
AcDbLine
 10
380.135665
 20
330.067603
 30
0.0
 11
384.135665
 21
330.067598
 31
0.0
  0
LINE
  5
1C2
102
{ACAD_REACTORS
330
6F6
102
}
330
1F
100
AcDbEntity
  8
LC-003-020-----0
 62
     7
370
    50
100
AcDbLine
 10
423.135665
 20
330.067546
 30
0.0
 11
419.135665
 21
330.067552
 31
0.0
  0
LINE
  5
1C3
102
{ACAD_REACTORS
330
6F6
102
}
330
1F
100
AcDbEntity
  8
LC-003-020-----0
  6
DASHDOT
 62
     7
370
    25
100
AcDbLine
 10
401.635656
 20
323.567575
 30
0.0
 11
401.635668
 21
332.567575
 31
0.0
  0
ARC
  5
1C4
102
{ACAD_REACTORS
330
6F6
102
}
330
1F
100
AcDbEntity
  8
LC-003-020-----0
 62
     7
370
    50
100
AcDbCircle
 10
401.6357
 20
356.692575
 30
0.0
 40
30.1250000000014
100
AcDbArc
 50
240.137415
 51
299.862454
  0
ARC
  5
1C5
102
{ACAD_REACTORS
330
6F6
102
}
330
1F
100
AcDbEntity
  8
LC-003-020-----0
 62
     7
370
    50
100
AcDbCircle
 10
401.635703
 20
358.692575
 30
0.0
 40
30.12500000000196
100
AcDbArc
 50
240.137415
 51
299.862454
  0
LINE
  5
1C6
102
{ACAD_REACTORS
330
6F6
102
}
330
1F
100
AcDbEntity
  8
LC-003-020-----0
 62
     7
370
    50
100
AcDbLine
 10
318.135095
 20
236.568033
 30
0.0
 11
316.635095
 21
236.568035
 31
0.0
  0
LINE
  5
1C7
102
{ACAD_REACTORS
330
6F6
102
}
330
1F
100
AcDbEntity
  8
LC-003-020-----0
 62
     7
370
    50
100
AcDbLine
 10
318.135201
 20
328.567686
 30
0.0
 11
300.126364
 21
328.567709
 31
0.0
  0
LINE
  5
1C8
102
{ACAD_REACTORS
330
6F6
102
}
330
1F
100
AcDbEntity
  8
LC-003-020-----0
 62
     7
370
    50
100
AcDbLine
 10
293.626364
 20
328.571351
 30
0.0
 11
298.626364
 21
328.571344
 31
0.0
  0
LINE
  5
1C9
102
{ACAD_REACTORS
330
6F6
102
}
330
1F
100
AcDbEntity
  8
LC-003-020-----0
 62
     7
370
    50
100
AcDbLine
 10
298.626364
 20
328.571344
 30
0.0
 11
298.626371
 21
334.071344
 31
0.0
  0
LINE
  5
1CA
102
{ACAD_REACTORS
330
6F6
102
}
330
1F
100
AcDbEntity
  8
LC-003-020-----0
 62
     7
370
    50
100
AcDbLine
 10
371.744358
 20
236.567962
 30
0.0
 11
327.885018
 21
236.56802
 31
0.0
  0
LINE
  5
1CB
102
{ACAD_REACTORS
330
6F6
102
}
330
1F
100
AcDbEntity
  8
LC-003-020-----0
 62
     7
370
    50
100
AcDbLine
 10
327.885034
 20
250.421246
 30
0.0
 11
327.885018
 21
236.56802
 31
0.0
  0
LINE
  5
1CC
330
1F
100
AcDbEntity
  8
LC-003-020-----0
 62
     7
370
    50
100
AcDbLine
 10
366.635095
 20
236.567969
 30
0.0
 11
380.103564
 21
312.643118
 31
0.0
  0
INSERT
  5
1D5
330
1F
100
AcDbEntity
  8
LC-005-005-----0
 62
     7
370
    25
100
AcDbBlockReference
  2
*X33
 10
0.0
 20
0.0
 30
0.0
  0
CIRCLE
  5
1D6
330
1F
100
AcDbEntity
  8
LC-003-020-----0
 62
     7
370
    50
100
AcDbCircle
 10
296.060211
 20
331.341982
 30
0.0
 40
2.422713426575272
  0
INSERT
  5
1DF
330
1F
100
AcDbEntity
  8
LC-005-005-----0
 62
     7
370
    25
100
AcDbBlockReference
  2
*X44
 10
0.0
 20
0.0
 30
0.0
  0
INSERT
  5
210
330
1F
100
AcDbEntity
  8
LC-005-005-----0
 62
     7
370
    25
100
AcDbBlockReference
  2
*X55
 10
0.0
 20
0.0
 30
0.0
  0
INSERT
  5
230
330
1F
100
AcDbEntity
  8
LC-005-005-----0
 62
     7
370
    25
100
AcDbBlockReference
  2
*X66
 10
0.0
 20
0.0
 30
0.0
  0
LINE
  5
231
102
{ACAD_REACTORS
330
6F6
102
}
330
1F
100
AcDbEntity
  8
LC-003-020-----0
 62
     7
370
    50
100
AcDbLine
 10
386.635816
 20
332.567595
 30
0.0
 11
423.135668
 21
332.567546
 31
0.0
  0
LINE
  5
232
102
{ACAD_REACTORS
330
6F6
102
}
330
1F
100
AcDbEntity
  8
LC-003-020-----0
 62
     7
370
    50
100
AcDbLine
 10
386.635656
 20
323.567595
 30
0.0
 11
419.135656
 21
323.567552
 31
0.0
  0
INSERT
  5
243
330
1F
100
AcDbEntity
  8
LC-005-005-----0
 62
     7
370
    25
100
AcDbBlockReference
  2
*X77
 10
0.0
 20
0.0
 30
0.0
  0
INSERT
  5
250
330
1F
100
AcDbEntity
  8
LC-005-005-----0
 62
     7
370
    25
100
AcDbBlockReference
  2
*X88
 10
0.0
 20
0.0
 30
0.0
  0
INSERT
  5
25E
330
1F
100
AcDbEntity
  8
LC-005-005-----0
 62
     7
370
    25
100
AcDbBlockReference
  2
*X99
 10
0.0
 20
0.0
 30
0.0
  0
INSERT
  5
26C
330
1F
100
AcDbEntity
  8
LC-005-005-----0
 62
     7
370
    25
100
AcDbBlockReference
  2
*X1010
 10
0.0
 20
0.0
 30
0.0
  0
INSERT
  5
279
330
1F
100
AcDbEntity
  8
LC-005-005-----0
 62
     7
370
    25
100
AcDbBlockReference
  2
*X1111
 10
0.0
 20
0.0
 30
0.0
  0
DIMENSION
  5
27D
330
1F
100
AcDbEntity
  8
LC-007-003-----0
 62
     7
370
    25
100
AcDbDimension
  2
*D12
 10
512.647184
 20
443.131345
 30
0.0
 11
359.300419
 21
473.924
 31
0.0
 70
   160
  1
%%c300
 71
     5
 42
299.829235
 53
0.002744
  3
LC-DIM-L-0140-02-02
100
AcDbAlignedDimension
 13
212.821402
 23
371.054843
 33
0.0
 14
512.650636
 24
371.069204
 34
0.0
 50
0.002744
100
AcDbRotatedDimension
  0
DIMENSION
  5
28B
330
1F
100
AcDbEntity
  8
LC-007-003-----0
 62
     7
370
    25
100
AcDbDimension
  2
*D13
 10
196.0
 20
217.069814
 30
0.0
 11
165.2
 21
292.567019
 31
0.0
 70
   160
  1
150
 71
     5
 42
150.994411
 53
90.0
  3
LC-DIM-L-0140-02-02
100
AcDbAlignedDimension
 13
212.611314
 23
368.064225
 33
0.0
 14
311.126143
 24
217.069814
 34
0.0
 50
90.0
100
AcDbRotatedDimension
  0
DIMENSION
  5
298
330
1F
100
AcDbEntity
  8
LC-007-003-----0
 62
     7
370
    25
100
AcDbDimension
  2
*D14
 10
581.861616
 20
289.116633
 30
0.0
 11
551.061616
 21
323.136
 31
0.0
 70
   160
  1
80
 71
     5
 42
78.947193
 53
90.0
  3
LC-DIM-L-0140-02-02
100
AcDbAlignedDimension
 13
512.650628
 23
368.063827
 33
0.0
 14
500.631059
 24
289.116633
 34
0.0
 50
90.0
100
AcDbRotatedDimension
  0
DIMENSION
  5
2A5
330
1F
100
AcDbEntity
  8
LC-007-003-----0
 62
     7
370
    25
100
AcDbDimension
  2
*D15
 10
347.588224
 20
236.567962
 30
0.0
 11
316.788224
 21
173.448
 31
0.0
 70
   160
  1
60
 71
     5
 42
60.501741
 53
90.0
  3
LC-DIM-L-0140-02-02
100
AcDbAlignedDimension
 13
395.63551
 23
297.069703
 33
0.0
 14
371.744358
 24
236.567962
 34
0.0
 50
90.0
100
AcDbRotatedDimension
  0
DIMENSION
  5
2B3
330
1F
100
AcDbEntity
  8
LC-007-003-----0
 62
     7
370
    25
100
AcDbDimension
  2
*D16
 10
456.337233
 20
391.999419
 30
0.0
 11
362.631035
 21
422.799519
 31
0.0
 70
   160
  1
%%c190
 71
     5
 42
187.412478
 53
359.999939
  3
LC-DIM-L-0140-02-02
100
AcDbAlignedDimension
 13
268.924717
 23
357.289787
 33
0.0
 14
456.337196
 24
357.289539
 34
0.0
 50
359.999939
100
AcDbRotatedDimension
  0
DIMENSION
  5
2C0
330
1F
100
AcDbEntity
  8
LC-007-003-----0
 62
     7
370
    25
100
AcDbDimension
  2
*D17
 10
634.04069
 20
326.616459
 30
0.0
 11
603.24069
 21
286.308
 31
0.0
 70
   160
  1
DN70
 71
     5
 42
74.999402
 53
90.0
  3
LC-DIM-L-0140-02-02
100
AcDbAlignedDimension
 13
497.631059
 23
251.617058
 33
0.0
 14
567.591849
 24
326.616459
 34
0.0
 50
90.0
100
AcDbRotatedDimension
  0
ARC
  5
2CD
102
{ACAD_REACTORS
330
6F5
102
}
330
1F
100
AcDbEntity
  8
LC-001-002-----0
  6
ByBlock
 62
     7
370
    50
100
AcDbCircle
 10
262.370658
 20
388.803799
 30
0.0
 40
23.36150376404853
100
AcDbArc
 50
241.241457
 51
244.207797
  0
LINE
  5
2CE
102
{ACAD_REACTORS
330
6F5
102
}
330
1F
100
AcDbEntity
  8
LC-001-002-----0
  6
ByBlock
 62
     7
370
    50
100
AcDbLine
 10
212.164544
 20
371.024766
 30
0.0
 11
222.819262
 21
370.286238
 31
0.0
  0
LINE
  5
2CF
102
{ACAD_REACTORS
330
6F5
102
}
330
1F
100
AcDbEntity
  8
LC-001-002-----0
  6
ByBlock
 62
     7
370
    50
100
AcDbLine
 10
270.783072
 20
364.912883
 30
0.0
 11
262.821376
 21
365.491455
 31
0.0
  0
LINE
  5
2D0
102
{ACAD_REACTORS
330
6F5
102
}
330
1F
100
AcDbEntity
  8
LC-001-002-----0
  6
ByBlock
 62
     7
370
    50
100
AcDbLine
 10
513.630983
 20
371.06175
 30
0.0
 11
474.130983
 21
368.323819
 31
0.0
  0
ARC
  5
2D1
102
{ACAD_REACTORS
330
6F5
102
}
330
1F
100
AcDbEntity
  8
LC-001-002-----0
  6
ByBlock
 62
     7
370
    50
100
AcDbCircle
 10
462.891308
 20
388.803799
 30
0.0
 40
23.36150376404855
100
AcDbArc
 50
280.502157
 51
298.758543
  0
LINE
  5
2D2
102
{ACAD_REACTORS
330
6F5
102
}
330
1F
100
AcDbEntity
  8
LC-001-002-----0
  6
ByBlock
 62
     7
370
    50
100
AcDbLine
 10
454.478894
 20
364.912883
 30
0.0
 11
467.149469
 21
365.833646
 31
0.0
  0
LINE
  5
2D3
102
{ACAD_REACTORS
330
6F5
102
}
330
1F
100
AcDbEntity
  8
LC-005-005-----0
 62
     7
370
    25
100
AcDbLine
 10
285.44408
 20
341.610859
 30
0.0
 11
285.622106
 21
341.788884
 31
0.0
  0
LINE
  5
2D4
102
{ACAD_REACTORS
330
6F5
102
}
330
1F
100
AcDbEntity
  8
LC-001-002-----0
  6
ByBlock
 62
     7
370
    50
100
AcDbLine
 10
112.821376
 20
375.76175
 30
0.0
 11
112.821376
 21
371.06175
 31
0.0
  0
LINE
  5
2D5
102
{ACAD_REACTORS
330
6F5
102
}
330
1F
100
AcDbEntity
  8
LC-001-002-----0
  6
ByBlock
 62
     7
370
    50
100
AcDbLine
 10
122.821376
 20
375.76175
 30
0.0
 11
122.821376
 21
371.06175
 31
0.0
  0
LINE
  5
2D6
102
{ACAD_REACTORS
330
6F5
102
}
330
1F
100
AcDbEntity
  8
LC-001-002-----0
  6
ByBlock
 62
     7
370
    50
100
AcDbLine
 10
132.821376
 20
375.76175
 30
0.0
 11
132.821376
 21
371.06175
 31
0.0
  0
LINE
  5
2D7
102
{ACAD_REACTORS
330
6F5
102
}
330
1F
100
AcDbEntity
  8
LC-001-002-----0
  6
ByBlock
 62
     7
370
    50
100
AcDbLine
 10
142.821376
 20
375.76175
 30
0.0
 11
142.821376
 21
371.06175
 31
0.0
  0
LINE
  5
2D8
102
{ACAD_REACTORS
330
6F5
102
}
330
1F
100
AcDbEntity
  8
LC-001-002-----0
  6
ByBlock
 62
     7
370
    50
100
AcDbLine
 10
152.821376
 20
375.76175
 30
0.0
 11
152.821376
 21
371.06175
 31
0.0
  0
LINE
  5
2D9
102
{ACAD_REACTORS
330
6F5
102
}
330
1F
100
AcDbEntity
  8
LC-001-002-----0
  6
ByBlock
 62
     7
370
    50
100
AcDbLine
 10
162.821376
 20
375.76175
 30
0.0
 11
162.821376
 21
371.06175
 31
0.0
  0
LINE
  5
2DA
102
{ACAD_REACTORS
330
6F5
102
}
330
1F
100
AcDbEntity
  8
LC-001-002-----0
  6
ByBlock
 62
     7
370
    50
100
AcDbLine
 10
172.821376
 20
375.76175
 30
0.0
 11
172.821376
 21
371.06175
 31
0.0
  0
LINE
  5
2DB
102
{ACAD_REACTORS
330
6F5
102
}
330
1F
100
AcDbEntity
  8
LC-001-002-----0
  6
ByBlock
 62
     7
370
    50
100
AcDbLine
 10
182.821376
 20
375.76175
 30
0.0
 11
182.821376
 21
371.06175
 31
0.0
  0
LINE
  5
2DC
102
{ACAD_REACTORS
330
6F5
102
}
330
1F
100
AcDbEntity
  8
LC-001-002-----0
  6
ByBlock
 62
     7
370
    50
100
AcDbLine
 10
192.821376
 20
375.76175
 30
0.0
 11
192.821376
 21
371.06175
 31
0.0
  0
LINE
  5
2DD
102
{ACAD_REACTORS
330
6F5
102
}
330
1F
100
AcDbEntity
  8
LC-001-002-----0
  6
ByBlock
 62
     7
370
    50
100
AcDbLine
 10
202.821376
 20
375.76175
 30
0.0
 11
202.821376
 21
371.06175
 31
0.0
  0
LINE
  5
2DE
102
{ACAD_REACTORS
330
6F5
102
}
330
1F
100
AcDbEntity
  8
LC-001-002-----0
  6
ByBlock
 62
     7
370
    50
100
AcDbLine
 10
212.167107
 20
371.06175
 30
0.0
 11
112.821376
 21
371.06175
 31
0.0
  0
LINE
  5
2DF
102
{ACAD_REACTORS
330
6F5
102
}
330
1F
100
AcDbEntity
  8
LC-001-002-----0
  6
ByBlock
 62
     7
370
    50
100
AcDbLine
 10
212.821376
 20
375.690515
 30
0.0
 11
212.821376
 21
371.015999
 31
0.0
  0
LINE
  5
2E0
102
{ACAD_REACTORS
330
6F5
102
}
330
1F
100
AcDbEntity
  8
LC-001-002-----0
  6
ByBlock
 62
     7
370
    50
100
AcDbLine
 10
222.821376
 20
374.997368
 30
0.0
 11
222.821376
 21
370.316731
 31
0.0
  0
LINE
  5
2E1
102
{ACAD_REACTORS
330
6F5
102
}
330
1F
100
AcDbEntity
  8
LC-001-002-----0
  6
ByBlock
 62
     7
370
    50
100
AcDbLine
 10
232.821376
 20
374.304221
 30
0.0
 11
232.821376
 21
369.617464
 31
0.0
  0
LINE
  5
2E2
102
{ACAD_REACTORS
330
6F5
102
}
330
1F
100
AcDbEntity
  8
LC-001-002-----0
  6
ByBlock
 62
     7
370
    50
100
AcDbLine
 10
242.821376
 20
373.611074
 30
0.0
 11
242.821376
 21
368.918196
 31
0.0
  0
LINE
  5
2E3
102
{ACAD_REACTORS
330
6F5
102
}
330
1F
100
AcDbEntity
  8
LC-001-002-----0
  6
ByBlock
 62
     7
370
    50
100
AcDbLine
 10
262.821376
 20
370.202002
 30
0.0
 11
262.821376
 21
365.491455
 31
0.0
  0
LINE
  5
2E4
102
{ACAD_REACTORS
330
6F5
102
}
330
1F
100
AcDbEntity
  8
LC-001-002-----0
  6
ByBlock
 62
     7
370
    50
100
AcDbLine
 10
254.8296
 20
373.040624
 30
0.0
 11
470.432367
 21
373.040624
 31
0.0
  0
ARC
  5
2E5
102
{ACAD_REACTORS
330
6F5
102
}
330
1F
100
AcDbEntity
  8
LC-001-002-----0
  6
ByBlock
 62
     7
370
    50
100
AcDbCircle
 10
260.26909
 20
377.446523
 30
0.0
 40
7.000000000000972
100
AcDbArc
 50
219.006904
 51
266.0
  0
ARC
  5
2E6
102
{ACAD_REACTORS
330
6F5
102
}
330
1F
100
AcDbEntity
  8
LC-001-002-----0
  6
ByBlock
 62
     7
370
    50
100
AcDbCircle
 10
260.26909
 20
377.446523
 30
0.0
 40
6.300000000000754
100
AcDbArc
 50
224.378071
 51
266.0
  0
LINE
  5
2E7
102
{ACAD_REACTORS
330
6F5
102
}
330
1F
100
AcDbEntity
  8
LC-001-002-----0
  6
ByBlock
 62
     7
370
    50
100
AcDbLine
 10
259.780795
 20
370.463574
 30
0.0
 11
277.508054
 21
369.223963
 31
0.0
  0
LINE
  5
2E8
102
{ACAD_REACTORS
330
6F5
102
}
330
1F
100
AcDbEntity
  8
LC-001-002-----0
  6
ByBlock
 62
     7
370
    50
100
AcDbLine
 10
259.827409
 20
371.151444
 30
0.0
 11
277.556884
 21
369.911678
 31
0.0
  0
ARC
  5
2E9
102
{ACAD_REACTORS
330
6F5
102
}
330
1F
100
AcDbEntity
  8
LC-004-002-RND-0
 62
     7
370
    50
100
AcDbCircle
 10
277.068589
 20
362.92873
 30
0.0
 40
7.0
100
AcDbArc
 50
0.0
 51
86.0
  0
ARC
  5
2EA
102
{ACAD_REACTORS
330
6F5
102
}
330
1F
100
AcDbEntity
  8
LC-004-002-RND-0
 62
     7
370
    50
100
AcDbCircle
 10
277.068589
 20
362.93931
 30
0.0
 40
6.300000000000011
100
AcDbArc
 50
0.0
 51
86.0
  0
LINE
  5
2EB
102
{ACAD_REACTORS
330
6F5
102
}
330
1F
100
AcDbEntity
  8
LC-001-002-----0
  6
ByBlock
 62
     7
370
    50
100
AcDbLine
 10
283.368589
 20
362.93931
 30
0.0
 11
283.368589
 21
349.251266
 31
0.0
  0
ARC
  5
2EC
102
{ACAD_REACTORS
330
6F5
102
}
330
1F
100
AcDbEntity
  8
LC-001-002-----0
  6
ByBlock
 62
     7
370
    50
100
AcDbCircle
 10
286.868589
 20
349.251266
 30
0.0
 40
3.500000000000398
100
AcDbArc
 50
180.0
 51
270.0
  0
ARC
  5
2ED
102
{ACAD_REACTORS
330
6F5
102
}
330
1F
100
AcDbEntity
  8
LC-001-002-----0
  6
ByBlock
 62
     7
370
    50
100
AcDbCircle
 10
286.868589
 20
349.251266
 30
0.0
 40
2.800000000000296
100
AcDbArc
 50
180.0
 51
270.0
  0
ARC
  5
2EE
102
{ACAD_REACTORS
330
6F5
102
}
330
1F
100
AcDbEntity
  8
LC-001-002-----0
  6
ByBlock
 62
     7
370
    50
100
AcDbCircle
 10
286.868869
 20
345.451634
 30
0.0
 40
1.000000000000195
100
AcDbArc
 50
359.99972
 51
89.99972
  0
ARC
  5
2EF
102
{ACAD_REACTORS
330
6F5
102
}
330
1F
100
AcDbEntity
  8
LC-001-002-----0
  6
ByBlock
 62
     7
370
    50
100
AcDbCircle
 10
286.868869
 20
345.451634
 30
0.0
 40
0.3000000000001326
100
AcDbArc
 50
359.99972
 51
89.99972
  0
LINE
  5
2F0
102
{ACAD_REACTORS
330
6F5
102
}
330
1F
100
AcDbEntity
  8
LC-001-002-----0
  6
ByBlock
 62
     7
370
    50
100
AcDbLine
 10
287.168589
 20
345.451266
 30
0.0
 11
287.168589
 21
343.151266
 31
0.0
  0
LINE
  5
2F1
102
{ACAD_REACTORS
330
6F5
102
}
330
1F
100
AcDbEntity
  8
LC-001-002-----0
  6
ByBlock
 62
     7
370
    50
100
AcDbLine
 10
287.868589
 20
345.451266
 30
0.0
 11
287.868589
 21
343.151266
 31
0.0
  0
ARC
  5
2F2
102
{ACAD_REACTORS
330
6F5
102
}
330
1F
100
AcDbEntity
  8
LC-001-002-----0
  6
ByBlock
 62
     7
370
    50
100
AcDbCircle
 10
286.869111
 20
343.151266
 30
0.0
 40
0.3000000000000682
100
AcDbArc
 50
270.0
 51
0.0
  0
ARC
  5
2F3
102
{ACAD_REACTORS
330
6F5
102
}
330
1F
100
AcDbEntity
  8
LC-001-002-----0
  6
ByBlock
 62
     7
370
    50
100
AcDbCircle
 10
286.868589
 20
343.151266
 30
0.0
 40
1.000000000000114
100
AcDbArc
 50
270.0
 51
0.0
  0
ARC
  5
2F4
102
{ACAD_REACTORS
330
6F5
102
}
330
1F
100
AcDbEntity
  8
LC-001-002-----0
  6
ByBlock
 62
     7
370
    50
100
AcDbCircle
 10
286.868589
 20
341.351266
 30
0.0
 40
1.5
100
AcDbArc
 50
90.0
 51
180.0
  0
ARC
  5
2F5
102
{ACAD_REACTORS
330
6F5
102
}
330
1F
100
AcDbEntity
  8
LC-001-002-----0
  6
ByBlock
 62
     7
370
    50
100
AcDbCircle
 10
286.868589
 20
341.351266
 30
0.0
 40
0.8000000000000682
100
AcDbArc
 50
90.0
 51
180.0
  0
ARC
  5
2F6
102
{ACAD_REACTORS
330
6F5
102
}
330
1F
100
AcDbEntity
  8
LC-001-002-----0
  6
ByBlock
 62
     7
370
    50
100
AcDbCircle
 10
286.868589
 20
341.351266
 30
0.0
 40
1.500000000000057
100
AcDbArc
 50
180.0
 51
270.0
  0
ARC
  5
2F7
102
{ACAD_REACTORS
330
6F5
102
}
330
1F
100
AcDbEntity
  8
LC-001-002-----0
  6
ByBlock
 62
     7
370
    50
100
AcDbCircle
 10
286.868589
 20
341.351266
 30
0.0
 40
0.8000000000002387
100
AcDbArc
 50
180.0
 51
270.0
  0
LINE
  5
2F8
102
{ACAD_REACTORS
330
6F5
102
}
330
1F
100
AcDbEntity
  8
LC-001-002-----0
  6
ByBlock
 62
     7
370
    50
100
AcDbLine
 10
286.868589
 20
340.551266
 30
0.0
 11
289.668589
 21
340.551266
 31
0.0
  0
LINE
  5
2F9
102
{ACAD_REACTORS
330
6F5
102
}
330
1F
100
AcDbEntity
  8
LC-001-002-----0
  6
ByBlock
 62
     7
370
    50
100
AcDbLine
 10
286.868589
 20
339.851266
 30
0.0
 11
289.668589
 21
339.851266
 31
0.0
  0
LINE
  5
2FA
102
{ACAD_REACTORS
330
6F5
102
}
330
1F
100
AcDbEntity
  8
LC-001-002-----0
  6
ByBlock
 62
     7
370
    50
100
AcDbLine
 10
289.668589
 20
339.851266
 30
0.0
 11
289.668589
 21
340.551266
 31
0.0
  0
INSERT
  5
317
102
{ACAD_REACTORS
330
6F5
102
}
330
1F
100
AcDbEntity
  8
LC-005-005-----0
 62
     7
370
    25
100
AcDbBlockReference
  2
*X1218
 10
0.0
 20
0.0
 30
0.0
  0
LINE
  5
318
102
{ACAD_REACTORS
330
6F5
102
}
330
1F
100
AcDbEntity
  8
LC-001-002-----0
  6
ByBlock
 62
     7
370
    50
100
AcDbLine
 10
271.377415
 20
369.580241
 30
0.0
 11
262.821376
 21
370.202002
 31
0.0
  0
LINE
  5
319
102
{ACAD_REACTORS
330
6F5
102
}
330
1F
100
AcDbEntity
  8
LC-001-002-----0
  6
ByBlock
 62
     7
370
    50
100
AcDbLine
 10
252.821376
 20
372.772367
 30
0.0
 11
252.821376
 21
367.483126
 31
0.0
  0
ARC
  5
31A
102
{ACAD_REACTORS
330
6F5
102
}
330
1F
100
AcDbEntity
  8
LC-001-002-----0
  6
ByBlock
 62
     7
370
    50
100
AcDbCircle
 10
262.370658
 20
388.803799
 30
0.0
 40
23.36150376404856
100
AcDbArc
 50
244.207797
 51
259.497843
  0
LINE
  5
31B
102
{ACAD_REACTORS
330
6F5
102
}
330
1F
100
AcDbEntity
  8
LC-001-002-----0
  6
ByBlock
 62
     7
370
    50
100
AcDbLine
 10
262.821376
 20
370.202002
 30
0.0
 11
258.754526
 21
370.497538
 31
0.0
  0
LINE
  5
31C
102
{ACAD_REACTORS
330
6F5
102
}
330
1F
100
AcDbEntity
  8
LC-001-002-----0
  6
ByBlock
 62
     7
370
    50
100
AcDbLine
 10
262.821376
 20
365.491455
 30
0.0
 11
258.112497
 21
365.833646
 31
0.0
  0
LINE
  5
31D
102
{ACAD_REACTORS
330
6F5
102
}
330
1F
100
AcDbEntity
  8
LC-001-002-----0
  6
ByBlock
 62
     7
370
    50
100
AcDbLine
 10
211.793677
 20
375.76175
 30
0.0
 11
112.821376
 21
375.76175
 31
0.0
  0
LINE
  5
31E
102
{ACAD_REACTORS
330
6F5
102
}
330
1F
100
AcDbEntity
  8
LC-001-002-----0
  6
ByBlock
 62
     7
370
    50
100
AcDbLine
 10
211.793677
 20
375.76175
 30
0.0
 11
222.821376
 21
374.997368
 31
0.0
  0
ARC
  5
31F
102
{ACAD_REACTORS
330
6F5
102
}
330
1F
100
AcDbEntity
  8
LC-001-002-----0
  6
ByBlock
 62
     7
370
    50
100
AcDbCircle
 10
262.370658
 20
388.803799
 30
0.0
 40
18.65999999999999
100
AcDbArc
 50
238.247327
 51
258.82592
  0
INSERT
  5
33D
102
{ACAD_REACTORS
330
6F5
102
}
330
1F
100
AcDbEntity
  8
LC-005-005-----0
 62
     7
370
    25
100
AcDbBlockReference
  2
*X1319
 10
0.0
 20
0.0
 30
0.0
  0
INSERT
  5
35B
102
{ACAD_REACTORS
330
6F5
102
}
330
1F
100
AcDbEntity
  8
LC-005-005-----0
 62
     7
370
    25
100
AcDbBlockReference
  2
*X1420
 10
0.0
 20
0.0
 30
0.0
  0
INSERT
  5
379
102
{ACAD_REACTORS
330
6F5
102
}
330
1F
100
AcDbEntity
  8
LC-005-005-----0
 62
     7
370
    25
100
AcDbBlockReference
  2
*X1521
 10
0.0
 20
0.0
 30
0.0
  0
INSERT
  5
397
102
{ACAD_REACTORS
330
6F5
102
}
330
1F
100
AcDbEntity
  8
LC-005-005-----0
 62
     7
370
    25
100
AcDbBlockReference
  2
*X1622
 10
0.0
 20
0.0
 30
0.0
  0
INSERT
  5
3B5
102
{ACAD_REACTORS
330
6F5
102
}
330
1F
100
AcDbEntity
  8
LC-005-005-----0
 62
     7
370
    25
100
AcDbBlockReference
  2
*X1723
 10
0.0
 20
0.0
 30
0.0
  0
LINE
  5
3B6
102
{ACAD_REACTORS
330
6F5
102
}
330
1F
100
AcDbEntity
  8
LC-001-002-----0
  6
ByBlock
 62
     7
370
    50
100
AcDbLine
 10
222.821376
 20
374.997368
 30
0.0
 11
252.550766
 21
372.936684
 31
0.0
  0
LINE
  5
3B7
102
{ACAD_REACTORS
330
6F5
102
}
330
1F
100
AcDbEntity
  8
LC-001-002-----0
  6
ByBlock
 62
     7
370
    50
100
AcDbLine
 10
222.819262
 20
370.286238
 30
0.0
 11
251.130983
 21
368.323819
 31
0.0
  0
INSERT
  5
3D6
102
{ACAD_REACTORS
330
6F5
102
}
330
1F
100
AcDbEntity
  8
LC-005-005-----0
 62
     7
370
    25
100
AcDbBlockReference
  2
*X1824
 10
0.0
 20
0.0
 30
0.0
  0
INSERT
  5
3F6
102
{ACAD_REACTORS
330
6F5
102
}
330
1F
100
AcDbEntity
  8
LC-005-005-----0
 62
     7
370
    25
100
AcDbBlockReference
  2
*X1925
 10
0.0
 20
0.0
 30
0.0
  0
INSERT
  5
419
102
{ACAD_REACTORS
330
6F5
102
}
330
1F
100
AcDbEntity
  8
LC-005-005-----0
 62
     7
370
    25
100
AcDbBlockReference
  2
*X2026
 10
0.0
 20
0.0
 30
0.0
  0
LINE
  5
41A
102
{ACAD_REACTORS
330
6F5
102
}
330
1F
100
AcDbEntity
  8
LC-001-002-----0
  6
ByBlock
 62
     7
370
    50
100
AcDbLine
 10
441.130983
 20
349.451933
 30
0.0
 11
438.130983
 21
346.451933
 31
0.0
  0
LINE
  5
41B
102
{ACAD_REACTORS
330
6F5
102
}
330
1F
100
AcDbEntity
  8
LC-001-002-----0
  6
ByBlock
 62
     7
370
    50
100
AcDbLine
 10
431.130983
 20
346.451933
 30
0.0
 11
431.130983
 21
348.951933
 31
0.0
  0
LINE
  5
41C
102
{ACAD_REACTORS
330
6F5
102
}
330
1F
100
AcDbEntity
  8
LC-001-002-----0
  6
ByBlock
 62
     7
370
    50
100
AcDbLine
 10
438.630983
 20
365.451578
 30
0.0
 11
437.130983
 21
365.451578
 31
0.0
  0
LINE
  5
41D
102
{ACAD_REACTORS
330
6F5
102
}
330
1F
100
AcDbEntity
  8
LC-001-002-----0
  6
ByBlock
 62
     7
370
    50
100
AcDbLine
 10
438.630983
 20
348.951933
 30
0.0
 11
438.630983
 21
366.451578
 31
0.0
  0
ARC
  5
41E
102
{ACAD_REACTORS
330
6F5
102
}
330
1F
100
AcDbEntity
  8
LC-004-002-RND-0
 62
     7
370
    50
100
AcDbCircle
 10
437.130983
 20
363.451578
 30
0.0
 40
2.0
100
AcDbArc
 50
90.0
 51
180.0
  0
LINE
  5
41F
102
{ACAD_REACTORS
330
6F5
102
}
330
1F
100
AcDbEntity
  8
LC-001-002-----0
  6
ByBlock
 62
     7
370
    50
100
AcDbLine
 10
425.703723
 20
346.451933
 30
0.0
 11
425.703723
 21
348.951933
 31
0.0
  0
LINE
  5
420
102
{ACAD_REACTORS
330
6F5
102
}
330
1F
100
AcDbEntity
  8
LC-001-002-----0
  6
ByBlock
 62
     7
370
    50
100
AcDbLine
 10
418.203766
 20
348.951933
 30
0.0
 11
438.630983
 21
348.951933
 31
0.0
  0
LINE
  5
421
102
{ACAD_REACTORS
330
6F5
102
}
330
1F
100
AcDbEntity
  8
LC-001-002-----0
  6
ByBlock
 62
     7
370
    50
100
AcDbLine
 10
284.130983
 20
349.451933
 30
0.0
 11
287.130983
 21
346.451933
 31
0.0
  0
LINE
  5
422
102
{ACAD_REACTORS
330
6F5
102
}
330
1F
100
AcDbEntity
  8
LC-001-002-----0
  6
ByBlock
 62
     7
370
    50
100
AcDbLine
 10
294.130983
 20
346.451933
 30
0.0
 11
294.130983
 21
348.951933
 31
0.0
  0
LINE
  5
423
102
{ACAD_REACTORS
330
6F5
102
}
330
1F
100
AcDbEntity
  8
LC-001-002-----0
  6
ByBlock
 62
     7
370
    50
100
AcDbLine
 10
286.630983
 20
365.451578
 30
0.0
 11
288.130983
 21
365.451578
 31
0.0
  0
LINE
  5
424
102
{ACAD_REACTORS
330
6F5
102
}
330
1F
100
AcDbEntity
  8
LC-001-002-----0
  6
ByBlock
 62
     7
370
    50
100
AcDbLine
 10
286.630983
 20
365.451578
 30
0.0
 11
286.630983
 21
366.451578
 31
0.0
  0
ARC
  5
425
102
{ACAD_REACTORS
330
6F5
102
}
330
1F
100
AcDbEntity
  8
LC-004-002-RND-0
 62
     7
370
    50
100
AcDbCircle
 10
288.130983
 20
363.451578
 30
0.0
 40
2.0
100
AcDbArc
 50
0.0
 51
90.0
  0
LINE
  5
426
102
{ACAD_REACTORS
330
6F5
102
}
330
1F
100
AcDbEntity
  8
LC-001-002-----0
  6
ByBlock
 62
     7
370
    50
100
AcDbLine
 10
299.558243
 20
346.451933
 30
0.0
 11
299.558243
 21
348.951933
 31
0.0
  0
LINE
  5
427
102
{ACAD_REACTORS
330
6F5
102
}
330
1F
100
AcDbEntity
  8
LC-001-002-----0
  6
ByBlock
 62
     7
370
    50
100
AcDbLine
 10
307.058243
 20
346.451933
 30
0.0
 11
307.058243
 21
348.951933
 31
0.0
  0
LINE
  5
428
102
{ACAD_REACTORS
330
6F5
102
}
330
1F
100
AcDbEntity
  8
LC-001-002-----0
  6
ByBlock
 62
     7
370
    50
100
AcDbLine
 10
321.885793
 20
346.451933
 30
0.0
 11
321.885793
 21
348.951933
 31
0.0
  0
LINE
  5
429
102
{ACAD_REACTORS
330
6F5
102
}
330
1F
100
AcDbEntity
  8
LC-001-002-----0
  6
ByBlock
 62
     7
370
    50
100
AcDbLine
 10
318.321278
 20
346.451933
 30
0.0
 11
318.321278
 21
348.951933
 31
0.0
  0
LINE
  5
42A
102
{ACAD_REACTORS
330
6F5
102
}
330
1F
100
AcDbEntity
  8
LC-001-002-----0
  6
ByBlock
 62
     7
370
    50
100
AcDbLine
 10
334.876174
 20
346.451933
 30
0.0
 11
334.876174
 21
348.951933
 31
0.0
  0
LINE
  5
42B
102
{ACAD_REACTORS
330
6F5
102
}
330
1F
100
AcDbEntity
  8
LC-001-002-----0
  6
ByBlock
 62
     7
370
    50
100
AcDbLine
 10
334.876174
 20
348.951933
 30
0.0
 11
318.321278
 21
348.951933
 31
0.0
  0
LINE
  5
42C
102
{ACAD_REACTORS
330
6F5
102
}
330
1F
100
AcDbEntity
  8
LC-001-002-----0
  6
ByBlock
 62
     7
370
    50
100
AcDbLine
 10
307.058243
 20
348.951933
 30
0.0
 11
286.868589
 21
348.951933
 31
0.0
  0
LINE
  5
42D
102
{ACAD_REACTORS
330
6F5
102
}
330
1F
100
AcDbEntity
  8
LC-001-002-----0
  6
ByBlock
 62
     7
370
    50
100
AcDbLine
 10
290.130983
 20
363.451578
 30
0.0
 11
290.130983
 21
348.951933
 31
0.0
  0
LINE
  5
42E
102
{ACAD_REACTORS
330
6F5
102
}
330
1F
100
AcDbEntity
  8
LC-001-002-----0
  6
ByBlock
 62
     7
370
    50
100
AcDbLine
 10
284.130983
 20
366.451578
 30
0.0
 11
284.130983
 21
349.451933
 31
0.0
  0
LINE
  5
42F
102
{ACAD_REACTORS
330
6F5
102
}
330
1F
100
AcDbEntity
  8
LC-001-002-----0
  6
ByBlock
 62
     7
370
    50
100
AcDbLine
 10
292.380983
 20
346.451933
 30
0.0
 11
362.631008
 21
346.451933
 31
0.0
  0
LINE
  5
430
102
{ACAD_REACTORS
330
6F5
102
}
330
1F
100
AcDbEntity
  8
LC-001-002-----0
  6
ByBlock
 62
     7
370
    50
100
AcDbLine
 10
284.130983
 20
366.451578
 30
0.0
 11
362.630983
 21
366.451578
 31
0.0
  0
LINE
  5
431
102
{ACAD_REACTORS
330
6F5
102
}
330
1F
100
AcDbEntity
  8
LC-001-002-----0
  6
ByBlock
 62
     7
370
    50
100
AcDbLine
 10
292.380983
 20
346.451933
 30
0.0
 11
287.130983
 21
346.451933
 31
0.0
  0
LINE
  5
432
102
{ACAD_REACTORS
330
6F5
102
}
330
1F
100
AcDbEntity
  8
LC-001-002-----0
  6
ByBlock
 62
     7
370
    50
100
AcDbLine
 10
435.130983
 20
363.451578
 30
0.0
 11
435.130983
 21
348.951933
 31
0.0
  0
LINE
  5
433
102
{ACAD_REACTORS
330
6F5
102
}
330
1F
100
AcDbEntity
  8
LC-001-002-----0
  6
ByBlock
 62
     7
370
    50
100
AcDbLine
 10
441.130983
 20
366.451578
 30
0.0
 11
441.130983
 21
349.451933
 31
0.0
  0
LINE
  5
434
102
{ACAD_REACTORS
330
6F5
102
}
330
1F
100
AcDbEntity
  8
LC-001-002-----0
  6
ByBlock
 62
     7
370
    50
100
AcDbLine
 10
432.880983
 20
346.451933
 30
0.0
 11
362.631008
 21
346.451933
 31
0.0
  0
LINE
  5
435
102
{ACAD_REACTORS
330
6F5
102
}
330
1F
100
AcDbEntity
  8
LC-001-002-----0
  6
ByBlock
 62
     7
370
    50
100
AcDbLine
 10
441.130983
 20
366.451578
 30
0.0
 11
362.630983
 21
366.451578
 31
0.0
  0
LINE
  5
436
102
{ACAD_REACTORS
330
6F5
102
}
330
1F
100
AcDbEntity
  8
LC-001-002-----0
  6
ByBlock
 62
     7
370
    50
100
AcDbLine
 10
432.880983
 20
346.451933
 30
0.0
 11
438.130983
 21
346.451933
 31
0.0
  0
INSERT
  5
443
102
{ACAD_REACTORS
330
6F5
102
}
330
1F
100
AcDbEntity
  8
LC-005-005-----0
 62
     7
370
    25
100
AcDbBlockReference
  2
*X2127
 10
0.0
 20
0.0
 30
0.0
  0
LINE
  5
444
102
{ACAD_REACTORS
330
6F5
102
}
330
1F
100
AcDbEntity
  8
LC-001-002-----0
  6
ByBlock
 62
     7
370
    50
100
AcDbLine
 10
284.068589
 20
362.92873
 30
0.0
 11
284.068589
 21
349.251266
 31
0.0
  0
LINE
  5
445
102
{ACAD_REACTORS
330
6F5
102
}
330
1F
100
AcDbEntity
  8
LC-001-002-----0
  6
ByBlock
 62
     7
370
    50
100
AcDbLine
 10
286.630983
 20
348.951933
 30
0.0
 11
286.630983
 21
366.451578
 31
0.0
  0
INSERT
  5
454
102
{ACAD_REACTORS
330
6F5
102
}
330
1F
100
AcDbEntity
  8
LC-005-005-----0
 62
     7
370
    25
100
AcDbBlockReference
  2
*X2228
 10
0.0
 20
0.0
 30
0.0
  0
LINE
  5
455
102
{ACAD_REACTORS
330
6F5
102
}
330
1F
100
AcDbEntity
  8
LC-001-002-----0
  6
ByBlock
 62
     7
370
    50
100
AcDbLine
 10
612.44059
 20
375.76175
 30
0.0
 11
612.44059
 21
371.06175
 31
0.0
  0
LINE
  5
456
102
{ACAD_REACTORS
330
6F5
102
}
330
1F
100
AcDbEntity
  8
LC-001-002-----0
  6
ByBlock
 62
     7
370
    50
100
AcDbLine
 10
602.44059
 20
375.76175
 30
0.0
 11
602.44059
 21
371.06175
 31
0.0
  0
LINE
  5
457
102
{ACAD_REACTORS
330
6F5
102
}
330
1F
100
AcDbEntity
  8
LC-001-002-----0
  6
ByBlock
 62
     7
370
    50
100
AcDbLine
 10
592.44059
 20
375.76175
 30
0.0
 11
592.44059
 21
371.06175
 31
0.0
  0
LINE
  5
458
102
{ACAD_REACTORS
330
6F5
102
}
330
1F
100
AcDbEntity
  8
LC-001-002-----0
  6
ByBlock
 62
     7
370
    50
100
AcDbLine
 10
582.44059
 20
375.76175
 30
0.0
 11
582.44059
 21
371.06175
 31
0.0
  0
LINE
  5
459
102
{ACAD_REACTORS
330
6F5
102
}
330
1F
100
AcDbEntity
  8
LC-001-002-----0
  6
ByBlock
 62
     7
370
    50
100
AcDbLine
 10
572.44059
 20
375.76175
 30
0.0
 11
572.44059
 21
371.06175
 31
0.0
  0
LINE
  5
45A
102
{ACAD_REACTORS
330
6F5
102
}
330
1F
100
AcDbEntity
  8
LC-001-002-----0
  6
ByBlock
 62
     7
370
    50
100
AcDbLine
 10
562.44059
 20
375.76175
 30
0.0
 11
562.44059
 21
371.06175
 31
0.0
  0
LINE
  5
45B
102
{ACAD_REACTORS
330
6F5
102
}
330
1F
100
AcDbEntity
  8
LC-001-002-----0
  6
ByBlock
 62
     7
370
    50
100
AcDbLine
 10
552.44059
 20
375.76175
 30
0.0
 11
552.44059
 21
371.06175
 31
0.0
  0
LINE
  5
45C
102
{ACAD_REACTORS
330
6F5
102
}
330
1F
100
AcDbEntity
  8
LC-001-002-----0
  6
ByBlock
 62
     7
370
    50
100
AcDbLine
 10
542.44059
 20
375.76175
 30
0.0
 11
542.44059
 21
371.06175
 31
0.0
  0
LINE
  5
45D
102
{ACAD_REACTORS
330
6F5
102
}
330
1F
100
AcDbEntity
  8
LC-001-002-----0
  6
ByBlock
 62
     7
370
    50
100
AcDbLine
 10
532.44059
 20
375.76175
 30
0.0
 11
532.44059
 21
371.06175
 31
0.0
  0
LINE
  5
45E
102
{ACAD_REACTORS
330
6F5
102
}
330
1F
100
AcDbEntity
  8
LC-001-002-----0
  6
ByBlock
 62
     7
370
    50
100
AcDbLine
 10
522.44059
 20
375.76175
 30
0.0
 11
522.44059
 21
371.06175
 31
0.0
  0
LINE
  5
45F
102
{ACAD_REACTORS
330
6F5
102
}
330
1F
100
AcDbEntity
  8
LC-001-002-----0
  6
ByBlock
 62
     7
370
    50
100
AcDbLine
 10
513.094859
 20
371.06175
 30
0.0
 11
612.44059
 21
371.06175
 31
0.0
  0
LINE
  5
460
102
{ACAD_REACTORS
330
6F5
102
}
330
1F
100
AcDbEntity
  8
LC-001-002-----0
  6
ByBlock
 62
     7
370
    50
100
AcDbLine
 10
513.468289
 20
375.76175
 30
0.0
 11
612.44059
 21
375.76175
 31
0.0
  0
INSERT
  5
47E
102
{ACAD_REACTORS
330
6F5
102
}
330
1F
100
AcDbEntity
  8
LC-005-005-----0
 62
     7
370
    25
100
AcDbBlockReference
  2
*X2329
 10
0.0
 20
0.0
 30
0.0
  0
INSERT
  5
49C
102
{ACAD_REACTORS
330
6F5
102
}
330
1F
100
AcDbEntity
  8
LC-005-005-----0
 62
     7
370
    25
100
AcDbBlockReference
  2
*X2430
 10
0.0
 20
0.0
 30
0.0
  0
INSERT
  5
4B9
102
{ACAD_REACTORS
330
6F5
102
}
330
1F
100
AcDbEntity
  8
LC-005-005-----0
 62
     7
370
    25
100
AcDbBlockReference
  2
*X2531
 10
0.0
 20
0.0
 30
0.0
  0
INSERT
  5
4D7
102
{ACAD_REACTORS
330
6F5
102
}
330
1F
100
AcDbEntity
  8
LC-005-005-----0
 62
     7
370
    25
100
AcDbBlockReference
  2
*X2632
 10
0.0
 20
0.0
 30
0.0
  0
INSERT
  5
4F5
102
{ACAD_REACTORS
330
6F5
102
}
330
1F
100
AcDbEntity
  8
LC-005-005-----0
 62
     7
370
    25
100
AcDbBlockReference
  2
*X2733
 10
0.0
 20
0.0
 30
0.0
  0
LINE
  5
4F6
102
{ACAD_REACTORS
330
6F5
102
}
330
1F
100
AcDbEntity
  8
LC-001-002-----0
  6
ByBlock
 62
     7
370
    50
100
AcDbLine
 10
512.44059
 20
375.690515
 30
0.0
 11
512.44059
 21
371.015999
 31
0.0
  0
LINE
  5
4F7
102
{ACAD_REACTORS
330
6F5
102
}
330
1F
100
AcDbEntity
  8
LC-001-002-----0
  6
ByBlock
 62
     7
370
    50
100
AcDbLine
 10
502.44059
 20
374.997368
 30
0.0
 11
502.44059
 21
370.316731
 31
0.0
  0
LINE
  5
4F8
102
{ACAD_REACTORS
330
6F5
102
}
330
1F
100
AcDbEntity
  8
LC-001-002-----0
  6
ByBlock
 62
     7
370
    50
100
AcDbLine
 10
492.44059
 20
374.304221
 30
0.0
 11
492.44059
 21
369.617464
 31
0.0
  0
INSERT
  5
515
102
{ACAD_REACTORS
330
6F5
102
}
330
1F
100
AcDbEntity
  8
LC-005-005-----0
 62
     7
370
    25
100
AcDbBlockReference
  2
*X2834
 10
0.0
 20
0.0
 30
0.0
  0
INSERT
  5
532
102
{ACAD_REACTORS
330
6F5
102
}
330
1F
100
AcDbEntity
  8
LC-005-005-----0
 62
     7
370
    25
100
AcDbBlockReference
  2
*X2935
 10
0.0
 20
0.0
 30
0.0
  0
LINE
  5
533
102
{ACAD_REACTORS
330
6F5
102
}
330
1F
100
AcDbEntity
  8
LC-001-002-----0
  6
ByBlock
 62
     7
370
    50
100
AcDbLine
 10
513.468289
 20
375.76175
 30
0.0
 11
472.7112
 21
372.936684
 31
0.0
  0
LINE
  5
534
102
{ACAD_REACTORS
330
6F5
102
}
330
1F
100
AcDbEntity
  8
LC-001-002-----0
  6
ByBlock
 62
     7
370
    50
100
AcDbLine
 10
482.44059
 20
373.611074
 30
0.0
 11
482.44059
 21
368.918196
 31
0.0
  0
LINE
  5
535
102
{ACAD_REACTORS
330
6F5
102
}
330
1F
100
AcDbEntity
  8
LC-001-002-----0
  6
ByBlock
 62
     7
370
    50
100
AcDbLine
 10
472.44059
 20
372.772367
 30
0.0
 11
472.44059
 21
367.483126
 31
0.0
  0
LINE
  5
536
102
{ACAD_REACTORS
330
6F5
102
}
330
1F
100
AcDbEntity
  8
LC-001-002-----0
  6
ByBlock
 62
     7
370
    50
100
AcDbLine
 10
462.44059
 20
370.202002
 30
0.0
 11
462.44059
 21
365.491455
 31
0.0
  0
INSERT
  5
550
102
{ACAD_REACTORS
330
6F5
102
}
330
1F
100
AcDbEntity
  8
LC-005-005-----0
 62
     7
370
    25
100
AcDbBlockReference
  2
*X3036
 10
0.0
 20
0.0
 30
0.0
  0
ARC
  5
551
102
{ACAD_REACTORS
330
6F5
102
}
330
1F
100
AcDbEntity
  8
LC-001-002-----0
  6
ByBlock
 62
     7
370
    50
100
AcDbCircle
 10
462.891308
 20
388.803799
 30
0.0
 40
18.66000000000003
100
AcDbArc
 50
281.17408
 51
301.752673
  0
LINE
  5
552
102
{ACAD_REACTORS
330
6F5
102
}
330
1F
100
AcDbEntity
  8
LC-001-002-----0
  6
ByBlock
 62
     7
370
    50
100
AcDbLine
 10
453.884518
 20
369.580238
 30
0.0
 11
462.44059
 21
370.202002
 31
0.0
  0
ARC
  5
553
102
{ACAD_REACTORS
330
6F5
102
}
330
1F
100
AcDbEntity
  8
LC-001-002-----0
  6
ByBlock
 62
     7
370
    50
100
AcDbCircle
 10
464.992876
 20
377.446523
 30
0.0
 40
6.30000000000071
100
AcDbArc
 50
274.0
 51
315.621929
  0
ARC
  5
554
102
{ACAD_REACTORS
330
6F5
102
}
330
1F
100
AcDbEntity
  8
LC-001-002-----0
  6
ByBlock
 62
     7
370
    50
100
AcDbCircle
 10
464.992876
 20
377.446523
 30
0.0
 40
7.000000000000909
100
AcDbArc
 50
274.0
 51
320.993096
  0
LINE
  5
555
102
{ACAD_REACTORS
330
6F5
102
}
330
1F
100
AcDbEntity
  8
LC-001-002-----0
  6
ByBlock
 62
     7
370
    50
100
AcDbLine
 10
465.434557
 20
371.151444
 30
0.0
 11
447.705082
 21
369.911678
 31
0.0
  0
LINE
  5
556
102
{ACAD_REACTORS
330
6F5
102
}
330
1F
100
AcDbEntity
  8
LC-001-002-----0
  6
ByBlock
 62
     7
370
    50
100
AcDbLine
 10
465.481171
 20
370.463574
 30
0.0
 11
447.753912
 21
369.223963
 31
0.0
  0
ARC
  5
557
102
{ACAD_REACTORS
330
6F5
102
}
330
1F
100
AcDbEntity
  8
LC-004-002-RND-0
 62
     7
370
    50
100
AcDbCircle
 10
448.193377
 20
362.92873
 30
0.0
 40
7.000000000000009
100
AcDbArc
 50
94.0
 51
180.0
  0
ARC
  5
558
102
{ACAD_REACTORS
330
6F5
102
}
330
1F
100
AcDbEntity
  8
LC-004-002-RND-0
 62
     7
370
    50
100
AcDbCircle
 10
448.193377
 20
362.93931
 30
0.0
 40
6.300000000000025
100
AcDbArc
 50
94.0
 51
180.0
  0
LINE
  5
559
102
{ACAD_REACTORS
330
6F5
102
}
330
1F
100
AcDbEntity
  8
LC-001-002-----0
  6
ByBlock
 62
     7
370
    50
100
AcDbLine
 10
441.893377
 20
362.93931
 30
0.0
 11
441.893377
 21
349.251266
 31
0.0
  0
LINE
  5
55A
102
{ACAD_REACTORS
330
6F5
102
}
330
1F
100
AcDbEntity
  8
LC-001-002-----0
  6
ByBlock
 62
     7
370
    50
100
AcDbLine
 10
441.193377
 20
362.92873
 30
0.0
 11
441.193377
 21
349.251266
 31
0.0
  0
ARC
  5
55B
102
{ACAD_REACTORS
330
6F5
102
}
330
1F
100
AcDbEntity
  8
LC-001-002-----0
  6
ByBlock
 62
     7
370
    50
100
AcDbCircle
 10
438.393377
 20
349.251266
 30
0.0
 40
2.800000000000296
100
AcDbArc
 50
270.0
 51
0.0
  0
ARC
  5
55C
102
{ACAD_REACTORS
330
6F5
102
}
330
1F
100
AcDbEntity
  8
LC-001-002-----0
  6
ByBlock
 62
     7
370
    50
100
AcDbCircle
 10
438.393377
 20
349.251266
 30
0.0
 40
3.500000000000398
100
AcDbArc
 50
270.0
 51
0.0
  0
ARC
  5
55D
102
{ACAD_REACTORS
330
6F5
102
}
330
1F
100
AcDbEntity
  8
LC-001-002-----0
  6
ByBlock
 62
     7
370
    50
100
AcDbCircle
 10
438.393098
 20
345.451634
 30
0.0
 40
1.000000000000195
100
AcDbArc
 50
90.00028
 51
180.00028
  0
ARC
  5
55E
102
{ACAD_REACTORS
330
6F5
102
}
330
1F
100
AcDbEntity
  8
LC-001-002-----0
  6
ByBlock
 62
     7
370
    50
100
AcDbCircle
 10
438.393098
 20
345.451634
 30
0.0
 40
0.3000000000001326
100
AcDbArc
 50
90.00028
 51
180.00028
  0
LINE
  5
55F
102
{ACAD_REACTORS
330
6F5
102
}
330
1F
100
AcDbEntity
  8
LC-001-002-----0
  6
ByBlock
 62
     7
370
    50
100
AcDbLine
 10
437.393377
 20
345.451266
 30
0.0
 11
437.393377
 21
343.151266
 31
0.0
  0
LINE
  5
560
102
{ACAD_REACTORS
330
6F5
102
}
330
1F
100
AcDbEntity
  8
LC-001-002-----0
  6
ByBlock
 62
     7
370
    50
100
AcDbLine
 10
438.093377
 20
345.451266
 30
0.0
 11
438.093377
 21
343.151266
 31
0.0
  0
ARC
  5
561
102
{ACAD_REACTORS
330
6F5
102
}
330
1F
100
AcDbEntity
  8
LC-001-002-----0
  6
ByBlock
 62
     7
370
    50
100
AcDbCircle
 10
438.393377
 20
343.151266
 30
0.0
 40
1.000000000000114
100
AcDbArc
 50
180.0
 51
270.0
  0
ARC
  5
562
102
{ACAD_REACTORS
330
6F5
102
}
330
1F
100
AcDbEntity
  8
LC-001-002-----0
  6
ByBlock
 62
     7
370
    50
100
AcDbCircle
 10
438.392855
 20
343.151266
 30
0.0
 40
0.3000000000000682
100
AcDbArc
 50
180.0
 51
270.0
  0
ARC
  5
563
102
{ACAD_REACTORS
330
6F5
102
}
330
1F
100
AcDbEntity
  8
LC-001-002-----0
  6
ByBlock
 62
     7
370
    50
100
AcDbCircle
 10
438.393377
 20
341.351266
 30
0.0
 40
1.5
100
AcDbArc
 50
0.0
 51
90.0
  0
ARC
  5
564
102
{ACAD_REACTORS
330
6F5
102
}
330
1F
100
AcDbEntity
  8
LC-001-002-----0
  6
ByBlock
 62
     7
370
    50
100
AcDbCircle
 10
438.393377
 20
341.351266
 30
0.0
 40
1.500000000000057
100
AcDbArc
 50
270.0
 51
0.0
  0
ARC
  5
565
102
{ACAD_REACTORS
330
6F5
102
}
330
1F
100
AcDbEntity
  8
LC-001-002-----0
  6
ByBlock
 62
     7
370
    50
100
AcDbCircle
 10
438.393377
 20
341.351266
 30
0.0
 40
0.8000000000000682
100
AcDbArc
 50
0.0
 51
90.0
  0
ARC
  5
566
102
{ACAD_REACTORS
330
6F5
102
}
330
1F
100
AcDbEntity
  8
LC-001-002-----0
  6
ByBlock
 62
     7
370
    50
100
AcDbCircle
 10
438.393377
 20
341.351266
 30
0.0
 40
0.8000000000002387
100
AcDbArc
 50
270.0
 51
0.0
  0
LINE
  5
567
102
{ACAD_REACTORS
330
6F5
102
}
330
1F
100
AcDbEntity
  8
LC-001-002-----0
  6
ByBlock
 62
     7
370
    50
100
AcDbLine
 10
438.393377
 20
340.551266
 30
0.0
 11
435.593377
 21
340.551266
 31
0.0
  0
LINE
  5
568
102
{ACAD_REACTORS
330
6F5
102
}
330
1F
100
AcDbEntity
  8
LC-001-002-----0
  6
ByBlock
 62
     7
370
    50
100
AcDbLine
 10
438.393377
 20
339.851266
 30
0.0
 11
435.593377
 21
339.851266
 31
0.0
  0
LINE
  5
569
102
{ACAD_REACTORS
330
6F5
102
}
330
1F
100
AcDbEntity
  8
LC-001-002-----0
  6
ByBlock
 62
     7
370
    50
100
AcDbLine
 10
435.593377
 20
339.851266
 30
0.0
 11
435.593377
 21
340.551266
 31
0.0
  0
INSERT
  5
580
102
{ACAD_REACTORS
330
6F5
102
}
330
1F
100
AcDbEntity
  8
LC-005-005-----0
 62
     7
370
    25
100
AcDbBlockReference
  2
*X3137
 10
0.0
 20
0.0
 30
0.0
  0
LINE
  5
581
102
{ACAD_REACTORS
330
6F5
102
}
330
1F
100
AcDbEntity
  8
LC-001-002-----0
  6
ByBlock
 62
     7
370
    50
100
AcDbLine
 10
365.130983
 20
365.451578
 30
0.0
 11
362.630983
 21
365.451578
 31
0.0
  0
ARC
  5
582
102
{ACAD_REACTORS
330
6F5
102
}
330
1F
100
AcDbEntity
  8
LC-001-002-----0
  6
ByBlock
 62
     7
370
    50
100
AcDbCircle
 10
426.130485
 20
363.451578
 30
0.0
 40
2.0
100
AcDbArc
 50
90.0
 51
180.0
  0
LINE
  5
583
102
{ACAD_REACTORS
330
6F5
102
}
330
1F
100
AcDbEntity
  8
LC-001-002-----0
  6
ByBlock
 62
     7
370
    50
100
AcDbLine
 10
429.663295
 20
365.451578
 30
0.0
 11
426.130485
 21
365.451578
 31
0.0
  0
LINE
  5
584
102
{ACAD_REACTORS
330
6F5
102
}
330
1F
100
AcDbEntity
  8
LC-001-002-----0
  6
ByBlock
 62
     7
370
    50
100
AcDbLine
 10
429.663295
 20
348.951933
 30
0.0
 11
429.663295
 21
365.451578
 31
0.0
  0
LINE
  5
585
102
{ACAD_REACTORS
330
6F5
102
}
330
1F
100
AcDbEntity
  8
LC-001-002-----0
  6
ByBlock
 62
     7
370
    50
100
AcDbLine
 10
365.130983
 20
348.951933
 30
0.0
 11
365.130983
 21
365.451578
 31
0.0
  0
LINE
  5
586
102
{ACAD_REACTORS
330
6F5
102
}
330
1F
100
AcDbEntity
  8
LC-001-002-----0
  6
ByBlock
 62
     7
370
    50
100
AcDbLine
 10
426.630485
 20
348.951933
 30
0.0
 11
426.630485
 21
363.451578
 31
0.0
  0
LINE
  5
587
102
{ACAD_REACTORS
330
6F5
102
}
330
1F
100
AcDbEntity
  8
LC-001-002-----0
  6
ByBlock
 62
     7
370
    50
100
AcDbLine
 10
424.130485
 20
348.951933
 30
0.0
 11
424.130485
 21
363.451578
 31
0.0
  0
ARC
  5
588
102
{ACAD_REACTORS
330
6F5
102
}
330
1F
100
AcDbEntity
  8
LC-001-002-----0
  6
ByBlock
 62
     7
370
    50
100
AcDbCircle
 10
428.630485
 20
363.451578
 30
0.0
 40
2.0
100
AcDbArc
 50
90.0
 51
180.0
  0
LINE
  5
589
102
{ACAD_REACTORS
330
6F5
102
}
330
1F
100
AcDbEntity
  8
LC-001-002-----0
  6
ByBlock
 62
     7
370
    50
100
AcDbLine
 10
401.024488
 20
348.952037
 30
0.0
 11
401.024488
 21
363.451578
 31
0.0
  0
LINE
  5
58A
102
{ACAD_REACTORS
330
6F5
102
}
330
1F
100
AcDbEntity
  8
LC-001-002-----0
  6
ByBlock
 62
     7
370
    50
100
AcDbLine
 10
396.694361
 20
348.952025
 30
0.0
 11
396.694361
 21
363.451578
 31
0.0
  0
LINE
  5
58B
102
{ACAD_REACTORS
330
6F5
102
}
330
1F
100
AcDbEntity
  8
LC-001-002-----0
  6
ByBlock
 62
     7
370
    50
100
AcDbLine
 10
402.775482
 20
365.451578
 30
0.0
 11
398.694361
 21
365.451578
 31
0.0
  0
ARC
  5
58C
102
{ACAD_REACTORS
330
6F5
102
}
330
1F
100
AcDbEntity
  8
LC-001-002-----0
  6
ByBlock
 62
     7
370
    50
100
AcDbCircle
 10
398.694361
 20
363.451578
 30
0.0
 40
2.0
100
AcDbArc
 50
90.0
 51
180.0
  0
ARC
  5
58D
102
{ACAD_REACTORS
330
6F5
102
}
330
1F
100
AcDbEntity
  8
LC-001-002-----0
  6
ByBlock
 62
     7
370
    50
100
AcDbCircle
 10
403.024488
 20
363.451578
 30
0.0
 40
1.999999999999988
100
AcDbArc
 50
97.096995
 51
180.0
  0
LINE
  5
58E
102
{ACAD_REACTORS
330
6F5
102
}
330
1F
100
AcDbEntity
  8
LC-001-002-----0
  6
ByBlock
 62
     7
370
    50
100
AcDbLine
 10
402.775482
 20
348.952042
 30
0.0
 11
402.775482
 21
365.451578
 31
0.0
  0
LINE
  5
58F
102
{ACAD_REACTORS
330
6F5
102
}
330
1F
100
AcDbEntity
  8
LC-001-002-----0
  6
ByBlock
 62
     7
370
    50
100
AcDbLine
 10
360.130983
 20
365.451578
 30
0.0
 11
362.630983
 21
365.451578
 31
0.0
  0
ARC
  5
590
102
{ACAD_REACTORS
330
6F5
102
}
330
1F
100
AcDbEntity
  8
LC-001-002-----0
  6
ByBlock
 62
     7
370
    50
100
AcDbCircle
 10
299.131481
 20
363.451578
 30
0.0
 40
2.0
100
AcDbArc
 50
0.0
 51
90.0
  0
LINE
  5
591
102
{ACAD_REACTORS
330
6F5
102
}
330
1F
100
AcDbEntity
  8
LC-001-002-----0
  6
ByBlock
 62
     7
370
    50
100
AcDbLine
 10
295.598672
 20
365.451578
 30
0.0
 11
299.131481
 21
365.451578
 31
0.0
  0
LINE
  5
592
102
{ACAD_REACTORS
330
6F5
102
}
330
1F
100
AcDbEntity
  8
LC-001-002-----0
  6
ByBlock
 62
     7
370
    50
100
AcDbLine
 10
295.598672
 20
348.951933
 30
0.0
 11
295.598672
 21
365.451578
 31
0.0
  0
LINE
  5
593
102
{ACAD_REACTORS
330
6F5
102
}
330
1F
100
AcDbEntity
  8
LC-001-002-----0
  6
ByBlock
 62
     7
370
    50
100
AcDbLine
 10
360.130983
 20
348.951933
 30
0.0
 11
360.130983
 21
365.451578
 31
0.0
  0
LINE
  5
594
102
{ACAD_REACTORS
330
6F5
102
}
330
1F
100
AcDbEntity
  8
LC-001-002-----0
  6
ByBlock
 62
     7
370
    50
100
AcDbLine
 10
298.631481
 20
348.951933
 30
0.0
 11
298.631481
 21
363.451578
 31
0.0
  0
LINE
  5
595
102
{ACAD_REACTORS
330
6F5
102
}
330
1F
100
AcDbEntity
  8
LC-001-002-----0
  6
ByBlock
 62
     7
370
    50
100
AcDbLine
 10
301.131481
 20
348.951933
 30
0.0
 11
301.131481
 21
363.451578
 31
0.0
  0
ARC
  5
596
102
{ACAD_REACTORS
330
6F5
102
}
330
1F
100
AcDbEntity
  8
LC-001-002-----0
  6
ByBlock
 62
     7
370
    50
100
AcDbCircle
 10
296.631481
 20
363.451578
 30
0.0
 40
2.0
100
AcDbArc
 50
0.0
 51
90.0
  0
LINE
  5
597
102
{ACAD_REACTORS
330
6F5
102
}
330
1F
100
AcDbEntity
  8
LC-001-002-----0
  6
ByBlock
 62
     7
370
    50
100
AcDbLine
 10
324.237478
 20
348.951933
 30
0.0
 11
324.237478
 21
363.451578
 31
0.0
  0
LINE
  5
598
102
{ACAD_REACTORS
330
6F5
102
}
330
1F
100
AcDbEntity
  8
LC-001-002-----0
  6
ByBlock
 62
     7
370
    50
100
AcDbLine
 10
328.567605
 20
348.951933
 30
0.0
 11
328.567605
 21
363.451578
 31
0.0
  0
LINE
  5
599
102
{ACAD_REACTORS
330
6F5
102
}
330
1F
100
AcDbEntity
  8
LC-001-002-----0
  6
ByBlock
 62
     7
370
    50
100
AcDbLine
 10
322.486484
 20
365.451578
 30
0.0
 11
326.567605
 21
365.451578
 31
0.0
  0
ARC
  5
59A
102
{ACAD_REACTORS
330
6F5
102
}
330
1F
100
AcDbEntity
  8
LC-001-002-----0
  6
ByBlock
 62
     7
370
    50
100
AcDbCircle
 10
326.567605
 20
363.451578
 30
0.0
 40
2.0
100
AcDbArc
 50
0.0
 51
90.0
  0
ARC
  5
59B
102
{ACAD_REACTORS
330
6F5
102
}
330
1F
100
AcDbEntity
  8
LC-001-002-----0
  6
ByBlock
 62
     7
370
    50
100
AcDbCircle
 10
322.237478
 20
363.451578
 30
0.0
 40
2.0
100
AcDbArc
 50
0.0
 51
82.903005
  0
LINE
  5
59C
102
{ACAD_REACTORS
330
6F5
102
}
330
1F
100
AcDbEntity
  8
LC-001-002-----0
  6
ByBlock
 62
     7
370
    50
100
AcDbLine
 10
322.486484
 20
348.951933
 30
0.0
 11
322.486484
 21
365.451578
 31
0.0
  0
LINE
  5
59D
102
{ACAD_REACTORS
330
6F6
102
}
330
1F
100
AcDbEntity
  8
LC-003-020-----0
 62
     7
370
    50
100
AcDbLine
 10
327.885018
 20
236.56802
 30
0.0
 11
318.135095
 21
236.568033
 31
0.0
  0
LINE
  5
59E
330
1F
100
AcDbEntity
  8
LC-001-002-----0
  6
ByBlock
 62
     7
370
    50
100
AcDbLine
 10
271.377415
 20
364.91276
 30
0.0
 11
271.377415
 21
369.580241
 31
0.0
  0
LINE
  5
59F
330
1F
100
AcDbEntity
  8
LC-001-002-----0
  6
ByBlock
 62
     7
370
    50
100
AcDbLine
 10
453.884518
 20
364.912518
 30
0.0
 11
453.884518
 21
369.580238
 31
0.0
  0
LINE
  5
5A0
330
1F
100
AcDbEntity
  8
LC-001-002-----0
  6
ByBlock
 62
     7
370
    50
100
AcDbLine
 10
406.940738
 20
346.452053
 30
0.0
 11
406.940731
 21
348.952053
 31
0.0
  0
LINE
  5
5A1
330
1F
100
AcDbEntity
  8
LC-001-002-----0
  6
ByBlock
 62
     7
370
    50
100
AcDbLine
 10
390.385836
 20
348.952008
 30
0.0
 11
406.940731
 21
348.952053
 31
0.0
  0
LINE
  5
5A2
330
1F
100
AcDbEntity
  8
LC-001-002-----0
  6
ByBlock
 62
     7
370
    50
100
AcDbLine
 10
403.376223
 20
346.452043
 30
0.0
 11
403.376217
 21
348.952043
 31
0.0
  0
LINE
  5
5A3
330
1F
100
AcDbEntity
  8
LC-001-002-----0
  6
ByBlock
 62
     7
370
    50
100
AcDbLine
 10
390.385842
 20
346.452008
 30
0.0
 11
390.385836
 21
348.952008
 31
0.0
  0
LINE
  5
5A4
330
1F
100
AcDbEntity
  8
LC-001-002-----0
  6
ByBlock
 62
     7
370
    50
100
AcDbLine
 10
418.203773
 20
346.452083
 30
0.0
 11
418.203766
 21
348.952083
 31
0.0
  0
LINE
  5
5A5
330
1F
100
AcDbEntity
  8
LC-001-002-----0
  6
ByBlock
 62
     7
370
    50
100
AcDbLine
 10
357.631005
 20
348.951933
 30
0.0
 11
367.631005
 21
348.951933
 31
0.0
  0
LINE
  5
5A6
330
1F
100
AcDbEntity
  8
LC-001-002-----0
  6
ByBlock
 62
     7
370
    50
100
AcDbLine
 10
367.631008
 20
346.451933
 30
0.0
 11
367.631005
 21
348.951933
 31
0.0
  0
LINE
  5
5A7
330
1F
100
AcDbEntity
  8
LC-001-002-----0
  6
ByBlock
 62
     7
370
    50
100
AcDbLine
 10
357.631008
 20
346.451933
 30
0.0
 11
357.631005
 21
348.951933
 31
0.0
  0
DIMENSION
  5
5A8
330
1F
100
AcDbEntity
  8
LC-007-003-----0
 62
     7
370
    25
100
AcDbDimension
  2
*D38
 10
612.44059
 20
493.614
 30
0.0
 11
363.56141
 21
524.414
 31
0.0
 70
   160
  1
%%c500
 71
     5
 42
499.619215
  3
LC-DIM-L-0140-02-02
100
AcDbAlignedDimension
 13
112.821376
 23
375.76175
 33
0.0
 14
612.44059
 24
375.76175
 34
0.0
100
AcDbRotatedDimension
  0
LINE
  5
5B5
102
{ACAD_REACTORS
330
6F7
102
}
330
1F
100
AcDbEntity
  8
LC-001-002-----0
  6
ByBlock
 62
     7
370
    50
100
AcDbLine
 10
453.884258
 20
364.916131
 30
0.0
 11
447.948606
 21
364.50107
 31
0.0
  0
LINE
  5
5B6
102
{ACAD_REACTORS
330
6F7
102
}
330
1F
100
AcDbEntity
  8
LC-001-002-----0
  6
ByBlock
 62
     7
370
    50
100
AcDbLine
 10
449.025185
 20
362.055302
 30
0.0
 11
449.025185
 21
349.202883
 31
0.0
  0
LINE
  5
5B7
102
{ACAD_REACTORS
330
6F7
102
}
330
1F
100
AcDbEntity
  8
LC-001-002-----0
  6
ByBlock
 62
     7
370
    50
100
AcDbLine
 10
449.025185
 20
362.055302
 30
0.0
 11
450.743129
 21
362.055302
 31
0.0
  0
LINE
  5
5B8
102
{ACAD_REACTORS
330
6F7
102
}
330
1F
100
AcDbEntity
  8
LC-001-002-----0
  6
ByBlock
 62
     7
370
    50
100
AcDbLine
 10
453.884511
 20
364.912527
 30
0.0
 11
453.884511
 21
357.289554
 31
0.0
  0
ARC
  5
5B9
102
{ACAD_REACTORS
330
6F7
102
}
330
1F
100
AcDbEntity
  8
LC-004-002-RND-0
 62
     7
370
    50
100
AcDbCircle
 10
452.80466
 20
357.302387
 30
0.0
 40
1.079850015200164
100
AcDbArc
 50
273.999997
 51
0.0
  0
LINE
  5
5BA
102
{ACAD_REACTORS
330
6F7
102
}
330
1F
100
AcDbEntity
  8
LC-001-002-----0
  6
ByBlock
 62
     7
370
    50
100
AcDbLine
 10
452.879987
 20
356.225167
 30
0.0
 11
450.743129
 21
356.075744
 31
0.0
  0
LINE
  5
5BB
102
{ACAD_REACTORS
330
6F7
102
}
330
1F
100
AcDbEntity
  8
LC-001-002-----0
  6
ByBlock
 62
     7
370
    50
100
AcDbLine
 10
450.743129
 20
356.075744
 30
0.0
 11
450.743129
 21
362.055302
 31
0.0
  0
INSERT
  5
5C9
102
{ACAD_REACTORS
330
6F7
102
}
330
1F
100
AcDbEntity
  8
LC-005-005-----0
 62
     7
370
    25
100
AcDbBlockReference
  2
*X3239
 10
0.0
 20
0.0
 30
0.0
  0
ARC
  5
5CA
102
{ACAD_REACTORS
330
6F7
102
}
330
1F
100
AcDbEntity
  8
LC-001-002-----0
  6
ByBlock
 62
     7
370
    50
100
AcDbCircle
 10
448.229277
 20
360.487284
 30
0.0
 40
4.023715445600775
100
AcDbArc
 50
93.998836
 51
111.246312
  0
LINE
  5
5CB
102
{ACAD_REACTORS
330
6F7
102
}
330
1F
100
AcDbEntity
  8
LC-001-002-----0
  6
ByBlock
 62
     7
370
    50
100
AcDbLine
 10
441.831297
 20
358.940361
 30
0.0
 11
446.771171
 21
364.237513
 31
0.0
  0
ARC
  5
5CC
102
{ACAD_REACTORS
330
6F7
102
}
330
1F
100
AcDbEntity
  8
LC-001-002-----0
  6
ByBlock
 62
     7
370
    50
100
AcDbCircle
 10
442.048526
 20
358.739984
 30
0.0
 40
0.2964426900001378
100
AcDbArc
 50
137.000136
 51
290.000136
  0
LINE
  5
5CD
102
{ACAD_REACTORS
330
6F7
102
}
330
1F
100
AcDbEntity
  8
LC-001-002-----0
  6
ByBlock
 62
     7
370
    50
100
AcDbLine
 10
442.149481
 20
358.459616
 30
0.0
 11
445.442671
 21
359.658164
 31
0.0
  0
ARC
  5
5CE
102
{ACAD_REACTORS
330
6F7
102
}
330
1F
100
AcDbEntity
  8
LC-001-002-----0
  6
ByBlock
 62
     7
370
    50
100
AcDbCircle
 10
445.780617
 20
358.729607
 30
0.0
 40
0.9881423000000601
100
AcDbArc
 50
359.998586
 51
109.998839
  0
LINE
  5
5CF
102
{ACAD_REACTORS
330
6F7
102
}
330
1F
100
AcDbEntity
  8
LC-001-002-----0
  6
ByBlock
 62
     7
370
    50
100
AcDbLine
 10
446.768759
 20
358.729607
 30
0.0
 11
446.768729
 21
357.413869
 31
0.0
  0
ARC
  5
5D0
102
{ACAD_REACTORS
330
6F7
102
}
330
1F
100
AcDbEntity
  8
LC-001-002-----0
  6
ByBlock
 62
     7
370
    50
100
AcDbCircle
 10
446.274658
 20
357.41388
 30
0.0
 40
0.4940711500000348
100
AcDbArc
 50
316.998839
 51
359.998703
  0
LINE
  5
5D1
102
{ACAD_REACTORS
330
6F7
102
}
330
1F
100
AcDbEntity
  8
LC-001-002-----0
  6
ByBlock
 62
     7
370
    50
100
AcDbLine
 10
441.831138
 20
351.924551
 30
0.0
 11
446.635992
 21
357.076917
 31
0.0
  0
ARC
  5
5D2
102
{ACAD_REACTORS
330
6F7
102
}
330
1F
100
AcDbEntity
  8
LC-001-002-----0
  6
ByBlock
 62
     7
370
    50
100
AcDbCircle
 10
442.048526
 20
351.724174
 30
0.0
 40
0.2964426900000603
100
AcDbArc
 50
137.000136
 51
290.000136
  0
LINE
  5
5D3
102
{ACAD_REACTORS
330
6F7
102
}
330
1F
100
AcDbEntity
  8
LC-001-002-----0
  6
ByBlock
 62
     7
370
    50
100
AcDbLine
 10
442.149322
 20
351.443806
 30
0.0
 11
445.442513
 21
352.642354
 31
0.0
  0
ARC
  5
5D4
102
{ACAD_REACTORS
330
6F7
102
}
330
1F
100
AcDbEntity
  8
LC-001-002-----0
  6
ByBlock
 62
     7
370
    50
100
AcDbCircle
 10
445.780458
 20
351.713797
 30
0.0
 40
0.9881423000000601
100
AcDbArc
 50
359.998586
 51
109.998839
  0
LINE
  5
5D5
102
{ACAD_REACTORS
330
6F7
102
}
330
1F
100
AcDbEntity
  8
LC-001-002-----0
  6
ByBlock
 62
     7
370
    50
100
AcDbLine
 10
446.768586
 20
351.713774
 30
0.0
 11
446.768524
 21
349.200976
 31
0.0
  0
LINE
  5
5D6
102
{ACAD_REACTORS
330
6F7
102
}
330
1F
100
AcDbEntity
  8
LC-001-002-----0
  6
ByBlock
 62
     7
370
    50
100
AcDbLine
 10
449.024657
 20
349.202883
 30
0.0
 11
446.768524
 21
349.202883
 31
0.0
  0
LINE
  5
5D7
102
{ACAD_REACTORS
330
6F9
102
}
330
1F
100
AcDbEntity
  8
LC-001-002-----0
  6
ByBlock
 62
     7
370
    50
100
AcDbLine
 10
271.377708
 20
364.915885
 30
0.0
 11
277.313361
 21
364.50084
 31
0.0
  0
LINE
  5
5D8
102
{ACAD_REACTORS
330
6F9
102
}
330
1F
100
AcDbEntity
  8
LC-001-002-----0
  6
ByBlock
 62
     7
370
    50
100
AcDbLine
 10
276.236788
 20
362.055069
 30
0.0
 11
276.236823
 21
349.20265
 31
0.0
  0
LINE
  5
5D9
102
{ACAD_REACTORS
330
6F9
102
}
330
1F
100
AcDbEntity
  8
LC-001-002-----0
  6
ByBlock
 62
     7
370
    50
100
AcDbLine
 10
276.236788
 20
362.055069
 30
0.0
 11
274.518845
 21
362.055064
 31
0.0
  0
LINE
  5
5DA
102
{ACAD_REACTORS
330
6F9
102
}
330
1F
100
AcDbEntity
  8
LC-001-002-----0
  6
ByBlock
 62
     7
370
    50
100
AcDbLine
 10
271.377456
 20
364.912281
 30
0.0
 11
271.377476
 21
357.289308
 31
0.0
  0
ARC
  5
5DB
102
{ACAD_REACTORS
330
6F9
102
}
330
1F
100
AcDbEntity
  8
LC-004-002-RND-0
 62
     7
370
    50
100
AcDbCircle
 10
272.457326
 20
357.302144
 30
0.0
 40
1.07985001520018
100
AcDbArc
 50
180.000154
 51
266.000158
  0
LINE
  5
5DC
102
{ACAD_REACTORS
330
6F9
102
}
330
1F
100
AcDbEntity
  8
LC-001-002-----0
  6
ByBlock
 62
     7
370
    50
100
AcDbLine
 10
272.382003
 20
356.224924
 30
0.0
 11
274.518861
 21
356.075506
 31
0.0
  0
LINE
  5
5DD
102
{ACAD_REACTORS
330
6F9
102
}
330
1F
100
AcDbEntity
  8
LC-001-002-----0
  6
ByBlock
 62
     7
370
    50
100
AcDbLine
 10
274.518861
 20
356.075506
 30
0.0
 11
274.518845
 21
362.055064
 31
0.0
  0
INSERT
  5
5F0
102
{ACAD_REACTORS
330
6F9
102
}
330
1F
100
AcDbEntity
  8
LC-005-005-----0
 62
     7
370
    25
100
AcDbBlockReference
  2
*X3340
 10
0.0
 20
0.0
 30
0.0
  0
ARC
  5
5F1
102
{ACAD_REACTORS
330
6F9
102
}
330
1F
100
AcDbEntity
  8
LC-001-002-----0
  6
ByBlock
 62
     7
370
    50
100
AcDbCircle
 10
277.032701
 20
360.487054
 30
0.0
 40
4.023715445600808
100
AcDbArc
 50
68.753843
 51
86.001319
  0
LINE
  5
5F2
102
{ACAD_REACTORS
330
6F9
102
}
330
1F
100
AcDbEntity
  8
LC-001-002-----0
  6
ByBlock
 62
     7
370
    50
100
AcDbLine
 10
283.430686
 20
358.940148
 30
0.0
 11
278.490797
 21
364.237286
 31
0.0
  0
ARC
  5
5F3
102
{ACAD_REACTORS
330
6F9
102
}
330
1F
100
AcDbEntity
  8
LC-001-002-----0
  6
ByBlock
 62
     7
370
    50
100
AcDbCircle
 10
283.213457
 20
358.73977
 30
0.0
 40
0.2964426900001584
100
AcDbArc
 50
250.000019
 51
43.000019
  0
LINE
  5
5F4
102
{ACAD_REACTORS
330
6F9
102
}
330
1F
100
AcDbEntity
  8
LC-001-002-----0
  6
ByBlock
 62
     7
370
    50
100
AcDbLine
 10
283.112503
 20
358.459402
 30
0.0
 11
279.819309
 21
359.657941
 31
0.0
  0
ARC
  5
5F5
102
{ACAD_REACTORS
330
6F9
102
}
330
1F
100
AcDbEntity
  8
LC-001-002-----0
  6
ByBlock
 62
     7
370
    50
100
AcDbCircle
 10
279.481366
 20
358.729383
 30
0.0
 40
0.9881423000000564
100
AcDbArc
 50
70.001316
 51
180.001568
  0
LINE
  5
5F6
102
{ACAD_REACTORS
330
6F9
102
}
330
1F
100
AcDbEntity
  8
LC-001-002-----0
  6
ByBlock
 62
     7
370
    50
100
AcDbLine
 10
278.493224
 20
358.72938
 30
0.0
 11
278.493257
 21
357.413642
 31
0.0
  0
ARC
  5
5F7
102
{ACAD_REACTORS
330
6F9
102
}
330
1F
100
AcDbEntity
  8
LC-001-002-----0
  6
ByBlock
 62
     7
370
    50
100
AcDbCircle
 10
278.987328
 20
357.413654
 30
0.0
 40
0.4940711500000588
100
AcDbArc
 50
180.001451
 51
223.001316
  0
LINE
  5
5F8
102
{ACAD_REACTORS
330
6F9
102
}
330
1F
100
AcDbEntity
  8
LC-001-002-----0
  6
ByBlock
 62
     7
370
    50
100
AcDbLine
 10
283.430863
 20
351.924337
 30
0.0
 11
278.625995
 21
357.07669
 31
0.0
  0
ARC
  5
5F9
102
{ACAD_REACTORS
330
6F9
102
}
330
1F
100
AcDbEntity
  8
LC-001-002-----0
  6
ByBlock
 62
     7
370
    50
100
AcDbCircle
 10
283.213476
 20
351.72396
 30
0.0
 40
0.2964426900000321
100
AcDbArc
 50
250.000019
 51
43.000019
  0
LINE
  5
5FA
102
{ACAD_REACTORS
330
6F9
102
}
330
1F
100
AcDbEntity
  8
LC-001-002-----0
  6
ByBlock
 62
     7
370
    50
100
AcDbLine
 10
283.112681
 20
351.443592
 30
0.0
 11
279.819487
 21
352.64213
 31
0.0
  0
ARC
  5
5FB
102
{ACAD_REACTORS
330
6F9
102
}
330
1F
100
AcDbEntity
  8
LC-001-002-----0
  6
ByBlock
 62
     7
370
    50
100
AcDbCircle
 10
279.481543
 20
351.713573
 30
0.0
 40
0.9881423000000759
100
AcDbArc
 50
70.001316
 51
180.001568
  0
LINE
  5
5FC
102
{ACAD_REACTORS
330
6F9
102
}
330
1F
100
AcDbEntity
  8
LC-001-002-----0
  6
ByBlock
 62
     7
370
    50
100
AcDbLine
 10
278.493415
 20
351.713548
 30
0.0
 11
278.493484
 21
349.200749
 31
0.0
  0
LINE
  5
5FD
102
{ACAD_REACTORS
330
6F9
102
}
330
1F
100
AcDbEntity
  8
LC-001-002-----0
  6
ByBlock
 62
     7
370
    50
100
AcDbLine
 10
276.237352
 20
349.20265
 30
0.0
 11
278.493484
 21
349.202656
 31
0.0
  0
LINE
  5
5FE
330
1F
100
AcDbEntity
  8
LC-001-002-----0
 62
     7
370
    25
100
AcDbLine
 10
500.631059
 20
289.116633
 30
0.0
 11
424.637185
 21
289.116633
 31
0.0
  0
LINE
  5
5FF
102
{ACAD_REACTORS
330
6F8
102
}
330
1F
100
AcDbEntity
  8
LC-001-002-----0
  6
ByBlock
 62
     7
370
    50
100
AcDbLine
 10
462.131059
 20
228.116383
 30
0.0
 11
530.131059
 21
228.116383
 31
0.0
  0
LINE
  5
600
102
{ACAD_REACTORS
330
6F8
102
}
330
1F
100
AcDbEntity
  8
LC-001-002-----0
  6
ByBlock
 62
     7
370
    50
100
AcDbLine
 10
463.631059
 20
230.816383
 30
0.0
 11
534.631059
 21
230.816383
 31
0.0
  0
LINE
  5
601
102
{ACAD_REACTORS
330
6F8
102
}
330
1F
100
AcDbEntity
  8
LC-001-002-----0
  6
ByBlock
 62
     7
370
    50
100
AcDbLine
 10
460.631059
 20
229.616383
 30
0.0
 11
460.631059
 21
244.616383
 31
0.0
  0
LINE
  5
602
102
{ACAD_REACTORS
330
6F8
102
}
330
1F
100
AcDbEntity
  8
LC-001-002-----0
  6
ByBlock
 62
     7
370
    50
100
AcDbLine
 10
462.131059
 20
338.116383
 30
0.0
 11
530.131059
 21
338.116383
 31
0.0
  0
LINE
  5
603
102
{ACAD_REACTORS
330
6F8
102
}
330
1F
100
AcDbEntity
  8
LC-001-002-----0
  6
ByBlock
 62
     7
370
    50
100
AcDbLine
 10
534.631059
 20
229.322155
 30
0.0
 11
534.631059
 21
336.910612
 31
0.0
  0
LINE
  5
604
102
{ACAD_REACTORS
330
6F8
102
}
330
1F
100
AcDbEntity
  8
LC-001-002-----0
  6
ByBlock
 62
     7
370
    50
100
AcDbLine
 10
530.131059
 20
228.116383
 30
0.0
 11
534.631059
 21
229.322155
 31
0.0
  0
LINE
  5
605
102
{ACAD_REACTORS
330
6F8
102
}
330
1F
100
AcDbEntity
  8
LC-001-002-----0
  6
ByBlock
 62
     7
370
    50
100
AcDbLine
 10
530.131059
 20
338.116383
 30
0.0
 11
534.631059
 21
336.910612
 31
0.0
  0
LINE
  5
606
102
{ACAD_REACTORS
330
6F8
102
}
330
1F
100
AcDbEntity
  8
LC-001-002-----0
  6
ByBlock
 62
     7
370
    50
100
AcDbLine
 10
463.631059
 20
335.416383
 30
0.0
 11
534.631059
 21
335.416383
 31
0.0
  0
LINE
  5
607
102
{ACAD_REACTORS
330
6F8
102
}
330
1F
100
AcDbEntity
  8
LC-001-002-----0
  6
ByBlock
 62
     7
370
    50
100
AcDbLine
 10
463.631059
 20
230.816383
 30
0.0
 11
463.631059
 21
249.416383
 31
0.0
  0
LINE
  5
608
102
{ACAD_REACTORS
330
6F8
102
}
330
1F
100
AcDbEntity
  8
LC-001-002-----0
  6
ByBlock
 62
     7
370
    50
100
AcDbLine
 10
445.631059
 20
249.416383
 30
0.0
 11
445.631059
 21
251.416383
 31
0.0
  0
LINE
  5
609
102
{ACAD_REACTORS
330
6F8
102
}
330
1F
100
AcDbEntity
  8
LC-001-002-----0
  6
ByBlock
 62
     7
370
    50
100
AcDbLine
 10
453.664071
 20
333.116383
 30
0.0
 11
460.131059
 21
333.116383
 31
0.0
  0
LINE
  5
60A
102
{ACAD_REACTORS
330
6F8
102
}
330
1F
100
AcDbEntity
  8
LC-001-002-----0
  6
ByBlock
 62
     7
370
    50
100
AcDbLine
 10
453.664071
 20
245.116383
 30
0.0
 11
460.131059
 21
245.116383
 31
0.0
  0
LINE
  5
60B
102
{ACAD_REACTORS
330
6F8
102
}
330
1F
100
AcDbEntity
  8
LC-001-002-----0
  6
ByBlock
 62
     7
370
    50
100
AcDbLine
 10
497.631059
 20
251.416383
 30
0.0
 11
461.731059
 21
251.416383
 31
0.0
  0
LINE
  5
60C
102
{ACAD_REACTORS
330
6F8
102
}
330
1F
100
AcDbEntity
  8
LC-001-002-----0
  6
ByBlock
 62
     7
370
    50
100
AcDbLine
 10
497.631059
 20
326.816383
 30
0.0
 11
461.731059
 21
326.816383
 31
0.0
  0
LINE
  5
60D
102
{ACAD_REACTORS
330
6F8
102
}
330
1F
100
AcDbEntity
  8
LC-001-002-----0
  6
ByBlock
 62
     7
370
    50
100
AcDbLine
 10
500.631059
 20
249.416383
 30
0.0
 11
500.631059
 21
328.816383
 31
0.0
  0
LINE
  5
60E
102
{ACAD_REACTORS
330
6F8
102
}
330
1F
100
AcDbEntity
  8
LC-001-002-----0
  6
ByBlock
 62
     7
370
    50
100
AcDbLine
 10
500.631059
 20
249.416383
 30
0.0
 11
463.631059
 21
249.416383
 31
0.0
  0
LINE
  5
60F
102
{ACAD_REACTORS
330
6F8
102
}
330
1F
100
AcDbEntity
  8
LC-001-002-----0
  6
ByBlock
 62
     7
370
    50
100
AcDbLine
 10
500.631059
 20
328.816383
 30
0.0
 11
463.631059
 21
328.816383
 31
0.0
  0
LINE
  5
610
102
{ACAD_REACTORS
330
6F8
102
}
330
1F
100
AcDbEntity
  8
LC-001-002-----0
  6
ByBlock
 62
     7
370
    50
100
AcDbLine
 10
463.631059
 20
328.816383
 30
0.0
 11
463.631059
 21
335.416383
 31
0.0
  0
LINE
  5
611
102
{ACAD_REACTORS
330
6F8
102
}
330
1F
100
AcDbEntity
  8
LC-001-002-----0
  6
ByBlock
 62
     7
370
    50
100
AcDbLine
 10
460.631059
 20
333.616383
 30
0.0
 11
460.631059
 21
336.616383
 31
0.0
  0
LINE
  5
612
102
{ACAD_REACTORS
330
6F8
102
}
330
1F
100
AcDbEntity
  8
LC-001-002-----0
  6
ByBlock
 62
     7
370
    50
100
AcDbLine
 10
448.872064
 20
249.416383
 30
0.0
 11
445.631059
 21
249.416383
 31
0.0
  0
LINE
  5
613
102
{ACAD_REACTORS
330
6F8
102
}
330
1F
100
AcDbEntity
  8
LC-001-002-----0
  6
ByBlock
 62
     7
370
    50
100
AcDbLine
 10
448.872064
 20
328.816383
 30
0.0
 11
445.631059
 21
328.816383
 31
0.0
  0
LINE
  5
614
102
{ACAD_REACTORS
330
6F8
102
}
330
1F
100
AcDbEntity
  8
LC-001-002-----0
  6
ByBlock
 62
     7
370
    50
100
AcDbLine
 10
461.731059
 20
246.866383
 30
0.0
 11
453.231059
 21
246.866383
 31
0.0
  0
LINE
  5
615
102
{ACAD_REACTORS
330
6F8
102
}
330
1F
100
AcDbEntity
  8
LC-001-002-----0
  6
ByBlock
 62
     7
370
    50
100
AcDbLine
 10
461.731059
 20
331.366383
 30
0.0
 11
453.231059
 21
331.366383
 31
0.0
  0
LINE
  5
616
102
{ACAD_REACTORS
330
6F8
102
}
330
1F
100
AcDbEntity
  8
LC-001-002-----0
  6
ByBlock
 62
     7
370
    50
100
AcDbLine
 10
450.604115
 20
251.416383
 30
0.0
 11
445.631059
 21
251.416383
 31
0.0
  0
LINE
  5
617
102
{ACAD_REACTORS
330
6F8
102
}
330
1F
100
AcDbEntity
  8
LC-001-002-----0
  6
ByBlock
 62
     7
370
    50
100
AcDbLine
 10
450.604115
 20
326.816383
 30
0.0
 11
445.631059
 21
326.816383
 31
0.0
  0
LINE
  5
618
102
{ACAD_REACTORS
330
6F8
102
}
330
1F
100
AcDbEntity
  8
LC-001-002-----0
  6
ByBlock
 62
     7
370
    50
100
AcDbLine
 10
450.604115
 20
251.416383
 30
0.0
 11
453.231059
 21
246.866383
 31
0.0
  0
LINE
  5
619
102
{ACAD_REACTORS
330
6F8
102
}
330
1F
100
AcDbEntity
  8
LC-001-002-----0
  6
ByBlock
 62
     7
370
    50
100
AcDbLine
 10
450.604115
 20
326.816383
 30
0.0
 11
453.231059
 21
331.366383
 31
0.0
  0
LINE
  5
61A
102
{ACAD_REACTORS
330
6F8
102
}
330
1F
100
AcDbEntity
  8
LC-001-002-----0
  6
ByBlock
 62
     7
370
    50
100
AcDbLine
 10
449.73809
 20
248.916383
 30
0.0
 11
451.065995
 21
246.616383
 31
0.0
  0
LINE
  5
61B
102
{ACAD_REACTORS
330
6F8
102
}
330
1F
100
AcDbEntity
  8
LC-001-002-----0
  6
ByBlock
 62
     7
370
    50
100
AcDbLine
 10
449.73809
 20
329.316383
 30
0.0
 11
451.065995
 21
331.616383
 31
0.0
  0
LINE
  5
61C
102
{ACAD_REACTORS
330
6F8
102
}
330
1F
100
AcDbEntity
  8
LC-001-002-----0
  6
ByBlock
 62
     7
370
    50
100
AcDbLine
 10
497.631059
 20
251.416383
 30
0.0
 11
500.631059
 21
252.220231
 31
0.0
  0
LINE
  5
61D
102
{ACAD_REACTORS
330
6F8
102
}
330
1F
100
AcDbEntity
  8
LC-001-002-----0
  6
ByBlock
 62
     7
370
    50
100
AcDbLine
 10
497.631059
 20
326.816383
 30
0.0
 11
500.631059
 21
326.012536
 31
0.0
  0
ARC
  5
61E
102
{ACAD_REACTORS
330
6F8
102
}
330
1F
100
AcDbEntity
  8
LC-004-002-RND-0
 62
     7
370
    50
100
AcDbCircle
 10
460.131059
 20
244.616383
 30
0.0
 40
0.5
100
AcDbArc
 50
0.0
 51
90.0
  0
ARC
  5
61F
102
{ACAD_REACTORS
330
6F8
102
}
330
1F
100
AcDbEntity
  8
LC-004-002-RND-0
 62
     7
370
    50
100
AcDbCircle
 10
460.131059
 20
333.616383
 30
0.0
 40
0.5
100
AcDbArc
 50
270.0
 51
0.0
  0
ARC
  5
620
102
{ACAD_REACTORS
330
6F8
102
}
330
1F
100
AcDbEntity
  8
LC-004-002-RND-0
 62
     7
370
    50
100
AcDbCircle
 10
448.872064
 20
248.416383
 30
0.0
 40
0.9999999999999836
100
AcDbArc
 50
30.0
 51
90.0
  0
ARC
  5
621
102
{ACAD_REACTORS
330
6F8
102
}
330
1F
100
AcDbEntity
  8
LC-004-002-RND-0
 62
     7
370
    50
100
AcDbCircle
 10
448.872064
 20
329.816383
 30
0.0
 40
1.0
100
AcDbArc
 50
270.0
 51
330.0
  0
ARC
  5
622
102
{ACAD_REACTORS
330
6F8
102
}
330
1F
100
AcDbEntity
  8
LC-004-002-RND-0
 62
     7
370
    50
100
AcDbCircle
 10
448.872064
 20
248.416383
 30
0.0
 40
0.9999999999999836
100
AcDbArc
 50
30.0
 51
90.0
  0
ARC
  5
623
102
{ACAD_REACTORS
330
6F8
102
}
330
1F
100
AcDbEntity
  8
LC-004-002-RND-0
 62
     7
370
    50
100
AcDbCircle
 10
453.664071
 20
248.116383
 30
0.0
 40
2.999999999999965
100
AcDbArc
 50
210.0
 51
270.0
  0
ARC
  5
624
102
{ACAD_REACTORS
330
6F8
102
}
330
1F
100
AcDbEntity
  8
LC-004-002-RND-0
 62
     7
370
    50
100
AcDbCircle
 10
453.664071
 20
330.116383
 30
0.0
 40
3.0
100
AcDbArc
 50
90.0
 51
150.0
  0
ARC
  5
625
102
{ACAD_REACTORS
330
6F8
102
}
330
1F
100
AcDbEntity
  8
LC-004-002-RND-0
 62
     7
370
    50
100
AcDbCircle
 10
462.131059
 20
229.616383
 30
0.0
 40
1.5
100
AcDbArc
 50
180.0
 51
270.0
  0
ARC
  5
626
102
{ACAD_REACTORS
330
6F8
102
}
330
1F
100
AcDbEntity
  8
LC-004-002-RND-0
 62
     7
370
    50
100
AcDbCircle
 10
462.131059
 20
336.616383
 30
0.0
 40
1.5
100
AcDbArc
 50
90.0
 51
180.0
  0
LINE
  5
627
102
{ACAD_REACTORS
330
6F8
102
}
330
1F
100
AcDbEntity
  8
LC-001-002-----0
  6
ByBlock
 62
     7
370
    50
100
AcDbLine
 10
461.731059
 20
246.866383
 30
0.0
 11
461.731059
 21
251.416383
 31
0.0
  0
LINE
  5
62A
102
{ACAD_REACTORS
330
6F8
102
}
330
1F
100
AcDbEntity
  8
LC-008-006-MLN-0
 62
     7
370
    25
100
AcDbLine
 10
544.631059
 20
283.116383
 30
0.0
 11
490.631059
 21
283.116383
 31
0.0
  0
INSERT
  5
67D
102
{ACAD_REACTORS
330
6F8
102
}
330
1F
100
AcDbEntity
  8
LC-005-005-----0
 62
     7
370
    25
100
AcDbBlockReference
  2
*X3441
 10
0.0
 20
0.0
 30
0.0
  0
LINE
  5
67E
102
{ACAD_REACTORS
330
6F8
102
}
330
1F
100
AcDbEntity
  8
LC-001-002-----0
  6
ByBlock
 62
     7
370
    25
100
AcDbLine
 10
451.065995
 20
331.616383
 30
0.0
 11
451.932021
 21
333.116383
 31
0.0
  0
LINE
  5
67F
102
{ACAD_REACTORS
330
6F8
102
}
330
1F
100
AcDbEntity
  8
LC-001-002-----0
  6
ByBlock
 62
     7
370
    25
100
AcDbLine
 10
449.449414
 20
328.816383
 30
0.0
 11
448.872064
 21
328.816383
 31
0.0
  0
LINE
  5
680
102
{ACAD_REACTORS
330
6F8
102
}
330
1F
100
AcDbEntity
  8
LC-001-002-----0
  6
ByBlock
 62
     7
370
    25
100
AcDbLine
 10
449.449414
 20
328.816383
 30
0.0
 11
449.73809
 21
329.316383
 31
0.0
  0
LINE
  5
681
102
{ACAD_REACTORS
330
6F8
102
}
330
1F
100
AcDbEntity
  8
LC-001-002-----0
  6
ByBlock
 62
     7
370
    50
100
AcDbLine
 10
445.631059
 20
326.816383
 30
0.0
 11
445.631059
 21
328.816383
 31
0.0
  0
LINE
  5
682
102
{ACAD_REACTORS
330
6F8
102
}
330
1F
100
AcDbEntity
  8
LC-001-002-----0
  6
ByBlock
 62
     7
370
    50
100
AcDbLine
 10
461.731059
 20
326.816383
 30
0.0
 11
461.731059
 21
331.366383
 31
0.0
  0
LINE
  5
684
102
{ACAD_REACTORS
330
6FA
102
}
330
1F
100
AcDbEntity
  8
LC-009-100-D00-0
 62
     7
370
    50
100
AcDbLine
 10
458.583963
 20
325.852945
 30
0.0
 11
455.542522
 21
327.608922
 31
0.0
  0
ARC
  5
685
102
{ACAD_REACTORS
330
6FA
102
}
330
1F
100
AcDbEntity
  8
LC-009-100-D00-0
 62
     7
370
    50
100
AcDbCircle
 10
456.022776
 20
328.779888
 30
0.0
 40
1.265625000000102
100
AcDbArc
 50
167.699734
 51
247.699734
  0
LINE
  5
686
102
{ACAD_REACTORS
330
6FA
102
}
330
1F
100
AcDbEntity
  8
LC-009-100-D00-0
 62
     7
370
    50
100
AcDbLine
 10
454.786204
 20
329.049511
 30
0.0
 11
455.29248
 21
330.440491
 31
0.0
  0
ARC
  5
687
102
{ACAD_REACTORS
330
6FA
102
}
330
1F
100
AcDbEntity
  8
LC-009-100-D00-0
 62
     7
370
    50
100
AcDbCircle
 10
456.006059
 20
330.18077
 30
0.0
 40
0.759375000000091
100
AcDbArc
 50
90.0
 51
160.0
  0
LINE
  5
688
102
{ACAD_REACTORS
330
6FA
102
}
330
1F
100
AcDbEntity
  8
LC-009-100-D00-0
 62
     7
370
    50
100
AcDbLine
 10
456.006059
 20
330.940145
 30
0.0
 11
456.23224
 21
330.940145
 31
0.0
  0
LINE
  5
689
102
{ACAD_REACTORS
330
6FA
102
}
330
1F
100
AcDbEntity
  8
LC-009-100-D00-0
 62
     7
370
    50
100
AcDbLine
 10
456.23224
 20
330.940145
 30
0.0
 11
456.450741
 21
331.396999
 31
0.0
  0
ARC
  5
68A
102
{ACAD_REACTORS
330
6FA
102
}
330
1F
100
AcDbEntity
  8
LC-009-100-D00-0
 62
     7
370
    50
100
AcDbCircle
 10
456.527553
 20
331.360262
 30
0.0
 40
0.085144671124813
100
AcDbArc
 50
25.560506
 51
154.439494
  0
LINE
  5
68B
102
{ACAD_REACTORS
330
6FA
102
}
330
1F
100
AcDbEntity
  8
LC-009-100-D00-0
 62
     7
370
    50
100
AcDbLine
 10
456.604364
 20
331.396999
 30
0.0
 11
456.822865
 21
330.940145
 31
0.0
  0
LINE
  5
68C
102
{ACAD_REACTORS
330
6FA
102
}
330
1F
100
AcDbEntity
  8
LC-009-100-D00-0
 62
     7
370
    50
100
AcDbLine
 10
456.822865
 20
330.940145
 30
0.0
 11
457.41349
 21
330.940145
 31
0.0
  0
LINE
  5
68D
102
{ACAD_REACTORS
330
6FA
102
}
330
1F
100
AcDbEntity
  8
LC-009-100-D00-0
 62
     7
370
    50
100
AcDbLine
 10
457.41349
 20
330.940145
 30
0.0
 11
457.632686
 21
331.398451
 31
0.0
  0
ARC
  5
68E
102
{ACAD_REACTORS
330
6FA
102
}
330
1F
100
AcDbEntity
  8
LC-009-100-D00-0
 62
     7
370
    50
100
AcDbCircle
 10
457.708803
 20
331.362046
 30
0.0
 40
0.0843749999999833
100
AcDbArc
 50
25.560506
 51
154.439494
  0
LINE
  5
68F
102
{ACAD_REACTORS
330
6FA
102
}
330
1F
100
AcDbEntity
  8
LC-009-100-D00-0
 62
     7
370
    50
100
AcDbLine
 10
457.78492
 20
331.398451
 30
0.0
 11
458.004115
 21
330.940145
 31
0.0
  0
LINE
  5
690
102
{ACAD_REACTORS
330
6FA
102
}
330
1F
100
AcDbEntity
  8
LC-009-100-D00-0
 62
     7
370
    50
100
AcDbLine
 10
458.004115
 20
330.940145
 30
0.0
 11
458.59474
 21
330.940145
 31
0.0
  0
LINE
  5
691
102
{ACAD_REACTORS
330
6FA
102
}
330
1F
100
AcDbEntity
  8
LC-009-100-D00-0
 62
     7
370
    50
100
AcDbLine
 10
458.59474
 20
330.940145
 30
0.0
 11
458.813936
 21
331.398451
 31
0.0
  0
ARC
  5
692
102
{ACAD_REACTORS
330
6FA
102
}
330
1F
100
AcDbEntity
  8
LC-009-100-D00-0
 62
     7
370
    50
100
AcDbCircle
 10
458.890053
 20
331.362046
 30
0.0
 40
0.0843750000000324
100
AcDbArc
 50
25.560506
 51
154.439494
  0
LINE
  5
693
102
{ACAD_REACTORS
330
6FA
102
}
330
1F
100
AcDbEntity
  8
LC-009-100-D00-0
 62
     7
370
    50
100
AcDbLine
 10
458.96617
 20
331.398451
 30
0.0
 11
459.185365
 21
330.940145
 31
0.0
  0
LINE
  5
694
102
{ACAD_REACTORS
330
6FA
102
}
330
1F
100
AcDbEntity
  8
LC-009-100-D00-0
 62
     7
370
    50
100
AcDbLine
 10
459.185365
 20
330.940145
 30
0.0
 11
459.77599
 21
330.940145
 31
0.0
  0
LINE
  5
695
102
{ACAD_REACTORS
330
6FA
102
}
330
1F
100
AcDbEntity
  8
LC-009-100-D00-0
 62
     7
370
    50
100
AcDbLine
 10
459.77599
 20
330.940145
 30
0.0
 11
459.946034
 21
331.295682
 31
0.0
  0
ARC
  5
696
102
{ACAD_REACTORS
330
6FA
102
}
330
1F
100
AcDbEntity
  8
LC-009-100-D00-0
 62
     7
370
    50
100
AcDbCircle
 10
460.022151
 20
331.259277
 30
0.0
 40
0.0843750000000324
100
AcDbArc
 50
25.560506
 51
154.439494
  0
LINE
  5
697
102
{ACAD_REACTORS
330
6FA
102
}
330
1F
100
AcDbEntity
  8
LC-009-100-D00-0
 62
     7
370
    50
100
AcDbLine
 10
460.098268
 20
331.295682
 30
0.0
 11
460.268312
 21
330.940145
 31
0.0
  0
LINE
  5
698
102
{ACAD_REACTORS
330
6FA
102
}
330
1F
100
AcDbEntity
  8
LC-009-100-D00-0
 62
     7
370
    50
100
AcDbLine
 10
460.268312
 20
330.940145
 30
0.0
 11
460.470526
 21
330.940145
 31
0.0
  0
ARC
  5
699
102
{ACAD_REACTORS
330
6FA
102
}
330
1F
100
AcDbEntity
  8
LC-009-100-D00-0
 62
     7
370
    50
100
AcDbCircle
 10
460.470526
 20
330.18077
 30
0.0
 40
0.75937500000002
100
AcDbArc
 50
10.0
 51
90.0
  0
LINE
  5
69A
102
{ACAD_REACTORS
330
6FA
102
}
330
1F
100
AcDbEntity
  8
LC-009-100-D00-0
 62
     7
370
    50
100
AcDbLine
 10
461.218364
 20
330.312634
 30
0.0
 11
461.338401
 21
329.631869
 31
0.0
  0
LINE
  5
69B
102
{ACAD_REACTORS
330
6FA
102
}
330
1F
100
AcDbEntity
  8
LC-009-100-D00-0
 62
     7
370
    50
100
AcDbLine
 10
461.338401
 20
329.631869
 30
0.0
 11
461.338401
 21
327.822512
 31
0.0
  0
ARC
  5
69C
102
{ACAD_REACTORS
330
6FA
102
}
330
1F
100
AcDbEntity
  8
LC-009-100-D00-0
 62
     7
370
    50
100
AcDbCircle
 10
461.000901
 20
327.822512
 30
0.0
 40
0.3375000000000777
100
AcDbArc
 50
260.0
 51
0.0
  0
LINE
  5
69D
102
{ACAD_REACTORS
330
6FA
102
}
330
1F
100
AcDbEntity
  8
LC-009-100-D00-0
 62
     7
370
    50
100
AcDbLine
 10
460.942295
 20
327.49014
 30
0.0
 11
459.376919
 21
327.766158
 31
0.0
  0
ARC
  5
69E
102
{ACAD_REACTORS
330
6FA
102
}
330
1F
100
AcDbEntity
  8
LC-009-100-D00-0
 62
     7
370
    50
100
AcDbCircle
 10
459.345385
 20
327.515005
 30
0.0
 40
0.2531250000000273
100
AcDbArc
 50
82.843677
 51
160.0
  0
LINE
  5
69F
102
{ACAD_REACTORS
330
6FA
102
}
330
1F
100
AcDbEntity
  8
LC-009-100-D00-0
 62
     7
370
    50
100
AcDbLine
 10
459.107525
 20
327.601579
 30
0.0
 11
458.906426
 21
327.049062
 31
0.0
  0
ARC
  5
6A0
102
{ACAD_REACTORS
330
6FA
102
}
330
1F
100
AcDbEntity
  8
LC-009-100-D00-0
 62
     7
370
    50
100
AcDbCircle
 10
459.144285
 20
326.962488
 30
0.0
 40
0.2531249999999795
100
AcDbArc
 50
160.0
 51
190.241215
  0
LINE
  5
6A1
102
{ACAD_REACTORS
330
6FA
102
}
330
1F
100
AcDbEntity
  8
LC-009-100-D00-0
 62
     7
370
    50
100
AcDbLine
 10
458.895193
 20
326.917484
 30
0.0
 11
459.078712
 21
326.23258
 31
0.0
  0
ARC
  5
6A2
102
{ACAD_REACTORS
330
6FA
102
}
330
1F
100
AcDbEntity
  8
LC-009-100-D00-0
 62
     7
370
    50
100
AcDbCircle
 10
458.752713
 20
326.145229
 30
0.0
 40
0.3375000000001713
100
AcDbArc
 50
240.0
 51
15.0
  0
INSERT
  5
6AD
102
{ACAD_REACTORS
330
6FA
102
}
330
1F
100
AcDbEntity
  8
LC-009-100-D00-0
 62
     7
370
    25
100
AcDbBlockReference
  2
KLON1
 10
0.0
 20
0.0
 30
0.0
  0
LINE
  5
6AE
102
{ACAD_REACTORS
330
6F2
102
}
330
1F
100
AcDbEntity
  8
LC-009-100-D00-0
 62
     7
370
    50
100
AcDbLine
 10
458.583963
 20
252.380322
 30
0.0
 11
455.542522
 21
250.624345
 31
0.0
  0
ARC
  5
6AF
102
{ACAD_REACTORS
330
6F2
102
}
330
1F
100
AcDbEntity
  8
LC-009-100-D00-0
 62
     7
370
    50
100
AcDbCircle
 10
456.022776
 20
249.453379
 30
0.0
 40
1.265625000000096
100
AcDbArc
 50
112.300266
 51
192.300266
  0
LINE
  5
6B0
102
{ACAD_REACTORS
330
6F2
102
}
330
1F
100
AcDbEntity
  8
LC-009-100-D00-0
 62
     7
370
    50
100
AcDbLine
 10
454.786204
 20
249.183756
 30
0.0
 11
455.29248
 21
247.792776
 31
0.0
  0
ARC
  5
6B1
102
{ACAD_REACTORS
330
6F2
102
}
330
1F
100
AcDbEntity
  8
LC-009-100-D00-0
 62
     7
370
    50
100
AcDbCircle
 10
456.006059
 20
248.052497
 30
0.0
 40
0.7593750000000938
100
AcDbArc
 50
200.0
 51
270.0
  0
LINE
  5
6B2
102
{ACAD_REACTORS
330
6F2
102
}
330
1F
100
AcDbEntity
  8
LC-009-100-D00-0
 62
     7
370
    50
100
AcDbLine
 10
456.006059
 20
247.293122
 30
0.0
 11
456.23224
 21
247.293122
 31
0.0
  0
LINE
  5
6B3
102
{ACAD_REACTORS
330
6F2
102
}
330
1F
100
AcDbEntity
  8
LC-009-100-D00-0
 62
     7
370
    50
100
AcDbLine
 10
456.23224
 20
247.293122
 30
0.0
 11
456.450741
 21
246.836268
 31
0.0
  0
ARC
  5
6B4
102
{ACAD_REACTORS
330
6F2
102
}
330
1F
100
AcDbEntity
  8
LC-009-100-D00-0
 62
     7
370
    50
100
AcDbCircle
 10
456.527553
 20
246.873005
 30
0.0
 40
0.085144671124813
100
AcDbArc
 50
205.560506
 51
334.439494
  0
LINE
  5
6B5
102
{ACAD_REACTORS
330
6F2
102
}
330
1F
100
AcDbEntity
  8
LC-009-100-D00-0
 62
     7
370
    50
100
AcDbLine
 10
456.604364
 20
246.836268
 30
0.0
 11
456.822865
 21
247.293122
 31
0.0
  0
LINE
  5
6B6
102
{ACAD_REACTORS
330
6F2
102
}
330
1F
100
AcDbEntity
  8
LC-009-100-D00-0
 62
     7
370
    50
100
AcDbLine
 10
456.822865
 20
247.293122
 30
0.0
 11
457.41349
 21
247.293122
 31
0.0
  0
LINE
  5
6B7
102
{ACAD_REACTORS
330
6F2
102
}
330
1F
100
AcDbEntity
  8
LC-009-100-D00-0
 62
     7
370
    50
100
AcDbLine
 10
457.41349
 20
247.293122
 30
0.0
 11
457.632686
 21
246.834816
 31
0.0
  0
ARC
  5
6B8
102
{ACAD_REACTORS
330
6F2
102
}
330
1F
100
AcDbEntity
  8
LC-009-100-D00-0
 62
     7
370
    50
100
AcDbCircle
 10
457.708803
 20
246.871221
 30
0.0
 40
0.0843749999999566
100
AcDbArc
 50
205.560506
 51
334.439494
  0
LINE
  5
6B9
102
{ACAD_REACTORS
330
6F2
102
}
330
1F
100
AcDbEntity
  8
LC-009-100-D00-0
 62
     7
370
    50
100
AcDbLine
 10
457.78492
 20
246.834816
 30
0.0
 11
458.004115
 21
247.293122
 31
0.0
  0
LINE
  5
6BA
102
{ACAD_REACTORS
330
6F2
102
}
330
1F
100
AcDbEntity
  8
LC-009-100-D00-0
 62
     7
370
    50
100
AcDbLine
 10
458.004115
 20
247.293122
 30
0.0
 11
458.59474
 21
247.293122
 31
0.0
  0
LINE
  5
6BB
102
{ACAD_REACTORS
330
6F2
102
}
330
1F
100
AcDbEntity
  8
LC-009-100-D00-0
 62
     7
370
    50
100
AcDbLine
 10
458.59474
 20
247.293122
 30
0.0
 11
458.813936
 21
246.834816
 31
0.0
  0
ARC
  5
6BC
102
{ACAD_REACTORS
330
6F2
102
}
330
1F
100
AcDbEntity
  8
LC-009-100-D00-0
 62
     7
370
    50
100
AcDbCircle
 10
458.890053
 20
246.871221
 30
0.0
 40
0.0843750000000513
100
AcDbArc
 50
205.560506
 51
334.439494
  0
LINE
  5
6BD
102
{ACAD_REACTORS
330
6F2
102
}
330
1F
100
AcDbEntity
  8
LC-009-100-D00-0
 62
     7
370
    50
100
AcDbLine
 10
458.96617
 20
246.834816
 30
0.0
 11
459.185365
 21
247.293122
 31
0.0
  0
LINE
  5
6BE
102
{ACAD_REACTORS
330
6F2
102
}
330
1F
100
AcDbEntity
  8
LC-009-100-D00-0
 62
     7
370
    50
100
AcDbLine
 10
459.185365
 20
247.293122
 30
0.0
 11
459.77599
 21
247.293122
 31
0.0
  0
LINE
  5
6BF
102
{ACAD_REACTORS
330
6F2
102
}
330
1F
100
AcDbEntity
  8
LC-009-100-D00-0
 62
     7
370
    50
100
AcDbLine
 10
459.77599
 20
247.293122
 30
0.0
 11
459.946034
 21
246.937585
 31
0.0
  0
ARC
  5
6C0
102
{ACAD_REACTORS
330
6F2
102
}
330
1F
100
AcDbEntity
  8
LC-009-100-D00-0
 62
     7
370
    50
100
AcDbCircle
 10
460.022151
 20
246.97399
 30
0.0
 40
0.0843750000000369
100
AcDbArc
 50
205.560506
 51
334.439494
  0
LINE
  5
6C1
102
{ACAD_REACTORS
330
6F2
102
}
330
1F
100
AcDbEntity
  8
LC-009-100-D00-0
 62
     7
370
    50
100
AcDbLine
 10
460.098268
 20
246.937585
 30
0.0
 11
460.268312
 21
247.293122
 31
0.0
  0
LINE
  5
6C2
102
{ACAD_REACTORS
330
6F2
102
}
330
1F
100
AcDbEntity
  8
LC-009-100-D00-0
 62
     7
370
    50
100
AcDbLine
 10
460.268312
 20
247.293122
 30
0.0
 11
460.470526
 21
247.293122
 31
0.0
  0
ARC
  5
6C3
102
{ACAD_REACTORS
330
6F2
102
}
330
1F
100
AcDbEntity
  8
LC-009-100-D00-0
 62
     7
370
    50
100
AcDbCircle
 10
460.470526
 20
248.052497
 30
0.0
 40
0.7593750000000341
100
AcDbArc
 50
270.0
 51
350.0
  0
LINE
  5
6C4
102
{ACAD_REACTORS
330
6F2
102
}
330
1F
100
AcDbEntity
  8
LC-009-100-D00-0
 62
     7
370
    50
100
AcDbLine
 10
461.218364
 20
247.920633
 30
0.0
 11
461.338401
 21
248.601398
 31
0.0
  0
LINE
  5
6C5
102
{ACAD_REACTORS
330
6F2
102
}
330
1F
100
AcDbEntity
  8
LC-009-100-D00-0
 62
     7
370
    50
100
AcDbLine
 10
461.338401
 20
248.601398
 30
0.0
 11
461.338401
 21
250.410755
 31
0.0
  0
ARC
  5
6C6
102
{ACAD_REACTORS
330
6F2
102
}
330
1F
100
AcDbEntity
  8
LC-009-100-D00-0
 62
     7
370
    50
100
AcDbCircle
 10
461.000901
 20
250.410755
 30
0.0
 40
0.337500000000091
100
AcDbArc
 50
0.0
 51
100.0
  0
LINE
  5
6C7
102
{ACAD_REACTORS
330
6F2
102
}
330
1F
100
AcDbEntity
  8
LC-009-100-D00-0
 62
     7
370
    50
100
AcDbLine
 10
460.942295
 20
250.743127
 30
0.0
 11
459.376919
 21
250.467109
 31
0.0
  0
ARC
  5
6C8
102
{ACAD_REACTORS
330
6F2
102
}
330
1F
100
AcDbEntity
  8
LC-009-100-D00-0
 62
     7
370
    50
100
AcDbCircle
 10
459.345385
 20
250.718262
 30
0.0
 40
0.2531250000000184
100
AcDbArc
 50
200.0
 51
277.156323
  0
LINE
  5
6C9
102
{ACAD_REACTORS
330
6F2
102
}
330
1F
100
AcDbEntity
  8
LC-009-100-D00-0
 62
     7
370
    50
100
AcDbLine
 10
459.107525
 20
250.631688
 30
0.0
 11
458.906426
 21
251.184205
 31
0.0
  0
ARC
  5
6CA
102
{ACAD_REACTORS
330
6F2
102
}
330
1F
100
AcDbEntity
  8
LC-009-100-D00-0
 62
     7
370
    50
100
AcDbCircle
 10
459.144285
 20
251.270779
 30
0.0
 40
0.2531250000000031
100
AcDbArc
 50
169.758785
 51
200.0
  0
LINE
  5
6CB
102
{ACAD_REACTORS
330
6F2
102
}
330
1F
100
AcDbEntity
  8
LC-009-100-D00-0
 62
     7
370
    50
100
AcDbLine
 10
458.895193
 20
251.315783
 30
0.0
 11
459.078712
 21
252.000687
 31
0.0
  0
ARC
  5
6CC
102
{ACAD_REACTORS
330
6F2
102
}
330
1F
100
AcDbEntity
  8
LC-009-100-D00-0
 62
     7
370
    50
100
AcDbCircle
 10
458.752713
 20
252.088038
 30
0.0
 40
0.3375000000001837
100
AcDbArc
 50
345.0
 51
120.0
  0
INSERT
  5
6D7
102
{ACAD_REACTORS
330
6F2
102
}
330
1F
100
AcDbEntity
  8
LC-009-100-D00-0
 62
     7
370
    25
100
AcDbBlockReference
  2
KLON2
 10
0.0
 20
0.0
 30
0.0
  0
DIMENSION
  5
6D8
330
1F
100
AcDbEntity
  8
LC-007-003-----0
 62
     7
370
    25
100
AcDbDimension
  2
*D44
 10
534.631059
 20
166.914
 30
0.0
 11
435.070037
 21
197.714
 31
0.0
 70
   160
 71
     5
 42
171.999906
  3
LC-DIM-L-0140-02-02
100
AcDbAlignedDimension
 13
362.631152
 23
219.571259
 33
0.0
 14
534.631059
 24
230.816383
 34
0.0
100
AcDbRotatedDimension
  0
DIMENSION
  5
6E5
330
1F
100
AcDbEntity
  8
LC-007-003-----0
 62
     7
370
    25
100
AcDbDimension
  2
*D45
 10
694.738796
 20
338.116383
 30
0.0
 11
725.538188
 21
284.719521
 31
0.0
 70
   160
  1
DN100
 71
     5
 42
110.0
 53
90.0
  3
LC-DIM-L-0140-02-02
100
AcDbAlignedDimension
 13
535.631059
 23
228.116383
 33
0.0
 14
535.631059
 24
338.116383
 34
0.0
 50
90.0
100
AcDbRotatedDimension
  0
ENDSEC
  0
SECTION
  2
OBJECTS
  0
DICTIONARY
  5
C
330
0
100
AcDbDictionary
281
     1
  3
ACAD_GROUP
350
D
  3
ACAD_LAYOUT
350
1A
  3
ACAD_MLINESTYLE
350
17
  3
ACAD_PLOTSETTINGS
350
19
  3
ACAD_PLOTSTYLENAME
350
E
  0
DICTIONARY
  5
D
102
{ACAD_REACTORS
330
C
102
}
330
C
100
AcDbDictionary
281
     1
  3
LCGROUP1012
350
6F7
  3
LCGROUP1034
350
6F9
  3
LCGROUP1037
350
6F8
  3
LCGROUP1086
350
6FA
  3
LCGROUP112
350
6F4
  3
LCGROUP1120
350
6F2
  3
LCGROUP372
350
6F3
  3
LCGROUP428
350
6F6
  3
LCGROUP972
350
6F5
  0
DICTIONARY
  5
1A
102
{ACAD_REACTORS
330
C
102
}
330
C
100
AcDbDictionary
281
     1
  3
Layout1
350
1E
  3
Layout2
350
26
  3
Model
350
22
  0
DICTIONARY
  5
17
102
{ACAD_REACTORS
330
C
102
}
330
C
100
AcDbDictionary
281
     1
  3
Standard
350
18
  0
DICTIONARY
  5
19
102
{ACAD_REACTORS
330
C
102
}
330
C
100
AcDbDictionary
281
     1
  0
ACDBDICTIONARYWDFLT
  5
E
102
{ACAD_REACTORS
330
C
102
}
330
C
100
AcDbDictionary
281
     1
  3
Normal
350
F
100
AcDbDictionaryWithDefault
340
F
  0
GROUP
  5
6F7
102
{ACAD_REACTORS
330
D
102
}
330
D
100
AcDbGroup
300
Dichtung
 70
     1
 71
     1
340
5B5
340
5B6
340
5B7
340
5B8
340
5B9
340
5BA
340
5BB
340
5C9
340
5CA
340
5CB
340
5CC
340
5CD
340
5CE
340
5CF
340
5D0
340
5D1
340
5D2
340
5D3
340
5D4
340
5D5
340
5D6
  0
GROUP
  5
6F9
102
{ACAD_REACTORS
330
D
102
}
330
D
100
AcDbGroup
300
Dichtung
 70
     1
 71
     1
340
5D7
340
5D8
340
5D9
340
5DA
340
5DB
340
5DC
340
5DD
340
5F0
340
5F1
340
5F2
340
5F3
340
5F4
340
5F5
340
5F6
340
5F7
340
5F8
340
5F9
340
5FA
340
5FB
340
5FC
340
5FD
  0
GROUP
  5
6F8
102
{ACAD_REACTORS
330
D
102
}
330
D
100
AcDbGroup
300
Adapter
 70
     1
 71
     1
340
5FF
340
600
340
601
340
602
340
603
340
604
340
605
340
606
340
607
340
608
340
609
340
60A
340
60B
340
60C
340
60D
340
60E
340
60F
340
610
340
611
340
612
340
613
340
614
340
615
340
616
340
617
340
618
340
619
340
61A
340
61B
340
61C
340
61D
340
61E
340
61F
340
620
340
621
340
622
340
623
340
624
340
625
340
626
340
627
340
62A
340
67D
340
67E
340
67F
340
680
340
681
340
682
  0
GROUP
  5
6FA
102
{ACAD_REACTORS
330
D
102
}
330
D
100
AcDbGroup
300
Dichtung
 70
     1
 71
     1
340
684
340
685
340
686
340
687
340
688
340
689
340
68A
340
68B
340
68C
340
68D
340
68E
340
68F
340
690
340
691
340
692
340
693
340
694
340
695
340
696
340
697
340
698
340
699
340
69A
340
69B
340
69C
340
69D
340
69E
340
69F
340
6A0
340
6A1
340
6A2
340
6AD
  0
GROUP
  5
6F4
102
{ACAD_REACTORS
330
D
102
}
330
D
100
AcDbGroup
300
GRP112
 70
     1
 71
     1
340
32
  0
GROUP
  5
6F2
102
{ACAD_REACTORS
330
D
102
}
330
D
100
AcDbGroup
300
Dichtung
 70
     1
 71
     1
340
6AE
340
6AF
340
6B0
340
6B1
340
6B2
340
6B3
340
6B4
340
6B5
340
6B6
340
6B7
340
6B8
340
6B9
340
6BA
340
6BB
340
6BC
340
6BD
340
6BE
340
6BF
340
6C0
340
6C1
340
6C2
340
6C3
340
6C4
340
6C5
340
6C6
340
6C7
340
6C8
340
6C9
340
6CA
340
6CB
340
6CC
340
6D7
  0
GROUP
  5
6F3
102
{ACAD_REACTORS
330
D
102
}
330
D
100
AcDbGroup
300
GRP372
 70
     1
 71
     1
340
34
340
35
340
36
340
37
340
38
340
39
340
3B
340
3C
340
3E
340
3F
340
40
340
41
340
42
340
43
340
44
340
45
340
46
340
47
340
48
340
49
340
4A
340
4B
340
4C
340
4D
340
4E
340
4F
340
50
340
51
340
52
340
53
340
54
340
55
340
56
340
57
340
58
340
59
340
5A
340
5B
340
5C
340
5D
340
5E
340
5F
340
60
340
61
340
62
340
63
340
64
340
65
340
66
340
67
340
68
340
69
340
6A
340
6B
340
6C
340
6D
340
B0
340
B1
340
B2
340
B3
340
B4
340
B5
340
B6
340
B7
340
B8
340
B9
340
BA
340
BB
340
BC
340
BE
340
BF
340
C0
340
C1
340
C2
340
C3
340
C4
340
C5
340
C6
340
C7
340
C8
340
C9
340
CA
340
CB
340
CC
340
CD
340
CE
340
CF
340
D0
340
D1
340
D2
340
D3
340
D4
340
195
  0
GROUP
  5
6F6
102
{ACAD_REACTORS
330
D
102
}
330
D
100
AcDbGroup
300
GRP428
 70
     1
 71
     1
340
196
340
197
340
198
340
199
340
19A
340
19B
340
19C
340
19D
340
19E
340
19F
340
1A0
340
1A1
340
1A2
340
1A3
340
1A4
340
1A5
340
1A6
340
1A7
340
1A8
340
1A9
340
1AA
340
1AB
340
1AC
340
1AD
340
1AE
340
1AF
340
1B0
340
1B1
340
1B2
340
1B3
340
1B4
340
1B5
340
1B6
340
1B7
340
1B8
340
1B9
340
1BA
340
1BB
340
1BC
340
1BD
340
1BE
340
1BF
340
1C0
340
1C1
340
1C2
340
1C3
340
1C4
340
1C5
340
1C6
340
1C7
340
1C8
340
1C9
340
1CA
340
1CB
340
231
340
232
340
59D
  0
GROUP
  5
6F5
102
{ACAD_REACTORS
330
D
102
}
330
D
100
AcDbGroup
300
DallBit
 70
     1
 71
     1
340
2CD
340
2CE
340
2CF
340
2D0
340
2D1
340
2D2
340
2D3
340
2D4
340
2D5
340
2D6
340
2D7
340
2D8
340
2D9
340
2DA
340
2DB
340
2DC
340
2DD
340
2DE
340
2DF
340
2E0
340
2E1
340
2E2
340
2E3
340
2E4
340
2E5
340
2E6
340
2E7
340
2E8
340
2E9
340
2EA
340
2EB
340
2EC
340
2ED
340
2EE
340
2EF
340
2F0
340
2F1
340
2F2
340
2F3
340
2F4
340
2F5
340
2F6
340
2F7
340
2F8
340
2F9
340
2FA
340
317
340
318
340
319
340
31A
340
31B
340
31C
340
31D
340
31E
340
31F
340
33D
340
35B
340
379
340
397
340
3B5
340
3B6
340
3B7
340
3D6
340
3F6
340
419
340
41A
340
41B
340
41C
340
41D
340
41E
340
41F
340
420
340
421
340
422
340
423
340
424
340
425
340
426
340
427
340
428
340
429
340
42A
340
42B
340
42C
340
42D
340
42E
340
42F
340
430
340
431
340
432
340
433
340
434
340
435
340
436
340
443
340
444
340
445
340
454
340
455
340
456
340
457
340
458
340
459
340
45A
340
45B
340
45C
340
45D
340
45E
340
45F
340
460
340
47E
340
49C
340
4B9
340
4D7
340
4F5
340
4F6
340
4F7
340
4F8
340
515
340
532
340
533
340
534
340
535
340
536
340
550
340
551
340
552
340
553
340
554
340
555
340
556
340
557
340
558
340
559
340
55A
340
55B
340
55C
340
55D
340
55E
340
55F
340
560
340
561
340
562
340
563
340
564
340
565
340
566
340
567
340
568
340
569
340
580
340
581
340
582
340
583
340
584
340
585
340
586
340
587
340
588
340
589
340
58A
340
58B
340
58C
340
58D
340
58E
340
58F
340
590
340
591
340
592
340
593
340
594
340
595
340
596
340
597
340
598
340
599
340
59A
340
59B
340
59C
  0
LAYOUT
  5
1E
102
{ACAD_REACTORS
330
1A
102
}
330
1A
100
AcDbPlotSettings
  1

  2

  4

  6

 40
0.0
 41
0.0
 42
0.0
 43
0.0
 44
0.0
 45
0.0
 46
0.0
 47
0.0
 48
0.0
 49
0.0
140
0.0
141
0.0
142
1.0
143
1.0
 70
   688
 72
     0
 73
     0
 74
     5
  7

 75
    16
147
1.0
148
0.0
149
0.0
100
AcDbLayout
  1
Layout1
 70
     1
 71
     1
 10
0.0
 20
0.0
 11
840.0
 21
594.0
 12
0.0
 22
0.0
 32
0.0
 14
0.0
 24
0.0
 34
0.0
 15
840.0
 25
594.0
 35
0.0
146
0.0
 13
0.0
 23
0.0
 33
0.0
 16
1.0
 26
0.0
 36
0.0
 17
0.0
 27
1.0
 37
0.0
 76
     0
330
1B
  0
LAYOUT
  5
26
102
{ACAD_REACTORS
330
1A
102
}
330
1A
100
AcDbPlotSettings
  1

  2

  4

  6

 40
0.0
 41
0.0
 42
0.0
 43
0.0
 44
0.0
 45
0.0
 46
0.0
 47
0.0
 48
0.0
 49
0.0
140
0.0
141
0.0
142
1.0
143
1.0
 70
   688
 72
     0
 73
     0
 74
     5
  7

 75
    16
147
1.0
148
0.0
149
0.0
100
AcDbLayout
  1
Layout2
 70
     1
 71
     2
 10
0.0
 20
0.0
 11
0.0
 21
0.0
 12
0.0
 22
0.0
 32
0.0
 14
0.0
 24
0.0
 34
0.0
 15
0.0
 25
0.0
 35
0.0
146
0.0
 13
0.0
 23
0.0
 33
0.0
 16
1.0
 26
0.0
 36
0.0
 17
0.0
 27
1.0
 37
0.0
 76
     0
330
23
  0
LAYOUT
  5
22
102
{ACAD_REACTORS
330
1A
102
}
330
1A
100
AcDbPlotSettings
  1

  2

  4

  6

 40
0.0
 41
0.0
 42
0.0
 43
0.0
 44
0.0
 45
0.0
 46
0.0
 47
0.0
 48
0.0
 49
0.0
140
0.0
141
0.0
142
1.0
143
1.0
 70
  1776
 72
     0
 73
     0
 74
     0
  7

 75
     0
147
1.0
148
0.0
149
0.0
100
AcDbLayout
  1
Model
 70
     1
 71
     0
 10
0.0
 20
0.0
 11
840.0
 21
594.0
 12
0.0
 22
0.0
 32
0.0
 14
0.0
 24
0.0
 34
0.0
 15
840.0
 25
594.0
 35
0.0
146
0.0
 13
0.0
 23
0.0
 33
0.0
 16
1.0
 26
0.0
 36
0.0
 17
0.0
 27
1.0
 37
0.0
 76
     0
330
1F
  0
MLINESTYLE
  5
18
102
{ACAD_REACTORS
330
17
102
}
330
17
100
AcDbMlineStyle
  2
Standard
 70
     0
  3

 62
   256
 51
90.0
 52
90.0
 71
     2
 49
0.5
 62
   256
  6
BYLAYER
 49
-0.5
 62
   256
  6
BYLAYER
  0
ACDBPLACEHOLDER
  5
F
102
{ACAD_REACTORS
330
E
102
}
330
E
  0
ENDSEC
  0
EOF
