  0
SECTION
  2
HEADER
  9
$ACADVER
  1
AC1009
  9
$INSBASE
 10
0.0
 20
0.0
 30
0.0
  9
$EXTMIN
 10
0.0
 20
0.0
 30
0.0
  9
$EXTMAX
 10
840.0
 20
594.0
 30
0.0
  9
$LIMMIN
 10
0.0
 20
0.0
  9
$LIMMAX
 10
840.0
 20
594.0
  9
$ORTHOMODE
 70
     0
  9
$REGENMODE
 70
     1
  9
$FILLMODE
 70
     1
  9
$QTEXTMODE
 70
     0
  9
$MIRRTEXT
 70
     1
  9
$DRAGMODE
 70
     2
  9
$LTSCALE
 40
2.0
  9
$OSMODE
 70
     0
  9
$ATTMODE
 70
     1
  9
$TEXTSIZE
 40
0.2
  9
$TRACEWID
 40
0.05
  9
$TEXTSTYLE
  7
STANDARD
  9
$CLAYER
  8
0
  9
$CELTYPE
  6
BYLAYER
  9
$CECOLOR
 62
     7
  9
$DIMSCALE
 40
2.0
  9
$DIMASZ
 40
3.5
  9
$DIMEXO
 40
0.0625
  9
$DIMDLI
 40
0.38
  9
$DIMRND
 40
0.0
  9
$DIMDLE
 40
0.0
  9
$DIMEXE
 40
0.18
  9
$DIMTP
 40
0.0
  9
$DIMTM
 40
0.0
  9
$DIMTXT
 40
3.5
  9
$DIMCEN
 40
0.09
  9
$DIMTSZ
 40
0.0
  9
$DIMTOL
 70
     0
  9
$DIMLIM
 70
     0
  9
$DIMTIH
 70
     1
  9
$DIMTOH
 70
     1
  9
$DIMSE1
 70
     0
  9
$DIMSE2
 70
     0
  9
$DIMTAD
 70
     1
  9
$DIMZIN
 70
     0
  9
$DIMBLK
  1

  9
$DIMASO
 70
     1
  9
$DIMSHO
 70
     1
  9
$DIMPOST
  1

  9
$DIMAPOST
  1

  9
$DIMALT
 70
     0
  9
$DIMALTD
 70
     2
  9
$DIMALTF
 40
25.4
  9
$DIMLFAC
 40
1.0
  9
$DIMTOFL
 70
     0
  9
$DIMTVP
 40
0.0
  9
$DIMTIX
 70
     0
  9
$DIMSOXD
 70
     0
  9
$DIMSAH
 70
     0
  9
$DIMBLK1
  1

  9
$DIMBLK2
  1

  9
$DIMSTYLE
  2
STANDARD
  9
$DIMCLRD
 70
     0
  9
$DIMCLRE
 70
     0
  9
$DIMCLRT
 70
     0
  9
$DIMTFAC
 40
1.0
  9
$DIMGAP
 40
0.09
  9
$LUNITS
 70
     2
  9
$LUPREC
 70
     2
  9
$AXISMODE
 70
     0
  9
$AXISUNIT
 10
0.0
 20
0.0
  9
$SKETCHINC
 40
0.1
  9
$FILLETRAD
 40
0.0
  9
$AUNITS
 70
     0
  9
$AUPREC
 70
     0
  9
$MENU
  1
acad
  9
$ELEVATION
 40
0.0
  9
$PELEVATION
 40
0.0
  9
$THICKNESS
 40
0.0
  9
$LIMCHECK
 70
     0
  9
$BLIPMODE
 70
     1
  9
$CHAMFERA
 40
0.0
  9
$CHAMFERB
 40
0.0
  9
$SKPOLY
 70
     0
  9
$TDCREATE
 40
0.000000000
  9
$TDUPDATE
 40
0.000000000
  9
$TDINDWG
 40
0.0000000000
  9
$TDUSRTIMER
 40
0.0000000000
  9
$USRTIMER
 70
     1
  9
$ANGBASE
 50
0.0
  9
$ANGDIR
 70
     0
  9
$PDMODE
 70
     0
  9
$PDSIZE
 40
0.0
  9
$PLINEWID
 40
0.0
  9
$COORDS
 70
     0
  9
$SPLFRAME
 70
     0
  9
$SPLINETYPE
 70
     6
  9
$SPLINESEGS
 70
     8
  9
$ATTDIA
 70
     0
  9
$ATTREQ
 70
     1
  9
$HANDLING
 70
     1
  9
$HANDSEED
  5
31A
  9
$SURFTAB1
 70
     6
  9
$SURFTAB2
 70
     6
  9
$SURFTYPE
 70
     6
  9
$SURFU
 70
     6
  9
$SURFV
 70
     6
  9
$UCSNAME
  2

  9
$UCSORG
 10
0.0
 20
0.0
 30
0.0
  9
$UCSXDIR
 10
1.0
 20
0.0
 30
0.0
  9
$UCSYDIR
 10
0.0
 20
1.0
 30
0.0
  9
$PUCSNAME
  2

  9
$PUCSORG
 10
0.0
 20
0.0
 30
0.0
  9
$PUCSXDIR
 10
1.0
 20
0.0
 30
0.0
  9
$PUCSYDIR
 10
0.0
 20
1.0
 30
0.0
  9
$USERI1
 70
     0
  9
$USERI2
 70
     0
  9
$USERI3
 70
     0
  9
$USERI4
 70
     0
  9
$USERI5
 70
     0
  9
$USERR1
 40
0.0
  9
$USERR2
 40
0.0
  9
$USERR3
 40
0.0
  9
$USERR4
 40
0.0
  9
$USERR5
 40
0.0
  9
$WORLDVIEW
 70
     1
  9
$SHADEDGE
 70
     3
  9
$SHADEDIF
 70
    70
  9
$TILEMODE
 70
     1
  9
$MAXACTVP
 70
    16
  9
$PINSBASE
 10
0.0
 20
0.0
 30
0.0
  9
$PLIMCHECK
 70
     0
  9
$PEXTMIN
 10
1.000000E+20
 20
1.000000E+20
 30
1.000000E+20
  9
$PEXTMAX
 10
-1.000000E+20
 20
-1.000000E+20
 30
-1.000000E+20
  9
$PLIMMIN
 10
0.0
 20
0.0
  9
$PLIMMAX
 10
840.0
 20
594.0
  9
$UNITMODE
 70
     0
  9
$VISRETAIN
 70
     0
  9
$PLINEGEN
 70
     1
  9
$PSLTSCALE
 70
     0
  9
$TREEDEPTH
 70
  3020
  9
$DWGCODEPAGE
  3
dos850
  0
ENDSEC
  0
SECTION
  2
TABLES
  0
TABLE
  2
VPORT
 70
     1
  0
VPORT
  2
*ACTIVE
 70
     0
 10
0.0
 20
0.0
 11
1.0
 21
1.0
 12
420.0
 22
297.0
 13
0.0
 23
0.0
 14
1.0
 24
1.0
 15
0.0
 25
0.0
 16
0.0
 26
0.0
 36
1.0
 17
0.0
 27
0.0
 37
0.0
 40
594.0
 41
1.604229
 42
50.0
 43
0.0
 44
0.0
 50
0.0
 51
0.0
 71
     0
 72
   100
 73
     1
 74
     1
 75
     0
 76
     0
 77
     0
 78
     0
  0
ENDTAB
  0
TABLE
  2
LTYPE
 70
     2
  0
LTYPE
  2
CONTINUOUS
 70
    64
  3
Solid line
 72
    65
 73
     0
 40
0.0
  0
LTYPE
  2
DASHDOT
 70
    64
  3
__ . __ . __ . __ . __
 72
    65
 73
     4
 40
7.5
 49
5.0
 49
-1.25
 49
0.0
 49
-1.25
  0
ENDTAB
  0
TABLE
  2
LAYER
 70
    10
  0
LAYER
  2
0
 70
     0
 62
     7
  6
CONTINUOUS
  0
LAYER
  2
LC-INFO-1-2-MM-A3-0
 70
     1
 62
    -1
  6
CONTINUOUS
  0
LAYER
  2
LC-005-003-MTH-0
 70
     0
 62
     2
  6
CONTINUOUS
  0
LAYER
  2
LC-006-003-MTG-0
 70
     0
 62
     2
  6
CONTINUOUS
  0
LAYER
  2
LC-004-003-----0
 70
     0
 62
     2
  6
CONTINUOUS
  0
LAYER
  2
LC-007-005-----0
 70
     0
 62
     2
  6
CONTINUOUS
  0
LAYER
  2
LC-001-000-----0
 70
     0
 62
     7
  6
CONTINUOUS
  0
LAYER
  2
LC-002-002-----0
 70
     0
 62
     1
  6
CONTINUOUS
  0
LAYER
  2
LC-003-002-RND-0
 70
     0
 62
     1
  6
CONTINUOUS
  0
LAYER
  2
LC-000
 70
     0
 62
     7
  6
CONTINUOUS
  0
ENDTAB
  0
TABLE
  2
STYLE
 70
     4
  0
STYLE
  2
STANDARD
 70
     0
 40
0.0
 41
1.0
 50
0.0
 71
     0
 42
0.0
  3
txt
  4

  0
STYLE
  2
LC-STANDARD
 70
    64
 40
0.0
 41
1.0
 50
0.0
 71
     0
 42
3.5
  3
MONOTXT
  4

  0
STYLE
  2
LC-TXTSTYLE-150-400-0-0-D2
 70
    64
 40
0.0
 41
1.0
 50
15.0
 71
     0
 42
3.5
  3
MONOTXT
  4

  0
STYLE
  2
LC-TXTSTYLE-150-400-0-0-D3
 70
    64
 40
0.0
 41
1.0
 50
15.0
 71
     0
 42
3.5
  3
LC-STANDARD
  4

  0
ENDTAB
  0
TABLE
  2
VIEW
 70
     0
  0
ENDTAB
  0
TABLE
  2
UCS
 70
     0
  0
ENDTAB
  0
TABLE
  2
APPID
 70
     1
  0
APPID
  2
ACAD
 70
     0
  0
ENDTAB
  0
TABLE
  2
DIMSTYLE
 70
     3
  0
DIMSTYLE
  2
STANDARD
 70
     0
  3

  4

  5

  6

  7

 40
1.0
 41
0.18
 42
0.0625
 43
0.38
 44
0.18
 45
0.0
 46
0.0
 47
0.0
 48
0.0
 71
     0
 72
     0
 73
     1
 74
     1
 75
     0
 76
     0
 77
     0
 78
     0
140
0.18
141
0.09
142
0.0
143
25.4
144
1.0
145
0.0
146
1.0
147
0.09
170
     0
171
     2
172
     0
173
     0
174
     0
175
     0
176
     0
177
     0
178
     0
  0
DIMSTYLE
  2
LC-STANDARD
 70
     0
  3

  4

  5

  6

  7

 40
1.0
 41
3.5
 42
0.0
 43
7.5
 44
1.8
 45
0.0
 46
0.0
 47
0.0
 48
0.0
 71
     0
 72
     0
 73
     0
 74
     0
 75
     0
 76
     0
 77
     1
 78
     8
140
3.5
141
0.0
142
0.0
143
25.4
144
1.0
145
0.0
146
0.71
147
1.5
170
     0
171
     2
172
     1
173
     0
174
     0
175
     0
176
     0
177
     0
178
     3
  0
DIMSTYLE
  2
LC-DIM-L-0090-02-02
 70
     0
  3

  4

  5

  6

  7

 40
2.0
 41
3.5
 42
0.0
 43
7.5
 44
1.8
 45
0.0
 46
0.0
 47
0.0
 48
0.0
 71
     0
 72
     0
 73
     0
 74
     0
 75
     0
 76
     0
 77
     1
 78
     8
140
9.0
141
0.0
142
0.0
143
25.4
144
1.0
145
0.0
146
0.71
147
1.5
170
     0
171
     2
172
     0
173
     0
174
     0
175
     0
176
     2
177
     2
178
     6
  0
ENDTAB
  0
ENDSEC
  0
SECTION
  2
BLOCKS
  0
BLOCK
  8
0
  5
23
  2
BLK1
 70
    64
 10
0.0
 20
0.0
 30
0.0
  3
BLK1
  0
ENDBLK
  8
0
  5
24
  0
BLOCK
  8
0
  5
26
  2
*D1
 70
    65
 10
0.0
 20
0.0
 30
0.0
  3
*D1
  0
LINE
  8
LC-005-003-MTH-0
  6
CONTINUOUS
  5
28
 10
326.526637
 20
348.761418
 30
0.0
 11
326.526637
 21
374.8
 31
0.0
  0
LINE
  8
LC-005-003-MTH-0
  6
CONTINUOUS
  5
29
 10
470.526637
 20
348.761418
 30
0.0
 11
470.526637
 21
374.8
 31
0.0
  0
LINE
  8
LC-006-003-MTG-0
  6
CONTINUOUS
  5
2B
 10
326.526637
 20
364.0
 30
0.0
 11
470.526637
 21
364.0
 31
0.0
  0
LINE
  8
LC-004-003-----0
  6
CONTINUOUS
  5
2D
 10
344.372644
 20
366.349471
 30
0.0
 11
326.526637
 21
364.0
 31
0.0
  0
LINE
  8
LC-004-003-----0
  6
CONTINUOUS
  5
2E
 10
326.526637
 20
364.0
 30
0.0
 11
344.372644
 21
361.650529
 31
0.0
  0
LINE
  8
LC-004-003-----0
  6
CONTINUOUS
  5
2F
 10
344.372644
 20
361.650529
 30
0.0
 11
344.372644
 21
366.349471
 31
0.0
  0
LINE
  8
LC-004-003-----0
  6
CONTINUOUS
  5
30
 10
344.412682
 20
365.738609
 30
0.0
 11
331.206637
 21
364.0
 31
0.0
  0
LINE
  8
LC-004-003-----0
  6
CONTINUOUS
  5
31
 10
331.206637
 20
364.0
 30
0.0
 11
344.412682
 21
362.261391
 31
0.0
  0
LINE
  8
LC-004-003-----0
  6
CONTINUOUS
  5
32
 10
344.45272
 20
365.127746
 30
0.0
 11
335.886637
 21
364.0
 31
0.0
  0
LINE
  8
LC-004-003-----0
  6
CONTINUOUS
  5
33
 10
335.886637
 20
364.0
 30
0.0
 11
344.45272
 21
362.872254
 31
0.0
  0
LINE
  8
LC-004-003-----0
  6
CONTINUOUS
  5
34
 10
344.492759
 20
364.516884
 30
0.0
 11
340.566637
 21
364.0
 31
0.0
  0
LINE
  8
LC-004-003-----0
  6
CONTINUOUS
  5
35
 10
340.566637
 20
364.0
 30
0.0
 11
344.492759
 21
363.483116
 31
0.0
  0
LINE
  8
LC-004-003-----0
  6
CONTINUOUS
  5
36
 10
452.680629
 20
361.650529
 30
0.0
 11
470.526637
 21
364.0
 31
0.0
  0
LINE
  8
LC-004-003-----0
  6
CONTINUOUS
  5
37
 10
470.526637
 20
364.0
 30
0.0
 11
452.680629
 21
366.349471
 31
0.0
  0
LINE
  8
LC-004-003-----0
  6
CONTINUOUS
  5
38
 10
452.680629
 20
366.349471
 30
0.0
 11
452.680629
 21
361.650529
 31
0.0
  0
LINE
  8
LC-004-003-----0
  6
CONTINUOUS
  5
39
 10
452.640591
 20
362.261391
 30
0.0
 11
465.846637
 21
364.0
 31
0.0
  0
LINE
  8
LC-004-003-----0
  6
CONTINUOUS
  5
3A
 10
465.846637
 20
364.0
 30
0.0
 11
452.640591
 21
365.738609
 31
0.0
  0
LINE
  8
LC-004-003-----0
  6
CONTINUOUS
  5
3B
 10
452.600553
 20
362.872254
 30
0.0
 11
461.166637
 21
364.0
 31
0.0
  0
LINE
  8
LC-004-003-----0
  6
CONTINUOUS
  5
3C
 10
461.166637
 20
364.0
 30
0.0
 11
452.600553
 21
365.127746
 31
0.0
  0
LINE
  8
LC-004-003-----0
  6
CONTINUOUS
  5
3D
 10
452.560515
 20
363.483116
 30
0.0
 11
456.486637
 21
364.0
 31
0.0
  0
LINE
  8
LC-004-003-----0
  6
CONTINUOUS
  5
3E
 10
456.486637
 20
364.0
 30
0.0
 11
452.560515
 21
364.516884
 31
0.0
  0
TEXT
  8
LC-004-003-----0
  6
CONTINUOUS
 62
     6
  5
40
 10
376.830544
 20
374.431999
 30
0.0
 40
18.0
  1
Ø144
 41
0.9
 51
15.0
  7
LC-TXTSTYLE-150-400-0-0-D0
 72
     1
 11
401.321883
 21
374.431999
 31
0.0
  0
ENDBLK
  8
0
  5
41
  0
BLOCK
  8
0
  5
43
  2
BLK2
 70
    64
 10
0.0
 20
0.0
 30
0.0
  3
BLK2
  0
ENDBLK
  8
0
  5
44
  0
BLOCK
  8
0
  5
46
  2
*D3
 70
    65
 10
0.0
 20
0.0
 30
0.0
  3
*D3
  0
LINE
  8
LC-005-003-MTH-0
  6
CONTINUOUS
  5
47
 10
457.812405
 20
319.761418
 30
0.0
 11
528.8
 21
319.761418
 31
0.0
  0
LINE
  8
LC-005-003-MTH-0
  6
CONTINUOUS
  5
48
 10
465.826637
 20
348.761418
 30
0.0
 11
528.8
 21
348.761418
 31
0.0
  0
LINE
  8
LC-004-003-----0
  6
CONTINUOUS
  5
49
 10
520.349471
 20
301.91541
 30
0.0
 11
518.0
 21
319.761418
 31
0.0
  0
LINE
  8
LC-004-003-----0
  6
CONTINUOUS
  5
4A
 10
518.0
 20
319.761418
 30
0.0
 11
515.650529
 21
301.91541
 31
0.0
  0
LINE
  8
LC-004-003-----0
  6
CONTINUOUS
  5
4B
 10
515.650529
 20
301.91541
 30
0.0
 11
520.349471
 21
301.91541
 31
0.0
  0
LINE
  8
LC-004-003-----0
  6
CONTINUOUS
  5
4C
 10
519.738609
 20
301.875372
 30
0.0
 11
518.0
 21
315.081418
 31
0.0
  0
LINE
  8
LC-004-003-----0
  6
CONTINUOUS
  5
4D
 10
518.0
 20
315.081418
 30
0.0
 11
516.261391
 21
301.875372
 31
0.0
  0
LINE
  8
LC-004-003-----0
  6
CONTINUOUS
  5
4E
 10
519.127746
 20
301.835334
 30
0.0
 11
518.0
 21
310.401418
 31
0.0
  0
LINE
  8
LC-004-003-----0
  6
CONTINUOUS
  5
4F
 10
518.0
 20
310.401418
 30
0.0
 11
516.872254
 21
301.835334
 31
0.0
  0
LINE
  8
LC-004-003-----0
  6
CONTINUOUS
  5
50
 10
518.516884
 20
301.795296
 30
0.0
 11
518.0
 21
305.721418
 31
0.0
  0
LINE
  8
LC-004-003-----0
  6
CONTINUOUS
  5
51
 10
518.0
 20
305.721418
 30
0.0
 11
517.483116
 21
301.795296
 31
0.0
  0
LINE
  8
LC-004-003-----0
  6
CONTINUOUS
  5
52
 10
515.650529
 20
366.607425
 30
0.0
 11
518.0
 21
348.761418
 31
0.0
  0
LINE
  8
LC-004-003-----0
  6
CONTINUOUS
  5
53
 10
518.0
 20
348.761418
 30
0.0
 11
520.349471
 21
366.607425
 31
0.0
  0
LINE
  8
LC-004-003-----0
  6
CONTINUOUS
  5
54
 10
520.349471
 20
366.607425
 30
0.0
 11
515.650529
 21
366.607425
 31
0.0
  0
LINE
  8
LC-004-003-----0
  6
CONTINUOUS
  5
55
 10
516.261391
 20
366.647463
 30
0.0
 11
518.0
 21
353.441418
 31
0.0
  0
LINE
  8
LC-004-003-----0
  6
CONTINUOUS
  5
56
 10
518.0
 20
353.441418
 30
0.0
 11
519.738609
 21
366.647463
 31
0.0
  0
LINE
  8
LC-004-003-----0
  6
CONTINUOUS
  5
57
 10
516.872254
 20
366.687501
 30
0.0
 11
518.0
 21
358.121418
 31
0.0
  0
LINE
  8
LC-004-003-----0
  6
CONTINUOUS
  5
58
 10
518.0
 20
358.121418
 30
0.0
 11
519.127746
 21
366.687501
 31
0.0
  0
LINE
  8
LC-004-003-----0
  6
CONTINUOUS
  5
59
 10
517.483116
 20
366.727539
 30
0.0
 11
518.0
 21
362.801418
 31
0.0
  0
LINE
  8
LC-004-003-----0
  6
CONTINUOUS
  5
5A
 10
518.0
 20
362.801418
 30
0.0
 11
518.516884
 21
366.727539
 31
0.0
  0
LINE
  8
LC-006-003-MTG-0
  6
CONTINUOUS
  5
5B
 10
518.0
 20
294.561418
 30
0.0
 11
518.0
 21
406.763937
 31
0.0
  0
TEXT
  8
LC-004-003-----0
  6
CONTINUOUS
 62
     6
  5
5C
 10
507.568001
 20
376.036663
 30
0.0
 40
18.0
  1
29
 50
90.0
 51
15.0
  7
LC-TXTSTYLE-150-400-0-0-D0
  0
ENDBLK
  8
0
  5
5D
  0
BLOCK
  8
0
  5
5F
  2
*X4
 70
    65
 10
326.526637
 20
319.761418
 30
0.0
  3
*X4
  0
LINE
  8
LC-007-005-----0
  6
CONTINUOUS
  5
61
 10
379.158387
 20
319.761418
 30
0.0
 11
379.526637
 21
320.129667
 31
0.0
  0
LINE
  8
LC-007-005-----0
  6
CONTINUOUS
  5
62
 10
376.32996
 20
319.761418
 30
0.0
 11
379.526637
 21
322.958094
 31
0.0
  0
LINE
  8
LC-007-005-----0
  6
CONTINUOUS
  5
63
 10
373.501533
 20
319.761418
 30
0.0
 11
379.526637
 21
325.786522
 31
0.0
  0
LINE
  8
LC-007-005-----0
  6
CONTINUOUS
  5
64
 10
371.026637
 20
320.114949
 30
0.0
 11
372.373106
 21
321.461418
 31
0.0
  0
LINE
  8
LC-007-005-----0
  6
CONTINUOUS
  5
65
 10
376.526637
 20
325.614949
 30
0.0
 11
379.526637
 21
328.614949
 31
0.0
  0
LINE
  8
LC-007-005-----0
  6
CONTINUOUS
  5
66
 10
376.526637
 20
328.443376
 30
0.0
 11
379.526637
 21
331.443376
 31
0.0
  0
LINE
  8
LC-007-005-----0
  6
CONTINUOUS
  5
67
 10
376.526637
 20
331.271803
 30
0.0
 11
379.526637
 21
334.271803
 31
0.0
  0
LINE
  8
LC-007-005-----0
  6
CONTINUOUS
  5
68
 10
362.187825
 20
319.761418
 30
0.0
 11
363.291209
 21
320.864802
 31
0.0
  0
LINE
  8
LC-007-005-----0
  6
CONTINUOUS
  5
69
 10
376.526637
 20
334.10023
 30
0.0
 11
379.526637
 21
337.10023
 31
0.0
  0
LINE
  8
LC-007-005-----0
  6
CONTINUOUS
  5
6A
 10
359.359397
 20
319.761418
 30
0.0
 11
361.059397
 21
321.461418
 31
0.0
  0
LINE
  8
LC-007-005-----0
  6
CONTINUOUS
  5
6B
 10
376.526637
 20
336.928657
 30
0.0
 11
379.526637
 21
339.928657
 31
0.0
  0
LINE
  8
LC-007-005-----0
  6
CONTINUOUS
  5
6C
 10
376.526637
 20
339.757084
 30
0.0
 11
377.53097
 21
340.761418
 31
0.0
  0
LINE
  8
LC-007-005-----0
  6
CONTINUOUS
  5
6D
 10
348.045689
 20
319.761418
 30
0.0
 11
349.745689
 21
321.461418
 31
0.0
  0
LINE
  8
LC-007-005-----0
  6
CONTINUOUS
  5
6E
 10
346.915937
 20
321.460093
 30
0.0
 11
346.917262
 21
321.461418
 31
0.0
  0
LINE
  8
LC-007-005-----0
  6
CONTINUOUS
  5
6F
 10
336.737554
 20
319.766991
 30
0.0
 11
338.43198
 21
321.461418
 31
0.0
  0
LINE
  8
LC-007-005-----0
  6
CONTINUOUS
  5
70
 10
334.384396
 20
320.242261
 30
0.0
 11
335.746572
 21
321.604437
 31
0.0
  0
LINE
  8
LC-007-005-----0
  6
CONTINUOUS
  5
71
 10
332.554402
 20
321.240694
 30
0.0
 11
333.773408
 21
322.459699
 31
0.0
  0
LINE
  8
LC-007-005-----0
  6
CONTINUOUS
  5
72
 10
331.122122
 20
322.636841
 30
0.0
 11
332.335688
 21
323.850407
 31
0.0
  0
LINE
  8
LC-007-005-----0
  6
CONTINUOUS
  5
73
 10
330.083146
 20
324.426292
 30
0.0
 11
331.422759
 21
325.765905
 31
0.0
  0
LINE
  8
LC-007-005-----0
  6
CONTINUOUS
  5
74
 10
329.546355
 20
326.717928
 30
0.0
 11
331.226637
 21
328.39821
 31
0.0
  0
LINE
  8
LC-007-005-----0
  6
CONTINUOUS
  5
75
 10
329.526637
 20
329.526637
 30
0.0
 11
331.226637
 21
331.226637
 31
0.0
  0
LINE
  8
LC-007-005-----0
  6
CONTINUOUS
  5
76
 10
329.526637
 20
332.355064
 30
0.0
 11
331.226637
 21
334.055064
 31
0.0
  0
LINE
  8
LC-007-005-----0
  6
CONTINUOUS
  5
77
 10
329.526637
 20
335.183491
 30
0.0
 11
331.226637
 21
336.883491
 31
0.0
  0
LINE
  8
LC-007-005-----0
  6
CONTINUOUS
  5
78
 10
329.526637
 20
338.011918
 30
0.0
 11
331.226637
 21
339.711918
 31
0.0
  0
LINE
  8
LC-007-005-----0
  6
CONTINUOUS
  5
79
 10
329.526637
 20
340.840345
 30
0.0
 11
331.226637
 21
342.540345
 31
0.0
  0
LINE
  8
LC-007-005-----0
  6
CONTINUOUS
  5
7A
 10
329.526637
 20
343.668773
 30
0.0
 11
331.226637
 21
345.368773
 31
0.0
  0
LINE
  8
LC-007-005-----0
  6
CONTINUOUS
  5
7B
 10
329.526637
 20
346.4972
 30
0.0
 11
331.226637
 21
348.1972
 31
0.0
  0
LINE
  8
LC-007-005-----0
  6
CONTINUOUS
  5
7C
 10
326.962428
 20
346.761418
 30
0.0
 11
328.962428
 21
348.761418
 31
0.0
  0
ENDBLK
  8
0
  5
7D
  0
BLOCK
  8
0
  5
7F
  2
*X5
 70
    65
 10
417.526637
 20
319.761418
 30
0.0
  3
*X5
  0
LINE
  8
LC-007-005-----0
  6
CONTINUOUS
  5
80
 10
461.289934
 20
319.868578
 30
0.0
 11
467.419477
 21
325.99812
 31
0.0
  0
LINE
  8
LC-007-005-----0
  6
CONTINUOUS
  5
81
 10
458.354347
 20
319.761418
 30
0.0
 11
460.054413
 21
321.461484
 31
0.0
  0
LINE
  8
LC-007-005-----0
  6
CONTINUOUS
  5
82
 10
465.82657
 20
327.233641
 30
0.0
 11
467.526637
 21
328.933708
 31
0.0
  0
LINE
  8
LC-007-005-----0
  6
CONTINUOUS
  5
83
 10
465.826637
 20
330.062135
 30
0.0
 11
467.526637
 21
331.762135
 31
0.0
  0
LINE
  8
LC-007-005-----0
  6
CONTINUOUS
  5
84
 10
465.826637
 20
332.890562
 30
0.0
 11
467.526637
 21
334.590562
 31
0.0
  0
LINE
  8
LC-007-005-----0
  6
CONTINUOUS
  5
85
 10
449.869065
 20
319.761418
 30
0.0
 11
450.137337
 21
320.029689
 31
0.0
  0
LINE
  8
LC-007-005-----0
  6
CONTINUOUS
  5
86
 10
465.826637
 20
335.718989
 30
0.0
 11
467.526637
 21
337.418989
 31
0.0
  0
LINE
  8
LC-007-005-----0
  6
CONTINUOUS
  5
87
 10
447.040638
 20
319.761418
 30
0.0
 11
448.740638
 21
321.461418
 31
0.0
  0
LINE
  8
LC-007-005-----0
  6
CONTINUOUS
  5
88
 10
465.826637
 20
338.547416
 30
0.0
 11
467.526637
 21
340.247416
 31
0.0
  0
LINE
  8
LC-007-005-----0
  6
CONTINUOUS
  5
89
 10
465.826637
 20
341.375843
 30
0.0
 11
467.526637
 21
343.075843
 31
0.0
  0
LINE
  8
LC-007-005-----0
  6
CONTINUOUS
  5
8A
 10
465.826637
 20
344.204271
 30
0.0
 11
467.526637
 21
345.904271
 31
0.0
  0
LINE
  8
LC-007-005-----0
  6
CONTINUOUS
  5
8B
 10
468.383784
 20
346.761418
 30
0.0
 11
470.383784
 21
348.761418
 31
0.0
  0
LINE
  8
LC-007-005-----0
  6
CONTINUOUS
  5
8C
 10
465.826637
 20
347.032698
 30
0.0
 11
467.555357
 21
348.761418
 31
0.0
  0
LINE
  8
LC-007-005-----0
  6
CONTINUOUS
  5
8D
 10
435.72693
 20
319.761418
 30
0.0
 11
437.42693
 21
321.461418
 31
0.0
  0
LINE
  8
LC-007-005-----0
  6
CONTINUOUS
  5
8E
 10
433.762065
 20
320.62498
 30
0.0
 11
434.598503
 21
321.461418
 31
0.0
  0
LINE
  8
LC-007-005-----0
  6
CONTINUOUS
  5
8F
 10
424.413221
 20
319.761418
 30
0.0
 11
426.026637
 21
321.374833
 31
0.0
  0
LINE
  8
LC-007-005-----0
  6
CONTINUOUS
  5
90
 10
421.584794
 20
319.761418
 30
0.0
 11
423.29384
 21
321.470464
 31
0.0
  0
LINE
  8
LC-007-005-----0
  6
CONTINUOUS
  5
91
 10
418.756367
 20
319.761418
 30
0.0
 11
421.370473
 21
322.375523
 31
0.0
  0
LINE
  8
LC-007-005-----0
  6
CONTINUOUS
  5
92
 10
417.526637
 20
321.360115
 30
0.0
 11
420.528292
 21
324.36177
 31
0.0
  0
LINE
  8
LC-007-005-----0
  6
CONTINUOUS
  5
93
 10
417.526637
 20
324.188542
 30
0.0
 11
420.526637
 21
327.188542
 31
0.0
  0
LINE
  8
LC-007-005-----0
  6
CONTINUOUS
  5
94
 10
417.526637
 20
327.016969
 30
0.0
 11
420.526637
 21
330.016969
 31
0.0
  0
LINE
  8
LC-007-005-----0
  6
CONTINUOUS
  5
95
 10
417.526637
 20
329.845396
 30
0.0
 11
420.526637
 21
332.845396
 31
0.0
  0
LINE
  8
LC-007-005-----0
  6
CONTINUOUS
  5
96
 10
417.526637
 20
332.673823
 30
0.0
 11
420.526637
 21
335.673823
 31
0.0
  0
LINE
  8
LC-007-005-----0
  6
CONTINUOUS
  5
97
 10
417.526637
 20
335.50225
 30
0.0
 11
420.526637
 21
338.50225
 31
0.0
  0
LINE
  8
LC-007-005-----0
  6
CONTINUOUS
  5
98
 10
417.526637
 20
338.330677
 30
0.0
 11
419.957377
 21
340.761418
 31
0.0
  0
ENDBLK
  8
0
  5
99
  0
BLOCK
  8
0
  5
9B
  2
BLK3
 70
    64
 10
0.0
 20
0.0
 30
0.0
  3
BLK3
  0
ENDBLK
  8
0
  5
9C
  0
ENDSEC
  0
SECTION
  2
ENTITIES
  0
VIEWPORT
  8
LC-000
  5
313
 67
     1
 68
     1
 10
420.0
 20
297.0
 30
0.0
 40
840.0
 41
594.0
 69
     1
1001
ACAD
1000
MVIEW
1002
{
1070
    16
1010
0.0
1020
0.0
1030
0.0
1010
0.0
1020
0.0
1030
1.0
1040
0.0
1040
594.0
1040
420.0
1040
297.0
1040
50.0
1040
0.0
1040
0.0
1070
     0
1070
   100
1070
     1
1070
     1
1070
     0
1070
     0
1070
     0
1070
     0
1040
0.0
1040
0.0
1040
0.0
1040
1.0
1040
1.0
1040
0.0
1040
0.0
1070
     0
1002
{
1002
}
1002
}
  0
VIEWPORT
  8
0
  5
314
 67
     1
 68
     1
 10
0.0
 20
0.0
 30
0.0
 40
0.0
 41
0.0
 69
     1
1001
ACAD
1000
MVIEW
1002
{
1070
    16
1010
0.0
1020
0.0
1030
0.0
1010
0.0
1020
0.0
1030
1.0
1040
0.0
1040
594.0
1040
0.0
1040
0.0
1040
50.0
1040
0.0
1040
0.0
1070
     0
1070
   100
1070
     0
1070
     1
1070
     0
1070
     0
1070
     0
1070
     0
1040
0.0
1040
0.0
1040
0.0
1040
0.5
1040
0.5
1040
0.5
1040
0.5
1070
     0
1002
{
1002
}
1002
}
  0
INSERT
  8
0
  5
9E
  2
BLK1
 10
0.0
 20
0.0
 30
0.0
  0
DIMENSION
  8
0
  5
9F
  2
*D1
 10
398.526637
 20
364.0
 30
0.0
 11
398.526637
 21
364.0
 31
0.0
  1
%%c<>
 13
326.526637
 23
348.761418
 33
0.0
 14
470.526637
 24
348.761418
 34
0.0
  3
LC-DIM-L-0090-02-02
  0
INSERT
  8
0
  5
A0
  2
BLK2
 10
0.0
 20
0.0
 30
0.0
  0
DIMENSION
  8
0
  5
A1
  2
*D3
 10
518.0
 20
334.261418
 30
0.0
 11
518.0
 21
334.261418
 31
0.0
 13
465.826637
 23
348.761418
 33
0.0
 14
457.812405
 24
319.761418
 34
0.0
 50
90.0
  3
LC-DIM-L-0090-02-02
  0
INSERT
  8
0
  5
A2
  2
*X4
 10
326.526637
 20
319.761418
 30
0.0
  0
INSERT
  8
0
  5
A3
  2
*X5
 10
417.526637
 20
319.761418
 30
0.0
  0
INSERT
  8
0
  5
A4
  2
BLK3
 10
0.0
 20
0.0
 30
0.0
  0
LINE
  8
LC-002-002-----0
  6
CONTINUOUS
  5
A6
 10
465.826637
 20
348.761418
 30
0.0
 11
326.526637
 21
348.761418
 31
0.0
  0
ARC
  8
LC-003-002-RND-0
  6
CONTINUOUS
  5
A8
 10
651.526637
 20
403.225176
 30
0.0
 40
2.0
 50
0.0
 51
80.12911
  0
CIRCLE
  8
LC-002-002-----0
  6
CONTINUOUS
  5
A9
 10
639.526637
 20
334.261418
 30
0.0
 40
67.3
  0
LINE
  8
LC-002-002-----0
  6
CONTINUOUS
  5
AA
 10
417.526637
 20
338.761418
 30
0.0
 11
379.526637
 21
338.761418
 31
0.0
  0
ARC
  8
LC-002-002-----0
  6
CONTINUOUS
  5
AB
 10
619.526637
 20
334.261418
 30
0.0
 40
2.0
 50
90.0
 51
262.560131
  0
ARC
  8
LC-002-002-----0
  6
CONTINUOUS
  5
AC
 10
659.526637
 20
334.261418
 30
0.0
 40
2.0
 50
277.439869
 51
90.0
  0
LINE
  8
LC-002-002-----0
  6
CONTINUOUS
  5
AD
 10
653.526637
 20
400.089147
 30
0.0
 11
653.526637
 21
403.225176
 31
0.0
  0
LINE
  8
LC-002-002-----0
  6
CONTINUOUS
  5
AE
 10
625.526637
 20
400.089147
 30
0.0
 11
625.526637
 21
403.225176
 31
0.0
  0
LINE
  8
LC-002-002-----0
  6
CONTINUOUS
  5
AF
 10
378.526637
 20
342.761418
 30
0.0
 11
418.526637
 21
342.761418
 31
0.0
  0
ARC
  8
LC-003-002-RND-0
  6
CONTINUOUS
  5
B0
 10
627.526637
 20
403.225176
 30
0.0
 40
2.0
 50
99.87089
 51
180.0
  0
LINE
  8
LC-002-002-----0
  6
CONTINUOUS
  5
B1
 10
573.698907
 20
348.261418
 30
0.0
 11
570.562878
 21
348.261418
 31
0.0
  0
ARC
  8
LC-002-002-----0
  6
CONTINUOUS
  5
B2
 10
639.526637
 20
334.261418
 30
0.0
 40
69.0
 50
11.475398
 51
78.29349
  0
LINE
  8
LC-002-002-----0
  6
CONTINUOUS
  5
B3
 10
573.698907
 20
320.261418
 30
0.0
 11
570.562878
 21
320.261418
 31
0.0
  0
ARC
  8
LC-003-002-RND-0
  6
CONTINUOUS
  5
B4
 10
373.526637
 20
324.461418
 30
0.0
 40
3.0
 50
270.0
 51
0.0
  0
ARC
  8
LC-003-002-RND-0
  6
CONTINUOUS
  5
B5
 10
418.526637
 20
340.761418
 30
0.0
 40
2.0
 50
0.0
 51
90.0
  0
ARC
  8
LC-003-002-RND-0
  6
CONTINUOUS
  5
B6
 10
570.562878
 20
322.261418
 30
0.0
 40
2.0
 50
189.87089
 51
270.0
  0
ARC
  8
LC-002-002-----0
  6
CONTINUOUS
  5
B7
 10
639.526637
 20
334.261418
 30
0.0
 40
72.0
 50
170.12911
 51
189.87089
  0
LINE
  8
LC-002-002-----0
  6
CONTINUOUS
  5
B8
 10
625.526637
 20
268.433688
 30
0.0
 11
625.526637
 21
265.297659
 31
0.0
  0
CIRCLE
  8
LC-002-002-----0
  6
CONTINUOUS
  5
B9
 10
639.526637
 20
334.261418
 30
0.0
 40
22.0
  0
ARC
  8
LC-002-002-----0
  6
CONTINUOUS
  5
BA
 10
639.526637
 20
334.261418
 30
0.0
 40
19.5
 50
5.886842
 51
174.113158
  0
LINE
  8
LC-002-002-----0
  6
CONTINUOUS
  5
BB
 10
705.354367
 20
348.261418
 30
0.0
 11
708.490395
 21
348.261418
 31
0.0
  0
ARC
  8
LC-002-002-----0
  6
CONTINUOUS
  5
BC
 10
639.526637
 20
334.261418
 30
0.0
 40
72.0
 50
80.12911
 51
99.87089
  0
LINE
  8
LC-002-002-----0
  6
CONTINUOUS
  5
BD
 10
619.526637
 20
336.261418
 30
0.0
 11
659.526637
 21
336.261418
 31
0.0
  0
LINE
  8
LC-002-002-----0
  6
CONTINUOUS
  5
BE
 10
619.265467
 20
332.261418
 30
0.0
 11
659.785608
 21
332.261418
 31
0.0
  0
ARC
  8
LC-002-002-----0
  6
CONTINUOUS
  5
BF
 10
639.526637
 20
334.261418
 30
0.0
 40
19.5
 50
185.886842
 51
354.113158
  0
ARC
  8
LC-003-002-RND-0
  6
CONTINUOUS
  5
C0
 10
708.490395
 20
346.261418
 30
0.0
 40
2.0
 50
9.87089
 51
90.0
  0
ARC
  8
LC-002-002-----0
  6
CONTINUOUS
  5
C1
 10
639.526637
 20
334.261418
 30
0.0
 40
72.0
 50
350.12911
 51
9.87089
  0
ARC
  8
LC-003-002-RND-0
  6
CONTINUOUS
  5
C2
 10
708.490395
 20
322.261418
 30
0.0
 40
2.0
 50
270.0
 51
350.12911
  0
LINE
  8
LC-002-002-----0
  6
CONTINUOUS
  5
C3
 10
705.354367
 20
320.261418
 30
0.0
 11
708.490395
 21
320.261418
 31
0.0
  0
ARC
  8
LC-002-002-----0
  6
CONTINUOUS
  5
C4
 10
639.526637
 20
334.261418
 30
0.0
 40
69.0
 50
281.70651
 51
348.29349
  0
ARC
  8
LC-003-002-RND-0
  6
CONTINUOUS
  5
C5
 10
570.562878
 20
346.261418
 30
0.0
 40
2.0
 50
90.0
 51
170.12911
  0
ARC
  8
LC-002-002-----0
  6
CONTINUOUS
  5
C6
 10
639.526637
 20
334.261418
 30
0.0
 40
69.0
 50
101.70651
 51
168.29349
  0
ARC
  8
LC-003-002-RND-0
  6
CONTINUOUS
  5
C7
 10
627.526637
 20
265.297659
 30
0.0
 40
2.0
 50
180.0
 51
260.12911
  0
ARC
  8
LC-002-002-----0
  6
CONTINUOUS
  5
C8
 10
639.526637
 20
334.261418
 30
0.0
 40
72.0
 50
260.12911
 51
279.87089
  0
ARC
  8
LC-003-002-RND-0
  6
CONTINUOUS
  5
C9
 10
651.526637
 20
265.297659
 30
0.0
 40
2.0
 50
279.87089
 51
0.0
  0
LINE
  8
LC-002-002-----0
  6
CONTINUOUS
  5
CA
 10
653.526637
 20
268.433688
 30
0.0
 11
653.526637
 21
265.297659
 31
0.0
  0
ARC
  8
LC-002-002-----0
  6
CONTINUOUS
  5
CB
 10
639.526637
 20
334.261418
 30
0.0
 40
69.0
 50
191.70651
 51
258.29349
  0
CIRCLE
  8
LC-002-002-----0
  6
CONTINUOUS
  5
CC
 10
639.526637
 20
334.261418
 30
0.0
 40
27.5
  0
CIRCLE
  8
LC-002-002-----0
  6
CONTINUOUS
  5
CD
 10
639.526637
 20
334.261418
 30
0.0
 40
60.7
  0
ARC
  8
LC-002-002-----0
  6
CONTINUOUS
  5
CE
 10
644.940755
 20
300.911548
 30
0.0
 40
40.0
 50
348.802991
 51
357.884322
  0
ARC
  8
LC-002-002-----0
  6
CONTINUOUS
  5
CF
 10
644.940755
 20
300.911548
 30
0.0
 40
37.5
 50
346.786909
 51
356.68703
  0
ARC
  8
LC-002-002-----0
  6
CONTINUOUS
  5
D0
 10
672.876506
 20
328.8473
 30
0.0
 40
40.0
 50
213.514435
 51
219.680972
  0
LINE
  8
LC-002-002-----0
  6
CONTINUOUS
  5
D1
 10
329.526637
 20
327.261418
 30
0.0
 11
329.526637
 21
346.761418
 31
0.0
  0
ARC
  8
LC-002-002-----0
  6
CONTINUOUS
  5
D2
 10
644.940755
 20
300.911548
 30
0.0
 40
37.5
 50
40.251242
 51
47.882052
  0
ARC
  8
LC-002-002-----0
  6
CONTINUOUS
  5
D3
 10
619.773077
 20
306.851139
 30
0.0
 40
40.0
 50
303.802991
 51
312.884322
  0
ARC
  8
LC-002-002-----0
  6
CONTINUOUS
  5
D4
 10
627.540466
 20
302.672525
 30
0.0
 40
40.0
 50
318.802991
 51
327.884322
  0
ARC
  8
LC-002-002-----0
  6
CONTINUOUS
  5
D5
 10
636.124692
 20
300.646641
 30
0.0
 40
40.0
 50
333.802991
 51
342.884322
  0
ARC
  8
LC-002-002-----0
  6
CONTINUOUS
  5
D6
 10
608.714413
 20
320.4002
 30
0.0
 40
37.5
 50
325.251242
 51
332.882052
  0
LINE
  8
LC-002-002-----0
  6
CONTINUOUS
  5
D7
 10
326.526637
 20
346.761418
 30
0.0
 11
326.526637
 21
348.761418
 31
0.0
  0
LINE
  8
LC-002-002-----0
  6
CONTINUOUS
  5
D8
 10
331.226637
 20
327.261418
 30
0.0
 11
331.226637
 21
348.761418
 31
0.0
  0
ARC
  8
LC-002-002-----0
  6
CONTINUOUS
  5
D9
 10
634.112519
 20
300.911548
 30
0.0
 40
40.0
 50
182.115678
 51
191.197009
  0
ARC
  8
LC-002-002-----0
  6
CONTINUOUS
  5
DA
 10
634.112519
 20
300.911548
 30
0.0
 40
37.5
 50
183.31297
 51
193.213091
  0
ARC
  8
LC-002-002-----0
  6
CONTINUOUS
  5
DB
 10
619.773077
 20
306.851139
 30
0.0
 40
37.5
 50
301.786909
 51
311.68703
  0
ARC
  8
LC-002-002-----0
  6
CONTINUOUS
  5
DC
 10
606.176767
 20
328.8473
 30
0.0
 40
40.0
 50
320.319028
 51
326.485565
  0
ARC
  8
LC-002-002-----0
  6
CONTINUOUS
  5
DD
 10
627.540466
 20
302.672525
 30
0.0
 40
37.5
 50
316.786909
 51
326.68703
  0
ARC
  8
LC-002-002-----0
  6
CONTINUOUS
  5
DE
 10
636.124692
 20
300.646641
 30
0.0
 40
37.5
 50
331.786909
 51
341.68703
  0
ARC
  8
LC-002-002-----0
  6
CONTINUOUS
  5
DF
 10
666.936915
 20
354.014977
 30
0.0
 40
40.0
 50
317.115678
 51
326.197009
  0
ARC
  8
LC-002-002-----0
  6
CONTINUOUS
  5
E0
 10
666.936915
 20
354.014977
 30
0.0
 40
37.5
 50
318.31297
 51
328.213091
  0
ARC
  8
LC-002-002-----0
  6
CONTINUOUS
  5
E1
 10
634.112519
 20
300.911548
 30
0.0
 40
37.5
 50
132.117948
 51
139.748758
  0
ARC
  8
LC-002-002-----0
  6
CONTINUOUS
  5
E2
 10
660.890335
 20
308.086642
 30
0.0
 40
40.0
 50
31.648951
 51
40.871851
  0
ARC
  8
LC-002-002-----0
  6
CONTINUOUS
  5
E3
 10
660.890335
 20
308.086642
 30
0.0
 40
37.5
 50
30.645601
 51
40.439612
  0
ARC
  8
LC-002-002-----0
  6
CONTINUOUS
  5
E4
 10
660.890335
 20
360.436193
 30
0.0
 40
37.5
 50
293.763343
 51
302.469798
  0
ARC
  8
LC-002-002-----0
  6
CONTINUOUS
  5
E5
 10
644.940755
 20
300.911548
 30
0.0
 40
40.0
 50
39.057469
 51
46.49316
  0
ARC
  8
LC-002-002-----0
  6
CONTINUOUS
  5
E6
 10
660.890335
 20
360.436193
 30
0.0
 40
40.0
 50
294.618662
 51
302.98117
  0
ARC
  8
LC-002-002-----0
  6
CONTINUOUS
  5
E7
 10
644.940755
 20
300.911548
 30
0.0
 40
37.5
 50
40.251242
 51
47.882052
  0
ARC
  8
LC-002-002-----0
  6
CONTINUOUS
  5
E8
 10
666.936915
 20
354.014977
 30
0.0
 40
40.0
 50
291.570524
 51
300.522195
  0
ARC
  8
LC-002-002-----0
  6
CONTINUOUS
  5
E9
 10
666.936915
 20
354.014977
 30
0.0
 40
37.5
 50
291.326584
 51
300.733716
  0
ARC
  8
LC-002-002-----0
  6
CONTINUOUS
  5
EA
 10
644.940755
 20
300.911548
 30
0.0
 40
40.0
 50
27.01883
 51
35.381338
  0
ARC
  8
LC-002-002-----0
  6
CONTINUOUS
  5
EB
 10
644.940755
 20
300.911548
 30
0.0
 40
37.5
 50
27.530202
 51
36.236657
  0
ARC
  8
LC-002-002-----0
  6
CONTINUOUS
  5
EC
 10
644.940755
 20
300.911548
 30
0.0
 40
40.0
 50
14.477805
 51
23.429476
  0
ARC
  8
LC-002-002-----0
  6
CONTINUOUS
  5
ED
 10
644.940755
 20
300.911548
 30
0.0
 40
37.5
 50
14.266284
 51
23.673416
  0
ARC
  8
LC-002-002-----0
  6
CONTINUOUS
  5
EE
 10
671.11553
 20
346.247589
 30
0.0
 40
37.5
 50
289.560388
 51
299.354399
  0
ARC
  8
LC-002-002-----0
  6
CONTINUOUS
  5
EF
 10
671.11553
 20
346.247589
 30
0.0
 40
40.0
 50
289.128149
 51
298.351049
  0
ARC
  8
LC-002-002-----0
  6
CONTINUOUS
  5
F0
 10
671.11553
 20
346.247589
 30
0.0
 40
40.0
 50
276.570524
 51
285.522195
  0
ARC
  8
LC-002-002-----0
  6
CONTINUOUS
  5
F1
 10
665.701412
 20
312.897719
 30
0.0
 40
40.0
 50
229.128149
 51
238.351049
  0
ARC
  8
LC-002-002-----0
  6
CONTINUOUS
  5
F2
 10
670.33886
 20
320.4002
 30
0.0
 40
40.0
 50
219.618662
 51
227.98117
  0
ARC
  8
LC-002-002-----0
  6
CONTINUOUS
  5
F3
 10
653.387854
 20
303.449194
 30
0.0
 40
40.0
 50
3.802991
 51
12.884322
  0
ARC
  8
LC-002-002-----0
  6
CONTINUOUS
  5
F4
 10
660.890335
 20
308.086642
 30
0.0
 40
40.0
 50
18.802991
 51
27.884322
  0
ARC
  8
LC-002-002-----0
  6
CONTINUOUS
  5
F5
 10
653.387854
 20
303.449194
 30
0.0
 40
37.5
 50
1.786909
 51
11.68703
  0
ARC
  8
LC-002-002-----0
  6
CONTINUOUS
  5
F6
 10
660.890335
 20
308.086642
 30
0.0
 40
37.5
 50
16.786909
 51
26.68703
  0
LINE
  8
LC-002-002-----0
  6
CONTINUOUS
  5
F7
 10
337.026637
 20
321.461418
 30
0.0
 11
373.526637
 21
321.461418
 31
0.0
  0
ARC
  8
LC-002-002-----0
  6
CONTINUOUS
  5
F8
 10
673.141414
 20
337.663363
 30
0.0
 40
40.0
 50
228.514435
 51
234.680972
  0
ARC
  8
LC-002-002-----0
  6
CONTINUOUS
  5
F9
 10
659.280197
 20
306.851139
 30
0.0
 40
40.0
 50
227.115678
 51
236.197009
  0
ARC
  8
LC-002-002-----0
  6
CONTINUOUS
  5
FA
 10
651.512808
 20
302.672525
 30
0.0
 40
40.0
 50
212.115678
 51
221.197009
  0
ARC
  8
LC-002-002-----0
  6
CONTINUOUS
  5
FB
 10
642.928582
 20
300.646641
 30
0.0
 40
40.0
 50
197.115678
 51
206.197009
  0
ARC
  8
LC-002-002-----0
  6
CONTINUOUS
  5
FC
 10
670.33886
 20
320.4002
 30
0.0
 40
37.5
 50
207.117948
 51
214.748758
  0
ARC
  8
LC-002-002-----0
  6
CONTINUOUS
  5
FD
 10
671.11553
 20
346.247589
 30
0.0
 40
40.0
 50
243.514435
 51
249.680972
  0
ARC
  8
LC-002-002-----0
  6
CONTINUOUS
  5
FE
 10
659.280197
 20
306.851139
 30
0.0
 40
37.5
 50
228.31297
 51
238.213091
  0
ARC
  8
LC-002-002-----0
  6
CONTINUOUS
  5
FF
 10
651.512808
 20
302.672525
 30
0.0
 40
37.5
 50
213.31297
 51
223.213091
  0
ARC
  8
LC-002-002-----0
  6
CONTINUOUS
  5
100
 10
642.928582
 20
300.646641
 30
0.0
 40
37.5
 50
198.31297
 51
208.213091
  0
ARC
  8
LC-002-002-----0
  6
CONTINUOUS
  5
101
 10
612.116359
 20
354.014977
 30
0.0
 40
40.0
 50
213.802991
 51
222.884322
  0
ARC
  8
LC-002-002-----0
  6
CONTINUOUS
  5
102
 10
612.116359
 20
354.014977
 30
0.0
 40
37.5
 50
211.786909
 51
221.68703
  0
ARC
  8
LC-002-002-----0
  6
CONTINUOUS
  5
103
 10
618.162939
 20
308.086642
 30
0.0
 40
40.0
 50
139.128149
 51
148.351049
  0
ARC
  8
LC-002-002-----0
  6
CONTINUOUS
  5
104
 10
618.162939
 20
308.086642
 30
0.0
 40
37.5
 50
139.560388
 51
149.354399
  0
ARC
  8
LC-002-002-----0
  6
CONTINUOUS
  5
105
 10
666.936915
 20
354.014977
 30
0.0
 40
40.0
 50
258.514435
 51
264.680972
  0
ARC
  8
LC-002-002-----0
  6
CONTINUOUS
  5
106
 10
660.890335
 20
360.436193
 30
0.0
 40
40.0
 50
273.514435
 51
279.680972
  0
ARC
  8
LC-002-002-----0
  6
CONTINUOUS
  5
107
 10
653.387854
 20
365.073641
 30
0.0
 40
40.0
 50
288.514435
 51
294.680972
  0
ARC
  8
LC-002-002-----0
  6
CONTINUOUS
  5
108
 10
671.11553
 20
346.247589
 30
0.0
 40
37.5
 50
276.326584
 51
285.733716
  0
ARC
  8
LC-002-002-----0
  6
CONTINUOUS
  5
109
 10
636.124692
 20
300.646641
 30
0.0
 40
40.0
 50
12.01883
 51
20.381338
  0
ARC
  8
LC-002-002-----0
  6
CONTINUOUS
  5
10A
 10
636.124692
 20
300.646641
 30
0.0
 40
37.5
 50
12.530202
 51
21.236657
  0
ARC
  8
LC-002-002-----0
  6
CONTINUOUS
  5
10B
 10
636.124692
 20
300.646641
 30
0.0
 40
40.0
 50
35.319028
 51
41.485565
  0
ARC
  8
LC-002-002-----0
  6
CONTINUOUS
  5
10C
 10
660.890335
 20
360.436193
 30
0.0
 40
37.5
 50
282.117948
 51
289.748758
  0
ARC
  8
LC-002-002-----0
  6
CONTINUOUS
  5
10D
 10
660.890335
 20
360.436193
 30
0.0
 40
40.0
 50
283.50684
 51
290.942531
  0
ARC
  8
LC-002-002-----0
  6
CONTINUOUS
  5
10E
 10
666.936915
 20
354.014977
 30
0.0
 40
37.5
 50
278.763343
 51
287.469798
  0
ARC
  8
LC-002-002-----0
  6
CONTINUOUS
  5
10F
 10
666.936915
 20
354.014977
 30
0.0
 40
37.5
 50
267.117948
 51
274.748758
  0
ARC
  8
LC-002-002-----0
  6
CONTINUOUS
  5
110
 10
627.540466
 20
302.672525
 30
0.0
 40
40.0
 50
20.319028
 51
26.485565
  0
ARC
  8
LC-002-002-----0
  6
CONTINUOUS
  5
111
 10
618.162939
 20
360.436193
 30
0.0
 40
37.5
 50
237.530202
 51
246.236657
  0
ARC
  8
LC-002-002-----0
  6
CONTINUOUS
  5
112
 10
634.112519
 20
300.911548
 30
0.0
 40
40.0
 50
133.50684
 51
140.942531
  0
ARC
  8
LC-002-002-----0
  6
CONTINUOUS
  5
113
 10
618.162939
 20
360.436193
 30
0.0
 40
40.0
 50
237.01883
 51
245.381338
  0
ARC
  8
LC-002-002-----0
  6
CONTINUOUS
  5
114
 10
634.112519
 20
300.911548
 30
0.0
 40
37.5
 50
132.117948
 51
139.748758
  0
ARC
  8
LC-002-002-----0
  6
CONTINUOUS
  5
115
 10
612.116359
 20
354.014977
 30
0.0
 40
40.0
 50
239.477805
 51
248.429476
  0
ARC
  8
LC-002-002-----0
  6
CONTINUOUS
  5
116
 10
612.116359
 20
354.014977
 30
0.0
 40
37.5
 50
239.266284
 51
248.673416
  0
ARC
  8
LC-002-002-----0
  6
CONTINUOUS
  5
117
 10
634.112519
 20
300.911548
 30
0.0
 40
40.0
 50
144.618662
 51
152.98117
  0
ARC
  8
LC-002-002-----0
  6
CONTINUOUS
  5
118
 10
634.112519
 20
300.911548
 30
0.0
 40
37.5
 50
143.763343
 51
152.469798
  0
ARC
  8
LC-002-002-----0
  6
CONTINUOUS
  5
119
 10
634.112519
 20
300.911548
 30
0.0
 40
40.0
 50
156.570524
 51
165.522195
  0
ARC
  8
LC-002-002-----0
  6
CONTINUOUS
  5
11A
 10
634.112519
 20
300.911548
 30
0.0
 40
37.5
 50
156.326584
 51
165.733716
  0
ARC
  8
LC-002-002-----0
  6
CONTINUOUS
  5
11B
 10
607.937744
 20
346.247589
 30
0.0
 40
37.5
 50
240.645601
 51
250.439612
  0
ARC
  8
LC-002-002-----0
  6
CONTINUOUS
  5
11C
 10
607.937744
 20
346.247589
 30
0.0
 40
40.0
 50
241.648951
 51
250.871851
  0
ARC
  8
LC-002-002-----0
  6
CONTINUOUS
  5
11D
 10
607.937744
 20
346.247589
 30
0.0
 40
40.0
 50
254.477805
 51
263.429476
  0
ARC
  8
LC-002-002-----0
  6
CONTINUOUS
  5
11E
 10
636.124692
 20
300.646641
 30
0.0
 40
37.5
 50
25.251242
 51
32.882052
  0
ARC
  8
LC-002-002-----0
  6
CONTINUOUS
  5
11F
 10
636.124692
 20
300.646641
 30
0.0
 40
40.0
 50
24.057469
 51
31.49316
  0
ARC
  8
LC-002-002-----0
  6
CONTINUOUS
  5
120
 10
666.936915
 20
354.014977
 30
0.0
 40
40.0
 50
268.50684
 51
275.942531
  0
ARC
  8
LC-002-002-----0
  6
CONTINUOUS
  5
121
 10
666.936915
 20
354.014977
 30
0.0
 40
40.0
 50
279.618662
 51
287.98117
  0
ARC
  8
LC-002-002-----0
  6
CONTINUOUS
  5
122
 10
666.936915
 20
354.014977
 30
0.0
 40
40.0
 50
304.128149
 51
313.351049
  0
ARC
  8
LC-002-002-----0
  6
CONTINUOUS
  5
123
 10
653.387854
 20
303.449194
 30
0.0
 40
40.0
 50
29.266284
 51
38.429476
  0
ARC
  8
LC-002-002-----0
  6
CONTINUOUS
  5
124
 10
653.387854
 20
303.449194
 30
0.0
 40
37.5
 50
29.266284
 51
38.673416
  0
ARC
  8
LC-002-002-----0
  6
CONTINUOUS
  5
125
 10
666.936915
 20
354.014977
 30
0.0
 40
37.5
 50
304.560388
 51
314.354399
  0
ARC
  8
LC-002-002-----0
  6
CONTINUOUS
  5
126
 10
613.351861
 20
312.897719
 30
0.0
 40
40.0
 50
301.648951
 51
310.871851
  0
ARC
  8
LC-002-002-----0
  6
CONTINUOUS
  5
127
 10
608.714413
 20
320.4002
 30
0.0
 40
40.0
 50
312.01883
 51
320.381338
  0
ARC
  8
LC-002-002-----0
  6
CONTINUOUS
  5
128
 10
625.665419
 20
303.449194
 30
0.0
 40
40.0
 50
167.115678
 51
176.197009
  0
ARC
  8
LC-002-002-----0
  6
CONTINUOUS
  5
129
 10
618.162939
 20
308.086642
 30
0.0
 40
40.0
 50
152.115678
 51
161.197009
  0
ARC
  8
LC-002-002-----0
  6
CONTINUOUS
  5
12A
 10
653.387854
 20
303.449194
 30
0.0
 40
40.0
 50
42.01883
 51
50.381338
  0
ARC
  8
LC-002-002-----0
  6
CONTINUOUS
  5
12B
 10
653.387854
 20
303.449194
 30
0.0
 40
37.5
 50
42.530202
 51
51.236657
  0
ARC
  8
LC-002-002-----0
  6
CONTINUOUS
  5
12C
 10
660.890335
 20
360.436193
 30
0.0
 40
40.0
 50
306.570524
 51
315.522195
  0
ARC
  8
LC-002-002-----0
  6
CONTINUOUS
  5
12D
 10
625.665419
 20
303.449194
 30
0.0
 40
37.5
 50
168.31297
 51
178.213091
  0
ARC
  8
LC-002-002-----0
  6
CONTINUOUS
  5
12E
 10
618.162939
 20
308.086642
 30
0.0
 40
37.5
 50
153.31297
 51
163.213091
  0
ARC
  8
LC-002-002-----0
  6
CONTINUOUS
  5
12F
 10
660.890335
 20
360.436193
 30
0.0
 40
37.5
 50
306.326584
 51
315.733716
  0
ARC
  8
LC-002-002-----0
  6
CONTINUOUS
  5
130
 10
653.387854
 20
365.073641
 30
0.0
 40
40.0
 50
298.50684
 51
305.942531
  0
ARC
  8
LC-002-002-----0
  6
CONTINUOUS
  5
131
 10
653.387854
 20
365.073641
 30
0.0
 40
37.5
 50
297.117948
 51
304.748758
  0
ARC
  8
LC-002-002-----0
  6
CONTINUOUS
  5
132
 10
644.940755
 20
300.911548
 30
0.0
 40
40.0
 50
50.319028
 51
56.485565
  0
ARC
  8
LC-002-002-----0
  6
CONTINUOUS
  5
133
 10
673.141414
 20
337.663363
 30
0.0
 40
37.5
 50
274.560388
 51
284.199563
  0
ARC
  8
LC-002-002-----0
  6
CONTINUOUS
  5
134
 10
673.141414
 20
337.663363
 30
0.0
 40
40.0
 50
274.128149
 51
283.351049
  0
ARC
  8
LC-002-002-----0
  6
CONTINUOUS
  5
135
 10
636.124692
 20
300.646641
 30
0.0
 40
40.0
 50
359.477805
 51
8.429476
  0
ARC
  8
LC-002-002-----0
  6
CONTINUOUS
  5
136
 10
636.124692
 20
300.646641
 30
0.0
 40
37.5
 50
359.266284
 51
8.673416
  0
ARC
  8
LC-002-002-----0
  6
CONTINUOUS
  5
137
 10
605.91186
 20
337.663363
 30
0.0
 40
40.0
 50
305.319028
 51
311.485565
  0
ARC
  8
LC-002-002-----0
  6
CONTINUOUS
  5
138
 10
607.937744
 20
346.247589
 30
0.0
 40
40.0
 50
290.319028
 51
296.485565
  0
ARC
  8
LC-002-002-----0
  6
CONTINUOUS
  5
139
 10
612.116359
 20
354.014977
 30
0.0
 40
40.0
 50
275.319028
 51
281.485565
  0
ARC
  8
LC-002-002-----0
  6
CONTINUOUS
  5
13A
 10
618.162939
 20
360.436193
 30
0.0
 40
40.0
 50
260.319028
 51
266.485565
  0
ARC
  8
LC-002-002-----0
  6
CONTINUOUS
  5
13B
 10
625.665419
 20
365.073641
 30
0.0
 40
40.0
 50
245.319028
 51
251.485565
  0
ARC
  8
LC-002-002-----0
  6
CONTINUOUS
  5
13C
 10
673.141414
 20
337.663363
 30
0.0
 40
40.0
 50
287.115678
 51
296.197009
  0
ARC
  8
LC-002-002-----0
  6
CONTINUOUS
  5
13D
 10
673.141414
 20
337.663363
 30
0.0
 40
37.5
 50
288.31297
 51
298.213091
  0
ARC
  8
LC-002-002-----0
  6
CONTINUOUS
  5
13E
 10
644.940755
 20
300.911548
 30
0.0
 40
40.0
 50
1.648951
 51
10.871851
  0
ARC
  8
LC-002-002-----0
  6
CONTINUOUS
  5
13F
 10
644.940755
 20
300.911548
 30
0.0
 40
37.5
 50
0.0
 51
10.439612
  0
ARC
  8
LC-002-002-----0
  6
CONTINUOUS
  5
140
 10
653.387854
 20
303.449194
 30
0.0
 40
37.5
 50
15.645601
 51
25.439612
  0
ARC
  8
LC-002-002-----0
  6
CONTINUOUS
  5
141
 10
671.11553
 20
346.247589
 30
0.0
 40
37.5
 50
303.31297
 51
313.213091
  0
ARC
  8
LC-002-002-----0
  6
CONTINUOUS
  5
142
 10
653.387854
 20
303.449194
 30
0.0
 40
40.0
 50
16.648951
 51
25.871851
  0
ARC
  8
LC-002-002-----0
  6
CONTINUOUS
  5
143
 10
671.11553
 20
346.247589
 30
0.0
 40
40.0
 50
302.115678
 51
311.197009
  0
ARC
  8
LC-002-002-----0
  6
CONTINUOUS
  5
144
 10
672.876506
 20
328.8473
 30
0.0
 40
37.5
 50
273.31297
 51
283.213091
  0
ARC
  8
LC-002-002-----0
  6
CONTINUOUS
  5
145
 10
636.124692
 20
300.646641
 30
0.0
 40
40.0
 50
346.648951
 51
355.871851
  0
ARC
  8
LC-002-002-----0
  6
CONTINUOUS
  5
146
 10
636.124692
 20
300.646641
 30
0.0
 40
37.5
 50
345.645601
 51
355.439686
  0
ARC
  8
LC-002-002-----0
  6
CONTINUOUS
  5
147
 10
672.876506
 20
328.8473
 30
0.0
 40
40.0
 50
272.115678
 51
281.197009
  0
ARC
  8
LC-002-002-----0
  6
CONTINUOUS
  5
148
 10
672.876506
 20
328.8473
 30
0.0
 40
40.0
 50
259.128149
 51
268.351049
  0
ARC
  8
LC-002-002-----0
  6
CONTINUOUS
  5
149
 10
672.876506
 20
328.8473
 30
0.0
 40
37.5
 50
259.560388
 51
269.354399
  0
ARC
  8
LC-003-002-RND-0
  6
CONTINUOUS
  5
14A
 10
337.026637
 20
327.261418
 30
0.0
 40
5.8
 50
180.0
 51
270.0
  0
ARC
  8
LC-002-002-----0
  6
CONTINUOUS
  5
14B
 10
670.33886
 20
320.4002
 30
0.0
 40
37.5
 50
258.31297
 51
268.213091
  0
ARC
  8
LC-002-002-----0
  6
CONTINUOUS
  5
14C
 10
670.33886
 20
320.4002
 30
0.0
 40
40.0
 50
257.115678
 51
266.197009
  0
ARC
  8
LC-002-002-----0
  6
CONTINUOUS
  5
14D
 10
627.540466
 20
302.672525
 30
0.0
 40
40.0
 50
331.648951
 51
340.871851
  0
ARC
  8
LC-002-002-----0
  6
CONTINUOUS
  5
14E
 10
627.540466
 20
302.672525
 30
0.0
 40
37.5
 50
330.645601
 51
340.439612
  0
ARC
  8
LC-002-002-----0
  6
CONTINUOUS
  5
14F
 10
627.540466
 20
302.672525
 30
0.0
 40
40.0
 50
344.477805
 51
353.429476
  0
ARC
  8
LC-002-002-----0
  6
CONTINUOUS
  5
150
 10
627.540466
 20
302.672525
 30
0.0
 40
37.5
 50
344.266284
 51
353.673416
  0
ARC
  8
LC-002-002-----0
  6
CONTINUOUS
  5
151
 10
607.937744
 20
346.247589
 30
0.0
 40
37.5
 50
254.266284
 51
263.673416
  0
ARC
  8
LC-002-002-----0
  6
CONTINUOUS
  5
152
 10
642.928582
 20
300.646641
 30
0.0
 40
40.0
 50
159.618662
 51
167.98117
  0
ARC
  8
LC-002-002-----0
  6
CONTINUOUS
  5
153
 10
642.928582
 20
300.646641
 30
0.0
 40
37.5
 50
158.763343
 51
167.469798
  0
ARC
  8
LC-002-002-----0
  6
CONTINUOUS
  5
154
 10
642.928582
 20
300.646641
 30
0.0
 40
40.0
 50
138.514435
 51
144.680972
  0
ARC
  8
LC-002-002-----0
  6
CONTINUOUS
  5
155
 10
627.540466
 20
302.672525
 30
0.0
 40
40.0
 50
357.01883
 51
5.381338
  0
ARC
  8
LC-002-002-----0
  6
CONTINUOUS
  5
156
 10
618.162939
 20
360.436193
 30
0.0
 40
37.5
 50
250.251242
 51
257.882052
  0
ARC
  8
LC-002-002-----0
  6
CONTINUOUS
  5
157
 10
618.162939
 20
360.436193
 30
0.0
 40
40.0
 50
249.057469
 51
256.49316
  0
ARC
  8
LC-002-002-----0
  6
CONTINUOUS
  5
158
 10
612.116359
 20
354.014977
 30
0.0
 40
37.5
 50
252.530202
 51
261.236657
  0
ARC
  8
LC-002-002-----0
  6
CONTINUOUS
  5
159
 10
612.116359
 20
354.014977
 30
0.0
 40
37.5
 50
265.251242
 51
272.882052
  0
ARC
  8
LC-002-002-----0
  6
CONTINUOUS
  5
15A
 10
651.512808
 20
302.672525
 30
0.0
 40
40.0
 50
153.514435
 51
159.680972
  0
ARC
  8
LC-002-002-----0
  6
CONTINUOUS
  5
15B
 10
627.540466
 20
302.672525
 30
0.0
 40
37.5
 50
357.530202
 51
6.236657
  0
ARC
  8
LC-002-002-----0
  6
CONTINUOUS
  5
15C
 10
642.928582
 20
300.646641
 30
0.0
 40
37.5
 50
147.117948
 51
154.748758
  0
ARC
  8
LC-002-002-----0
  6
CONTINUOUS
  5
15D
 10
642.928582
 20
300.646641
 30
0.0
 40
40.0
 50
148.50684
 51
155.942531
  0
ARC
  8
LC-002-002-----0
  6
CONTINUOUS
  5
15E
 10
612.116359
 20
354.014977
 30
0.0
 40
40.0
 50
264.057469
 51
271.49316
  0
ARC
  8
LC-002-002-----0
  6
CONTINUOUS
  5
15F
 10
612.116359
 20
354.014977
 30
0.0
 40
40.0
 50
252.01883
 51
260.381338
  0
ARC
  8
LC-002-002-----0
  6
CONTINUOUS
  5
160
 10
612.116359
 20
354.014977
 30
0.0
 40
40.0
 50
226.648951
 51
235.871851
  0
ARC
  8
LC-002-002-----0
  6
CONTINUOUS
  5
161
 10
625.665419
 20
303.449194
 30
0.0
 40
40.0
 50
141.570524
 51
150.522195
  0
ARC
  8
LC-002-002-----0
  6
CONTINUOUS
  5
162
 10
625.665419
 20
303.449194
 30
0.0
 40
37.5
 50
141.326584
 51
150.733716
  0
ARC
  8
LC-002-002-----0
  6
CONTINUOUS
  5
163
 10
612.116359
 20
354.014977
 30
0.0
 40
37.5
 50
225.645601
 51
235.439612
  0
ARC
  8
LC-002-002-----0
  6
CONTINUOUS
  5
164
 10
625.665419
 20
303.449194
 30
0.0
 40
40.0
 50
129.618662
 51
137.98117
  0
ARC
  8
LC-002-002-----0
  6
CONTINUOUS
  5
165
 10
625.665419
 20
303.449194
 30
0.0
 40
37.5
 50
128.763343
 51
137.469798
  0
ARC
  8
LC-002-002-----0
  6
CONTINUOUS
  5
166
 10
618.162939
 20
360.436193
 30
0.0
 40
40.0
 50
224.477805
 51
233.429476
  0
ARC
  8
LC-002-002-----0
  6
CONTINUOUS
  5
167
 10
618.162939
 20
360.436193
 30
0.0
 40
37.5
 50
224.266284
 51
233.673416
  0
ARC
  8
LC-002-002-----0
  6
CONTINUOUS
  5
168
 10
625.665419
 20
365.073641
 30
0.0
 40
40.0
 50
234.057469
 51
241.49316
  0
ARC
  8
LC-002-002-----0
  6
CONTINUOUS
  5
169
 10
625.665419
 20
365.073641
 30
0.0
 40
37.5
 50
235.251242
 51
242.882052
  0
ARC
  8
LC-002-002-----0
  6
CONTINUOUS
  5
16A
 10
634.112519
 20
300.911548
 30
0.0
 40
40.0
 50
123.514435
 51
129.680972
  0
ARC
  8
LC-002-002-----0
  6
CONTINUOUS
  5
16B
 10
673.141414
 20
337.663363
 30
0.0
 40
40.0
 50
261.570524
 51
270.522195
  0
ARC
  8
LC-002-002-----0
  6
CONTINUOUS
  5
16C
 10
673.141414
 20
337.663363
 30
0.0
 40
37.5
 50
261.326584
 51
270.733716
  0
ARC
  8
LC-002-002-----0
  6
CONTINUOUS
  5
16D
 10
605.91186
 20
337.663363
 30
0.0
 40
37.5
 50
255.645601
 51
265.439612
  0
ARC
  8
LC-002-002-----0
  6
CONTINUOUS
  5
16E
 10
605.91186
 20
337.663363
 30
0.0
 40
40.0
 50
256.648951
 51
265.871851
  0
ARC
  8
LC-002-002-----0
  6
CONTINUOUS
  5
16F
 10
642.928582
 20
300.646641
 30
0.0
 40
40.0
 50
171.570524
 51
180.522195
  0
ARC
  8
LC-002-002-----0
  6
CONTINUOUS
  5
170
 10
642.928582
 20
300.646641
 30
0.0
 40
37.5
 50
171.326584
 51
180.733716
  0
ARC
  8
LC-002-002-----0
  6
CONTINUOUS
  5
171
 10
605.91186
 20
337.663363
 30
0.0
 40
40.0
 50
243.802991
 51
252.884322
  0
ARC
  8
LC-002-002-----0
  6
CONTINUOUS
  5
172
 10
605.91186
 20
337.663363
 30
0.0
 40
37.5
 50
241.786909
 51
251.68703
  0
ARC
  8
LC-002-002-----0
  6
CONTINUOUS
  5
173
 10
634.112519
 20
300.911548
 30
0.0
 40
40.0
 50
169.128149
 51
178.351049
  0
ARC
  8
LC-002-002-----0
  6
CONTINUOUS
  5
174
 10
634.112519
 20
300.911548
 30
0.0
 40
37.5
 50
169.560388
 51
179.354399
  0
ARC
  8
LC-002-002-----0
  6
CONTINUOUS
  5
175
 10
625.665419
 20
303.449194
 30
0.0
 40
37.5
 50
154.560388
 51
164.354399
  0
ARC
  8
LC-002-002-----0
  6
CONTINUOUS
  5
176
 10
607.937744
 20
346.247589
 30
0.0
 40
37.5
 50
226.786909
 51
236.68703
  0
ARC
  8
LC-002-002-----0
  6
CONTINUOUS
  5
177
 10
625.665419
 20
303.449194
 30
0.0
 40
40.0
 50
154.128149
 51
163.351049
  0
ARC
  8
LC-002-002-----0
  6
CONTINUOUS
  5
178
 10
607.937744
 20
346.247589
 30
0.0
 40
40.0
 50
228.802991
 51
237.884322
  0
ARC
  8
LC-002-002-----0
  6
CONTINUOUS
  5
179
 10
606.176767
 20
328.8473
 30
0.0
 40
37.5
 50
256.786909
 51
266.68703
  0
ARC
  8
LC-002-002-----0
  6
CONTINUOUS
  5
17A
 10
642.928582
 20
300.646641
 30
0.0
 40
40.0
 50
184.128149
 51
193.351049
  0
ARC
  8
LC-002-002-----0
  6
CONTINUOUS
  5
17B
 10
642.928582
 20
300.646641
 30
0.0
 40
37.5
 50
184.607663
 51
194.354399
  0
ARC
  8
LC-002-002-----0
  6
CONTINUOUS
  5
17C
 10
606.176767
 20
328.8473
 30
0.0
 40
40.0
 50
258.802991
 51
267.884322
  0
ARC
  8
LC-002-002-----0
  6
CONTINUOUS
  5
17D
 10
606.176767
 20
328.8473
 30
0.0
 40
40.0
 50
271.648951
 51
280.871851
  0
ARC
  8
LC-002-002-----0
  6
CONTINUOUS
  5
17E
 10
606.176767
 20
328.8473
 30
0.0
 40
37.5
 50
270.645601
 51
280.439612
  0
ARC
  8
LC-002-002-----0
  6
CONTINUOUS
  5
17F
 10
608.714413
 20
320.4002
 30
0.0
 40
37.5
 50
271.786909
 51
281.68703
  0
ARC
  8
LC-002-002-----0
  6
CONTINUOUS
  5
180
 10
608.714413
 20
320.4002
 30
0.0
 40
40.0
 50
273.802991
 51
282.884322
  0
ARC
  8
LC-002-002-----0
  6
CONTINUOUS
  5
181
 10
651.512808
 20
302.672525
 30
0.0
 40
40.0
 50
199.128149
 51
208.351049
  0
ARC
  8
LC-002-002-----0
  6
CONTINUOUS
  5
182
 10
651.512808
 20
302.672525
 30
0.0
 40
37.5
 50
199.560388
 51
209.354399
  0
ARC
  8
LC-002-002-----0
  6
CONTINUOUS
  5
183
 10
651.512808
 20
302.672525
 30
0.0
 40
40.0
 50
186.570524
 51
195.522195
  0
ARC
  8
LC-002-002-----0
  6
CONTINUOUS
  5
184
 10
651.512808
 20
302.672525
 30
0.0
 40
37.5
 50
186.326584
 51
195.733716
  0
ARC
  8
LC-002-002-----0
  6
CONTINUOUS
  5
185
 10
651.512808
 20
302.672525
 30
0.0
 40
40.0
 50
174.618662
 51
182.98117
  0
ARC
  8
LC-002-002-----0
  6
CONTINUOUS
  5
186
 10
651.512808
 20
302.672525
 30
0.0
 40
37.5
 50
173.763343
 51
182.469798
  0
ARC
  8
LC-002-002-----0
  6
CONTINUOUS
  5
187
 10
605.91186
 20
337.663363
 30
0.0
 40
40.0
 50
269.477805
 51
278.429476
  0
ARC
  8
LC-002-002-----0
  6
CONTINUOUS
  5
188
 10
605.91186
 20
337.663363
 30
0.0
 40
37.5
 50
269.266284
 51
278.673416
  0
ARC
  8
LC-002-002-----0
  6
CONTINUOUS
  5
189
 10
651.512808
 20
302.672525
 30
0.0
 40
40.0
 50
163.50684
 51
170.942531
  0
ARC
  8
LC-002-002-----0
  6
CONTINUOUS
  5
18A
 10
651.512808
 20
302.672525
 30
0.0
 40
37.5
 50
162.117948
 51
169.748758
  0
ARC
  8
LC-002-002-----0
  6
CONTINUOUS
  5
18B
 10
607.937744
 20
346.247589
 30
0.0
 40
37.5
 50
267.530202
 51
276.236657
  0
ARC
  8
LC-002-002-----0
  6
CONTINUOUS
  5
18C
 10
607.937744
 20
346.247589
 30
0.0
 40
40.0
 50
267.01883
 51
275.381338
  0
ARC
  8
LC-002-002-----0
  6
CONTINUOUS
  5
18D
 10
607.937744
 20
346.247589
 30
0.0
 40
40.0
 50
279.057469
 51
286.49316
  0
ARC
  8
LC-002-002-----0
  6
CONTINUOUS
  5
18E
 10
607.937744
 20
346.247589
 30
0.0
 40
37.5
 50
280.251242
 51
287.882052
  0
ARC
  8
LC-002-002-----0
  6
CONTINUOUS
  5
18F
 10
605.91186
 20
337.663363
 30
0.0
 40
37.5
 50
282.530202
 51
291.236657
  0
ARC
  8
LC-002-002-----0
  6
CONTINUOUS
  5
190
 10
605.91186
 20
337.663363
 30
0.0
 40
40.0
 50
282.01883
 51
290.381338
  0
ARC
  8
LC-002-002-----0
  6
CONTINUOUS
  5
191
 10
606.176767
 20
328.8473
 30
0.0
 40
37.5
 50
284.266284
 51
293.673416
  0
ARC
  8
LC-002-002-----0
  6
CONTINUOUS
  5
192
 10
606.176767
 20
328.8473
 30
0.0
 40
40.0
 50
284.477805
 51
293.429476
  0
ARC
  8
LC-002-002-----0
  6
CONTINUOUS
  5
193
 10
659.280197
 20
306.851139
 30
0.0
 40
40.0
 50
168.514435
 51
174.680972
  0
ARC
  8
LC-002-002-----0
  6
CONTINUOUS
  5
194
 10
659.280197
 20
306.851139
 30
0.0
 40
40.0
 50
178.50684
 51
185.942531
  0
ARC
  8
LC-002-002-----0
  6
CONTINUOUS
  5
195
 10
659.280197
 20
306.851139
 30
0.0
 40
40.0
 50
189.618662
 51
197.98117
  0
ARC
  8
LC-002-002-----0
  6
CONTINUOUS
  5
196
 10
659.280197
 20
306.851139
 30
0.0
 40
40.0
 50
201.570524
 51
210.522195
  0
ARC
  8
LC-002-002-----0
  6
CONTINUOUS
  5
197
 10
659.280197
 20
306.851139
 30
0.0
 40
40.0
 50
214.128149
 51
223.351049
  0
ARC
  8
LC-002-002-----0
  6
CONTINUOUS
  5
198
 10
659.280197
 20
306.851139
 30
0.0
 40
37.5
 50
177.117948
 51
184.748758
  0
ARC
  8
LC-002-002-----0
  6
CONTINUOUS
  5
199
 10
659.280197
 20
306.851139
 30
0.0
 40
37.5
 50
188.763343
 51
197.469798
  0
ARC
  8
LC-002-002-----0
  6
CONTINUOUS
  5
19A
 10
659.280197
 20
306.851139
 30
0.0
 40
37.5
 50
201.326584
 51
210.733716
  0
ARC
  8
LC-002-002-----0
  6
CONTINUOUS
  5
19B
 10
659.280197
 20
306.851139
 30
0.0
 40
37.5
 50
214.560388
 51
224.354399
  0
ARC
  8
LC-002-002-----0
  6
CONTINUOUS
  5
19C
 10
608.714413
 20
320.4002
 30
0.0
 40
40.0
 50
286.648951
 51
295.871851
  0
ARC
  8
LC-002-002-----0
  6
CONTINUOUS
  5
19D
 10
608.714413
 20
320.4002
 30
0.0
 40
37.5
 50
285.645601
 51
295.439612
  0
ARC
  8
LC-002-002-----0
  6
CONTINUOUS
  5
19E
 10
613.351861
 20
312.897719
 30
0.0
 40
37.5
 50
286.786909
 51
296.68703
  0
ARC
  8
LC-002-002-----0
  6
CONTINUOUS
  5
19F
 10
613.351861
 20
312.897719
 30
0.0
 40
40.0
 50
288.802991
 51
297.884322
  0
ARC
  8
LC-002-002-----0
  6
CONTINUOUS
  5
1A0
 10
627.540466
 20
302.672525
 30
0.0
 40
40.0
 50
9.057469
 51
16.49316
  0
ARC
  8
LC-002-002-----0
  6
CONTINUOUS
  5
1A1
 10
665.701412
 20
312.897719
 30
0.0
 40
40.0
 50
183.514435
 51
189.680972
  0
ARC
  8
LC-002-002-----0
  6
CONTINUOUS
  5
1A2
 10
605.91186
 20
337.663363
 30
0.0
 40
37.5
 50
295.251242
 51
302.882052
  0
ARC
  8
LC-002-002-----0
  6
CONTINUOUS
  5
1A3
 10
605.91186
 20
337.663363
 30
0.0
 40
40.0
 50
294.057469
 51
301.721122
  0
ARC
  8
LC-002-002-----0
  6
CONTINUOUS
  5
1A4
 10
606.176767
 20
328.8473
 30
0.0
 40
37.5
 50
297.530202
 51
306.236657
  0
ARC
  8
LC-002-002-----0
  6
CONTINUOUS
  5
1A5
 10
606.176767
 20
328.8473
 30
0.0
 40
40.0
 50
297.01883
 51
305.381338
  0
ARC
  8
LC-002-002-----0
  6
CONTINUOUS
  5
1A6
 10
608.714413
 20
320.4002
 30
0.0
 40
37.5
 50
299.266284
 51
308.673416
  0
ARC
  8
LC-002-002-----0
  6
CONTINUOUS
  5
1A7
 10
608.714413
 20
320.4002
 30
0.0
 40
40.0
 50
299.477805
 51
308.429476
  0
ARC
  8
LC-002-002-----0
  6
CONTINUOUS
  5
1A8
 10
613.351861
 20
312.897719
 30
0.0
 40
37.5
 50
300.645601
 51
310.439612
  0
ARC
  8
LC-002-002-----0
  6
CONTINUOUS
  5
1A9
 10
665.701412
 20
312.897719
 30
0.0
 40
40.0
 50
204.618662
 51
212.98117
  0
ARC
  8
LC-002-002-----0
  6
CONTINUOUS
  5
1AA
 10
665.701412
 20
312.897719
 30
0.0
 40
40.0
 50
193.50684
 51
200.942531
  0
ARC
  8
LC-002-002-----0
  6
CONTINUOUS
  5
1AB
 10
627.540466
 20
302.672525
 30
0.0
 40
37.5
 50
10.251242
 51
17.882052
  0
ARC
  8
LC-002-002-----0
  6
CONTINUOUS
  5
1AC
 10
665.701412
 20
312.897719
 30
0.0
 40
37.5
 50
192.117948
 51
199.748758
  0
ARC
  8
LC-002-002-----0
  6
CONTINUOUS
  5
1AD
 10
665.701412
 20
312.897719
 30
0.0
 40
37.5
 50
203.763343
 51
212.469798
  0
ARC
  8
LC-002-002-----0
  6
CONTINUOUS
  5
1AE
 10
665.701412
 20
312.897719
 30
0.0
 40
37.5
 50
216.326584
 51
225.733716
  0
ARC
  8
LC-002-002-----0
  6
CONTINUOUS
  5
1AF
 10
671.11553
 20
346.247589
 30
0.0
 40
37.5
 50
263.763343
 51
272.469798
  0
ARC
  8
LC-002-002-----0
  6
CONTINUOUS
  5
1B0
 10
670.33886
 20
320.4002
 30
0.0
 40
40.0
 50
198.514435
 51
204.680972
  0
ARC
  8
LC-002-002-----0
  6
CONTINUOUS
  5
1B1
 10
606.176767
 20
328.8473
 30
0.0
 40
37.5
 50
310.251242
 51
317.882052
  0
ARC
  8
LC-002-002-----0
  6
CONTINUOUS
  5
1B2
 10
606.176767
 20
328.8473
 30
0.0
 40
40.0
 50
309.057469
 51
316.49316
  0
ARC
  8
LC-002-002-----0
  6
CONTINUOUS
  5
1B3
 10
608.714413
 20
320.4002
 30
0.0
 40
37.5
 50
312.530202
 51
321.236657
  0
ARC
  8
LC-002-002-----0
  6
CONTINUOUS
  5
1B4
 10
670.33886
 20
320.4002
 30
0.0
 40
40.0
 50
208.50684
 51
215.942531
  0
ARC
  8
LC-002-002-----0
  6
CONTINUOUS
  5
1B5
 10
665.701412
 20
312.897719
 30
0.0
 40
40.0
 50
216.570524
 51
225.522195
  0
ARC
  8
LC-002-002-----0
  6
CONTINUOUS
  5
1B6
 10
671.11553
 20
346.247589
 30
0.0
 40
40.0
 50
264.618662
 51
272.98117
  0
ARC
  8
LC-002-002-----0
  6
CONTINUOUS
  5
1B7
 10
671.11553
 20
346.247589
 30
0.0
 40
40.0
 50
253.50684
 51
260.942531
  0
ARC
  8
LC-002-002-----0
  6
CONTINUOUS
  5
1B8
 10
671.11553
 20
346.247589
 30
0.0
 40
37.5
 50
252.117948
 51
259.748758
  0
ARC
  8
LC-002-002-----0
  6
CONTINUOUS
  5
1B9
 10
673.141414
 20
337.663363
 30
0.0
 40
37.5
 50
248.763343
 51
257.469798
  0
ARC
  8
LC-002-002-----0
  6
CONTINUOUS
  5
1BA
 10
673.141414
 20
337.663363
 30
0.0
 40
40.0
 50
249.618662
 51
257.98117
  0
ARC
  8
LC-002-002-----0
  6
CONTINUOUS
  5
1BB
 10
672.876506
 20
328.8473
 30
0.0
 40
37.5
 50
246.326584
 51
255.733716
  0
ARC
  8
LC-002-002-----0
  6
CONTINUOUS
  5
1BC
 10
672.876506
 20
328.8473
 30
0.0
 40
40.0
 50
246.570524
 51
255.522195
  0
ARC
  8
LC-002-002-----0
  6
CONTINUOUS
  5
1BD
 10
619.773077
 20
306.851139
 30
0.0
 40
40.0
 50
5.319028
 51
11.485565
  0
ARC
  8
LC-002-002-----0
  6
CONTINUOUS
  5
1BE
 10
619.773077
 20
306.851139
 30
0.0
 40
40.0
 50
354.057469
 51
1.49316
  0
ARC
  8
LC-002-002-----0
  6
CONTINUOUS
  5
1BF
 10
619.773077
 20
306.851139
 30
0.0
 40
40.0
 50
342.01883
 51
350.381338
  0
ARC
  8
LC-002-002-----0
  6
CONTINUOUS
  5
1C0
 10
619.773077
 20
306.851139
 30
0.0
 40
40.0
 50
329.477805
 51
338.429476
  0
ARC
  8
LC-002-002-----0
  6
CONTINUOUS
  5
1C1
 10
619.773077
 20
306.851139
 30
0.0
 40
40.0
 50
316.648951
 51
325.871851
  0
ARC
  8
LC-002-002-----0
  6
CONTINUOUS
  5
1C2
 10
619.773077
 20
306.851139
 30
0.0
 40
37.5
 50
355.251242
 51
2.882052
  0
ARC
  8
LC-002-002-----0
  6
CONTINUOUS
  5
1C3
 10
619.773077
 20
306.851139
 30
0.0
 40
37.5
 50
342.530202
 51
351.236657
  0
ARC
  8
LC-002-002-----0
  6
CONTINUOUS
  5
1C4
 10
619.773077
 20
306.851139
 30
0.0
 40
37.5
 50
329.266284
 51
338.673416
  0
ARC
  8
LC-002-002-----0
  6
CONTINUOUS
  5
1C5
 10
619.773077
 20
306.851139
 30
0.0
 40
37.5
 50
315.645601
 51
325.439612
  0
ARC
  8
LC-002-002-----0
  6
CONTINUOUS
  5
1C6
 10
670.33886
 20
320.4002
 30
0.0
 40
40.0
 50
244.128149
 51
253.351049
  0
ARC
  8
LC-002-002-----0
  6
CONTINUOUS
  5
1C7
 10
670.33886
 20
320.4002
 30
0.0
 40
37.5
 50
244.560388
 51
254.354399
  0
ARC
  8
LC-002-002-----0
  6
CONTINUOUS
  5
1C8
 10
665.701412
 20
312.897719
 30
0.0
 40
37.5
 50
243.31297
 51
253.213091
  0
ARC
  8
LC-002-002-----0
  6
CONTINUOUS
  5
1C9
 10
665.701412
 20
312.897719
 30
0.0
 40
40.0
 50
242.115678
 51
251.197009
  0
ARC
  8
LC-002-002-----0
  6
CONTINUOUS
  5
1CA
 10
613.351861
 20
312.897719
 30
0.0
 40
40.0
 50
350.319028
 51
356.485565
  0
ARC
  8
LC-002-002-----0
  6
CONTINUOUS
  5
1CB
 10
673.141414
 20
337.663363
 30
0.0
 40
37.5
 50
237.117948
 51
244.748758
  0
ARC
  8
LC-002-002-----0
  6
CONTINUOUS
  5
1CC
 10
673.141414
 20
337.663363
 30
0.0
 40
40.0
 50
238.50684
 51
245.942531
  0
ARC
  8
LC-002-002-----0
  6
CONTINUOUS
  5
1CD
 10
672.876506
 20
328.8473
 30
0.0
 40
37.5
 50
233.763343
 51
242.469798
  0
ARC
  8
LC-002-002-----0
  6
CONTINUOUS
  5
1CE
 10
672.876506
 20
328.8473
 30
0.0
 40
40.0
 50
234.618662
 51
242.98117
  0
ARC
  8
LC-002-002-----0
  6
CONTINUOUS
  5
1CF
 10
670.33886
 20
320.4002
 30
0.0
 40
37.5
 50
231.326584
 51
240.733716
  0
ARC
  8
LC-002-002-----0
  6
CONTINUOUS
  5
1D0
 10
670.33886
 20
320.4002
 30
0.0
 40
40.0
 50
231.570524
 51
240.522195
  0
ARC
  8
LC-002-002-----0
  6
CONTINUOUS
  5
1D1
 10
665.701412
 20
312.897719
 30
0.0
 40
37.5
 50
229.560388
 51
239.354399
  0
ARC
  8
LC-002-002-----0
  6
CONTINUOUS
  5
1D2
 10
613.351861
 20
312.897719
 30
0.0
 40
40.0
 50
327.01883
 51
335.381338
  0
ARC
  8
LC-002-002-----0
  6
CONTINUOUS
  5
1D3
 10
613.351861
 20
312.897719
 30
0.0
 40
40.0
 50
339.057469
 51
346.49316
  0
ARC
  8
LC-002-002-----0
  6
CONTINUOUS
  5
1D4
 10
613.351861
 20
312.897719
 30
0.0
 40
37.5
 50
340.251242
 51
347.882052
  0
ARC
  8
LC-002-002-----0
  6
CONTINUOUS
  5
1D5
 10
613.351861
 20
312.897719
 30
0.0
 40
37.5
 50
327.530202
 51
336.236657
  0
ARC
  8
LC-002-002-----0
  6
CONTINUOUS
  5
1D6
 10
613.351861
 20
312.897719
 30
0.0
 40
37.5
 50
314.266284
 51
323.673416
  0
ARC
  8
LC-002-002-----0
  6
CONTINUOUS
  5
1D7
 10
608.714413
 20
320.4002
 30
0.0
 40
40.0
 50
335.319028
 51
341.485565
  0
ARC
  8
LC-002-002-----0
  6
CONTINUOUS
  5
1D8
 10
672.876506
 20
328.8473
 30
0.0
 40
37.5
 50
222.117948
 51
229.748758
  0
ARC
  8
LC-002-002-----0
  6
CONTINUOUS
  5
1D9
 10
672.876506
 20
328.8473
 30
0.0
 40
40.0
 50
223.50684
 51
230.942531
  0
ARC
  8
LC-002-002-----0
  6
CONTINUOUS
  5
1DA
 10
670.33886
 20
320.4002
 30
0.0
 40
37.5
 50
218.763343
 51
227.469798
  0
ARC
  8
LC-002-002-----0
  6
CONTINUOUS
  5
1DB
 10
608.714413
 20
320.4002
 30
0.0
 40
40.0
 50
324.057469
 51
331.49316
  0
ARC
  8
LC-002-002-----0
  6
CONTINUOUS
  5
1DC
 10
613.351861
 20
312.897719
 30
0.0
 40
40.0
 50
314.477805
 51
323.429476
  0
LINE
  8
LC-002-002-----0
  6
CONTINUOUS
  5
1DD
 10
619.265467
 20
336.261418
 30
0.0
 11
659.785608
 21
336.261418
 31
0.0
  0
ARC
  8
LC-002-002-----0
  6
CONTINUOUS
  5
1DE
 10
639.526637
 20
334.261418
 30
0.0
 40
19.5
 50
5.886842
 51
174.113158
  0
ARC
  8
LC-002-002-----0
  6
CONTINUOUS
  5
1DF
 10
644.940755
 20
367.611287
 30
0.0
 40
40.0
 50
2.115678
 51
11.197009
  0
ARC
  8
LC-002-002-----0
  6
CONTINUOUS
  5
1E0
 10
644.940755
 20
367.611287
 30
0.0
 40
37.5
 50
3.31297
 51
13.213091
  0
ARC
  8
LC-002-002-----0
  6
CONTINUOUS
  5
1E1
 10
672.876506
 20
339.675535
 30
0.0
 40
40.0
 50
140.319028
 51
146.485565
  0
ARC
  8
LC-002-002-----0
  6
CONTINUOUS
  5
1E2
 10
644.940755
 20
367.611287
 30
0.0
 40
37.5
 50
312.117948
 51
319.748758
  0
ARC
  8
LC-002-002-----0
  6
CONTINUOUS
  5
1E3
 10
619.773077
 20
361.671696
 30
0.0
 40
40.0
 50
47.115678
 51
56.197009
  0
ARC
  8
LC-002-002-----0
  6
CONTINUOUS
  5
1E4
 10
627.540466
 20
365.850311
 30
0.0
 40
40.0
 50
32.115678
 51
41.197009
  0
ARC
  8
LC-002-002-----0
  6
CONTINUOUS
  5
1E5
 10
636.124692
 20
367.876195
 30
0.0
 40
40.0
 50
17.115678
 51
26.197009
  0
ARC
  8
LC-002-002-----0
  6
CONTINUOUS
  5
1E6
 10
608.714413
 20
348.122635
 30
0.0
 40
37.5
 50
27.117948
 51
34.748758
  0
ARC
  8
LC-002-002-----0
  6
CONTINUOUS
  5
1E7
 10
634.112519
 20
367.611287
 30
0.0
 40
40.0
 50
168.802991
 51
177.884322
  0
ARC
  8
LC-002-002-----0
  6
CONTINUOUS
  5
1E8
 10
634.112519
 20
367.611287
 30
0.0
 40
37.5
 50
166.786909
 51
176.68703
  0
ARC
  8
LC-002-002-----0
  6
CONTINUOUS
  5
1E9
 10
619.773077
 20
361.671696
 30
0.0
 40
37.5
 50
48.31297
 51
58.213091
  0
ARC
  8
LC-002-002-----0
  6
CONTINUOUS
  5
1EA
 10
606.176767
 20
339.675535
 30
0.0
 40
40.0
 50
33.514435
 51
39.680972
  0
ARC
  8
LC-002-002-----0
  6
CONTINUOUS
  5
1EB
 10
627.540466
 20
365.850311
 30
0.0
 40
37.5
 50
33.31297
 51
43.213091
  0
ARC
  8
LC-002-002-----0
  6
CONTINUOUS
  5
1EC
 10
636.124692
 20
367.876195
 30
0.0
 40
37.5
 50
18.31297
 51
28.213091
  0
ARC
  8
LC-002-002-----0
  6
CONTINUOUS
  5
1ED
 10
666.936915
 20
314.507858
 30
0.0
 40
40.0
 50
33.802991
 51
42.884322
  0
ARC
  8
LC-002-002-----0
  6
CONTINUOUS
  5
1EE
 10
666.936915
 20
314.507858
 30
0.0
 40
37.5
 50
31.786909
 51
41.68703
  0
ARC
  8
LC-002-002-----0
  6
CONTINUOUS
  5
1EF
 10
634.112519
 20
367.611287
 30
0.0
 40
37.5
 50
220.251242
 51
227.882052
  0
ARC
  8
LC-002-002-----0
  6
CONTINUOUS
  5
1F0
 10
660.890335
 20
360.436193
 30
0.0
 40
40.0
 50
319.128149
 51
328.351049
  0
ARC
  8
LC-002-002-----0
  6
CONTINUOUS
  5
1F1
 10
660.890335
 20
360.436193
 30
0.0
 40
37.5
 50
319.560388
 51
329.354399
  0
ARC
  8
LC-002-002-----0
  6
CONTINUOUS
  5
1F2
 10
660.890335
 20
308.086642
 30
0.0
 40
37.5
 50
57.530202
 51
66.236657
  0
ARC
  8
LC-002-002-----0
  6
CONTINUOUS
  5
1F3
 10
644.940755
 20
367.611287
 30
0.0
 40
40.0
 50
313.50684
 51
320.942531
  0
ARC
  8
LC-002-002-----0
  6
CONTINUOUS
  5
1F4
 10
660.890335
 20
308.086642
 30
0.0
 40
40.0
 50
57.01883
 51
65.381338
  0
ARC
  8
LC-002-002-----0
  6
CONTINUOUS
  5
1F5
 10
644.940755
 20
367.611287
 30
0.0
 40
37.5
 50
312.117948
 51
319.748758
  0
ARC
  8
LC-002-002-----0
  6
CONTINUOUS
  5
1F6
 10
666.936915
 20
314.507858
 30
0.0
 40
40.0
 50
59.477805
 51
68.429476
  0
ARC
  8
LC-002-002-----0
  6
CONTINUOUS
  5
1F7
 10
666.936915
 20
314.507858
 30
0.0
 40
37.5
 50
59.266284
 51
68.673416
  0
ARC
  8
LC-002-002-----0
  6
CONTINUOUS
  5
1F8
 10
644.940755
 20
367.611287
 30
0.0
 40
40.0
 50
324.618662
 51
332.98117
  0
ARC
  8
LC-002-002-----0
  6
CONTINUOUS
  5
1F9
 10
644.940755
 20
367.611287
 30
0.0
 40
37.5
 50
323.763343
 51
332.469798
  0
ARC
  8
LC-002-002-----0
  6
CONTINUOUS
  5
1FA
 10
644.940755
 20
367.611287
 30
0.0
 40
40.0
 50
336.570524
 51
345.522195
  0
ARC
  8
LC-002-002-----0
  6
CONTINUOUS
  5
1FB
 10
644.940755
 20
367.611287
 30
0.0
 40
37.5
 50
336.326584
 51
345.733716
  0
ARC
  8
LC-002-002-----0
  6
CONTINUOUS
  5
1FC
 10
671.11553
 20
322.275246
 30
0.0
 40
37.5
 50
60.645601
 51
70.439612
  0
ARC
  8
LC-002-002-----0
  6
CONTINUOUS
  5
1FD
 10
671.11553
 20
322.275246
 30
0.0
 40
40.0
 50
61.648951
 51
70.871851
  0
ARC
  8
LC-002-002-----0
  6
CONTINUOUS
  5
1FE
 10
671.11553
 20
322.275246
 30
0.0
 40
40.0
 50
74.477805
 51
83.429476
  0
ARC
  8
LC-002-002-----0
  6
CONTINUOUS
  5
1FF
 10
665.701412
 20
355.625116
 30
0.0
 40
40.0
 50
121.648951
 51
130.871851
  0
ARC
  8
LC-002-002-----0
  6
CONTINUOUS
  5
200
 10
670.33886
 20
348.122635
 30
0.0
 40
40.0
 50
132.01883
 51
140.381338
  0
ARC
  8
LC-002-002-----0
  6
CONTINUOUS
  5
201
 10
653.387854
 20
365.073641
 30
0.0
 40
40.0
 50
347.115678
 51
356.197009
  0
ARC
  8
LC-002-002-----0
  6
CONTINUOUS
  5
202
 10
660.890335
 20
360.436193
 30
0.0
 40
40.0
 50
332.115678
 51
341.197009
  0
ARC
  8
LC-002-002-----0
  6
CONTINUOUS
  5
203
 10
653.387854
 20
365.073641
 30
0.0
 40
37.5
 50
348.31297
 51
358.213091
  0
ARC
  8
LC-002-002-----0
  6
CONTINUOUS
  5
204
 10
660.890335
 20
360.436193
 30
0.0
 40
37.5
 50
333.31297
 51
343.213091
  0
ARC
  8
LC-002-002-----0
  6
CONTINUOUS
  5
205
 10
673.141414
 20
330.859472
 30
0.0
 40
40.0
 50
125.319028
 51
131.485565
  0
ARC
  8
LC-002-002-----0
  6
CONTINUOUS
  5
206
 10
659.280197
 20
361.671696
 30
0.0
 40
40.0
 50
123.802991
 51
132.884322
  0
ARC
  8
LC-002-002-----0
  6
CONTINUOUS
  5
207
 10
651.512808
 20
365.850311
 30
0.0
 40
40.0
 50
138.802991
 51
147.884322
  0
ARC
  8
LC-002-002-----0
  6
CONTINUOUS
  5
208
 10
642.928582
 20
367.876195
 30
0.0
 40
40.0
 50
153.802991
 51
162.884322
  0
ARC
  8
LC-002-002-----0
  6
CONTINUOUS
  5
209
 10
670.33886
 20
348.122635
 30
0.0
 40
37.5
 50
145.251242
 51
152.882052
  0
ARC
  8
LC-002-002-----0
  6
CONTINUOUS
  5
20A
 10
671.11553
 20
322.275246
 30
0.0
 40
40.0
 50
110.319028
 51
116.485565
  0
ARC
  8
LC-002-002-----0
  6
CONTINUOUS
  5
20B
 10
659.280197
 20
361.671696
 30
0.0
 40
37.5
 50
121.786909
 51
131.68703
  0
ARC
  8
LC-002-002-----0
  6
CONTINUOUS
  5
20C
 10
651.512808
 20
365.850311
 30
0.0
 40
37.5
 50
136.786909
 51
146.68703
  0
ARC
  8
LC-002-002-----0
  6
CONTINUOUS
  5
20D
 10
642.928582
 20
367.876195
 30
0.0
 40
37.5
 50
151.786909
 51
161.68703
  0
ARC
  8
LC-002-002-----0
  6
CONTINUOUS
  5
20E
 10
612.116359
 20
314.507858
 30
0.0
 40
40.0
 50
137.115678
 51
146.197009
  0
ARC
  8
LC-002-002-----0
  6
CONTINUOUS
  5
20F
 10
612.116359
 20
314.507858
 30
0.0
 40
37.5
 50
138.31297
 51
148.213091
  0
ARC
  8
LC-002-002-----0
  6
CONTINUOUS
  5
210
 10
618.162939
 20
360.436193
 30
0.0
 40
40.0
 50
211.648951
 51
220.871851
  0
ARC
  8
LC-002-002-----0
  6
CONTINUOUS
  5
211
 10
618.162939
 20
360.436193
 30
0.0
 40
37.5
 50
210.645601
 51
220.439612
  0
ARC
  8
LC-002-002-----0
  6
CONTINUOUS
  5
212
 10
666.936915
 20
314.507858
 30
0.0
 40
40.0
 50
95.319028
 51
101.485565
  0
ARC
  8
LC-002-002-----0
  6
CONTINUOUS
  5
213
 10
660.890335
 20
308.086642
 30
0.0
 40
40.0
 50
80.319028
 51
86.485565
  0
ARC
  8
LC-002-002-----0
  6
CONTINUOUS
  5
214
 10
653.387854
 20
303.449194
 30
0.0
 40
40.0
 50
65.319028
 51
71.485565
  0
ARC
  8
LC-002-002-----0
  6
CONTINUOUS
  5
215
 10
671.11553
 20
322.275246
 30
0.0
 40
37.5
 50
74.266284
 51
83.673416
  0
ARC
  8
LC-002-002-----0
  6
CONTINUOUS
  5
216
 10
636.124692
 20
367.876195
 30
0.0
 40
40.0
 50
339.618662
 51
347.98117
  0
ARC
  8
LC-002-002-----0
  6
CONTINUOUS
  5
217
 10
636.124692
 20
367.876195
 30
0.0
 40
37.5
 50
338.763343
 51
347.469798
  0
ARC
  8
LC-002-002-----0
  6
CONTINUOUS
  5
218
 10
636.124692
 20
367.876195
 30
0.0
 40
40.0
 50
318.514435
 51
324.680972
  0
ARC
  8
LC-002-002-----0
  6
CONTINUOUS
  5
219
 10
660.890335
 20
308.086642
 30
0.0
 40
37.5
 50
70.251242
 51
77.882052
  0
ARC
  8
LC-002-002-----0
  6
CONTINUOUS
  5
21A
 10
660.890335
 20
308.086642
 30
0.0
 40
40.0
 50
69.057469
 51
76.49316
  0
ARC
  8
LC-002-002-----0
  6
CONTINUOUS
  5
21B
 10
666.936915
 20
314.507858
 30
0.0
 40
37.5
 50
72.530202
 51
81.236657
  0
ARC
  8
LC-002-002-----0
  6
CONTINUOUS
  5
21C
 10
666.936915
 20
314.507858
 30
0.0
 40
37.5
 50
85.251242
 51
92.882052
  0
ARC
  8
LC-002-002-----0
  6
CONTINUOUS
  5
21D
 10
627.540466
 20
365.850311
 30
0.0
 40
40.0
 50
333.514435
 51
339.680972
  0
ARC
  8
LC-002-002-----0
  6
CONTINUOUS
  5
21E
 10
618.162939
 20
308.086642
 30
0.0
 40
37.5
 50
113.763343
 51
122.469798
  0
ARC
  8
LC-002-002-----0
  6
CONTINUOUS
  5
21F
 10
634.112519
 20
367.611287
 30
0.0
 40
40.0
 50
219.057469
 51
226.49316
  0
ARC
  8
LC-002-002-----0
  6
CONTINUOUS
  5
220
 10
618.162939
 20
308.086642
 30
0.0
 40
40.0
 50
114.618662
 51
122.98117
  0
ARC
  8
LC-002-002-----0
  6
CONTINUOUS
  5
221
 10
634.112519
 20
367.611287
 30
0.0
 40
37.5
 50
220.251242
 51
227.882052
  0
ARC
  8
LC-002-002-----0
  6
CONTINUOUS
  5
222
 10
612.116359
 20
314.507858
 30
0.0
 40
40.0
 50
111.570524
 51
120.522195
  0
ARC
  8
LC-002-002-----0
  6
CONTINUOUS
  5
223
 10
612.116359
 20
314.507858
 30
0.0
 40
37.5
 50
111.326584
 51
120.733716
  0
ARC
  8
LC-002-002-----0
  6
CONTINUOUS
  5
224
 10
634.112519
 20
367.611287
 30
0.0
 40
40.0
 50
207.01883
 51
215.381338
  0
ARC
  8
LC-002-002-----0
  6
CONTINUOUS
  5
225
 10
634.112519
 20
367.611287
 30
0.0
 40
37.5
 50
207.530202
 51
216.236657
  0
ARC
  8
LC-002-002-----0
  6
CONTINUOUS
  5
226
 10
634.112519
 20
367.611287
 30
0.0
 40
40.0
 50
194.477805
 51
203.429476
  0
ARC
  8
LC-002-002-----0
  6
CONTINUOUS
  5
227
 10
634.112519
 20
367.611287
 30
0.0
 40
37.5
 50
194.266284
 51
203.673416
  0
ARC
  8
LC-002-002-----0
  6
CONTINUOUS
  5
228
 10
607.937744
 20
322.275246
 30
0.0
 40
37.5
 50
109.560388
 51
119.354399
  0
ARC
  8
LC-002-002-----0
  6
CONTINUOUS
  5
229
 10
607.937744
 20
322.275246
 30
0.0
 40
40.0
 50
109.128149
 51
118.351049
  0
ARC
  8
LC-002-002-----0
  6
CONTINUOUS
  5
22A
 10
607.937744
 20
322.275246
 30
0.0
 40
40.0
 50
96.570524
 51
105.522195
  0
ARC
  8
LC-002-002-----0
  6
CONTINUOUS
  5
22B
 10
636.124692
 20
367.876195
 30
0.0
 40
37.5
 50
327.117948
 51
334.748758
  0
ARC
  8
LC-002-002-----0
  6
CONTINUOUS
  5
22C
 10
636.124692
 20
367.876195
 30
0.0
 40
40.0
 50
328.50684
 51
335.942531
  0
ARC
  8
LC-002-002-----0
  6
CONTINUOUS
  5
22D
 10
666.936915
 20
314.507858
 30
0.0
 40
40.0
 50
84.057469
 51
91.721122
  0
ARC
  8
LC-002-002-----0
  6
CONTINUOUS
  5
22E
 10
666.936915
 20
314.507858
 30
0.0
 40
40.0
 50
72.01883
 51
80.381338
  0
ARC
  8
LC-002-002-----0
  6
CONTINUOUS
  5
22F
 10
666.936915
 20
314.507858
 30
0.0
 40
40.0
 50
46.648951
 51
55.871851
  0
ARC
  8
LC-002-002-----0
  6
CONTINUOUS
  5
230
 10
653.387854
 20
365.073641
 30
0.0
 40
40.0
 50
321.570524
 51
330.733716
  0
ARC
  8
LC-002-002-----0
  6
CONTINUOUS
  5
231
 10
653.387854
 20
365.073641
 30
0.0
 40
37.5
 50
321.326584
 51
330.733716
  0
ARC
  8
LC-002-002-----0
  6
CONTINUOUS
  5
232
 10
666.936915
 20
314.507858
 30
0.0
 40
37.5
 50
45.645601
 51
55.439612
  0
ARC
  8
LC-002-002-----0
  6
CONTINUOUS
  5
233
 10
613.351861
 20
355.625116
 30
0.0
 40
40.0
 50
49.128149
 51
58.351049
  0
ARC
  8
LC-002-002-----0
  6
CONTINUOUS
  5
234
 10
608.714413
 20
348.122635
 30
0.0
 40
40.0
 50
39.618662
 51
47.98117
  0
ARC
  8
LC-002-002-----0
  6
CONTINUOUS
  5
235
 10
625.665419
 20
365.073641
 30
0.0
 40
40.0
 50
183.802991
 51
192.884322
  0
ARC
  8
LC-002-002-----0
  6
CONTINUOUS
  5
236
 10
618.162939
 20
360.436193
 30
0.0
 40
40.0
 50
198.802991
 51
207.884322
  0
ARC
  8
LC-002-002-----0
  6
CONTINUOUS
  5
237
 10
653.387854
 20
365.073641
 30
0.0
 40
40.0
 50
309.618662
 51
317.98117
  0
ARC
  8
LC-002-002-----0
  6
CONTINUOUS
  5
238
 10
653.387854
 20
365.073641
 30
0.0
 40
37.5
 50
308.763343
 51
317.469798
  0
ARC
  8
LC-002-002-----0
  6
CONTINUOUS
  5
239
 10
660.890335
 20
308.086642
 30
0.0
 40
40.0
 50
44.477805
 51
53.429476
  0
ARC
  8
LC-002-002-----0
  6
CONTINUOUS
  5
23A
 10
625.665419
 20
365.073641
 30
0.0
 40
37.5
 50
181.786909
 51
191.68703
  0
ARC
  8
LC-002-002-----0
  6
CONTINUOUS
  5
23B
 10
618.162939
 20
360.436193
 30
0.0
 40
37.5
 50
196.786909
 51
206.68703
  0
ARC
  8
LC-002-002-----0
  6
CONTINUOUS
  5
23C
 10
660.890335
 20
308.086642
 30
0.0
 40
37.5
 50
44.266284
 51
53.673416
  0
ARC
  8
LC-002-002-----0
  6
CONTINUOUS
  5
23D
 10
653.387854
 20
303.449194
 30
0.0
 40
40.0
 50
54.057469
 51
61.49316
  0
ARC
  8
LC-002-002-----0
  6
CONTINUOUS
  5
23E
 10
653.387854
 20
303.449194
 30
0.0
 40
37.5
 50
55.251242
 51
62.882052
  0
ARC
  8
LC-002-002-----0
  6
CONTINUOUS
  5
23F
 10
644.940755
 20
367.611287
 30
0.0
 40
40.0
 50
303.514435
 51
309.680972
  0
ARC
  8
LC-002-002-----0
  6
CONTINUOUS
  5
240
 10
673.141414
 20
330.859472
 30
0.0
 40
37.5
 50
75.645601
 51
85.439612
  0
ARC
  8
LC-002-002-----0
  6
CONTINUOUS
  5
241
 10
673.141414
 20
330.859472
 30
0.0
 40
40.0
 50
76.648951
 51
85.871851
  0
ARC
  8
LC-002-002-----0
  6
CONTINUOUS
  5
242
 10
636.124692
 20
367.876195
 30
0.0
 40
40.0
 50
351.570524
 51
0.522195
  0
ARC
  8
LC-002-002-----0
  6
CONTINUOUS
  5
243
 10
636.124692
 20
367.876195
 30
0.0
 40
37.5
 50
351.326584
 51
0.733716
  0
ARC
  8
LC-002-002-----0
  6
CONTINUOUS
  5
244
 10
605.91186
 20
330.859472
 30
0.0
 40
40.0
 50
48.514435
 51
54.680972
  0
ARC
  8
LC-002-002-----0
  6
CONTINUOUS
  5
245
 10
607.937744
 20
322.275246
 30
0.0
 40
40.0
 50
63.514435
 51
69.680972
  0
ARC
  8
LC-002-002-----0
  6
CONTINUOUS
  5
246
 10
612.116359
 20
314.507858
 30
0.0
 40
40.0
 50
78.514435
 51
84.680972
  0
ARC
  8
LC-002-002-----0
  6
CONTINUOUS
  5
247
 10
618.162939
 20
308.086642
 30
0.0
 40
40.0
 50
93.514435
 51
99.680972
  0
ARC
  8
LC-002-002-----0
  6
CONTINUOUS
  5
248
 10
625.665419
 20
303.449194
 30
0.0
 40
40.0
 50
108.514435
 51
114.680972
  0
ARC
  8
LC-002-002-----0
  6
CONTINUOUS
  5
249
 10
673.141414
 20
330.859472
 30
0.0
 40
40.0
 50
63.802991
 51
72.884322
  0
ARC
  8
LC-002-002-----0
  6
CONTINUOUS
  5
24A
 10
673.141414
 20
330.859472
 30
0.0
 40
37.5
 50
61.786909
 51
71.68703
  0
ARC
  8
LC-002-002-----0
  6
CONTINUOUS
  5
24B
 10
644.940755
 20
367.611287
 30
0.0
 40
40.0
 50
349.128149
 51
358.351049
  0
ARC
  8
LC-002-002-----0
  6
CONTINUOUS
  5
24C
 10
644.940755
 20
367.611287
 30
0.0
 40
37.5
 50
349.560388
 51
359.354399
  0
ARC
  8
LC-002-002-----0
  6
CONTINUOUS
  5
24D
 10
653.387854
 20
365.073641
 30
0.0
 40
37.5
 50
334.560388
 51
344.354399
  0
ARC
  8
LC-002-002-----0
  6
CONTINUOUS
  5
24E
 10
671.11553
 20
322.275246
 30
0.0
 40
37.5
 50
46.786909
 51
56.68703
  0
ARC
  8
LC-002-002-----0
  6
CONTINUOUS
  5
24F
 10
653.387854
 20
365.073641
 30
0.0
 40
40.0
 50
334.128149
 51
343.351049
  0
ARC
  8
LC-002-002-----0
  6
CONTINUOUS
  5
250
 10
671.11553
 20
322.275246
 30
0.0
 40
40.0
 50
48.802991
 51
57.884322
  0
ARC
  8
LC-002-002-----0
  6
CONTINUOUS
  5
251
 10
672.876506
 20
339.675535
 30
0.0
 40
37.5
 50
76.786909
 51
86.68703
  0
ARC
  8
LC-002-002-----0
  6
CONTINUOUS
  5
252
 10
636.124692
 20
367.876195
 30
0.0
 40
40.0
 50
4.128149
 51
13.351049
  0
ARC
  8
LC-002-002-----0
  6
CONTINUOUS
  5
253
 10
636.124692
 20
367.876195
 30
0.0
 40
37.5
 50
4.607663
 51
14.354399
  0
ARC
  8
LC-002-002-----0
  6
CONTINUOUS
  5
254
 10
672.876506
 20
339.675535
 30
0.0
 40
40.0
 50
78.802991
 51
87.884322
  0
ARC
  8
LC-002-002-----0
  6
CONTINUOUS
  5
255
 10
672.876506
 20
339.675535
 30
0.0
 40
40.0
 50
91.648951
 51
100.871851
  0
ARC
  8
LC-002-002-----0
  6
CONTINUOUS
  5
256
 10
672.876506
 20
339.675535
 30
0.0
 40
37.5
 50
90.645601
 51
100.439612
  0
ARC
  8
LC-003-002-RND-0
  6
CONTINUOUS
  5
257
 10
423.526637
 20
324.461418
 30
0.0
 40
3.0
 50
180.0
 51
270.0
  0
ARC
  8
LC-002-002-----0
  6
CONTINUOUS
  5
258
 10
670.33886
 20
348.122635
 30
0.0
 40
37.5
 50
91.786909
 51
101.68703
  0
ARC
  8
LC-002-002-----0
  6
CONTINUOUS
  5
259
 10
670.33886
 20
348.122635
 30
0.0
 40
40.0
 50
93.802991
 51
102.884322
  0
LINE
  8
LC-002-002-----0
  6
CONTINUOUS
  5
25A
 10
467.526637
 20
327.261418
 30
0.0
 11
467.526637
 21
346.761418
 31
0.0
  0
LINE
  8
LC-002-002-----0
  6
CONTINUOUS
  5
25B
 10
337.026637
 20
319.761418
 30
0.0
 11
379.526637
 21
319.761418
 31
0.0
  0
ARC
  8
LC-002-002-----0
  6
CONTINUOUS
  5
25C
 10
627.540466
 20
365.850311
 30
0.0
 40
40.0
 50
19.128149
 51
28.351049
  0
ARC
  8
LC-002-002-----0
  6
CONTINUOUS
  5
25D
 10
627.540466
 20
365.850311
 30
0.0
 40
37.5
 50
19.560388
 51
29.354399
  0
ARC
  8
LC-002-002-----0
  6
CONTINUOUS
  5
25E
 10
627.540466
 20
365.850311
 30
0.0
 40
40.0
 50
6.570524
 51
15.522195
  0
ARC
  8
LC-002-002-----0
  6
CONTINUOUS
  5
25F
 10
627.540466
 20
365.850311
 30
0.0
 40
37.5
 50
6.326584
 51
15.733716
  0
ARC
  8
LC-002-002-----0
  6
CONTINUOUS
  5
260
 10
607.937744
 20
322.275246
 30
0.0
 40
37.5
 50
96.326584
 51
105.733716
  0
ARC
  8
LC-003-002-RND-0
  6
CONTINUOUS
  5
261
 10
337.026637
 20
327.261418
 30
0.0
 40
7.5
 50
180.0
 51
270.0
  0
ARC
  8
LC-002-002-----0
  6
CONTINUOUS
  5
262
 10
642.928582
 20
367.876195
 30
0.0
 40
40.0
 50
192.01883
 51
200.381338
  0
ARC
  8
LC-002-002-----0
  6
CONTINUOUS
  5
263
 10
642.928582
 20
367.876195
 30
0.0
 40
37.5
 50
192.530202
 51
201.236657
  0
ARC
  8
LC-002-002-----0
  6
CONTINUOUS
  5
264
 10
642.928582
 20
367.876195
 30
0.0
 40
40.0
 50
215.319028
 51
221.485565
  0
ARC
  8
LC-002-002-----0
  6
CONTINUOUS
  5
265
 10
627.540466
 20
365.850311
 30
0.0
 40
40.0
 50
354.618662
 51
2.98117
  0
ARC
  8
LC-002-002-----0
  6
CONTINUOUS
  5
266
 10
618.162939
 20
308.086642
 30
0.0
 40
37.5
 50
102.117948
 51
109.748758
  0
ARC
  8
LC-002-002-----0
  6
CONTINUOUS
  5
267
 10
618.162939
 20
308.086642
 30
0.0
 40
40.0
 50
103.50684
 51
110.942531
  0
ARC
  8
LC-002-002-----0
  6
CONTINUOUS
  5
268
 10
612.116359
 20
314.507858
 30
0.0
 40
37.5
 50
98.763343
 51
107.469798
  0
ARC
  8
LC-002-002-----0
  6
CONTINUOUS
  5
269
 10
612.116359
 20
314.507858
 30
0.0
 40
37.5
 50
87.117948
 51
94.748758
  0
ARC
  8
LC-002-002-----0
  6
CONTINUOUS
  5
26A
 10
651.512808
 20
365.850311
 30
0.0
 40
40.0
 50
200.319028
 51
206.485565
  0
ARC
  8
LC-002-002-----0
  6
CONTINUOUS
  5
26B
 10
627.540466
 20
365.850311
 30
0.0
 40
37.5
 50
353.763343
 51
2.469798
  0
ARC
  8
LC-002-002-----0
  6
CONTINUOUS
  5
26C
 10
642.928582
 20
367.876195
 30
0.0
 40
37.5
 50
205.251242
 51
212.882052
  0
ARC
  8
LC-002-002-----0
  6
CONTINUOUS
  5
26D
 10
642.928582
 20
367.876195
 30
0.0
 40
40.0
 50
204.057469
 51
211.49316
  0
ARC
  8
LC-002-002-----0
  6
CONTINUOUS
  5
26E
 10
612.116359
 20
314.507858
 30
0.0
 40
40.0
 50
88.50684
 51
95.942531
  0
ARC
  8
LC-002-002-----0
  6
CONTINUOUS
  5
26F
 10
612.116359
 20
314.507858
 30
0.0
 40
40.0
 50
99.618662
 51
107.98117
  0
ARC
  8
LC-002-002-----0
  6
CONTINUOUS
  5
270
 10
612.116359
 20
314.507858
 30
0.0
 40
40.0
 50
124.128149
 51
133.351049
  0
ARC
  8
LC-002-002-----0
  6
CONTINUOUS
  5
271
 10
625.665419
 20
365.073641
 30
0.0
 40
40.0
 50
209.266284
 51
218.429476
  0
ARC
  8
LC-002-002-----0
  6
CONTINUOUS
  5
272
 10
625.665419
 20
365.073641
 30
0.0
 40
37.5
 50
209.266284
 51
218.673416
  0
ARC
  8
LC-002-002-----0
  6
CONTINUOUS
  5
273
 10
612.116359
 20
314.507858
 30
0.0
 40
37.5
 50
124.560388
 51
134.354399
  0
ARC
  8
LC-002-002-----0
  6
CONTINUOUS
  5
274
 10
625.665419
 20
365.073641
 30
0.0
 40
40.0
 50
222.01883
 51
230.381338
  0
ARC
  8
LC-002-002-----0
  6
CONTINUOUS
  5
275
 10
625.665419
 20
365.073641
 30
0.0
 40
37.5
 50
222.530202
 51
231.236657
  0
ARC
  8
LC-002-002-----0
  6
CONTINUOUS
  5
276
 10
618.162939
 20
308.086642
 30
0.0
 40
40.0
 50
126.570524
 51
135.522195
  0
ARC
  8
LC-002-002-----0
  6
CONTINUOUS
  5
277
 10
618.162939
 20
308.086642
 30
0.0
 40
37.5
 50
126.326584
 51
135.733716
  0
ARC
  8
LC-002-002-----0
  6
CONTINUOUS
  5
278
 10
625.665419
 20
303.449194
 30
0.0
 40
40.0
 50
118.50684
 51
125.942531
  0
ARC
  8
LC-002-002-----0
  6
CONTINUOUS
  5
279
 10
625.665419
 20
303.449194
 30
0.0
 40
37.5
 50
117.117948
 51
124.748758
  0
ARC
  8
LC-002-002-----0
  6
CONTINUOUS
  5
27A
 10
634.112519
 20
367.611287
 30
0.0
 40
40.0
 50
230.319028
 51
236.485565
  0
LINE
  8
LC-002-002-----0
  6
CONTINUOUS
  5
27B
 10
470.526637
 20
346.761418
 30
0.0
 11
470.526637
 21
348.761418
 31
0.0
  0
LINE
  8
LC-002-002-----0
  6
CONTINUOUS
  5
27C
 10
465.826637
 20
327.261418
 30
0.0
 11
465.826637
 21
348.761418
 31
0.0
  0
ARC
  8
LC-002-002-----0
  6
CONTINUOUS
  5
27D
 10
673.141414
 20
330.859472
 30
0.0
 40
40.0
 50
89.477805
 51
98.429476
  0
LINE
  8
LC-002-002-----0
  6
CONTINUOUS
  5
27E
 10
460.026637
 20
321.461418
 30
0.0
 11
457.812405
 21
321.461418
 31
0.0
  0
ARC
  8
LC-003-002-RND-0
  6
CONTINUOUS
  5
27F
 10
460.026637
 20
327.261418
 30
0.0
 40
5.8
 50
270.0
 51
0.0
  0
ARC
  8
LC-002-002-----0
  6
CONTINUOUS
  5
280
 10
673.141414
 20
330.859472
 30
0.0
 40
37.5
 50
89.266284
 51
98.673416
  0
ARC
  8
LC-002-002-----0
  6
CONTINUOUS
  5
281
 10
605.91186
 20
330.859472
 30
0.0
 40
37.5
 50
94.560388
 51
104.354399
  0
ARC
  8
LC-002-002-----0
  6
CONTINUOUS
  5
282
 10
605.91186
 20
330.859472
 30
0.0
 40
40.0
 50
94.128149
 51
103.351049
  0
ARC
  8
LC-002-002-----0
  6
CONTINUOUS
  5
283
 10
642.928582
 20
367.876195
 30
0.0
 40
40.0
 50
179.477805
 51
188.429476
  0
ARC
  8
LC-002-002-----0
  6
CONTINUOUS
  5
284
 10
642.928582
 20
367.876195
 30
0.0
 40
37.5
 50
179.266284
 51
188.673416
  0
ARC
  8
LC-002-002-----0
  6
CONTINUOUS
  5
285
 10
605.91186
 20
330.859472
 30
0.0
 40
40.0
 50
107.115678
 51
116.197009
  0
LINE
  8
LC-002-002-----0
  6
CONTINUOUS
  5
286
 10
417.526637
 20
340.761418
 30
0.0
 11
420.526637
 21
340.761418
 31
0.0
  0
LINE
  8
LC-002-002-----0
  6
CONTINUOUS
  5
287
 10
460.026637
 20
319.761418
 30
0.0
 11
457.812405
 21
319.761418
 31
0.0
  0
LINE
  8
LC-002-002-----0
  6
CONTINUOUS
  5
288
 10
371.026637
 20
319.761418
 30
0.0
 11
371.026637
 21
321.461418
 31
0.0
  0
ARC
  8
LC-003-002-RND-0
  6
CONTINUOUS
  5
289
 10
460.026637
 20
327.261418
 30
0.0
 40
7.5
 50
270.0
 51
0.0
  0
LINE
  8
LC-002-002-----0
  6
CONTINUOUS
  5
28A
 10
417.526637
 20
340.761418
 30
0.0
 11
417.526637
 21
319.761418
 31
0.0
  0
LINE
  8
LC-002-002-----0
  6
CONTINUOUS
  5
28B
 10
379.526637
 20
340.761418
 30
0.0
 11
376.526637
 21
340.761418
 31
0.0
  0
LINE
  8
LC-002-002-----0
  6
CONTINUOUS
  5
28C
 10
376.526637
 20
340.761418
 30
0.0
 11
376.526637
 21
324.461418
 31
0.0
  0
LINE
  8
LC-002-002-----0
  6
CONTINUOUS
  5
28D
 10
379.526637
 20
340.761418
 30
0.0
 11
379.526637
 21
319.761418
 31
0.0
  0
LINE
  8
LC-002-002-----0
  6
CONTINUOUS
  5
28E
 10
457.812405
 20
319.761418
 30
0.0
 11
417.526637
 21
319.761418
 31
0.0
  0
LINE
  8
LC-002-002-----0
  6
CONTINUOUS
  5
28F
 10
339.240868
 20
319.761418
 30
0.0
 11
339.240868
 21
321.461418
 31
0.0
  0
LINE
  8
LC-002-002-----0
  6
CONTINUOUS
  5
290
 10
346.915937
 20
319.761418
 30
0.0
 11
346.915937
 21
321.461418
 31
0.0
  0
LINE
  8
LC-002-002-----0
  6
CONTINUOUS
  5
291
 10
331.226637
 20
348.761418
 30
0.0
 11
330.026637
 21
348.761418
 31
0.0
  0
ARC
  8
LC-002-002-----0
  6
CONTINUOUS
  5
292
 10
605.91186
 20
330.859472
 30
0.0
 40
37.5
 50
108.31297
 51
118.213091
  0
LINE
  8
LC-002-002-----0
  6
CONTINUOUS
  5
293
 10
467.526637
 20
346.761418
 30
0.0
 11
470.526637
 21
346.761418
 31
0.0
  0
ARC
  8
LC-002-002-----0
  6
CONTINUOUS
  5
294
 10
634.112519
 20
367.611287
 30
0.0
 40
40.0
 50
181.648951
 51
190.871851
  0
ARC
  8
LC-002-002-----0
  6
CONTINUOUS
  5
295
 10
634.112519
 20
367.611287
 30
0.0
 40
37.5
 50
180.645601
 51
190.439612
  0
ARC
  8
LC-002-002-----0
  6
CONTINUOUS
  5
296
 10
625.665419
 20
365.073641
 30
0.0
 40
37.5
 50
195.645601
 51
205.439612
  0
ARC
  8
LC-002-002-----0
  6
CONTINUOUS
  5
297
 10
607.937744
 20
322.275246
 30
0.0
 40
37.5
 50
123.31297
 51
133.213091
  0
ARC
  8
LC-002-002-----0
  6
CONTINUOUS
  5
298
 10
625.665419
 20
365.073641
 30
0.0
 40
40.0
 50
196.648951
 51
205.871851
  0
ARC
  8
LC-002-002-----0
  6
CONTINUOUS
  5
299
 10
607.937744
 20
322.275246
 30
0.0
 40
40.0
 50
122.115678
 51
131.197009
  0
ARC
  8
LC-002-002-----0
  6
CONTINUOUS
  5
29A
 10
606.176767
 20
339.675535
 30
0.0
 40
37.5
 50
93.31297
 51
103.213091
  0
ARC
  8
LC-002-002-----0
  6
CONTINUOUS
  5
29B
 10
642.928582
 20
367.876195
 30
0.0
 40
40.0
 50
166.648951
 51
175.871851
  0
ARC
  8
LC-002-002-----0
  6
CONTINUOUS
  5
29C
 10
642.928582
 20
367.876195
 30
0.0
 40
37.5
 50
165.645601
 51
175.392337
  0
ARC
  8
LC-002-002-----0
  6
CONTINUOUS
  5
29D
 10
606.176767
 20
339.675535
 30
0.0
 40
40.0
 50
92.115678
 51
101.197009
  0
ARC
  8
LC-002-002-----0
  6
CONTINUOUS
  5
29E
 10
606.176767
 20
339.675535
 30
0.0
 40
40.0
 50
79.128149
 51
88.351049
  0
ARC
  8
LC-002-002-----0
  6
CONTINUOUS
  5
29F
 10
606.176767
 20
339.675535
 30
0.0
 40
37.5
 50
79.560388
 51
89.354399
  0
ARC
  8
LC-002-002-----0
  6
CONTINUOUS
  5
2A0
 10
608.714413
 20
348.122635
 30
0.0
 40
37.5
 50
78.31297
 51
88.213091
  0
ARC
  8
LC-002-002-----0
  6
CONTINUOUS
  5
2A1
 10
608.714413
 20
348.122635
 30
0.0
 40
40.0
 50
77.115678
 51
86.197009
  0
ARC
  8
LC-002-002-----0
  6
CONTINUOUS
  5
2A2
 10
651.512808
 20
365.850311
 30
0.0
 40
40.0
 50
151.648951
 51
160.871851
  0
ARC
  8
LC-002-002-----0
  6
CONTINUOUS
  5
2A3
 10
651.512808
 20
365.850311
 30
0.0
 40
37.5
 50
150.645601
 51
160.439612
  0
ARC
  8
LC-002-002-----0
  6
CONTINUOUS
  5
2A4
 10
651.512808
 20
365.850311
 30
0.0
 40
40.0
 50
164.477805
 51
173.429476
  0
ARC
  8
LC-002-002-----0
  6
CONTINUOUS
  5
2A5
 10
651.512808
 20
365.850311
 30
0.0
 40
37.5
 50
164.266284
 51
173.673416
  0
ARC
  8
LC-002-002-----0
  6
CONTINUOUS
  5
2A6
 10
651.512808
 20
365.850311
 30
0.0
 40
40.0
 50
177.01883
 51
185.381338
  0
ARC
  8
LC-002-002-----0
  6
CONTINUOUS
  5
2A7
 10
651.512808
 20
365.850311
 30
0.0
 40
37.5
 50
177.530202
 51
186.236657
  0
ARC
  8
LC-002-002-----0
  6
CONTINUOUS
  5
2A8
 10
605.91186
 20
330.859472
 30
0.0
 40
40.0
 50
81.570524
 51
90.0
  0
ARC
  8
LC-002-002-----0
  6
CONTINUOUS
  5
2A9
 10
605.91186
 20
330.859472
 30
0.0
 40
37.5
 50
81.326584
 51
90.733716
  0
ARC
  8
LC-002-002-----0
  6
CONTINUOUS
  5
2AA
 10
651.512808
 20
365.850311
 30
0.0
 40
40.0
 50
189.057469
 51
196.49316
  0
ARC
  8
LC-002-002-----0
  6
CONTINUOUS
  5
2AB
 10
651.512808
 20
365.850311
 30
0.0
 40
37.5
 50
190.251242
 51
197.882052
  0
ARC
  8
LC-002-002-----0
  6
CONTINUOUS
  5
2AC
 10
607.937744
 20
322.275246
 30
0.0
 40
37.5
 50
83.763343
 51
92.469798
  0
ARC
  8
LC-002-002-----0
  6
CONTINUOUS
  5
2AD
 10
607.937744
 20
322.275246
 30
0.0
 40
40.0
 50
84.618662
 51
92.98117
  0
ARC
  8
LC-002-002-----0
  6
CONTINUOUS
  5
2AE
 10
607.937744
 20
322.275246
 30
0.0
 40
40.0
 50
73.50684
 51
80.942531
  0
ARC
  8
LC-002-002-----0
  6
CONTINUOUS
  5
2AF
 10
607.937744
 20
322.275246
 30
0.0
 40
37.5
 50
72.117948
 51
79.748758
  0
ARC
  8
LC-002-002-----0
  6
CONTINUOUS
  5
2B0
 10
605.91186
 20
330.859472
 30
0.0
 40
37.5
 50
68.763343
 51
77.469798
  0
ARC
  8
LC-002-002-----0
  6
CONTINUOUS
  5
2B1
 10
605.91186
 20
330.859472
 30
0.0
 40
40.0
 50
69.618662
 51
77.98117
  0
ARC
  8
LC-002-002-----0
  6
CONTINUOUS
  5
2B2
 10
606.176767
 20
339.675535
 30
0.0
 40
37.5
 50
66.326584
 51
75.733716
  0
ARC
  8
LC-002-002-----0
  6
CONTINUOUS
  5
2B3
 10
606.176767
 20
339.675535
 30
0.0
 40
40.0
 50
66.570524
 51
75.522195
  0
ARC
  8
LC-002-002-----0
  6
CONTINUOUS
  5
2B4
 10
659.280197
 20
361.671696
 30
0.0
 40
40.0
 50
185.319028
 51
191.485565
  0
ARC
  8
LC-002-002-----0
  6
CONTINUOUS
  5
2B5
 10
659.280197
 20
361.671696
 30
0.0
 40
40.0
 50
174.057469
 51
181.49316
  0
ARC
  8
LC-002-002-----0
  6
CONTINUOUS
  5
2B6
 10
659.280197
 20
361.671696
 30
0.0
 40
40.0
 50
162.01883
 51
170.381338
  0
ARC
  8
LC-002-002-----0
  6
CONTINUOUS
  5
2B7
 10
659.280197
 20
361.671696
 30
0.0
 40
40.0
 50
149.477805
 51
158.429476
  0
ARC
  8
LC-002-002-----0
  6
CONTINUOUS
  5
2B8
 10
659.280197
 20
361.671696
 30
0.0
 40
40.0
 50
136.648951
 51
145.871851
  0
ARC
  8
LC-002-002-----0
  6
CONTINUOUS
  5
2B9
 10
659.280197
 20
361.671696
 30
0.0
 40
37.5
 50
175.251242
 51
182.882052
  0
ARC
  8
LC-002-002-----0
  6
CONTINUOUS
  5
2BA
 10
659.280197
 20
361.671696
 30
0.0
 40
37.5
 50
162.530202
 51
171.236657
  0
ARC
  8
LC-002-002-----0
  6
CONTINUOUS
  5
2BB
 10
659.280197
 20
361.671696
 30
0.0
 40
37.5
 50
149.266284
 51
158.673416
  0
ARC
  8
LC-002-002-----0
  6
CONTINUOUS
  5
2BC
 10
659.280197
 20
361.671696
 30
0.0
 40
37.5
 50
135.645601
 51
145.439612
  0
ARC
  8
LC-002-002-----0
  6
CONTINUOUS
  5
2BD
 10
608.714413
 20
348.122635
 30
0.0
 40
40.0
 50
64.128149
 51
73.351049
  0
ARC
  8
LC-002-002-----0
  6
CONTINUOUS
  5
2BE
 10
608.714413
 20
348.122635
 30
0.0
 40
37.5
 50
64.560388
 51
74.354399
  0
ARC
  8
LC-002-002-----0
  6
CONTINUOUS
  5
2BF
 10
613.351861
 20
355.625116
 30
0.0
 40
37.5
 50
63.31297
 51
73.213091
  0
ARC
  8
LC-002-002-----0
  6
CONTINUOUS
  5
2C0
 10
613.351861
 20
355.625116
 30
0.0
 40
40.0
 50
62.115678
 51
71.197009
  0
ARC
  8
LC-002-002-----0
  6
CONTINUOUS
  5
2C1
 10
627.540466
 20
365.850311
 30
0.0
 40
40.0
 50
343.50684
 51
350.942531
  0
ARC
  8
LC-002-002-----0
  6
CONTINUOUS
  5
2C2
 10
665.701412
 20
355.625116
 30
0.0
 40
40.0
 50
170.319028
 51
176.485565
  0
ARC
  8
LC-002-002-----0
  6
CONTINUOUS
  5
2C3
 10
605.91186
 20
330.859472
 30
0.0
 40
37.5
 50
57.117948
 51
64.748758
  0
ARC
  8
LC-002-002-----0
  6
CONTINUOUS
  5
2C4
 10
605.91186
 20
330.859472
 30
0.0
 40
40.0
 50
58.278878
 51
65.942531
  0
ARC
  8
LC-002-002-----0
  6
CONTINUOUS
  5
2C5
 10
606.176767
 20
339.675535
 30
0.0
 40
37.5
 50
53.763343
 51
62.469798
  0
ARC
  8
LC-002-002-----0
  6
CONTINUOUS
  5
2C6
 10
606.176767
 20
339.675535
 30
0.0
 40
40.0
 50
54.618662
 51
62.98117
  0
ARC
  8
LC-002-002-----0
  6
CONTINUOUS
  5
2C7
 10
608.714413
 20
348.122635
 30
0.0
 40
37.5
 50
51.326584
 51
60.733716
  0
ARC
  8
LC-002-002-----0
  6
CONTINUOUS
  5
2C8
 10
608.714413
 20
348.122635
 30
0.0
 40
40.0
 50
51.570524
 51
60.522195
  0
ARC
  8
LC-002-002-----0
  6
CONTINUOUS
  5
2C9
 10
613.351861
 20
355.625116
 30
0.0
 40
37.5
 50
49.560388
 51
59.354399
  0
ARC
  8
LC-002-002-----0
  6
CONTINUOUS
  5
2CA
 10
665.701412
 20
355.625116
 30
0.0
 40
40.0
 50
147.01883
 51
155.381338
  0
ARC
  8
LC-002-002-----0
  6
CONTINUOUS
  5
2CB
 10
665.701412
 20
355.625116
 30
0.0
 40
40.0
 50
159.057469
 51
166.49316
  0
ARC
  8
LC-002-002-----0
  6
CONTINUOUS
  5
2CC
 10
627.540466
 20
365.850311
 30
0.0
 40
37.5
 50
342.117948
 51
349.748758
  0
ARC
  8
LC-002-002-----0
  6
CONTINUOUS
  5
2CD
 10
665.701412
 20
355.625116
 30
0.0
 40
37.5
 50
160.251242
 51
167.882052
  0
ARC
  8
LC-002-002-----0
  6
CONTINUOUS
  5
2CE
 10
665.701412
 20
355.625116
 30
0.0
 40
37.5
 50
147.530202
 51
156.236657
  0
ARC
  8
LC-002-002-----0
  6
CONTINUOUS
  5
2CF
 10
665.701412
 20
355.625116
 30
0.0
 40
37.5
 50
134.266284
 51
143.673416
  0
ARC
  8
LC-002-002-----0
  6
CONTINUOUS
  5
2D0
 10
671.11553
 20
322.275246
 30
0.0
 40
37.5
 50
87.530202
 51
96.236657
  0
ARC
  8
LC-002-002-----0
  6
CONTINUOUS
  5
2D1
 10
670.33886
 20
348.122635
 30
0.0
 40
40.0
 50
155.319028
 51
161.485565
  0
ARC
  8
LC-002-002-----0
  6
CONTINUOUS
  5
2D2
 10
606.176767
 20
339.675535
 30
0.0
 40
37.5
 50
42.117948
 51
49.748758
  0
ARC
  8
LC-002-002-----0
  6
CONTINUOUS
  5
2D3
 10
606.176767
 20
339.675535
 30
0.0
 40
40.0
 50
43.50684
 51
50.942531
  0
ARC
  8
LC-002-002-----0
  6
CONTINUOUS
  5
2D4
 10
608.714413
 20
348.122635
 30
0.0
 40
37.5
 50
38.763343
 51
47.469798
  0
ARC
  8
LC-002-002-----0
  6
CONTINUOUS
  5
2D5
 10
670.33886
 20
348.122635
 30
0.0
 40
40.0
 50
144.057469
 51
151.49316
  0
ARC
  8
LC-002-002-----0
  6
CONTINUOUS
  5
2D6
 10
665.701412
 20
355.625116
 30
0.0
 40
40.0
 50
134.477805
 51
143.429476
  0
ARC
  8
LC-002-002-----0
  6
CONTINUOUS
  5
2D7
 10
671.11553
 20
322.275246
 30
0.0
 40
40.0
 50
87.01883
 51
95.381338
  0
ARC
  8
LC-002-002-----0
  6
CONTINUOUS
  5
2D8
 10
671.11553
 20
322.275246
 30
0.0
 40
40.0
 50
99.057469
 51
106.49316
  0
ARC
  8
LC-002-002-----0
  6
CONTINUOUS
  5
2D9
 10
671.11553
 20
322.275246
 30
0.0
 40
37.5
 50
100.251242
 51
107.882052
  0
ARC
  8
LC-002-002-----0
  6
CONTINUOUS
  5
2DA
 10
673.141414
 20
330.859472
 30
0.0
 40
37.5
 50
102.530202
 51
111.236657
  0
ARC
  8
LC-002-002-----0
  6
CONTINUOUS
  5
2DB
 10
673.141414
 20
330.859472
 30
0.0
 40
40.0
 50
102.01883
 51
110.381338
  0
ARC
  8
LC-002-002-----0
  6
CONTINUOUS
  5
2DC
 10
672.876506
 20
339.675535
 30
0.0
 40
37.5
 50
104.266284
 51
113.673416
  0
ARC
  8
LC-002-002-----0
  6
CONTINUOUS
  5
2DD
 10
672.876506
 20
339.675535
 30
0.0
 40
40.0
 50
104.477805
 51
113.429476
  0
ARC
  8
LC-002-002-----0
  6
CONTINUOUS
  5
2DE
 10
619.773077
 20
361.671696
 30
0.0
 40
40.0
 50
348.514435
 51
354.680972
  0
ARC
  8
LC-002-002-----0
  6
CONTINUOUS
  5
2DF
 10
619.773077
 20
361.671696
 30
0.0
 40
40.0
 50
358.50684
 51
5.942531
  0
ARC
  8
LC-002-002-----0
  6
CONTINUOUS
  5
2E0
 10
619.773077
 20
361.671696
 30
0.0
 40
40.0
 50
9.618662
 51
17.98117
  0
ARC
  8
LC-002-002-----0
  6
CONTINUOUS
  5
2E1
 10
619.773077
 20
361.671696
 30
0.0
 40
40.0
 50
21.570524
 51
30.522195
  0
ARC
  8
LC-002-002-----0
  6
CONTINUOUS
  5
2E2
 10
619.773077
 20
361.671696
 30
0.0
 40
40.0
 50
34.128149
 51
43.351049
  0
ARC
  8
LC-002-002-----0
  6
CONTINUOUS
  5
2E3
 10
619.773077
 20
361.671696
 30
0.0
 40
37.5
 50
357.117948
 51
4.748758
  0
ARC
  8
LC-002-002-----0
  6
CONTINUOUS
  5
2E4
 10
619.773077
 20
361.671696
 30
0.0
 40
37.5
 50
8.763343
 51
17.469798
  0
ARC
  8
LC-002-002-----0
  6
CONTINUOUS
  5
2E5
 10
619.773077
 20
361.671696
 30
0.0
 40
37.5
 50
21.326584
 51
30.733716
  0
ARC
  8
LC-002-002-----0
  6
CONTINUOUS
  5
2E6
 10
619.773077
 20
361.671696
 30
0.0
 40
37.5
 50
34.560388
 51
44.354399
  0
ARC
  8
LC-002-002-----0
  6
CONTINUOUS
  5
2E7
 10
670.33886
 20
348.122635
 30
0.0
 40
40.0
 50
106.648951
 51
115.871851
  0
ARC
  8
LC-002-002-----0
  6
CONTINUOUS
  5
2E8
 10
670.33886
 20
348.122635
 30
0.0
 40
37.5
 50
105.645601
 51
115.439612
  0
ARC
  8
LC-002-002-----0
  6
CONTINUOUS
  5
2E9
 10
665.701412
 20
355.625116
 30
0.0
 40
37.5
 50
106.786909
 51
116.68703
  0
ARC
  8
LC-002-002-----0
  6
CONTINUOUS
  5
2EA
 10
665.701412
 20
355.625116
 30
0.0
 40
40.0
 50
108.802991
 51
117.884322
  0
ARC
  8
LC-002-002-----0
  6
CONTINUOUS
  5
2EB
 10
613.351861
 20
355.625116
 30
0.0
 40
40.0
 50
3.514435
 51
9.680972
  0
ARC
  8
LC-002-002-----0
  6
CONTINUOUS
  5
2EC
 10
673.141414
 20
330.859472
 30
0.0
 40
37.5
 50
115.251242
 51
122.882052
  0
ARC
  8
LC-002-002-----0
  6
CONTINUOUS
  5
2ED
 10
673.141414
 20
330.859472
 30
0.0
 40
40.0
 50
114.057469
 51
121.721122
  0
ARC
  8
LC-002-002-----0
  6
CONTINUOUS
  5
2EE
 10
672.876506
 20
339.675535
 30
0.0
 40
37.5
 50
117.530202
 51
126.236657
  0
ARC
  8
LC-002-002-----0
  6
CONTINUOUS
  5
2EF
 10
672.876506
 20
339.675535
 30
0.0
 40
40.0
 50
117.01883
 51
125.381338
  0
ARC
  8
LC-002-002-----0
  6
CONTINUOUS
  5
2F0
 10
670.33886
 20
348.122635
 30
0.0
 40
37.5
 50
119.266284
 51
128.673416
  0
ARC
  8
LC-002-002-----0
  6
CONTINUOUS
  5
2F1
 10
670.33886
 20
348.122635
 30
0.0
 40
40.0
 50
119.477805
 51
128.429476
  0
ARC
  8
LC-002-002-----0
  6
CONTINUOUS
  5
2F2
 10
665.701412
 20
355.625116
 30
0.0
 40
37.5
 50
120.645601
 51
130.439612
  0
ARC
  8
LC-002-002-----0
  6
CONTINUOUS
  5
2F3
 10
613.351861
 20
355.625116
 30
0.0
 40
40.0
 50
24.618662
 51
32.98117
  0
ARC
  8
LC-002-002-----0
  6
CONTINUOUS
  5
2F4
 10
613.351861
 20
355.625116
 30
0.0
 40
40.0
 50
13.50684
 51
20.942531
  0
ARC
  8
LC-002-002-----0
  6
CONTINUOUS
  5
2F5
 10
613.351861
 20
355.625116
 30
0.0
 40
37.5
 50
12.117948
 51
19.748758
  0
ARC
  8
LC-002-002-----0
  6
CONTINUOUS
  5
2F6
 10
613.351861
 20
355.625116
 30
0.0
 40
37.5
 50
23.763343
 51
32.469798
  0
ARC
  8
LC-002-002-----0
  6
CONTINUOUS
  5
2F7
 10
613.351861
 20
355.625116
 30
0.0
 40
37.5
 50
36.326584
 51
45.733716
  0
ARC
  8
LC-002-002-----0
  6
CONTINUOUS
  5
2F8
 10
608.714413
 20
348.122635
 30
0.0
 40
40.0
 50
18.514435
 51
24.680972
  0
ARC
  8
LC-002-002-----0
  6
CONTINUOUS
  5
2F9
 10
672.876506
 20
339.675535
 30
0.0
 40
37.5
 50
130.251242
 51
137.882052
  0
ARC
  8
LC-002-002-----0
  6
CONTINUOUS
  5
2FA
 10
672.876506
 20
339.675535
 30
0.0
 40
40.0
 50
129.057469
 51
136.49316
  0
ARC
  8
LC-002-002-----0
  6
CONTINUOUS
  5
2FB
 10
670.33886
 20
348.122635
 30
0.0
 40
37.5
 50
132.530202
 51
141.236657
  0
ARC
  8
LC-002-002-----0
  6
CONTINUOUS
  5
2FC
 10
608.714413
 20
348.122635
 30
0.0
 40
40.0
 50
28.50684
 51
35.942531
  0
ARC
  8
LC-002-002-----0
  6
CONTINUOUS
  5
2FD
 10
613.351861
 20
355.625116
 30
0.0
 40
40.0
 50
36.570524
 51
45.522195
  0
LINE
  8
LC-002-002-----0
  6
DASHDOT
 62
     2
  5
2FF
 10
398.526637
 20
348.761418
 30
0.0
 11
398.526637
 21
319.761418
 31
0.0
  0
LINE
  8
LC-002-002-----0
  6
CONTINUOUS
  5
300
 10
567.526637
 20
327.261418
 30
0.0
 11
567.526637
 21
346.761418
 31
0.0
  0
LINE
  8
LC-002-002-----0
  6
CONTINUOUS
  5
301
 10
329.526637
 20
346.761418
 30
0.0
 11
326.526637
 21
346.761418
 31
0.0
  0
LINE
  8
LC-002-002-----0
  6
CONTINUOUS
  5
302
 10
350.309054
 20
319.761418
 30
0.0
 11
350.309054
 21
321.461418
 31
0.0
  0
LINE
  8
LC-002-002-----0
  6
CONTINUOUS
  5
303
 10
359.158423
 20
319.761418
 30
0.0
 11
359.158423
 21
321.461418
 31
0.0
  0
LINE
  8
LC-002-002-----0
  6
CONTINUOUS
  5
304
 10
363.291209
 20
319.761418
 30
0.0
 11
363.291209
 21
321.461418
 31
0.0
  0
LINE
  8
LC-002-002-----0
  6
CONTINUOUS
  5
305
 10
417.526637
 20
340.761418
 30
0.0
 11
420.526637
 21
340.761418
 31
0.0
  0
LINE
  8
LC-002-002-----0
  6
CONTINUOUS
  5
306
 10
420.526637
 20
340.761418
 30
0.0
 11
420.526637
 21
324.461418
 31
0.0
  0
LINE
  8
LC-002-002-----0
  6
CONTINUOUS
  5
307
 10
417.526637
 20
340.761418
 30
0.0
 11
417.526637
 21
319.761418
 31
0.0
  0
LINE
  8
LC-002-002-----0
  6
CONTINUOUS
  5
308
 10
426.026637
 20
319.761418
 30
0.0
 11
426.026637
 21
321.461418
 31
0.0
  0
LINE
  8
LC-002-002-----0
  6
CONTINUOUS
  5
309
 10
433.762065
 20
319.761418
 30
0.0
 11
433.762065
 21
321.461418
 31
0.0
  0
LINE
  8
LC-002-002-----0
  6
CONTINUOUS
  5
30A
 10
465.826637
 20
348.761418
 30
0.0
 11
470.526637
 21
348.761418
 31
0.0
  0
LINE
  8
LC-002-002-----0
  6
CONTINUOUS
  5
30B
 10
437.894851
 20
319.761418
 30
0.0
 11
437.894851
 21
321.461418
 31
0.0
  0
LINE
  8
LC-002-002-----0
  6
CONTINUOUS
  5
30C
 10
446.74422
 20
319.761418
 30
0.0
 11
446.74422
 21
321.461418
 31
0.0
  0
LINE
  8
LC-002-002-----0
  6
CONTINUOUS
  5
30D
 10
450.137337
 20
319.761418
 30
0.0
 11
450.137337
 21
321.461418
 31
0.0
  0
LINE
  8
LC-002-002-----0
  6
CONTINUOUS
  5
30E
 10
457.812405
 20
319.761418
 30
0.0
 11
457.812405
 21
321.461418
 31
0.0
  0
LINE
  8
LC-002-002-----0
  6
CONTINUOUS
  5
30F
 10
457.812405
 20
321.461418
 30
0.0
 11
423.526637
 21
321.461418
 31
0.0
  0
ARC
  8
LC-003-002-RND-0
  6
CONTINUOUS
  5
310
 10
378.526637
 20
340.761418
 30
0.0
 40
2.0
 50
90.0
 51
180.0
  0
LINE
  8
LC-002-002-----0
  6
CONTINUOUS
  5
311
 10
379.526637
 20
319.761418
 30
0.0
 11
417.526637
 21
319.761418
 31
0.0
  0
ENDSEC
  0
EOF
