  0
SECTION
  2
HEADER
  9
$ACADVER
  1
AC1009
  9
$INSBASE
 10
25.121819
 20
177.06
 30
0.0
  9
$EXTMIN
 10
25.121819
 20
177.06
 30
0.0
  9
$EXTMAX
 10
865.121819
 20
771.06
 30
0.0
  9
$LIMMIN
 10
25.121819
 20
177.06
  9
$LIMMAX
 10
865.121819
 20
771.06
  9
$ORTHOMODE
 70
     0
  9
$REGENMODE
 70
     1
  9
$FILLMODE
 70
     1
  9
$QTEXTMODE
 70
     0
  9
$MIRRTEXT
 70
     1
  9
$DRAGMODE
 70
     2
  9
$LTSCALE
 40
2.0
  9
$OSMODE
 70
     0
  9
$ATTMODE
 70
     1
  9
$TEXTSIZE
 40
0.2
  9
$TRACEWID
 40
0.05
  9
$TEXTSTYLE
  7
STANDARD
  9
$CLAYER
  8
0
  9
$CELTYPE
  6
BYLAYER
  9
$CECOLOR
 62
     7
  9
$DIMSCALE
 40
2.0
  9
$DIMASZ
 40
3.5
  9
$DIMEXO
 40
0.0625
  9
$DIMDLI
 40
0.38
  9
$DIMRND
 40
0.0
  9
$DIMDLE
 40
0.0
  9
$DIMEXE
 40
0.18
  9
$DIMTP
 40
0.0
  9
$DIMTM
 40
0.0
  9
$DIMTXT
 40
3.5
  9
$DIMCEN
 40
0.09
  9
$DIMTSZ
 40
0.0
  9
$DIMTOL
 70
     0
  9
$DIMLIM
 70
     0
  9
$DIMTIH
 70
     1
  9
$DIMTOH
 70
     1
  9
$DIMSE1
 70
     0
  9
$DIMSE2
 70
     0
  9
$DIMTAD
 70
     1
  9
$DIMZIN
 70
     0
  9
$DIMBLK
  1

  9
$DIMASO
 70
     1
  9
$DIMSHO
 70
     1
  9
$DIMPOST
  1

  9
$DIMAPOST
  1

  9
$DIMALT
 70
     0
  9
$DIMALTD
 70
     2
  9
$DIMALTF
 40
25.4
  9
$DIMLFAC
 40
1.0
  9
$DIMTOFL
 70
     0
  9
$DIMTVP
 40
0.0
  9
$DIMTIX
 70
     0
  9
$DIMSOXD
 70
     0
  9
$DIMSAH
 70
     0
  9
$DIMBLK1
  1

  9
$DIMBLK2
  1

  9
$DIMSTYLE
  2
STANDARD
  9
$DIMCLRD
 70
     0
  9
$DIMCLRE
 70
     0
  9
$DIMCLRT
 70
     0
  9
$DIMTFAC
 40
1.0
  9
$DIMGAP
 40
0.09
  9
$LUNITS
 70
     2
  9
$LUPREC
 70
     2
  9
$AXISMODE
 70
     0
  9
$AXISUNIT
 10
0.0
 20
0.0
  9
$SKETCHINC
 40
0.1
  9
$FILLETRAD
 40
0.0
  9
$AUNITS
 70
     0
  9
$AUPREC
 70
     0
  9
$MENU
  1
acad
  9
$ELEVATION
 40
0.0
  9
$PELEVATION
 40
0.0
  9
$THICKNESS
 40
0.0
  9
$LIMCHECK
 70
     0
  9
$BLIPMODE
 70
     1
  9
$CHAMFERA
 40
0.0
  9
$CHAMFERB
 40
0.0
  9
$SKPOLY
 70
     0
  9
$TDCREATE
 40
0.000000000
  9
$TDUPDATE
 40
0.000000000
  9
$TDINDWG
 40
0.0000000000
  9
$TDUSRTIMER
 40
0.0000000000
  9
$USRTIMER
 70
     1
  9
$ANGBASE
 50
0.0
  9
$ANGDIR
 70
     0
  9
$PDMODE
 70
     0
  9
$PDSIZE
 40
0.0
  9
$PLINEWID
 40
0.0
  9
$COORDS
 70
     0
  9
$SPLFRAME
 70
     0
  9
$SPLINETYPE
 70
     6
  9
$SPLINESEGS
 70
     8
  9
$ATTDIA
 70
     0
  9
$ATTREQ
 70
     1
  9
$HANDLING
 70
     1
  9
$HANDSEED
  5
1A1
  9
$SURFTAB1
 70
     6
  9
$SURFTAB2
 70
     6
  9
$SURFTYPE
 70
     6
  9
$SURFU
 70
     6
  9
$SURFV
 70
     6
  9
$UCSNAME
  2

  9
$UCSORG
 10
0.0
 20
0.0
 30
0.0
  9
$UCSXDIR
 10
1.0
 20
0.0
 30
0.0
  9
$UCSYDIR
 10
0.0
 20
1.0
 30
0.0
  9
$PUCSNAME
  2

  9
$PUCSORG
 10
0.0
 20
0.0
 30
0.0
  9
$PUCSXDIR
 10
1.0
 20
0.0
 30
0.0
  9
$PUCSYDIR
 10
0.0
 20
1.0
 30
0.0
  9
$USERI1
 70
     0
  9
$USERI2
 70
     0
  9
$USERI3
 70
     0
  9
$USERI4
 70
     0
  9
$USERI5
 70
     0
  9
$USERR1
 40
0.0
  9
$USERR2
 40
0.0
  9
$USERR3
 40
0.0
  9
$USERR4
 40
0.0
  9
$USERR5
 40
0.0
  9
$WORLDVIEW
 70
     1
  9
$SHADEDGE
 70
     3
  9
$SHADEDIF
 70
    70
  9
$TILEMODE
 70
     1
  9
$MAXACTVP
 70
    16
  9
$PINSBASE
 10
0.0
 20
0.0
 30
0.0
  9
$PLIMCHECK
 70
     0
  9
$PEXTMIN
 10
1.000000E+20
 20
1.000000E+20
 30
1.000000E+20
  9
$PEXTMAX
 10
-1.000000E+20
 20
-1.000000E+20
 30
-1.000000E+20
  9
$PLIMMIN
 10
25.121819
 20
177.06
  9
$PLIMMAX
 10
865.121819
 20
771.06
  9
$UNITMODE
 70
     0
  9
$VISRETAIN
 70
     0
  9
$PLINEGEN
 70
     1
  9
$PSLTSCALE
 70
     0
  9
$TREEDEPTH
 70
  3020
  9
$DWGCODEPAGE
  3
dos850
  0
ENDSEC
  0
SECTION
  2
TABLES
  0
TABLE
  2
VPORT
 70
     1
  0
VPORT
  2
*ACTIVE
 70
     0
 10
0.0
 20
0.0
 11
1.0
 21
1.0
 12
420.0
 22
297.0
 13
0.0
 23
0.0
 14
1.0
 24
1.0
 15
0.0
 25
0.0
 16
0.0
 26
0.0
 36
1.0
 17
25.121819
 27
177.06
 37
0.0
 40
594.0
 41
1.604229
 42
50.0
 43
0.0
 44
0.0
 50
0.0
 51
0.0
 71
     0
 72
   100
 73
     1
 74
     1
 75
     0
 76
     0
 77
     0
 78
     0
  0
ENDTAB
  0
TABLE
  2
LTYPE
 70
     2
  0
LTYPE
  2
CONTINUOUS
 70
    64
  3
Solid line
 72
    65
 73
     0
 40
0.0
  0
LTYPE
  2
DASHDOT
 70
    64
  3
__ . __ . __ . __ . __
 72
    65
 73
     4
 40
7.5
 49
5.0
 49
-1.25
 49
0.0
 49
-1.25
  0
ENDTAB
  0
TABLE
  2
LAYER
 70
     9
  0
LAYER
  2
0
 70
     0
 62
     7
  6
CONTINUOUS
  0
LAYER
  2
LC-INFO-1-2-MM-A3-0
 70
     1
 62
    -1
  6
CONTINUOUS
  0
LAYER
  2
LC-004-003-MTH-0
 70
     0
 62
     2
  6
CONTINUOUS
  0
LAYER
  2
LC-005-003-MTG-0
 70
     0
 62
     2
  6
CONTINUOUS
  0
LAYER
  2
LC-003-003-----0
 70
     0
 62
     2
  6
CONTINUOUS
  0
LAYER
  2
LC-007-005-----0
 70
     0
 62
     2
  6
CONTINUOUS
  0
LAYER
  2
LC-002-000-----0
 70
     0
 62
     7
  6
CONTINUOUS
  0
LAYER
  2
LC-001-002-----0
 70
     0
 62
     1
  6
CONTINUOUS
  0
LAYER
  2
LC-000
 70
     0
 62
     7
  6
CONTINUOUS
  0
ENDTAB
  0
TABLE
  2
STYLE
 70
     4
  0
STYLE
  2
STANDARD
 70
     0
 40
0.0
 41
1.0
 50
0.0
 71
     0
 42
0.0
  3
txt
  4

  0
STYLE
  2
LC-TXTSTYLE-150-400-0-0-A1
 70
    64
 40
0.0
 41
1.0
 50
15.0
 71
     0
 42
3.5
  3
Arial
  4

  0
STYLE
  2
LC-STANDARD
 70
    64
 40
0.0
 41
1.0
 50
0.0
 71
     0
 42
3.5
  3
MONOTXT
  4

  0
STYLE
  2
LC-TXTSTYLE-0-400-0-0-DIN3
 70
    64
 40
0.0
 41
1.0
 50
0.0
 71
     0
 42
3.5
  3
MONOTXT
  4

  0
ENDTAB
  0
TABLE
  2
VIEW
 70
     0
  0
ENDTAB
  0
TABLE
  2
UCS
 70
     0
  0
ENDTAB
  0
TABLE
  2
APPID
 70
     1
  0
APPID
  2
ACAD
 70
     0
  0
ENDTAB
  0
TABLE
  2
DIMSTYLE
 70
     3
  0
DIMSTYLE
  2
STANDARD
 70
     0
  3

  4

  5

  6

  7

 40
1.0
 41
0.18
 42
0.0625
 43
0.38
 44
0.18
 45
0.0
 46
0.0
 47
0.0
 48
0.0
 71
     0
 72
     0
 73
     1
 74
     1
 75
     0
 76
     0
 77
     0
 78
     0
140
0.18
141
0.09
142
0.0
143
25.4
144
1.0
145
0.0
146
1.0
147
0.09
170
     0
171
     2
172
     0
173
     0
174
     0
175
     0
176
     0
177
     0
178
     0
  0
DIMSTYLE
  2
LC-STANDARD
 70
     0
  3

  4

  5

  6

  7

 40
1.0
 41
3.5
 42
0.0
 43
7.5
 44
1.8
 45
0.0
 46
0.0
 47
0.0
 48
0.0
 71
     0
 72
     0
 73
     0
 74
     0
 75
     0
 76
     0
 77
     1
 78
     8
140
3.5
141
0.0
142
0.0
143
25.4
144
1.0
145
0.0
146
0.71
147
1.5
170
     0
171
     2
172
     1
173
     0
174
     0
175
     0
176
     0
177
     0
178
     3
  0
DIMSTYLE
  2
LC-DIM-L-0140-02-02
 70
     0
  3

  4

  5

  6

  7

 40
2.0
 41
3.5
 42
0.0
 43
7.5
 44
1.8
 45
0.0
 46
0.0
 47
0.0
 48
0.0
 71
     0
 72
     0
 73
     0
 74
     0
 75
     0
 76
     0
 77
     1
 78
     8
140
14.0
141
0.0
142
0.0
143
25.4
144
1.0
145
0.0
146
0.71
147
1.5
170
     0
171
     2
172
     0
173
     0
174
     0
175
     0
176
     2
177
     2
178
     8
  0
ENDTAB
  0
ENDSEC
  0
SECTION
  2
BLOCKS
  0
BLOCK
  8
0
  5
24
  2
BLK1
 70
    64
 10
0.0
 20
0.0
 30
0.0
  3
BLK1
  0
ENDBLK
  8
0
  5
25
  0
BLOCK
  8
0
  5
27
  2
*D1
 70
    65
 10
0.0
 20
0.0
 30
0.0
  3
*D1
  0
LINE
  8
LC-004-003-MTH-0
  6
CONTINUOUS
  5
29
 10
233.614068
 20
502.995631
 30
0.0
 11
233.614068
 21
445.2
 31
0.0
  0
LINE
  8
LC-004-003-MTH-0
  6
CONTINUOUS
  5
2A
 10
598.614068
 20
502.995631
 30
0.0
 11
598.614068
 21
445.2
 31
0.0
  0
LINE
  8
LC-005-003-MTG-0
  6
CONTINUOUS
  5
2C
 10
233.614068
 20
462.0
 30
0.0
 11
598.614068
 21
462.0
 31
0.0
  0
LINE
  8
LC-003-003-----0
  6
CONTINUOUS
  5
2E
 10
261.374524
 20
465.654733
 30
0.0
 11
233.614068
 21
462.0
 31
0.0
  0
LINE
  8
LC-003-003-----0
  6
CONTINUOUS
  5
2F
 10
233.614068
 20
462.0
 30
0.0
 11
261.374524
 21
458.345267
 31
0.0
  0
LINE
  8
LC-003-003-----0
  6
CONTINUOUS
  5
30
 10
261.374524
 20
458.345267
 30
0.0
 11
261.374524
 21
465.654733
 31
0.0
  0
LINE
  8
LC-003-003-----0
  6
CONTINUOUS
  5
31
 10
261.436805
 20
464.704503
 30
0.0
 11
240.894068
 21
462.0
 31
0.0
  0
LINE
  8
LC-003-003-----0
  6
CONTINUOUS
  5
32
 10
240.894068
 20
462.0
 30
0.0
 11
261.436805
 21
459.295497
 31
0.0
  0
LINE
  8
LC-003-003-----0
  6
CONTINUOUS
  5
33
 10
261.499087
 20
463.754272
 30
0.0
 11
248.174068
 21
462.0
 31
0.0
  0
LINE
  8
LC-003-003-----0
  6
CONTINUOUS
  5
34
 10
248.174068
 20
462.0
 30
0.0
 11
261.499087
 21
460.245728
 31
0.0
  0
LINE
  8
LC-003-003-----0
  6
CONTINUOUS
  5
35
 10
261.561368
 20
462.804041
 30
0.0
 11
255.454068
 21
462.0
 31
0.0
  0
LINE
  8
LC-003-003-----0
  6
CONTINUOUS
  5
36
 10
255.454068
 20
462.0
 30
0.0
 11
261.561368
 21
461.195959
 31
0.0
  0
LINE
  8
LC-003-003-----0
  6
CONTINUOUS
  5
37
 10
570.853612
 20
458.345267
 30
0.0
 11
598.614068
 21
462.0
 31
0.0
  0
LINE
  8
LC-003-003-----0
  6
CONTINUOUS
  5
38
 10
598.614068
 20
462.0
 30
0.0
 11
570.853612
 21
465.654733
 31
0.0
  0
LINE
  8
LC-003-003-----0
  6
CONTINUOUS
  5
39
 10
570.853612
 20
465.654733
 30
0.0
 11
570.853612
 21
458.345267
 31
0.0
  0
LINE
  8
LC-003-003-----0
  6
CONTINUOUS
  5
3A
 10
570.79133
 20
459.295497
 30
0.0
 11
591.334068
 21
462.0
 31
0.0
  0
LINE
  8
LC-003-003-----0
  6
CONTINUOUS
  5
3B
 10
591.334068
 20
462.0
 30
0.0
 11
570.79133
 21
464.704503
 31
0.0
  0
LINE
  8
LC-003-003-----0
  6
CONTINUOUS
  5
3C
 10
570.729049
 20
460.245728
 30
0.0
 11
584.054068
 21
462.0
 31
0.0
  0
LINE
  8
LC-003-003-----0
  6
CONTINUOUS
  5
3D
 10
584.054068
 20
462.0
 30
0.0
 11
570.729049
 21
463.754272
 31
0.0
  0
LINE
  8
LC-003-003-----0
  6
CONTINUOUS
  5
3E
 10
570.666767
 20
461.195959
 30
0.0
 11
576.774068
 21
462.0
 31
0.0
  0
LINE
  8
LC-003-003-----0
  6
CONTINUOUS
  5
3F
 10
576.774068
 20
462.0
 30
0.0
 11
570.666767
 21
462.804041
 31
0.0
  0
TEXT
  8
LC-003-003-----0
  6
CONTINUOUS
 62
     8
  5
40
 10
394.058928
 20
469.827554
 30
0.0
 40
28.0
  1
362
 41
0.9
 51
15.0
  7
LC-TXTSTYLE-150-400-0-0-A0
 72
     1
 11
420.462228
 21
469.827554
 31
0.0
  0
ENDBLK
  8
0
  5
41
  0
BLOCK
  8
0
  5
43
  2
*D2
 70
    65
 10
0.0
 20
0.0
 30
0.0
  3
*D2
  0
LINE
  8
LC-004-003-MTH-0
  6
CONTINUOUS
  5
44
 10
598.614068
 20
502.995631
 30
0.0
 11
646.8
 21
502.995631
 31
0.0
  0
LINE
  8
LC-004-003-MTH-0
  6
CONTINUOUS
  5
45
 10
566.114068
 20
592.495633
 30
0.0
 11
646.8
 21
592.495633
 31
0.0
  0
LINE
  8
LC-005-003-MTG-0
  6
CONTINUOUS
  5
46
 10
630.0
 20
502.995631
 30
0.0
 11
630.0
 21
592.495633
 31
0.0
  0
LINE
  8
LC-003-003-----0
  6
CONTINUOUS
  5
47
 10
626.345267
 20
530.756087
 30
0.0
 11
630.0
 21
502.995631
 31
0.0
  0
LINE
  8
LC-003-003-----0
  6
CONTINUOUS
  5
48
 10
630.0
 20
502.995631
 30
0.0
 11
633.654733
 21
530.756087
 31
0.0
  0
LINE
  8
LC-003-003-----0
  6
CONTINUOUS
  5
49
 10
633.654733
 20
530.756087
 30
0.0
 11
626.345267
 21
530.756087
 31
0.0
  0
LINE
  8
LC-003-003-----0
  6
CONTINUOUS
  5
4A
 10
627.295497
 20
530.818369
 30
0.0
 11
630.0
 21
510.275631
 31
0.0
  0
LINE
  8
LC-003-003-----0
  6
CONTINUOUS
  5
4B
 10
630.0
 20
510.275631
 30
0.0
 11
632.704503
 21
530.818369
 31
0.0
  0
LINE
  8
LC-003-003-----0
  6
CONTINUOUS
  5
4C
 10
628.245728
 20
530.88065
 30
0.0
 11
630.0
 21
517.555631
 31
0.0
  0
LINE
  8
LC-003-003-----0
  6
CONTINUOUS
  5
4D
 10
630.0
 20
517.555631
 30
0.0
 11
631.754272
 21
530.88065
 31
0.0
  0
LINE
  8
LC-003-003-----0
  6
CONTINUOUS
  5
4E
 10
629.195959
 20
530.942931
 30
0.0
 11
630.0
 21
524.835631
 31
0.0
  0
LINE
  8
LC-003-003-----0
  6
CONTINUOUS
  5
4F
 10
630.0
 20
524.835631
 30
0.0
 11
630.804041
 21
530.942931
 31
0.0
  0
LINE
  8
LC-003-003-----0
  6
CONTINUOUS
  5
50
 10
633.654733
 20
564.735177
 30
0.0
 11
630.0
 21
592.495633
 31
0.0
  0
LINE
  8
LC-003-003-----0
  6
CONTINUOUS
  5
51
 10
630.0
 20
592.495633
 30
0.0
 11
626.345267
 21
564.735177
 31
0.0
  0
LINE
  8
LC-003-003-----0
  6
CONTINUOUS
  5
52
 10
626.345267
 20
564.735177
 30
0.0
 11
633.654733
 21
564.735177
 31
0.0
  0
LINE
  8
LC-003-003-----0
  6
CONTINUOUS
  5
53
 10
632.704503
 20
564.672895
 30
0.0
 11
630.0
 21
585.215633
 31
0.0
  0
LINE
  8
LC-003-003-----0
  6
CONTINUOUS
  5
54
 10
630.0
 20
585.215633
 30
0.0
 11
627.295497
 21
564.672895
 31
0.0
  0
LINE
  8
LC-003-003-----0
  6
CONTINUOUS
  5
55
 10
631.754272
 20
564.610614
 30
0.0
 11
630.0
 21
577.935633
 31
0.0
  0
LINE
  8
LC-003-003-----0
  6
CONTINUOUS
  5
56
 10
630.0
 20
577.935633
 30
0.0
 11
628.245728
 21
564.610614
 31
0.0
  0
LINE
  8
LC-003-003-----0
  6
CONTINUOUS
  5
57
 10
630.804041
 20
564.548333
 30
0.0
 11
630.0
 21
570.655633
 31
0.0
  0
LINE
  8
LC-003-003-----0
  6
CONTINUOUS
  5
58
 10
630.0
 20
570.655633
 30
0.0
 11
629.195959
 21
564.548333
 31
0.0
  0
TEXT
  8
LC-003-003-----0
  6
CONTINUOUS
 62
     8
  5
59
 10
622.172446
 20
525.690492
 30
0.0
 40
28.0
  1
100
 50
90.0
 41
0.9
 51
15.0
  7
LC-TXTSTYLE-150-400-0-0-A0
 72
     1
 11
622.172446
 21
552.093792
 31
0.0
  0
ENDBLK
  8
0
  5
5A
  0
BLOCK
  8
0
  5
5C
  2
*X3
 70
    65
 10
253.614068
 20
502.995633
 30
0.0
  3
*X3
  0
LINE
  8
LC-007-005-----0
  6
CONTINUOUS
  5
5E
 10
265.407754
 20
502.995633
 30
0.0
 11
266.114068
 21
503.701946
 31
0.0
  0
LINE
  8
LC-007-005-----0
  6
CONTINUOUS
  5
5F
 10
262.614068
 20
508.687228
 30
0.0
 11
266.114068
 21
512.187228
 31
0.0
  0
LINE
  8
LC-007-005-----0
  6
CONTINUOUS
  5
60
 10
262.614068
 20
517.172509
 30
0.0
 11
266.114068
 21
520.672509
 31
0.0
  0
LINE
  8
LC-007-005-----0
  6
CONTINUOUS
  5
61
 10
262.614068
 20
525.65779
 30
0.0
 11
266.114068
 21
529.15779
 31
0.0
  0
LINE
  8
LC-007-005-----0
  6
CONTINUOUS
  5
62
 10
262.614068
 20
534.143072
 30
0.0
 11
266.114068
 21
537.643072
 31
0.0
  0
LINE
  8
LC-007-005-----0
  6
CONTINUOUS
  5
63
 10
300.966631
 20
572.495635
 30
0.0
 11
307.614068
 21
579.143072
 31
0.0
  0
LINE
  8
LC-007-005-----0
  6
CONTINUOUS
  5
64
 10
262.614068
 20
542.628353
 30
0.0
 11
266.114068
 21
546.128353
 31
0.0
  0
LINE
  8
LC-007-005-----0
  6
CONTINUOUS
  5
65
 10
292.481349
 20
572.495634
 30
0.0
 11
305.48135
 21
585.495635
 31
0.0
  0
LINE
  8
LC-007-005-----0
  6
CONTINUOUS
  5
66
 10
262.614068
 20
551.113634
 30
0.0
 11
266.114068
 21
554.613634
 31
0.0
  0
LINE
  8
LC-007-005-----0
  6
CONTINUOUS
  5
67
 10
283.996067
 20
572.495634
 30
0.0
 11
296.996068
 21
585.495635
 31
0.0
  0
LINE
  8
LC-007-005-----0
  6
CONTINUOUS
  5
68
 10
262.614068
 20
559.598916
 30
0.0
 11
266.114068
 21
563.098916
 31
0.0
  0
LINE
  8
LC-007-005-----0
  6
CONTINUOUS
  5
69
 10
275.510785
 20
572.495633
 30
0.0
 11
295.114068
 21
592.098916
 31
0.0
  0
LINE
  8
LC-007-005-----0
  6
CONTINUOUS
  5
6A
 10
262.614068
 20
568.084197
 30
0.0
 11
266.114068
 21
571.584197
 31
0.0
  0
LINE
  8
LC-007-005-----0
  6
CONTINUOUS
  5
6B
 10
267.025504
 20
572.495633
 30
0.0
 11
287.025505
 21
592.495634
 31
0.0
  0
LINE
  8
LC-007-005-----0
  6
CONTINUOUS
  5
6C
 10
258.540222
 20
572.495632
 30
0.0
 11
278.540223
 21
592.495634
 31
0.0
  0
LINE
  8
LC-007-005-----0
  6
CONTINUOUS
  5
6D
 10
253.614068
 20
576.05476
 30
0.0
 11
263.054941
 21
585.495633
 31
0.0
  0
LINE
  8
LC-007-005-----0
  6
CONTINUOUS
  5
6E
 10
266.114093
 20
588.554785
 30
0.0
 11
270.054941
 21
592.495633
 31
0.0
  0
LINE
  8
LC-007-005-----0
  6
CONTINUOUS
  5
6F
 10
253.614068
 20
584.540041
 30
0.0
 11
254.569659
 21
585.495632
 31
0.0
  0
ENDBLK
  8
0
  5
70
  0
BLOCK
  8
0
  5
72
  2
*X4
 70
    65
 10
295.114068
 20
585.495635
 30
0.0
  3
*X4
  0
LINE
  8
LC-007-005-----0
  6
CONTINUOUS
  5
73
 10
311.138204
 20
585.495636
 30
0.0
 11
313.114068
 21
587.471499
 31
0.0
  0
LINE
  8
LC-007-005-----0
  6
CONTINUOUS
  5
74
 10
308.309777
 20
585.495635
 30
0.0
 11
313.114068
 21
590.299926
 31
0.0
  0
LINE
  8
LC-007-005-----0
  6
CONTINUOUS
  5
75
 10
305.48135
 20
585.495635
 30
0.0
 11
312.48135
 21
592.495636
 31
0.0
  0
LINE
  8
LC-007-005-----0
  6
CONTINUOUS
  5
76
 10
302.652923
 20
585.495635
 30
0.0
 11
309.652923
 21
592.495636
 31
0.0
  0
LINE
  8
LC-007-005-----0
  6
CONTINUOUS
  5
77
 10
299.824495
 20
585.495635
 30
0.0
 11
306.824496
 21
592.495635
 31
0.0
  0
LINE
  8
LC-007-005-----0
  6
CONTINUOUS
  5
78
 10
296.996068
 20
585.495635
 30
0.0
 11
303.996068
 21
592.495635
 31
0.0
  0
LINE
  8
LC-007-005-----0
  6
CONTINUOUS
  5
79
 10
295.114068
 20
586.442062
 30
0.0
 11
301.167641
 21
592.495635
 31
0.0
  0
LINE
  8
LC-007-005-----0
  6
CONTINUOUS
  5
7A
 10
295.114068
 20
589.270489
 30
0.0
 11
298.339214
 21
592.495635
 31
0.0
  0
LINE
  8
LC-007-005-----0
  6
CONTINUOUS
  5
7B
 10
295.114068
 20
592.098916
 30
0.0
 11
295.510787
 21
592.495635
 31
0.0
  0
ENDBLK
  8
0
  5
7C
  0
BLOCK
  8
0
  5
7E
  2
*X5
 70
    65
 10
321.114068
 20
585.495636
 30
0.0
  3
*X5
  0
LINE
  8
LC-007-005-----0
  6
CONTINUOUS
  5
7F
 10
330.937196
 20
585.495637
 30
0.0
 11
331.114068
 21
585.672509
 31
0.0
  0
LINE
  8
LC-007-005-----0
  6
CONTINUOUS
  5
80
 10
328.108768
 20
585.495637
 30
0.0
 11
331.114068
 21
588.500936
 31
0.0
  0
LINE
  8
LC-007-005-----0
  6
CONTINUOUS
  5
81
 10
325.280341
 20
585.495636
 30
0.0
 11
331.114068
 21
591.329363
 31
0.0
  0
LINE
  8
LC-007-005-----0
  6
CONTINUOUS
  5
82
 10
322.451914
 20
585.495636
 30
0.0
 11
329.451914
 21
592.495637
 31
0.0
  0
LINE
  8
LC-007-005-----0
  6
CONTINUOUS
  5
83
 10
321.114068
 20
586.986217
 30
0.0
 11
326.623487
 21
592.495637
 31
0.0
  0
LINE
  8
LC-007-005-----0
  6
CONTINUOUS
  5
84
 10
321.114068
 20
589.814645
 30
0.0
 11
323.795059
 21
592.495636
 31
0.0
  0
ENDBLK
  8
0
  5
85
  0
BLOCK
  8
0
  5
87
  2
*X6
 70
    65
 10
339.114068
 20
585.495637
 30
0.0
  3
*X6
  0
LINE
  8
LC-007-005-----0
  6
CONTINUOUS
  5
88
 10
347.907759
 20
585.495638
 30
0.0
 11
349.114068
 21
586.701946
 31
0.0
  0
LINE
  8
LC-007-005-----0
  6
CONTINUOUS
  5
89
 10
345.079332
 20
585.495638
 30
0.0
 11
349.114068
 21
589.530373
 31
0.0
  0
LINE
  8
LC-007-005-----0
  6
CONTINUOUS
  5
8A
 10
342.250905
 20
585.495637
 30
0.0
 11
349.114068
 21
592.358801
 31
0.0
  0
LINE
  8
LC-007-005-----0
  6
CONTINUOUS
  5
8B
 10
339.422477
 20
585.495637
 30
0.0
 11
346.422478
 21
592.495638
 31
0.0
  0
LINE
  8
LC-007-005-----0
  6
CONTINUOUS
  5
8C
 10
339.114068
 20
588.015655
 30
0.0
 11
343.594051
 21
592.495638
 31
0.0
  0
LINE
  8
LC-007-005-----0
  6
CONTINUOUS
  5
8D
 10
339.114068
 20
590.844082
 30
0.0
 11
340.765623
 21
592.495637
 31
0.0
  0
ENDBLK
  8
0
  5
8E
  0
BLOCK
  8
0
  5
90
  2
*X7
 70
    65
 10
357.114068
 20
585.495638
 30
0.0
  3
*X7
  0
LINE
  8
LC-007-005-----0
  6
CONTINUOUS
  5
91
 10
364.878323
 20
585.495639
 30
0.0
 11
367.114068
 21
587.731384
 31
0.0
  0
LINE
  8
LC-007-005-----0
  6
CONTINUOUS
  5
92
 10
362.049896
 20
585.495639
 30
0.0
 11
367.114068
 21
590.559811
 31
0.0
  0
LINE
  8
LC-007-005-----0
  6
CONTINUOUS
  5
93
 10
359.221468
 20
585.495638
 30
0.0
 11
366.221469
 21
592.495639
 31
0.0
  0
LINE
  8
LC-007-005-----0
  6
CONTINUOUS
  5
94
 10
357.114068
 20
586.216665
 30
0.0
 11
363.393042
 21
592.495639
 31
0.0
  0
LINE
  8
LC-007-005-----0
  6
CONTINUOUS
  5
95
 10
357.114068
 20
589.045092
 30
0.0
 11
360.564614
 21
592.495639
 31
0.0
  0
LINE
  8
LC-007-005-----0
  6
CONTINUOUS
  5
96
 10
357.114068
 20
591.873519
 30
0.0
 11
357.736187
 21
592.495638
 31
0.0
  0
ENDBLK
  8
0
  5
97
  0
BLOCK
  8
0
  5
99
  2
*X8
 70
    65
 10
375.114068
 20
585.495639
 30
0.0
  3
*X8
  0
LINE
  8
LC-007-005-----0
  6
CONTINUOUS
  5
9A
 10
384.677314
 20
585.49564
 30
0.0
 11
385.114068
 21
585.932394
 31
0.0
  0
LINE
  8
LC-007-005-----0
  6
CONTINUOUS
  5
9B
 10
381.848887
 20
585.49564
 30
0.0
 11
385.114068
 21
588.760821
 31
0.0
  0
LINE
  8
LC-007-005-----0
  6
CONTINUOUS
  5
9C
 10
379.020459
 20
585.49564
 30
0.0
 11
385.114068
 21
591.589248
 31
0.0
  0
LINE
  8
LC-007-005-----0
  6
CONTINUOUS
  5
9D
 10
376.192032
 20
585.495639
 30
0.0
 11
383.192033
 21
592.49564
 31
0.0
  0
LINE
  8
LC-007-005-----0
  6
CONTINUOUS
  5
9E
 10
375.114068
 20
587.246102
 30
0.0
 11
380.363605
 21
592.49564
 31
0.0
  0
LINE
  8
LC-007-005-----0
  6
CONTINUOUS
  5
9F
 10
375.114068
 20
590.074529
 30
0.0
 11
377.535178
 21
592.49564
 31
0.0
  0
ENDBLK
  8
0
  5
A0
  0
BLOCK
  8
0
  5
A2
  2
*X9
 70
    65
 10
393.114068
 20
585.49564
 30
0.0
  3
*X9
  0
LINE
  8
LC-007-005-----0
  6
CONTINUOUS
  5
A3
 10
401.647878
 20
585.495641
 30
0.0
 11
403.114068
 21
586.961831
 31
0.0
  0
LINE
  8
LC-007-005-----0
  6
CONTINUOUS
  5
A4
 10
398.819451
 20
585.495641
 30
0.0
 11
403.114068
 21
589.790258
 31
0.0
  0
LINE
  8
LC-007-005-----0
  6
CONTINUOUS
  5
A5
 10
395.991023
 20
585.495641
 30
0.0
 11
402.991024
 21
592.495641
 31
0.0
  0
LINE
  8
LC-007-005-----0
  6
CONTINUOUS
  5
A6
 10
393.162596
 20
585.49564
 30
0.0
 11
400.162596
 21
592.495641
 31
0.0
  0
LINE
  8
LC-007-005-----0
  6
CONTINUOUS
  5
A7
 10
393.114068
 20
588.275539
 30
0.0
 11
397.334169
 21
592.495641
 31
0.0
  0
LINE
  8
LC-007-005-----0
  6
CONTINUOUS
  5
A8
 10
393.114068
 20
591.103967
 30
0.0
 11
394.505742
 21
592.495641
 31
0.0
  0
ENDBLK
  8
0
  5
A9
  0
BLOCK
  8
0
  5
AB
  2
*X10
 70
    65
 10
411.114068
 20
585.495641
 30
0.0
  3
*X10
  0
LINE
  8
LC-007-005-----0
  6
CONTINUOUS
  5
AC
 10
415.790014
 20
585.495642
 30
0.0
 11
416.114068
 21
585.819695
 31
0.0
  0
LINE
  8
LC-007-005-----0
  6
CONTINUOUS
  5
AD
 10
412.961587
 20
585.495642
 30
0.0
 11
416.114068
 21
588.648122
 31
0.0
  0
LINE
  8
LC-007-005-----0
  6
CONTINUOUS
  5
AE
 10
411.114068
 20
586.47655
 30
0.0
 11
416.114068
 21
591.47655
 31
0.0
  0
LINE
  8
LC-007-005-----0
  6
CONTINUOUS
  5
AF
 10
411.114068
 20
589.304977
 30
0.0
 11
414.304733
 21
592.495642
 31
0.0
  0
LINE
  8
LC-007-005-----0
  6
CONTINUOUS
  5
B0
 10
411.114068
 20
592.133404
 30
0.0
 11
411.476306
 21
592.495642
 31
0.0
  0
ENDBLK
  8
0
  5
B1
  0
BLOCK
  8
0
  5
B3
  2
BLK2
 70
    64
 10
0.0
 20
0.0
 30
0.0
  3
BLK2
  0
ENDBLK
  8
0
  5
B4
  0
BLOCK
  8
0
  5
B6
  2
*X12
 70
    65
 10
524.614068
 20
502.995633
 30
0.0
  3
*X12
  0
LINE
  8
LC-007-005-----0
  6
CONTINUOUS
  5
B7
 10
566.114068
 20
506.717098
 30
0.0
 11
569.614068
 21
510.217098
 31
0.0
  0
LINE
  8
LC-007-005-----0
  6
CONTINUOUS
  5
B8
 10
566.114068
 20
515.20238
 30
0.0
 11
569.614068
 21
518.70238
 31
0.0
  0
LINE
  8
LC-007-005-----0
  6
CONTINUOUS
  5
B9
 10
566.114068
 20
523.687661
 30
0.0
 11
569.614068
 21
527.187661
 31
0.0
  0
LINE
  8
LC-007-005-----0
  6
CONTINUOUS
  5
BA
 10
566.114068
 20
532.172942
 30
0.0
 11
569.614068
 21
535.672942
 31
0.0
  0
LINE
  8
LC-007-005-----0
  6
CONTINUOUS
  5
BB
 10
566.114068
 20
540.658224
 30
0.0
 11
569.614068
 21
544.158224
 31
0.0
  0
LINE
  8
LC-007-005-----0
  6
CONTINUOUS
  5
BC
 10
566.114068
 20
549.143505
 30
0.0
 11
569.614068
 21
552.643505
 31
0.0
  0
LINE
  8
LC-007-005-----0
  6
CONTINUOUS
  5
BD
 10
566.114068
 20
557.628786
 30
0.0
 11
569.614068
 21
561.128786
 31
0.0
  0
LINE
  8
LC-007-005-----0
  6
CONTINUOUS
  5
BE
 10
566.114068
 20
566.114068
 30
0.0
 11
569.614068
 21
569.614068
 31
0.0
  0
LINE
  8
LC-007-005-----0
  6
CONTINUOUS
  5
BF
 10
572.495633
 20
572.495633
 30
0.0
 11
578.614068
 21
578.614068
 31
0.0
  0
LINE
  8
LC-007-005-----0
  6
CONTINUOUS
  5
C0
 10
564.010352
 20
572.495633
 30
0.0
 11
577.010351
 21
585.495632
 31
0.0
  0
LINE
  8
LC-007-005-----0
  6
CONTINUOUS
  5
C1
 10
555.525071
 20
572.495634
 30
0.0
 11
568.52507
 21
585.495633
 31
0.0
  0
LINE
  8
LC-007-005-----0
  6
CONTINUOUS
  5
C2
 10
547.03979
 20
572.495634
 30
0.0
 11
566.114042
 21
591.569886
 31
0.0
  0
LINE
  8
LC-007-005-----0
  6
CONTINUOUS
  5
C3
 10
538.554509
 20
572.495635
 30
0.0
 11
558.554508
 21
592.495633
 31
0.0
  0
LINE
  8
LC-007-005-----0
  6
CONTINUOUS
  5
C4
 10
530.069228
 20
572.495635
 30
0.0
 11
550.069227
 21
592.495634
 31
0.0
  0
LINE
  8
LC-007-005-----0
  6
CONTINUOUS
  5
C5
 10
524.614068
 20
575.525756
 30
0.0
 11
534.583947
 21
585.495635
 31
0.0
  0
LINE
  8
LC-007-005-----0
  6
CONTINUOUS
  5
C6
 10
537.114068
 20
588.025756
 30
0.0
 11
541.583946
 21
592.495634
 31
0.0
  0
LINE
  8
LC-007-005-----0
  6
CONTINUOUS
  5
C7
 10
524.614068
 20
584.011037
 30
0.0
 11
526.098666
 21
585.495635
 31
0.0
  0
ENDBLK
  8
0
  5
C8
  0
BLOCK
  8
0
  5
CA
  2
*X13
 70
    65
 10
519.114017
 20
585.495635
 30
0.0
  3
*X13
  0
LINE
  8
LC-007-005-----0
  6
CONTINUOUS
  5
CB
 10
534.583947
 20
585.495635
 30
0.0
 11
537.114017
 21
588.025705
 31
0.0
  0
LINE
  8
LC-007-005-----0
  6
CONTINUOUS
  5
CC
 10
531.75552
 20
585.495635
 30
0.0
 11
537.114017
 21
590.854132
 31
0.0
  0
LINE
  8
LC-007-005-----0
  6
CONTINUOUS
  5
CD
 10
528.927093
 20
585.495635
 30
0.0
 11
535.927092
 21
592.495635
 31
0.0
  0
LINE
  8
LC-007-005-----0
  6
CONTINUOUS
  5
CE
 10
526.098666
 20
585.495635
 30
0.0
 11
533.098665
 21
592.495635
 31
0.0
  0
LINE
  8
LC-007-005-----0
  6
CONTINUOUS
  5
CF
 10
523.270239
 20
585.495635
 30
0.0
 11
530.270238
 21
592.495635
 31
0.0
  0
LINE
  8
LC-007-005-----0
  6
CONTINUOUS
  5
D0
 10
520.441812
 20
585.495636
 30
0.0
 11
527.441811
 21
592.495635
 31
0.0
  0
LINE
  8
LC-007-005-----0
  6
CONTINUOUS
  5
D1
 10
519.114017
 20
586.996268
 30
0.0
 11
524.613384
 21
592.495635
 31
0.0
  0
LINE
  8
LC-007-005-----0
  6
CONTINUOUS
  5
D2
 10
519.114017
 20
589.824695
 30
0.0
 11
521.784957
 21
592.495636
 31
0.0
  0
ENDBLK
  8
0
  5
D3
  0
BLOCK
  8
0
  5
D5
  2
*X14
 70
    65
 10
501.114017
 20
585.495636
 30
0.0
  3
*X14
  0
LINE
  8
LC-007-005-----0
  6
CONTINUOUS
  5
D6
 10
509.128104
 20
585.495636
 30
0.0
 11
511.114017
 21
587.481549
 31
0.0
  0
LINE
  8
LC-007-005-----0
  6
CONTINUOUS
  5
D7
 10
506.299677
 20
585.495636
 30
0.0
 11
511.114017
 21
590.309976
 31
0.0
  0
LINE
  8
LC-007-005-----0
  6
CONTINUOUS
  5
D8
 10
503.47125
 20
585.495637
 30
0.0
 11
510.47125
 21
592.495636
 31
0.0
  0
LINE
  8
LC-007-005-----0
  6
CONTINUOUS
  5
D9
 10
501.114017
 20
585.966831
 30
0.0
 11
507.642823
 21
592.495636
 31
0.0
  0
LINE
  8
LC-007-005-----0
  6
CONTINUOUS
  5
DA
 10
501.114017
 20
588.795258
 30
0.0
 11
504.814396
 21
592.495637
 31
0.0
  0
LINE
  8
LC-007-005-----0
  6
CONTINUOUS
  5
DB
 10
501.114017
 20
591.623685
 30
0.0
 11
501.985969
 21
592.495637
 31
0.0
  0
ENDBLK
  8
0
  5
DC
  0
BLOCK
  8
0
  5
DE
  2
*X15
 70
    65
 10
483.114017
 20
585.495637
 30
0.0
  3
*X15
  0
LINE
  8
LC-007-005-----0
  6
CONTINUOUS
  5
DF
 10
492.157542
 20
585.495637
 30
0.0
 11
493.114017
 21
586.452112
 31
0.0
  0
LINE
  8
LC-007-005-----0
  6
CONTINUOUS
  5
E0
 10
489.329115
 20
585.495637
 30
0.0
 11
493.114017
 21
589.280539
 31
0.0
  0
LINE
  8
LC-007-005-----0
  6
CONTINUOUS
  5
E1
 10
486.500688
 20
585.495638
 30
0.0
 11
493.114017
 21
592.108966
 31
0.0
  0
LINE
  8
LC-007-005-----0
  6
CONTINUOUS
  5
E2
 10
483.672261
 20
585.495638
 30
0.0
 11
490.672261
 21
592.495637
 31
0.0
  0
LINE
  8
LC-007-005-----0
  6
CONTINUOUS
  5
E3
 10
483.114017
 20
587.765821
 30
0.0
 11
487.843834
 21
592.495638
 31
0.0
  0
LINE
  8
LC-007-005-----0
  6
CONTINUOUS
  5
E4
 10
483.114017
 20
590.594248
 30
0.0
 11
485.015407
 21
592.495638
 31
0.0
  0
ENDBLK
  8
0
  5
E5
  0
BLOCK
  8
0
  5
E7
  2
*X16
 70
    65
 10
465.114017
 20
585.495638
 30
0.0
  3
*X16
  0
LINE
  8
LC-007-005-----0
  6
CONTINUOUS
  5
E8
 10
472.358553
 20
585.495638
 30
0.0
 11
475.114017
 21
588.251102
 31
0.0
  0
LINE
  8
LC-007-005-----0
  6
CONTINUOUS
  5
E9
 10
469.530127
 20
585.495639
 30
0.0
 11
475.114017
 21
591.079529
 31
0.0
  0
LINE
  8
LC-007-005-----0
  6
CONTINUOUS
  5
EA
 10
466.7017
 20
585.495639
 30
0.0
 11
473.701699
 21
592.495638
 31
0.0
  0
LINE
  8
LC-007-005-----0
  6
CONTINUOUS
  5
EB
 10
465.114017
 20
586.736383
 30
0.0
 11
470.873272
 21
592.495639
 31
0.0
  0
LINE
  8
LC-007-005-----0
  6
CONTINUOUS
  5
EC
 10
465.114017
 20
589.56481
 30
0.0
 11
468.044845
 21
592.495639
 31
0.0
  0
LINE
  8
LC-007-005-----0
  6
CONTINUOUS
  5
ED
 10
465.114017
 20
592.393238
 30
0.0
 11
465.216418
 21
592.495639
 31
0.0
  0
ENDBLK
  8
0
  5
EE
  0
BLOCK
  8
0
  5
F0
  2
*X17
 70
    65
 10
447.114017
 20
585.495639
 30
0.0
  3
*X17
  0
LINE
  8
LC-007-005-----0
  6
CONTINUOUS
  5
F1
 10
455.387992
 20
585.495639
 30
0.0
 11
457.114017
 21
587.221665
 31
0.0
  0
LINE
  8
LC-007-005-----0
  6
CONTINUOUS
  5
F2
 10
452.559565
 20
585.49564
 30
0.0
 11
457.114017
 21
590.050092
 31
0.0
  0
LINE
  8
LC-007-005-----0
  6
CONTINUOUS
  5
F3
 10
449.731138
 20
585.49564
 30
0.0
 11
456.731137
 21
592.495639
 31
0.0
  0
LINE
  8
LC-007-005-----0
  6
CONTINUOUS
  5
F4
 10
447.114017
 20
585.706946
 30
0.0
 11
453.90271
 21
592.49564
 31
0.0
  0
LINE
  8
LC-007-005-----0
  6
CONTINUOUS
  5
F5
 10
447.114017
 20
588.535373
 30
0.0
 11
451.074283
 21
592.49564
 31
0.0
  0
LINE
  8
LC-007-005-----0
  6
CONTINUOUS
  5
F6
 10
447.114017
 20
591.3638
 30
0.0
 11
448.245857
 21
592.49564
 31
0.0
  0
ENDBLK
  8
0
  5
F7
  0
BLOCK
  8
0
  5
F9
  2
*X18
 70
    65
 10
429.114017
 20
585.49564
 30
0.0
  3
*X18
  0
LINE
  8
LC-007-005-----0
  6
CONTINUOUS
  5
FA
 10
438.41743
 20
585.49564
 30
0.0
 11
439.114017
 21
586.192227
 31
0.0
  0
LINE
  8
LC-007-005-----0
  6
CONTINUOUS
  5
FB
 10
435.589003
 20
585.495641
 30
0.0
 11
439.114017
 21
589.020655
 31
0.0
  0
LINE
  8
LC-007-005-----0
  6
CONTINUOUS
  5
FC
 10
432.760576
 20
585.495641
 30
0.0
 11
439.114017
 21
591.849082
 31
0.0
  0
LINE
  8
LC-007-005-----0
  6
CONTINUOUS
  5
FD
 10
429.932149
 20
585.495641
 30
0.0
 11
436.932149
 21
592.495641
 31
0.0
  0
LINE
  8
LC-007-005-----0
  6
CONTINUOUS
  5
FE
 10
429.114017
 20
587.505936
 30
0.0
 11
434.103722
 21
592.495641
 31
0.0
  0
LINE
  8
LC-007-005-----0
  6
CONTINUOUS
  5
FF
 10
429.114017
 20
590.334363
 30
0.0
 11
431.275295
 21
592.495641
 31
0.0
  0
ENDBLK
  8
0
  5
100
  0
BLOCK
  8
0
  5
102
  2
*X19
 70
    65
 10
416.114017
 20
585.495641
 30
0.0
  3
*X19
  0
LINE
  8
LC-007-005-----0
  6
CONTINUOUS
  5
103
 10
418.618441
 20
585.495642
 30
0.0
 11
421.114017
 21
587.991217
 31
0.0
  0
LINE
  8
LC-007-005-----0
  6
CONTINUOUS
  5
104
 10
416.114017
 20
585.819644
 30
0.0
 11
421.114017
 21
590.819644
 31
0.0
  0
LINE
  8
LC-007-005-----0
  6
CONTINUOUS
  5
105
 10
416.114017
 20
588.648072
 30
0.0
 11
419.961587
 21
592.495642
 31
0.0
  0
LINE
  8
LC-007-005-----0
  6
CONTINUOUS
  5
106
 10
416.114017
 20
591.476499
 30
0.0
 11
417.13316
 21
592.495642
 31
0.0
  0
ENDBLK
  8
0
  5
107
  0
BLOCK
  8
0
  5
109
  2
*D20
 70
    65
 10
0.0
 20
0.0
 30
0.0
  3
*D20
  0
LINE
  8
LC-004-003-MTH-0
  6
CONTINUOUS
  5
10A
 10
253.614068
 20
585.495632
 30
0.0
 11
253.614068
 21
683.2
 31
0.0
  0
LINE
  8
LC-004-003-MTH-0
  6
CONTINUOUS
  5
10B
 10
578.614017
 20
585.495632
 30
0.0
 11
578.614017
 21
683.2
 31
0.0
  0
LINE
  8
LC-005-003-MTG-0
  6
CONTINUOUS
  5
10C
 10
253.614068
 20
666.4
 30
0.0
 11
578.614017
 21
666.4
 31
0.0
  0
LINE
  8
LC-003-003-----0
  6
CONTINUOUS
  5
10D
 10
281.374524
 20
670.054733
 30
0.0
 11
253.614068
 21
666.4
 31
0.0
  0
LINE
  8
LC-003-003-----0
  6
CONTINUOUS
  5
10E
 10
253.614068
 20
666.4
 30
0.0
 11
281.374524
 21
662.745267
 31
0.0
  0
LINE
  8
LC-003-003-----0
  6
CONTINUOUS
  5
10F
 10
281.374524
 20
662.745267
 30
0.0
 11
281.374524
 21
670.054733
 31
0.0
  0
LINE
  8
LC-003-003-----0
  6
CONTINUOUS
  5
110
 10
281.436805
 20
669.104503
 30
0.0
 11
260.894068
 21
666.4
 31
0.0
  0
LINE
  8
LC-003-003-----0
  6
CONTINUOUS
  5
111
 10
260.894068
 20
666.4
 30
0.0
 11
281.436805
 21
663.695497
 31
0.0
  0
LINE
  8
LC-003-003-----0
  6
CONTINUOUS
  5
112
 10
281.499087
 20
668.154272
 30
0.0
 11
268.174068
 21
666.4
 31
0.0
  0
LINE
  8
LC-003-003-----0
  6
CONTINUOUS
  5
113
 10
268.174068
 20
666.4
 30
0.0
 11
281.499087
 21
664.645728
 31
0.0
  0
LINE
  8
LC-003-003-----0
  6
CONTINUOUS
  5
114
 10
281.561368
 20
667.204041
 30
0.0
 11
275.454068
 21
666.4
 31
0.0
  0
LINE
  8
LC-003-003-----0
  6
CONTINUOUS
  5
115
 10
275.454068
 20
666.4
 30
0.0
 11
281.561368
 21
665.595959
 31
0.0
  0
LINE
  8
LC-003-003-----0
  6
CONTINUOUS
  5
116
 10
550.853561
 20
662.745267
 30
0.0
 11
578.614017
 21
666.4
 31
0.0
  0
LINE
  8
LC-003-003-----0
  6
CONTINUOUS
  5
117
 10
578.614017
 20
666.4
 30
0.0
 11
550.853561
 21
670.054733
 31
0.0
  0
LINE
  8
LC-003-003-----0
  6
CONTINUOUS
  5
118
 10
550.853561
 20
670.054733
 30
0.0
 11
550.853561
 21
662.745267
 31
0.0
  0
LINE
  8
LC-003-003-----0
  6
CONTINUOUS
  5
119
 10
550.791279
 20
663.695497
 30
0.0
 11
571.334017
 21
666.4
 31
0.0
  0
LINE
  8
LC-003-003-----0
  6
CONTINUOUS
  5
11A
 10
571.334017
 20
666.4
 30
0.0
 11
550.791279
 21
669.104503
 31
0.0
  0
LINE
  8
LC-003-003-----0
  6
CONTINUOUS
  5
11B
 10
550.728998
 20
664.645728
 30
0.0
 11
564.054017
 21
666.4
 31
0.0
  0
LINE
  8
LC-003-003-----0
  6
CONTINUOUS
  5
11C
 10
564.054017
 20
666.4
 30
0.0
 11
550.728998
 21
668.154272
 31
0.0
  0
LINE
  8
LC-003-003-----0
  6
CONTINUOUS
  5
11D
 10
550.666717
 20
665.595959
 30
0.0
 11
556.774017
 21
666.4
 31
0.0
  0
LINE
  8
LC-003-003-----0
  6
CONTINUOUS
  5
11E
 10
556.774017
 20
666.4
 30
0.0
 11
550.666717
 21
667.204041
 31
0.0
  0
TEXT
  8
LC-003-003-----0
  6
CONTINUOUS
 62
     8
  5
11F
 10
394.058902
 20
674.227554
 30
0.0
 40
28.0
  1
325
 41
0.9
 51
15.0
  7
LC-TXTSTYLE-150-400-0-0-A0
 72
     1
 11
420.462202
 21
674.227554
 31
0.0
  0
ENDBLK
  8
0
  5
120
  0
BLOCK
  8
0
  5
122
  2
*D21
 70
    65
 10
0.0
 20
0.0
 30
0.0
  3
*D21
  0
LINE
  8
LC-004-003-MTH-0
  6
CONTINUOUS
  5
123
 10
295.114068
 20
592.495635
 30
0.0
 11
295.114068
 21
644.0
 31
0.0
  0
LINE
  8
LC-004-003-MTH-0
  6
CONTINUOUS
  5
124
 10
537.114017
 20
592.495635
 30
0.0
 11
537.114017
 21
644.0
 31
0.0
  0
LINE
  8
LC-005-003-MTG-0
  6
CONTINUOUS
  5
125
 10
295.114068
 20
627.2
 30
0.0
 11
537.114017
 21
627.2
 31
0.0
  0
LINE
  8
LC-003-003-----0
  6
CONTINUOUS
  5
126
 10
322.874524
 20
630.854733
 30
0.0
 11
295.114068
 21
627.2
 31
0.0
  0
LINE
  8
LC-003-003-----0
  6
CONTINUOUS
  5
127
 10
295.114068
 20
627.2
 30
0.0
 11
322.874524
 21
623.545267
 31
0.0
  0
LINE
  8
LC-003-003-----0
  6
CONTINUOUS
  5
128
 10
322.874524
 20
623.545267
 30
0.0
 11
322.874524
 21
630.854733
 31
0.0
  0
LINE
  8
LC-003-003-----0
  6
CONTINUOUS
  5
129
 10
322.936805
 20
629.904503
 30
0.0
 11
302.394068
 21
627.2
 31
0.0
  0
LINE
  8
LC-003-003-----0
  6
CONTINUOUS
  5
12A
 10
302.394068
 20
627.2
 30
0.0
 11
322.936805
 21
624.495497
 31
0.0
  0
LINE
  8
LC-003-003-----0
  6
CONTINUOUS
  5
12B
 10
322.999087
 20
628.954272
 30
0.0
 11
309.674068
 21
627.2
 31
0.0
  0
LINE
  8
LC-003-003-----0
  6
CONTINUOUS
  5
12C
 10
309.674068
 20
627.2
 30
0.0
 11
322.999087
 21
625.445728
 31
0.0
  0
LINE
  8
LC-003-003-----0
  6
CONTINUOUS
  5
12D
 10
323.061368
 20
628.004041
 30
0.0
 11
316.954068
 21
627.2
 31
0.0
  0
LINE
  8
LC-003-003-----0
  6
CONTINUOUS
  5
12E
 10
316.954068
 20
627.2
 30
0.0
 11
323.061368
 21
626.395959
 31
0.0
  0
LINE
  8
LC-003-003-----0
  6
CONTINUOUS
  5
12F
 10
509.353561
 20
623.545267
 30
0.0
 11
537.114017
 21
627.2
 31
0.0
  0
LINE
  8
LC-003-003-----0
  6
CONTINUOUS
  5
130
 10
537.114017
 20
627.2
 30
0.0
 11
509.353561
 21
630.854733
 31
0.0
  0
LINE
  8
LC-003-003-----0
  6
CONTINUOUS
  5
131
 10
509.353561
 20
630.854733
 30
0.0
 11
509.353561
 21
623.545267
 31
0.0
  0
LINE
  8
LC-003-003-----0
  6
CONTINUOUS
  5
132
 10
509.291279
 20
624.495497
 30
0.0
 11
529.834017
 21
627.2
 31
0.0
  0
LINE
  8
LC-003-003-----0
  6
CONTINUOUS
  5
133
 10
529.834017
 20
627.2
 30
0.0
 11
509.291279
 21
629.904503
 31
0.0
  0
LINE
  8
LC-003-003-----0
  6
CONTINUOUS
  5
134
 10
509.228998
 20
625.445728
 30
0.0
 11
522.554017
 21
627.2
 31
0.0
  0
LINE
  8
LC-003-003-----0
  6
CONTINUOUS
  5
135
 10
522.554017
 20
627.2
 30
0.0
 11
509.228998
 21
628.954272
 31
0.0
  0
LINE
  8
LC-003-003-----0
  6
CONTINUOUS
  5
136
 10
509.166717
 20
626.395959
 30
0.0
 11
515.274017
 21
627.2
 31
0.0
  0
LINE
  8
LC-003-003-----0
  6
CONTINUOUS
  5
137
 10
515.274017
 20
627.2
 30
0.0
 11
509.166717
 21
628.004041
 31
0.0
  0
TEXT
  8
LC-003-003-----0
  6
CONTINUOUS
 62
     8
  5
138
 10
394.058902
 20
635.027554
 30
0.0
 40
28.0
  1
240
 41
0.9
 51
15.0
  7
LC-TXTSTYLE-150-400-0-0-A0
 72
     1
 11
420.462202
 21
635.027554
 31
0.0
  0
ENDBLK
  8
0
  5
139
  0
ENDSEC
  0
SECTION
  2
ENTITIES
  0
VIEWPORT
  8
LC-000
  5
19B
 67
     1
 68
     1
 10
420.0
 20
297.0
 30
0.0
 40
840.0
 41
594.0
 69
     1
1001
ACAD
1000
MVIEW
1002
{
1070
    16
1010
0.0
1020
0.0
1030
0.0
1010
0.0
1020
0.0
1030
1.0
1040
0.0
1040
594.0
1040
420.0
1040
297.0
1040
50.0
1040
0.0
1040
0.0
1070
     0
1070
   100
1070
     1
1070
     1
1070
     0
1070
     0
1070
     0
1070
     0
1040
0.0
1040
0.0
1040
0.0
1040
1.0
1040
1.0
1040
0.0
1040
0.0
1070
     0
1002
{
1002
}
1002
}
  0
VIEWPORT
  8
0
  5
19C
 67
     1
 68
     1
 10
0.0
 20
0.0
 30
0.0
 40
0.0
 41
0.0
 69
     1
1001
ACAD
1000
MVIEW
1002
{
1070
    16
1010
0.0
1020
0.0
1030
0.0
1010
0.0
1020
0.0
1030
1.0
1040
0.0
1040
594.0
1040
0.0
1040
0.0
1040
50.0
1040
0.0
1040
0.0
1070
     0
1070
   100
1070
     0
1070
     1
1070
     0
1070
     0
1070
     0
1070
     0
1040
0.0
1040
0.0
1040
0.0
1040
0.5
1040
0.5
1040
0.5
1040
0.5
1070
     0
1002
{
1002
}
1002
}
  0
INSERT
  8
LC-002-000-----0
  5
13B
  2
BLK1
 10
0.0
 20
0.0
 30
0.0
  0
DIMENSION
  8
LC-003-003-----0
  6
CONTINUOUS
  5
13C
  2
*D1
 10
416.114068
 20
462.0
 30
0.0
 11
416.114068
 21
462.0
 31
0.0
  1
362
 13
233.614068
 23
502.995631
 33
0.0
 14
598.614068
 24
502.995631
 34
0.0
  3
LC-DIM-L-0140-02-02
  0
DIMENSION
  8
LC-003-003-----0
  6
CONTINUOUS
  5
13D
  2
*D2
 10
630.0
 20
547.745632
 30
0.0
 11
630.0
 21
547.745632
 31
0.0
  1
100
 13
566.114068
 23
592.495633
 33
0.0
 14
598.614068
 24
502.995631
 34
0.0
 50
90.0
  3
LC-DIM-L-0140-02-02
  0
INSERT
  8
LC-007-005-----0
  6
CONTINUOUS
  5
13E
  2
*X3
 10
253.614068
 20
502.995633
 30
0.0
  0
INSERT
  8
LC-007-005-----0
  6
CONTINUOUS
  5
13F
  2
*X4
 10
295.114068
 20
585.495635
 30
0.0
  0
INSERT
  8
LC-007-005-----0
  6
CONTINUOUS
  5
140
  2
*X5
 10
321.114068
 20
585.495636
 30
0.0
  0
INSERT
  8
LC-007-005-----0
  6
CONTINUOUS
  5
141
  2
*X6
 10
339.114068
 20
585.495637
 30
0.0
  0
INSERT
  8
LC-007-005-----0
  6
CONTINUOUS
  5
142
  2
*X7
 10
357.114068
 20
585.495638
 30
0.0
  0
INSERT
  8
LC-007-005-----0
  6
CONTINUOUS
  5
143
  2
*X8
 10
375.114068
 20
585.495639
 30
0.0
  0
INSERT
  8
LC-007-005-----0
  6
CONTINUOUS
  5
144
  2
*X9
 10
393.114068
 20
585.49564
 30
0.0
  0
INSERT
  8
LC-007-005-----0
  6
CONTINUOUS
  5
145
  2
*X10
 10
411.114068
 20
585.495641
 30
0.0
  0
INSERT
  8
LC-002-000-----0
  5
146
  2
BLK2
 10
0.0
 20
0.0
 30
0.0
  0
INSERT
  8
LC-007-005-----0
  6
CONTINUOUS
  5
147
  2
*X12
 10
524.614068
 20
502.995633
 30
0.0
  0
INSERT
  8
LC-007-005-----0
  6
CONTINUOUS
  5
148
  2
*X13
 10
519.114017
 20
585.495635
 30
0.0
  0
INSERT
  8
LC-007-005-----0
  6
CONTINUOUS
  5
149
  2
*X14
 10
501.114017
 20
585.495636
 30
0.0
  0
INSERT
  8
LC-007-005-----0
  6
CONTINUOUS
  5
14A
  2
*X15
 10
483.114017
 20
585.495637
 30
0.0
  0
INSERT
  8
LC-007-005-----0
  6
CONTINUOUS
  5
14B
  2
*X16
 10
465.114017
 20
585.495638
 30
0.0
  0
INSERT
  8
LC-007-005-----0
  6
CONTINUOUS
  5
14C
  2
*X17
 10
447.114017
 20
585.495639
 30
0.0
  0
INSERT
  8
LC-007-005-----0
  6
CONTINUOUS
  5
14D
  2
*X18
 10
429.114017
 20
585.49564
 30
0.0
  0
INSERT
  8
LC-007-005-----0
  6
CONTINUOUS
  5
14E
  2
*X19
 10
416.114017
 20
585.495641
 30
0.0
  0
DIMENSION
  8
LC-003-003-----0
  6
CONTINUOUS
  5
14F
  2
*D20
 10
416.114042
 20
666.4
 30
0.0
 11
416.114042
 21
666.4
 31
0.0
 13
253.614068
 23
585.495632
 33
0.0
 14
578.614017
 24
585.495632
 34
0.0
  3
LC-DIM-L-0140-02-02
  0
DIMENSION
  8
LC-003-003-----0
  6
CONTINUOUS
  5
150
  2
*D21
 10
416.114042
 20
627.2
 30
0.0
 11
416.114042
 21
627.2
 31
0.0
  1
240
 13
295.114068
 23
592.495635
 33
0.0
 14
537.114017
 24
592.495635
 34
0.0
  3
LC-DIM-L-0140-02-02
  0
LINE
  8
LC-001-002-----0
  6
CONTINUOUS
  5
152
 10
266.114068
 20
572.495633
 30
0.0
 11
266.114068
 21
502.995633
 31
0.0
  0
LINE
  8
LC-001-002-----0
  6
CONTINUOUS
  5
153
 10
566.114068
 20
572.495633
 30
0.0
 11
566.114068
 21
502.995633
 31
0.0
  0
LINE
  8
LC-001-002-----0
  6
CONTINUOUS
  5
154
 10
233.614068
 20
502.995631
 30
0.0
 11
233.614068
 21
509.495633
 31
0.0
  0
LINE
  8
LC-001-002-----0
  6
CONTINUOUS
  5
155
 10
598.614068
 20
502.995631
 30
0.0
 11
598.614068
 21
509.495633
 31
0.0
  0
LINE
  8
LC-001-002-----0
  6
CONTINUOUS
  5
156
 10
416.114068
 20
572.495642
 30
0.0
 11
566.114068
 21
572.495633
 31
0.0
  0
LINE
  8
LC-001-002-----0
  6
CONTINUOUS
  5
157
 10
569.614068
 20
572.495633
 30
0.0
 11
578.614068
 21
572.495632
 31
0.0
  0
LINE
  8
LC-001-002-----0
  6
CONTINUOUS
 62
     2
  5
158
 10
566.084302
 20
570.995633
 30
0.0
 11
567.584302
 21
572.495633
 31
0.0
  0
LINE
  8
LC-001-002-----0
  6
CONTINUOUS
 62
     2
  5
159
 10
371.186831
 20
638.598
 30
0.0
 11
385.378527
 21
638.598
 31
0.0
  0
LINE
  8
LC-001-002-----0
  6
CONTINUOUS
 62
     2
  5
15A
 10
371.186831
 20
652.815984
 30
0.0
 11
371.186831
 21
638.598
 31
0.0
  0
LINE
  8
LC-001-002-----0
  6
CONTINUOUS
 62
     2
  5
15B
 10
385.378527
 20
652.815984
 30
0.0
 11
371.186831
 21
652.815984
 31
0.0
  0
LINE
  8
LC-001-002-----0
  6
CONTINUOUS
 62
     2
  5
15C
 10
385.378527
 20
638.598
 30
0.0
 11
385.378527
 21
652.815984
 31
0.0
  0
LINE
  8
LC-001-002-----0
  6
CONTINUOUS
 62
     2
  5
15D
 10
373.049611
 20
475.139129
 30
0.0
 11
387.241307
 21
475.139129
 31
0.0
  0
LINE
  8
LC-001-002-----0
  6
CONTINUOUS
 62
     2
  5
15E
 10
373.049611
 20
489.357113
 30
0.0
 11
373.049611
 21
475.139129
 31
0.0
  0
LINE
  8
LC-001-002-----0
  6
CONTINUOUS
 62
     2
  5
15F
 10
387.241307
 20
489.357113
 30
0.0
 11
373.049611
 21
489.357113
 31
0.0
  0
LINE
  8
LC-001-002-----0
  6
CONTINUOUS
 62
     2
  5
160
 10
387.241307
 20
475.139129
 30
0.0
 11
387.241307
 21
489.357113
 31
0.0
  0
LINE
  8
LC-001-002-----0
  6
CONTINUOUS
  5
161
 10
262.614068
 20
502.995632
 30
0.0
 11
262.614068
 21
572.495633
 31
0.0
  0
LINE
  8
LC-001-002-----0
  6
CONTINUOUS
  5
162
 10
416.114068
 20
572.495642
 30
0.0
 11
266.114068
 21
572.495633
 31
0.0
  0
LINE
  8
LC-001-002-----0
  6
CONTINUOUS
  5
163
 10
253.614068
 20
509.495633
 30
0.0
 11
253.614068
 21
585.495632
 31
0.0
  0
LINE
  8
LC-001-002-----0
  6
CONTINUOUS
  5
164
 10
566.114068
 20
502.995651
 30
0.0
 11
233.614068
 21
502.995631
 31
0.0
  0
LINE
  8
LC-001-002-----0
  6
DASHDOT
 62
     2
  5
166
 10
416.11339
 20
145.497748
 30
0.0
 11
416.11339
 21
105.340714
 31
0.0
  0
LINE
  8
LC-001-002-----0
  6
CONTINUOUS
 62
     2
  5
167
 10
416.11339
 20
106.225828
 30
0.0
 11
425.429998
 21
105.547756
 31
0.0
  0
LINE
  8
LC-001-002-----0
  6
CONTINUOUS
  5
168
 10
253.614068
 20
509.495633
 30
0.0
 11
233.614068
 21
509.495633
 31
0.0
  0
LINE
  8
LC-001-002-----0
  6
CONTINUOUS
  5
169
 10
295.114068
 20
585.495633
 30
0.0
 11
295.114068
 21
592.495633
 31
0.0
  0
LINE
  8
LC-001-002-----0
  6
CONTINUOUS
  5
16A
 10
416.114068
 20
585.495642
 30
0.0
 11
295.114068
 21
585.495635
 31
0.0
  0
LINE
  8
LC-001-002-----0
  6
CONTINUOUS
  5
16B
 10
307.614068
 20
572.495635
 30
0.0
 11
307.614068
 21
585.495635
 31
0.0
  0
LINE
  8
LC-001-002-----0
  6
CONTINUOUS
  5
16C
 10
262.614068
 20
572.495633
 30
0.0
 11
253.614068
 21
572.495632
 31
0.0
  0
LINE
  8
LC-001-002-----0
  6
CONTINUOUS
  5
16D
 10
566.114068
 20
502.995633
 30
0.0
 11
598.614068
 21
502.995631
 31
0.0
  0
LINE
  8
LC-001-002-----0
  6
CONTINUOUS
  5
16E
 10
403.114068
 20
585.495641
 30
0.0
 11
403.114068
 21
592.495642
 31
0.0
  0
LINE
  8
LC-001-002-----0
  6
CONTINUOUS
  5
16F
 10
411.114068
 20
585.495641
 30
0.0
 11
411.114068
 21
592.495642
 31
0.0
  0
LINE
  8
LC-001-002-----0
  6
CONTINUOUS
  5
170
 10
393.114068
 20
585.495641
 30
0.0
 11
393.114068
 21
592.495642
 31
0.0
  0
LINE
  8
LC-001-002-----0
  6
CONTINUOUS
  5
171
 10
385.114068
 20
585.495641
 30
0.0
 11
385.114068
 21
592.495642
 31
0.0
  0
LINE
  8
LC-001-002-----0
  6
CONTINUOUS
  5
172
 10
375.114068
 20
585.495641
 30
0.0
 11
375.114068
 21
592.495642
 31
0.0
  0
LINE
  8
LC-001-002-----0
  6
CONTINUOUS
  5
173
 10
367.114068
 20
585.495641
 30
0.0
 11
367.114068
 21
592.495642
 31
0.0
  0
LINE
  8
LC-001-002-----0
  6
CONTINUOUS
  5
174
 10
357.114068
 20
585.495641
 30
0.0
 11
357.114068
 21
592.495642
 31
0.0
  0
LINE
  8
LC-001-002-----0
  6
CONTINUOUS
  5
175
 10
349.114068
 20
585.495641
 30
0.0
 11
349.114068
 21
592.495642
 31
0.0
  0
LINE
  8
LC-001-002-----0
  6
CONTINUOUS
  5
176
 10
339.114068
 20
585.495641
 30
0.0
 11
339.114068
 21
592.495642
 31
0.0
  0
LINE
  8
LC-001-002-----0
  6
CONTINUOUS
  5
177
 10
331.114068
 20
585.495641
 30
0.0
 11
331.114068
 21
592.495642
 31
0.0
  0
LINE
  8
LC-001-002-----0
  6
CONTINUOUS
  5
178
 10
321.114068
 20
585.495641
 30
0.0
 11
321.114068
 21
592.495642
 31
0.0
  0
LINE
  8
LC-001-002-----0
  6
CONTINUOUS
  5
179
 10
313.114068
 20
585.495641
 30
0.0
 11
313.114068
 21
592.495642
 31
0.0
  0
LINE
  8
LC-001-002-----0
  6
CONTINUOUS
  5
17A
 10
253.614068
 20
572.495632
 30
0.0
 11
253.614068
 21
585.495632
 31
0.0
  0
LINE
  8
LC-001-002-----0
  6
CONTINUOUS
  5
17B
 10
416.114068
 20
592.495642
 30
0.0
 11
266.114068
 21
592.495633
 31
0.0
  0
LINE
  8
LC-001-002-----0
  6
DASHDOT
 62
     2
  5
17C
 10
416.113999
 20
572.495642
 30
0.0
 11
416.114036
 21
502.995642
 31
0.0
  0
LINE
  8
LC-001-002-----0
  6
DASHDOT
 62
     2
  5
17D
 10
416.114068
 20
572.495642
 30
0.0
 11
416.114068
 21
592.495642
 31
0.0
  0
LINE
  8
LC-001-002-----0
  6
CONTINUOUS
  5
17E
 10
569.614068
 20
502.995632
 30
0.0
 11
569.614068
 21
572.495633
 31
0.0
  0
LINE
  8
LC-001-002-----0
  6
CONTINUOUS
  5
17F
 10
578.614068
 20
509.495633
 30
0.0
 11
578.614068
 21
585.495632
 31
0.0
  0
LINE
  8
LC-001-002-----0
  6
CONTINUOUS
  5
180
 10
578.614068
 20
572.495632
 30
0.0
 11
578.614068
 21
585.495632
 31
0.0
  0
LINE
  8
LC-001-002-----0
  6
CONTINUOUS
  5
181
 10
578.614068
 20
509.495633
 30
0.0
 11
598.614068
 21
509.495633
 31
0.0
  0
LINE
  8
LC-001-002-----0
  6
CONTINUOUS
  5
182
 10
266.114068
 20
585.495633
 30
0.0
 11
266.114068
 21
592.495633
 31
0.0
  0
LINE
  8
LC-001-002-----0
  6
CONTINUOUS
  5
183
 10
266.114068
 20
585.495633
 30
0.0
 11
253.614068
 21
585.495632
 31
0.0
  0
LINE
  8
LC-001-002-----0
  6
CONTINUOUS
  5
184
 10
537.114068
 20
585.495633
 30
0.0
 11
537.114068
 21
592.495633
 31
0.0
  0
LINE
  8
LC-001-002-----0
  6
CONTINUOUS
  5
185
 10
566.114068
 20
585.495633
 30
0.0
 11
566.114068
 21
592.495633
 31
0.0
  0
LINE
  8
LC-001-002-----0
  6
CONTINUOUS
  5
186
 10
416.114068
 20
592.495642
 30
0.0
 11
566.114068
 21
592.495633
 31
0.0
  0
LINE
  8
LC-001-002-----0
  6
CONTINUOUS
  5
187
 10
416.114068
 20
585.495642
 30
0.0
 11
537.114068
 21
585.495635
 31
0.0
  0
LINE
  8
LC-001-002-----0
  6
CONTINUOUS
  5
188
 10
524.614068
 20
572.495635
 30
0.0
 11
524.614068
 21
585.495635
 31
0.0
  0
LINE
  8
LC-001-002-----0
  6
CONTINUOUS
  5
189
 10
566.114068
 20
585.495633
 30
0.0
 11
578.614068
 21
585.495632
 31
0.0
  0
LINE
  8
LC-001-002-----0
  6
CONTINUOUS
  5
18A
 10
429.114017
 20
585.495641
 30
0.0
 11
429.114017
 21
592.495642
 31
0.0
  0
LINE
  8
LC-001-002-----0
  6
CONTINUOUS
  5
18B
 10
421.114017
 20
585.495641
 30
0.0
 11
421.114017
 21
592.495642
 31
0.0
  0
LINE
  8
LC-001-002-----0
  6
CONTINUOUS
  5
18C
 10
439.114017
 20
585.495641
 30
0.0
 11
439.114017
 21
592.495642
 31
0.0
  0
LINE
  8
LC-001-002-----0
  6
CONTINUOUS
  5
18D
 10
447.114017
 20
585.495641
 30
0.0
 11
447.114017
 21
592.495642
 31
0.0
  0
LINE
  8
LC-001-002-----0
  6
CONTINUOUS
  5
18E
 10
457.114017
 20
585.495641
 30
0.0
 11
457.114017
 21
592.495642
 31
0.0
  0
LINE
  8
LC-001-002-----0
  6
CONTINUOUS
  5
18F
 10
465.114017
 20
585.495641
 30
0.0
 11
465.114017
 21
592.495642
 31
0.0
  0
LINE
  8
LC-001-002-----0
  6
CONTINUOUS
  5
190
 10
475.114017
 20
585.495641
 30
0.0
 11
475.114017
 21
592.495642
 31
0.0
  0
LINE
  8
LC-001-002-----0
  6
CONTINUOUS
  5
191
 10
483.114017
 20
585.495641
 30
0.0
 11
483.114017
 21
592.495642
 31
0.0
  0
LINE
  8
LC-001-002-----0
  6
CONTINUOUS
  5
192
 10
493.114017
 20
585.495641
 30
0.0
 11
493.114017
 21
592.495642
 31
0.0
  0
LINE
  8
LC-001-002-----0
  6
CONTINUOUS
  5
193
 10
501.114017
 20
585.495641
 30
0.0
 11
501.114017
 21
592.495642
 31
0.0
  0
LINE
  8
LC-001-002-----0
  6
CONTINUOUS
  5
194
 10
511.114017
 20
585.495641
 30
0.0
 11
511.114017
 21
592.495642
 31
0.0
  0
LINE
  8
LC-001-002-----0
  6
CONTINUOUS
  5
195
 10
519.114017
 20
585.495641
 30
0.0
 11
519.114017
 21
592.495642
 31
0.0
  0
LINE
  8
LC-001-002-----0
  6
CONTINUOUS
 62
     2
  5
196
 10
371.186831
 20
677.798
 30
0.0
 11
385.378527
 21
677.798
 31
0.0
  0
LINE
  8
LC-001-002-----0
  6
CONTINUOUS
 62
     2
  5
197
 10
371.186831
 20
692.015984
 30
0.0
 11
371.186831
 21
677.798
 31
0.0
  0
LINE
  8
LC-001-002-----0
  6
CONTINUOUS
 62
     2
  5
198
 10
385.378527
 20
692.015984
 30
0.0
 11
371.186831
 21
692.015984
 31
0.0
  0
LINE
  8
LC-001-002-----0
  6
CONTINUOUS
 62
     2
  5
199
 10
385.378527
 20
677.798
 30
0.0
 11
385.378527
 21
692.015984
 31
0.0
  0
ENDSEC
  0
EOF
