  0
SECTION
  2
HEADER
  9
$ACADVER
  1
AC1009
  9
$INSBASE
 10
0.0
 20
0.0
 30
0.0
  9
$EXTMIN
 10
-315.0
 20
-148.5
 30
0.0
  9
$EXTMAX
 10
525.0
 20
445.5
 30
0.0
  9
$LIMMIN
 10
-315.0
 20
-148.5
  9
$LIMMAX
 10
525.0
 20
445.5
  9
$ORTHOMODE
 70
     0
  9
$REGENMODE
 70
     1
  9
$FILLMODE
 70
     1
  9
$QTEXTMODE
 70
     0
  9
$MIRRTEXT
 70
     1
  9
$DRAGMODE
 70
     2
  9
$LTSCALE
 40
2.0
  9
$OSMODE
 70
     0
  9
$ATTMODE
 70
     1
  9
$TEXTSIZE
 40
0.2
  9
$TRACEWID
 40
0.05
  9
$TEXTSTYLE
  7
STANDARD
  9
$CLAYER
  8
0
  9
$CELTYPE
  6
BYLAYER
  9
$CECOLOR
 62
     7
  9
$DIMSCALE
 40
2.0
  9
$DIMASZ
 40
3.5
  9
$DIMEXO
 40
0.0625
  9
$DIMDLI
 40
0.38
  9
$DIMRND
 40
0.0
  9
$DIMDLE
 40
0.0
  9
$DIMEXE
 40
0.18
  9
$DIMTP
 40
0.0
  9
$DIMTM
 40
0.0
  9
$DIMTXT
 40
3.5
  9
$DIMCEN
 40
0.09
  9
$DIMTSZ
 40
0.0
  9
$DIMTOL
 70
     0
  9
$DIMLIM
 70
     0
  9
$DIMTIH
 70
     1
  9
$DIMTOH
 70
     1
  9
$DIMSE1
 70
     0
  9
$DIMSE2
 70
     0
  9
$DIMTAD
 70
     1
  9
$DIMZIN
 70
     0
  9
$DIMBLK
  1

  9
$DIMASO
 70
     1
  9
$DIMSHO
 70
     1
  9
$DIMPOST
  1

  9
$DIMAPOST
  1

  9
$DIMALT
 70
     0
  9
$DIMALTD
 70
     2
  9
$DIMALTF
 40
25.4
  9
$DIMLFAC
 40
1.0
  9
$DIMTOFL
 70
     0
  9
$DIMTVP
 40
0.0
  9
$DIMTIX
 70
     0
  9
$DIMSOXD
 70
     0
  9
$DIMSAH
 70
     0
  9
$DIMBLK1
  1

  9
$DIMBLK2
  1

  9
$DIMSTYLE
  2
STANDARD
  9
$DIMCLRD
 70
     0
  9
$DIMCLRE
 70
     0
  9
$DIMCLRT
 70
     0
  9
$DIMTFAC
 40
1.0
  9
$DIMGAP
 40
0.09
  9
$LUNITS
 70
     2
  9
$LUPREC
 70
     2
  9
$AXISMODE
 70
     0
  9
$AXISUNIT
 10
0.0
 20
0.0
  9
$SKETCHINC
 40
0.1
  9
$FILLETRAD
 40
0.0
  9
$AUNITS
 70
     0
  9
$AUPREC
 70
     0
  9
$MENU
  1
acad
  9
$ELEVATION
 40
0.0
  9
$PELEVATION
 40
0.0
  9
$THICKNESS
 40
0.0
  9
$LIMCHECK
 70
     0
  9
$BLIPMODE
 70
     1
  9
$CHAMFERA
 40
0.0
  9
$CHAMFERB
 40
0.0
  9
$SKPOLY
 70
     0
  9
$TDCREATE
 40
0.000000000
  9
$TDUPDATE
 40
0.000000000
  9
$TDINDWG
 40
0.0000000000
  9
$TDUSRTIMER
 40
0.0000000000
  9
$USRTIMER
 70
     1
  9
$ANGBASE
 50
0.0
  9
$ANGDIR
 70
     0
  9
$PDMODE
 70
     0
  9
$PDSIZE
 40
0.0
  9
$PLINEWID
 40
0.0
  9
$COORDS
 70
     0
  9
$SPLFRAME
 70
     0
  9
$SPLINETYPE
 70
     6
  9
$SPLINESEGS
 70
     8
  9
$ATTDIA
 70
     0
  9
$ATTREQ
 70
     1
  9
$HANDLING
 70
     1
  9
$HANDSEED
  5
B7
  9
$SURFTAB1
 70
     6
  9
$SURFTAB2
 70
     6
  9
$SURFTYPE
 70
     6
  9
$SURFU
 70
     6
  9
$SURFV
 70
     6
  9
$UCSNAME
  2

  9
$UCSORG
 10
0.0
 20
0.0
 30
0.0
  9
$UCSXDIR
 10
1.0
 20
0.0
 30
0.0
  9
$UCSYDIR
 10
0.0
 20
1.0
 30
0.0
  9
$PUCSNAME
  2

  9
$PUCSORG
 10
0.0
 20
0.0
 30
0.0
  9
$PUCSXDIR
 10
1.0
 20
0.0
 30
0.0
  9
$PUCSYDIR
 10
0.0
 20
1.0
 30
0.0
  9
$USERI1
 70
     0
  9
$USERI2
 70
     0
  9
$USERI3
 70
     0
  9
$USERI4
 70
     0
  9
$USERI5
 70
     0
  9
$USERR1
 40
0.0
  9
$USERR2
 40
0.0
  9
$USERR3
 40
0.0
  9
$USERR4
 40
0.0
  9
$USERR5
 40
0.0
  9
$WORLDVIEW
 70
     1
  9
$SHADEDGE
 70
     3
  9
$SHADEDIF
 70
    70
  9
$TILEMODE
 70
     1
  9
$MAXACTVP
 70
    16
  9
$PINSBASE
 10
0.0
 20
0.0
 30
0.0
  9
$PLIMCHECK
 70
     0
  9
$PEXTMIN
 10
1.000000E+20
 20
1.000000E+20
 30
1.000000E+20
  9
$PEXTMAX
 10
-1.000000E+20
 20
-1.000000E+20
 30
-1.000000E+20
  9
$PLIMMIN
 10
-315.0
 20
-148.5
  9
$PLIMMAX
 10
525.0
 20
445.5
  9
$UNITMODE
 70
     0
  9
$VISRETAIN
 70
     0
  9
$PLINEGEN
 70
     1
  9
$PSLTSCALE
 70
     0
  9
$TREEDEPTH
 70
  3020
  9
$DWGCODEPAGE
  3
dos850
  0
ENDSEC
  0
SECTION
  2
TABLES
  0
TABLE
  2
VPORT
 70
     1
  0
VPORT
  2
*ACTIVE
 70
     0
 10
0.0
 20
0.0
 11
1.0
 21
1.0
 12
420.0
 22
297.0
 13
0.0
 23
0.0
 14
1.0
 24
1.0
 15
0.0
 25
0.0
 16
0.0
 26
0.0
 36
1.0
 17
-315.0
 27
-148.5
 37
0.0
 40
594.0
 41
1.604229
 42
50.0
 43
0.0
 44
0.0
 50
0.0
 51
0.0
 71
     0
 72
   100
 73
     1
 74
     1
 75
     0
 76
     0
 77
     0
 78
     0
  0
ENDTAB
  0
TABLE
  2
LTYPE
 70
     3
  0
LTYPE
  2
CONTINUOUS
 70
    64
  3
Solid line
 72
    65
 73
     0
 40
0.0
  0
LTYPE
  2
DASHDOT
 70
    64
  3
__ . __ . __ . __ . __
 72
    65
 73
     4
 40
7.5
 49
5.0
 49
-1.25
 49
0.0
 49
-1.25
  0
LTYPE
  2
CENTER
 70
    64
  3
__ . __ . __ . __ . __
 72
    65
 73
     4
 40
7.5
 49
5.0
 49
-1.25
 49
0.0
 49
-1.25
  0
ENDTAB
  0
TABLE
  2
LAYER
 70
    10
  0
LAYER
  2
0
 70
     0
 62
     7
  6
CONTINUOUS
  0
LAYER
  2
LC-INFO-1-2-MM-A3-0
 70
     1
 62
    -1
  6
CONTINUOUS
  0
LAYER
  2
LC-006-003-MTH-0
 70
     0
 62
     2
  6
CONTINUOUS
  0
LAYER
  2
LC-005-003-----0
 70
     0
 62
     2
  6
CONTINUOUS
  0
LAYER
  2
LC-007-003-MTG-0
 70
     0
 62
     2
  6
CONTINUOUS
  0
LAYER
  2
LC-004-000-----0
 70
     0
 62
     7
  6
CONTINUOUS
  0
LAYER
  2
LC-001-002-----0
 70
     0
 62
     1
  6
CONTINUOUS
  0
LAYER
  2
LC-002-006-MLN-0
 70
     0
 62
     2
  6
CENTER
  0
LAYER
  2
LC-003-002-RND-0
 70
     0
 62
     1
  6
CONTINUOUS
  0
LAYER
  2
LC-000
 70
     0
 62
     7
  6
CONTINUOUS
  0
ENDTAB
  0
TABLE
  2
STYLE
 70
     3
  0
STYLE
  2
STANDARD
 70
     0
 40
0.0
 41
1.0
 50
0.0
 71
     0
 42
0.0
  3
txt
  4

  0
STYLE
  2
LC-TXTSTYLE-150-400-0-0-A1
 70
    64
 40
0.0
 41
1.0
 50
15.0
 71
     0
 42
3.5
  3
Arial
  4

  0
STYLE
  2
LC-STANDARD
 70
    64
 40
0.0
 41
1.0
 50
0.0
 71
     0
 42
3.5
  3
MONOTXT
  4

  0
ENDTAB
  0
TABLE
  2
VIEW
 70
     0
  0
ENDTAB
  0
TABLE
  2
UCS
 70
     0
  0
ENDTAB
  0
TABLE
  2
APPID
 70
     1
  0
APPID
  2
ACAD
 70
     0
  0
ENDTAB
  0
TABLE
  2
DIMSTYLE
 70
     4
  0
DIMSTYLE
  2
STANDARD
 70
     0
  3

  4

  5

  6

  7

 40
1.0
 41
0.18
 42
0.0625
 43
0.38
 44
0.18
 45
0.0
 46
0.0
 47
0.0
 48
0.0
 71
     0
 72
     0
 73
     1
 74
     1
 75
     0
 76
     0
 77
     0
 78
     0
140
0.18
141
0.09
142
0.0
143
25.4
144
1.0
145
0.0
146
1.0
147
0.09
170
     0
171
     2
172
     0
173
     0
174
     0
175
     0
176
     0
177
     0
178
     0
  0
DIMSTYLE
  2
LC-STANDARD
 70
     0
  3

  4

  5

  6

  7

 40
1.0
 41
3.5
 42
0.0
 43
7.5
 44
1.8
 45
0.0
 46
0.0
 47
0.0
 48
0.0
 71
     0
 72
     0
 73
     0
 74
     0
 75
     0
 76
     0
 77
     1
 78
     8
140
3.5
141
0.0
142
0.0
143
25.4
144
1.0
145
0.0
146
0.71
147
1.5
170
     0
171
     2
172
     1
173
     0
174
     0
175
     0
176
     0
177
     0
178
     3
  0
DIMSTYLE
  2
LC-DIM-L-0140-01-02
 70
     0
  3

  4

  5

  6

  7

 40
2.0
 41
3.5
 42
0.0
 43
7.5
 44
1.8
 45
0.0
 46
0.0
 47
0.0
 48
0.0
 71
     0
 72
     0
 73
     0
 74
     0
 75
     0
 76
     0
 77
     1
 78
     8
140
14.0
141
0.0
142
0.0
143
25.4
144
1.0
145
0.0
146
0.71
147
1.5
170
     0
171
     2
172
     0
173
     0
174
     0
175
     0
176
     2
177
     2
178
     8
  0
DIMSTYLE
  2
LC-DIM-L-0140-02-02
 70
     0
  3

  4

  5

  6

  7

 40
2.0
 41
3.5
 42
0.0
 43
7.5
 44
1.8
 45
0.0
 46
0.0
 47
0.0
 48
0.0
 71
     0
 72
     0
 73
     0
 74
     0
 75
     0
 76
     0
 77
     1
 78
     8
140
14.0
141
0.0
142
0.0
143
25.4
144
1.0
145
0.0
146
0.71
147
1.5
170
     0
171
     2
172
     0
173
     0
174
     0
175
     0
176
     2
177
     2
178
     8
  0
ENDTAB
  0
ENDSEC
  0
SECTION
  2
BLOCKS
  0
BLOCK
  8
0
  5
24
  2
BLK1
 70
    64
 10
0.0
 20
0.0
 30
0.0
  3
BLK1
  0
ENDBLK
  8
0
  5
25
  0
BLOCK
  8
0
  5
27
  2
BLK2
 70
    64
 10
0.0
 20
0.0
 30
0.0
  3
BLK2
  0
ENDBLK
  8
0
  5
28
  0
BLOCK
  8
0
  5
2A
  2
*D2
 70
    65
 10
0.0
 20
0.0
 30
0.0
  3
*D2
  0
LINE
  8
LC-006-003-MTH-0
  6
CONTINUOUS
  5
2C
 10
105.552666
 20
211.147798
 30
0.0
 11
22.4
 21
211.147798
 31
0.0
  0
LINE
  8
LC-006-003-MTH-0
  6
CONTINUOUS
  5
2D
 10
114.802666
 20
241.796432
 30
0.0
 11
22.4
 21
241.796432
 31
0.0
  0
LINE
  8
LC-005-003-----0
  6
CONTINUOUS
  5
2F
 10
42.854733
 20
183.387342
 30
0.0
 11
39.2
 21
211.147798
 31
0.0
  0
LINE
  8
LC-005-003-----0
  6
CONTINUOUS
  5
30
 10
39.2
 20
211.147798
 30
0.0
 11
35.545267
 21
183.387342
 31
0.0
  0
LINE
  8
LC-005-003-----0
  6
CONTINUOUS
  5
31
 10
35.545267
 20
183.387342
 30
0.0
 11
42.854733
 21
183.387342
 31
0.0
  0
LINE
  8
LC-005-003-----0
  6
CONTINUOUS
  5
32
 10
41.904503
 20
183.325061
 30
0.0
 11
39.2
 21
203.867798
 31
0.0
  0
LINE
  8
LC-005-003-----0
  6
CONTINUOUS
  5
33
 10
39.2
 20
203.867798
 30
0.0
 11
36.495497
 21
183.325061
 31
0.0
  0
LINE
  8
LC-005-003-----0
  6
CONTINUOUS
  5
34
 10
40.954272
 20
183.262779
 30
0.0
 11
39.2
 21
196.587798
 31
0.0
  0
LINE
  8
LC-005-003-----0
  6
CONTINUOUS
  5
35
 10
39.2
 20
196.587798
 30
0.0
 11
37.445728
 21
183.262779
 31
0.0
  0
LINE
  8
LC-005-003-----0
  6
CONTINUOUS
  5
36
 10
40.004041
 20
183.200498
 30
0.0
 11
39.2
 21
189.307798
 31
0.0
  0
LINE
  8
LC-005-003-----0
  6
CONTINUOUS
  5
37
 10
39.2
 20
189.307798
 30
0.0
 11
38.395959
 21
183.200498
 31
0.0
  0
LINE
  8
LC-005-003-----0
  6
CONTINUOUS
  5
38
 10
35.545267
 20
269.556888
 30
0.0
 11
39.2
 21
241.796432
 31
0.0
  0
LINE
  8
LC-005-003-----0
  6
CONTINUOUS
  5
39
 10
39.2
 20
241.796432
 30
0.0
 11
42.854733
 21
269.556888
 31
0.0
  0
LINE
  8
LC-005-003-----0
  6
CONTINUOUS
  5
3A
 10
42.854733
 20
269.556888
 30
0.0
 11
35.545267
 21
269.556888
 31
0.0
  0
LINE
  8
LC-005-003-----0
  6
CONTINUOUS
  5
3B
 10
36.495497
 20
269.619169
 30
0.0
 11
39.2
 21
249.076432
 31
0.0
  0
LINE
  8
LC-005-003-----0
  6
CONTINUOUS
  5
3C
 10
39.2
 20
249.076432
 30
0.0
 11
41.904503
 21
269.619169
 31
0.0
  0
LINE
  8
LC-005-003-----0
  6
CONTINUOUS
  5
3D
 10
37.445728
 20
269.68145
 30
0.0
 11
39.2
 21
256.356432
 31
0.0
  0
LINE
  8
LC-005-003-----0
  6
CONTINUOUS
  5
3E
 10
39.2
 20
256.356432
 30
0.0
 11
40.954272
 21
269.68145
 31
0.0
  0
LINE
  8
LC-005-003-----0
  6
CONTINUOUS
  5
3F
 10
38.395959
 20
269.743732
 30
0.0
 11
39.2
 21
263.636432
 31
0.0
  0
LINE
  8
LC-005-003-----0
  6
CONTINUOUS
  5
40
 10
39.2
 20
263.636432
 30
0.0
 11
40.004041
 21
269.743732
 31
0.0
  0
LINE
  8
LC-007-003-MTG-0
  6
CONTINUOUS
  5
42
 10
39.2
 20
101.380098
 30
0.0
 11
39.2
 21
280.996432
 31
0.0
  0
TEXT
  8
LC-005-003-----0
  6
CONTINUOUS
 62
     8
  5
43
 10
31.372446
 20
115.808258
 30
0.0
 40
28.0
  1
30,6
 50
90.0
 41
0.9
 51
15.0
  7
LC-TXTSTYLE-150-400-0-0-A0
 72
     2
 11
31.372446
 21
177.415958
 31
0.0
  0
ENDBLK
  8
0
  5
44
  0
BLOCK
  8
0
  5
46
  2
*D3
 70
    65
 10
0.0
 20
0.0
 30
0.0
  3
*D3
  0
LINE
  8
LC-006-003-MTH-0
  6
CONTINUOUS
  5
47
 10
105.552666
 20
211.147798
 30
0.0
 11
105.552666
 21
179.2
 31
0.0
  0
LINE
  8
LC-006-003-MTH-0
  6
CONTINUOUS
  5
48
 10
124.052666
 20
211.147798
 30
0.0
 11
124.052666
 21
179.2
 31
0.0
  0
LINE
  8
LC-005-003-----0
  6
CONTINUOUS
  5
49
 10
77.79221
 20
192.345267
 30
0.0
 11
105.552666
 21
196.0
 31
0.0
  0
LINE
  8
LC-005-003-----0
  6
CONTINUOUS
  5
4A
 10
105.552666
 20
196.0
 30
0.0
 11
77.79221
 21
199.654733
 31
0.0
  0
LINE
  8
LC-005-003-----0
  6
CONTINUOUS
  5
4B
 10
77.79221
 20
199.654733
 30
0.0
 11
77.79221
 21
192.345267
 31
0.0
  0
LINE
  8
LC-005-003-----0
  6
CONTINUOUS
  5
4C
 10
77.729929
 20
193.295497
 30
0.0
 11
98.272666
 21
196.0
 31
0.0
  0
LINE
  8
LC-005-003-----0
  6
CONTINUOUS
  5
4D
 10
98.272666
 20
196.0
 30
0.0
 11
77.729929
 21
198.704503
 31
0.0
  0
LINE
  8
LC-005-003-----0
  6
CONTINUOUS
  5
4E
 10
77.667647
 20
194.245728
 30
0.0
 11
90.992666
 21
196.0
 31
0.0
  0
LINE
  8
LC-005-003-----0
  6
CONTINUOUS
  5
4F
 10
90.992666
 20
196.0
 30
0.0
 11
77.667647
 21
197.754272
 31
0.0
  0
LINE
  8
LC-005-003-----0
  6
CONTINUOUS
  5
50
 10
77.605366
 20
195.195959
 30
0.0
 11
83.712666
 21
196.0
 31
0.0
  0
LINE
  8
LC-005-003-----0
  6
CONTINUOUS
  5
51
 10
83.712666
 20
196.0
 30
0.0
 11
77.605366
 21
196.804041
 31
0.0
  0
LINE
  8
LC-005-003-----0
  6
CONTINUOUS
  5
52
 10
151.813122
 20
199.654733
 30
0.0
 11
124.052666
 21
196.0
 31
0.0
  0
LINE
  8
LC-005-003-----0
  6
CONTINUOUS
  5
53
 10
124.052666
 20
196.0
 30
0.0
 11
151.813122
 21
192.345267
 31
0.0
  0
LINE
  8
LC-005-003-----0
  6
CONTINUOUS
  5
54
 10
151.813122
 20
192.345267
 30
0.0
 11
151.813122
 21
199.654733
 31
0.0
  0
LINE
  8
LC-005-003-----0
  6
CONTINUOUS
  5
55
 10
151.875404
 20
198.704503
 30
0.0
 11
131.332666
 21
196.0
 31
0.0
  0
LINE
  8
LC-005-003-----0
  6
CONTINUOUS
  5
56
 10
131.332666
 20
196.0
 30
0.0
 11
151.875404
 21
193.295497
 31
0.0
  0
LINE
  8
LC-005-003-----0
  6
CONTINUOUS
  5
57
 10
151.937685
 20
197.754272
 30
0.0
 11
138.612666
 21
196.0
 31
0.0
  0
LINE
  8
LC-005-003-----0
  6
CONTINUOUS
  5
58
 10
138.612666
 20
196.0
 30
0.0
 11
151.937685
 21
194.245728
 31
0.0
  0
LINE
  8
LC-005-003-----0
  6
CONTINUOUS
  5
59
 10
151.999966
 20
196.804041
 30
0.0
 11
145.892666
 21
196.0
 31
0.0
  0
LINE
  8
LC-005-003-----0
  6
CONTINUOUS
  5
5A
 10
145.892666
 20
196.0
 30
0.0
 11
151.999966
 21
195.195959
 31
0.0
  0
LINE
  8
LC-007-003-MTG-0
  6
CONTINUOUS
  5
5B
 10
66.352666
 20
196.0
 30
0.0
 11
258.356766
 21
196.0
 31
0.0
  0
TEXT
  8
LC-005-003-----0
  6
CONTINUOUS
 62
     8
  5
5C
 10
166.480826
 20
203.827554
 30
0.0
 40
28.0
  1
Ø18,5
 41
0.9
 51
15.0
  7
LC-TXTSTYLE-150-400-0-0-A0
  0
ENDBLK
  8
0
  5
5D
  0
BLOCK
  8
0
  5
5F
  2
*D4
 70
    65
 10
0.0
 20
0.0
 30
0.0
  3
*D4
  0
LINE
  8
LC-006-003-MTH-0
  6
CONTINUOUS
  5
60
 10
94.304284
 20
120.546959
 30
0.0
 11
94.303425
 21
173.601527
 31
0.0
  0
LINE
  8
LC-006-003-MTH-0
  6
CONTINUOUS
  5
61
 10
135.303629
 20
120.547623
 30
0.0
 11
135.30277
 21
173.602191
 31
0.0
  0
LINE
  8
LC-005-003-----0
  6
CONTINUOUS
  5
62
 10
66.5433
 20
153.146344
 30
0.0
 11
94.303697
 21
156.801527
 31
0.0
  0
LINE
  8
LC-005-003-----0
  6
CONTINUOUS
  5
63
 10
94.303697
 20
156.801527
 30
0.0
 11
66.543182
 21
160.455811
 31
0.0
  0
LINE
  8
LC-005-003-----0
  6
CONTINUOUS
  5
64
 10
66.543182
 20
160.455811
 30
0.0
 11
66.5433
 21
153.146344
 31
0.0
  0
LINE
  8
LC-005-003-----0
  6
CONTINUOUS
  5
65
 10
66.481004
 20
154.096574
 30
0.0
 11
87.023697
 21
156.801409
 31
0.0
  0
LINE
  8
LC-005-003-----0
  6
CONTINUOUS
  5
66
 10
87.023697
 20
156.801409
 30
0.0
 11
66.480916
 21
159.505579
 31
0.0
  0
LINE
  8
LC-005-003-----0
  6
CONTINUOUS
  5
67
 10
66.418707
 20
155.046803
 30
0.0
 11
79.743697
 21
156.801291
 31
0.0
  0
LINE
  8
LC-005-003-----0
  6
CONTINUOUS
  5
68
 10
79.743697
 20
156.801291
 30
0.0
 11
66.41865
 21
158.555347
 31
0.0
  0
LINE
  8
LC-005-003-----0
  6
CONTINUOUS
  5
69
 10
66.35641
 20
155.997033
 30
0.0
 11
72.463697
 21
156.801173
 31
0.0
  0
LINE
  8
LC-005-003-----0
  6
CONTINUOUS
  5
6A
 10
72.463697
 20
156.801173
 30
0.0
 11
66.356384
 21
157.605116
 31
0.0
  0
LINE
  8
LC-005-003-----0
  6
CONTINUOUS
  5
6B
 10
163.063439
 20
160.457374
 30
0.0
 11
135.303042
 21
156.802191
 31
0.0
  0
LINE
  8
LC-005-003-----0
  6
CONTINUOUS
  5
6C
 10
135.303042
 20
156.802191
 30
0.0
 11
163.063558
 21
153.147907
 31
0.0
  0
LINE
  8
LC-005-003-----0
  6
CONTINUOUS
  5
6D
 10
163.063558
 20
153.147907
 30
0.0
 11
163.063439
 21
160.457374
 31
0.0
  0
LINE
  8
LC-005-003-----0
  6
CONTINUOUS
  5
6E
 10
163.125736
 20
159.507144
 30
0.0
 11
142.583042
 21
156.802309
 31
0.0
  0
LINE
  8
LC-005-003-----0
  6
CONTINUOUS
  5
6F
 10
142.583042
 20
156.802309
 30
0.0
 11
163.125824
 21
154.098139
 31
0.0
  0
LINE
  8
LC-005-003-----0
  6
CONTINUOUS
  5
70
 10
163.188033
 20
158.556914
 30
0.0
 11
149.863042
 21
156.802427
 31
0.0
  0
LINE
  8
LC-005-003-----0
  6
CONTINUOUS
  5
71
 10
149.863042
 20
156.802427
 30
0.0
 11
163.18809
 21
155.04837
 31
0.0
  0
LINE
  8
LC-005-003-----0
  6
CONTINUOUS
  5
72
 10
163.25033
 20
157.606685
 30
0.0
 11
157.143042
 21
156.802544
 31
0.0
  0
LINE
  8
LC-005-003-----0
  6
CONTINUOUS
  5
73
 10
157.143042
 20
156.802544
 30
0.0
 11
163.250356
 21
155.998602
 31
0.0
  0
LINE
  8
LC-007-003-MTG-0
  6
CONTINUOUS
  5
74
 10
55.103697
 20
156.800892
 30
0.0
 11
218.667442
 21
156.803541
 31
0.0
  0
TEXT
  8
LC-005-003-----0
  6
CONTINUOUS
 62
     8
  5
75
 10
177.731338
 20
164.630198
 30
0.0
 40
28.0
  1
41
 41
0.9
 51
15.0
  7
LC-TXTSTYLE-150-400-0-0-A0
  0
ENDBLK
  8
0
  5
76
  0
ENDSEC
  0
SECTION
  2
ENTITIES
  0
VIEWPORT
  8
LC-000
  5
B1
 67
     1
 68
     1
 10
420.0
 20
297.0
 30
0.0
 40
840.0
 41
594.0
 69
     1
1001
ACAD
1000
MVIEW
1002
{
1070
    16
1010
0.0
1020
0.0
1030
0.0
1010
0.0
1020
0.0
1030
1.0
1040
0.0
1040
594.0
1040
420.0
1040
297.0
1040
50.0
1040
0.0
1040
0.0
1070
     0
1070
   100
1070
     1
1070
     1
1070
     0
1070
     0
1070
     0
1070
     0
1040
0.0
1040
0.0
1040
0.0
1040
1.0
1040
1.0
1040
0.0
1040
0.0
1070
     0
1002
{
1002
}
1002
}
  0
VIEWPORT
  8
0
  5
B2
 67
     1
 68
     1
 10
0.0
 20
0.0
 30
0.0
 40
0.0
 41
0.0
 69
     1
1001
ACAD
1000
MVIEW
1002
{
1070
    16
1010
0.0
1020
0.0
1030
0.0
1010
0.0
1020
0.0
1030
1.0
1040
0.0
1040
594.0
1040
0.0
1040
0.0
1040
50.0
1040
0.0
1040
0.0
1070
     0
1070
   100
1070
     0
1070
     1
1070
     0
1070
     0
1070
     0
1070
     0
1040
0.0
1040
0.0
1040
0.0
1040
0.5
1040
0.5
1040
0.5
1040
0.5
1070
     0
1002
{
1002
}
1002
}
  0
INSERT
  8
LC-004-000-----0
  5
78
  2
BLK1
 10
0.0
 20
0.0
 30
0.0
  0
INSERT
  8
LC-004-000-----0
  5
79
  2
BLK2
 10
0.0
 20
0.0
 30
0.0
  0
DIMENSION
  8
LC-005-003-----0
  6
CONTINUOUS
  5
7A
  2
*D2
 10
39.2
 20
168.102
 30
0.0
 11
39.2
 21
168.102
 31
0.0
 13
105.552666
 23
211.147798
 33
0.0
 14
114.802666
 24
241.796432
 34
0.0
 50
90.0
  3
LC-DIM-L-0140-01-02
  0
DIMENSION
  8
LC-005-003-----0
  6
CONTINUOUS
  5
7B
  2
*D3
 10
152.794633
 20
196.0
 30
0.0
 11
152.794633
 21
196.0
 31
0.0
  1
%%c<>
 13
105.552666
 23
211.147798
 33
0.0
 14
124.052666
 24
211.147798
 34
0.0
  3
LC-DIM-L-0140-02-02
  0
DIMENSION
  8
LC-005-003-----0
  6
CONTINUOUS
  5
7C
  2
*D4
 10
165.73885
 20
156.802684
 30
0.0
 11
165.73885
 21
156.802684
 31
0.0
 70
     1
 13
94.304284
 23
120.546959
 33
0.0
 14
135.303629
 24
120.547623
 34
0.0
  3
LC-DIM-L-0140-02-02
  0
LINE
  8
LC-001-002-----0
  6
CONTINUOUS
  5
7E
 10
113.302564
 20
233.546432
 30
0.0
 11
116.302564
 21
233.546432
 31
0.0
  0
ARC
  8
LC-001-002-----0
  6
CONTINUOUS
  5
7F
 10
113.302564
 20
234.546432
 30
0.0
 40
1.0
 50
180.0
 51
270.000058
  0
LINE
  8
LC-001-002-----0
  6
CONTINUOUS
  5
80
 10
112.302564
 20
237.546432
 30
0.0
 11
112.302564
 21
234.546432
 31
0.0
  0
ARC
  8
LC-001-002-----0
  6
CONTINUOUS
  5
81
 10
116.302564
 20
234.546432
 30
0.0
 40
1.0
 50
270.000058
 51
0.0
  0
LINE
  8
LC-001-002-----0
  6
CONTINUOUS
  5
82
 10
117.302564
 20
234.546432
 30
0.0
 11
117.302564
 21
237.546432
 31
0.0
  0
ARC
  8
LC-001-002-----0
  6
CONTINUOUS
  5
83
 10
116.302564
 20
237.546432
 30
0.0
 40
1.0
 50
0.0
 51
90.0
  0
LINE
  8
LC-001-002-----0
  6
CONTINUOUS
  5
84
 10
116.302564
 20
238.546432
 30
0.0
 11
113.302564
 21
238.546432
 31
0.0
  0
ARC
  8
LC-001-002-----0
  6
CONTINUOUS
  5
85
 10
113.302564
 20
237.546432
 30
0.0
 40
1.0
 50
90.0
 51
179.999848
  0
ARC
  8
LC-001-002-----0
  6
CONTINUOUS
  5
86
 10
110.302564
 20
236.913084
 30
0.0
 40
2.0
 50
0.0
 51
79.660109
  0
LINE
  8
LC-001-002-----0
  6
CONTINUOUS
  5
87
 10
135.302564
 20
235.0162
 30
0.0
 11
135.302564
 21
237.076663
 31
0.0
  0
ARC
  8
LC-001-002-----0
  6
CONTINUOUS
  5
88
 10
133.302564
 20
235.0162
 30
0.0
 40
2.0
 50
286.72686
 51
0.0
  0
ARC
  8
LC-001-002-----0
  6
CONTINUOUS
  5
89
 10
114.802564
 20
296.575278
 30
0.0
 40
66.278846
 50
253.273047
 51
286.726801
  0
ARC
  8
LC-001-002-----0
  6
CONTINUOUS
  5
8A
 10
133.302782
 20
235.179941
 30
0.0
 40
2.0
 50
280.339912
 51
359.999963
  0
ARC
  8
LC-001-002-----0
  6
CONTINUOUS
  5
8B
 10
114.802564
 20
175.517585
 30
0.0
 40
66.278846
 50
73.273199
 51
89.999912
  0
ARC
  8
LC-001-002-----0
  6
CONTINUOUS
  5
8C
 10
133.302783
 20
236.913245
 30
0.0
 40
2.0
 50
359.999963
 51
79.659997
  0
ARC
  8
LC-001-002-----0
  6
CONTINUOUS
  5
8D
 10
126.302807
 20
273.546598
 30
0.0
 40
41.0
 50
259.65992
 51
280.339853
  0
ARC
  8
LC-001-002-----0
  6
CONTINUOUS
  5
8E
 10
119.302782
 20
235.17995
 30
0.0
 40
2.0
 50
179.999963
 51
259.659995
  0
ARC
  8
LC-001-002-----0
  6
CONTINUOUS
  5
8F
 10
119.302783
 20
236.913255
 30
0.0
 40
2.0
 50
100.339835
 51
179.999963
  0
ARC
  8
LC-001-002-----0
  6
CONTINUOUS
  5
90
 10
126.302758
 20
198.546598
 30
0.0
 40
41.0
 50
79.660072
 51
100.339835
  0
LINE
  8
LC-001-002-----0
  6
CONTINUOUS
  5
91
 10
94.302564
 20
235.0162
 30
0.0
 11
94.302564
 21
237.076663
 31
0.0
  0
ARC
  8
LC-001-002-----0
  6
CONTINUOUS
  5
92
 10
96.302564
 20
235.0162
 30
0.0
 40
2.0
 50
180.0
 51
253.273047
  0
ARC
  8
LC-001-002-----0
  6
CONTINUOUS
  5
93
 10
96.302564
 20
237.076663
 30
0.0
 40
2.0
 50
106.726782
 51
180.0
  0
ARC
  8
LC-001-002-----0
  6
CONTINUOUS
  5
94
 10
96.302564
 20
235.179779
 30
0.0
 40
2.0
 50
180.0
 51
259.659957
  0
ARC
  8
LC-001-002-----0
  6
CONTINUOUS
  5
95
 10
103.302564
 20
273.546432
 30
0.0
 40
41.0
 50
259.660109
 51
280.339949
  0
ARC
  8
LC-001-002-----0
  6
CONTINUOUS
  5
96
 10
96.302564
 20
236.913084
 30
0.0
 40
2.0
 50
100.339872
 51
180.0
  0
ARC
  8
LC-001-002-----0
  6
CONTINUOUS
  5
97
 10
103.302564
 20
198.546432
 30
0.0
 40
41.0
 50
79.660109
 51
100.339891
  0
ARC
  8
LC-001-002-----0
  6
CONTINUOUS
  5
98
 10
110.302564
 20
235.179779
 30
0.0
 40
2.0
 50
280.339949
 51
0.0
  0
LINE
  8
LC-001-002-----0
  6
CONTINUOUS
  5
99
 10
124.052666
 20
211.147798
 30
0.0
 11
105.552666
 21
211.147798
 31
0.0
  0
ARC
  8
LC-001-002-----0
  6
CONTINUOUS
  5
9A
 10
133.302564
 20
237.076663
 30
0.0
 40
2.0
 50
0.0
 51
73.273199
  0
LINE
  8
LC-002-006-MLN-0
  6
DASHDOT
  5
9E
 10
114.802666
 20
251.796432
 30
0.0
 11
114.802666
 21
201.147798
 31
0.0
  0
ARC
  8
LC-001-002-----0
  6
CONTINUOUS
  5
9F
 10
114.802564
 20
175.517585
 30
0.0
 40
66.278846
 50
89.999912
 51
106.726782
  0
LINE
  8
LC-001-002-----0
  6
CONTINUOUS
  5
A0
 10
105.313271
 20
230.13174
 30
0.0
 11
105.552666
 21
211.147798
 31
0.0
  0
LINE
  8
LC-001-002-----0
  6
CONTINUOUS
  5
A1
 10
124.292061
 20
230.131772
 30
0.0
 11
124.052666
 21
211.147798
 31
0.0
  0
ARC
  8
LC-003-002-RND-0
  6
CONTINUOUS
  5
A3
 10
125.291982
 20
230.119162
 30
0.0
 40
1.0
 50
98.969553
 51
179.277517
  0
ARC
  8
LC-003-002-RND-0
  6
CONTINUOUS
  5
A4
 10
104.313351
 20
230.11913
 30
0.0
 40
1.0
 50
0.722483
 51
81.030622
  0
CIRCLE
  8
LC-001-002-----0
  6
CONTINUOUS
  5
A5
 10
114.803748
 20
120.546959
 30
0.0
 40
9.4
  0
ARC
  8
LC-001-002-----0
  6
CONTINUOUS
  5
A6
 10
140.965956
 20
146.710653
 30
0.0
 40
25.0
 50
197.065772
 51
252.93769
  0
LINE
  8
LC-002-006-MLN-0
  6
DASHDOT
  5
A7
 10
145.303629
 20
120.546959
 30
0.0
 11
84.304284
 21
120.546959
 31
0.0
  0
LINE
  8
LC-002-006-MLN-0
  6
DASHDOT
  5
A8
 10
114.803748
 20
151.046632
 30
0.0
 11
114.803748
 21
90.047287
 31
0.0
  0
ARC
  8
LC-001-002-----0
  6
CONTINUOUS
  5
A9
 10
88.640263
 20
146.708959
 30
0.0
 40
25.0
 50
287.065772
 51
342.93769
  0
ARC
  8
LC-001-002-----0
  6
CONTINUOUS
  5
AA
 10
88.641958
 20
94.383266
 30
0.0
 40
25.0
 50
17.065772
 51
72.93769
  0
ARC
  8
LC-001-002-----0
  6
CONTINUOUS
  5
AB
 10
140.967651
 20
94.38496
 30
0.0
 40
25.0
 50
107.066021
 51
162.93769
  0
ARC
  8
LC-001-002-----0
  6
CONTINUOUS
  5
AC
 10
114.80337
 20
138.678972
 30
0.0
 40
2.36766
 50
17.066021
 51
162.93769
  0
ARC
  8
LC-001-002-----0
  6
CONTINUOUS
  5
AD
 10
96.671945
 20
120.546372
 30
0.0
 40
2.36766
 50
107.066021
 51
252.93769
  0
ARC
  8
LC-001-002-----0
  6
CONTINUOUS
  5
AE
 10
114.804544
 20
102.414947
 30
0.0
 40
2.36766
 50
197.066021
 51
342.93769
  0
ARC
  8
LC-001-002-----0
  6
CONTINUOUS
  5
AF
 10
132.935969
 20
120.547547
 30
0.0
 40
2.36766
 50
287.066021
 51
72.93769
  0
ENDSEC
  0
EOF
