  0
SECTION
  2
HEADER
  9
$ACADVER
  1
AC1015
  9
$ACADMAINTVER
 70
     6
  9
$DWGCODEPAGE
  3
ANSI_1252
  9
$INSBASE
 10
0.0
 20
0.0
 30
0.0
  9
$EXTMIN
 10
0.0
 20
0.0
 30
0.0
  9
$EXTMAX
 10
840.0
 20
594.0
 30
0.0
  9
$LIMMIN
 10
0.0
 20
0.0
  9
$LIMMAX
 10
840.0
 20
594.0
  9
$ORTHOMODE
 70
     0
  9
$REGENMODE
 70
     1
  9
$FILLMODE
 70
     1
  9
$QTEXTMODE
 70
     0
  9
$MIRRTEXT
 70
     1
  9
$LTSCALE
 40
2.0
  9
$ATTMODE
 70
     1
  9
$TEXTSIZE
 40
2.5
  9
$TRACEWID
 40
1.0
  9
$TEXTSTYLE
  7
Standard
  9
$CLAYER
  8
0
  9
$CELTYPE
  6
ByLayer
  9
$CECOLOR
 62
     7
  9
$CELTSCALE
 40
1.0
  9
$DISPSILH
 70
     0
  9
$DIMSCALE
 40
2.0
  9
$DIMASZ
 40
3.5
  9
$DIMEXO
 40
0.625
  9
$DIMDLI
 40
3.75
  9
$DIMRND
 40
0.0
  9
$DIMDLE
 40
0.0
  9
$DIMEXE
 40
1.25
  9
$DIMTP
 40
0.0
  9
$DIMTM
 40
0.0
  9
$DIMTXT
 40
3.5
  9
$DIMCEN
 40
2.5
  9
$DIMTSZ
 40
0.0
  9
$DIMTOL
 70
     0
  9
$DIMLIM
 70
     0
  9
$DIMTIH
 70
     0
  9
$DIMTOH
 70
     0
  9
$DIMSE1
 70
     0
  9
$DIMSE2
 70
     0
  9
$DIMTAD
 70
     1
  9
$DIMZIN
 70
     8
  9
$DIMBLK
  1

  9
$DIMASO
 70
     1
  9
$DIMSHO
 70
     1
  9
$DIMPOST
  1

  9
$DIMAPOST
  1

  9
$DIMALT
 70
     0
  9
$DIMALTD
 70
     3
  9
$DIMALTF
 40
0.03937
  9
$DIMLFAC
 40
1.0
  9
$DIMTOFL
 70
     1
  9
$DIMTVP
 40
0.0
  9
$DIMTIX
 70
     0
  9
$DIMSOXD
 70
     0
  9
$DIMSAH
 70
     0
  9
$DIMBLK1
  1

  9
$DIMBLK2
  1

  9
$DIMSTYLE
  2
ISO-25
  9
$DIMCLRD
 70
     0
  9
$DIMCLRE
 70
     0
  9
$DIMCLRT
 70
     0
  9
$DIMTFAC
 40
1.0
  9
$DIMGAP
 40
0.625
  9
$DIMJUST
 70
     0
  9
$DIMSD1
 70
     0
  9
$DIMSD2
 70
     0
  9
$DIMTOLJ
 70
     0
  9
$DIMTZIN
 70
     8
  9
$DIMALTZ
 70
     0
  9
$DIMALTTZ
 70
     0
  9
$DIMUPT
 70
     0
  9
$DIMDEC
 70
     2
  9
$DIMTDEC
 70
     2
  9
$DIMALTU
 70
     2
  9
$DIMALTTD
 70
     3
  9
$DIMTXSTY
  7
Standard
  9
$DIMAUNIT
 70
     0
  9
$DIMADEC
 70
     0
  9
$DIMALTRND
 40
0.0
  9
$DIMAZIN
 70
     0
  9
$DIMDSEP
 70
    44
  9
$DIMATFIT
 70
     3
  9
$DIMFRAC
 70
     0
  9
$DIMLDRBLK
  1

  9
$DIMLUNIT
 70
     2
  9
$DIMLWD
 70
    -2
  9
$DIMLWE
 70
    -2
  9
$DIMTMOVE
 70
     0
  9
$LUNITS
 70
     2
  9
$LUPREC
 70
     4
  9
$SKETCHINC
 40
1.0
  9
$FILLETRAD
 40
10.0
  9
$AUNITS
 70
     0
  9
$AUPREC
 70
     0
  9
$MENU
  1
.
  9
$ELEVATION
 40
0.0
  9
$PELEVATION
 40
0.0
  9
$THICKNESS
 40
0.0
  9
$LIMCHECK
 70
     0
  9
$CHAMFERA
 40
10.0
  9
$CHAMFERB
 40
10.0
  9
$CHAMFERC
 40
20.0
  9
$CHAMFERD
 40
0.0
  9
$SKPOLY
 70
     0
  9
$TDCREATE
 40
2456391.515670625
  9
$TDUCREATE
 40
2456391.432337292
  9
$TDUPDATE
 40
2456391.515670637
  9
$TDUUPDATE
 40
2456391.432337303
  9
$TDINDWG
 40
0.0000000116
  9
$TDUSRTIMER
 40
0.0000000116
  9
$USRTIMER
 70
     1
  9
$ANGBASE
 50
0.0
  9
$ANGDIR
 70
     0
  9
$PDMODE
 70
     0
  9
$PDSIZE
 40
0.0
  9
$PLINEWID
 40
0.0
  9
$SPLFRAME
 70
     0
  9
$SPLINETYPE
 70
     6
  9
$SPLINESEGS
 70
     8
  9
$HANDSEED
  5
116
  9
$SURFTAB1
 70
     6
  9
$SURFTAB2
 70
     6
  9
$SURFTYPE
 70
     6
  9
$SURFU
 70
     6
  9
$SURFV
 70
     6
  9
$UCSBASE
  2

  9
$UCSNAME
  2

  9
$UCSORG
 10
0.0
 20
0.0
 30
0.0
  9
$UCSXDIR
 10
1.0
 20
0.0
 30
0.0
  9
$UCSYDIR
 10
0.0
 20
1.0
 30
0.0
  9
$UCSORTHOREF
  2

  9
$UCSORTHOVIEW
 70
     0
  9
$UCSORGTOP
 10
0.0
 20
0.0
 30
0.0
  9
$UCSORGBOTTOM
 10
0.0
 20
0.0
 30
0.0
  9
$UCSORGLEFT
 10
0.0
 20
0.0
 30
0.0
  9
$UCSORGRIGHT
 10
0.0
 20
0.0
 30
0.0
  9
$UCSORGFRONT
 10
0.0
 20
0.0
 30
0.0
  9
$UCSORGBACK
 10
0.0
 20
0.0
 30
0.0
  9
$PUCSBASE
  2

  9
$PUCSNAME
  2

  9
$PUCSORG
 10
0.0
 20
0.0
 30
0.0
  9
$PUCSXDIR
 10
1.0
 20
0.0
 30
0.0
  9
$PUCSYDIR
 10
0.0
 20
1.0
 30
0.0
  9
$PUCSORTHOREF
  2

  9
$PUCSORTHOVIEW
 70
     0
  9
$PUCSORGTOP
 10
0.0
 20
0.0
 30
0.0
  9
$PUCSORGBOTTOM
 10
0.0
 20
0.0
 30
0.0
  9
$PUCSORGLEFT
 10
0.0
 20
0.0
 30
0.0
  9
$PUCSORGRIGHT
 10
0.0
 20
0.0
 30
0.0
  9
$PUCSORGFRONT
 10
0.0
 20
0.0
 30
0.0
  9
$PUCSORGBACK
 10
0.0
 20
0.0
 30
0.0
  9
$USERI1
 70
     0
  9
$USERI2
 70
     0
  9
$USERI3
 70
     0
  9
$USERI4
 70
     0
  9
$USERI5
 70
     0
  9
$USERR1
 40
0.0
  9
$USERR2
 40
0.0
  9
$USERR3
 40
0.0
  9
$USERR4
 40
0.0
  9
$USERR5
 40
0.0
  9
$WORLDVIEW
 70
     1
  9
$SHADEDGE
 70
     3
  9
$SHADEDIF
 70
    70
  9
$TILEMODE
 70
     1
  9
$MAXACTVP
 70
    64
  9
$PINSBASE
 10
0.0
 20
0.0
 30
0.0
  9
$PLIMCHECK
 70
     0
  9
$PEXTMIN
 10
0.0
 20
0.0
 30
0.0
  9
$PEXTMAX
 10
840.0
 20
594.0
 30
0.0
  9
$PLIMMIN
 10
0.0
 20
0.0
  9
$PLIMMAX
 10
840.0
 20
594.0
  9
$UNITMODE
 70
     0
  9
$VISRETAIN
 70
     1
  9
$PLINEGEN
 70
     0
  9
$PSLTSCALE
 70
     1
  9
$TREEDEPTH
 70
  3020
  9
$CMLSTYLE
  2
Standard
  9
$CMLJUST
 70
     0
  9
$CMLSCALE
 40
20.0
  9
$PROXYGRAPHICS
 70
     1
  9
$MEASUREMENT
 70
     1
  9
$CELWEIGHT
370
    -1
  9
$ENDCAPS
280
     0
  9
$JOINSTYLE
280
     0
  9
$LWDISPLAY
290
     0
  9
$INSUNITS
 70
     4
  9
$HYPERLINKBASE
  1

  9
$STYLESHEET
  1

  9
$XEDIT
290
     1
  9
$CEPSNTYPE
380
     0
  9
$PSTYLEMODE
290
     1
  9
$FINGERPRINTGUID
  2
{FAEB1C30-E019-11D5-929B-00C0DF256EC4}
  9
$VERSIONGUID
  2
{FAEB1C32-E019-11D5-929B-00C0DF256EC4}
  9
$EXTNAMES
290
     1
  9
$PSVPSCALE
 40
0.0
  9
$OLESTARTUP
290
     0
  0
ENDSEC
  0
SECTION
  2
CLASSES
  0
CLASS
  1
ACDBDICTIONARYWDFLT
  2
AcDbDictionaryWithDefault
  3
ObjectDBX Classes
 90
        0
280
     0
281
     0
  0
CLASS
  1
ACDBPLACEHOLDER
  2
AcDbPlaceHolder
  3
ObjectDBX Classes
 90
        0
280
     0
281
     0
  0
CLASS
  1
LAYOUT
  2
AcDbLayout
  3
ObjectDBX Classes
 90
        0
280
     0
281
     0
  0
ENDSEC
  0
SECTION
  2
TABLES
  0
TABLE
  2
VPORT
  5
8
330
0
100
AcDbSymbolTable
 70
     2
  0
VPORT
  5
29
330
8
100
AcDbSymbolTableRecord
100
AcDbViewportTableRecord
  2
*ACTIVE
 70
     0
 10
0.0
 20
0.0
 11
1.0
 21
1.0
 12
420.0
 22
297.0
 13
0.0
 23
0.0
 14
1.0
 24
1.0
 15
0.0
 25
0.0
 16
0.0
 26
0.0
 36
1.0
 17
0.0
 27
0.0
 37
0.0
 40
594.0
 41
1.414141
 42
50.0
 43
0.0
 44
0.0
 50
0.0
 51
0.0
 71
    16
 72
   100
 73
     1
 74
     0
 75
     0
 76
     0
 77
     0
 78
     0
281
     0
 65
     0
110
0.0
120
0.0
130
0.0
111
1.0
121
0.0
131
0.0
112
0.0
122
1.0
132
0.0
 79
     0
146
0.0
  0
ENDTAB
  0
TABLE
  2
LTYPE
  5
5
330
0
100
AcDbSymbolTable
 70
     3
  0
LTYPE
  5
14
330
5
100
AcDbSymbolTableRecord
100
AcDbLinetypeTableRecord
  2
ByBlock
 70
     0
  3

 72
    65
 73
     0
 40
0.0
  0
LTYPE
  5
15
330
5
100
AcDbSymbolTableRecord
100
AcDbLinetypeTableRecord
  2
ByLayer
 70
     0
  3

 72
    65
 73
     0
 40
0.0
  0
LTYPE
  5
16
330
5
100
AcDbSymbolTableRecord
100
AcDbLinetypeTableRecord
  2
Continuous
 70
     0
  3
Solid line
 72
    65
 73
     0
 40
0.0
  0
LTYPE
  5
2A
330
5
100
AcDbSymbolTableRecord
100
AcDbLinetypeTableRecord
  2
DASHED
 70
     0
  3
__ __ __ __ __
 72
    65
 73
     2
 40
6.25
 49
5.0
 74
     4
 75
     0
340
0
 46
1.0
 50
0.0
 44
0.0
 45
0.0
 49
-1.25
 74
     4
 75
     0
340
0
 46
1.0
 50
0.0
 44
0.0
 45
0.0
  0
LTYPE
  5
CB
330
5
100
AcDbSymbolTableRecord
100
AcDbLinetypeTableRecord
  2
DASHDOT
 70
     0
  3
__ . __ . __ . __ . __
 72
    65
 73
     4
 40
7.5
 49
5.0
 74
     4
 75
     0
340
0
 46
1.0
 50
0.0
 44
0.0
 45
0.0
 49
-1.25
 74
     4
 75
     0
340
0
 46
1.0
 50
0.0
 44
0.0
 45
0.0
 49
0.0
 74
     4
 75
     0
340
0
 46
1.0
 50
0.0
 44
0.0
 45
0.0
 49
-1.25
 74
     4
 75
     0
340
0
 46
1.0
 50
0.0
 44
0.0
 45
0.0
  0
ENDTAB
  0
TABLE
  2
LAYER
  5
2
330
0
100
AcDbSymbolTable
 70
     9
  0
LAYER
  5
10
330
2
100
AcDbSymbolTableRecord
100
AcDbLayerTableRecord
  2
0
 70
     0
 62
     7
  6
Continuous
370
    -3
390
F
  0
LAYER
  5
2B
330
2
100
AcDbSymbolTableRecord
100
AcDbLayerTableRecord
  2
LC-INFO-1-2-mm-A3-0
 70
     1
 62
     7
  6
ByBlock
370
    -3
390
F
  0
LAYER
  5
2C
330
2
100
AcDbSymbolTableRecord
100
AcDbLayerTableRecord
  2
LC-CUT-HIDDEN
 70
     0
 62
     7
  6
DASHED
370
    -3
390
F
  0
LAYER
  5
2D
330
2
100
AcDbSymbolTableRecord
100
AcDbLayerTableRecord
  2
LC-VIEWPORT
 70
     0
 62
     7
  6
ByBlock
370
    -3
390
F
  0
LAYER
  5
2E
330
2
100
AcDbSymbolTableRecord
100
AcDbLayerTableRecord
  2
LC-3D-HIDDEN
 70
     0
 62
     9
  6
DASHED
370
    -3
390
F
  0
LAYER
  5
30
330
2
100
AcDbSymbolTableRecord
100
AcDbLayerTableRecord
  2
LC-001-002-----0
 70
     0
 62
     1
  6
ByBlock
370
    -3
390
F
  0
LAYER
  5
39
330
2
100
AcDbSymbolTableRecord
100
AcDbLayerTableRecord
  2
LC-002-003-----0
 70
     0
 62
     2
  6
ByBlock
370
    -3
390
F
  0
LAYER
  5
3B
330
2
100
AcDbSymbolTableRecord
100
AcDbLayerTableRecord
  2
Defpoints
 70
     0
 62
     7
  6
Continuous
290
     0
370
    -3
390
F
  0
LAYER
  5
D6
330
2
100
AcDbSymbolTableRecord
100
AcDbLayerTableRecord
  2
LC-003-005-----0
 70
     0
 62
     2
  6
ByBlock
370
    -3
390
F
  0
ENDTAB
  0
TABLE
  2
STYLE
  5
3
330
0
100
AcDbSymbolTable
 70
     3
  0
STYLE
  5
11
330
3
100
AcDbSymbolTableRecord
100
AcDbTextStyleTableRecord
  2
Standard
 70
     0
 40
0.0
 41
1.0
 50
0.0
 71
     0
 42
2.5
  3
txt
  4

  0
STYLE
  5
2F
330
3
100
AcDbSymbolTableRecord
100
AcDbTextStyleTableRecord
  2
LCTX15-400-0-0-Arial
 70
     0
 40
0.0
 41
0.9
 50
0.0
 71
     0
 42
3.5
  3

  4

1001
ACAD
1000
Arial
1071
 16777218
  0
STYLE
  5
37
330
3
100
AcDbSymbolTableRecord
100
AcDbTextStyleTableRecord
  2
LCTX15-400-0-0pDIN-Schrift
 70
     0
 40
2.5
 41
0.8
 50
15.0
 71
     0
 42
3.5
  3
STANDARD
  4

  0
ENDTAB
  0
TABLE
  2
VIEW
  5
6
330
0
100
AcDbSymbolTable
 70
     0
  0
ENDTAB
  0
TABLE
  2
UCS
  5
7
330
0
100
AcDbSymbolTable
 70
     0
  0
ENDTAB
  0
TABLE
  2
APPID
  5
9
330
0
100
AcDbSymbolTable
 70
     1
  0
APPID
  5
12
330
9
100
AcDbSymbolTableRecord
100
AcDbRegAppTableRecord
  2
ACAD
 70
     0
  0
ENDTAB
  0
TABLE
  2
DIMSTYLE
  5
A
330
0
100
AcDbSymbolTable
 70
     2
100
AcDbDimStyleTable
  0
DIMSTYLE
105
27
330
A
100
AcDbSymbolTableRecord
100
AcDbDimStyleTableRecord
  2
ISO-25
 70
     0
 41
2.5
 42
0.625
 43
3.75
 44
1.25
 73
     0
 74
     0
 77
     1
 78
     8
140
2.5
141
2.5
143
0.03937
147
0.625
171
     3
172
     1
271
     2
272
     2
274
     3
278
    44
283
     0
284
     8
340
11
  0
DIMSTYLE
105
38
102
{ACAD_REACTORS
330
3A
330
48
330
F7
102
}
330
A
100
AcDbSymbolTableRecord
100
AcDbDimStyleTableRecord
  2
LC-DIM-L-0140-02-02
 70
     0
 40
2.0
 41
14.0
 42
0.0
 43
7.5
 44
1.8
 73
     0
 74
     0
 77
     1
 78
     8
 79
     2
140
14.0
141
0.0
146
0.71
147
1.5
176
     2
177
     2
178
     2
179
     2
271
     2
278
    44
289
     1
340
37
  0
ENDTAB
  0
TABLE
  2
BLOCK_RECORD
  5
1
330
0
100
AcDbSymbolTable
 70
     6
  0
BLOCK_RECORD
  5
1F
330
1
100
AcDbSymbolTableRecord
100
AcDbBlockTableRecord
  2
*Model_Space
340
22
  0
BLOCK_RECORD
  5
1B
330
1
100
AcDbSymbolTableRecord
100
AcDbBlockTableRecord
  2
*Paper_Space
340
1E
  0
BLOCK_RECORD
  5
23
330
1
100
AcDbSymbolTableRecord
100
AcDbBlockTableRecord
  2
*Paper_Space0
340
26
  0
BLOCK_RECORD
  5
3C
330
1
100
AcDbSymbolTableRecord
100
AcDbBlockTableRecord
  2
*D1
340
0
  0
BLOCK_RECORD
  5
49
330
1
100
AcDbSymbolTableRecord
100
AcDbBlockTableRecord
  2
*D2
340
0
  0
BLOCK_RECORD
  5
D3
330
1
100
AcDbSymbolTableRecord
100
AcDbBlockTableRecord
  2
*X13
340
0
102
{BLKREFS
331
E4
102
}
  0
BLOCK_RECORD
  5
E7
330
1
100
AcDbSymbolTableRecord
100
AcDbBlockTableRecord
  2
*X24
340
0
102
{BLKREFS
331
F6
102
}
  0
BLOCK_RECORD
  5
F8
330
1
100
AcDbSymbolTableRecord
100
AcDbBlockTableRecord
  2
*D5
340
0
  0
ENDTAB
  0
ENDSEC
  0
SECTION
  2
BLOCKS
  0
BLOCK
  5
20
330
1F
100
AcDbEntity
  8
0
100
AcDbBlockBegin
  2
*Model_Space
 70
     0
 71
     0
 10
0.0
 20
0.0
 30
0.0
  3
*Model_Space
  1

  0
ENDBLK
  5
21
330
1F
100
AcDbEntity
  8
0
100
AcDbBlockEnd
  0
BLOCK
  5
1C
330
1B
100
AcDbEntity
 67
     1
  8
0
100
AcDbBlockBegin
  2
*Paper_Space
 70
     0
 71
     0
 10
0.0
 20
0.0
 30
0.0
  3
*Paper_Space
  1

  0
ENDBLK
  5
1D
330
1B
100
AcDbEntity
 67
     1
  8
0
100
AcDbBlockEnd
  0
BLOCK
  5
24
330
23
100
AcDbEntity
  8
0
100
AcDbBlockBegin
  2
*Paper_Space0
 70
     0
 71
     0
 10
0.0
 20
0.0
 30
0.0
  3
*Paper_Space0
  1

  0
ENDBLK
  5
25
330
23
100
AcDbEntity
  8
0
100
AcDbBlockEnd
  0
BLOCK
  5
46
330
3C
100
AcDbEntity
  8
0
100
AcDbBlockBegin
  2
*D1
 70
     1
 71
     0
 10
0.0
 20
0.0
 30
0.0
  3
*D1
  1

  0
LINE
  5
3D
330
3C
100
AcDbEntity
  8
LC-002-003-----0
 62
     2
370
    -2
100
AcDbLine
 10
278.508879
 20
276.155371
 30
0.0
 11
278.508879
 21
300.6
 31
0.0
  0
LINE
  5
3E
330
3C
100
AcDbEntity
  8
LC-002-003-----0
 62
     2
370
    -2
100
AcDbLine
 10
503.509071
 20
276.155491
 30
0.0
 11
503.509071
 21
300.6
 31
0.0
  0
LINE
  5
3F
330
3C
100
AcDbEntity
  8
LC-002-003-----0
 62
     2
370
    -2
100
AcDbLine
 10
306.508879
 20
297.0
 30
0.0
 11
475.509071
 21
297.0
 31
0.0
  0
SOLID
  5
40
330
3C
100
AcDbEntity
  8
LC-002-003-----0
 62
     2
100
AcDbTrace
 10
306.508879
 20
301.666667
 30
0.0
 11
306.508879
 21
292.333333
 31
0.0
 12
278.508879
 22
297.0
 32
0.0
 13
278.508879
 23
297.0
 33
0.0
  0
SOLID
  5
41
330
3C
100
AcDbEntity
  8
LC-002-003-----0
 62
     2
100
AcDbTrace
 10
475.509071
 20
292.333333
 30
0.0
 11
475.509071
 21
301.666667
 31
0.0
 12
503.509071
 22
297.0
 32
0.0
 13
503.509071
 23
297.0
 33
0.0
  0
MTEXT
  5
42
330
3C
100
AcDbEntity
  8
LC-002-003-----0
 62
     2
100
AcDbMText
 10
384.872913
 20
327.8
 30
0.0
 40
28.0
 41
0.0
 71
     5
 72
     1
  1
\A1;225
  7
LCTX15-400-0-0pDIN-Schrift
 73
     1
 44
1.0
  0
POINT
  5
43
330
3C
100
AcDbEntity
  8
Defpoints
 62
     0
100
AcDbPoint
 10
278.508879
 20
276.155371
 30
0.0
  0
POINT
  5
44
330
3C
100
AcDbEntity
  8
Defpoints
 62
     0
100
AcDbPoint
 10
503.509071
 20
276.155491
 30
0.0
  0
POINT
  5
45
330
3C
100
AcDbEntity
  8
Defpoints
 62
     0
100
AcDbPoint
 10
503.509071
 20
297.0
 30
0.0
  0
ENDBLK
  5
47
330
3C
100
AcDbEntity
  8
0
100
AcDbBlockEnd
  0
BLOCK
  5
53
330
49
100
AcDbEntity
  8
0
100
AcDbBlockBegin
  2
*D2
 70
     1
 71
     0
 10
0.0
 20
0.0
 30
0.0
  3
*D2
  1

  0
LINE
  5
4A
330
49
100
AcDbEntity
  8
LC-002-003-----0
 62
     2
370
    -2
100
AcDbLine
 10
503.509071
 20
276.155491
 30
0.0
 11
552.4
 21
276.155491
 31
0.0
  0
LINE
  5
4B
330
49
100
AcDbEntity
  8
LC-002-003-----0
 62
     2
370
    -2
100
AcDbLine
 10
503.50897
 20
121.155491
 30
0.0
 11
552.4
 21
121.155491
 31
0.0
  0
LINE
  5
4C
330
49
100
AcDbEntity
  8
LC-002-003-----0
 62
     2
370
    -2
100
AcDbLine
 10
548.8
 20
248.155491
 30
0.0
 11
548.8
 21
149.155491
 31
0.0
  0
SOLID
  5
4D
330
49
100
AcDbEntity
  8
LC-002-003-----0
 62
     2
100
AcDbTrace
 10
553.466667
 20
248.155491
 30
0.0
 11
544.133333
 21
248.155491
 31
0.0
 12
548.8
 22
276.155491
 32
0.0
 13
548.8
 23
276.155491
 33
0.0
  0
SOLID
  5
4E
330
49
100
AcDbEntity
  8
LC-002-003-----0
 62
     2
100
AcDbTrace
 10
544.133333
 20
149.155491
 30
0.0
 11
553.466667
 21
149.155491
 31
0.0
 12
548.8
 22
121.155491
 32
0.0
 13
548.8
 23
121.155491
 33
0.0
  0
MTEXT
  5
4F
330
49
100
AcDbEntity
  8
LC-002-003-----0
 62
     2
100
AcDbMText
 10
518.0
 20
198.655491
 30
0.0
 40
28.0
 41
0.0
 71
     5
 72
     1
  1
\A1;155
  7
LCTX15-400-0-0pDIN-Schrift
 11
6.123031769111886E-17
 21
1.0
 31
0.0
 73
     1
 44
1.0
  0
POINT
  5
50
330
49
100
AcDbEntity
  8
Defpoints
 62
     0
100
AcDbPoint
 10
503.509071
 20
276.155491
 30
0.0
  0
POINT
  5
51
330
49
100
AcDbEntity
  8
Defpoints
 62
     0
100
AcDbPoint
 10
503.50897
 20
121.155491
 30
0.0
  0
POINT
  5
52
330
49
100
AcDbEntity
  8
Defpoints
 62
     0
100
AcDbPoint
 10
548.8
 20
121.155491
 30
0.0
  0
ENDBLK
  5
54
330
49
100
AcDbEntity
  8
0
100
AcDbBlockEnd
  0
BLOCK
  5
D4
330
D3
100
AcDbEntity
  8
0
100
AcDbBlockBegin
  2
*X13
 70
     1
 71
     0
 10
0.0
 20
0.0
 30
0.0
  3
*X13
  1

  4
*X1
  0
LINE
  5
D7
330
D3
100
AcDbEntity
  8
LC-003-005-----0
 62
     7
370
    25
100
AcDbLine
 10
391.008867
 20
386.808593
 30
0.0
 11
389.522497
 21
388.294963
 31
0.0
  0
LINE
  5
D8
330
D3
100
AcDbEntity
  8
LC-003-005-----0
 62
     7
370
    25
100
AcDbLine
 10
383.380357
 20
380.294967
 30
0.0
 11
375.380352
 21
388.294972
 31
0.0
  0
LINE
  5
D9
330
D3
100
AcDbEntity
  8
LC-003-005-----0
 62
     7
370
    25
100
AcDbLine
 10
376.309285
 20
380.294971
 30
0.0
 11
368.309279
 21
388.294976
 31
0.0
  0
LINE
  5
DA
330
D3
100
AcDbEntity
  8
LC-003-005-----0
 62
     7
370
    25
100
AcDbLine
 10
362.16714
 20
380.29498
 30
0.0
 11
354.167135
 21
388.294986
 31
0.0
  0
LINE
  5
DB
330
D3
100
AcDbEntity
  8
LC-003-005-----0
 62
     7
370
    25
100
AcDbLine
 10
355.096067
 20
380.294985
 30
0.0
 11
347.096062
 21
388.29499
 31
0.0
  0
LINE
  5
DC
330
D3
100
AcDbEntity
  8
LC-003-005-----0
 62
     7
370
    25
100
AcDbLine
 10
340.953923
 20
380.294994
 30
0.0
 11
332.953917
 21
388.294999
 31
0.0
  0
LINE
  5
DD
330
D3
100
AcDbEntity
  8
LC-003-005-----0
 62
     7
370
    25
100
AcDbLine
 10
333.88285
 20
380.294999
 30
0.0
 11
325.882845
 21
388.295004
 31
0.0
  0
LINE
  5
DE
330
D3
100
AcDbEntity
  8
LC-003-005-----0
 62
     7
370
    25
100
AcDbLine
 10
319.740705
 20
380.295008
 30
0.0
 11
311.7407
 21
388.295013
 31
0.0
  0
LINE
  5
DF
330
D3
100
AcDbEntity
  8
LC-003-005-----0
 62
     7
370
    25
100
AcDbLine
 10
312.669633
 20
380.295013
 30
0.0
 11
304.669628
 21
388.295018
 31
0.0
  0
LINE
  5
E0
330
D3
100
AcDbEntity
  8
LC-003-005-----0
 62
     7
370
    25
100
AcDbLine
 10
298.527488
 20
380.295022
 30
0.0
 11
290.527483
 21
388.295027
 31
0.0
  0
LINE
  5
E1
330
D3
100
AcDbEntity
  8
LC-003-005-----0
 62
     7
370
    25
100
AcDbLine
 10
291.456416
 20
380.295027
 30
0.0
 11
283.45641
 21
388.295032
 31
0.0
  0
LINE
  5
E2
330
D3
100
AcDbEntity
  8
LC-003-005-----0
 62
     7
370
    25
100
AcDbLine
 10
289.253267
 20
368.356039
 30
0.0
 11
279.390376
 21
378.21893
 31
0.0
  0
LINE
  5
E3
330
D3
100
AcDbEntity
  8
LC-003-005-----0
 62
     7
370
    25
100
AcDbLine
 10
282.243206
 20
368.295033
 30
0.0
 11
280.068328
 21
370.469911
 31
0.0
  0
ENDBLK
  5
D5
330
D3
100
AcDbEntity
  8
0
100
AcDbBlockEnd
  0
BLOCK
  5
E8
330
E7
100
AcDbEntity
  8
0
100
AcDbBlockBegin
  2
*X24
 70
     1
 71
     0
 10
0.0
 20
0.0
 30
0.0
  3
*X24
  1

  4
*X2
  0
LINE
  5
EA
330
E7
100
AcDbEntity
  8
LC-003-005-----0
 62
     7
370
    25
100
AcDbLine
 10
503.440581
 20
387.513964
 30
0.0
 11
502.659656
 21
388.294889
 31
0.0
  0
LINE
  5
EB
330
E7
100
AcDbEntity
  8
LC-003-005-----0
 62
     7
370
    25
100
AcDbLine
 10
502.302827
 20
374.509581
 30
0.0
 11
488.517511
 21
388.294898
 31
0.0
  0
LINE
  5
EC
330
E7
100
AcDbEntity
  8
LC-003-005-----0
 62
     7
370
    25
100
AcDbLine
 10
501.446451
 20
368.294889
 30
0.0
 11
493.458012
 21
376.283329
 31
0.0
  0
LINE
  5
ED
330
E7
100
AcDbEntity
  8
LC-003-005-----0
 62
     7
370
    25
100
AcDbLine
 10
489.446444
 20
380.294897
 30
0.0
 11
481.446438
 21
388.294902
 31
0.0
  0
LINE
  5
EE
330
E7
100
AcDbEntity
  8
LC-003-005-----0
 62
     7
370
    25
100
AcDbLine
 10
475.304299
 20
380.294906
 30
0.0
 11
467.304294
 21
388.294912
 31
0.0
  0
LINE
  5
EF
330
E7
100
AcDbEntity
  8
LC-003-005-----0
 62
     7
370
    25
100
AcDbLine
 10
468.233226
 20
380.294911
 30
0.0
 11
460.233221
 21
388.294916
 31
0.0
  0
LINE
  5
F0
330
E7
100
AcDbEntity
  8
LC-003-005-----0
 62
     7
370
    25
100
AcDbLine
 10
454.091081
 20
380.29492
 30
0.0
 11
446.091076
 21
388.294926
 31
0.0
  0
LINE
  5
F1
330
E7
100
AcDbEntity
  8
LC-003-005-----0
 62
     7
370
    25
100
AcDbLine
 10
447.020009
 20
380.294925
 30
0.0
 11
439.020004
 21
388.29493
 31
0.0
  0
LINE
  5
F2
330
E7
100
AcDbEntity
  8
LC-003-005-----0
 62
     7
370
    25
100
AcDbLine
 10
432.877864
 20
380.294934
 30
0.0
 11
424.877859
 21
388.294939
 31
0.0
  0
LINE
  5
F3
330
E7
100
AcDbEntity
  8
LC-003-005-----0
 62
     7
370
    25
100
AcDbLine
 10
425.806792
 20
380.294939
 30
0.0
 11
417.806787
 21
388.294944
 31
0.0
  0
LINE
  5
F4
330
E7
100
AcDbEntity
  8
LC-003-005-----0
 62
     7
370
    25
100
AcDbLine
 10
411.664647
 20
380.294948
 30
0.0
 11
403.664642
 21
388.294953
 31
0.0
  0
LINE
  5
F5
330
E7
100
AcDbEntity
  8
LC-003-005-----0
 62
     7
370
    25
100
AcDbLine
 10
404.593574
 20
380.294953
 30
0.0
 11
396.593569
 21
388.294958
 31
0.0
  0
ENDBLK
  5
E9
330
E7
100
AcDbEntity
  8
0
100
AcDbBlockEnd
  0
BLOCK
  5
104
330
F8
100
AcDbEntity
  8
0
100
AcDbBlockBegin
  2
*D5
 70
     1
 71
     0
 10
0.0
 20
0.0
 30
0.0
  3
*D5
  1

  0
LINE
  5
F9
330
F8
100
AcDbEntity
  8
LC-002-003-----0
 62
     2
370
    -2
100
AcDbLine
 10
278.508831
 20
388.295035
 30
0.0
 11
248.870814
 21
388.295035
 31
0.0
  0
LINE
  5
FA
330
F8
100
AcDbEntity
  8
LC-002-003-----0
 62
     2
370
    -2
100
AcDbLine
 10
280.258605
 20
368.295034
 30
0.0
 11
248.870814
 21
368.295034
 31
0.0
  0
LINE
  5
FB
330
F8
100
AcDbEntity
  8
LC-002-003-----0
 62
     2
370
    -2
100
AcDbLine
 10
252.470814
 20
416.295035
 30
0.0
 11
252.470814
 21
444.295035
 31
0.0
  0
LINE
  5
FC
330
F8
100
AcDbEntity
  8
LC-002-003-----0
 62
     2
370
    -2
100
AcDbLine
 10
252.470814
 20
340.295034
 30
0.0
 11
252.470814
 21
312.295034
 31
0.0
  0
LINE
  5
FD
330
F8
100
AcDbEntity
  8
LC-002-003-----0
 62
     2
370
    -2
100
AcDbLine
 10
252.470814
 20
388.295035
 30
0.0
 11
252.470814
 21
368.295034
 31
0.0
  0
SOLID
  5
FE
330
F8
100
AcDbEntity
  8
LC-002-003-----0
 62
     2
100
AcDbTrace
 10
247.804147
 20
416.295035
 30
0.0
 11
257.137481
 21
416.295035
 31
0.0
 12
252.470814
 22
388.295035
 32
0.0
 13
252.470814
 23
388.295035
 33
0.0
  0
SOLID
  5
FF
330
F8
100
AcDbEntity
  8
LC-002-003-----0
 62
     2
100
AcDbTrace
 10
257.137481
 20
340.295034
 30
0.0
 11
247.804147
 21
340.295034
 31
0.0
 12
252.470814
 22
368.295034
 32
0.0
 13
252.470814
 23
368.295034
 33
0.0
  0
MTEXT
  5
100
330
F8
100
AcDbEntity
  8
LC-002-003-----0
 62
     2
100
AcDbMText
 10
221.670814
 20
371.25
 30
0.0
 40
28.0
 41
0.0
 71
     5
 72
     1
  1
\A1;20
  7
LCTX15-400-0-0pDIN-Schrift
 11
6.123031769111886E-17
 21
1.0
 31
0.0
 73
     1
 44
1.0
  0
POINT
  5
101
330
F8
100
AcDbEntity
  8
Defpoints
 62
     0
100
AcDbPoint
 10
278.508831
 20
388.295035
 30
0.0
  0
POINT
  5
102
330
F8
100
AcDbEntity
  8
Defpoints
 62
     0
100
AcDbPoint
 10
280.258605
 20
368.295034
 30
0.0
  0
POINT
  5
103
330
F8
100
AcDbEntity
  8
Defpoints
 62
     0
100
AcDbPoint
 10
252.470814
 20
368.295034
 30
0.0
  0
ENDBLK
  5
105
330
F8
100
AcDbEntity
  8
0
100
AcDbBlockEnd
  0
ENDSEC
  0
SECTION
  2
ENTITIES
  0
LINE
  5
31
330
1F
100
AcDbEntity
  8
LC-001-002-----0
 62
     7
370
    50
100
AcDbLine
 10
278.508879
 20
276.155371
 30
0.0
 11
391.008879
 21
276.155371
 31
0.0
  0
LINE
  5
32
330
1F
100
AcDbEntity
  8
LC-001-002-----0
 62
     7
370
    50
100
AcDbLine
 10
278.508879
 20
276.155371
 30
0.0
 11
278.508879
 21
121.155371
 31
0.0
  0
LINE
  5
33
330
1F
100
AcDbEntity
  8
LC-001-002-----0
 62
     7
370
    50
100
AcDbLine
 10
278.508879
 20
121.155371
 30
0.0
 11
391.008879
 21
121.155371
 31
0.0
  0
LINE
  5
34
102
{ACAD_REACTORS
330
10B
102
}
330
1F
100
AcDbEntity
  8
LC-001-002-----0
 62
     7
370
    50
100
AcDbLine
 10
503.509071
 20
276.155491
 30
0.0
 11
391.009071
 21
276.155565
 31
0.0
  0
LINE
  5
35
102
{ACAD_REACTORS
330
10B
102
}
330
1F
100
AcDbEntity
  8
LC-001-002-----0
 62
     7
370
    50
100
AcDbLine
 10
503.509071
 20
276.155491
 30
0.0
 11
503.50897
 21
121.155491
 31
0.0
  0
LINE
  5
36
102
{ACAD_REACTORS
330
10B
102
}
330
1F
100
AcDbEntity
  8
LC-001-002-----0
 62
     7
370
    50
100
AcDbLine
 10
503.50897
 20
121.155491
 30
0.0
 11
391.00897
 21
121.155565
 31
0.0
  0
DIMENSION
  5
3A
330
1F
100
AcDbEntity
  8
LC-002-003-----0
 62
     7
370
    25
100
AcDbDimension
  2
*D1
 10
503.509071
 20
297.0
 30
0.0
 11
384.872913
 21
327.8
 31
0.0
 70
   160
 71
     5
 42
225.000192
  3
LC-DIM-L-0140-02-02
100
AcDbAlignedDimension
 13
278.508879
 23
276.155371
 33
0.0
 14
503.509071
 24
276.155491
 34
0.0
100
AcDbRotatedDimension
  0
DIMENSION
  5
48
330
1F
100
AcDbEntity
  8
LC-002-003-----0
 62
     7
370
    25
100
AcDbDimension
  2
*D2
 10
548.8
 20
121.155491
 30
0.0
 11
518.0
 21
198.655491
 31
0.0
 70
   160
 71
     5
 42
155.0
 53
90.0
  3
LC-DIM-L-0140-02-02
100
AcDbAlignedDimension
 13
503.509071
 23
276.155491
 33
0.0
 14
503.50897
 24
121.155491
 34
0.0
 50
90.0
100
AcDbRotatedDimension
  0
LINE
  5
55
102
{ACAD_REACTORS
330
10D
102
}
330
1F
100
AcDbEntity
  8
LC-001-002-----0
 62
     7
370
    50
100
AcDbLine
 10
344.508879
 20
248.155371
 30
0.0
 11
297.508879
 21
248.155371
 31
0.0
  0
ARC
  5
56
102
{ACAD_REACTORS
330
10D
102
}
330
1F
100
AcDbEntity
  8
LC-001-002-----0
 62
     7
370
    50
100
AcDbCircle
 10
297.508879
 20
250.655371
 30
0.0
 40
2.5
100
AcDbArc
 50
180.0
 51
270.0
  0
LINE
  5
57
102
{ACAD_REACTORS
330
10D
102
}
330
1F
100
AcDbEntity
  8
LC-001-002-----0
 62
     7
370
    50
100
AcDbLine
 10
295.008879
 20
250.655371
 30
0.0
 11
295.008879
 21
255.655371
 31
0.0
  0
ARC
  5
58
102
{ACAD_REACTORS
330
10D
102
}
330
1F
100
AcDbEntity
  8
LC-001-002-----0
 62
     7
370
    50
100
AcDbCircle
 10
297.508879
 20
255.655371
 30
0.0
 40
2.5
100
AcDbArc
 50
90.0
 51
180.0
  0
LINE
  5
59
102
{ACAD_REACTORS
330
10D
102
}
330
1F
100
AcDbEntity
  8
LC-001-002-----0
 62
     7
370
    50
100
AcDbLine
 10
297.508879
 20
258.155371
 30
0.0
 11
344.508879
 21
258.155371
 31
0.0
  0
ARC
  5
5A
102
{ACAD_REACTORS
330
10D
102
}
330
1F
100
AcDbEntity
  8
LC-001-002-----0
 62
     7
370
    50
100
AcDbCircle
 10
344.508879
 20
255.655371
 30
0.0
 40
2.5
100
AcDbArc
 50
0.0
 51
90.0
  0
LINE
  5
5B
102
{ACAD_REACTORS
330
10D
102
}
330
1F
100
AcDbEntity
  8
LC-001-002-----0
 62
     7
370
    50
100
AcDbLine
 10
347.008879
 20
255.655371
 30
0.0
 11
347.008879
 21
250.655371
 31
0.0
  0
ARC
  5
5C
102
{ACAD_REACTORS
330
10D
102
}
330
1F
100
AcDbEntity
  8
LC-001-002-----0
 62
     7
370
    50
100
AcDbCircle
 10
344.508879
 20
250.655371
 30
0.0
 40
2.5
100
AcDbArc
 50
270.0
 51
0.0
  0
LINE
  5
5D
102
{ACAD_REACTORS
330
10C
102
}
330
1F
100
AcDbEntity
  8
LC-001-002-----0
 62
     7
370
    50
100
AcDbLine
 10
391.008879
 20
248.155371
 30
0.0
 11
357.508879
 21
248.155371
 31
0.0
  0
ARC
  5
5E
102
{ACAD_REACTORS
330
10C
102
}
330
1F
100
AcDbEntity
  8
LC-001-002-----0
 62
     7
370
    50
100
AcDbCircle
 10
357.508879
 20
250.655371
 30
0.0
 40
2.5
100
AcDbArc
 50
180.0
 51
270.0
  0
LINE
  5
5F
102
{ACAD_REACTORS
330
10C
102
}
330
1F
100
AcDbEntity
  8
LC-001-002-----0
 62
     7
370
    50
100
AcDbLine
 10
355.008879
 20
250.655371
 30
0.0
 11
355.008879
 21
255.655371
 31
0.0
  0
ARC
  5
60
102
{ACAD_REACTORS
330
10C
102
}
330
1F
100
AcDbEntity
  8
LC-001-002-----0
 62
     7
370
    50
100
AcDbCircle
 10
357.508879
 20
255.655371
 30
0.0
 40
2.5
100
AcDbArc
 50
90.0
 51
180.0
  0
LINE
  5
61
102
{ACAD_REACTORS
330
10C
102
}
330
1F
100
AcDbEntity
  8
LC-001-002-----0
 62
     7
370
    50
100
AcDbLine
 10
357.508879
 20
258.155371
 30
0.0
 11
391.008879
 21
258.155371
 31
0.0
  0
LINE
  5
62
102
{ACAD_REACTORS
330
10C
102
}
330
1F
100
AcDbEntity
  8
LC-001-002-----0
 62
     7
370
    50
100
AcDbLine
 10
391.008874
 20
258.155371
 30
0.0
 11
424.509045
 21
258.155543
 31
0.0
  0
ARC
  5
63
102
{ACAD_REACTORS
330
10C
102
}
330
1F
100
AcDbEntity
  8
LC-001-002-----0
 62
     7
370
    50
100
AcDbCircle
 10
424.509057
 20
255.655543
 30
0.0
 40
2.499999999999965
100
AcDbArc
 50
359.999963
 51
90.000294
  0
LINE
  5
64
102
{ACAD_REACTORS
330
10C
102
}
330
1F
100
AcDbEntity
  8
LC-001-002-----0
 62
     7
370
    50
100
AcDbLine
 10
427.009057
 20
255.655541
 30
0.0
 11
427.009054
 21
250.655541
 31
0.0
  0
ARC
  5
65
102
{ACAD_REACTORS
330
10C
102
}
330
1F
100
AcDbEntity
  8
LC-001-002-----0
 62
     7
370
    50
100
AcDbCircle
 10
424.509054
 20
250.655543
 30
0.0
 40
2.500000000000022
100
AcDbArc
 50
269.999963
 51
359.999963
  0
LINE
  5
66
102
{ACAD_REACTORS
330
10C
102
}
330
1F
100
AcDbEntity
  8
LC-001-002-----0
 62
     7
370
    50
100
AcDbLine
 10
424.509053
 20
248.155543
 30
0.0
 11
391.009053
 21
248.155565
 31
0.0
  0
LINE
  5
67
102
{ACAD_REACTORS
330
10F
102
}
330
1F
100
AcDbEntity
  8
LC-001-002-----0
 62
     7
370
    50
100
AcDbLine
 10
484.509053
 20
248.155504
 30
0.0
 11
437.509053
 21
248.155534
 31
0.0
  0
ARC
  5
68
102
{ACAD_REACTORS
330
10F
102
}
330
1F
100
AcDbEntity
  8
LC-001-002-----0
 62
     7
370
    50
100
AcDbCircle
 10
437.509054
 20
250.655534
 30
0.0
 40
2.499999999999965
100
AcDbArc
 50
179.999963
 51
269.999963
  0
LINE
  5
69
102
{ACAD_REACTORS
330
10F
102
}
330
1F
100
AcDbEntity
  8
LC-001-002-----0
 62
     7
370
    50
100
AcDbLine
 10
435.009054
 20
250.655536
 30
0.0
 11
435.009057
 21
255.655536
 31
0.0
  0
ARC
  5
6A
102
{ACAD_REACTORS
330
10F
102
}
330
1F
100
AcDbEntity
  8
LC-001-002-----0
 62
     7
370
    50
100
AcDbCircle
 10
437.509057
 20
255.655534
 30
0.0
 40
2.499999999999937
100
AcDbArc
 50
89.999963
 51
179.999963
  0
LINE
  5
6B
102
{ACAD_REACTORS
330
10F
102
}
330
1F
100
AcDbEntity
  8
LC-001-002-----0
 62
     7
370
    50
100
AcDbLine
 10
437.509059
 20
258.155534
 30
0.0
 11
484.509059
 21
258.155504
 31
0.0
  0
ARC
  5
6C
102
{ACAD_REACTORS
330
10F
102
}
330
1F
100
AcDbEntity
  8
LC-001-002-----0
 62
     7
370
    50
100
AcDbCircle
 10
484.509057
 20
255.655504
 30
0.0
 40
2.499999999999965
100
AcDbArc
 50
359.999963
 51
89.999963
  0
LINE
  5
6D
102
{ACAD_REACTORS
330
10F
102
}
330
1F
100
AcDbEntity
  8
LC-001-002-----0
 62
     7
370
    50
100
AcDbLine
 10
487.009057
 20
255.655502
 30
0.0
 11
487.009054
 21
250.655502
 31
0.0
  0
ARC
  5
6E
102
{ACAD_REACTORS
330
10F
102
}
330
1F
100
AcDbEntity
  8
LC-001-002-----0
 62
     7
370
    50
100
AcDbCircle
 10
484.509054
 20
250.655504
 30
0.0
 40
2.499999999999965
100
AcDbArc
 50
269.999963
 51
359.999963
  0
LINE
  5
6F
102
{ACAD_REACTORS
330
10E
102
}
330
1F
100
AcDbEntity
  8
LC-001-002-----0
 62
     7
370
    50
100
AcDbLine
 10
484.509038
 20
226.155504
 30
0.0
 11
399.509038
 21
226.155559
 31
0.0
  0
ARC
  5
70
102
{ACAD_REACTORS
330
10E
102
}
330
1F
100
AcDbEntity
  8
LC-001-002-----0
 62
     7
370
    50
100
AcDbCircle
 10
399.50904
 20
228.655559
 30
0.0
 40
2.500000000000022
100
AcDbArc
 50
179.999963
 51
269.999963
  0
LINE
  5
71
102
{ACAD_REACTORS
330
10E
102
}
330
1F
100
AcDbEntity
  8
LC-001-002-----0
 62
     7
370
    50
100
AcDbLine
 10
397.00904
 20
228.655561
 30
0.0
 11
397.009043
 21
233.655561
 31
0.0
  0
ARC
  5
72
102
{ACAD_REACTORS
330
10E
102
}
330
1F
100
AcDbEntity
  8
LC-001-002-----0
 62
     7
370
    50
100
AcDbCircle
 10
399.509043
 20
233.655559
 30
0.0
 40
2.499999999999965
100
AcDbArc
 50
89.999963
 51
179.999963
  0
LINE
  5
73
102
{ACAD_REACTORS
330
10E
102
}
330
1F
100
AcDbEntity
  8
LC-001-002-----0
 62
     7
370
    50
100
AcDbLine
 10
399.509045
 20
236.155559
 30
0.0
 11
484.509045
 21
236.155504
 31
0.0
  0
ARC
  5
74
102
{ACAD_REACTORS
330
10E
102
}
330
1F
100
AcDbEntity
  8
LC-001-002-----0
 62
     7
370
    50
100
AcDbCircle
 10
484.509043
 20
233.655504
 30
0.0
 40
2.500000000000022
100
AcDbArc
 50
359.999963
 51
89.999963
  0
LINE
  5
75
102
{ACAD_REACTORS
330
10E
102
}
330
1F
100
AcDbEntity
  8
LC-001-002-----0
 62
     7
370
    50
100
AcDbLine
 10
487.009043
 20
233.655502
 30
0.0
 11
487.00904
 21
228.655502
 31
0.0
  0
ARC
  5
76
102
{ACAD_REACTORS
330
10E
102
}
330
1F
100
AcDbEntity
  8
LC-001-002-----0
 62
     7
370
    50
100
AcDbCircle
 10
484.50904
 20
228.655504
 30
0.0
 40
2.499999999999965
100
AcDbArc
 50
269.999963
 51
359.999963
  0
LINE
  5
77
102
{ACAD_REACTORS
330
111
102
}
330
1F
100
AcDbEntity
  8
LC-001-002-----0
 62
     7
370
    50
100
AcDbLine
 10
484.50903
 20
214.155504
 30
0.0
 11
399.50903
 21
214.155559
 31
0.0
  0
ARC
  5
78
102
{ACAD_REACTORS
330
111
102
}
330
1F
100
AcDbEntity
  8
LC-001-002-----0
 62
     7
370
    50
100
AcDbCircle
 10
399.509029
 20
211.655559
 30
0.0
 40
2.499999999999965
100
AcDbArc
 50
89.999963
 51
179.999963
  0
LINE
  5
79
102
{ACAD_REACTORS
330
111
102
}
330
1F
100
AcDbEntity
  8
LC-001-002-----0
 62
     7
370
    50
100
AcDbLine
 10
397.009029
 20
211.655561
 30
0.0
 11
397.009025
 21
206.655561
 31
0.0
  0
ARC
  5
7A
102
{ACAD_REACTORS
330
111
102
}
330
1F
100
AcDbEntity
  8
LC-001-002-----0
 62
     7
370
    50
100
AcDbCircle
 10
399.509025
 20
206.655559
 30
0.0
 40
2.500000000000022
100
AcDbArc
 50
179.999963
 51
269.999963
  0
LINE
  5
7B
102
{ACAD_REACTORS
330
111
102
}
330
1F
100
AcDbEntity
  8
LC-001-002-----0
 62
     7
370
    50
100
AcDbLine
 10
399.509024
 20
204.155559
 30
0.0
 11
484.509024
 21
204.155504
 31
0.0
  0
ARC
  5
7C
102
{ACAD_REACTORS
330
111
102
}
330
1F
100
AcDbEntity
  8
LC-001-002-----0
 62
     7
370
    50
100
AcDbCircle
 10
484.509025
 20
206.655504
 30
0.0
 40
2.499999999999965
100
AcDbArc
 50
269.999963
 51
359.999963
  0
LINE
  5
7D
102
{ACAD_REACTORS
330
111
102
}
330
1F
100
AcDbEntity
  8
LC-001-002-----0
 62
     7
370
    50
100
AcDbLine
 10
487.009025
 20
206.655502
 30
0.0
 11
487.009029
 21
211.655502
 31
0.0
  0
ARC
  5
7E
102
{ACAD_REACTORS
330
111
102
}
330
1F
100
AcDbEntity
  8
LC-001-002-----0
 62
     7
370
    50
100
AcDbCircle
 10
484.509029
 20
211.655504
 30
0.0
 40
2.499999999999965
100
AcDbArc
 50
359.999963
 51
89.999963
  0
LINE
  5
7F
102
{ACAD_REACTORS
330
110
102
}
330
1F
100
AcDbEntity
  8
LC-001-002-----0
 62
     7
370
    50
100
AcDbLine
 10
399.510241
 20
183.154033
 30
0.0
 11
484.510241
 21
183.154428
 31
0.0
  0
ARC
  5
80
102
{ACAD_REACTORS
330
110
102
}
330
1F
100
AcDbEntity
  8
LC-001-002-----0
 62
     7
370
    50
100
AcDbCircle
 10
484.510229
 20
185.654428
 30
0.0
 40
2.500000000000012
100
AcDbArc
 50
270.000267
 51
0.000267
  0
LINE
  5
81
102
{ACAD_REACTORS
330
110
102
}
330
1F
100
AcDbEntity
  8
LC-001-002-----0
 62
     7
370
    50
100
AcDbLine
 10
487.010229
 20
185.65444
 30
0.0
 11
487.010206
 21
190.65444
 31
0.0
  0
ARC
  5
82
102
{ACAD_REACTORS
330
110
102
}
330
1F
100
AcDbEntity
  8
LC-001-002-----0
 62
     7
370
    50
100
AcDbCircle
 10
484.510206
 20
190.654428
 30
0.0
 40
2.500000000000012
100
AcDbArc
 50
0.000267
 51
90.000267
  0
LINE
  5
83
102
{ACAD_REACTORS
330
110
102
}
330
1F
100
AcDbEntity
  8
LC-001-002-----0
 62
     7
370
    50
100
AcDbLine
 10
484.510194
 20
193.154428
 30
0.0
 11
399.510194
 21
193.154033
 31
0.0
  0
ARC
  5
84
102
{ACAD_REACTORS
330
110
102
}
330
1F
100
AcDbEntity
  8
LC-001-002-----0
 62
     7
370
    50
100
AcDbCircle
 10
399.510206
 20
190.654033
 30
0.0
 40
2.500000000000012
100
AcDbArc
 50
90.000267
 51
180.000267
  0
LINE
  5
85
102
{ACAD_REACTORS
330
110
102
}
330
1F
100
AcDbEntity
  8
LC-001-002-----0
 62
     7
370
    50
100
AcDbLine
 10
397.010206
 20
190.654021
 30
0.0
 11
397.010229
 21
185.654021
 31
0.0
  0
ARC
  5
86
102
{ACAD_REACTORS
330
110
102
}
330
1F
100
AcDbEntity
  8
LC-001-002-----0
 62
     7
370
    50
100
AcDbCircle
 10
399.510229
 20
185.654033
 30
0.0
 40
2.500000000000012
100
AcDbArc
 50
180.000267
 51
270.000267
  0
LINE
  5
87
102
{ACAD_REACTORS
330
112
102
}
330
1F
100
AcDbEntity
  8
LC-001-002-----0
 62
     7
370
    50
100
AcDbLine
 10
484.510296
 20
171.154428
 30
0.0
 11
399.510296
 21
171.154033
 31
0.0
  0
ARC
  5
88
102
{ACAD_REACTORS
330
112
102
}
330
1F
100
AcDbEntity
  8
LC-001-002-----0
 62
     7
370
    50
100
AcDbCircle
 10
399.510308
 20
168.654033
 30
0.0
 40
2.499999999999984
100
AcDbArc
 50
90.000267
 51
180.000267
  0
LINE
  5
89
102
{ACAD_REACTORS
330
112
102
}
330
1F
100
AcDbEntity
  8
LC-001-002-----0
 62
     7
370
    50
100
AcDbLine
 10
397.010308
 20
168.654021
 30
0.0
 11
397.010331
 21
163.654021
 31
0.0
  0
ARC
  5
8A
102
{ACAD_REACTORS
330
112
102
}
330
1F
100
AcDbEntity
  8
LC-001-002-----0
 62
     7
370
    50
100
AcDbCircle
 10
399.510331
 20
163.654033
 30
0.0
 40
2.500000000000012
100
AcDbArc
 50
180.000267
 51
270.000267
  0
LINE
  5
8B
102
{ACAD_REACTORS
330
112
102
}
330
1F
100
AcDbEntity
  8
LC-001-002-----0
 62
     7
370
    50
100
AcDbLine
 10
399.510343
 20
161.154033
 30
0.0
 11
484.510343
 21
161.154428
 31
0.0
  0
ARC
  5
8C
102
{ACAD_REACTORS
330
112
102
}
330
1F
100
AcDbEntity
  8
LC-001-002-----0
 62
     7
370
    50
100
AcDbCircle
 10
484.510331
 20
163.654428
 30
0.0
 40
2.500000000000012
100
AcDbArc
 50
270.000267
 51
0.000267
  0
LINE
  5
8D
102
{ACAD_REACTORS
330
112
102
}
330
1F
100
AcDbEntity
  8
LC-001-002-----0
 62
     7
370
    50
100
AcDbLine
 10
487.010331
 20
163.65444
 30
0.0
 11
487.010308
 21
168.65444
 31
0.0
  0
ARC
  5
8E
102
{ACAD_REACTORS
330
112
102
}
330
1F
100
AcDbEntity
  8
LC-001-002-----0
 62
     7
370
    50
100
AcDbCircle
 10
484.510308
 20
168.654428
 30
0.0
 40
2.500000000000012
100
AcDbArc
 50
0.000267
 51
90.000267
  0
LINE
  5
8F
102
{ACAD_REACTORS
330
114
102
}
330
1F
100
AcDbEntity
  8
LC-001-002-----0
 62
     7
370
    50
100
AcDbLine
 10
484.510399
 20
149.154428
 30
0.0
 11
437.510399
 21
149.15421
 31
0.0
  0
ARC
  5
90
102
{ACAD_REACTORS
330
114
102
}
330
1F
100
AcDbEntity
  8
LC-001-002-----0
 62
     7
370
    50
100
AcDbCircle
 10
437.51041
 20
146.65421
 30
0.0
 40
2.500000000000012
100
AcDbArc
 50
90.000267
 51
180.000267
  0
LINE
  5
91
102
{ACAD_REACTORS
330
114
102
}
330
1F
100
AcDbEntity
  8
LC-001-002-----0
 62
     7
370
    50
100
AcDbLine
 10
435.01041
 20
146.654198
 30
0.0
 11
435.010434
 21
141.654198
 31
0.0
  0
ARC
  5
92
102
{ACAD_REACTORS
330
114
102
}
330
1F
100
AcDbEntity
  8
LC-001-002-----0
 62
     7
370
    50
100
AcDbCircle
 10
437.510434
 20
141.65421
 30
0.0
 40
2.500000000000012
100
AcDbArc
 50
180.000267
 51
270.000267
  0
LINE
  5
93
102
{ACAD_REACTORS
330
114
102
}
330
1F
100
AcDbEntity
  8
LC-001-002-----0
 62
     7
370
    50
100
AcDbLine
 10
437.510445
 20
139.15421
 30
0.0
 11
484.510445
 21
139.154428
 31
0.0
  0
ARC
  5
94
102
{ACAD_REACTORS
330
114
102
}
330
1F
100
AcDbEntity
  8
LC-001-002-----0
 62
     7
370
    50
100
AcDbCircle
 10
484.510434
 20
141.654428
 30
0.0
 40
2.500000000000012
100
AcDbArc
 50
270.000267
 51
0.000267
  0
LINE
  5
95
102
{ACAD_REACTORS
330
114
102
}
330
1F
100
AcDbEntity
  8
LC-001-002-----0
 62
     7
370
    50
100
AcDbLine
 10
487.010434
 20
141.65444
 30
0.0
 11
487.01041
 21
146.65444
 31
0.0
  0
ARC
  5
96
102
{ACAD_REACTORS
330
114
102
}
330
1F
100
AcDbEntity
  8
LC-001-002-----0
 62
     7
370
    50
100
AcDbCircle
 10
484.51041
 20
146.654428
 30
0.0
 40
2.500000000000012
100
AcDbArc
 50
0.000267
 51
90.000267
  0
LINE
  5
97
102
{ACAD_REACTORS
330
113
102
}
330
1F
100
AcDbEntity
  8
LC-001-002-----0
 62
     7
370
    50
100
AcDbLine
 10
424.510399
 20
149.154149
 30
0.0
 11
391.010399
 21
149.153993
 31
0.0
  0
LINE
  5
98
102
{ACAD_REACTORS
330
113
102
}
330
1F
100
AcDbEntity
  8
LC-001-002-----0
 62
     7
370
    50
100
AcDbLine
 10
391.010403
 20
149.153993
 30
0.0
 11
357.507453
 21
149.153977
 31
0.0
  0
ARC
  5
99
102
{ACAD_REACTORS
330
113
102
}
330
1F
100
AcDbEntity
  8
LC-001-002-----0
 62
     7
370
    50
100
AcDbCircle
 10
357.507454
 20
146.653977
 30
0.0
 40
2.499999999999992
100
AcDbArc
 50
90.000027
 51
179.999696
  0
LINE
  5
9A
102
{ACAD_REACTORS
330
113
102
}
330
1F
100
AcDbEntity
  8
LC-001-002-----0
 62
     7
370
    50
100
AcDbLine
 10
355.007454
 20
146.653991
 30
0.0
 11
355.007428
 21
141.653991
 31
0.0
  0
ARC
  5
9B
102
{ACAD_REACTORS
330
113
102
}
330
1F
100
AcDbEntity
  8
LC-001-002-----0
 62
     7
370
    50
100
AcDbCircle
 10
357.507428
 20
141.653977
 30
0.0
 40
2.499999999999965
100
AcDbArc
 50
179.999696
 51
269.999696
  0
LINE
  5
9C
102
{ACAD_REACTORS
330
113
102
}
330
1F
100
AcDbEntity
  8
LC-001-002-----0
 62
     7
370
    50
100
AcDbLine
 10
357.507415
 20
139.153977
 30
0.0
 11
391.007423
 21
139.1538
 31
0.0
  0
LINE
  5
9D
102
{ACAD_REACTORS
330
113
102
}
330
1F
100
AcDbEntity
  8
LC-001-002-----0
 62
     7
370
    50
100
AcDbLine
 10
391.007423
 20
139.1538
 30
0.0
 11
424.51046
 21
139.154149
 31
0.0
  0
ARC
  5
9E
102
{ACAD_REACTORS
330
113
102
}
330
1F
100
AcDbEntity
  8
LC-001-002-----0
 62
     7
370
    50
100
AcDbCircle
 10
424.510434
 20
141.654149
 30
0.0
 40
2.500000000000005
100
AcDbArc
 50
270.000598
 51
0.000267
  0
LINE
  5
9F
102
{ACAD_REACTORS
330
113
102
}
330
1F
100
AcDbEntity
  8
LC-001-002-----0
 62
     7
370
    50
100
AcDbLine
 10
427.010434
 20
141.654161
 30
0.0
 11
427.01041
 21
146.654161
 31
0.0
  0
ARC
  5
A0
102
{ACAD_REACTORS
330
113
102
}
330
1F
100
AcDbEntity
  8
LC-001-002-----0
 62
     7
370
    50
100
AcDbCircle
 10
424.51041
 20
146.654149
 30
0.0
 40
2.500000000000012
100
AcDbArc
 50
0.000267
 51
90.000267
  0
LINE
  5
A1
102
{ACAD_REACTORS
330
115
102
}
330
1F
100
AcDbEntity
  8
LC-001-002-----0
 62
     7
370
    50
100
AcDbLine
 10
382.507531
 20
161.153845
 30
0.0
 11
297.507531
 21
161.154296
 31
0.0
  0
ARC
  5
A2
102
{ACAD_REACTORS
330
115
102
}
330
1F
100
AcDbEntity
  8
LC-001-002-----0
 62
     7
370
    50
100
AcDbCircle
 10
297.507545
 20
163.654296
 30
0.0
 40
2.500000000000079
100
AcDbArc
 50
179.999696
 51
269.999696
  0
LINE
  5
A3
102
{ACAD_REACTORS
330
115
102
}
330
1F
100
AcDbEntity
  8
LC-001-002-----0
 62
     7
370
    50
100
AcDbLine
 10
295.007545
 20
163.654309
 30
0.0
 11
295.007571
 21
168.654309
 31
0.0
  0
ARC
  5
A4
102
{ACAD_REACTORS
330
115
102
}
330
1F
100
AcDbEntity
  8
LC-001-002-----0
 62
     7
370
    50
100
AcDbCircle
 10
297.507571
 20
168.654296
 30
0.0
 40
2.500000000000022
100
AcDbArc
 50
89.999696
 51
179.999696
  0
LINE
  5
A5
102
{ACAD_REACTORS
330
115
102
}
330
1F
100
AcDbEntity
  8
LC-001-002-----0
 62
     7
370
    50
100
AcDbLine
 10
297.507585
 20
171.154296
 30
0.0
 11
382.507585
 21
171.153845
 31
0.0
  0
ARC
  5
A6
102
{ACAD_REACTORS
330
115
102
}
330
1F
100
AcDbEntity
  8
LC-001-002-----0
 62
     7
370
    50
100
AcDbCircle
 10
382.507571
 20
168.653845
 30
0.0
 40
2.500000000000079
100
AcDbArc
 50
359.999696
 51
89.999696
  0
LINE
  5
A7
102
{ACAD_REACTORS
330
115
102
}
330
1F
100
AcDbEntity
  8
LC-001-002-----0
 62
     7
370
    50
100
AcDbLine
 10
385.007571
 20
168.653831
 30
0.0
 11
385.007545
 21
163.653831
 31
0.0
  0
ARC
  5
A8
102
{ACAD_REACTORS
330
115
102
}
330
1F
100
AcDbEntity
  8
LC-001-002-----0
 62
     7
370
    50
100
AcDbCircle
 10
382.507545
 20
163.653845
 30
0.0
 40
2.500000000000022
100
AcDbArc
 50
269.999696
 51
359.999696
  0
LINE
  5
A9
102
{ACAD_REACTORS
330
108
102
}
330
1F
100
AcDbEntity
  8
LC-001-002-----0
 62
     7
370
    50
100
AcDbLine
 10
344.507415
 20
139.154046
 30
0.0
 11
297.507415
 21
139.154296
 31
0.0
  0
ARC
  5
AA
102
{ACAD_REACTORS
330
108
102
}
330
1F
100
AcDbEntity
  8
LC-001-002-----0
 62
     7
370
    50
100
AcDbCircle
 10
297.507428
 20
141.654296
 30
0.0
 40
2.500000000000022
100
AcDbArc
 50
179.999696
 51
269.999696
  0
LINE
  5
AB
102
{ACAD_REACTORS
330
108
102
}
330
1F
100
AcDbEntity
  8
LC-001-002-----0
 62
     7
370
    50
100
AcDbLine
 10
295.007428
 20
141.654309
 30
0.0
 11
295.007454
 21
146.654309
 31
0.0
  0
ARC
  5
AC
102
{ACAD_REACTORS
330
108
102
}
330
1F
100
AcDbEntity
  8
LC-001-002-----0
 62
     7
370
    50
100
AcDbCircle
 10
297.507454
 20
146.654296
 30
0.0
 40
2.499999999999965
100
AcDbArc
 50
89.999696
 51
179.999696
  0
LINE
  5
AD
102
{ACAD_REACTORS
330
108
102
}
330
1F
100
AcDbEntity
  8
LC-001-002-----0
 62
     7
370
    50
100
AcDbLine
 10
297.507468
 20
149.154296
 30
0.0
 11
344.507468
 21
149.154046
 31
0.0
  0
ARC
  5
AE
102
{ACAD_REACTORS
330
108
102
}
330
1F
100
AcDbEntity
  8
LC-001-002-----0
 62
     7
370
    50
100
AcDbCircle
 10
344.507454
 20
146.654046
 30
0.0
 40
2.500000000000022
100
AcDbArc
 50
359.999696
 51
89.999696
  0
LINE
  5
AF
102
{ACAD_REACTORS
330
107
102
}
330
1F
100
AcDbEntity
  8
LC-001-002-----0
 62
     7
370
    50
100
AcDbLine
 10
297.507648
 20
183.154296
 30
0.0
 11
382.507648
 21
183.153845
 31
0.0
  0
ARC
  5
B0
102
{ACAD_REACTORS
330
107
102
}
330
1F
100
AcDbEntity
  8
LC-001-002-----0
 62
     7
370
    50
100
AcDbCircle
 10
382.507661
 20
185.653845
 30
0.0
 40
2.499999999999993
100
AcDbArc
 50
269.999696
 51
359.999696
  0
LINE
  5
B1
102
{ACAD_REACTORS
330
107
102
}
330
1F
100
AcDbEntity
  8
LC-001-002-----0
 62
     7
370
    50
100
AcDbLine
 10
385.007661
 20
185.653831
 30
0.0
 11
385.007688
 21
190.653831
 31
0.0
  0
ARC
  5
B2
102
{ACAD_REACTORS
330
107
102
}
330
1F
100
AcDbEntity
  8
LC-001-002-----0
 62
     7
370
    50
100
AcDbCircle
 10
382.507688
 20
190.653845
 30
0.0
 40
2.500000000000022
100
AcDbArc
 50
359.999696
 51
89.999696
  0
LINE
  5
B3
102
{ACAD_REACTORS
330
107
102
}
330
1F
100
AcDbEntity
  8
LC-001-002-----0
 62
     7
370
    50
100
AcDbLine
 10
382.507701
 20
193.153845
 30
0.0
 11
297.507701
 21
193.154296
 31
0.0
  0
ARC
  5
B4
102
{ACAD_REACTORS
330
107
102
}
330
1F
100
AcDbEntity
  8
LC-001-002-----0
 62
     7
370
    50
100
AcDbCircle
 10
297.507688
 20
190.654296
 30
0.0
 40
2.499999999999993
100
AcDbArc
 50
89.999696
 51
179.999696
  0
LINE
  5
B5
102
{ACAD_REACTORS
330
107
102
}
330
1F
100
AcDbEntity
  8
LC-001-002-----0
 62
     7
370
    50
100
AcDbLine
 10
295.007688
 20
190.654309
 30
0.0
 11
295.007661
 21
185.654309
 31
0.0
  0
ARC
  5
B6
102
{ACAD_REACTORS
330
107
102
}
330
1F
100
AcDbEntity
  8
LC-001-002-----0
 62
     7
370
    50
100
AcDbCircle
 10
297.507661
 20
185.654296
 30
0.0
 40
2.500000000000022
100
AcDbArc
 50
179.999696
 51
269.999696
  0
LINE
  5
B7
102
{ACAD_REACTORS
330
10A
102
}
330
1F
100
AcDbEntity
  8
LC-001-002-----0
 62
     7
370
    50
100
AcDbLine
 10
297.508879
 20
204.155371
 30
0.0
 11
382.508879
 21
204.155371
 31
0.0
  0
ARC
  5
B8
102
{ACAD_REACTORS
330
10A
102
}
330
1F
100
AcDbEntity
  8
LC-001-002-----0
 62
     7
370
    50
100
AcDbCircle
 10
382.508879
 20
206.655371
 30
0.0
 40
2.5
100
AcDbArc
 50
270.0
 51
0.0
  0
LINE
  5
B9
102
{ACAD_REACTORS
330
10A
102
}
330
1F
100
AcDbEntity
  8
LC-001-002-----0
 62
     7
370
    50
100
AcDbLine
 10
385.008879
 20
206.655371
 30
0.0
 11
385.008879
 21
211.655371
 31
0.0
  0
ARC
  5
BA
102
{ACAD_REACTORS
330
10A
102
}
330
1F
100
AcDbEntity
  8
LC-001-002-----0
 62
     7
370
    50
100
AcDbCircle
 10
382.508879
 20
211.655371
 30
0.0
 40
2.5
100
AcDbArc
 50
0.0
 51
90.0
  0
LINE
  5
BB
102
{ACAD_REACTORS
330
10A
102
}
330
1F
100
AcDbEntity
  8
LC-001-002-----0
 62
     7
370
    50
100
AcDbLine
 10
382.508879
 20
214.155371
 30
0.0
 11
297.508879
 21
214.155371
 31
0.0
  0
ARC
  5
BC
102
{ACAD_REACTORS
330
10A
102
}
330
1F
100
AcDbEntity
  8
LC-001-002-----0
 62
     7
370
    50
100
AcDbCircle
 10
297.508879
 20
211.655371
 30
0.0
 40
2.5
100
AcDbArc
 50
90.0
 51
180.0
  0
LINE
  5
BD
102
{ACAD_REACTORS
330
10A
102
}
330
1F
100
AcDbEntity
  8
LC-001-002-----0
 62
     7
370
    50
100
AcDbLine
 10
295.008879
 20
211.655371
 30
0.0
 11
295.008879
 21
206.655371
 31
0.0
  0
ARC
  5
BE
102
{ACAD_REACTORS
330
10A
102
}
330
1F
100
AcDbEntity
  8
LC-001-002-----0
 62
     7
370
    50
100
AcDbCircle
 10
297.508879
 20
206.655371
 30
0.0
 40
2.5
100
AcDbArc
 50
180.0
 51
270.0
  0
LINE
  5
BF
102
{ACAD_REACTORS
330
109
102
}
330
1F
100
AcDbEntity
  8
LC-001-002-----0
 62
     7
370
    50
100
AcDbLine
 10
297.508879
 20
226.155371
 30
0.0
 11
382.508879
 21
226.155371
 31
0.0
  0
ARC
  5
C0
102
{ACAD_REACTORS
330
109
102
}
330
1F
100
AcDbEntity
  8
LC-001-002-----0
 62
     7
370
    50
100
AcDbCircle
 10
382.508879
 20
228.655371
 30
0.0
 40
2.5
100
AcDbArc
 50
270.0
 51
0.0
  0
LINE
  5
C1
102
{ACAD_REACTORS
330
109
102
}
330
1F
100
AcDbEntity
  8
LC-001-002-----0
 62
     7
370
    50
100
AcDbLine
 10
385.008879
 20
228.655371
 30
0.0
 11
385.008879
 21
233.655371
 31
0.0
  0
ARC
  5
C2
102
{ACAD_REACTORS
330
109
102
}
330
1F
100
AcDbEntity
  8
LC-001-002-----0
 62
     7
370
    50
100
AcDbCircle
 10
382.508879
 20
233.655371
 30
0.0
 40
2.5
100
AcDbArc
 50
0.0
 51
90.0
  0
LINE
  5
C3
102
{ACAD_REACTORS
330
109
102
}
330
1F
100
AcDbEntity
  8
LC-001-002-----0
 62
     7
370
    50
100
AcDbLine
 10
382.508879
 20
236.155371
 30
0.0
 11
297.508879
 21
236.155371
 31
0.0
  0
ARC
  5
C4
102
{ACAD_REACTORS
330
109
102
}
330
1F
100
AcDbEntity
  8
LC-001-002-----0
 62
     7
370
    50
100
AcDbCircle
 10
297.508879
 20
233.655371
 30
0.0
 40
2.5
100
AcDbArc
 50
90.0
 51
180.0
  0
LINE
  5
C5
102
{ACAD_REACTORS
330
109
102
}
330
1F
100
AcDbEntity
  8
LC-001-002-----0
 62
     7
370
    50
100
AcDbLine
 10
295.008879
 20
233.655371
 30
0.0
 11
295.008879
 21
228.655371
 31
0.0
  0
ARC
  5
C6
102
{ACAD_REACTORS
330
109
102
}
330
1F
100
AcDbEntity
  8
LC-001-002-----0
 62
     7
370
    50
100
AcDbCircle
 10
297.508879
 20
228.655371
 30
0.0
 40
2.5
100
AcDbArc
 50
180.0
 51
270.0
  0
LINE
  5
C7
102
{ACAD_REACTORS
330
108
102
}
330
1F
100
AcDbEntity
  8
LC-001-002-----0
 62
     7
370
    50
100
AcDbLine
 10
347.007454
 20
146.654033
 30
0.0
 11
347.007428
 21
141.654033
 31
0.0
  0
ARC
  5
C8
102
{ACAD_REACTORS
330
108
102
}
330
1F
100
AcDbEntity
  8
LC-001-002-----0
 62
     7
370
    50
100
AcDbCircle
 10
344.507428
 20
141.654046
 30
0.0
 40
2.500000000000022
100
AcDbArc
 50
269.999696
 51
359.999696
  0
LINE
  5
C9
330
1F
100
AcDbEntity
  8
LC-001-002-----0
 62
     7
370
    50
100
AcDbLine
 10
503.508904
 20
388.294888
 30
0.0
 11
278.508831
 21
388.295035
 31
0.0
  0
LINE
  5
CA
330
1F
100
AcDbEntity
  8
LC-001-002-----0
 62
     7
370
    50
100
AcDbLine
 10
501.759104
 20
368.294889
 30
0.0
 11
280.258605
 21
368.295034
 31
0.0
  0
LINE
  5
CC
330
1F
100
AcDbEntity
  8
LC-001-002-----0
  6
DASHDOT
 62
     7
370
    25
100
AcDbLine
 10
391.008868
 20
388.294962
 30
0.0
 11
391.008854
 21
368.294962
 31
0.0
  0
LINE
  5
CD
330
1F
100
AcDbEntity
  8
LC-001-002-----0
 62
     7
370
    50
100
AcDbLine
 10
278.508831
 20
388.295035
 30
0.0
 11
280.258605
 21
368.295034
 31
0.0
  0
LINE
  5
CE
330
1F
100
AcDbEntity
  8
LC-001-002-----0
 62
     7
370
    50
100
AcDbLine
 10
503.508904
 20
388.294888
 30
0.0
 11
501.759104
 21
368.294889
 31
0.0
  0
LINE
  5
CF
330
1F
100
AcDbEntity
  8
LC-001-002-----0
 62
     7
370
    50
100
AcDbLine
 10
473.508891
 20
378.294908
 30
0.0
 11
308.508831
 21
378.295015
 31
0.0
  0
LINE
  5
D0
330
1F
100
AcDbEntity
  8
LC-001-002-----0
 62
     7
370
    50
100
AcDbLine
 10
493.808984
 20
380.294894
 30
0.0
 11
492.759104
 21
368.294895
 31
0.0
  0
LINE
  5
D1
330
1F
100
AcDbEntity
  8
LC-001-002-----0
 62
     7
370
    50
100
AcDbLine
 10
308.508831
 20
368.295015
 30
0.0
 11
308.508831
 21
380.295015
 31
0.0
  0
LINE
  5
D2
330
1F
100
AcDbEntity
  8
LC-001-002-----0
 62
     7
370
    50
100
AcDbLine
 10
473.508877
 20
368.294908
 30
0.0
 11
473.508893
 21
380.294908
 31
0.0
  0
INSERT
  5
E4
330
1F
100
AcDbEntity
  8
LC-003-005-----0
 62
     7
370
    25
100
AcDbBlockReference
  2
*X13
 10
0.0
 20
0.0
 30
0.0
  0
LINE
  5
E5
330
1F
100
AcDbEntity
  8
LC-001-002-----0
 62
     7
370
    50
100
AcDbLine
 10
288.208741
 20
380.295029
 30
0.0
 11
289.258605
 21
368.295028
 31
0.0
  0
LINE
  5
E6
330
1F
100
AcDbEntity
  8
LC-001-002-----0
 62
     7
370
    50
100
AcDbLine
 10
493.808984
 20
380.294894
 30
0.0
 11
288.383718
 21
380.295029
 31
0.0
  0
INSERT
  5
F6
330
1F
100
AcDbEntity
  8
LC-003-005-----0
 62
     7
370
    25
100
AcDbBlockReference
  2
*X24
 10
0.0
 20
0.0
 30
0.0
  0
DIMENSION
  5
F7
330
1F
100
AcDbEntity
  8
LC-002-003-----0
 62
     7
370
    25
100
AcDbDimension
  2
*D5
 10
252.470814
 20
368.295034
 30
0.0
 11
221.670814
 21
371.25
 31
0.0
 70
   160
 71
     5
 42
20.000001
 53
90.0
  3
LC-DIM-L-0140-02-02
100
AcDbAlignedDimension
 13
278.508831
 23
388.295035
 33
0.0
 14
280.258605
 24
368.295034
 34
0.0
 50
90.0
100
AcDbRotatedDimension
  0
LINE
  5
106
330
1F
100
AcDbEntity
  8
LC-001-002-----0
 62
     7
370
    25
100
AcDbLine
 10
503.508904
 20
388.294888
 30
0.0
 11
503.508904
 21
375.423757
 31
0.0
  0
ENDSEC
  0
SECTION
  2
OBJECTS
  0
DICTIONARY
  5
C
330
0
100
AcDbDictionary
281
     1
  3
ACAD_GROUP
350
D
  3
ACAD_LAYOUT
350
1A
  3
ACAD_MLINESTYLE
350
17
  3
ACAD_PLOTSETTINGS
350
19
  3
ACAD_PLOTSTYLENAME
350
E
  0
DICTIONARY
  5
D
102
{ACAD_REACTORS
330
C
102
}
330
C
100
AcDbDictionary
281
     1
  3
LCGROUP176
350
10D
  3
LCGROUP185
350
10C
  3
LCGROUP196
350
10F
  3
LCGROUP205
350
10E
  3
LCGROUP214
350
111
  3
LCGROUP223
350
110
  3
LCGROUP232
350
112
  3
LCGROUP241
350
114
  3
LCGROUP250
350
113
  3
LCGROUP262
350
115
  3
LCGROUP272
350
108
  3
LCGROUP279
350
107
  3
LCGROUP288
350
10A
  3
LCGROUP297
350
109
  3
LCGROUP45
350
10B
  0
DICTIONARY
  5
1A
102
{ACAD_REACTORS
330
C
102
}
330
C
100
AcDbDictionary
281
     1
  3
Layout1
350
1E
  3
Layout2
350
26
  3
Model
350
22
  0
DICTIONARY
  5
17
102
{ACAD_REACTORS
330
C
102
}
330
C
100
AcDbDictionary
281
     1
  3
Standard
350
18
  0
DICTIONARY
  5
19
102
{ACAD_REACTORS
330
C
102
}
330
C
100
AcDbDictionary
281
     1
  0
ACDBDICTIONARYWDFLT
  5
E
102
{ACAD_REACTORS
330
C
102
}
330
C
100
AcDbDictionary
281
     1
  3
Normal
350
F
100
AcDbDictionaryWithDefault
340
F
  0
GROUP
  5
10D
102
{ACAD_REACTORS
330
D
102
}
330
D
100
AcDbGroup
300
Äquidistante
 70
     1
 71
     1
340
55
340
56
340
57
340
58
340
59
340
5A
340
5B
340
5C
  0
GROUP
  5
10C
102
{ACAD_REACTORS
330
D
102
}
330
D
100
AcDbGroup
300
Äquidistante
 70
     1
 71
     1
340
5D
340
5E
340
5F
340
60
340
61
340
62
340
63
340
64
340
65
340
66
  0
GROUP
  5
10F
102
{ACAD_REACTORS
330
D
102
}
330
D
100
AcDbGroup
300
Äquidistante
 70
     1
 71
     1
340
67
340
68
340
69
340
6A
340
6B
340
6C
340
6D
340
6E
  0
GROUP
  5
10E
102
{ACAD_REACTORS
330
D
102
}
330
D
100
AcDbGroup
300
Äquidistante
 70
     1
 71
     1
340
6F
340
70
340
71
340
72
340
73
340
74
340
75
340
76
  0
GROUP
  5
111
102
{ACAD_REACTORS
330
D
102
}
330
D
100
AcDbGroup
300
Äquidistante
 70
     1
 71
     1
340
77
340
78
340
79
340
7A
340
7B
340
7C
340
7D
340
7E
  0
GROUP
  5
110
102
{ACAD_REACTORS
330
D
102
}
330
D
100
AcDbGroup
300
Äquidistante
 70
     1
 71
     1
340
7F
340
80
340
81
340
82
340
83
340
84
340
85
340
86
  0
GROUP
  5
112
102
{ACAD_REACTORS
330
D
102
}
330
D
100
AcDbGroup
300
Äquidistante
 70
     1
 71
     1
340
87
340
88
340
89
340
8A
340
8B
340
8C
340
8D
340
8E
  0
GROUP
  5
114
102
{ACAD_REACTORS
330
D
102
}
330
D
100
AcDbGroup
300
Äquidistante
 70
     1
 71
     1
340
8F
340
90
340
91
340
92
340
93
340
94
340
95
340
96
  0
GROUP
  5
113
102
{ACAD_REACTORS
330
D
102
}
330
D
100
AcDbGroup
300
Äquidistante
 70
     1
 71
     1
340
97
340
98
340
99
340
9A
340
9B
340
9C
340
9D
340
9E
340
9F
340
A0
  0
GROUP
  5
115
102
{ACAD_REACTORS
330
D
102
}
330
D
100
AcDbGroup
300
Äquidistante
 70
     1
 71
     1
340
A1
340
A2
340
A3
340
A4
340
A5
340
A6
340
A7
340
A8
  0
GROUP
  5
108
102
{ACAD_REACTORS
330
D
102
}
330
D
100
AcDbGroup
300
Äquidistante
 70
     1
 71
     1
340
A9
340
AA
340
AB
340
AC
340
AD
340
AE
340
C7
340
C8
  0
GROUP
  5
107
102
{ACAD_REACTORS
330
D
102
}
330
D
100
AcDbGroup
300
Äquidistante
 70
     1
 71
     1
340
AF
340
B0
340
B1
340
B2
340
B3
340
B4
340
B5
340
B6
  0
GROUP
  5
10A
102
{ACAD_REACTORS
330
D
102
}
330
D
100
AcDbGroup
300
Äquidistante
 70
     1
 71
     1
340
B7
340
B8
340
B9
340
BA
340
BB
340
BC
340
BD
340
BE
  0
GROUP
  5
109
102
{ACAD_REACTORS
330
D
102
}
330
D
100
AcDbGroup
300
Äquidistante
 70
     1
 71
     1
340
BF
340
C0
340
C1
340
C2
340
C3
340
C4
340
C5
340
C6
  0
GROUP
  5
10B
102
{ACAD_REACTORS
330
D
102
}
330
D
100
AcDbGroup
300
GRP45
 70
     1
 71
     1
340
34
340
35
340
36
  0
LAYOUT
  5
1E
102
{ACAD_REACTORS
330
1A
102
}
330
1A
100
AcDbPlotSettings
  1

  2

  4

  6

 40
0.0
 41
0.0
 42
0.0
 43
0.0
 44
0.0
 45
0.0
 46
0.0
 47
0.0
 48
0.0
 49
0.0
140
0.0
141
0.0
142
1.0
143
1.0
 70
   688
 72
     0
 73
     0
 74
     5
  7

 75
    16
147
1.0
148
0.0
149
0.0
100
AcDbLayout
  1
Layout1
 70
     1
 71
     1
 10
0.0
 20
0.0
 11
840.0
 21
594.0
 12
0.0
 22
0.0
 32
0.0
 14
0.0
 24
0.0
 34
0.0
 15
840.0
 25
594.0
 35
0.0
146
0.0
 13
0.0
 23
0.0
 33
0.0
 16
1.0
 26
0.0
 36
0.0
 17
0.0
 27
1.0
 37
0.0
 76
     0
330
1B
  0
LAYOUT
  5
26
102
{ACAD_REACTORS
330
1A
102
}
330
1A
100
AcDbPlotSettings
  1

  2

  4

  6

 40
0.0
 41
0.0
 42
0.0
 43
0.0
 44
0.0
 45
0.0
 46
0.0
 47
0.0
 48
0.0
 49
0.0
140
0.0
141
0.0
142
1.0
143
1.0
 70
   688
 72
     0
 73
     0
 74
     5
  7

 75
    16
147
1.0
148
0.0
149
0.0
100
AcDbLayout
  1
Layout2
 70
     1
 71
     2
 10
0.0
 20
0.0
 11
0.0
 21
0.0
 12
0.0
 22
0.0
 32
0.0
 14
0.0
 24
0.0
 34
0.0
 15
0.0
 25
0.0
 35
0.0
146
0.0
 13
0.0
 23
0.0
 33
0.0
 16
1.0
 26
0.0
 36
0.0
 17
0.0
 27
1.0
 37
0.0
 76
     0
330
23
  0
LAYOUT
  5
22
102
{ACAD_REACTORS
330
1A
102
}
330
1A
100
AcDbPlotSettings
  1

  2

  4

  6

 40
0.0
 41
0.0
 42
0.0
 43
0.0
 44
0.0
 45
0.0
 46
0.0
 47
0.0
 48
0.0
 49
0.0
140
0.0
141
0.0
142
1.0
143
1.0
 70
  1776
 72
     0
 73
     0
 74
     0
  7

 75
     0
147
1.0
148
0.0
149
0.0
100
AcDbLayout
  1
Model
 70
     1
 71
     0
 10
0.0
 20
0.0
 11
840.0
 21
594.0
 12
0.0
 22
0.0
 32
0.0
 14
0.0
 24
0.0
 34
0.0
 15
840.0
 25
594.0
 35
0.0
146
0.0
 13
0.0
 23
0.0
 33
0.0
 16
1.0
 26
0.0
 36
0.0
 17
0.0
 27
1.0
 37
0.0
 76
     0
330
1F
  0
MLINESTYLE
  5
18
102
{ACAD_REACTORS
330
17
102
}
330
17
100
AcDbMlineStyle
  2
Standard
 70
     0
  3

 62
   256
 51
90.0
 52
90.0
 71
     2
 49
0.5
 62
   256
  6
BYLAYER
 49
-0.5
 62
   256
  6
BYLAYER
  0
ACDBPLACEHOLDER
  5
F
102
{ACAD_REACTORS
330
E
102
}
330
E
  0
ENDSEC
  0
EOF
