  0
SECTION
  2
HEADER
  9
$ACADVER
  1
AC1009
  9
$INSBASE
 10
389.045064
 20
542.712773
 30
0.0
  9
$EXTMIN
 10
0.0
 20
0.0
 30
0.0
  9
$EXTMAX
 10
840.0
 20
594.0
 30
0.0
  9
$LIMMIN
 10
0.0
 20
0.0
  9
$LIMMAX
 10
840.0
 20
594.0
  9
$ORTHOMODE
 70
     0
  9
$REGENMODE
 70
     1
  9
$FILLMODE
 70
     1
  9
$QTEXTMODE
 70
     0
  9
$MIRRTEXT
 70
     1
  9
$DRAGMODE
 70
     2
  9
$LTSCALE
 40
2.0
  9
$OSMODE
 70
     0
  9
$ATTMODE
 70
     1
  9
$TEXTSIZE
 40
0.2
  9
$TRACEWID
 40
0.05
  9
$TEXTSTYLE
  7
STANDARD
  9
$CLAYER
  8
0
  9
$CELTYPE
  6
BYLAYER
  9
$CECOLOR
 62
     7
  9
$DIMSCALE
 40
2.0
  9
$DIMASZ
 40
3.5
  9
$DIMEXO
 40
0.0625
  9
$DIMDLI
 40
0.38
  9
$DIMRND
 40
0.0
  9
$DIMDLE
 40
0.0
  9
$DIMEXE
 40
0.18
  9
$DIMTP
 40
0.0
  9
$DIMTM
 40
0.0
  9
$DIMTXT
 40
3.5
  9
$DIMCEN
 40
0.09
  9
$DIMTSZ
 40
0.0
  9
$DIMTOL
 70
     0
  9
$DIMLIM
 70
     0
  9
$DIMTIH
 70
     1
  9
$DIMTOH
 70
     1
  9
$DIMSE1
 70
     0
  9
$DIMSE2
 70
     0
  9
$DIMTAD
 70
     1
  9
$DIMZIN
 70
     0
  9
$DIMBLK
  1

  9
$DIMASO
 70
     1
  9
$DIMSHO
 70
     1
  9
$DIMPOST
  1

  9
$DIMAPOST
  1

  9
$DIMALT
 70
     0
  9
$DIMALTD
 70
     2
  9
$DIMALTF
 40
25.4
  9
$DIMLFAC
 40
1.0
  9
$DIMTOFL
 70
     0
  9
$DIMTVP
 40
0.0
  9
$DIMTIX
 70
     0
  9
$DIMSOXD
 70
     0
  9
$DIMSAH
 70
     0
  9
$DIMBLK1
  1

  9
$DIMBLK2
  1

  9
$DIMSTYLE
  2
STANDARD
  9
$DIMCLRD
 70
     0
  9
$DIMCLRE
 70
     0
  9
$DIMCLRT
 70
     0
  9
$DIMTFAC
 40
1.0
  9
$DIMGAP
 40
0.09
  9
$LUNITS
 70
     2
  9
$LUPREC
 70
     2
  9
$AXISMODE
 70
     0
  9
$AXISUNIT
 10
0.0
 20
0.0
  9
$SKETCHINC
 40
0.1
  9
$FILLETRAD
 40
0.0
  9
$AUNITS
 70
     0
  9
$AUPREC
 70
     0
  9
$MENU
  1
acad
  9
$ELEVATION
 40
0.0
  9
$PELEVATION
 40
0.0
  9
$THICKNESS
 40
0.0
  9
$LIMCHECK
 70
     0
  9
$BLIPMODE
 70
     1
  9
$CHAMFERA
 40
0.0
  9
$CHAMFERB
 40
0.0
  9
$SKPOLY
 70
     0
  9
$TDCREATE
 40
0.000000000
  9
$TDUPDATE
 40
0.000000000
  9
$TDINDWG
 40
0.0000000000
  9
$TDUSRTIMER
 40
0.0000000000
  9
$USRTIMER
 70
     1
  9
$ANGBASE
 50
0.0
  9
$ANGDIR
 70
     0
  9
$PDMODE
 70
     0
  9
$PDSIZE
 40
0.0
  9
$PLINEWID
 40
0.0
  9
$COORDS
 70
     0
  9
$SPLFRAME
 70
     0
  9
$SPLINETYPE
 70
     6
  9
$SPLINESEGS
 70
     8
  9
$ATTDIA
 70
     0
  9
$ATTREQ
 70
     1
  9
$HANDLING
 70
     1
  9
$HANDSEED
  5
239
  9
$SURFTAB1
 70
     6
  9
$SURFTAB2
 70
     6
  9
$SURFTYPE
 70
     6
  9
$SURFU
 70
     6
  9
$SURFV
 70
     6
  9
$UCSNAME
  2

  9
$UCSORG
 10
0.0
 20
0.0
 30
0.0
  9
$UCSXDIR
 10
1.0
 20
0.0
 30
0.0
  9
$UCSYDIR
 10
0.0
 20
1.0
 30
0.0
  9
$PUCSNAME
  2

  9
$PUCSORG
 10
0.0
 20
0.0
 30
0.0
  9
$PUCSXDIR
 10
1.0
 20
0.0
 30
0.0
  9
$PUCSYDIR
 10
0.0
 20
1.0
 30
0.0
  9
$USERI1
 70
     0
  9
$USERI2
 70
     0
  9
$USERI3
 70
     0
  9
$USERI4
 70
     0
  9
$USERI5
 70
     0
  9
$USERR1
 40
0.0
  9
$USERR2
 40
0.0
  9
$USERR3
 40
0.0
  9
$USERR4
 40
0.0
  9
$USERR5
 40
0.0
  9
$WORLDVIEW
 70
     1
  9
$SHADEDGE
 70
     3
  9
$SHADEDIF
 70
    70
  9
$TILEMODE
 70
     1
  9
$MAXACTVP
 70
    16
  9
$PINSBASE
 10
0.0
 20
0.0
 30
0.0
  9
$PLIMCHECK
 70
     0
  9
$PEXTMIN
 10
1.000000E+20
 20
1.000000E+20
 30
1.000000E+20
  9
$PEXTMAX
 10
-1.000000E+20
 20
-1.000000E+20
 30
-1.000000E+20
  9
$PLIMMIN
 10
0.0
 20
0.0
  9
$PLIMMAX
 10
840.0
 20
594.0
  9
$UNITMODE
 70
     0
  9
$VISRETAIN
 70
     0
  9
$PLINEGEN
 70
     1
  9
$PSLTSCALE
 70
     0
  9
$TREEDEPTH
 70
  3020
  9
$DWGCODEPAGE
  3
dos850
  0
ENDSEC
  0
SECTION
  2
TABLES
  0
TABLE
  2
VPORT
 70
     1
  0
VPORT
  2
*ACTIVE
 70
     0
 10
0.0
 20
0.0
 11
1.0
 21
1.0
 12
420.0
 22
297.0
 13
0.0
 23
0.0
 14
1.0
 24
1.0
 15
0.0
 25
0.0
 16
0.0
 26
0.0
 36
1.0
 17
0.0
 27
0.0
 37
0.0
 40
594.0
 41
1.604229
 42
50.0
 43
0.0
 44
0.0
 50
0.0
 51
0.0
 71
     0
 72
   100
 73
     1
 74
     1
 75
     0
 76
     0
 77
     0
 78
     0
  0
ENDTAB
  0
TABLE
  2
LTYPE
 70
     2
  0
LTYPE
  2
CONTINUOUS
 70
    64
  3
Solid line
 72
    65
 73
     0
 40
0.0
  0
LTYPE
  2
DASHDOT
 70
    64
  3
__ . __ . __ . __ . __
 72
    65
 73
     4
 40
7.5
 49
5.0
 49
-1.25
 49
0.0
 49
-1.25
  0
ENDTAB
  0
TABLE
  2
LAYER
 70
    12
  0
LAYER
  2
0
 70
     0
 62
     7
  6
CONTINUOUS
  0
LAYER
  2
LC-INFO-1-2-MM-A3-0
 70
     1
 62
    -1
  6
CONTINUOUS
  0
LAYER
  2
LC-003-003-MTH-0
 70
     0
 62
     2
  6
CONTINUOUS
  0
LAYER
  2
LC-004-003-MTG-0
 70
     0
 62
     2
  6
CONTINUOUS
  0
LAYER
  2
LC-002-003-----0
 70
     0
 62
     2
  6
CONTINUOUS
  0
LAYER
  2
LC-005-030-----0
 70
     0
 62
     1
  6
CONTINUOUS
  0
LAYER
  2
LC-007-031-----0
 70
     0
 62
     1
  6
CONTINUOUS
  0
LAYER
  2
LC-008-040-----0
 70
     0
 62
     1
  6
CONTINUOUS
  0
LAYER
  2
LC-006-000-----0
 70
     0
 62
     7
  6
CONTINUOUS
  0
LAYER
  2
LC-001-002-----0
 70
     0
 62
     2
  6
DASHDOT
  0
LAYER
  2
LC-009-032-----0
 70
     0
 62
     2
  6
CONTINUOUS
  0
LAYER
  2
LC-000
 70
     0
 62
     7
  6
CONTINUOUS
  0
ENDTAB
  0
TABLE
  2
STYLE
 70
     4
  0
STYLE
  2
STANDARD
 70
     0
 40
0.0
 41
1.0
 50
0.0
 71
     0
 42
0.0
  3
txt
  4

  0
STYLE
  2
LC-STANDARD
 70
    64
 40
0.0
 41
1.0
 50
0.0
 71
     0
 42
3.5
  3
MONOTXT
  4

  0
STYLE
  2
LC-TXTSTYLE-150-400-0-0-D2
 70
    64
 40
0.0
 41
1.0
 50
15.0
 71
     0
 42
3.5
  3
MONOTXT
  4

  0
STYLE
  2
LC-TXTSTYLE-150-400-0-0-D3
 70
    64
 40
0.0
 41
1.0
 50
15.0
 71
     0
 42
3.5
  3
LC-STANDARD
  4

  0
ENDTAB
  0
TABLE
  2
VIEW
 70
     0
  0
ENDTAB
  0
TABLE
  2
UCS
 70
     0
  0
ENDTAB
  0
TABLE
  2
APPID
 70
     1
  0
APPID
  2
ACAD
 70
     0
  0
ENDTAB
  0
TABLE
  2
DIMSTYLE
 70
     3
  0
DIMSTYLE
  2
STANDARD
 70
     0
  3

  4

  5

  6

  7

 40
1.0
 41
0.18
 42
0.0625
 43
0.38
 44
0.18
 45
0.0
 46
0.0
 47
0.0
 48
0.0
 71
     0
 72
     0
 73
     1
 74
     1
 75
     0
 76
     0
 77
     0
 78
     0
140
0.18
141
0.09
142
0.0
143
25.4
144
1.0
145
0.0
146
1.0
147
0.09
170
     0
171
     2
172
     0
173
     0
174
     0
175
     0
176
     0
177
     0
178
     0
  0
DIMSTYLE
  2
LC-STANDARD
 70
     0
  3

  4

  5

  6

  7

 40
1.0
 41
3.5
 42
0.0
 43
7.5
 44
1.8
 45
0.0
 46
0.0
 47
0.0
 48
0.0
 71
     0
 72
     0
 73
     0
 74
     0
 75
     0
 76
     0
 77
     1
 78
     8
140
3.5
141
0.0
142
0.0
143
25.4
144
1.0
145
0.0
146
0.71
147
1.5
170
     0
171
     2
172
     1
173
     0
174
     0
175
     0
176
     0
177
     0
178
     3
  0
DIMSTYLE
  2
LC-DIM-L-0090-02-02
 70
     0
  3

  4

  5

  6

  7

 40
2.0
 41
3.5
 42
0.0
 43
7.5
 44
1.8
 45
0.0
 46
0.0
 47
0.0
 48
0.0
 71
     0
 72
     0
 73
     0
 74
     0
 75
     0
 76
     0
 77
     1
 78
     8
140
9.0
141
0.0
142
0.0
143
25.4
144
1.0
145
0.0
146
0.71
147
1.5
170
     0
171
     2
172
     0
173
     0
174
     0
175
     0
176
     2
177
     2
178
     6
  0
ENDTAB
  0
ENDSEC
  0
SECTION
  2
BLOCKS
  0
BLOCK
  8
0
  5
23
  2
*D0
 70
    65
 10
0.0
 20
0.0
 30
0.0
  3
*D0
  0
LINE
  8
LC-003-003-MTH-0
  6
CONTINUOUS
  5
25
 10
388.343172
 20
347.140594
 30
0.0
 11
388.343172
 21
430.8
 31
0.0
  0
LINE
  8
LC-003-003-MTH-0
  6
CONTINUOUS
  5
26
 10
460.342466
 20
393.140594
 30
0.0
 11
460.342466
 21
430.8
 31
0.0
  0
LINE
  8
LC-004-003-MTG-0
  6
CONTINUOUS
  5
28
 10
388.343172
 20
420.0
 30
0.0
 11
460.342466
 21
420.0
 31
0.0
  0
LINE
  8
LC-002-003-----0
  6
CONTINUOUS
  5
2A
 10
406.18918
 20
422.349471
 30
0.0
 11
388.343172
 21
420.0
 31
0.0
  0
LINE
  8
LC-002-003-----0
  6
CONTINUOUS
  5
2B
 10
388.343172
 20
420.0
 30
0.0
 11
406.18918
 21
417.650529
 31
0.0
  0
LINE
  8
LC-002-003-----0
  6
CONTINUOUS
  5
2C
 10
406.18918
 20
417.650529
 30
0.0
 11
406.18918
 21
422.349471
 31
0.0
  0
LINE
  8
LC-002-003-----0
  6
CONTINUOUS
  5
2D
 10
406.229218
 20
421.738609
 30
0.0
 11
393.023172
 21
420.0
 31
0.0
  0
LINE
  8
LC-002-003-----0
  6
CONTINUOUS
  5
2E
 10
393.023172
 20
420.0
 30
0.0
 11
406.229218
 21
418.261391
 31
0.0
  0
LINE
  8
LC-002-003-----0
  6
CONTINUOUS
  5
2F
 10
406.269256
 20
421.127746
 30
0.0
 11
397.703172
 21
420.0
 31
0.0
  0
LINE
  8
LC-002-003-----0
  6
CONTINUOUS
  5
30
 10
397.703172
 20
420.0
 30
0.0
 11
406.269256
 21
418.872254
 31
0.0
  0
LINE
  8
LC-002-003-----0
  6
CONTINUOUS
  5
31
 10
406.309294
 20
420.516884
 30
0.0
 11
402.383172
 21
420.0
 31
0.0
  0
LINE
  8
LC-002-003-----0
  6
CONTINUOUS
  5
32
 10
402.383172
 20
420.0
 30
0.0
 11
406.309294
 21
419.483116
 31
0.0
  0
LINE
  8
LC-002-003-----0
  6
CONTINUOUS
  5
33
 10
442.496458
 20
417.650529
 30
0.0
 11
460.342466
 21
420.0
 31
0.0
  0
LINE
  8
LC-002-003-----0
  6
CONTINUOUS
  5
34
 10
460.342466
 20
420.0
 30
0.0
 11
442.496458
 21
422.349471
 31
0.0
  0
LINE
  8
LC-002-003-----0
  6
CONTINUOUS
  5
35
 10
442.496458
 20
422.349471
 30
0.0
 11
442.496458
 21
417.650529
 31
0.0
  0
LINE
  8
LC-002-003-----0
  6
CONTINUOUS
  5
36
 10
442.45642
 20
418.261391
 30
0.0
 11
455.662466
 21
420.0
 31
0.0
  0
LINE
  8
LC-002-003-----0
  6
CONTINUOUS
  5
37
 10
455.662466
 20
420.0
 30
0.0
 11
442.45642
 21
421.738609
 31
0.0
  0
LINE
  8
LC-002-003-----0
  6
CONTINUOUS
  5
38
 10
442.416382
 20
418.872254
 30
0.0
 11
450.982466
 21
420.0
 31
0.0
  0
LINE
  8
LC-002-003-----0
  6
CONTINUOUS
  5
39
 10
450.982466
 20
420.0
 30
0.0
 11
442.416382
 21
421.127746
 31
0.0
  0
LINE
  8
LC-002-003-----0
  6
CONTINUOUS
  5
3A
 10
442.376344
 20
419.483116
 30
0.0
 11
446.302466
 21
420.0
 31
0.0
  0
LINE
  8
LC-002-003-----0
  6
CONTINUOUS
  5
3B
 10
446.302466
 20
420.0
 30
0.0
 11
442.376344
 21
420.516884
 31
0.0
  0
TEXT
  8
LC-002-003-----0
  6
CONTINUOUS
 62
     6
  5
3D
 10
415.275073
 20
430.431999
 30
0.0
 40
18.0
  1
72
 41
0.9
 51
15.0
  7
LC-TXTSTYLE-150-400-0-0-D0
 72
     1
 11
427.138065
 21
430.431999
 31
0.0
  0
ENDBLK
  8
0
  5
3E
  0
BLOCK
  8
0
  5
40
  2
*D1
 70
    65
 10
0.0
 20
0.0
 30
0.0
  3
*D1
  0
LINE
  8
LC-003-003-MTH-0
  6
CONTINUOUS
  5
41
 10
471.342466
 20
307.639033
 30
0.0
 11
556.8
 21
307.639033
 31
0.0
  0
LINE
  8
LC-003-003-MTH-0
  6
CONTINUOUS
  5
42
 10
491.62725
 20
393.140822
 30
0.0
 11
556.8
 21
393.140822
 31
0.0
  0
LINE
  8
LC-004-003-MTG-0
  6
CONTINUOUS
  5
43
 10
546.0
 20
307.639033
 30
0.0
 11
546.0
 21
393.140822
 31
0.0
  0
LINE
  8
LC-002-003-----0
  6
CONTINUOUS
  5
44
 10
543.650529
 20
325.485041
 30
0.0
 11
546.0
 21
307.639033
 31
0.0
  0
LINE
  8
LC-002-003-----0
  6
CONTINUOUS
  5
45
 10
546.0
 20
307.639033
 30
0.0
 11
548.349471
 21
325.485041
 31
0.0
  0
LINE
  8
LC-002-003-----0
  6
CONTINUOUS
  5
46
 10
548.349471
 20
325.485041
 30
0.0
 11
543.650529
 21
325.485041
 31
0.0
  0
LINE
  8
LC-002-003-----0
  6
CONTINUOUS
  5
47
 10
544.261391
 20
325.525079
 30
0.0
 11
546.0
 21
312.319033
 31
0.0
  0
LINE
  8
LC-002-003-----0
  6
CONTINUOUS
  5
48
 10
546.0
 20
312.319033
 30
0.0
 11
547.738609
 21
325.525079
 31
0.0
  0
LINE
  8
LC-002-003-----0
  6
CONTINUOUS
  5
49
 10
544.872254
 20
325.565117
 30
0.0
 11
546.0
 21
316.999033
 31
0.0
  0
LINE
  8
LC-002-003-----0
  6
CONTINUOUS
  5
4A
 10
546.0
 20
316.999033
 30
0.0
 11
547.127746
 21
325.565117
 31
0.0
  0
LINE
  8
LC-002-003-----0
  6
CONTINUOUS
  5
4B
 10
545.483116
 20
325.605155
 30
0.0
 11
546.0
 21
321.679033
 31
0.0
  0
LINE
  8
LC-002-003-----0
  6
CONTINUOUS
  5
4C
 10
546.0
 20
321.679033
 30
0.0
 11
546.516884
 21
325.605155
 31
0.0
  0
LINE
  8
LC-002-003-----0
  6
CONTINUOUS
  5
4D
 10
548.349471
 20
375.294815
 30
0.0
 11
546.0
 21
393.140822
 31
0.0
  0
LINE
  8
LC-002-003-----0
  6
CONTINUOUS
  5
4E
 10
546.0
 20
393.140822
 30
0.0
 11
543.650529
 21
375.294815
 31
0.0
  0
LINE
  8
LC-002-003-----0
  6
CONTINUOUS
  5
4F
 10
543.650529
 20
375.294815
 30
0.0
 11
548.349471
 21
375.294815
 31
0.0
  0
LINE
  8
LC-002-003-----0
  6
CONTINUOUS
  5
50
 10
547.738609
 20
375.254777
 30
0.0
 11
546.0
 21
388.460822
 31
0.0
  0
LINE
  8
LC-002-003-----0
  6
CONTINUOUS
  5
51
 10
546.0
 20
388.460822
 30
0.0
 11
544.261391
 21
375.254777
 31
0.0
  0
LINE
  8
LC-002-003-----0
  6
CONTINUOUS
  5
52
 10
547.127746
 20
375.214739
 30
0.0
 11
546.0
 21
383.780822
 31
0.0
  0
LINE
  8
LC-002-003-----0
  6
CONTINUOUS
  5
53
 10
546.0
 20
383.780822
 30
0.0
 11
544.872254
 21
375.214739
 31
0.0
  0
LINE
  8
LC-002-003-----0
  6
CONTINUOUS
  5
54
 10
546.516884
 20
375.174701
 30
0.0
 11
546.0
 21
379.100822
 31
0.0
  0
LINE
  8
LC-002-003-----0
  6
CONTINUOUS
  5
55
 10
546.0
 20
379.100822
 30
0.0
 11
545.483116
 21
375.174701
 31
0.0
  0
TEXT
  8
LC-002-003-----0
  6
CONTINUOUS
 62
     6
  5
56
 10
535.568001
 20
341.322181
 30
0.0
 40
18.0
  1
85
 50
90.0
 51
15.0
  7
LC-TXTSTYLE-150-400-0-0-D0
 72
     1
 11
535.568001
 21
353.185174
 31
0.0
  0
ENDBLK
  8
0
  5
57
  0
BLOCK
  8
0
  5
59
  2
BLK1
 70
    64
 10
0.0
 20
0.0
 30
0.0
  3
BLK1
  0
ENDBLK
  8
0
  5
5A
  0
BLOCK
  8
0
  5
5C
  2
BLK2
 70
    64
 10
0.0
 20
0.0
 30
0.0
  3
BLK2
  0
ENDBLK
  8
0
  5
5D
  0
BLOCK
  8
0
  5
5F
  2
BLK3
 70
    64
 10
0.0
 20
0.0
 30
0.0
  3
BLK3
  0
ENDBLK
  8
0
  5
60
  0
BLOCK
  8
0
  5
62
  2
BLK4
 70
    64
 10
0.0
 20
0.0
 30
0.0
  3
BLK4
  0
ENDBLK
  8
0
  5
63
  0
BLOCK
  8
0
  5
65
  2
BLK5
 70
    64
 10
0.0
 20
0.0
 30
0.0
  3
BLK5
  0
ENDBLK
  8
0
  5
66
  0
BLOCK
  8
0
  5
68
  2
BLK6
 70
    64
 10
0.0
 20
0.0
 30
0.0
  3
BLK6
  0
ENDBLK
  8
0
  5
69
  0
BLOCK
  8
0
  5
6B
  2
BLK7
 70
    64
 10
0.0
 20
0.0
 30
0.0
  3
BLK7
  0
ENDBLK
  8
0
  5
6C
  0
BLOCK
  8
0
  5
6E
  2
BLK8
 70
    64
 10
0.0
 20
0.0
 30
0.0
  3
BLK8
  0
ENDBLK
  8
0
  5
6F
  0
BLOCK
  8
0
  5
71
  2
*X10
 70
    65
 10
331.893333
 20
336.140594
 30
0.0
  3
*X10
  0
LINE
  8
LC-005-030-----0
  6
CONTINUOUS
 62
     2
  5
73
 10
351.454761
 20
340.140594
 30
0.0
 11
353.343172
 21
342.029002
 31
0.0
  0
LINE
  8
LC-005-030-----0
  6
CONTINUOUS
 62
     2
  5
74
 10
345.626328
 20
337.140594
 30
0.0
 11
346.343172
 21
337.857437
 31
0.0
  0
LINE
  8
LC-005-030-----0
  6
CONTINUOUS
 62
     2
  5
75
 10
348.626332
 20
340.140594
 30
0.0
 11
350.626335
 21
342.140594
 31
0.0
  0
LINE
  8
LC-005-030-----0
  6
CONTINUOUS
 62
     2
  5
76
 10
343.343172
 20
337.685866
 30
0.0
 11
347.797906
 21
342.140594
 31
0.0
  0
LINE
  8
LC-005-030-----0
  6
CONTINUOUS
 62
     2
  5
77
 10
338.969469
 20
336.140594
 30
0.0
 11
340.529763
 21
337.700885
 31
0.0
  0
LINE
  8
LC-005-030-----0
  6
CONTINUOUS
 62
     2
  5
78
 10
343.343172
 20
340.514291
 30
0.0
 11
346.191531
 21
343.362647
 31
0.0
  0
LINE
  8
LC-005-030-----0
  6
CONTINUOUS
 62
     2
  5
79
 10
338.21206
 20
338.211611
 30
0.0
 11
340.800947
 21
340.800495
 31
0.0
  0
LINE
  8
LC-005-030-----0
  6
CONTINUOUS
 62
     2
  5
7A
 10
343.343172
 20
343.342717
 30
0.0
 11
345.255066
 21
345.254608
 31
0.0
  0
LINE
  8
LC-005-030-----0
  6
CONTINUOUS
 62
     2
  5
7B
 10
333.312611
 20
336.140594
 30
0.0
 11
334.465381
 21
337.293363
 31
0.0
  0
LINE
  8
LC-005-030-----0
  6
CONTINUOUS
 62
     2
  5
7C
 10
337.984509
 20
340.812486
 30
0.0
 11
341.072132
 21
343.900104
 31
0.0
  0
LINE
  8
LC-005-030-----0
  6
CONTINUOUS
 62
     2
  5
7D
 10
341.312621
 20
344.140594
 30
0.0
 11
343.714522
 21
346.542491
 31
0.0
  0
LINE
  8
LC-005-030-----0
  6
CONTINUOUS
 62
     2
  5
7E
 10
331.893333
 20
337.549743
 30
0.0
 11
334.653943
 21
340.31035
 31
0.0
  0
LINE
  8
LC-005-030-----0
  6
CONTINUOUS
 62
     2
  5
7F
 10
337.756959
 20
343.413361
 30
0.0
 11
341.482261
 21
347.138659
 31
0.0
  0
LINE
  8
LC-005-030-----0
  6
CONTINUOUS
 62
     2
  5
80
 10
331.893333
 20
340.378169
 30
0.0
 11
334.842505
 21
343.327336
 31
0.0
  0
LINE
  8
LC-005-030-----0
  6
CONTINUOUS
 62
     2
  5
81
 10
335.655763
 20
344.140594
 30
0.0
 11
338.655767
 21
347.140594
 31
0.0
  0
LINE
  8
LC-005-030-----0
  6
CONTINUOUS
 62
     2
  5
82
 10
331.893333
 20
343.206594
 30
0.0
 11
335.827338
 21
347.140594
 31
0.0
  0
LINE
  8
LC-005-030-----0
  6
CONTINUOUS
 62
     2
  5
83
 10
331.893333
 20
346.035019
 30
0.0
 11
332.998909
 21
347.140594
 31
0.0
  0
ENDBLK
  8
0
  5
84
  0
BLOCK
  8
0
  5
86
  2
*X11
 70
    65
 10
465.928791
 20
336.140012
 30
0.0
  3
*X11
  0
LINE
  8
LC-005-030-----0
  6
CONTINUOUS
 62
     2
  5
87
 10
481.342406
 20
337.092079
 30
0.0
 11
483.406175
 21
339.155846
 31
0.0
  0
LINE
  8
LC-005-030-----0
  6
CONTINUOUS
 62
     2
  5
88
 10
488.79093
 20
344.540594
 30
0.0
 11
489.343172
 21
345.092835
 31
0.0
  0
LINE
  8
LC-005-030-----0
  6
CONTINUOUS
 62
     2
  5
89
 10
481.177428
 20
339.755527
 30
0.0
 11
483.677359
 21
342.255455
 31
0.0
  0
LINE
  8
LC-005-030-----0
  6
CONTINUOUS
 62
     2
  5
8A
 10
485.962501
 20
344.540594
 30
0.0
 11
488.562349
 21
347.140438
 31
0.0
  0
LINE
  8
LC-005-030-----0
  6
CONTINUOUS
 62
     2
  5
8B
 10
480.579706
 20
341.986231
 30
0.0
 11
485.733355
 21
347.139873
 31
0.0
  0
LINE
  8
LC-005-030-----0
  6
CONTINUOUS
 62
     2
  5
8C
 10
479.981983
 20
344.216934
 30
0.0
 11
483.656145
 21
347.891092
 31
0.0
  0
LINE
  8
LC-005-030-----0
  6
CONTINUOUS
 62
     2
  5
8D
 10
479.38426
 20
346.447637
 30
0.0
 11
482.650241
 21
349.713614
 31
0.0
  0
LINE
  8
LC-005-030-----0
  6
CONTINUOUS
 62
     2
  5
8E
 10
478.786538
 20
348.678341
 30
0.0
 11
482.052519
 21
351.944318
 31
0.0
  0
LINE
  8
LC-005-030-----0
  6
CONTINUOUS
 62
     2
  5
8F
 10
478.188815
 20
350.909044
 30
0.0
 11
481.454796
 21
354.175021
 31
0.0
  0
LINE
  8
LC-005-030-----0
  6
CONTINUOUS
 62
     2
  5
90
 10
477.591092
 20
353.139748
 30
0.0
 11
480.857073
 21
356.405725
 31
0.0
  0
LINE
  8
LC-005-030-----0
  6
CONTINUOUS
 62
     2
  5
91
 10
476.993369
 20
355.370451
 30
0.0
 11
480.259351
 21
358.636428
 31
0.0
  0
LINE
  8
LC-005-030-----0
  6
CONTINUOUS
 62
     2
  5
92
 10
476.395647
 20
357.601154
 30
0.0
 11
479.661628
 21
360.867131
 31
0.0
  0
LINE
  8
LC-005-030-----0
  6
CONTINUOUS
 62
     2
  5
93
 10
475.797924
 20
359.831858
 30
0.0
 11
479.063905
 21
363.097835
 31
0.0
  0
LINE
  8
LC-005-030-----0
  6
CONTINUOUS
 62
     2
  5
94
 10
475.200201
 20
362.062561
 30
0.0
 11
478.466183
 21
365.328538
 31
0.0
  0
LINE
  8
LC-005-030-----0
  6
CONTINUOUS
 62
     2
  5
95
 10
474.602479
 20
364.293264
 30
0.0
 11
477.86846
 21
367.559241
 31
0.0
  0
LINE
  8
LC-005-030-----0
  6
CONTINUOUS
 62
     2
  5
96
 10
474.004756
 20
366.523968
 30
0.0
 11
477.270737
 21
369.789945
 31
0.0
  0
LINE
  8
LC-005-030-----0
  6
CONTINUOUS
 62
     2
  5
97
 10
473.407033
 20
368.754671
 30
0.0
 11
476.673015
 21
372.020648
 31
0.0
  0
LINE
  8
LC-005-030-----0
  6
CONTINUOUS
 62
     2
  5
98
 10
470.963759
 20
369.139825
 30
0.0
 11
476.075292
 21
374.251351
 31
0.0
  0
LINE
  8
LC-005-030-----0
  6
CONTINUOUS
 62
     2
  5
99
 10
468.842339
 20
369.846833
 30
0.0
 11
475.391051
 21
376.395536
 31
0.0
  0
LINE
  8
LC-005-030-----0
  6
CONTINUOUS
 62
     2
  5
9A
 10
468.842333
 20
372.675253
 30
0.0
 11
474.139686
 21
377.972598
 31
0.0
  0
LINE
  8
LC-005-030-----0
  6
CONTINUOUS
 62
     2
  5
9B
 10
468.842327
 20
375.503672
 30
0.0
 11
472.289711
 21
378.951051
 31
0.0
  0
LINE
  8
LC-005-030-----0
  6
CONTINUOUS
 62
     2
  5
9C
 10
468.842322
 20
378.332092
 30
0.0
 11
469.650053
 21
379.139822
 31
0.0
  0
ENDBLK
  8
0
  5
9D
  0
BLOCK
  8
0
  5
9F
  2
BLK9
 70
    64
 10
0.0
 20
0.0
 30
0.0
  3
BLK9
  0
ENDBLK
  8
0
  5
A0
  0
BLOCK
  8
0
  5
A2
  2
BLK10
 70
    64
 10
0.0
 20
0.0
 30
0.0
  3
BLK10
  0
ENDBLK
  8
0
  5
A3
  0
BLOCK
  8
0
  5
A5
  2
BLK11
 70
    64
 10
0.0
 20
0.0
 30
0.0
  3
BLK11
  0
ENDBLK
  8
0
  5
A6
  0
BLOCK
  8
0
  5
A8
  2
*X15
 70
    65
 10
422.343421
 20
332.140772
 30
0.0
  3
*X15
  0
LINE
  8
LC-007-031-----0
  6
CONTINUOUS
 62
     2
  5
AA
 10
422.343421
 20
335.675106
 30
0.0
 11
425.360589
 21
332.657942
 31
0.0
  0
LINE
  8
LC-007-031-----0
  6
CONTINUOUS
 62
     2
  5
AB
 10
422.343422
 20
338.50353
 30
0.0
 11
426.774803
 21
334.072155
 31
0.0
  0
LINE
  8
LC-007-031-----0
  6
CONTINUOUS
 62
     2
  5
AC
 10
422.343424
 20
341.331953
 30
0.0
 11
422.843424
 21
340.831954
 31
0.0
  0
LINE
  8
LC-007-031-----0
  6
CONTINUOUS
 62
     2
  5
AD
 10
424.034607
 20
339.640773
 30
0.0
 11
428.189018
 21
335.486368
 31
0.0
  0
LINE
  8
LC-007-031-----0
  6
CONTINUOUS
 62
     2
  5
AE
 10
422.603228
 20
343.900575
 30
0.0
 11
423.863032
 21
342.640773
 31
0.0
  0
LINE
  8
LC-007-031-----0
  6
CONTINUOUS
 62
     2
  5
AF
 10
426.863038
 20
339.640771
 30
0.0
 11
429.603232
 21
336.90058
 31
0.0
  0
LINE
  8
LC-007-031-----0
  6
CONTINUOUS
 62
     2
  5
B0
 10
424.017442
 20
345.314788
 30
0.0
 11
426.691463
 21
342.640771
 31
0.0
  0
LINE
  8
LC-007-031-----0
  6
CONTINUOUS
 62
     2
  5
B1
 10
429.691468
 20
339.640769
 30
0.0
 11
429.843423
 21
339.488815
 31
0.0
  0
LINE
  8
LC-007-031-----0
  6
CONTINUOUS
 62
     2
  5
B2
 10
425.431657
 20
346.729001
 30
0.0
 11
429.519893
 21
342.640769
 31
0.0
  0
LINE
  8
LC-007-031-----0
  6
CONTINUOUS
 62
     2
  5
B3
 10
427.848315
 20
347.14077
 30
0.0
 11
430.395397
 21
344.593692
 31
0.0
  0
LINE
  8
LC-007-031-----0
  6
CONTINUOUS
 62
     2
  5
B4
 10
430.676746
 20
347.140769
 30
0.0
 11
431.608532
 21
346.208984
 31
0.0
  0
ENDBLK
  8
0
  5
B5
  0
BLOCK
  8
0
  5
B7
  2
BLK12
 70
    64
 10
0.0
 20
0.0
 30
0.0
  3
BLK12
  0
ENDBLK
  8
0
  5
B8
  0
BLOCK
  8
0
  5
BA
  2
BLK13
 70
    64
 10
0.0
 20
0.0
 30
0.0
  3
BLK13
  0
ENDBLK
  8
0
  5
BB
  0
BLOCK
  8
0
  5
BD
  2
*X18
 70
    65
 10
427.093172
 20
379.140594
 30
0.0
  3
*X18
  0
LINE
  8
LC-008-040-----0
  6
CONTINUOUS
 62
     2
  5
BF
 10
427.1492
 20
381.780988
 30
0.0
 11
427.789595
 21
381.140594
 31
0.0
  0
LINE
  8
LC-008-040-----0
  6
CONTINUOUS
 62
     2
  5
C0
 10
427.376751
 20
384.381863
 30
0.0
 11
430.618024
 21
381.140594
 31
0.0
  0
LINE
  8
LC-008-040-----0
  6
CONTINUOUS
 62
     2
  5
C1
 10
427.604301
 20
386.982738
 30
0.0
 11
433.446453
 21
381.140594
 31
0.0
  0
LINE
  8
LC-008-040-----0
  6
CONTINUOUS
 62
     2
  5
C2
 10
427.831851
 20
389.583613
 30
0.0
 11
430.093172
 21
387.322295
 31
0.0
  0
LINE
  8
LC-008-040-----0
  6
CONTINUOUS
 62
     2
  5
C3
 10
432.274876
 20
385.140594
 30
0.0
 11
436.274882
 21
381.140594
 31
0.0
  0
LINE
  8
LC-008-040-----0
  6
CONTINUOUS
 62
     2
  5
C4
 10
428.059402
 20
392.184488
 30
0.0
 11
430.093172
 21
390.150721
 31
0.0
  0
LINE
  8
LC-008-040-----0
  6
CONTINUOUS
 62
     2
  5
C5
 10
435.103305
 20
385.140594
 30
0.0
 11
439.103311
 21
381.140594
 31
0.0
  0
LINE
  8
LC-008-040-----0
  6
CONTINUOUS
 62
     2
  5
C6
 10
437.931734
 20
385.140594
 30
0.0
 11
441.93174
 21
381.140594
 31
0.0
  0
LINE
  8
LC-008-040-----0
  6
CONTINUOUS
 62
     2
  5
C7
 10
440.760163
 20
385.140594
 30
0.0
 11
446.760171
 21
379.140594
 31
0.0
  0
LINE
  8
LC-008-040-----0
  6
CONTINUOUS
 62
     2
  5
C8
 10
442.21348
 20
386.515704
 30
0.0
 11
449.5886
 21
379.140594
 31
0.0
  0
LINE
  8
LC-008-040-----0
  6
CONTINUOUS
 62
     2
  5
C9
 10
442.807826
 20
388.749784
 30
0.0
 11
452.417029
 21
379.140594
 31
0.0
  0
LINE
  8
LC-008-040-----0
  6
CONTINUOUS
 62
     2
  5
CA
 10
445.245445
 20
389.140594
 30
0.0
 11
454.043172
 21
380.342879
 31
0.0
  0
LINE
  8
LC-008-040-----0
  6
CONTINUOUS
 62
     2
  5
CB
 10
448.073874
 20
389.140594
 30
0.0
 11
451.273116
 21
385.941357
 31
0.0
  0
LINE
  8
LC-008-040-----0
  6
CONTINUOUS
 62
     2
  5
CC
 10
452.073879
 20
385.140594
 30
0.0
 11
454.043172
 21
383.171304
 31
0.0
  0
LINE
  8
LC-008-040-----0
  6
CONTINUOUS
 62
     2
  5
CD
 10
450.902303
 20
389.140594
 30
0.0
 11
451.00194
 21
389.040957
 31
0.0
  0
LINE
  8
LC-008-040-----0
  6
CONTINUOUS
 62
     2
  5
CE
 10
453.343172
 20
386.699728
 30
0.0
 11
454.043172
 21
385.999729
 31
0.0
  0
ENDBLK
  8
0
  5
CF
  0
BLOCK
  8
0
  5
D1
  2
BLK14
 70
    64
 10
0.0
 20
0.0
 30
0.0
  3
BLK14
  0
ENDBLK
  8
0
  5
D2
  0
BLOCK
  8
0
  5
D4
  2
*X20
 70
    65
 10
445.013041
 20
307.639033
 30
0.0
  3
*X20
  0
LINE
  8
LC-008-040-----0
  6
CONTINUOUS
 62
     2
  5
D5
 10
449.343172
 20
308.675391
 30
0.0
 11
450.378761
 21
307.639803
 31
0.0
  0
LINE
  8
LC-008-040-----0
  6
CONTINUOUS
 62
     2
  5
D6
 10
449.343172
 20
311.503816
 30
0.0
 11
453.20719
 21
307.639803
 31
0.0
  0
LINE
  8
LC-008-040-----0
  6
CONTINUOUS
 62
     2
  5
D7
 10
449.343172
 20
314.332241
 30
0.0
 11
456.035619
 21
307.639803
 31
0.0
  0
LINE
  8
LC-008-040-----0
  6
CONTINUOUS
 62
     2
  5
D8
 10
449.343172
 20
317.160666
 30
0.0
 11
451.342341
 21
315.161501
 31
0.0
  0
LINE
  8
LC-008-040-----0
  6
CONTINUOUS
 62
     2
  5
D9
 10
454.864042
 20
311.639803
 30
0.0
 11
458.864048
 21
307.639803
 31
0.0
  0
LINE
  8
LC-008-040-----0
  6
CONTINUOUS
 62
     2
  5
DA
 10
449.343172
 20
319.989092
 30
0.0
 11
451.342341
 21
317.989926
 31
0.0
  0
LINE
  8
LC-008-040-----0
  6
CONTINUOUS
 62
     2
  5
DB
 10
457.692471
 20
311.639803
 30
0.0
 11
461.692571
 21
307.639709
 31
0.0
  0
LINE
  8
LC-008-040-----0
  6
CONTINUOUS
 62
     2
  5
DC
 10
449.343172
 20
322.817517
 30
0.0
 11
451.342341
 21
320.818351
 31
0.0
  0
LINE
  8
LC-008-040-----0
  6
CONTINUOUS
 62
     2
  5
DD
 10
460.5209
 20
311.639803
 30
0.0
 11
464.521198
 21
307.639511
 31
0.0
  0
LINE
  8
LC-008-040-----0
  6
CONTINUOUS
 62
     2
  5
DE
 10
449.343172
 20
325.645942
 30
0.0
 11
451.342341
 21
323.646776
 31
0.0
  0
LINE
  8
LC-008-040-----0
  6
CONTINUOUS
 62
     2
  5
DF
 10
463.349329
 20
311.639803
 30
0.0
 11
467.349825
 21
307.639313
 31
0.0
  0
LINE
  8
LC-008-040-----0
  6
CONTINUOUS
 62
     2
  5
E0
 10
446.177732
 20
331.639803
 30
0.0
 11
451.342341
 21
326.475202
 31
0.0
  0
LINE
  8
LC-008-040-----0
  6
CONTINUOUS
 62
     2
  5
E1
 10
466.177758
 20
311.639803
 30
0.0
 11
470.178452
 21
307.639115
 31
0.0
  0
LINE
  8
LC-008-040-----0
  6
CONTINUOUS
 62
     2
  5
E2
 10
448.513041
 20
332.132923
 30
0.0
 11
451.342341
 21
329.303627
 31
0.0
  0
LINE
  8
LC-008-040-----0
  6
CONTINUOUS
 62
     2
  5
E3
 10
468.342173
 20
312.303816
 30
0.0
 11
471.342462
 21
309.303531
 31
0.0
  0
LINE
  8
LC-008-040-----0
  6
CONTINUOUS
 62
     2
  5
E4
 10
448.513041
 20
334.961348
 30
0.0
 11
451.342341
 21
332.132052
 31
0.0
  0
LINE
  8
LC-008-040-----0
  6
CONTINUOUS
 62
     2
  5
E5
 10
469.344014
 20
314.130403
 30
0.0
 11
471.342457
 21
312.131962
 31
0.0
  0
LINE
  8
LC-008-040-----0
  6
CONTINUOUS
 62
     2
  5
E6
 10
448.513041
 20
337.789773
 30
0.0
 11
451.342341
 21
334.960477
 31
0.0
  0
LINE
  8
LC-008-040-----0
  6
CONTINUOUS
 62
     2
  5
E7
 10
469.344082
 20
316.958759
 30
0.0
 11
471.342451
 21
314.960393
 31
0.0
  0
LINE
  8
LC-008-040-----0
  6
CONTINUOUS
 62
     2
  5
E8
 10
448.513041
 20
340.618199
 30
0.0
 11
451.342341
 21
337.788903
 31
0.0
  0
LINE
  8
LC-008-040-----0
  6
CONTINUOUS
 62
     2
  5
E9
 10
469.344151
 20
319.787116
 30
0.0
 11
471.342445
 21
317.788824
 31
0.0
  0
LINE
  8
LC-008-040-----0
  6
CONTINUOUS
 62
     2
  5
EA
 10
448.513041
 20
343.446624
 30
0.0
 11
451.342341
 21
340.617328
 31
0.0
  0
LINE
  8
LC-008-040-----0
  6
CONTINUOUS
 62
     2
  5
EB
 10
469.34422
 20
322.615472
 30
0.0
 11
471.342439
 21
320.617256
 31
0.0
  0
LINE
  8
LC-008-040-----0
  6
CONTINUOUS
 62
     2
  5
EC
 10
448.513041
 20
346.275049
 30
0.0
 11
451.342341
 21
343.445753
 31
0.0
  0
LINE
  8
LC-008-040-----0
  6
CONTINUOUS
 62
     2
  5
ED
 10
469.344246
 20
325.443871
 30
0.0
 11
471.342434
 21
323.445687
 31
0.0
  0
LINE
  8
LC-008-040-----0
  6
CONTINUOUS
 62
     2
  5
EE
 10
448.513041
 20
349.103474
 30
0.0
 11
451.342341
 21
346.274178
 31
0.0
  0
LINE
  8
LC-008-040-----0
  6
CONTINUOUS
 62
     2
  5
EF
 10
469.344248
 20
328.272295
 30
0.0
 11
471.342428
 21
326.274118
 31
0.0
  0
LINE
  8
LC-008-040-----0
  6
CONTINUOUS
 62
     2
  5
F0
 10
448.513041
 20
351.9319
 30
0.0
 11
451.342341
 21
349.102604
 31
0.0
  0
LINE
  8
LC-008-040-----0
  6
CONTINUOUS
 62
     2
  5
F1
 10
469.34425
 20
331.100718
 30
0.0
 11
471.805938
 21
328.639033
 31
0.0
  0
LINE
  8
LC-008-040-----0
  6
CONTINUOUS
 62
     2
  5
F2
 10
474.342425
 20
326.10255
 30
0.0
 11
475.805943
 21
324.639033
 31
0.0
  0
LINE
  8
LC-008-040-----0
  6
CONTINUOUS
 62
     2
  5
F3
 10
448.633562
 20
354.639803
 30
0.0
 11
451.342341
 21
351.931029
 31
0.0
  0
LINE
  8
LC-008-040-----0
  6
CONTINUOUS
 62
     2
  5
F4
 10
469.344252
 20
333.929141
 30
0.0
 11
477.342425
 21
325.930979
 31
0.0
  0
LINE
  8
LC-008-040-----0
  6
CONTINUOUS
 62
     2
  5
F5
 10
469.344254
 20
336.757565
 30
0.0
 11
472.172544
 21
333.929279
 31
0.0
  0
LINE
  8
LC-008-040-----0
  6
CONTINUOUS
 62
     2
  5
F6
 10
474.462798
 20
331.639027
 30
0.0
 11
478.052711
 21
328.049119
 31
0.0
  0
LINE
  8
LC-008-040-----0
  6
CONTINUOUS
 62
     2
  5
F7
 10
469.344256
 20
339.585988
 30
0.0
 11
472.172538
 21
336.75771
 31
0.0
  0
LINE
  8
LC-008-040-----0
  6
CONTINUOUS
 62
     2
  5
F8
 10
477.291221
 20
331.639033
 30
0.0
 11
479.84586
 21
329.084397
 31
0.0
  0
LINE
  8
LC-008-040-----0
  6
CONTINUOUS
 62
     2
  5
F9
 10
469.344257
 20
342.414412
 30
0.0
 11
472.172532
 21
339.586141
 31
0.0
  0
LINE
  8
LC-008-040-----0
  6
CONTINUOUS
 62
     2
  5
FA
 10
480.119645
 20
331.639039
 30
0.0
 11
481.639009
 21
330.119676
 31
0.0
  0
LINE
  8
LC-008-040-----0
  6
CONTINUOUS
 62
     2
  5
FB
 10
469.344259
 20
345.242835
 30
0.0
 11
472.172526
 21
342.414572
 31
0.0
  0
LINE
  8
LC-008-040-----0
  6
CONTINUOUS
 62
     2
  5
FC
 10
469.344261
 20
348.071258
 30
0.0
 11
472.172521
 21
345.243003
 31
0.0
  0
LINE
  8
LC-008-040-----0
  6
CONTINUOUS
 62
     2
  5
FD
 10
469.344263
 20
350.899682
 30
0.0
 11
472.172515
 21
348.071434
 31
0.0
  0
LINE
  8
LC-008-040-----0
  6
CONTINUOUS
 62
     2
  5
FE
 10
469.344265
 20
353.728105
 30
0.0
 11
472.172509
 21
350.899865
 31
0.0
  0
LINE
  8
LC-008-040-----0
  6
CONTINUOUS
 62
     2
  5
FF
 10
471.261765
 20
354.639033
 30
0.0
 11
472.172503
 21
353.728296
 31
0.0
  0
ENDBLK
  8
0
  5
100
  0
BLOCK
  8
0
  5
102
  2
*X21
 70
    65
 10
442.713041
 20
324.839803
 30
0.0
  3
*X21
  0
LINE
  8
LC-008-040-----0
  6
CONTINUOUS
 62
     2
  5
103
 10
444.423647
 20
325.629197
 30
0.0
 11
447.132968
 21
328.338514
 31
0.0
  0
LINE
  8
LC-008-040-----0
  6
CONTINUOUS
 62
     2
  5
104
 10
443.009434
 20
327.043411
 30
0.0
 11
445.339816
 21
329.37379
 31
0.0
  0
LINE
  8
LC-008-040-----0
  6
CONTINUOUS
 62
     2
  5
105
 10
442.713041
 20
329.575443
 30
0.0
 11
444.513041
 21
331.375441
 31
0.0
  0
LINE
  8
LC-008-040-----0
  6
CONTINUOUS
 62
     2
  5
106
 10
445.277404
 20
332.139803
 30
0.0
 11
448.013041
 21
334.875436
 31
0.0
  0
LINE
  8
LC-008-040-----0
  6
CONTINUOUS
 62
     2
  5
107
 10
442.713041
 20
332.403869
 30
0.0
 11
445.448979
 21
335.139803
 31
0.0
  0
ENDBLK
  8
0
  5
108
  0
ENDSEC
  0
SECTION
  2
ENTITIES
  0
VIEWPORT
  8
LC-000
  5
227
 67
     1
 68
     1
 10
420.0
 20
297.0
 30
0.0
 40
840.0
 41
594.0
 69
     1
1001
ACAD
1000
MVIEW
1002
{
1070
    16
1010
0.0
1020
0.0
1030
0.0
1010
0.0
1020
0.0
1030
1.0
1040
0.0
1040
594.0
1040
420.0
1040
297.0
1040
50.0
1040
0.0
1040
0.0
1070
     0
1070
   100
1070
     1
1070
     1
1070
     0
1070
     0
1070
     0
1070
     0
1040
0.0
1040
0.0
1040
0.0
1040
1.0
1040
1.0
1040
0.0
1040
0.0
1070
     0
1002
{
1002
}
1002
}
  0
VIEWPORT
  8
0
  5
228
 67
     1
 68
     1
 10
0.0
 20
0.0
 30
0.0
 40
0.0
 41
0.0
 69
     1
1001
ACAD
1000
MVIEW
1002
{
1070
    16
1010
0.0
1020
0.0
1030
0.0
1010
0.0
1020
0.0
1030
1.0
1040
0.0
1040
594.0
1040
0.0
1040
0.0
1040
50.0
1040
0.0
1040
0.0
1070
     0
1070
   100
1070
     0
1070
     1
1070
     0
1070
     0
1070
     0
1070
     0
1040
0.0
1040
0.0
1040
0.0
1040
0.5
1040
0.5
1040
0.5
1040
0.5
1070
     0
1002
{
1002
}
1002
}
  0
DIMENSION
  8
0
  5
109
  2
*D0
 10
424.342819
 20
420.0
 30
0.0
 11
424.342819
 21
420.0
 31
0.0
 13
388.343172
 23
347.140594
 33
0.0
 14
460.342466
 24
393.140594
 34
0.0
  3
LC-DIM-L-0090-02-02
  0
DIMENSION
  8
0
  5
10A
  2
*D1
 10
546.0
 20
350.389928
 30
0.0
 11
546.0
 21
350.389928
 31
0.0
  1
85
 13
491.62725
 23
393.140822
 33
0.0
 14
471.342466
 24
307.639033
 34
0.0
 50
90.0
  3
LC-DIM-L-0090-02-02
  0
INSERT
  8
0
  5
10C
  2
BLK1
 10
0.0
 20
0.0
 30
0.0
  0
INSERT
  8
0
  5
10D
  2
BLK2
 10
0.0
 20
0.0
 30
0.0
  0
INSERT
  8
0
  5
10E
  2
BLK3
 10
0.0
 20
0.0
 30
0.0
  0
INSERT
  8
0
  5
10F
  2
BLK4
 10
0.0
 20
0.0
 30
0.0
  0
INSERT
  8
0
  5
110
  2
BLK5
 10
0.0
 20
0.0
 30
0.0
  0
INSERT
  8
0
  5
111
  2
BLK6
 10
0.0
 20
0.0
 30
0.0
  0
INSERT
  8
0
  5
112
  2
BLK7
 10
0.0
 20
0.0
 30
0.0
  0
INSERT
  8
0
  5
113
  2
BLK8
 10
0.0
 20
0.0
 30
0.0
  0
INSERT
  8
0
  5
114
  2
*X10
 10
331.893333
 20
336.140594
 30
0.0
  0
INSERT
  8
0
  5
115
  2
*X11
 10
465.928791
 20
336.140012
 30
0.0
  0
INSERT
  8
0
  5
116
  2
BLK9
 10
0.0
 20
0.0
 30
0.0
  0
INSERT
  8
0
  5
117
  2
BLK10
 10
0.0
 20
0.0
 30
0.0
  0
INSERT
  8
0
  5
118
  2
BLK11
 10
0.0
 20
0.0
 30
0.0
  0
INSERT
  8
0
  5
119
  2
*X15
 10
422.343421
 20
332.140772
 30
0.0
  0
INSERT
  8
0
  5
11A
  2
BLK12
 10
0.0
 20
0.0
 30
0.0
  0
INSERT
  8
0
  5
11B
  2
BLK13
 10
0.0
 20
0.0
 30
0.0
  0
INSERT
  8
0
  5
11C
  2
*X18
 10
427.093172
 20
379.140594
 30
0.0
  0
INSERT
  8
0
  5
11D
  2
BLK14
 10
0.0
 20
0.0
 30
0.0
  0
INSERT
  8
0
  5
11E
  2
*X20
 10
445.013041
 20
307.639033
 30
0.0
  0
INSERT
  8
0
  5
11F
  2
*X21
 10
442.713041
 20
324.839803
 30
0.0
  0
LINE
  8
LC-001-002-----0
  5
122
 10
460.342466
 20
307.639011
 30
0.0
 11
460.342466
 21
393.140594
 31
0.0
  0
LINE
  8
LC-001-002-----0
  5
123
 10
388.343172
 20
332.140594
 30
0.0
 11
388.343172
 21
347.140594
 31
0.0
  0
LINE
  8
LC-005-030-----0
  6
CONTINUOUS
  5
124
 10
334.893333
 20
344.140594
 30
0.0
 11
334.393333
 21
336.140594
 31
0.0
  0
LINE
  8
LC-005-030-----0
  6
CONTINUOUS
  5
125
 10
339.330144
 20
336.140594
 30
0.0
 11
331.893333
 21
336.140594
 31
0.0
  0
LINE
  8
LC-005-030-----0
  6
CONTINUOUS
  5
126
 10
331.893333
 20
336.140594
 30
0.0
 11
331.893333
 21
347.140594
 31
0.0
  0
LINE
  8
LC-005-030-----0
  6
CONTINUOUS
  5
127
 10
334.893333
 20
344.140594
 30
0.0
 11
337.693333
 21
344.140594
 31
0.0
  0
LINE
  8
LC-005-030-----0
  6
CONTINUOUS
  5
128
 10
337.693333
 20
344.140594
 30
0.0
 11
338.393253
 21
336.140594
 31
0.0
  0
LINE
  8
LC-005-030-----0
  6
CONTINUOUS
  5
129
 10
338.393253
 20
336.140594
 30
0.0
 11
347.843172
 21
336.140594
 31
0.0
  0
LINE
  8
LC-005-030-----0
  6
CONTINUOUS
  5
12A
 10
340.393253
 20
336.140594
 30
0.0
 11
341.093172
 21
344.140594
 31
0.0
  0
LINE
  8
LC-005-030-----0
  6
CONTINUOUS
  5
12B
 10
341.093172
 20
344.140594
 30
0.0
 11
343.343172
 21
344.140594
 31
0.0
  0
LINE
  8
LC-005-030-----0
  6
CONTINUOUS
  5
12C
 10
343.343172
 20
344.140594
 30
0.0
 11
343.343172
 21
337.140594
 31
0.0
  0
LINE
  8
LC-005-030-----0
  6
CONTINUOUS
  5
12D
 10
343.343172
 20
337.140594
 30
0.0
 11
346.343172
 21
337.140594
 31
0.0
  0
LINE
  8
LC-005-030-----0
  6
CONTINUOUS
  5
12E
 10
346.343172
 20
337.140594
 30
0.0
 11
346.343172
 21
340.140594
 31
0.0
  0
LINE
  8
LC-005-030-----0
  6
CONTINUOUS
  5
12F
 10
346.343172
 20
340.140594
 30
0.0
 11
353.343172
 21
340.140594
 31
0.0
  0
LINE
  8
LC-005-030-----0
  6
CONTINUOUS
  5
130
 10
353.343172
 20
340.140594
 30
0.0
 11
353.343172
 21
342.140594
 31
0.0
  0
LINE
  8
LC-005-030-----0
  6
CONTINUOUS
  5
131
 10
353.343172
 20
342.140594
 30
0.0
 11
346.343172
 21
342.140594
 31
0.0
  0
ARC
  8
LC-005-030-----0
  6
CONTINUOUS
  5
132
 10
341.343172
 20
342.140594
 30
0.0
 40
5.0
 50
0.0
 51
89.999924
  0
LINE
  8
LC-005-030-----0
  6
CONTINUOUS
  5
133
 10
437.043265
 20
344.140761
 30
0.0
 11
437.54326
 21
336.140761
 31
0.0
  0
LINE
  8
LC-005-030-----0
  6
CONTINUOUS
  5
134
 10
433.54334
 20
336.140764
 30
0.0
 11
448.513041
 21
336.140754
 31
0.0
  0
LINE
  8
LC-005-030-----0
  6
CONTINUOUS
  5
135
 10
437.043265
 20
344.140761
 30
0.0
 11
434.243265
 21
344.140763
 31
0.0
  0
LINE
  8
LC-005-030-----0
  6
CONTINUOUS
  5
136
 10
434.243265
 20
344.140763
 30
0.0
 11
433.54334
 21
336.140764
 31
0.0
  0
LINE
  8
LC-005-030-----0
  6
CONTINUOUS
  5
137
 10
433.54334
 20
336.140764
 30
0.0
 11
428.843427
 21
336.140776
 31
0.0
  0
LINE
  8
LC-005-030-----0
  6
CONTINUOUS
  5
138
 10
433.04334
 20
336.140765
 30
0.0
 11
432.955851
 21
337.140765
 31
0.0
  0
LINE
  8
LC-005-030-----0
  6
CONTINUOUS
  5
139
 10
432.955851
 20
337.140765
 30
0.0
 11
430.343421
 21
337.140768
 31
0.0
  0
LINE
  8
LC-005-030-----0
  6
CONTINUOUS
  5
13A
 10
430.343421
 20
337.140768
 30
0.0
 11
430.343423
 21
340.140768
 31
0.0
  0
LINE
  8
LC-005-030-----0
  6
CONTINUOUS
  5
13B
 10
430.343423
 20
340.140768
 30
0.0
 11
423.343423
 21
340.140773
 31
0.0
  0
LINE
  8
LC-005-030-----0
  6
CONTINUOUS
  5
13C
 10
423.343423
 20
340.140773
 30
0.0
 11
423.343425
 21
342.140773
 31
0.0
  0
LINE
  8
LC-005-030-----0
  6
CONTINUOUS
  5
13D
 10
423.343425
 20
342.140773
 30
0.0
 11
430.343425
 21
342.140768
 31
0.0
  0
ARC
  8
LC-005-030-----0
  6
CONTINUOUS
  5
13E
 10
435.343425
 20
342.140765
 30
0.0
 40
5.0
 50
90.00002
 51
179.999963
  0
LINE
  8
LC-005-030-----0
  6
CONTINUOUS
  5
13F
 10
439.343172
 20
336.140594
 30
0.0
 11
439.343172
 21
339.140594
 31
0.0
  0
LINE
  8
LC-005-030-----0
  6
CONTINUOUS
  5
140
 10
439.343172
 20
339.140594
 30
0.0
 11
447.381683
 21
369.140594
 31
0.0
  0
LINE
  8
LC-005-030-----0
  6
CONTINUOUS
  5
141
 10
447.381683
 20
369.140594
 30
0.0
 11
451.843172
 21
369.140594
 31
0.0
  0
ARC
  8
LC-005-030-----0
  6
CONTINUOUS
  5
142
 10
449.756712
 20
374.140594
 30
0.0
 40
5.0
 50
90.0
 51
164.999937
  0
LINE
  8
LC-005-030-----0
  6
CONTINUOUS
  5
143
 10
444.593172
 20
379.140594
 30
0.0
 11
451.843172
 21
379.140594
 31
0.0
  0
LINE
  8
LC-005-030-----0
  6
CONTINUOUS
  5
144
 10
437.941468
 20
349.364134
 30
0.0
 11
444.927084
 21
375.434694
 31
0.0
  0
ARC
  8
LC-005-030-----0
  6
CONTINUOUS
  5
145
 10
435.043691
 20
350.140594
 30
0.0
 40
3.0
 50
270.000058
 51
344.999937
  0
LINE
  8
LC-005-030-----0
  6
CONTINUOUS
  5
146
 10
331.893333
 20
347.140594
 30
0.0
 11
435.043691
 21
347.140594
 31
0.0
  0
LINE
  8
LC-005-030-----0
  6
CONTINUOUS
  5
147
 10
451.843172
 20
369.140594
 30
0.0
 11
451.843172
 21
379.140594
 31
0.0
  0
LINE
  8
LC-005-030-----0
  6
CONTINUOUS
  5
148
 10
481.342402
 20
339.139846
 30
0.0
 11
473.303829
 21
369.13983
 31
0.0
  0
LINE
  8
LC-005-030-----0
  6
CONTINUOUS
  5
149
 10
473.303829
 20
369.13983
 30
0.0
 11
460.342341
 21
369.139803
 31
0.0
  0
ARC
  8
LC-005-030-----0
  6
CONTINUOUS
  5
14A
 10
470.928791
 20
374.139825
 30
0.0
 40
5.0
 50
15.00018
 51
90.000098
  0
LINE
  8
LC-005-030-----0
  6
CONTINUOUS
  5
14B
 10
470.92878
 20
379.139825
 30
0.0
 11
468.84232
 21
379.139821
 31
0.0
  0
LINE
  8
LC-005-030-----0
  6
CONTINUOUS
  5
14C
 10
482.744085
 20
349.363389
 30
0.0
 11
475.758416
 21
375.433935
 31
0.0
  0
LINE
  8
LC-005-030-----0
  6
CONTINUOUS
  5
14D
 10
468.84234
 20
369.139821
 30
0.0
 11
468.84232
 21
379.139821
 31
0.0
  0
LINE
  8
LC-005-030-----0
  6
CONTINUOUS
  5
14E
 10
483.14232
 20
336.140017
 30
0.0
 11
472.172539
 21
336.139988
 31
0.0
  0
LINE
  8
LC-005-030-----0
  6
CONTINUOUS
  5
14F
 10
481.342408
 20
336.139847
 30
0.0
 11
481.342402
 21
339.139846
 31
0.0
  0
ARC
  8
LC-005-030-----0
  6
CONTINUOUS
  5
150
 10
485.64186
 20
350.139855
 30
0.0
 40
3.0
 50
195.00018
 51
269.999965
  0
LINE
  8
LC-005-030-----0
  6
CONTINUOUS
  5
151
 10
489.343172
 20
344.540594
 30
0.0
 11
489.343172
 21
347.140594
 31
0.0
  0
LINE
  8
LC-005-030-----0
  6
CONTINUOUS
  5
152
 10
485.641858
 20
347.139855
 30
0.0
 11
489.343172
 21
347.140594
 31
0.0
  0
LINE
  8
LC-005-030-----0
  6
CONTINUOUS
  5
153
 10
489.343172
 20
344.540594
 30
0.0
 11
483.877286
 21
344.540594
 31
0.0
  0
LINE
  8
LC-005-030-----0
  6
CONTINUOUS
  5
154
 10
483.14232
 20
336.140017
 30
0.0
 11
483.877286
 21
344.540594
 31
0.0
  0
LINE
  8
LC-005-030-----0
  6
CONTINUOUS
  5
155
 10
331.893333
 20
347.140594
 30
0.0
 11
341.343179
 21
347.140594
 31
0.0
  0
LINE
  8
LC-005-030-----0
  6
CONTINUOUS
 62
     2
  5
156
 10
438.569464
 20
336.14076
 30
0.0
 11
439.343172
 21
336.914468
 31
0.0
  0
LINE
  8
LC-005-030-----0
  6
CONTINUOUS
 62
     2
  5
157
 10
437.437248
 20
337.836971
 30
0.0
 11
439.56363
 21
339.963351
 31
0.0
  0
LINE
  8
LC-005-030-----0
  6
CONTINUOUS
 62
     2
  5
158
 10
431.084185
 20
337.140767
 30
0.0
 11
433.875001
 21
339.93158
 31
0.0
  0
LINE
  8
LC-005-030-----0
  6
CONTINUOUS
 62
     2
  5
159
 10
437.104495
 20
343.161069
 30
0.0
 11
441.634193
 21
347.690761
 31
0.0
  0
LINE
  8
LC-005-030-----0
  6
CONTINUOUS
 62
     2
  5
15A
 10
430.343423
 20
339.228431
 30
0.0
 11
434.146188
 21
343.031191
 31
0.0
  0
LINE
  8
LC-005-030-----0
  6
CONTINUOUS
 62
     2
  5
15B
 10
435.25576
 20
344.140762
 30
0.0
 11
442.669474
 21
351.554466
 31
0.0
  0
LINE
  8
LC-005-030-----0
  6
CONTINUOUS
 62
     2
  5
15C
 10
428.427333
 20
340.140769
 30
0.0
 11
435.455576
 21
347.169003
 31
0.0
  0
LINE
  8
LC-005-030-----0
  6
CONTINUOUS
 62
     2
  5
15D
 10
438.047893
 20
349.761316
 30
0.0
 11
443.704755
 21
355.418171
 31
0.0
  0
LINE
  8
LC-005-030-----0
  6
CONTINUOUS
 62
     2
  5
15E
 10
425.598906
 20
340.140771
 30
0.0
 11
427.598907
 21
342.14077
 31
0.0
  0
LINE
  8
LC-005-030-----0
  6
CONTINUOUS
 62
     2
  5
15F
 10
440.118455
 20
357.488727
 30
0.0
 11
445.775318
 21
363.145582
 31
0.0
  0
LINE
  8
LC-005-030-----0
  6
CONTINUOUS
 62
     2
  5
160
 10
441.153737
 20
361.352432
 30
0.0
 11
446.810599
 21
367.009287
 31
0.0
  0
LINE
  8
LC-005-030-----0
  6
CONTINUOUS
 62
     2
  5
161
 10
448.941909
 20
369.140594
 30
0.0
 11
451.843172
 21
372.041853
 31
0.0
  0
LINE
  8
LC-005-030-----0
  6
CONTINUOUS
 62
     2
  5
162
 10
451.843172
 20
374.870278
 30
0.0
 11
442.189018
 21
365.216137
 31
0.0
  0
LINE
  8
LC-005-030-----0
  6
CONTINUOUS
 62
     2
  5
163
 10
451.843172
 20
377.698704
 30
0.0
 11
443.224299
 21
369.079842
 31
0.0
  0
LINE
  8
LC-005-030-----0
  6
CONTINUOUS
 62
     2
  5
164
 10
450.456635
 20
379.140594
 30
0.0
 11
444.25958
 21
372.943547
 31
0.0
  0
LINE
  8
LC-005-030-----0
  6
CONTINUOUS
 62
     2
  5
165
 10
439.083174
 20
353.625022
 30
0.0
 11
444.740036
 21
359.281876
 31
0.0
  0
LINE
  8
LC-005-030-----0
  6
CONTINUOUS
 62
     2
  5
166
 10
437.270871
 20
340.49902
 30
0.0
 11
440.598911
 21
343.827056
 31
0.0
  0
LINE
  8
LC-007-031-----0
  6
CONTINUOUS
  5
167
 10
353.843172
 20
342.640594
 30
0.0
 11
346.843157
 21
342.640594
 31
0.0
  0
LINE
  8
LC-007-031-----0
  6
CONTINUOUS
  5
168
 10
346.843172
 20
339.640594
 30
0.0
 11
353.843172
 21
339.640594
 31
0.0
  0
LINE
  8
LC-007-031-----0
  6
CONTINUOUS
  5
169
 10
353.843172
 20
339.640594
 30
0.0
 11
353.843172
 21
342.640594
 31
0.0
  0
LINE
  8
LC-007-031-----0
  6
CONTINUOUS
  5
16A
 10
346.843172
 20
337.140594
 30
0.0
 11
346.843172
 21
339.640594
 31
0.0
  0
ARC
  8
LC-007-031-----0
  6
CONTINUOUS
  5
16B
 10
341.343172
 20
342.140594
 30
0.0
 40
5.522665
 50
5.194444
 51
64.871484
  0
LINE
  8
LC-007-031-----0
  6
CONTINUOUS
  5
16C
 10
346.843172
 20
337.140594
 30
0.0
 11
351.843172
 21
332.140594
 31
0.0
  0
LINE
  8
LC-007-031-----0
  6
CONTINUOUS
  5
16D
 10
351.843172
 20
332.140594
 30
0.0
 11
354.343172
 21
335.640594
 31
0.0
  0
LINE
  8
LC-007-031-----0
  6
CONTINUOUS
  5
16E
 10
354.343172
 20
335.640594
 30
0.0
 11
354.343172
 21
342.640594
 31
0.0
  0
LINE
  8
LC-007-031-----0
  6
CONTINUOUS
  5
16F
 10
354.343172
 20
342.640594
 30
0.0
 11
354.343172
 21
343.640594
 31
0.0
  0
LINE
  8
LC-007-031-----0
  6
CONTINUOUS
  5
170
 10
354.343172
 20
343.640594
 30
0.0
 11
350.843172
 21
347.140594
 31
0.0
  0
LINE
  8
LC-007-031-----0
  6
CONTINUOUS
  5
171
 10
350.843172
 20
347.140594
 30
0.0
 11
343.68838
 21
347.140594
 31
0.0
  0
LINE
  8
LC-007-031-----0
  6
CONTINUOUS
  5
172
 10
429.843423
 20
339.640769
 30
0.0
 11
422.843423
 21
339.640774
 31
0.0
  0
LINE
  8
LC-007-031-----0
  6
CONTINUOUS
  5
173
 10
422.843423
 20
339.640774
 30
0.0
 11
422.843425
 21
342.640774
 31
0.0
  0
LINE
  8
LC-007-031-----0
  6
CONTINUOUS
  5
174
 10
429.843421
 20
337.140769
 30
0.0
 11
429.843423
 21
339.640769
 31
0.0
  0
LINE
  8
LC-007-031-----0
  6
CONTINUOUS
  5
175
 10
429.843421
 20
337.140769
 30
0.0
 11
424.843418
 21
332.140772
 31
0.0
  0
LINE
  8
LC-007-031-----0
  6
CONTINUOUS
  5
176
 10
422.343421
 20
335.640774
 30
0.0
 11
422.343425
 21
342.640774
 31
0.0
  0
LINE
  8
LC-007-031-----0
  6
CONTINUOUS
  5
177
 10
424.843418
 20
332.140772
 30
0.0
 11
422.343421
 21
335.640774
 31
0.0
  0
LINE
  8
LC-007-031-----0
  6
CONTINUOUS
  5
178
 10
422.843425
 20
342.640774
 30
0.0
 11
429.843441
 21
342.640769
 31
0.0
  0
ARC
  8
LC-007-031-----0
  6
CONTINUOUS
  5
179
 10
435.343425
 20
342.140766
 30
0.0
 40
5.522665
 50
115.12846
 51
174.805519
  0
LINE
  8
LC-007-031-----0
  6
CONTINUOUS
  5
17A
 10
422.343426
 20
343.640774
 30
0.0
 11
425.843428
 21
347.140772
 31
0.0
  0
LINE
  8
LC-007-031-----0
  6
CONTINUOUS
  5
17B
 10
425.843428
 20
347.140772
 30
0.0
 11
432.99822
 21
347.140767
 31
0.0
  0
LINE
  8
LC-007-031-----0
  6
CONTINUOUS
  5
17C
 10
422.343425
 20
342.640774
 30
0.0
 11
422.343426
 21
343.640774
 31
0.0
  0
LINE
  8
LC-007-031-----0
  6
CONTINUOUS
 62
     2
  5
17D
 10
346.618863
 20
339.640594
 30
0.0
 11
352.79138
 21
333.468085
 31
0.0
  0
LINE
  8
LC-007-031-----0
  6
CONTINUOUS
 62
     2
  5
17E
 10
349.447292
 20
339.640594
 30
0.0
 11
353.969891
 21
335.118001
 31
0.0
  0
LINE
  8
LC-007-031-----0
  6
CONTINUOUS
 62
     2
  5
17F
 10
344.775711
 20
347.140594
 30
0.0
 11
349.275717
 21
342.640594
 31
0.0
  0
LINE
  8
LC-007-031-----0
  6
CONTINUOUS
 62
     2
  5
180
 10
352.275721
 20
339.640594
 30
0.0
 11
354.343172
 21
337.573146
 31
0.0
  0
LINE
  8
LC-007-031-----0
  6
CONTINUOUS
 62
     2
  5
181
 10
347.60414
 20
347.140594
 30
0.0
 11
352.104146
 21
342.640594
 31
0.0
  0
LINE
  8
LC-008-040-----0
  6
CONTINUOUS
  5
182
 10
449.342341
 20
369.139803
 30
0.0
 11
449.342341
 21
366.639803
 31
0.0
  0
LINE
  8
LC-008-040-----0
  6
CONTINUOUS
  5
183
 10
449.342341
 20
366.639803
 30
0.0
 11
452.842341
 21
366.639803
 31
0.0
  0
LINE
  8
LC-008-040-----0
  6
CONTINUOUS
  5
184
 10
452.842341
 20
366.639803
 30
0.0
 11
452.842341
 21
363.639803
 31
0.0
  0
LINE
  8
LC-008-040-----0
  6
CONTINUOUS
  5
185
 10
452.842341
 20
363.639803
 30
0.0
 11
451.342341
 21
363.639803
 31
0.0
  0
LINE
  8
LC-008-040-----0
  6
CONTINUOUS
  5
186
 10
451.342341
 20
363.639803
 30
0.0
 11
451.342341
 21
323.639803
 31
0.0
  0
LINE
  8
LC-008-040-----0
  6
CONTINUOUS
  5
187
 10
451.342341
 20
323.639803
 30
0.0
 11
453.342341
 21
321.639803
 31
0.0
  0
LINE
  8
LC-008-040-----0
  6
CONTINUOUS
  5
188
 10
452.593172
 20
369.139803
 30
0.0
 11
452.593172
 21
380.139803
 31
0.0
  0
LINE
  8
LC-008-040-----0
  6
CONTINUOUS
  5
189
 10
452.593172
 20
380.139803
 30
0.0
 11
454.843172
 21
380.139803
 31
0.0
  0
LINE
  8
LC-008-040-----0
  6
CONTINUOUS
  5
18A
 10
454.843172
 20
380.139803
 30
0.0
 11
454.843172
 21
387.639803
 31
0.0
  0
LINE
  8
LC-008-040-----0
  6
CONTINUOUS
  5
18B
 10
454.843172
 20
390.139803
 30
0.0
 11
460.343172
 21
390.139803
 31
0.0
  0
LINE
  8
LC-008-040-----0
  6
CONTINUOUS
  5
18C
 10
454.843172
 20
390.139803
 30
0.0
 11
454.043172
 21
388.139803
 31
0.0
  0
LINE
  8
LC-008-040-----0
  6
CONTINUOUS
  5
18D
 10
454.043172
 20
388.139803
 30
0.0
 11
454.043172
 21
387.639803
 31
0.0
  0
LINE
  8
LC-008-040-----0
  6
CONTINUOUS
  5
18E
 10
453.343172
 20
387.639803
 30
0.0
 11
454.843172
 21
387.639803
 31
0.0
  0
LINE
  8
LC-008-040-----0
  6
CONTINUOUS
  5
18F
 10
454.043172
 20
380.140594
 30
0.0
 11
454.043172
 21
387.640594
 31
0.0
  0
LINE
  8
LC-008-040-----0
  6
CONTINUOUS
  5
190
 10
453.343172
 20
387.640594
 30
0.0
 11
453.343172
 21
385.140594
 31
0.0
  0
LINE
  8
LC-008-040-----0
  6
CONTINUOUS
  5
191
 10
453.343172
 20
385.140594
 30
0.0
 11
451.343172
 21
385.140594
 31
0.0
  0
LINE
  8
LC-008-040-----0
  6
CONTINUOUS
  5
192
 10
451.343172
 20
385.140594
 30
0.0
 11
450.993223
 21
389.140594
 31
0.0
  0
LINE
  8
LC-008-040-----0
  6
CONTINUOUS
  5
193
 10
442.093172
 20
385.140594
 30
0.0
 11
430.093172
 21
385.140594
 31
0.0
  0
LINE
  8
LC-008-040-----0
  6
CONTINUOUS
  5
194
 10
427.093172
 20
381.140594
 30
0.0
 11
444.593172
 21
381.140594
 31
0.0
  0
LINE
  8
LC-008-040-----0
  6
CONTINUOUS
  5
195
 10
444.593172
 20
381.140594
 30
0.0
 11
444.593172
 21
379.140594
 31
0.0
  0
LINE
  8
LC-008-040-----0
  6
CONTINUOUS
 62
     2
  5
196
 10
452.842341
 20
363.639803
 30
0.0
 11
452.842341
 21
322.139803
 31
0.0
  0
LINE
  8
LC-005-030-----0
  6
CONTINUOUS
  5
197
 10
452.593172
 20
369.140594
 30
0.0
 11
460.343172
 21
369.140594
 31
0.0
  0
LINE
  8
LC-009-032-----0
  6
CONTINUOUS
  5
199
 10
460.343172
 20
370.140594
 30
0.0
 11
451.843172
 21
370.140594
 31
0.0
  0
LINE
  8
LC-009-032-----0
  6
CONTINUOUS
  5
19A
 10
460.34232
 20
370.139803
 30
0.0
 11
468.84232
 21
370.139821
 31
0.0
  0
LINE
  8
LC-008-040-----0
  6
CONTINUOUS
  5
19B
 10
471.344275
 20
369.140045
 30
0.0
 11
471.344273
 21
366.640045
 31
0.0
  0
LINE
  8
LC-008-040-----0
  6
CONTINUOUS
  5
19C
 10
471.344273
 20
366.640045
 30
0.0
 11
467.844273
 21
366.640048
 31
0.0
  0
LINE
  8
LC-008-040-----0
  6
CONTINUOUS
  5
19D
 10
467.844273
 20
366.640048
 30
0.0
 11
467.844271
 21
363.640048
 31
0.0
  0
LINE
  8
LC-008-040-----0
  6
CONTINUOUS
  5
19E
 10
467.844271
 20
363.640048
 30
0.0
 11
469.344271
 21
363.640047
 31
0.0
  0
LINE
  8
LC-008-040-----0
  6
CONTINUOUS
  5
19F
 10
469.344271
 20
363.640047
 30
0.0
 11
469.344245
 21
323.640047
 31
0.0
  0
LINE
  8
LC-008-040-----0
  6
CONTINUOUS
  5
1A0
 10
469.344245
 20
323.640047
 30
0.0
 11
467.344244
 21
321.640048
 31
0.0
  0
LINE
  8
LC-008-040-----0
  6
CONTINUOUS
  5
1A1
 10
468.093443
 20
369.140047
 30
0.0
 11
468.093451
 21
380.140047
 31
0.0
  0
LINE
  8
LC-008-040-----0
  6
CONTINUOUS
  5
1A2
 10
468.093451
 20
380.140047
 30
0.0
 11
465.843451
 21
380.140049
 31
0.0
  0
LINE
  8
LC-008-040-----0
  6
CONTINUOUS
  5
1A3
 10
465.843451
 20
380.140049
 30
0.0
 11
465.843455
 21
387.640049
 31
0.0
  0
LINE
  8
LC-008-040-----0
  6
CONTINUOUS
  5
1A4
 10
465.843457
 20
390.140049
 30
0.0
 11
460.343457
 21
390.140052
 31
0.0
  0
LINE
  8
LC-008-040-----0
  6
CONTINUOUS
  5
1A5
 10
465.843457
 20
390.140049
 30
0.0
 11
466.643456
 21
388.140048
 31
0.0
  0
LINE
  8
LC-008-040-----0
  6
CONTINUOUS
  5
1A6
 10
466.643456
 20
388.140048
 30
0.0
 11
466.643455
 21
387.640048
 31
0.0
  0
LINE
  8
LC-008-040-----0
  6
CONTINUOUS
  5
1A7
 10
467.343455
 20
387.640048
 30
0.0
 11
465.843455
 21
387.640049
 31
0.0
  0
LINE
  8
LC-008-040-----0
  6
CONTINUOUS
  5
1A8
 10
466.643451
 20
380.140839
 30
0.0
 11
466.643455
 21
387.640839
 31
0.0
  0
LINE
  8
LC-008-040-----0
  6
CONTINUOUS
  5
1A9
 10
467.343455
 20
387.640838
 30
0.0
 11
467.343454
 21
385.140838
 31
0.0
  0
LINE
  8
LC-008-040-----0
  6
CONTINUOUS
  5
1AA
 10
467.343454
 20
385.140838
 30
0.0
 11
469.343454
 21
385.140837
 31
0.0
  0
LINE
  8
LC-008-040-----0
  6
CONTINUOUS
  5
1AB
 10
469.343454
 20
385.140837
 30
0.0
 11
469.693405
 21
389.140837
 31
0.0
  0
LINE
  8
LC-008-040-----0
  6
CONTINUOUS
  5
1AC
 10
478.593454
 20
385.140831
 30
0.0
 11
490.593454
 21
385.140823
 31
0.0
  0
LINE
  8
LC-008-040-----0
  6
CONTINUOUS
  5
1AD
 10
493.593451
 20
381.140821
 30
0.0
 11
476.093451
 21
381.140833
 31
0.0
  0
LINE
  8
LC-008-040-----0
  6
CONTINUOUS
  5
1AE
 10
476.093451
 20
381.140833
 30
0.0
 11
476.09345
 21
379.140833
 31
0.0
  0
LINE
  8
LC-008-040-----0
  6
CONTINUOUS
 62
     2
  5
1AF
 10
467.844271
 20
363.640048
 30
0.0
 11
467.844244
 21
322.140048
 31
0.0
  0
LINE
  8
LC-008-040-----0
  6
CONTINUOUS
  5
1B0
 10
443.817627
 20
389.140594
 30
0.0
 11
450.905736
 21
389.140594
 31
0.0
  0
ARC
  8
LC-008-040-----0
  6
CONTINUOUS
  5
1B1
 10
443.817627
 20
387.640594
 30
0.0
 40
1.5
 50
90.0
 51
174.999909
  0
LINE
  8
LC-008-040-----0
  6
CONTINUOUS
  5
1B2
 10
442.093172
 20
385.140594
 30
0.0
 11
442.323335
 21
387.771329
 31
0.0
  0
LINE
  8
LC-008-040-----0
  6
CONTINUOUS
  5
1B3
 10
476.869002
 20
389.140832
 30
0.0
 11
469.780893
 21
389.140837
 31
0.0
  0
ARC
  8
LC-008-040-----0
  6
CONTINUOUS
  5
1B4
 10
476.869001
 20
387.640832
 30
0.0
 40
1.5
 50
5.000034
 51
89.999963
  0
LINE
  8
LC-008-040-----0
  6
CONTINUOUS
  5
1B5
 10
478.593454
 20
385.140831
 30
0.0
 11
478.363293
 21
387.771567
 31
0.0
  0
LINE
  8
LC-008-040-----0
  6
CONTINUOUS
  5
1B6
 10
490.593454
 20
385.140823
 30
0.0
 11
490.593458
 21
392.140823
 31
0.0
  0
ARC
  8
LC-008-040-----0
  6
CONTINUOUS
  5
1B7
 10
491.593458
 20
392.140822
 30
0.0
 40
1.0
 50
89.999963
 51
179.999963
  0
LINE
  8
LC-008-040-----0
  6
CONTINUOUS
  5
1B8
 10
491.62725
 20
393.140822
 30
0.0
 11
491.593459
 21
393.140822
 31
0.0
  0
ARC
  8
LC-008-040-----0
  6
CONTINUOUS
  5
1B9
 10
491.627249
 20
392.140822
 30
0.0
 40
1.0
 50
5.000034
 51
89.999963
  0
LINE
  8
LC-008-040-----0
  6
CONTINUOUS
  5
1BA
 10
493.593451
 20
381.140821
 30
0.0
 11
492.623444
 21
392.227979
 31
0.0
  0
ARC
  8
LC-008-040-----0
  6
CONTINUOUS
  5
1BB
 10
429.059381
 20
392.140594
 30
0.0
 40
1.0
 50
90.0
 51
174.999909
  0
LINE
  8
LC-008-040-----0
  6
CONTINUOUS
  5
1BC
 10
427.093172
 20
381.140594
 30
0.0
 11
428.063187
 21
392.227751
 31
0.0
  0
LINE
  8
LC-008-040-----0
  6
CONTINUOUS
  5
1BD
 10
430.093172
 20
385.140594
 30
0.0
 11
430.093172
 21
392.140594
 31
0.0
  0
ARC
  8
LC-008-040-----0
  6
CONTINUOUS
  5
1BE
 10
429.093172
 20
392.140594
 30
0.0
 40
1.0
 50
0.0
 51
89.999981
  0
LINE
  8
LC-008-040-----0
  6
CONTINUOUS
  5
1BF
 10
429.059381
 20
393.140594
 30
0.0
 11
429.093172
 21
393.140594
 31
0.0
  0
LINE
  8
LC-008-040-----0
  6
CONTINUOUS
  5
1C0
 10
444.593172
 20
379.140594
 30
0.0
 11
452.593172
 21
379.140594
 31
0.0
  0
LINE
  8
LC-008-040-----0
  6
CONTINUOUS
  5
1C1
 10
476.09345
 20
379.140833
 30
0.0
 11
468.093451
 21
379.140833
 31
0.0
  0
LINE
  8
LC-008-040-----0
  6
CONTINUOUS
  5
1C2
 10
449.342341
 20
369.139803
 30
0.0
 11
471.344275
 21
369.139803
 31
0.0
  0
LINE
  8
LC-008-040-----0
  6
CONTINUOUS
  5
1C3
 10
452.842341
 20
366.639803
 30
0.0
 11
467.844273
 21
366.639803
 31
0.0
  0
LINE
  8
LC-008-040-----0
  6
CONTINUOUS
  5
1C4
 10
452.842341
 20
363.639803
 30
0.0
 11
467.844271
 21
363.639803
 31
0.0
  0
LINE
  8
LC-008-040-----0
  6
CONTINUOUS
  5
1C5
 10
453.342341
 20
321.639803
 30
0.0
 11
467.344244
 21
321.639803
 31
0.0
  0
LINE
  8
LC-008-040-----0
  6
CONTINUOUS
  5
1C6
 10
451.342341
 20
323.639803
 30
0.0
 11
469.344245
 21
323.639803
 31
0.0
  0
LINE
  8
LC-008-040-----0
  6
CONTINUOUS
  5
1C7
 10
429.059381
 20
393.140594
 30
0.0
 11
491.62725
 21
393.140594
 31
0.0
  0
LINE
  8
LC-008-040-----0
  6
CONTINUOUS
 62
     2
  5
1C8
 10
466.643451
 20
380.836404
 30
0.0
 11
468.339025
 21
379.140833
 31
0.0
  0
LINE
  8
LC-008-040-----0
  6
CONTINUOUS
 62
     2
  5
1C9
 10
466.643453
 20
383.664828
 30
0.0
 11
471.167454
 21
379.140833
 31
0.0
  0
LINE
  8
LC-008-040-----0
  6
CONTINUOUS
 62
     2
  5
1CA
 10
466.643455
 20
386.493251
 30
0.0
 11
467.343454
 21
385.793253
 31
0.0
  0
LINE
  8
LC-008-040-----0
  6
CONTINUOUS
 62
     2
  5
1CB
 10
469.462587
 20
386.502548
 30
0.0
 11
476.09345
 21
379.871693
 31
0.0
  0
LINE
  8
LC-008-040-----0
  6
CONTINUOUS
 62
     2
  5
1CC
 10
469.652724
 20
389.140837
 30
0.0
 11
477.652739
 21
381.140832
 31
0.0
  0
LINE
  8
LC-008-040-----0
  6
CONTINUOUS
 62
     2
  5
1CD
 10
472.481154
 20
389.140835
 30
0.0
 11
480.48117
 21
381.14083
 31
0.0
  0
LINE
  8
LC-008-040-----0
  6
CONTINUOUS
 62
     2
  5
1CE
 10
475.309585
 20
389.140833
 30
0.0
 11
478.524792
 21
385.92563
 31
0.0
  0
LINE
  8
LC-008-040-----0
  6
CONTINUOUS
 62
     2
  5
1CF
 10
479.309593
 20
385.14083
 30
0.0
 11
483.309601
 21
381.140828
 31
0.0
  0
LINE
  8
LC-008-040-----0
  6
CONTINUOUS
 62
     2
  5
1D0
 10
482.138024
 20
385.140829
 30
0.0
 11
486.138032
 21
381.140826
 31
0.0
  0
LINE
  8
LC-008-040-----0
  6
CONTINUOUS
 62
     2
  5
1D1
 10
484.966455
 20
385.140827
 30
0.0
 11
488.966463
 21
381.140824
 31
0.0
  0
LINE
  8
LC-008-040-----0
  6
CONTINUOUS
 62
     2
  5
1D2
 10
487.794886
 20
385.140825
 30
0.0
 11
491.794894
 21
381.140822
 31
0.0
  0
LINE
  8
LC-008-040-----0
  6
CONTINUOUS
 62
     2
  5
1D3
 10
490.593454
 20
385.170686
 30
0.0
 11
493.494709
 21
382.269434
 31
0.0
  0
LINE
  8
LC-008-040-----0
  6
CONTINUOUS
 62
     2
  5
1D4
 10
490.593455
 20
387.999109
 30
0.0
 11
493.223527
 21
385.369041
 31
0.0
  0
LINE
  8
LC-008-040-----0
  6
CONTINUOUS
 62
     2
  5
1D5
 10
490.593457
 20
390.827533
 30
0.0
 11
492.952345
 21
388.468649
 31
0.0
  0
LINE
  8
LC-008-040-----0
  6
CONTINUOUS
 62
     2
  5
1D6
 10
491.192065
 20
393.057351
 30
0.0
 11
492.681162
 21
391.568256
 31
0.0
  0
LINE
  8
LC-008-040-----0
  6
CONTINUOUS
 62
     2
  5
1D7
 10
467.99587
 20
385.140838
 30
0.0
 11
473.995883
 21
379.140833
 31
0.0
  0
LINE
  8
LC-008-040-----0
  6
CONTINUOUS
 62
     2
  5
1D8
 10
452.573034
 20
375.335107
 30
0.0
 11
456.428652
 21
373.994854
 31
0.0
  0
LINE
  8
LC-008-040-----0
  6
CONTINUOUS
 62
     2
  5
1D9
 10
456.428652
 20
373.994854
 30
0.0
 11
460.372825
 21
375.685623
 31
0.0
  0
LINE
  8
LC-008-040-----0
  6
CONTINUOUS
 62
     2
  5
1DA
 10
460.372825
 20
375.685623
 30
0.0
 11
464.597987
 21
374.988576
 31
0.0
  0
LINE
  8
LC-008-040-----0
  6
CONTINUOUS
 62
     2
  5
1DB
 10
464.597987
 20
374.988576
 30
0.0
 11
467.631813
 21
375.245723
 31
0.0
  0
LINE
  8
LC-008-040-----0
  6
CONTINUOUS
 62
     2
  5
1DC
 10
466.24305
 20
375.128011
 30
0.0
 11
468.093448
 21
376.978407
 31
0.0
  0
LINE
  8
LC-008-040-----0
  6
CONTINUOUS
 62
     2
  5
1DD
 10
463.462511
 20
375.175901
 30
0.0
 11
468.426664
 21
380.140047
 31
0.0
  0
LINE
  8
LC-008-040-----0
  6
CONTINUOUS
 62
     2
  5
1DE
 10
461.034624
 20
375.576442
 30
0.0
 11
465.843451
 21
380.385263
 31
0.0
  0
LINE
  8
LC-008-040-----0
  6
CONTINUOUS
 62
     2
  5
1DF
 10
456.771631
 20
374.141881
 30
0.0
 11
465.843453
 21
383.21369
 31
0.0
  0
LINE
  8
LC-008-040-----0
  6
CONTINUOUS
 62
     2
  5
1E0
 10
454.475212
 20
374.67389
 30
0.0
 11
465.843454
 21
386.042117
 31
0.0
  0
LINE
  8
LC-008-040-----0
  6
CONTINUOUS
 62
     2
  5
1E1
 10
452.376365
 20
375.403471
 30
0.0
 11
466.206172
 21
389.233259
 31
0.0
  0
LINE
  8
LC-008-040-----0
  6
CONTINUOUS
 62
     2
  5
1E2
 10
452.593172
 20
378.448703
 30
0.0
 11
454.284275
 21
380.139803
 31
0.0
  0
LINE
  8
LC-008-040-----0
  6
CONTINUOUS
 62
     2
  5
1E3
 10
454.843172
 20
380.6987
 30
0.0
 11
464.284535
 21
390.14005
 31
0.0
  0
LINE
  8
LC-008-040-----0
  6
CONTINUOUS
 62
     2
  5
1E4
 10
461.456108
 20
390.140052
 30
0.0
 11
454.843172
 21
383.527125
 31
0.0
  0
LINE
  8
LC-008-040-----0
  6
CONTINUOUS
 62
     2
  5
1E5
 10
458.62743
 20
390.139803
 30
0.0
 11
454.843172
 21
386.35555
 31
0.0
  0
LINE
  8
LC-008-040-----0
  6
CONTINUOUS
 62
     2
  5
1E6
 10
455.799001
 20
390.139803
 30
0.0
 11
454.205954
 21
388.546758
 31
0.0
  0
LINE
  8
LC-008-040-----0
  6
CONTINUOUS
  5
1E7
 10
449.343172
 20
327.639803
 30
0.0
 11
449.343172
 21
307.639803
 31
0.0
  0
LINE
  8
LC-008-040-----0
  6
CONTINUOUS
  5
1E8
 10
449.343172
 20
307.639803
 30
0.0
 11
460.343172
 21
307.639803
 31
0.0
  0
LINE
  8
LC-008-040-----0
  6
CONTINUOUS
  5
1E9
 10
449.343172
 20
327.639803
 30
0.0
 11
445.013041
 21
330.139803
 31
0.0
  0
LINE
  8
LC-008-040-----0
  6
CONTINUOUS
  5
1EA
 10
445.013041
 20
330.139803
 30
0.0
 11
445.013041
 21
331.639803
 31
0.0
  0
LINE
  8
LC-008-040-----0
  6
CONTINUOUS
  5
1EB
 10
445.013041
 20
331.639803
 30
0.0
 11
448.513041
 21
331.639803
 31
0.0
  0
LINE
  8
LC-008-040-----0
  6
CONTINUOUS
  5
1EC
 10
448.513041
 20
331.639803
 30
0.0
 11
448.513041
 21
354.639803
 31
0.0
  0
LINE
  8
LC-008-040-----0
  6
CONTINUOUS
  5
1ED
 10
448.513041
 20
354.639803
 30
0.0
 11
451.342341
 21
354.639803
 31
0.0
  0
LINE
  8
LC-008-040-----0
  6
CONTINUOUS
  5
1EE
 10
471.342466
 20
307.639033
 30
0.0
 11
460.342466
 21
307.639011
 31
0.0
  0
LINE
  8
LC-008-040-----0
  6
CONTINUOUS
  5
1EF
 10
471.342425
 20
327.639033
 30
0.0
 11
471.342466
 21
307.639033
 31
0.0
  0
LINE
  8
LC-008-040-----0
  6
CONTINUOUS
  5
1F0
 10
472.172548
 20
331.639035
 30
0.0
 11
472.172501
 21
354.639035
 31
0.0
  0
LINE
  8
LC-008-040-----0
  6
CONTINUOUS
  5
1F1
 10
472.172501
 20
354.639035
 30
0.0
 11
469.343202
 21
354.639029
 31
0.0
  0
LINE
  8
LC-008-040-----0
  6
CONTINUOUS
  5
1F2
 10
481.672548
 20
331.639042
 30
0.0
 11
472.172548
 21
331.639023
 31
0.0
  0
LINE
  8
LC-008-040-----0
  6
CONTINUOUS
  5
1F3
 10
481.672551
 20
330.139042
 30
0.0
 11
481.672548
 21
331.639042
 31
0.0
  0
LINE
  8
LC-008-040-----0
  6
CONTINUOUS
  5
1F4
 10
477.342425
 20
327.639033
 30
0.0
 11
481.672551
 21
330.139042
 31
0.0
  0
LINE
  8
LC-008-040-----0
  6
CONTINUOUS
  5
1F5
 10
477.342425
 20
327.639033
 30
0.0
 11
477.342425
 21
324.639033
 31
0.0
  0
LINE
  8
LC-008-040-----0
  6
CONTINUOUS
  5
1F6
 10
477.342425
 20
324.639033
 30
0.0
 11
471.342431
 21
324.639033
 31
0.0
  0
LINE
  8
LC-008-040-----0
  6
CONTINUOUS
  5
1F7
 10
474.342425
 20
324.639033
 30
0.0
 11
474.342425
 21
328.639033
 31
0.0
  0
LINE
  8
LC-008-040-----0
  6
CONTINUOUS
  5
1F8
 10
474.342425
 20
328.639033
 30
0.0
 11
471.342425
 21
328.639033
 31
0.0
  0
LINE
  8
LC-008-040-----0
  6
CONTINUOUS
  5
1F9
 10
471.342425
 20
328.639033
 30
0.0
 11
471.342425
 21
327.639033
 31
0.0
  0
LINE
  8
LC-008-040-----0
  6
CONTINUOUS
  5
1FA
 10
452.842341
 20
322.139803
 30
0.0
 11
452.842341
 21
311.639803
 31
0.0
  0
LINE
  8
LC-008-040-----0
  6
CONTINUOUS
  5
1FB
 10
467.844244
 20
322.140048
 30
0.0
 11
467.844244
 21
311.639803
 31
0.0
  0
LINE
  8
LC-008-040-----0
  6
CONTINUOUS
 62
     2
  5
1FC
 10
451.342341
 20
323.639803
 30
0.0
 11
451.342341
 21
313.639803
 31
0.0
  0
LINE
  8
LC-008-040-----0
  6
CONTINUOUS
 62
     2
  5
1FD
 10
451.342341
 20
313.639803
 30
0.0
 11
452.842341
 21
311.639803
 31
0.0
  0
LINE
  8
LC-008-040-----0
  6
CONTINUOUS
 62
     2
  5
1FE
 10
469.344002
 20
323.639803
 30
0.0
 11
469.344002
 21
313.639803
 31
0.0
  0
LINE
  8
LC-008-040-----0
  6
CONTINUOUS
 62
     2
  5
1FF
 10
469.344002
 20
313.639803
 30
0.0
 11
467.844244
 21
311.639803
 31
0.0
  0
LINE
  8
LC-008-040-----0
  6
CONTINUOUS
  5
200
 10
452.842341
 20
311.639803
 30
0.0
 11
467.844244
 21
311.639803
 31
0.0
  0
LINE
  8
LC-008-040-----0
  6
CONTINUOUS
  5
201
 10
444.713041
 20
332.139803
 30
0.0
 11
448.013041
 21
332.139803
 31
0.0
  0
ARC
  8
LC-008-040-----0
  6
CONTINUOUS
  5
202
 10
444.713041
 20
331.939803
 30
0.0
 40
0.2
 50
90.0
 51
179.999848
  0
LINE
  8
LC-008-040-----0
  6
CONTINUOUS
  5
203
 10
444.513041
 20
329.966598
 30
0.0
 11
444.513041
 21
331.939803
 31
0.0
  0
ARC
  8
LC-008-040-----0
  6
CONTINUOUS
  5
204
 10
444.713041
 20
329.966598
 30
0.0
 40
0.2
 50
180.0
 51
239.999873
  0
LINE
  8
LC-008-040-----0
  6
CONTINUOUS
  5
205
 10
448.843041
 20
327.351204
 30
0.0
 11
444.613041
 21
329.793393
 31
0.0
  0
LINE
  8
LC-008-040-----0
  6
CONTINUOUS
  5
206
 10
481.972547
 20
332.139043
 30
0.0
 11
478.673551
 21
332.139036
 31
0.0
  0
ARC
  8
LC-008-040-----0
  6
CONTINUOUS
  5
207
 10
481.972548
 20
331.939043
 30
0.0
 40
0.2
 50
0.000117
 51
90.000117
  0
ARC
  8
LC-008-040-----0
  6
CONTINUOUS
  5
208
 10
481.972552
 20
329.965837
 30
0.0
 40
0.2
 50
300.000091
 51
359.999813
  0
LINE
  8
LC-008-040-----0
  6
CONTINUOUS
  5
209
 10
482.172552
 20
329.965838
 30
0.0
 11
482.172548
 21
331.939043
 31
0.0
  0
LINE
  8
LC-008-040-----0
  6
CONTINUOUS
  5
20A
 10
477.842425
 20
327.234889
 30
0.0
 11
477.842425
 21
324.840045
 31
0.0
  0
ARC
  8
LC-008-040-----0
  6
CONTINUOUS
  5
20B
 10
478.042425
 20
327.234889
 30
0.0
 40
0.2
 50
120.000073
 51
180.0
  0
LINE
  8
LC-008-040-----0
  6
CONTINUOUS
  5
20C
 10
477.942425
 20
327.408094
 30
0.0
 11
482.072552
 21
329.792632
 31
0.0
  0
LINE
  8
LC-008-040-----0
  6
CONTINUOUS
  5
20D
 10
448.013041
 20
332.139803
 30
0.0
 11
448.013041
 21
335.139803
 31
0.0
  0
LINE
  8
LC-008-040-----0
  6
CONTINUOUS
  5
20E
 10
448.013041
 20
335.139803
 30
0.0
 11
445.013041
 21
335.139803
 31
0.0
  0
LINE
  8
LC-008-040-----0
  6
CONTINUOUS
  5
20F
 10
445.013041
 20
335.139803
 30
0.0
 11
444.513041
 21
335.139803
 31
0.0
  0
LINE
  8
LC-008-040-----0
  6
CONTINUOUS
  5
210
 10
444.513041
 20
335.139803
 30
0.0
 11
442.713041
 21
333.339803
 31
0.0
  0
LINE
  8
LC-008-040-----0
  6
CONTINUOUS
  5
211
 10
442.713041
 20
333.339803
 30
0.0
 11
442.713041
 21
327.339803
 31
0.0
  0
LINE
  8
LC-008-040-----0
  6
CONTINUOUS
  5
212
 10
442.713041
 20
327.339803
 30
0.0
 11
445.213041
 21
324.839803
 31
0.0
  0
LINE
  8
LC-008-040-----0
  6
CONTINUOUS
  5
213
 10
445.213041
 20
324.839803
 30
0.0
 11
448.713041
 21
324.839803
 31
0.0
  0
LINE
  8
LC-008-040-----0
  6
CONTINUOUS
  5
214
 10
448.713041
 20
324.839803
 30
0.0
 11
448.843041
 21
324.839803
 31
0.0
  0
LINE
  8
LC-008-040-----0
  6
CONTINUOUS
  5
215
 10
448.843041
 20
324.839803
 30
0.0
 11
448.843041
 21
327.351204
 31
0.0
  0
LINE
  8
LC-008-040-----0
  6
CONTINUOUS
  5
216
 10
478.673553
 20
335.140045
 30
0.0
 11
481.673553
 21
335.140043
 31
0.0
  0
LINE
  8
LC-008-040-----0
  6
CONTINUOUS
  5
217
 10
478.673551
 20
332.140045
 30
0.0
 11
478.673553
 21
335.140045
 31
0.0
  0
LINE
  8
LC-008-040-----0
  6
CONTINUOUS
  5
218
 10
483.973551
 20
333.340041
 30
0.0
 11
483.973547
 21
327.340041
 31
0.0
  0
LINE
  8
LC-008-040-----0
  6
CONTINUOUS
  5
219
 10
482.173553
 20
335.140043
 30
0.0
 11
483.973551
 21
333.340041
 31
0.0
  0
LINE
  8
LC-008-040-----0
  6
CONTINUOUS
  5
21A
 10
481.673553
 20
335.140043
 30
0.0
 11
482.173553
 21
335.140043
 31
0.0
  0
LINE
  8
LC-008-040-----0
  6
CONTINUOUS
  5
21B
 10
477.843546
 20
324.840045
 30
0.0
 11
477.843547
 21
326.840045
 31
0.0
  0
LINE
  8
LC-008-040-----0
  6
CONTINUOUS
  5
21C
 10
481.473546
 20
324.840043
 30
0.0
 11
477.973546
 21
324.840045
 31
0.0
  0
LINE
  8
LC-008-040-----0
  6
CONTINUOUS
  5
21D
 10
483.973547
 20
327.340041
 30
0.0
 11
481.473546
 21
324.840043
 31
0.0
  0
LINE
  8
LC-008-040-----0
  6
CONTINUOUS
 62
     2
  5
21E
 10
481.008883
 20
324.840043
 30
0.0
 11
483.973548
 21
327.804704
 31
0.0
  0
LINE
  8
LC-008-040-----0
  6
CONTINUOUS
 62
     2
  5
21F
 10
477.842425
 20
324.502015
 30
0.0
 11
483.97355
 21
330.633132
 31
0.0
  0
LINE
  8
LC-008-040-----0
  6
CONTINUOUS
 62
     2
  5
220
 10
482.172548
 20
331.660558
 30
0.0
 11
483.912793
 21
333.4008
 31
0.0
  0
LINE
  8
LC-008-040-----0
  6
CONTINUOUS
 62
     2
  5
221
 10
479.8226
 20
332.139038
 30
0.0
 11
482.49858
 21
334.815015
 31
0.0
  0
LINE
  8
LC-008-040-----0
  6
CONTINUOUS
 62
     2
  5
222
 10
478.673552
 20
333.818416
 30
0.0
 11
479.995181
 21
335.140044
 31
0.0
  0
LINE
  8
LC-001-002-----0
  6
CONTINUOUS
 62
     1
  5
223
 10
351.843172
 20
332.140594
 30
0.0
 11
424.843418
 21
332.140594
 31
0.0
  0
LINE
  8
LC-001-002-----0
  6
CONTINUOUS
 62
     1
  5
224
 10
354.343172
 20
343.640594
 30
0.0
 11
422.343426
 21
343.640594
 31
0.0
  0
LINE
  8
LC-001-002-----0
  6
CONTINUOUS
 62
     1
  5
225
 10
354.343172
 20
335.640594
 30
0.0
 11
422.343421
 21
335.640594
 31
0.0
  0
ENDSEC
  0
EOF
