  0
SECTION
  2
HEADER
  9
$ACADVER
  1
AC1015
  9
$ACADMAINTVER
 70
     6
  9
$DWGCODEPAGE
  3
ANSI_1252
  9
$INSBASE
 10
0.0
 20
0.0
 30
0.0
  9
$EXTMIN
 10
-291.489352
 20
-132.105317
 30
0.0
  9
$EXTMAX
 10
548.510648
 20
461.894683
 30
0.0
  9
$LIMMIN
 10
-291.489352
 20
-132.105317
  9
$LIMMAX
 10
548.510648
 20
461.894683
  9
$ORTHOMODE
 70
     0
  9
$REGENMODE
 70
     1
  9
$FILLMODE
 70
     1
  9
$QTEXTMODE
 70
     0
  9
$MIRRTEXT
 70
     1
  9
$LTSCALE
 40
2.0
  9
$ATTMODE
 70
     1
  9
$TEXTSIZE
 40
2.5
  9
$TRACEWID
 40
1.0
  9
$TEXTSTYLE
  7
Standard
  9
$CLAYER
  8
0
  9
$CELTYPE
  6
ByLayer
  9
$CECOLOR
 62
     7
  9
$CELTSCALE
 40
1.0
  9
$DISPSILH
 70
     0
  9
$DIMSCALE
 40
2.0
  9
$DIMASZ
 40
3.5
  9
$DIMEXO
 40
0.625
  9
$DIMDLI
 40
3.75
  9
$DIMRND
 40
0.0
  9
$DIMDLE
 40
0.0
  9
$DIMEXE
 40
1.25
  9
$DIMTP
 40
0.0
  9
$DIMTM
 40
0.0
  9
$DIMTXT
 40
3.5
  9
$DIMCEN
 40
2.5
  9
$DIMTSZ
 40
0.0
  9
$DIMTOL
 70
     0
  9
$DIMLIM
 70
     0
  9
$DIMTIH
 70
     0
  9
$DIMTOH
 70
     0
  9
$DIMSE1
 70
     0
  9
$DIMSE2
 70
     0
  9
$DIMTAD
 70
     1
  9
$DIMZIN
 70
     8
  9
$DIMBLK
  1

  9
$DIMASO
 70
     1
  9
$DIMSHO
 70
     1
  9
$DIMPOST
  1

  9
$DIMAPOST
  1

  9
$DIMALT
 70
     0
  9
$DIMALTD
 70
     3
  9
$DIMALTF
 40
0.03937
  9
$DIMLFAC
 40
1.0
  9
$DIMTOFL
 70
     1
  9
$DIMTVP
 40
0.0
  9
$DIMTIX
 70
     0
  9
$DIMSOXD
 70
     0
  9
$DIMSAH
 70
     0
  9
$DIMBLK1
  1

  9
$DIMBLK2
  1

  9
$DIMSTYLE
  2
ISO-25
  9
$DIMCLRD
 70
     0
  9
$DIMCLRE
 70
     0
  9
$DIMCLRT
 70
     0
  9
$DIMTFAC
 40
1.0
  9
$DIMGAP
 40
0.625
  9
$DIMJUST
 70
     0
  9
$DIMSD1
 70
     0
  9
$DIMSD2
 70
     0
  9
$DIMTOLJ
 70
     0
  9
$DIMTZIN
 70
     8
  9
$DIMALTZ
 70
     0
  9
$DIMALTTZ
 70
     0
  9
$DIMUPT
 70
     0
  9
$DIMDEC
 70
     2
  9
$DIMTDEC
 70
     2
  9
$DIMALTU
 70
     2
  9
$DIMALTTD
 70
     3
  9
$DIMTXSTY
  7
Standard
  9
$DIMAUNIT
 70
     0
  9
$DIMADEC
 70
     0
  9
$DIMALTRND
 40
0.0
  9
$DIMAZIN
 70
     0
  9
$DIMDSEP
 70
    44
  9
$DIMATFIT
 70
     3
  9
$DIMFRAC
 70
     0
  9
$DIMLDRBLK
  1

  9
$DIMLUNIT
 70
     2
  9
$DIMLWD
 70
    -2
  9
$DIMLWE
 70
    -2
  9
$DIMTMOVE
 70
     0
  9
$LUNITS
 70
     2
  9
$LUPREC
 70
     4
  9
$SKETCHINC
 40
1.0
  9
$FILLETRAD
 40
10.0
  9
$AUNITS
 70
     0
  9
$AUPREC
 70
     0
  9
$MENU
  1
.
  9
$ELEVATION
 40
0.0
  9
$PELEVATION
 40
0.0
  9
$THICKNESS
 40
0.0
  9
$LIMCHECK
 70
     0
  9
$CHAMFERA
 40
10.0
  9
$CHAMFERB
 40
10.0
  9
$CHAMFERC
 40
20.0
  9
$CHAMFERD
 40
0.0
  9
$SKPOLY
 70
     0
  9
$TDCREATE
 40
2456051.494611945
  9
$TDUCREATE
 40
2456051.411278611
  9
$TDUPDATE
 40
2456051.494611956
  9
$TDUUPDATE
 40
2456051.411278623
  9
$TDINDWG
 40
0.0000000116
  9
$TDUSRTIMER
 40
0.0000000116
  9
$USRTIMER
 70
     1
  9
$ANGBASE
 50
0.0
  9
$ANGDIR
 70
     0
  9
$PDMODE
 70
     0
  9
$PDSIZE
 40
0.0
  9
$PLINEWID
 40
0.0
  9
$SPLFRAME
 70
     0
  9
$SPLINETYPE
 70
     6
  9
$SPLINESEGS
 70
     8
  9
$HANDSEED
  5
769
  9
$SURFTAB1
 70
     6
  9
$SURFTAB2
 70
     6
  9
$SURFTYPE
 70
     6
  9
$SURFU
 70
     6
  9
$SURFV
 70
     6
  9
$UCSBASE
  2

  9
$UCSNAME
  2

  9
$UCSORG
 10
0.0
 20
0.0
 30
0.0
  9
$UCSXDIR
 10
1.0
 20
0.0
 30
0.0
  9
$UCSYDIR
 10
0.0
 20
1.0
 30
0.0
  9
$UCSORTHOREF
  2

  9
$UCSORTHOVIEW
 70
     0
  9
$UCSORGTOP
 10
0.0
 20
0.0
 30
0.0
  9
$UCSORGBOTTOM
 10
0.0
 20
0.0
 30
0.0
  9
$UCSORGLEFT
 10
0.0
 20
0.0
 30
0.0
  9
$UCSORGRIGHT
 10
0.0
 20
0.0
 30
0.0
  9
$UCSORGFRONT
 10
0.0
 20
0.0
 30
0.0
  9
$UCSORGBACK
 10
0.0
 20
0.0
 30
0.0
  9
$PUCSBASE
  2

  9
$PUCSNAME
  2

  9
$PUCSORG
 10
0.0
 20
0.0
 30
0.0
  9
$PUCSXDIR
 10
1.0
 20
0.0
 30
0.0
  9
$PUCSYDIR
 10
0.0
 20
1.0
 30
0.0
  9
$PUCSORTHOREF
  2

  9
$PUCSORTHOVIEW
 70
     0
  9
$PUCSORGTOP
 10
0.0
 20
0.0
 30
0.0
  9
$PUCSORGBOTTOM
 10
0.0
 20
0.0
 30
0.0
  9
$PUCSORGLEFT
 10
0.0
 20
0.0
 30
0.0
  9
$PUCSORGRIGHT
 10
0.0
 20
0.0
 30
0.0
  9
$PUCSORGFRONT
 10
0.0
 20
0.0
 30
0.0
  9
$PUCSORGBACK
 10
0.0
 20
0.0
 30
0.0
  9
$USERI1
 70
     0
  9
$USERI2
 70
     0
  9
$USERI3
 70
     0
  9
$USERI4
 70
     0
  9
$USERI5
 70
     0
  9
$USERR1
 40
0.0
  9
$USERR2
 40
0.0
  9
$USERR3
 40
0.0
  9
$USERR4
 40
0.0
  9
$USERR5
 40
0.0
  9
$WORLDVIEW
 70
     1
  9
$SHADEDGE
 70
     3
  9
$SHADEDIF
 70
    70
  9
$TILEMODE
 70
     1
  9
$MAXACTVP
 70
    64
  9
$PINSBASE
 10
0.0
 20
0.0
 30
0.0
  9
$PLIMCHECK
 70
     0
  9
$PEXTMIN
 10
-291.489352
 20
-132.105317
 30
0.0
  9
$PEXTMAX
 10
548.510648
 20
461.894683
 30
0.0
  9
$PLIMMIN
 10
-291.489352
 20
-132.105317
  9
$PLIMMAX
 10
548.510648
 20
461.894683
  9
$UNITMODE
 70
     0
  9
$VISRETAIN
 70
     1
  9
$PLINEGEN
 70
     0
  9
$PSLTSCALE
 70
     1
  9
$TREEDEPTH
 70
  3020
  9
$CMLSTYLE
  2
Standard
  9
$CMLJUST
 70
     0
  9
$CMLSCALE
 40
20.0
  9
$PROXYGRAPHICS
 70
     1
  9
$MEASUREMENT
 70
     1
  9
$CELWEIGHT
370
    -1
  9
$ENDCAPS
280
     0
  9
$JOINSTYLE
280
     0
  9
$LWDISPLAY
290
     0
  9
$INSUNITS
 70
     4
  9
$HYPERLINKBASE
  1

  9
$STYLESHEET
  1

  9
$XEDIT
290
     1
  9
$CEPSNTYPE
380
     0
  9
$PSTYLEMODE
290
     1
  9
$FINGERPRINTGUID
  2
{FAEB1C30-E019-11D5-929B-00C0DF256EC4}
  9
$VERSIONGUID
  2
{FAEB1C32-E019-11D5-929B-00C0DF256EC4}
  9
$EXTNAMES
290
     1
  9
$PSVPSCALE
 40
0.0
  9
$OLESTARTUP
290
     0
  0
ENDSEC
  0
SECTION
  2
CLASSES
  0
CLASS
  1
ACDBDICTIONARYWDFLT
  2
AcDbDictionaryWithDefault
  3
ObjectDBX Classes
 90
        0
280
     0
281
     0
  0
CLASS
  1
ACDBPLACEHOLDER
  2
AcDbPlaceHolder
  3
ObjectDBX Classes
 90
        0
280
     0
281
     0
  0
CLASS
  1
LAYOUT
  2
AcDbLayout
  3
ObjectDBX Classes
 90
        0
280
     0
281
     0
  0
ENDSEC
  0
SECTION
  2
TABLES
  0
TABLE
  2
VPORT
  5
8
330
0
100
AcDbSymbolTable
 70
     2
  0
VPORT
  5
29
330
8
100
AcDbSymbolTableRecord
100
AcDbViewportTableRecord
  2
*ACTIVE
 70
     0
 10
0.0
 20
0.0
 11
1.0
 21
1.0
 12
128.510648
 22
164.894683
 13
0.0
 23
0.0
 14
1.0
 24
1.0
 15
0.0
 25
0.0
 16
0.0
 26
0.0
 36
1.0
 17
0.0
 27
0.0
 37
0.0
 40
594.0
 41
1.414141
 42
50.0
 43
0.0
 44
0.0
 50
0.0
 51
0.0
 71
    16
 72
   100
 73
     1
 74
     0
 75
     0
 76
     0
 77
     0
 78
     0
281
     0
 65
     0
110
0.0
120
0.0
130
0.0
111
1.0
121
0.0
131
0.0
112
0.0
122
1.0
132
0.0
 79
     0
146
0.0
  0
ENDTAB
  0
TABLE
  2
LTYPE
  5
5
330
0
100
AcDbSymbolTable
 70
     3
  0
LTYPE
  5
14
330
5
100
AcDbSymbolTableRecord
100
AcDbLinetypeTableRecord
  2
ByBlock
 70
     0
  3

 72
    65
 73
     0
 40
0.0
  0
LTYPE
  5
15
330
5
100
AcDbSymbolTableRecord
100
AcDbLinetypeTableRecord
  2
ByLayer
 70
     0
  3

 72
    65
 73
     0
 40
0.0
  0
LTYPE
  5
16
330
5
100
AcDbSymbolTableRecord
100
AcDbLinetypeTableRecord
  2
Continuous
 70
     0
  3
Solid line
 72
    65
 73
     0
 40
0.0
  0
LTYPE
  5
2A
330
5
100
AcDbSymbolTableRecord
100
AcDbLinetypeTableRecord
  2
DASHED
 70
     0
  3
__ __ __ __ __
 72
    65
 73
     2
 40
6.25
 49
5.0
 74
     4
 75
     0
340
0
 46
1.0
 50
0.0
 44
0.0
 45
0.0
 49
-1.25
 74
     4
 75
     0
340
0
 46
1.0
 50
0.0
 44
0.0
 45
0.0
  0
LTYPE
  5
713
330
5
100
AcDbSymbolTableRecord
100
AcDbLinetypeTableRecord
  2
DASHDOT
 70
     0
  3
__ . __ . __ . __ . __
 72
    65
 73
     4
 40
7.5
 49
5.0
 74
     4
 75
     0
340
0
 46
1.0
 50
0.0
 44
0.0
 45
0.0
 49
-1.25
 74
     4
 75
     0
340
0
 46
1.0
 50
0.0
 44
0.0
 45
0.0
 49
0.0
 74
     4
 75
     0
340
0
 46
1.0
 50
0.0
 44
0.0
 45
0.0
 49
-1.25
 74
     4
 75
     0
340
0
 46
1.0
 50
0.0
 44
0.0
 45
0.0
  0
ENDTAB
  0
TABLE
  2
LAYER
  5
2
330
0
100
AcDbSymbolTable
 70
     8
  0
LAYER
  5
10
330
2
100
AcDbSymbolTableRecord
100
AcDbLayerTableRecord
  2
0
 70
     0
 62
     7
  6
Continuous
370
    -3
390
F
  0
LAYER
  5
2B
330
2
100
AcDbSymbolTableRecord
100
AcDbLayerTableRecord
  2
LC-INFO-1-2-mm-A3-0
 70
     1
 62
     7
  6
ByBlock
370
    -3
390
F
  0
LAYER
  5
2C
330
2
100
AcDbSymbolTableRecord
100
AcDbLayerTableRecord
  2
LC-CUT-HIDDEN
 70
     0
 62
     7
  6
DASHED
370
    -3
390
F
  0
LAYER
  5
2D
330
2
100
AcDbSymbolTableRecord
100
AcDbLayerTableRecord
  2
LC-VIEWPORT
 70
     0
 62
     7
  6
ByBlock
370
    -3
390
F
  0
LAYER
  5
2E
330
2
100
AcDbSymbolTableRecord
100
AcDbLayerTableRecord
  2
LC-3D-HIDDEN
 70
     0
 62
     9
  6
DASHED
370
    -3
390
F
  0
LAYER
  5
30
330
2
100
AcDbSymbolTableRecord
100
AcDbLayerTableRecord
  2
LC-001-100-D00-0
 70
     0
 62
     1
  6
ByBlock
370
    -3
390
F
  0
LAYER
  5
717
330
2
100
AcDbSymbolTableRecord
100
AcDbLayerTableRecord
  2
LC-002-003-----0
 70
     0
 62
     2
  6
ByBlock
370
    -3
390
F
  0
LAYER
  5
719
330
2
100
AcDbSymbolTableRecord
100
AcDbLayerTableRecord
  2
Defpoints
 70
     0
 62
     7
  6
Continuous
290
     0
370
    -3
390
F
  0
ENDTAB
  0
TABLE
  2
STYLE
  5
3
330
0
100
AcDbSymbolTable
 70
     3
  0
STYLE
  5
11
330
3
100
AcDbSymbolTableRecord
100
AcDbTextStyleTableRecord
  2
Standard
 70
     0
 40
0.0
 41
1.0
 50
0.0
 71
     0
 42
2.5
  3
txt
  4

  0
STYLE
  5
2F
330
3
100
AcDbSymbolTableRecord
100
AcDbTextStyleTableRecord
  2
LCTX15-400-0-0-Arial
 70
     0
 40
0.0
 41
0.8
 50
0.0
 71
     0
 42
3.5
  3

  4

1001
ACAD
1000
Arial
1071
 16777218
  0
STYLE
  5
715
330
3
100
AcDbSymbolTableRecord
100
AcDbTextStyleTableRecord
  2
LCTX15-400-0-0pDIN-Schrift
 70
     0
 40
2.5
 41
0.8
 50
15.0
 71
     0
 42
3.5
  3
STANDARD
  4

  0
ENDTAB
  0
TABLE
  2
VIEW
  5
6
330
0
100
AcDbSymbolTable
 70
     0
  0
ENDTAB
  0
TABLE
  2
UCS
  5
7
330
0
100
AcDbSymbolTable
 70
     0
  0
ENDTAB
  0
TABLE
  2
APPID
  5
9
330
0
100
AcDbSymbolTable
 70
     1
  0
APPID
  5
12
330
9
100
AcDbSymbolTableRecord
100
AcDbRegAppTableRecord
  2
ACAD
 70
     0
  0
ENDTAB
  0
TABLE
  2
DIMSTYLE
  5
A
330
0
100
AcDbSymbolTable
 70
     2
100
AcDbDimStyleTable
  0
DIMSTYLE
105
27
330
A
100
AcDbSymbolTableRecord
100
AcDbDimStyleTableRecord
  2
ISO-25
 70
     0
 41
2.5
 42
0.625
 43
3.75
 44
1.25
 73
     0
 74
     0
 77
     1
 78
     8
140
2.5
141
2.5
143
0.03937
147
0.625
171
     3
172
     1
271
     2
272
     2
274
     3
278
    44
283
     0
284
     8
340
11
  0
DIMSTYLE
105
716
102
{ACAD_REACTORS
330
718
330
727
330
735
330
742
330
74F
330
75C
102
}
330
A
100
AcDbSymbolTableRecord
100
AcDbDimStyleTableRecord
  2
LC-DIM-L-0140-02-02
 70
     0
 40
2.0
 41
14.0
 42
0.0
 43
7.5
 44
1.8
 73
     0
 74
     0
 77
     1
 78
     8
 79
     2
140
14.0
141
0.0
146
0.71
147
1.5
176
     2
177
     2
178
     2
179
     2
271
     2
278
    44
289
     1
340
715
  0
ENDTAB
  0
TABLE
  2
BLOCK_RECORD
  5
1
330
0
100
AcDbSymbolTable
 70
    84
  0
BLOCK_RECORD
  5
1F
330
1
100
AcDbSymbolTableRecord
100
AcDbBlockTableRecord
  2
*Model_Space
340
22
  0
BLOCK_RECORD
  5
1B
330
1
100
AcDbSymbolTableRecord
100
AcDbBlockTableRecord
  2
*Paper_Space
340
1E
  0
BLOCK_RECORD
  5
23
330
1
100
AcDbSymbolTableRecord
100
AcDbBlockTableRecord
  2
*Paper_Space0
340
26
  0
BLOCK_RECORD
  5
35
330
1
100
AcDbSymbolTableRecord
100
AcDbBlockTableRecord
  2
POLY1
340
0
102
{BLKREFS
331
40
102
}
  0
BLOCK_RECORD
  5
44
330
1
100
AcDbSymbolTableRecord
100
AcDbBlockTableRecord
  2
POLY2
340
0
102
{BLKREFS
331
4F
102
}
  0
BLOCK_RECORD
  5
50
330
1
100
AcDbSymbolTableRecord
100
AcDbBlockTableRecord
  2
POLY3
340
0
102
{BLKREFS
331
5B
102
}
  0
BLOCK_RECORD
  5
5C
330
1
100
AcDbSymbolTableRecord
100
AcDbBlockTableRecord
  2
POLY4
340
0
102
{BLKREFS
331
67
102
}
  0
BLOCK_RECORD
  5
68
330
1
100
AcDbSymbolTableRecord
100
AcDbBlockTableRecord
  2
POLY5
340
0
102
{BLKREFS
331
73
102
}
  0
BLOCK_RECORD
  5
74
330
1
100
AcDbSymbolTableRecord
100
AcDbBlockTableRecord
  2
POLY6
340
0
102
{BLKREFS
331
7F
102
}
  0
BLOCK_RECORD
  5
80
330
1
100
AcDbSymbolTableRecord
100
AcDbBlockTableRecord
  2
POLY7
340
0
102
{BLKREFS
331
8B
102
}
  0
BLOCK_RECORD
  5
8D
330
1
100
AcDbSymbolTableRecord
100
AcDbBlockTableRecord
  2
POLY8
340
0
102
{BLKREFS
331
98
102
}
  0
BLOCK_RECORD
  5
9A
330
1
100
AcDbSymbolTableRecord
100
AcDbBlockTableRecord
  2
POLY9
340
0
102
{BLKREFS
331
A5
102
}
  0
BLOCK_RECORD
  5
A7
330
1
100
AcDbSymbolTableRecord
100
AcDbBlockTableRecord
  2
POLY10
340
0
102
{BLKREFS
331
B2
102
}
  0
BLOCK_RECORD
  5
B4
330
1
100
AcDbSymbolTableRecord
100
AcDbBlockTableRecord
  2
POLY11
340
0
102
{BLKREFS
331
BF
102
}
  0
BLOCK_RECORD
  5
1E4
330
1
100
AcDbSymbolTableRecord
100
AcDbBlockTableRecord
  2
KLON1
340
0
102
{BLKREFS
331
1EA
102
}
  0
BLOCK_RECORD
  5
1EB
330
1
100
AcDbSymbolTableRecord
100
AcDbBlockTableRecord
  2
KLON2
340
0
102
{BLKREFS
331
1F1
102
}
  0
BLOCK_RECORD
  5
1F2
330
1
100
AcDbSymbolTableRecord
100
AcDbBlockTableRecord
  2
POLY12
340
0
102
{BLKREFS
331
1FD
102
}
  0
BLOCK_RECORD
  5
1FF
330
1
100
AcDbSymbolTableRecord
100
AcDbBlockTableRecord
  2
KLON3
340
0
102
{BLKREFS
331
205
102
}
  0
BLOCK_RECORD
  5
206
330
1
100
AcDbSymbolTableRecord
100
AcDbBlockTableRecord
  2
KLON4
340
0
102
{BLKREFS
331
20C
102
}
  0
BLOCK_RECORD
  5
20D
330
1
100
AcDbSymbolTableRecord
100
AcDbBlockTableRecord
  2
KLON5
340
0
102
{BLKREFS
331
213
102
}
  0
BLOCK_RECORD
  5
214
330
1
100
AcDbSymbolTableRecord
100
AcDbBlockTableRecord
  2
KLON6
340
0
102
{BLKREFS
331
21A
102
}
  0
BLOCK_RECORD
  5
21B
330
1
100
AcDbSymbolTableRecord
100
AcDbBlockTableRecord
  2
KLON7
340
0
102
{BLKREFS
331
221
102
}
  0
BLOCK_RECORD
  5
222
330
1
100
AcDbSymbolTableRecord
100
AcDbBlockTableRecord
  2
KLON8
340
0
102
{BLKREFS
331
228
102
}
  0
BLOCK_RECORD
  5
229
330
1
100
AcDbSymbolTableRecord
100
AcDbBlockTableRecord
  2
KLON9
340
0
102
{BLKREFS
331
22F
102
}
  0
BLOCK_RECORD
  5
230
330
1
100
AcDbSymbolTableRecord
100
AcDbBlockTableRecord
  2
KLON10
340
0
102
{BLKREFS
331
236
102
}
  0
BLOCK_RECORD
  5
237
330
1
100
AcDbSymbolTableRecord
100
AcDbBlockTableRecord
  2
POLY13
340
0
102
{BLKREFS
331
242
102
}
  0
BLOCK_RECORD
  5
244
330
1
100
AcDbSymbolTableRecord
100
AcDbBlockTableRecord
  2
KLON11
340
0
102
{BLKREFS
331
24A
102
}
  0
BLOCK_RECORD
  5
24B
330
1
100
AcDbSymbolTableRecord
100
AcDbBlockTableRecord
  2
KLON12
340
0
102
{BLKREFS
331
251
102
}
  0
BLOCK_RECORD
  5
252
330
1
100
AcDbSymbolTableRecord
100
AcDbBlockTableRecord
  2
KLON13
340
0
102
{BLKREFS
331
258
102
}
  0
BLOCK_RECORD
  5
259
330
1
100
AcDbSymbolTableRecord
100
AcDbBlockTableRecord
  2
KLON14
340
0
102
{BLKREFS
331
25F
102
}
  0
BLOCK_RECORD
  5
260
330
1
100
AcDbSymbolTableRecord
100
AcDbBlockTableRecord
  2
KLON15
340
0
102
{BLKREFS
331
266
102
}
  0
BLOCK_RECORD
  5
267
330
1
100
AcDbSymbolTableRecord
100
AcDbBlockTableRecord
  2
KLON16
340
0
102
{BLKREFS
331
26D
102
}
  0
BLOCK_RECORD
  5
26E
330
1
100
AcDbSymbolTableRecord
100
AcDbBlockTableRecord
  2
KLON17
340
0
102
{BLKREFS
331
274
102
}
  0
BLOCK_RECORD
  5
275
330
1
100
AcDbSymbolTableRecord
100
AcDbBlockTableRecord
  2
KLON18
340
0
102
{BLKREFS
331
27B
102
}
  0
BLOCK_RECORD
  5
27C
330
1
100
AcDbSymbolTableRecord
100
AcDbBlockTableRecord
  2
KLON19
340
0
102
{BLKREFS
331
282
102
}
  0
BLOCK_RECORD
  5
283
330
1
100
AcDbSymbolTableRecord
100
AcDbBlockTableRecord
  2
KLON20
340
0
102
{BLKREFS
331
289
102
}
  0
BLOCK_RECORD
  5
2AB
330
1
100
AcDbSymbolTableRecord
100
AcDbBlockTableRecord
  2
POLY14
340
0
102
{BLKREFS
331
2B6
102
}
  0
BLOCK_RECORD
  5
2B7
330
1
100
AcDbSymbolTableRecord
100
AcDbBlockTableRecord
  2
POLY15
340
0
102
{BLKREFS
331
2C2
102
}
  0
BLOCK_RECORD
  5
30B
330
1
100
AcDbSymbolTableRecord
100
AcDbBlockTableRecord
  2
POLY16
340
0
102
{BLKREFS
331
31A
102
}
  0
BLOCK_RECORD
  5
31B
330
1
100
AcDbSymbolTableRecord
100
AcDbBlockTableRecord
  2
POLY17
340
0
102
{BLKREFS
331
32A
102
}
  0
BLOCK_RECORD
  5
42A
330
1
100
AcDbSymbolTableRecord
100
AcDbBlockTableRecord
  2
KLON21
340
0
102
{BLKREFS
331
42F
102
}
  0
BLOCK_RECORD
  5
439
330
1
100
AcDbSymbolTableRecord
100
AcDbBlockTableRecord
  2
KLON22
340
0
102
{BLKREFS
331
43E
102
}
  0
BLOCK_RECORD
  5
460
330
1
100
AcDbSymbolTableRecord
100
AcDbBlockTableRecord
  2
POLY18
340
0
102
{BLKREFS
331
46D
102
}
  0
BLOCK_RECORD
  5
46E
330
1
100
AcDbSymbolTableRecord
100
AcDbBlockTableRecord
  2
POLY19
340
0
102
{BLKREFS
331
47B
102
}
  0
BLOCK_RECORD
  5
47D
330
1
100
AcDbSymbolTableRecord
100
AcDbBlockTableRecord
  2
POLY20
340
0
102
{BLKREFS
331
48A
102
}
  0
BLOCK_RECORD
  5
48C
330
1
100
AcDbSymbolTableRecord
100
AcDbBlockTableRecord
  2
POLY21
340
0
102
{BLKREFS
331
499
102
}
  0
BLOCK_RECORD
  5
49A
330
1
100
AcDbSymbolTableRecord
100
AcDbBlockTableRecord
  2
POLY22
340
0
102
{BLKREFS
331
4A5
102
}
  0
BLOCK_RECORD
  5
4A6
330
1
100
AcDbSymbolTableRecord
100
AcDbBlockTableRecord
  2
POLY23
340
0
102
{BLKREFS
331
4B1
102
}
  0
BLOCK_RECORD
  5
4B2
330
1
100
AcDbSymbolTableRecord
100
AcDbBlockTableRecord
  2
POLY24
340
0
102
{BLKREFS
331
4BF
102
}
  0
BLOCK_RECORD
  5
4C1
330
1
100
AcDbSymbolTableRecord
100
AcDbBlockTableRecord
  2
POLY25
340
0
102
{BLKREFS
331
4CE
102
}
  0
BLOCK_RECORD
  5
4CF
330
1
100
AcDbSymbolTableRecord
100
AcDbBlockTableRecord
  2
POLY26
340
0
102
{BLKREFS
331
4DC
102
}
  0
BLOCK_RECORD
  5
4DD
330
1
100
AcDbSymbolTableRecord
100
AcDbBlockTableRecord
  2
POLY27
340
0
102
{BLKREFS
331
4EA
102
}
  0
BLOCK_RECORD
  5
4EC
330
1
100
AcDbSymbolTableRecord
100
AcDbBlockTableRecord
  2
POLY28
340
0
102
{BLKREFS
331
4F9
102
}
  0
BLOCK_RECORD
  5
4FA
330
1
100
AcDbSymbolTableRecord
100
AcDbBlockTableRecord
  2
POLY29
340
0
102
{BLKREFS
331
507
102
}
  0
BLOCK_RECORD
  5
509
330
1
100
AcDbSymbolTableRecord
100
AcDbBlockTableRecord
  2
POLY30
340
0
102
{BLKREFS
331
516
102
}
  0
BLOCK_RECORD
  5
518
330
1
100
AcDbSymbolTableRecord
100
AcDbBlockTableRecord
  2
POLY31
340
0
102
{BLKREFS
331
525
102
}
  0
BLOCK_RECORD
  5
526
330
1
100
AcDbSymbolTableRecord
100
AcDbBlockTableRecord
  2
POLY32
340
0
102
{BLKREFS
331
533
102
}
  0
BLOCK_RECORD
  5
534
330
1
100
AcDbSymbolTableRecord
100
AcDbBlockTableRecord
  2
POLY33
340
0
102
{BLKREFS
331
541
102
}
  0
BLOCK_RECORD
  5
543
330
1
100
AcDbSymbolTableRecord
100
AcDbBlockTableRecord
  2
POLY34
340
0
102
{BLKREFS
331
550
102
}
  0
BLOCK_RECORD
  5
551
330
1
100
AcDbSymbolTableRecord
100
AcDbBlockTableRecord
  2
POLY35
340
0
102
{BLKREFS
331
55C
102
}
  0
BLOCK_RECORD
  5
55D
330
1
100
AcDbSymbolTableRecord
100
AcDbBlockTableRecord
  2
POLY36
340
0
102
{BLKREFS
331
568
102
}
  0
BLOCK_RECORD
  5
569
330
1
100
AcDbSymbolTableRecord
100
AcDbBlockTableRecord
  2
POLY37
340
0
102
{BLKREFS
331
576
102
}
  0
BLOCK_RECORD
  5
578
330
1
100
AcDbSymbolTableRecord
100
AcDbBlockTableRecord
  2
POLY38
340
0
102
{BLKREFS
331
585
102
}
  0
BLOCK_RECORD
  5
587
330
1
100
AcDbSymbolTableRecord
100
AcDbBlockTableRecord
  2
POLY39
340
0
102
{BLKREFS
331
594
102
}
  0
BLOCK_RECORD
  5
595
330
1
100
AcDbSymbolTableRecord
100
AcDbBlockTableRecord
  2
POLY40
340
0
102
{BLKREFS
331
5A2
102
}
  0
BLOCK_RECORD
  5
5A4
330
1
100
AcDbSymbolTableRecord
100
AcDbBlockTableRecord
  2
POLY41
340
0
102
{BLKREFS
331
5B1
102
}
  0
BLOCK_RECORD
  5
5C3
330
1
100
AcDbSymbolTableRecord
100
AcDbBlockTableRecord
  2
POLY42
340
0
102
{BLKREFS
331
5D4
102
}
  0
BLOCK_RECORD
  5
5D8
330
1
100
AcDbSymbolTableRecord
100
AcDbBlockTableRecord
  2
POLY43
340
0
102
{BLKREFS
331
5EF
102
}
  0
BLOCK_RECORD
  5
5F2
330
1
100
AcDbSymbolTableRecord
100
AcDbBlockTableRecord
  2
POLY44
340
0
102
{BLKREFS
331
605
102
}
  0
BLOCK_RECORD
  5
613
330
1
100
AcDbSymbolTableRecord
100
AcDbBlockTableRecord
  2
POLY45
340
0
102
{BLKREFS
331
61E
102
}
  0
BLOCK_RECORD
  5
620
330
1
100
AcDbSymbolTableRecord
100
AcDbBlockTableRecord
  2
POLY46
340
0
102
{BLKREFS
331
62B
102
}
  0
BLOCK_RECORD
  5
636
330
1
100
AcDbSymbolTableRecord
100
AcDbBlockTableRecord
  2
KLON23
340
0
102
{BLKREFS
331
640
102
}
  0
BLOCK_RECORD
  5
641
330
1
100
AcDbSymbolTableRecord
100
AcDbBlockTableRecord
  2
KLON24
340
0
102
{BLKREFS
331
660
102
}
  0
BLOCK_RECORD
  5
664
330
1
100
AcDbSymbolTableRecord
100
AcDbBlockTableRecord
  2
KLON25
340
0
102
{BLKREFS
331
66C
102
}
  0
BLOCK_RECORD
  5
66D
330
1
100
AcDbSymbolTableRecord
100
AcDbBlockTableRecord
  2
KLON26
340
0
102
{BLKREFS
331
674
102
}
  0
BLOCK_RECORD
  5
676
330
1
100
AcDbSymbolTableRecord
100
AcDbBlockTableRecord
  2
KLON27
340
0
102
{BLKREFS
331
67F
102
}
  0
BLOCK_RECORD
  5
680
330
1
100
AcDbSymbolTableRecord
100
AcDbBlockTableRecord
  2
KLON28
340
0
102
{BLKREFS
331
6A5
102
}
  0
BLOCK_RECORD
  5
6A6
330
1
100
AcDbSymbolTableRecord
100
AcDbBlockTableRecord
  2
KLON29
340
0
102
{BLKREFS
331
6CF
102
}
  0
BLOCK_RECORD
  5
6D0
330
1
100
AcDbSymbolTableRecord
100
AcDbBlockTableRecord
  2
KLON30
340
0
102
{BLKREFS
331
6EE
102
}
  0
BLOCK_RECORD
  5
6EF
330
1
100
AcDbSymbolTableRecord
100
AcDbBlockTableRecord
  2
KLON31
340
0
102
{BLKREFS
331
712
102
}
  0
BLOCK_RECORD
  5
71A
330
1
100
AcDbSymbolTableRecord
100
AcDbBlockTableRecord
  2
*D78
340
0
  0
BLOCK_RECORD
  5
728
330
1
100
AcDbSymbolTableRecord
100
AcDbBlockTableRecord
  2
*D79
340
0
  0
BLOCK_RECORD
  5
736
330
1
100
AcDbSymbolTableRecord
100
AcDbBlockTableRecord
  2
*D80
340
0
  0
BLOCK_RECORD
  5
743
330
1
100
AcDbSymbolTableRecord
100
AcDbBlockTableRecord
  2
*D81
340
0
  0
BLOCK_RECORD
  5
750
330
1
100
AcDbSymbolTableRecord
100
AcDbBlockTableRecord
  2
*D82
340
0
  0
BLOCK_RECORD
  5
75D
330
1
100
AcDbSymbolTableRecord
100
AcDbBlockTableRecord
  2
*D83
340
0
  0
ENDTAB
  0
ENDSEC
  0
SECTION
  2
BLOCKS
  0
BLOCK
  5
20
330
1F
100
AcDbEntity
  8
0
100
AcDbBlockBegin
  2
*Model_Space
 70
     0
 71
     0
 10
0.0
 20
0.0
 30
0.0
  3
*Model_Space
  1

  0
ENDBLK
  5
21
330
1F
100
AcDbEntity
  8
0
100
AcDbBlockEnd
  0
BLOCK
  5
1C
330
1B
100
AcDbEntity
 67
     1
  8
0
100
AcDbBlockBegin
  2
*Paper_Space
 70
     0
 71
     0
 10
0.0
 20
0.0
 30
0.0
  3
*Paper_Space
  1

  0
ENDBLK
  5
1D
330
1B
100
AcDbEntity
 67
     1
  8
0
100
AcDbBlockEnd
  0
BLOCK
  5
24
330
23
100
AcDbEntity
  8
0
100
AcDbBlockBegin
  2
*Paper_Space0
 70
     0
 71
     0
 10
0.0
 20
0.0
 30
0.0
  3
*Paper_Space0
  1

  0
ENDBLK
  5
25
330
23
100
AcDbEntity
  8
0
100
AcDbBlockEnd
  0
BLOCK
  5
36
330
35
100
AcDbEntity
  8
0
100
AcDbBlockBegin
  2
POLY1
 70
     0
 71
     0
 10
0.0
 20
0.0
 30
0.0
  3
POLY1
  1

  4
POLY1
  0
LINE
  5
38
330
35
100
AcDbEntity
  8
LC-001-100-D00-0
 62
     7
370
    50
100
AcDbLine
 10
110.923555
 20
285.184905
 30
0.0
 11
110.923555
 21
285.184905
 31
0.0
  0
LINE
  5
39
330
35
100
AcDbEntity
  8
LC-001-100-D00-0
 62
     7
370
    50
100
AcDbLine
 10
110.923555
 20
285.184905
 30
0.0
 11
110.709755
 21
285.301532
 31
0.0
  0
LINE
  5
3A
330
35
100
AcDbEntity
  8
LC-001-100-D00-0
 62
     7
370
    50
100
AcDbLine
 10
110.709755
 20
285.301532
 30
0.0
 11
110.709755
 21
285.301532
 31
0.0
  0
LINE
  5
3B
330
35
100
AcDbEntity
  8
LC-001-100-D00-0
 62
     7
370
    50
100
AcDbLine
 10
110.709755
 20
285.301532
 30
0.0
 11
110.346513
 21
285.499678
 31
0.0
  0
LINE
  5
3C
330
35
100
AcDbEntity
  8
LC-001-100-D00-0
 62
     7
370
    50
100
AcDbLine
 10
110.346513
 20
285.499678
 30
0.0
 11
110.346513
 21
285.499678
 31
0.0
  0
LINE
  5
3D
330
35
100
AcDbEntity
  8
LC-001-100-D00-0
 62
     7
370
    50
100
AcDbLine
 10
110.346513
 20
285.499678
 30
0.0
 11
109.993742
 21
285.700104
 31
0.0
  0
LINE
  5
3E
330
35
100
AcDbEntity
  8
LC-001-100-D00-0
 62
     7
370
    50
100
AcDbLine
 10
109.993742
 20
285.700104
 30
0.0
 11
109.993742
 21
285.700104
 31
0.0
  0
LINE
  5
3F
330
35
100
AcDbEntity
  8
LC-001-100-D00-0
 62
     7
370
    50
100
AcDbLine
 10
109.993742
 20
285.700104
 30
0.0
 11
109.848607
 21
285.782561
 31
0.0
  0
ENDBLK
  5
37
330
35
100
AcDbEntity
  8
0
100
AcDbBlockEnd
  0
BLOCK
  5
45
330
44
100
AcDbEntity
  8
0
100
AcDbBlockBegin
  2
POLY2
 70
     0
 71
     0
 10
0.0
 20
0.0
 30
0.0
  3
POLY2
  1

  4
POLY2
  0
LINE
  5
47
330
44
100
AcDbEntity
  8
LC-001-100-D00-0
 62
     7
370
    50
100
AcDbLine
 10
110.923555
 20
288.184896
 30
0.0
 11
110.923555
 21
288.184896
 31
0.0
  0
LINE
  5
48
330
44
100
AcDbEntity
  8
LC-001-100-D00-0
 62
     7
370
    50
100
AcDbLine
 10
110.923555
 20
288.184896
 30
0.0
 11
110.709757
 21
288.301531
 31
0.0
  0
LINE
  5
49
330
44
100
AcDbEntity
  8
LC-001-100-D00-0
 62
     7
370
    50
100
AcDbLine
 10
110.709757
 20
288.301531
 30
0.0
 11
110.709757
 21
288.301531
 31
0.0
  0
LINE
  5
4A
330
44
100
AcDbEntity
  8
LC-001-100-D00-0
 62
     7
370
    50
100
AcDbLine
 10
110.709757
 20
288.301531
 30
0.0
 11
110.346521
 21
288.499688
 31
0.0
  0
LINE
  5
4B
330
44
100
AcDbEntity
  8
LC-001-100-D00-0
 62
     7
370
    50
100
AcDbLine
 10
110.346521
 20
288.499688
 30
0.0
 11
110.346521
 21
288.499688
 31
0.0
  0
LINE
  5
4C
330
44
100
AcDbEntity
  8
LC-001-100-D00-0
 62
     7
370
    50
100
AcDbLine
 10
110.346521
 20
288.499688
 30
0.0
 11
109.993743
 21
288.700101
 31
0.0
  0
LINE
  5
4D
330
44
100
AcDbEntity
  8
LC-001-100-D00-0
 62
     7
370
    50
100
AcDbLine
 10
109.993743
 20
288.700101
 30
0.0
 11
109.993743
 21
288.700101
 31
0.0
  0
LINE
  5
4E
330
44
100
AcDbEntity
  8
LC-001-100-D00-0
 62
     7
370
    50
100
AcDbLine
 10
109.993743
 20
288.700101
 30
0.0
 11
109.848607
 21
288.782552
 31
0.0
  0
ENDBLK
  5
46
330
44
100
AcDbEntity
  8
0
100
AcDbBlockEnd
  0
BLOCK
  5
51
330
50
100
AcDbEntity
  8
0
100
AcDbBlockBegin
  2
POLY3
 70
     0
 71
     0
 10
0.0
 20
0.0
 30
0.0
  3
POLY3
  1

  4
POLY3
  0
LINE
  5
53
330
50
100
AcDbEntity
  8
LC-001-100-D00-0
 62
     7
370
    50
100
AcDbLine
 10
104.758181
 20
289.377749
 30
0.0
 11
104.758181
 21
289.377749
 31
0.0
  0
LINE
  5
54
330
50
100
AcDbEntity
  8
LC-001-100-D00-0
 62
     7
370
    50
100
AcDbLine
 10
104.758181
 20
289.377749
 30
0.0
 11
104.998079
 21
289.251612
 31
0.0
  0
LINE
  5
55
330
50
100
AcDbEntity
  8
LC-001-100-D00-0
 62
     7
370
    50
100
AcDbLine
 10
104.998079
 20
289.251612
 30
0.0
 11
104.998079
 21
289.251612
 31
0.0
  0
LINE
  5
56
330
50
100
AcDbEntity
  8
LC-001-100-D00-0
 62
     7
370
    50
100
AcDbLine
 10
104.998079
 20
289.251612
 30
0.0
 11
105.361923
 21
289.060305
 31
0.0
  0
LINE
  5
57
330
50
100
AcDbEntity
  8
LC-001-100-D00-0
 62
     7
370
    50
100
AcDbLine
 10
105.361923
 20
289.060305
 30
0.0
 11
105.361923
 21
289.060305
 31
0.0
  0
LINE
  5
58
330
50
100
AcDbEntity
  8
LC-001-100-D00-0
 62
     7
370
    50
100
AcDbLine
 10
105.361923
 20
289.060305
 30
0.0
 11
105.724942
 21
288.85504
 31
0.0
  0
LINE
  5
59
330
50
100
AcDbEntity
  8
LC-001-100-D00-0
 62
     7
370
    50
100
AcDbLine
 10
105.724942
 20
288.85504
 30
0.0
 11
105.724942
 21
288.85504
 31
0.0
  0
LINE
  5
5A
330
50
100
AcDbEntity
  8
LC-001-100-D00-0
 62
     7
370
    50
100
AcDbLine
 10
105.724942
 20
288.85504
 30
0.0
 11
105.848607
 21
288.785115
 31
0.0
  0
ENDBLK
  5
52
330
50
100
AcDbEntity
  8
0
100
AcDbBlockEnd
  0
BLOCK
  5
5D
330
5C
100
AcDbEntity
  8
0
100
AcDbBlockBegin
  2
POLY4
 70
     0
 71
     0
 10
0.0
 20
0.0
 30
0.0
  3
POLY4
  1

  4
POLY4
  0
LINE
  5
5F
330
5C
100
AcDbEntity
  8
LC-001-100-D00-0
 62
     7
370
    50
100
AcDbLine
 10
104.758181
 20
286.377743
 30
0.0
 11
104.758181
 21
286.377743
 31
0.0
  0
LINE
  5
60
330
5C
100
AcDbEntity
  8
LC-001-100-D00-0
 62
     7
370
    50
100
AcDbLine
 10
104.758181
 20
286.377743
 30
0.0
 11
104.99808
 21
286.251612
 31
0.0
  0
LINE
  5
61
330
5C
100
AcDbEntity
  8
LC-001-100-D00-0
 62
     7
370
    50
100
AcDbLine
 10
104.99808
 20
286.251612
 30
0.0
 11
104.99808
 21
286.251612
 31
0.0
  0
LINE
  5
62
330
5C
100
AcDbEntity
  8
LC-001-100-D00-0
 62
     7
370
    50
100
AcDbLine
 10
104.99808
 20
286.251612
 30
0.0
 11
105.361926
 21
286.060314
 31
0.0
  0
LINE
  5
63
330
5C
100
AcDbEntity
  8
LC-001-100-D00-0
 62
     7
370
    50
100
AcDbLine
 10
105.361926
 20
286.060314
 30
0.0
 11
105.361926
 21
286.060314
 31
0.0
  0
LINE
  5
64
330
5C
100
AcDbEntity
  8
LC-001-100-D00-0
 62
     7
370
    50
100
AcDbLine
 10
105.361926
 20
286.060314
 30
0.0
 11
105.724942
 21
285.855049
 31
0.0
  0
LINE
  5
65
330
5C
100
AcDbEntity
  8
LC-001-100-D00-0
 62
     7
370
    50
100
AcDbLine
 10
105.724942
 20
285.855049
 30
0.0
 11
105.724942
 21
285.855049
 31
0.0
  0
LINE
  5
66
330
5C
100
AcDbEntity
  8
LC-001-100-D00-0
 62
     7
370
    50
100
AcDbLine
 10
105.724942
 20
285.855049
 30
0.0
 11
105.848607
 21
285.785124
 31
0.0
  0
ENDBLK
  5
5E
330
5C
100
AcDbEntity
  8
0
100
AcDbBlockEnd
  0
BLOCK
  5
69
330
68
100
AcDbEntity
  8
0
100
AcDbBlockBegin
  2
POLY5
 70
     0
 71
     0
 10
0.0
 20
0.0
 30
0.0
  3
POLY5
  1

  4
POLY5
  0
LINE
  5
6B
330
68
100
AcDbEntity
  8
LC-001-100-D00-0
 62
     7
370
    50
100
AcDbLine
 10
105.361365
 20
280.055359
 30
0.0
 11
105.361365
 21
280.055359
 31
0.0
  0
LINE
  5
6C
330
68
100
AcDbEntity
  8
LC-001-100-D00-0
 62
     7
370
    50
100
AcDbLine
 10
105.361365
 20
280.055359
 30
0.0
 11
105.400089
 21
280.034785
 31
0.0
  0
LINE
  5
6D
330
68
100
AcDbEntity
  8
LC-001-100-D00-0
 62
     7
370
    50
100
AcDbLine
 10
105.400089
 20
280.034785
 30
0.0
 11
105.400089
 21
280.034785
 31
0.0
  0
LINE
  5
6E
330
68
100
AcDbEntity
  8
LC-001-100-D00-0
 62
     7
370
    50
100
AcDbLine
 10
105.400089
 20
280.034785
 30
0.0
 11
105.562725
 21
279.948376
 31
0.0
  0
LINE
  5
6F
330
68
100
AcDbEntity
  8
LC-001-100-D00-0
 62
     7
370
    50
100
AcDbLine
 10
105.562725
 20
279.948376
 30
0.0
 11
105.562725
 21
279.948376
 31
0.0
  0
LINE
  5
70
330
68
100
AcDbEntity
  8
LC-001-100-D00-0
 62
     7
370
    50
100
AcDbLine
 10
105.562725
 20
279.948376
 30
0.0
 11
105.724983
 21
279.855712
 31
0.0
  0
LINE
  5
71
330
68
100
AcDbEntity
  8
LC-001-100-D00-0
 62
     7
370
    50
100
AcDbLine
 10
105.724983
 20
279.855712
 30
0.0
 11
105.724983
 21
279.855712
 31
0.0
  0
LINE
  5
72
330
68
100
AcDbEntity
  8
LC-001-100-D00-0
 62
     7
370
    50
100
AcDbLine
 10
105.724983
 20
279.855712
 30
0.0
 11
105.848607
 21
279.785112
 31
0.0
  0
ENDBLK
  5
6A
330
68
100
AcDbEntity
  8
0
100
AcDbBlockEnd
  0
BLOCK
  5
75
330
74
100
AcDbEntity
  8
0
100
AcDbBlockBegin
  2
POLY6
 70
     0
 71
     0
 10
0.0
 20
0.0
 30
0.0
  3
POLY6
  1

  4
POLY6
  0
LINE
  5
77
330
74
100
AcDbEntity
  8
LC-001-100-D00-0
 62
     7
370
    50
100
AcDbLine
 10
105.361365
 20
283.055351
 30
0.0
 11
105.361365
 21
283.055351
 31
0.0
  0
LINE
  5
78
330
74
100
AcDbEntity
  8
LC-001-100-D00-0
 62
     7
370
    50
100
AcDbLine
 10
105.361365
 20
283.055351
 30
0.0
 11
105.400089
 21
283.034776
 31
0.0
  0
LINE
  5
79
330
74
100
AcDbEntity
  8
LC-001-100-D00-0
 62
     7
370
    50
100
AcDbLine
 10
105.400089
 20
283.034776
 30
0.0
 11
105.400089
 21
283.034776
 31
0.0
  0
LINE
  5
7A
330
74
100
AcDbEntity
  8
LC-001-100-D00-0
 62
     7
370
    50
100
AcDbLine
 10
105.400089
 20
283.034776
 30
0.0
 11
105.562722
 21
282.948368
 31
0.0
  0
LINE
  5
7B
330
74
100
AcDbEntity
  8
LC-001-100-D00-0
 62
     7
370
    50
100
AcDbLine
 10
105.562722
 20
282.948368
 30
0.0
 11
105.562722
 21
282.948368
 31
0.0
  0
LINE
  5
7C
330
74
100
AcDbEntity
  8
LC-001-100-D00-0
 62
     7
370
    50
100
AcDbLine
 10
105.562722
 20
282.948368
 30
0.0
 11
105.724982
 21
282.855712
 31
0.0
  0
LINE
  5
7D
330
74
100
AcDbEntity
  8
LC-001-100-D00-0
 62
     7
370
    50
100
AcDbLine
 10
105.724982
 20
282.855712
 30
0.0
 11
105.724982
 21
282.855712
 31
0.0
  0
LINE
  5
7E
330
74
100
AcDbEntity
  8
LC-001-100-D00-0
 62
     7
370
    50
100
AcDbLine
 10
105.724982
 20
282.855712
 30
0.0
 11
105.848607
 21
282.785118
 31
0.0
  0
ENDBLK
  5
76
330
74
100
AcDbEntity
  8
0
100
AcDbBlockEnd
  0
BLOCK
  5
81
330
80
100
AcDbEntity
  8
0
100
AcDbBlockBegin
  2
POLY7
 70
     0
 71
     0
 10
0.0
 20
0.0
 30
0.0
  3
POLY7
  1

  4
POLY7
  0
LINE
  5
83
330
80
100
AcDbEntity
  8
LC-001-100-D00-0
 62
     7
370
    50
100
AcDbLine
 10
105.361365
 20
277.055353
 30
0.0
 11
105.361365
 21
277.055353
 31
0.0
  0
LINE
  5
84
330
80
100
AcDbEntity
  8
LC-001-100-D00-0
 62
     7
370
    50
100
AcDbLine
 10
105.361365
 20
277.055353
 30
0.0
 11
105.400089
 21
277.034779
 31
0.0
  0
LINE
  5
85
330
80
100
AcDbEntity
  8
LC-001-100-D00-0
 62
     7
370
    50
100
AcDbLine
 10
105.400089
 20
277.034779
 30
0.0
 11
105.400089
 21
277.034779
 31
0.0
  0
LINE
  5
86
330
80
100
AcDbEntity
  8
LC-001-100-D00-0
 62
     7
370
    50
100
AcDbLine
 10
105.400089
 20
277.034779
 30
0.0
 11
105.562722
 21
276.948371
 31
0.0
  0
LINE
  5
87
330
80
100
AcDbEntity
  8
LC-001-100-D00-0
 62
     7
370
    50
100
AcDbLine
 10
105.562722
 20
276.948371
 30
0.0
 11
105.562722
 21
276.948371
 31
0.0
  0
LINE
  5
88
330
80
100
AcDbEntity
  8
LC-001-100-D00-0
 62
     7
370
    50
100
AcDbLine
 10
105.562722
 20
276.948371
 30
0.0
 11
105.724982
 21
276.855714
 31
0.0
  0
LINE
  5
89
330
80
100
AcDbEntity
  8
LC-001-100-D00-0
 62
     7
370
    50
100
AcDbLine
 10
105.724982
 20
276.855714
 30
0.0
 11
105.724982
 21
276.855714
 31
0.0
  0
LINE
  5
8A
330
80
100
AcDbEntity
  8
LC-001-100-D00-0
 62
     7
370
    50
100
AcDbLine
 10
105.724982
 20
276.855714
 30
0.0
 11
105.848607
 21
276.785121
 31
0.0
  0
ENDBLK
  5
82
330
80
100
AcDbEntity
  8
0
100
AcDbBlockEnd
  0
BLOCK
  5
8E
330
8D
100
AcDbEntity
  8
0
100
AcDbBlockBegin
  2
POLY8
 70
     0
 71
     0
 10
0.0
 20
0.0
 30
0.0
  3
POLY8
  1

  4
POLY8
  0
LINE
  5
90
330
8D
100
AcDbEntity
  8
LC-001-100-D00-0
 62
     7
370
    50
100
AcDbLine
 10
-29.02724
 20
285.16008
 30
0.0
 11
-29.02724
 21
285.16008
 31
0.0
  0
LINE
  5
91
330
8D
100
AcDbEntity
  8
LC-001-100-D00-0
 62
     7
370
    50
100
AcDbLine
 10
-29.02724
 20
285.16008
 30
0.0
 11
-29.248144
 21
285.280152
 31
0.0
  0
LINE
  5
92
330
8D
100
AcDbEntity
  8
LC-001-100-D00-0
 62
     7
370
    50
100
AcDbLine
 10
-29.248144
 20
285.280152
 30
0.0
 11
-29.248144
 21
285.280152
 31
0.0
  0
LINE
  5
93
330
8D
100
AcDbEntity
  8
LC-001-100-D00-0
 62
     7
370
    50
100
AcDbLine
 10
-29.248144
 20
285.280152
 30
0.0
 11
-29.625922
 21
285.485492
 31
0.0
  0
LINE
  5
94
330
8D
100
AcDbEntity
  8
LC-001-100-D00-0
 62
     7
370
    50
100
AcDbLine
 10
-29.625922
 20
285.485492
 30
0.0
 11
-29.625922
 21
285.485492
 31
0.0
  0
LINE
  5
95
330
8D
100
AcDbEntity
  8
LC-001-100-D00-0
 62
     7
370
    50
100
AcDbLine
 10
-29.625922
 20
285.485492
 30
0.0
 11
-29.996695
 21
285.695513
 31
0.0
  0
LINE
  5
96
330
8D
100
AcDbEntity
  8
LC-001-100-D00-0
 62
     7
370
    50
100
AcDbLine
 10
-29.996695
 20
285.695513
 30
0.0
 11
-29.996695
 21
285.695513
 31
0.0
  0
LINE
  5
97
330
8D
100
AcDbEntity
  8
LC-001-100-D00-0
 62
     7
370
    50
100
AcDbLine
 10
-29.996695
 20
285.695513
 30
0.0
 11
-30.150661
 21
285.782725
 31
0.0
  0
ENDBLK
  5
8F
330
8D
100
AcDbEntity
  8
0
100
AcDbBlockEnd
  0
BLOCK
  5
9B
330
9A
100
AcDbEntity
  8
0
100
AcDbBlockBegin
  2
POLY9
 70
     0
 71
     0
 10
0.0
 20
0.0
 30
0.0
  3
POLY9
  1

  4
POLY9
  0
LINE
  5
9D
330
9A
100
AcDbEntity
  8
LC-001-100-D00-0
 62
     7
370
    50
100
AcDbLine
 10
-35.29756
 20
286.404983
 30
0.0
 11
-35.29756
 21
286.404983
 31
0.0
  0
LINE
  5
9E
330
9A
100
AcDbEntity
  8
LC-001-100-D00-0
 62
     7
370
    50
100
AcDbLine
 10
-35.29756
 20
286.404983
 30
0.0
 11
-35.080571
 21
286.288225
 31
0.0
  0
LINE
  5
9F
330
9A
100
AcDbEntity
  8
LC-001-100-D00-0
 62
     7
370
    50
100
AcDbLine
 10
-35.080571
 20
286.288225
 30
0.0
 11
-35.080571
 21
286.288225
 31
0.0
  0
LINE
  5
A0
330
9A
100
AcDbEntity
  8
LC-001-100-D00-0
 62
     7
370
    50
100
AcDbLine
 10
-35.080571
 20
286.288225
 30
0.0
 11
-34.695173
 21
286.08085
 31
0.0
  0
LINE
  5
A1
330
9A
100
AcDbEntity
  8
LC-001-100-D00-0
 62
     7
370
    50
100
AcDbLine
 10
-34.695173
 20
286.08085
 30
0.0
 11
-34.695173
 21
286.08085
 31
0.0
  0
LINE
  5
A2
330
9A
100
AcDbEntity
  8
LC-001-100-D00-0
 62
     7
370
    50
100
AcDbLine
 10
-34.695173
 20
286.08085
 30
0.0
 11
-34.31624
 21
285.869401
 31
0.0
  0
LINE
  5
A3
330
9A
100
AcDbEntity
  8
LC-001-100-D00-0
 62
     7
370
    50
100
AcDbLine
 10
-34.31624
 20
285.869401
 30
0.0
 11
-34.31624
 21
285.869401
 31
0.0
  0
LINE
  5
A4
330
9A
100
AcDbEntity
  8
LC-001-100-D00-0
 62
     7
370
    50
100
AcDbLine
 10
-34.31624
 20
285.869401
 30
0.0
 11
-34.150655
 21
285.777003
 31
0.0
  0
ENDBLK
  5
9C
330
9A
100
AcDbEntity
  8
0
100
AcDbBlockEnd
  0
BLOCK
  5
A8
330
A7
100
AcDbEntity
  8
0
100
AcDbBlockBegin
  2
POLY10
 70
     0
 71
     0
 10
0.0
 20
0.0
 30
0.0
  3
POLY10
  1

  4
POLY10
  0
LINE
  5
AA
330
A7
100
AcDbEntity
  8
LC-001-100-D00-0
 62
     7
370
    50
100
AcDbLine
 10
-35.29756
 20
289.404989
 30
0.0
 11
-35.29756
 21
289.404989
 31
0.0
  0
LINE
  5
AB
330
A7
100
AcDbEntity
  8
LC-001-100-D00-0
 62
     7
370
    50
100
AcDbLine
 10
-35.29756
 20
289.404989
 30
0.0
 11
-35.080571
 21
289.288231
 31
0.0
  0
LINE
  5
AC
330
A7
100
AcDbEntity
  8
LC-001-100-D00-0
 62
     7
370
    50
100
AcDbLine
 10
-35.080571
 20
289.288231
 30
0.0
 11
-35.080571
 21
289.288231
 31
0.0
  0
LINE
  5
AD
330
A7
100
AcDbEntity
  8
LC-001-100-D00-0
 62
     7
370
    50
100
AcDbLine
 10
-35.080571
 20
289.288231
 30
0.0
 11
-34.695173
 21
289.080856
 31
0.0
  0
LINE
  5
AE
330
A7
100
AcDbEntity
  8
LC-001-100-D00-0
 62
     7
370
    50
100
AcDbLine
 10
-34.695173
 20
289.080856
 30
0.0
 11
-34.695173
 21
289.080856
 31
0.0
  0
LINE
  5
AF
330
A7
100
AcDbEntity
  8
LC-001-100-D00-0
 62
     7
370
    50
100
AcDbLine
 10
-34.695173
 20
289.080856
 30
0.0
 11
-34.31624
 21
288.869407
 31
0.0
  0
LINE
  5
B0
330
A7
100
AcDbEntity
  8
LC-001-100-D00-0
 62
     7
370
    50
100
AcDbLine
 10
-34.31624
 20
288.869407
 30
0.0
 11
-34.31624
 21
288.869407
 31
0.0
  0
LINE
  5
B1
330
A7
100
AcDbEntity
  8
LC-001-100-D00-0
 62
     7
370
    50
100
AcDbLine
 10
-34.31624
 20
288.869407
 30
0.0
 11
-34.150655
 21
288.777009
 31
0.0
  0
ENDBLK
  5
A9
330
A7
100
AcDbEntity
  8
0
100
AcDbBlockEnd
  0
BLOCK
  5
B5
330
B4
100
AcDbEntity
  8
0
100
AcDbBlockBegin
  2
POLY11
 70
     0
 71
     0
 10
0.0
 20
0.0
 30
0.0
  3
POLY11
  1

  4
POLY11
  0
LINE
  5
B7
330
B4
100
AcDbEntity
  8
LC-001-100-D00-0
 62
     7
370
    50
100
AcDbLine
 10
-29.026972
 20
288.159937
 30
0.0
 11
-29.026972
 21
288.159937
 31
0.0
  0
LINE
  5
B8
330
B4
100
AcDbEntity
  8
LC-001-100-D00-0
 62
     7
370
    50
100
AcDbLine
 10
-29.026972
 20
288.159937
 30
0.0
 11
-29.247955
 21
288.280049
 31
0.0
  0
LINE
  5
B9
330
B4
100
AcDbEntity
  8
LC-001-100-D00-0
 62
     7
370
    50
100
AcDbLine
 10
-29.247955
 20
288.280049
 30
0.0
 11
-29.247955
 21
288.280049
 31
0.0
  0
LINE
  5
BA
330
B4
100
AcDbEntity
  8
LC-001-100-D00-0
 62
     7
370
    50
100
AcDbLine
 10
-29.247955
 20
288.280049
 30
0.0
 11
-29.6258
 21
288.48542
 31
0.0
  0
LINE
  5
BB
330
B4
100
AcDbEntity
  8
LC-001-100-D00-0
 62
     7
370
    50
100
AcDbLine
 10
-29.6258
 20
288.48542
 30
0.0
 11
-29.6258
 21
288.48542
 31
0.0
  0
LINE
  5
BC
330
B4
100
AcDbEntity
  8
LC-001-100-D00-0
 62
     7
370
    50
100
AcDbLine
 10
-29.6258
 20
288.48542
 30
0.0
 11
-29.996688
 21
288.695512
 31
0.0
  0
LINE
  5
BD
330
B4
100
AcDbEntity
  8
LC-001-100-D00-0
 62
     7
370
    50
100
AcDbLine
 10
-29.996688
 20
288.695512
 30
0.0
 11
-29.996688
 21
288.695512
 31
0.0
  0
LINE
  5
BE
330
B4
100
AcDbEntity
  8
LC-001-100-D00-0
 62
     7
370
    50
100
AcDbLine
 10
-29.996688
 20
288.695512
 30
0.0
 11
-30.150661
 21
288.782731
 31
0.0
  0
ENDBLK
  5
B6
330
B4
100
AcDbEntity
  8
0
100
AcDbBlockEnd
  0
BLOCK
  5
1E5
330
1E4
100
AcDbEntity
  8
0
100
AcDbBlockBegin
  2
KLON1
 70
     0
 71
     0
 10
0.0
 20
0.0
 30
0.0
  3
KLON1
  1

  4
KLON1
  0
LINE
  5
1E7
330
1E4
100
AcDbEntity
  8
LC-001-100-D00-0
 62
     7
370
    15
100
AcDbLine
 10
109.848607
 20
285.672278
 30
0.0
 11
110.199703
 21
285.4895
 31
0.0
  0
LINE
  5
1E8
330
1E4
100
AcDbEntity
  8
LC-001-100-D00-0
 62
     7
370
    15
100
AcDbLine
 10
110.199703
 20
285.4895
 30
0.0
 11
110.550797
 21
285.306737
 31
0.0
  0
LINE
  5
1E9
330
1E4
100
AcDbEntity
  8
LC-001-100-D00-0
 62
     7
370
    15
100
AcDbLine
 10
110.550797
 20
285.306737
 30
0.0
 11
111.098606
 21
285.021559
 31
0.0
  0
ENDBLK
  5
1E6
330
1E4
100
AcDbEntity
  8
0
100
AcDbBlockEnd
  0
BLOCK
  5
1EC
330
1EB
100
AcDbEntity
  8
0
100
AcDbBlockBegin
  2
KLON2
 70
     0
 71
     0
 10
0.0
 20
0.0
 30
0.0
  3
KLON2
  1

  4
KLON2
  0
LINE
  5
1EE
330
1EB
100
AcDbEntity
  8
LC-001-100-D00-0
 62
     7
370
    15
100
AcDbLine
 10
104.598608
 20
286.521569
 30
0.0
 11
104.949702
 21
286.704332
 31
0.0
  0
LINE
  5
1EF
330
1EB
100
AcDbEntity
  8
LC-001-100-D00-0
 62
     7
370
    15
100
AcDbLine
 10
104.949702
 20
286.704332
 30
0.0
 11
105.300797
 21
286.887095
 31
0.0
  0
LINE
  5
1F0
330
1EB
100
AcDbEntity
  8
LC-001-100-D00-0
 62
     7
370
    15
100
AcDbLine
 10
105.300797
 20
286.887095
 30
0.0
 11
105.848607
 21
287.172273
 31
0.0
  0
ENDBLK
  5
1ED
330
1EB
100
AcDbEntity
  8
0
100
AcDbBlockEnd
  0
BLOCK
  5
1F3
330
1F2
100
AcDbEntity
  8
0
100
AcDbBlockBegin
  2
POLY12
 70
     0
 71
     0
 10
0.0
 20
0.0
 30
0.0
  3
POLY12
  1

  4
POLY12
  0
LINE
  5
1F5
330
1F2
100
AcDbEntity
  8
LC-001-100-D00-0
 62
     7
370
    50
100
AcDbLine
 10
104.598608
 20
286.521569
 30
0.0
 11
104.598608
 21
286.521569
 31
0.0
  0
LINE
  5
1F6
330
1F2
100
AcDbEntity
  8
LC-001-100-D00-0
 62
     7
370
    50
100
AcDbLine
 10
104.598608
 20
286.521569
 30
0.0
 11
104.598612
 21
286.520834
 31
0.0
  0
LINE
  5
1F7
330
1F2
100
AcDbEntity
  8
LC-001-100-D00-0
 62
     7
370
    50
100
AcDbLine
 10
104.598612
 20
286.520834
 30
0.0
 11
104.598612
 21
286.520834
 31
0.0
  0
LINE
  5
1F8
330
1F2
100
AcDbEntity
  8
LC-001-100-D00-0
 62
     7
370
    50
100
AcDbLine
 10
104.598612
 20
286.520834
 30
0.0
 11
104.59891
 21
286.469756
 31
0.0
  0
LINE
  5
1F9
330
1F2
100
AcDbEntity
  8
LC-001-100-D00-0
 62
     7
370
    50
100
AcDbLine
 10
104.59891
 20
286.469756
 30
0.0
 11
104.59891
 21
286.469756
 31
0.0
  0
LINE
  5
1FA
330
1F2
100
AcDbEntity
  8
LC-001-100-D00-0
 62
     7
370
    50
100
AcDbLine
 10
104.59891
 20
286.469756
 30
0.0
 11
104.698797
 21
286.422456
 31
0.0
  0
LINE
  5
1FB
330
1F2
100
AcDbEntity
  8
LC-001-100-D00-0
 62
     7
370
    50
100
AcDbLine
 10
104.698797
 20
286.422456
 30
0.0
 11
104.698797
 21
286.422456
 31
0.0
  0
LINE
  5
1FC
330
1F2
100
AcDbEntity
  8
LC-001-100-D00-0
 62
     7
370
    50
100
AcDbLine
 10
104.698797
 20
286.422456
 30
0.0
 11
104.797246
 21
286.375836
 31
0.0
  0
ENDBLK
  5
1F4
330
1F2
100
AcDbEntity
  8
0
100
AcDbBlockEnd
  0
BLOCK
  5
200
330
1FF
100
AcDbEntity
  8
0
100
AcDbBlockBegin
  2
KLON3
 70
     0
 71
     0
 10
0.0
 20
0.0
 30
0.0
  3
KLON3
  1

  4
KLON3
  0
LINE
  5
202
330
1FF
100
AcDbEntity
  8
LC-001-100-D00-0
 62
     7
370
    15
100
AcDbLine
 10
109.848607
 20
282.672271
 30
0.0
 11
110.199703
 21
282.489509
 31
0.0
  0
LINE
  5
203
330
1FF
100
AcDbEntity
  8
LC-001-100-D00-0
 62
     7
370
    15
100
AcDbLine
 10
110.199703
 20
282.489509
 30
0.0
 11
110.550797
 21
282.306731
 31
0.0
  0
LINE
  5
204
330
1FF
100
AcDbEntity
  8
LC-001-100-D00-0
 62
     7
370
    15
100
AcDbLine
 10
110.550797
 20
282.306731
 30
0.0
 11
111.098606
 21
282.021568
 31
0.0
  0
ENDBLK
  5
201
330
1FF
100
AcDbEntity
  8
0
100
AcDbBlockEnd
  0
BLOCK
  5
207
330
206
100
AcDbEntity
  8
0
100
AcDbBlockBegin
  2
KLON4
 70
     0
 71
     0
 10
0.0
 20
0.0
 30
0.0
  3
KLON4
  1

  4
KLON4
  0
LINE
  5
209
330
206
100
AcDbEntity
  8
LC-001-100-D00-0
 62
     7
370
    15
100
AcDbLine
 10
104.598608
 20
283.521563
 30
0.0
 11
104.949702
 21
283.704326
 31
0.0
  0
LINE
  5
20A
330
206
100
AcDbEntity
  8
LC-001-100-D00-0
 62
     7
370
    15
100
AcDbLine
 10
104.949702
 20
283.704326
 30
0.0
 11
105.300797
 21
283.887104
 31
0.0
  0
LINE
  5
20B
330
206
100
AcDbEntity
  8
LC-001-100-D00-0
 62
     7
370
    15
100
AcDbLine
 10
105.300797
 20
283.887104
 30
0.0
 11
105.848607
 21
284.172267
 31
0.0
  0
ENDBLK
  5
208
330
206
100
AcDbEntity
  8
0
100
AcDbBlockEnd
  0
BLOCK
  5
20E
330
20D
100
AcDbEntity
  8
0
100
AcDbBlockBegin
  2
KLON5
 70
     0
 71
     0
 10
0.0
 20
0.0
 30
0.0
  3
KLON5
  1

  4
KLON5
  0
LINE
  5
210
330
20D
100
AcDbEntity
  8
LC-001-100-D00-0
 62
     7
370
    15
100
AcDbLine
 10
109.848607
 20
276.672274
 30
0.0
 11
110.199703
 21
276.489511
 31
0.0
  0
LINE
  5
211
330
20D
100
AcDbEntity
  8
LC-001-100-D00-0
 62
     7
370
    15
100
AcDbLine
 10
110.199703
 20
276.489511
 30
0.0
 11
110.550797
 21
276.306734
 31
0.0
  0
LINE
  5
212
330
20D
100
AcDbEntity
  8
LC-001-100-D00-0
 62
     7
370
    15
100
AcDbLine
 10
110.550797
 20
276.306734
 30
0.0
 11
111.098606
 21
276.02157
 31
0.0
  0
ENDBLK
  5
20F
330
20D
100
AcDbEntity
  8
0
100
AcDbBlockEnd
  0
BLOCK
  5
215
330
214
100
AcDbEntity
  8
0
100
AcDbBlockBegin
  2
KLON6
 70
     0
 71
     0
 10
0.0
 20
0.0
 30
0.0
  3
KLON6
  1

  4
KLON6
  0
LINE
  5
217
330
214
100
AcDbEntity
  8
LC-001-100-D00-0
 62
     7
370
    15
100
AcDbLine
 10
104.598608
 20
277.521566
 30
0.0
 11
104.949702
 21
277.704329
 31
0.0
  0
LINE
  5
218
330
214
100
AcDbEntity
  8
LC-001-100-D00-0
 62
     7
370
    15
100
AcDbLine
 10
104.949702
 20
277.704329
 30
0.0
 11
105.300797
 21
277.887106
 31
0.0
  0
LINE
  5
219
330
214
100
AcDbEntity
  8
LC-001-100-D00-0
 62
     7
370
    15
100
AcDbLine
 10
105.300797
 20
277.887106
 30
0.0
 11
105.848607
 21
278.17227
 31
0.0
  0
ENDBLK
  5
216
330
214
100
AcDbEntity
  8
0
100
AcDbBlockEnd
  0
BLOCK
  5
21C
330
21B
100
AcDbEntity
  8
0
100
AcDbBlockBegin
  2
KLON7
 70
     0
 71
     0
 10
0.0
 20
0.0
 30
0.0
  3
KLON7
  1

  4
KLON7
  0
LINE
  5
21E
330
21B
100
AcDbEntity
  8
LC-001-100-D00-0
 62
     7
370
    15
100
AcDbLine
 10
109.848607
 20
279.67228
 30
0.0
 11
110.199703
 21
279.489503
 31
0.0
  0
LINE
  5
21F
330
21B
100
AcDbEntity
  8
LC-001-100-D00-0
 62
     7
370
    15
100
AcDbLine
 10
110.199703
 20
279.489503
 30
0.0
 11
110.550797
 21
279.30674
 31
0.0
  0
LINE
  5
220
330
21B
100
AcDbEntity
  8
LC-001-100-D00-0
 62
     7
370
    15
100
AcDbLine
 10
110.550797
 20
279.30674
 30
0.0
 11
111.098606
 21
279.021561
 31
0.0
  0
ENDBLK
  5
21D
330
21B
100
AcDbEntity
  8
0
100
AcDbBlockEnd
  0
BLOCK
  5
223
330
222
100
AcDbEntity
  8
0
100
AcDbBlockBegin
  2
KLON8
 70
     0
 71
     0
 10
0.0
 20
0.0
 30
0.0
  3
KLON8
  1

  4
KLON8
  0
LINE
  5
225
330
222
100
AcDbEntity
  8
LC-001-100-D00-0
 62
     7
370
    15
100
AcDbLine
 10
104.598608
 20
280.521557
 30
0.0
 11
104.949702
 21
280.704335
 31
0.0
  0
LINE
  5
226
330
222
100
AcDbEntity
  8
LC-001-100-D00-0
 62
     7
370
    15
100
AcDbLine
 10
104.949702
 20
280.704335
 30
0.0
 11
105.300797
 21
280.887097
 31
0.0
  0
LINE
  5
227
330
222
100
AcDbEntity
  8
LC-001-100-D00-0
 62
     7
370
    15
100
AcDbLine
 10
105.300797
 20
280.887097
 30
0.0
 11
105.848607
 21
281.172276
 31
0.0
  0
ENDBLK
  5
224
330
222
100
AcDbEntity
  8
0
100
AcDbBlockEnd
  0
BLOCK
  5
22A
330
229
100
AcDbEntity
  8
0
100
AcDbBlockBegin
  2
KLON9
 70
     0
 71
     0
 10
0.0
 20
0.0
 30
0.0
  3
KLON9
  1

  4
KLON9
  0
LINE
  5
22C
330
229
100
AcDbEntity
  8
LC-001-100-D00-0
 62
     7
370
    15
100
AcDbLine
 10
109.848607
 20
288.672269
 30
0.0
 11
110.199703
 21
288.489506
 31
0.0
  0
LINE
  5
22D
330
229
100
AcDbEntity
  8
LC-001-100-D00-0
 62
     7
370
    15
100
AcDbLine
 10
110.199703
 20
288.489506
 30
0.0
 11
110.550797
 21
288.306743
 31
0.0
  0
LINE
  5
22E
330
229
100
AcDbEntity
  8
LC-001-100-D00-0
 62
     7
370
    15
100
AcDbLine
 10
110.550797
 20
288.306743
 30
0.0
 11
111.098606
 21
288.021565
 31
0.0
  0
ENDBLK
  5
22B
330
229
100
AcDbEntity
  8
0
100
AcDbBlockEnd
  0
BLOCK
  5
231
330
230
100
AcDbEntity
  8
0
100
AcDbBlockBegin
  2
KLON10
 70
     0
 71
     0
 10
0.0
 20
0.0
 30
0.0
  3
KLON10
  1

  4
KLON10
  0
LINE
  5
233
330
230
100
AcDbEntity
  8
LC-001-100-D00-0
 62
     7
370
    15
100
AcDbLine
 10
104.598608
 20
289.52156
 30
0.0
 11
104.949702
 21
289.704338
 31
0.0
  0
LINE
  5
234
330
230
100
AcDbEntity
  8
LC-001-100-D00-0
 62
     7
370
    15
100
AcDbLine
 10
104.949702
 20
289.704338
 30
0.0
 11
105.300797
 21
289.887101
 31
0.0
  0
LINE
  5
235
330
230
100
AcDbEntity
  8
LC-001-100-D00-0
 62
     7
370
    15
100
AcDbLine
 10
105.300797
 20
289.887101
 30
0.0
 11
105.848607
 21
290.172279
 31
0.0
  0
ENDBLK
  5
232
330
230
100
AcDbEntity
  8
0
100
AcDbBlockEnd
  0
BLOCK
  5
238
330
237
100
AcDbEntity
  8
0
100
AcDbBlockBegin
  2
POLY13
 70
     0
 71
     0
 10
0.0
 20
0.0
 30
0.0
  3
POLY13
  1

  4
POLY13
  0
LINE
  5
23A
330
237
100
AcDbEntity
  8
LC-001-100-D00-0
 62
     7
370
    50
100
AcDbLine
 10
104.598608
 20
289.52156
 30
0.0
 11
104.598608
 21
289.52156
 31
0.0
  0
LINE
  5
23B
330
237
100
AcDbEntity
  8
LC-001-100-D00-0
 62
     7
370
    50
100
AcDbLine
 10
104.598608
 20
289.52156
 30
0.0
 11
104.598612
 21
289.520825
 31
0.0
  0
LINE
  5
23C
330
237
100
AcDbEntity
  8
LC-001-100-D00-0
 62
     7
370
    50
100
AcDbLine
 10
104.598612
 20
289.520825
 30
0.0
 11
104.598612
 21
289.520825
 31
0.0
  0
LINE
  5
23D
330
237
100
AcDbEntity
  8
LC-001-100-D00-0
 62
     7
370
    50
100
AcDbLine
 10
104.598612
 20
289.520825
 30
0.0
 11
104.59891
 21
289.469748
 31
0.0
  0
LINE
  5
23E
330
237
100
AcDbEntity
  8
LC-001-100-D00-0
 62
     7
370
    50
100
AcDbLine
 10
104.59891
 20
289.469748
 30
0.0
 11
104.59891
 21
289.469748
 31
0.0
  0
LINE
  5
23F
330
237
100
AcDbEntity
  8
LC-001-100-D00-0
 62
     7
370
    50
100
AcDbLine
 10
104.59891
 20
289.469748
 30
0.0
 11
104.698797
 21
289.422454
 31
0.0
  0
LINE
  5
240
330
237
100
AcDbEntity
  8
LC-001-100-D00-0
 62
     7
370
    50
100
AcDbLine
 10
104.698797
 20
289.422454
 30
0.0
 11
104.698797
 21
289.422454
 31
0.0
  0
LINE
  5
241
330
237
100
AcDbEntity
  8
LC-001-100-D00-0
 62
     7
370
    50
100
AcDbLine
 10
104.698797
 20
289.422454
 30
0.0
 11
104.797246
 21
289.375842
 31
0.0
  0
ENDBLK
  5
239
330
237
100
AcDbEntity
  8
0
100
AcDbBlockEnd
  0
BLOCK
  5
245
330
244
100
AcDbEntity
  8
0
100
AcDbBlockBegin
  2
KLON11
 70
     0
 71
     0
 10
0.0
 20
0.0
 30
0.0
  3
KLON11
  1

  4
KLON11
  0
LINE
  5
247
330
244
100
AcDbEntity
  8
LC-001-100-D00-0
 62
     7
370
    15
100
AcDbLine
 10
111.098606
 20
288.021565
 30
0.0
 11
110.747512
 21
287.838802
 31
0.0
  0
LINE
  5
248
330
244
100
AcDbEntity
  8
LC-001-100-D00-0
 62
     7
370
    15
100
AcDbLine
 10
110.747512
 20
287.838802
 30
0.0
 11
110.396417
 21
287.656024
 31
0.0
  0
LINE
  5
249
330
244
100
AcDbEntity
  8
LC-001-100-D00-0
 62
     7
370
    15
100
AcDbLine
 10
110.396417
 20
287.656024
 30
0.0
 11
109.848607
 21
287.370861
 31
0.0
  0
ENDBLK
  5
246
330
244
100
AcDbEntity
  8
0
100
AcDbBlockEnd
  0
BLOCK
  5
24C
330
24B
100
AcDbEntity
  8
0
100
AcDbBlockBegin
  2
KLON12
 70
     0
 71
     0
 10
0.0
 20
0.0
 30
0.0
  3
KLON12
  1

  4
KLON12
  0
LINE
  5
24E
330
24B
100
AcDbEntity
  8
LC-001-100-D00-0
 62
     7
370
    15
100
AcDbLine
 10
105.848607
 20
288.870857
 30
0.0
 11
105.497511
 21
289.053619
 31
0.0
  0
LINE
  5
24F
330
24B
100
AcDbEntity
  8
LC-001-100-D00-0
 62
     7
370
    15
100
AcDbLine
 10
105.497511
 20
289.053619
 30
0.0
 11
105.146417
 21
289.236397
 31
0.0
  0
LINE
  5
250
330
24B
100
AcDbEntity
  8
LC-001-100-D00-0
 62
     7
370
    15
100
AcDbLine
 10
105.146417
 20
289.236397
 30
0.0
 11
104.598608
 21
289.52156
 31
0.0
  0
ENDBLK
  5
24D
330
24B
100
AcDbEntity
  8
0
100
AcDbBlockEnd
  0
BLOCK
  5
253
330
252
100
AcDbEntity
  8
0
100
AcDbBlockBegin
  2
KLON13
 70
     0
 71
     0
 10
0.0
 20
0.0
 30
0.0
  3
KLON13
  1

  4
KLON13
  0
LINE
  5
255
330
252
100
AcDbEntity
  8
LC-001-100-D00-0
 62
     7
370
    15
100
AcDbLine
 10
111.098606
 20
285.021559
 30
0.0
 11
110.747512
 21
284.838796
 31
0.0
  0
LINE
  5
256
330
252
100
AcDbEntity
  8
LC-001-100-D00-0
 62
     7
370
    15
100
AcDbLine
 10
110.747512
 20
284.838796
 30
0.0
 11
110.396417
 21
284.656033
 31
0.0
  0
LINE
  5
257
330
252
100
AcDbEntity
  8
LC-001-100-D00-0
 62
     7
370
    15
100
AcDbLine
 10
110.396417
 20
284.656033
 30
0.0
 11
109.848607
 21
284.370855
 31
0.0
  0
ENDBLK
  5
254
330
252
100
AcDbEntity
  8
0
100
AcDbBlockEnd
  0
BLOCK
  5
25A
330
259
100
AcDbEntity
  8
0
100
AcDbBlockBegin
  2
KLON14
 70
     0
 71
     0
 10
0.0
 20
0.0
 30
0.0
  3
KLON14
  1

  4
KLON14
  0
LINE
  5
25C
330
259
100
AcDbEntity
  8
LC-001-100-D00-0
 62
     7
370
    15
100
AcDbLine
 10
105.848607
 20
285.87085
 30
0.0
 11
105.497511
 21
286.053628
 31
0.0
  0
LINE
  5
25D
330
259
100
AcDbEntity
  8
LC-001-100-D00-0
 62
     7
370
    15
100
AcDbLine
 10
105.497511
 20
286.053628
 30
0.0
 11
105.146417
 21
286.236391
 31
0.0
  0
LINE
  5
25E
330
259
100
AcDbEntity
  8
LC-001-100-D00-0
 62
     7
370
    15
100
AcDbLine
 10
105.146417
 20
286.236391
 30
0.0
 11
104.598608
 21
286.521569
 31
0.0
  0
ENDBLK
  5
25B
330
259
100
AcDbEntity
  8
0
100
AcDbBlockEnd
  0
BLOCK
  5
261
330
260
100
AcDbEntity
  8
0
100
AcDbBlockBegin
  2
KLON15
 70
     0
 71
     0
 10
0.0
 20
0.0
 30
0.0
  3
KLON15
  1

  4
KLON15
  0
LINE
  5
263
330
260
100
AcDbEntity
  8
LC-001-100-D00-0
 62
     7
370
    15
100
AcDbLine
 10
111.098606
 20
279.021561
 30
0.0
 11
110.747512
 21
278.838799
 31
0.0
  0
LINE
  5
264
330
260
100
AcDbEntity
  8
LC-001-100-D00-0
 62
     7
370
    15
100
AcDbLine
 10
110.747512
 20
278.838799
 30
0.0
 11
110.396417
 21
278.656021
 31
0.0
  0
LINE
  5
265
330
260
100
AcDbEntity
  8
LC-001-100-D00-0
 62
     7
370
    15
100
AcDbLine
 10
110.396417
 20
278.656021
 30
0.0
 11
109.848607
 21
278.370858
 31
0.0
  0
ENDBLK
  5
262
330
260
100
AcDbEntity
  8
0
100
AcDbBlockEnd
  0
BLOCK
  5
268
330
267
100
AcDbEntity
  8
0
100
AcDbBlockBegin
  2
KLON16
 70
     0
 71
     0
 10
0.0
 20
0.0
 30
0.0
  3
KLON16
  1

  4
KLON16
  0
LINE
  5
26A
330
267
100
AcDbEntity
  8
LC-001-100-D00-0
 62
     7
370
    15
100
AcDbLine
 10
105.848607
 20
279.870853
 30
0.0
 11
105.497511
 21
280.053631
 31
0.0
  0
LINE
  5
26B
330
267
100
AcDbEntity
  8
LC-001-100-D00-0
 62
     7
370
    15
100
AcDbLine
 10
105.497511
 20
280.053631
 30
0.0
 11
105.146417
 21
280.236394
 31
0.0
  0
LINE
  5
26C
330
267
100
AcDbEntity
  8
LC-001-100-D00-0
 62
     7
370
    15
100
AcDbLine
 10
105.146417
 20
280.236394
 30
0.0
 11
104.598608
 21
280.521557
 31
0.0
  0
ENDBLK
  5
269
330
267
100
AcDbEntity
  8
0
100
AcDbBlockEnd
  0
BLOCK
  5
26F
330
26E
100
AcDbEntity
  8
0
100
AcDbBlockBegin
  2
KLON17
 70
     0
 71
     0
 10
0.0
 20
0.0
 30
0.0
  3
KLON17
  1

  4
KLON17
  0
LINE
  5
271
330
26E
100
AcDbEntity
  8
LC-001-100-D00-0
 62
     7
370
    15
100
AcDbLine
 10
111.098606
 20
282.021568
 30
0.0
 11
110.747512
 21
281.83879
 31
0.0
  0
LINE
  5
272
330
26E
100
AcDbEntity
  8
LC-001-100-D00-0
 62
     7
370
    15
100
AcDbLine
 10
110.747512
 20
281.83879
 30
0.0
 11
110.396417
 21
281.656027
 31
0.0
  0
LINE
  5
273
330
26E
100
AcDbEntity
  8
LC-001-100-D00-0
 62
     7
370
    15
100
AcDbLine
 10
110.396417
 20
281.656027
 30
0.0
 11
109.848607
 21
281.370849
 31
0.0
  0
ENDBLK
  5
270
330
26E
100
AcDbEntity
  8
0
100
AcDbBlockEnd
  0
BLOCK
  5
276
330
275
100
AcDbEntity
  8
0
100
AcDbBlockBegin
  2
KLON18
 70
     0
 71
     0
 10
0.0
 20
0.0
 30
0.0
  3
KLON18
  1

  4
KLON18
  0
LINE
  5
278
330
275
100
AcDbEntity
  8
LC-001-100-D00-0
 62
     7
370
    15
100
AcDbLine
 10
105.848607
 20
282.870859
 30
0.0
 11
105.497511
 21
283.053622
 31
0.0
  0
LINE
  5
279
330
275
100
AcDbEntity
  8
LC-001-100-D00-0
 62
     7
370
    15
100
AcDbLine
 10
105.497511
 20
283.053622
 30
0.0
 11
105.146417
 21
283.2364
 31
0.0
  0
LINE
  5
27A
330
275
100
AcDbEntity
  8
LC-001-100-D00-0
 62
     7
370
    15
100
AcDbLine
 10
105.146417
 20
283.2364
 30
0.0
 11
104.598608
 21
283.521563
 31
0.0
  0
ENDBLK
  5
277
330
275
100
AcDbEntity
  8
0
100
AcDbBlockEnd
  0
BLOCK
  5
27D
330
27C
100
AcDbEntity
  8
0
100
AcDbBlockBegin
  2
KLON19
 70
     0
 71
     0
 10
0.0
 20
0.0
 30
0.0
  3
KLON19
  1

  4
KLON19
  0
LINE
  5
27F
330
27C
100
AcDbEntity
  8
LC-001-100-D00-0
 62
     7
370
    15
100
AcDbLine
 10
111.098606
 20
276.02157
 30
0.0
 11
110.747512
 21
275.838793
 31
0.0
  0
LINE
  5
280
330
27C
100
AcDbEntity
  8
LC-001-100-D00-0
 62
     7
370
    15
100
AcDbLine
 10
110.747512
 20
275.838793
 30
0.0
 11
110.396417
 21
275.65603
 31
0.0
  0
LINE
  5
281
330
27C
100
AcDbEntity
  8
LC-001-100-D00-0
 62
     7
370
    15
100
AcDbLine
 10
110.396417
 20
275.65603
 30
0.0
 11
109.848607
 21
275.370851
 31
0.0
  0
ENDBLK
  5
27E
330
27C
100
AcDbEntity
  8
0
100
AcDbBlockEnd
  0
BLOCK
  5
284
330
283
100
AcDbEntity
  8
0
100
AcDbBlockBegin
  2
KLON20
 70
     0
 71
     0
 10
0.0
 20
0.0
 30
0.0
  3
KLON20
  1

  4
KLON20
  0
LINE
  5
286
330
283
100
AcDbEntity
  8
LC-001-100-D00-0
 62
     7
370
    15
100
AcDbLine
 10
105.848607
 20
276.870862
 30
0.0
 11
105.497511
 21
277.053625
 31
0.0
  0
LINE
  5
287
330
283
100
AcDbEntity
  8
LC-001-100-D00-0
 62
     7
370
    15
100
AcDbLine
 10
105.497511
 20
277.053625
 30
0.0
 11
105.146417
 21
277.236387
 31
0.0
  0
LINE
  5
288
330
283
100
AcDbEntity
  8
LC-001-100-D00-0
 62
     7
370
    15
100
AcDbLine
 10
105.146417
 20
277.236387
 30
0.0
 11
104.598608
 21
277.521566
 31
0.0
  0
ENDBLK
  5
285
330
283
100
AcDbEntity
  8
0
100
AcDbBlockEnd
  0
BLOCK
  5
2AC
330
2AB
100
AcDbEntity
  8
0
100
AcDbBlockBegin
  2
POLY14
 70
     0
 71
     0
 10
0.0
 20
0.0
 30
0.0
  3
POLY14
  1

  4
POLY14
  0
LINE
  5
2AE
330
2AB
100
AcDbEntity
  8
LC-001-100-D00-0
 62
     7
370
    50
100
AcDbLine
 10
104.937954
 20
294.176683
 30
0.0
 11
104.937954
 21
294.176683
 31
0.0
  0
LINE
  5
2AF
330
2AB
100
AcDbEntity
  8
LC-001-100-D00-0
 62
     7
370
    50
100
AcDbLine
 10
104.937954
 20
294.176683
 30
0.0
 11
104.914787
 21
294.174693
 31
0.0
  0
LINE
  5
2B0
330
2AB
100
AcDbEntity
  8
LC-001-100-D00-0
 62
     7
370
    50
100
AcDbLine
 10
104.914787
 20
294.174693
 30
0.0
 11
104.914787
 21
294.174693
 31
0.0
  0
LINE
  5
2B1
330
2AB
100
AcDbEntity
  8
LC-001-100-D00-0
 62
     7
370
    50
100
AcDbLine
 10
104.914787
 20
294.174693
 30
0.0
 11
104.883374
 21
294.171995
 31
0.0
  0
LINE
  5
2B2
330
2AB
100
AcDbEntity
  8
LC-001-100-D00-0
 62
     7
370
    50
100
AcDbLine
 10
104.883374
 20
294.171995
 30
0.0
 11
104.883374
 21
294.171995
 31
0.0
  0
LINE
  5
2B3
330
2AB
100
AcDbEntity
  8
LC-001-100-D00-0
 62
     7
370
    50
100
AcDbLine
 10
104.883374
 20
294.171995
 30
0.0
 11
104.854931
 21
294.159067
 31
0.0
  0
LINE
  5
2B4
330
2AB
100
AcDbEntity
  8
LC-001-100-D00-0
 62
     7
370
    50
100
AcDbLine
 10
104.854931
 20
294.159067
 30
0.0
 11
104.854931
 21
294.159067
 31
0.0
  0
LINE
  5
2B5
330
2AB
100
AcDbEntity
  8
LC-001-100-D00-0
 62
     7
370
    50
100
AcDbLine
 10
104.854931
 20
294.159067
 30
0.0
 11
104.847465
 21
294.155673
 31
0.0
  0
ENDBLK
  5
2AD
330
2AB
100
AcDbEntity
  8
0
100
AcDbBlockEnd
  0
BLOCK
  5
2B8
330
2B7
100
AcDbEntity
  8
0
100
AcDbBlockBegin
  2
POLY15
 70
     0
 71
     0
 10
0.0
 20
0.0
 30
0.0
  3
POLY15
  1

  4
POLY15
  0
LINE
  5
2BA
330
2B7
100
AcDbEntity
  8
LC-001-100-D00-0
 62
     7
370
    50
100
AcDbLine
 10
110.849749
 20
294.155673
 30
0.0
 11
110.849749
 21
294.155673
 31
0.0
  0
LINE
  5
2BB
330
2B7
100
AcDbEntity
  8
LC-001-100-D00-0
 62
     7
370
    50
100
AcDbLine
 10
110.849749
 20
294.155673
 30
0.0
 11
110.828075
 21
294.164088
 31
0.0
  0
LINE
  5
2BC
330
2B7
100
AcDbEntity
  8
LC-001-100-D00-0
 62
     7
370
    50
100
AcDbLine
 10
110.828075
 20
294.164088
 30
0.0
 11
110.828075
 21
294.164088
 31
0.0
  0
LINE
  5
2BD
330
2B7
100
AcDbEntity
  8
LC-001-100-D00-0
 62
     7
370
    50
100
AcDbLine
 10
110.828075
 20
294.164088
 30
0.0
 11
110.798685
 21
294.175499
 31
0.0
  0
LINE
  5
2BE
330
2B7
100
AcDbEntity
  8
LC-001-100-D00-0
 62
     7
370
    50
100
AcDbLine
 10
110.798685
 20
294.175499
 30
0.0
 11
110.798685
 21
294.175499
 31
0.0
  0
LINE
  5
2BF
330
2B7
100
AcDbEntity
  8
LC-001-100-D00-0
 62
     7
370
    50
100
AcDbLine
 10
110.798685
 20
294.175499
 30
0.0
 11
110.767458
 21
294.176437
 31
0.0
  0
LINE
  5
2C0
330
2B7
100
AcDbEntity
  8
LC-001-100-D00-0
 62
     7
370
    50
100
AcDbLine
 10
110.767458
 20
294.176437
 30
0.0
 11
110.767458
 21
294.176437
 31
0.0
  0
LINE
  5
2C1
330
2B7
100
AcDbEntity
  8
LC-001-100-D00-0
 62
     7
370
    50
100
AcDbLine
 10
110.767458
 20
294.176437
 30
0.0
 11
110.75926
 21
294.176683
 31
0.0
  0
ENDBLK
  5
2B9
330
2B7
100
AcDbEntity
  8
0
100
AcDbBlockEnd
  0
BLOCK
  5
30C
330
30B
100
AcDbEntity
  8
0
100
AcDbBlockBegin
  2
POLY16
 70
     0
 71
     0
 10
0.0
 20
0.0
 30
0.0
  3
POLY16
  1

  4
POLY16
  0
LINE
  5
30E
330
30B
100
AcDbEntity
  8
LC-001-100-D00-0
 62
     7
370
    50
100
AcDbLine
 10
-29.987747
 20
289.176688
 30
0.0
 11
-29.987747
 21
289.176688
 31
0.0
  0
LINE
  5
30F
330
30B
100
AcDbEntity
  8
LC-001-100-D00-0
 62
     7
370
    50
100
AcDbLine
 10
-29.987747
 20
289.176688
 30
0.0
 11
-29.987105
 21
289.173797
 31
0.0
  0
LINE
  5
310
330
30B
100
AcDbEntity
  8
LC-001-100-D00-0
 62
     7
370
    50
100
AcDbLine
 10
-29.987105
 20
289.173797
 30
0.0
 11
-29.987105
 21
289.173797
 31
0.0
  0
LINE
  5
311
330
30B
100
AcDbEntity
  8
LC-001-100-D00-0
 62
     7
370
    50
100
AcDbLine
 10
-29.987105
 20
289.173797
 30
0.0
 11
-29.968447
 21
289.089709
 31
0.0
  0
LINE
  5
312
330
30B
100
AcDbEntity
  8
LC-001-100-D00-0
 62
     7
370
    50
100
AcDbLine
 10
-29.968447
 20
289.089709
 30
0.0
 11
-29.968447
 21
289.089709
 31
0.0
  0
LINE
  5
313
330
30B
100
AcDbEntity
  8
LC-001-100-D00-0
 62
     7
370
    50
100
AcDbLine
 10
-29.968447
 20
289.089709
 30
0.0
 11
-29.915378
 21
288.897942
 31
0.0
  0
LINE
  5
314
330
30B
100
AcDbEntity
  8
LC-001-100-D00-0
 62
     7
370
    50
100
AcDbLine
 10
-29.915378
 20
288.897942
 30
0.0
 11
-29.915378
 21
288.897942
 31
0.0
  0
LINE
  5
315
330
30B
100
AcDbEntity
  8
LC-001-100-D00-0
 62
     7
370
    50
100
AcDbLine
 10
-29.915378
 20
288.897942
 30
0.0
 11
-29.840292
 21
288.684481
 31
0.0
  0
LINE
  5
316
330
30B
100
AcDbEntity
  8
LC-001-100-D00-0
 62
     7
370
    50
100
AcDbLine
 10
-29.840292
 20
288.684481
 30
0.0
 11
-29.840292
 21
288.684481
 31
0.0
  0
LINE
  5
317
330
30B
100
AcDbEntity
  8
LC-001-100-D00-0
 62
     7
370
    50
100
AcDbLine
 10
-29.840292
 20
288.684481
 30
0.0
 11
-29.782688
 21
288.587069
 31
0.0
  0
LINE
  5
318
330
30B
100
AcDbEntity
  8
LC-001-100-D00-0
 62
     7
370
    50
100
AcDbLine
 10
-29.782688
 20
288.587069
 30
0.0
 11
-29.782688
 21
288.587069
 31
0.0
  0
LINE
  5
319
330
30B
100
AcDbEntity
  8
LC-001-100-D00-0
 62
     7
370
    50
100
AcDbLine
 10
-29.782688
 20
288.587069
 30
0.0
 11
-29.77241
 21
288.569689
 31
0.0
  0
ENDBLK
  5
30D
330
30B
100
AcDbEntity
  8
0
100
AcDbBlockEnd
  0
BLOCK
  5
31C
330
31B
100
AcDbEntity
  8
0
100
AcDbBlockBegin
  2
POLY17
 70
     0
 71
     0
 10
0.0
 20
0.0
 30
0.0
  3
POLY17
  1

  4
POLY17
  0
LINE
  5
31E
330
31B
100
AcDbEntity
  8
LC-001-100-D00-0
 62
     7
370
    50
100
AcDbLine
 10
105.087083
 20
288.176686
 30
0.0
 11
105.087083
 21
288.176686
 31
0.0
  0
LINE
  5
31F
330
31B
100
AcDbEntity
  8
LC-001-100-D00-0
 62
     7
370
    50
100
AcDbLine
 10
105.087083
 20
288.176686
 30
0.0
 11
105.130923
 21
288.187177
 31
0.0
  0
LINE
  5
320
330
31B
100
AcDbEntity
  8
LC-001-100-D00-0
 62
     7
370
    50
100
AcDbLine
 10
105.130923
 20
288.187177
 30
0.0
 11
105.130923
 21
288.187177
 31
0.0
  0
LINE
  5
321
330
31B
100
AcDbEntity
  8
LC-001-100-D00-0
 62
     7
370
    50
100
AcDbLine
 10
105.130923
 20
288.187177
 30
0.0
 11
105.218593
 21
288.208156
 31
0.0
  0
LINE
  5
322
330
31B
100
AcDbEntity
  8
LC-001-100-D00-0
 62
     7
370
    50
100
AcDbLine
 10
105.218593
 20
288.208156
 30
0.0
 11
105.218593
 21
288.208156
 31
0.0
  0
LINE
  5
323
330
31B
100
AcDbEntity
  8
LC-001-100-D00-0
 62
     7
370
    50
100
AcDbLine
 10
105.218593
 20
288.208156
 30
0.0
 11
105.365221
 21
288.372734
 31
0.0
  0
LINE
  5
324
330
31B
100
AcDbEntity
  8
LC-001-100-D00-0
 62
     7
370
    50
100
AcDbLine
 10
105.365221
 20
288.372734
 30
0.0
 11
105.365221
 21
288.372734
 31
0.0
  0
LINE
  5
325
330
31B
100
AcDbEntity
  8
LC-001-100-D00-0
 62
     7
370
    50
100
AcDbLine
 10
105.365221
 20
288.372734
 30
0.0
 11
105.505121
 21
288.611588
 31
0.0
  0
LINE
  5
326
330
31B
100
AcDbEntity
  8
LC-001-100-D00-0
 62
     7
370
    50
100
AcDbLine
 10
105.505121
 20
288.611588
 30
0.0
 11
105.505121
 21
288.611588
 31
0.0
  0
LINE
  5
327
330
31B
100
AcDbEntity
  8
LC-001-100-D00-0
 62
     7
370
    50
100
AcDbLine
 10
105.505121
 20
288.611588
 30
0.0
 11
105.577842
 21
288.815107
 31
0.0
  0
LINE
  5
328
330
31B
100
AcDbEntity
  8
LC-001-100-D00-0
 62
     7
370
    50
100
AcDbLine
 10
105.577842
 20
288.815107
 30
0.0
 11
105.577842
 21
288.815107
 31
0.0
  0
LINE
  5
329
330
31B
100
AcDbEntity
  8
LC-001-100-D00-0
 62
     7
370
    50
100
AcDbLine
 10
105.577842
 20
288.815107
 30
0.0
 11
105.614124
 21
288.916648
 31
0.0
  0
ENDBLK
  5
31D
330
31B
100
AcDbEntity
  8
0
100
AcDbBlockEnd
  0
BLOCK
  5
42B
330
42A
100
AcDbEntity
  8
0
100
AcDbBlockBegin
  2
KLON21
 70
     0
 71
     0
 10
0.0
 20
0.0
 30
0.0
  3
KLON21
  1

  4
KLON21
  0
LINE
  5
42D
330
42A
100
AcDbEntity
  8
LC-001-100-D00-0
 62
     7
370
    15
100
AcDbLine
 10
60.338987
 20
361.300797
 30
0.0
 11
59.992114
 21
362.104968
 31
0.0
  0
LINE
  5
42E
330
42A
100
AcDbEntity
  8
LC-001-100-D00-0
 62
     7
370
    15
100
AcDbLine
 10
59.992114
 20
362.104968
 30
0.0
 11
59.815204
 21
362.468258
 31
0.0
  0
ENDBLK
  5
42C
330
42A
100
AcDbEntity
  8
0
100
AcDbBlockEnd
  0
BLOCK
  5
43A
330
439
100
AcDbEntity
  8
0
100
AcDbBlockBegin
  2
KLON22
 70
     0
 71
     0
 10
0.0
 20
0.0
 30
0.0
  3
KLON22
  1

  4
KLON22
  0
LINE
  5
43C
330
439
100
AcDbEntity
  8
LC-001-100-D00-0
 62
     7
370
    15
100
AcDbLine
 10
15.882013
 20
362.468258
 30
0.0
 11
15.705099
 21
362.104968
 31
0.0
  0
LINE
  5
43D
330
439
100
AcDbEntity
  8
LC-001-100-D00-0
 62
     7
370
    15
100
AcDbLine
 10
15.705099
 20
362.104968
 30
0.0
 11
15.35823
 21
361.300797
 31
0.0
  0
ENDBLK
  5
43B
330
439
100
AcDbEntity
  8
0
100
AcDbBlockEnd
  0
BLOCK
  5
461
330
460
100
AcDbEntity
  8
0
100
AcDbBlockBegin
  2
POLY18
 70
     0
 71
     0
 10
0.0
 20
0.0
 30
0.0
  3
POLY18
  1

  4
POLY18
  0
LINE
  5
463
330
460
100
AcDbEntity
  8
LC-001-100-D00-0
 62
     7
370
    50
100
AcDbLine
 10
-28.91654
 20
278.974519
 30
0.0
 11
-28.91654
 21
278.974519
 31
0.0
  0
LINE
  5
464
330
460
100
AcDbEntity
  8
LC-001-100-D00-0
 62
     7
370
    50
100
AcDbLine
 10
-28.91654
 20
278.974519
 30
0.0
 11
-29.032969
 21
278.912455
 31
0.0
  0
LINE
  5
465
330
460
100
AcDbEntity
  8
LC-001-100-D00-0
 62
     7
370
    50
100
AcDbLine
 10
-29.032969
 20
278.912455
 30
0.0
 11
-29.032969
 21
278.912455
 31
0.0
  0
LINE
  5
466
330
460
100
AcDbEntity
  8
LC-001-100-D00-0
 62
     7
370
    50
100
AcDbLine
 10
-29.032969
 20
278.912455
 30
0.0
 11
-29.265831
 21
278.788327
 31
0.0
  0
LINE
  5
467
330
460
100
AcDbEntity
  8
LC-001-100-D00-0
 62
     7
370
    50
100
AcDbLine
 10
-29.265831
 20
278.788327
 30
0.0
 11
-29.265831
 21
278.788327
 31
0.0
  0
LINE
  5
468
330
460
100
AcDbEntity
  8
LC-001-100-D00-0
 62
     7
370
    50
100
AcDbLine
 10
-29.265831
 20
278.788327
 30
0.0
 11
-29.686353
 21
278.562778
 31
0.0
  0
LINE
  5
469
330
460
100
AcDbEntity
  8
LC-001-100-D00-0
 62
     7
370
    50
100
AcDbLine
 10
-29.686353
 20
278.562778
 30
0.0
 11
-29.686353
 21
278.562778
 31
0.0
  0
LINE
  5
46A
330
460
100
AcDbEntity
  8
LC-001-100-D00-0
 62
     7
370
    50
100
AcDbLine
 10
-29.686353
 20
278.562778
 30
0.0
 11
-29.989358
 21
278.397287
 31
0.0
  0
LINE
  5
46B
330
460
100
AcDbEntity
  8
LC-001-100-D00-0
 62
     7
370
    50
100
AcDbLine
 10
-29.989358
 20
278.397287
 30
0.0
 11
-29.989358
 21
278.397287
 31
0.0
  0
LINE
  5
46C
330
460
100
AcDbEntity
  8
LC-001-100-D00-0
 62
     7
370
    50
100
AcDbLine
 10
-29.989358
 20
278.397287
 30
0.0
 11
-30.176567
 21
278.29504
 31
0.0
  0
ENDBLK
  5
462
330
460
100
AcDbEntity
  8
0
100
AcDbBlockEnd
  0
BLOCK
  5
46F
330
46E
100
AcDbEntity
  8
0
100
AcDbBlockBegin
  2
POLY19
 70
     0
 71
     0
 10
0.0
 20
0.0
 30
0.0
  3
POLY19
  1

  4
POLY19
  0
LINE
  5
471
330
46E
100
AcDbEntity
  8
LC-001-100-D00-0
 62
     7
370
    50
100
AcDbLine
 10
-34.124749
 20
279.950023
 30
0.0
 11
-34.124749
 21
279.950023
 31
0.0
  0
LINE
  5
472
330
46E
100
AcDbEntity
  8
LC-001-100-D00-0
 62
     7
370
    50
100
AcDbLine
 10
-34.124749
 20
279.950023
 30
0.0
 11
-34.243761
 21
280.006986
 31
0.0
  0
LINE
  5
473
330
46E
100
AcDbEntity
  8
LC-001-100-D00-0
 62
     7
370
    50
100
AcDbLine
 10
-34.243761
 20
280.006986
 30
0.0
 11
-34.243761
 21
280.006986
 31
0.0
  0
LINE
  5
474
330
46E
100
AcDbEntity
  8
LC-001-100-D00-0
 62
     7
370
    50
100
AcDbLine
 10
-34.243761
 20
280.006986
 30
0.0
 11
-34.481783
 21
280.120911
 31
0.0
  0
LINE
  5
475
330
46E
100
AcDbEntity
  8
LC-001-100-D00-0
 62
     7
370
    50
100
AcDbLine
 10
-34.481783
 20
280.120911
 30
0.0
 11
-34.481783
 21
280.120911
 31
0.0
  0
LINE
  5
476
330
46E
100
AcDbEntity
  8
LC-001-100-D00-0
 62
     7
370
    50
100
AcDbLine
 10
-34.481783
 20
280.120911
 30
0.0
 11
-34.901707
 21
280.327742
 31
0.0
  0
LINE
  5
477
330
46E
100
AcDbEntity
  8
LC-001-100-D00-0
 62
     7
370
    50
100
AcDbLine
 10
-34.901707
 20
280.327742
 30
0.0
 11
-34.901707
 21
280.327742
 31
0.0
  0
LINE
  5
478
330
46E
100
AcDbEntity
  8
LC-001-100-D00-0
 62
     7
370
    50
100
AcDbLine
 10
-34.901707
 20
280.327742
 30
0.0
 11
-35.202217
 21
280.478373
 31
0.0
  0
LINE
  5
479
330
46E
100
AcDbEntity
  8
LC-001-100-D00-0
 62
     7
370
    50
100
AcDbLine
 10
-35.202217
 20
280.478373
 30
0.0
 11
-35.202217
 21
280.478373
 31
0.0
  0
LINE
  5
47A
330
46E
100
AcDbEntity
  8
LC-001-100-D00-0
 62
     7
370
    50
100
AcDbLine
 10
-35.202217
 20
280.478373
 30
0.0
 11
-35.384776
 21
280.569882
 31
0.0
  0
ENDBLK
  5
470
330
46E
100
AcDbEntity
  8
0
100
AcDbBlockEnd
  0
BLOCK
  5
47E
330
47D
100
AcDbEntity
  8
0
100
AcDbBlockBegin
  2
POLY20
 70
     0
 71
     0
 10
0.0
 20
0.0
 30
0.0
  3
POLY20
  1

  4
POLY20
  0
LINE
  5
480
330
47D
100
AcDbEntity
  8
LC-001-100-D00-0
 62
     7
370
    50
100
AcDbLine
 10
-30.176567
 20
285.59646
 30
0.0
 11
-30.176567
 21
285.59646
 31
0.0
  0
LINE
  5
481
330
47D
100
AcDbEntity
  8
LC-001-100-D00-0
 62
     7
370
    50
100
AcDbLine
 10
-30.176567
 20
285.59646
 30
0.0
 11
-30.057687
 21
285.539223
 31
0.0
  0
LINE
  5
482
330
47D
100
AcDbEntity
  8
LC-001-100-D00-0
 62
     7
370
    50
100
AcDbLine
 10
-30.057687
 20
285.539223
 30
0.0
 11
-30.057687
 21
285.539223
 31
0.0
  0
LINE
  5
483
330
47D
100
AcDbEntity
  8
LC-001-100-D00-0
 62
     7
370
    50
100
AcDbLine
 10
-30.057687
 20
285.539223
 30
0.0
 11
-29.819927
 21
285.424747
 31
0.0
  0
LINE
  5
484
330
47D
100
AcDbEntity
  8
LC-001-100-D00-0
 62
     7
370
    50
100
AcDbLine
 10
-29.819927
 20
285.424747
 30
0.0
 11
-29.819927
 21
285.424747
 31
0.0
  0
LINE
  5
485
330
47D
100
AcDbEntity
  8
LC-001-100-D00-0
 62
     7
370
    50
100
AcDbLine
 10
-29.819927
 20
285.424747
 30
0.0
 11
-29.399985
 21
285.217266
 31
0.0
  0
LINE
  5
486
330
47D
100
AcDbEntity
  8
LC-001-100-D00-0
 62
     7
370
    50
100
AcDbLine
 10
-29.399985
 20
285.217266
 30
0.0
 11
-29.399985
 21
285.217266
 31
0.0
  0
LINE
  5
487
330
47D
100
AcDbEntity
  8
LC-001-100-D00-0
 62
     7
370
    50
100
AcDbLine
 10
-29.399985
 20
285.217266
 30
0.0
 11
-29.099307
 21
285.066288
 31
0.0
  0
LINE
  5
488
330
47D
100
AcDbEntity
  8
LC-001-100-D00-0
 62
     7
370
    50
100
AcDbLine
 10
-29.099307
 20
285.066288
 30
0.0
 11
-29.099307
 21
285.066288
 31
0.0
  0
LINE
  5
489
330
47D
100
AcDbEntity
  8
LC-001-100-D00-0
 62
     7
370
    50
100
AcDbLine
 10
-29.099307
 20
285.066288
 30
0.0
 11
-28.91654
 21
284.974516
 31
0.0
  0
ENDBLK
  5
47F
330
47D
100
AcDbEntity
  8
0
100
AcDbBlockEnd
  0
BLOCK
  5
48D
330
48C
100
AcDbEntity
  8
0
100
AcDbBlockBegin
  2
POLY21
 70
     0
 71
     0
 10
0.0
 20
0.0
 30
0.0
  3
POLY21
  1

  4
POLY21
  0
LINE
  5
48F
330
48C
100
AcDbEntity
  8
LC-001-100-D00-0
 62
     7
370
    50
100
AcDbLine
 10
-35.384776
 20
286.569879
 30
0.0
 11
-35.384776
 21
286.569879
 31
0.0
  0
LINE
  5
490
330
48C
100
AcDbEntity
  8
LC-001-100-D00-0
 62
     7
370
    50
100
AcDbLine
 10
-35.384776
 20
286.569879
 30
0.0
 11
-35.268387
 21
286.632023
 31
0.0
  0
LINE
  5
491
330
48C
100
AcDbEntity
  8
LC-001-100-D00-0
 62
     7
370
    50
100
AcDbLine
 10
-35.268387
 20
286.632023
 30
0.0
 11
-35.268387
 21
286.632023
 31
0.0
  0
LINE
  5
492
330
48C
100
AcDbEntity
  8
LC-001-100-D00-0
 62
     7
370
    50
100
AcDbLine
 10
-35.268387
 20
286.632023
 30
0.0
 11
-35.03561
 21
286.756309
 31
0.0
  0
LINE
  5
493
330
48C
100
AcDbEntity
  8
LC-001-100-D00-0
 62
     7
370
    50
100
AcDbLine
 10
-35.03561
 20
286.756309
 30
0.0
 11
-35.03561
 21
286.756309
 31
0.0
  0
LINE
  5
494
330
48C
100
AcDbEntity
  8
LC-001-100-D00-0
 62
     7
370
    50
100
AcDbLine
 10
-35.03561
 20
286.756309
 30
0.0
 11
-34.614994
 21
286.982385
 31
0.0
  0
LINE
  5
495
330
48C
100
AcDbEntity
  8
LC-001-100-D00-0
 62
     7
370
    50
100
AcDbLine
 10
-34.614994
 20
286.982385
 30
0.0
 11
-34.614994
 21
286.982385
 31
0.0
  0
LINE
  5
496
330
48C
100
AcDbEntity
  8
LC-001-100-D00-0
 62
     7
370
    50
100
AcDbLine
 10
-34.614994
 20
286.982385
 30
0.0
 11
-34.312039
 21
287.148654
 31
0.0
  0
LINE
  5
497
330
48C
100
AcDbEntity
  8
LC-001-100-D00-0
 62
     7
370
    50
100
AcDbLine
 10
-34.312039
 20
287.148654
 30
0.0
 11
-34.312039
 21
287.148654
 31
0.0
  0
LINE
  5
498
330
48C
100
AcDbEntity
  8
LC-001-100-D00-0
 62
     7
370
    50
100
AcDbLine
 10
-34.312039
 20
287.148654
 30
0.0
 11
-34.124749
 21
287.251443
 31
0.0
  0
ENDBLK
  5
48E
330
48C
100
AcDbEntity
  8
0
100
AcDbBlockEnd
  0
BLOCK
  5
49B
330
49A
100
AcDbEntity
  8
0
100
AcDbBlockBegin
  2
POLY22
 70
     0
 71
     0
 10
0.0
 20
0.0
 30
0.0
  3
POLY22
  1

  4
POLY22
  0
LINE
  5
49D
330
49A
100
AcDbEntity
  8
LC-001-100-D00-0
 62
     7
370
    50
100
AcDbLine
 10
-35.384776
 20
286.569879
 30
0.0
 11
-35.384776
 21
286.569879
 31
0.0
  0
LINE
  5
49E
330
49A
100
AcDbEntity
  8
LC-001-100-D00-0
 62
     7
370
    50
100
AcDbLine
 10
-35.384776
 20
286.569879
 30
0.0
 11
-35.394039
 21
286.552894
 31
0.0
  0
LINE
  5
49F
330
49A
100
AcDbEntity
  8
LC-001-100-D00-0
 62
     7
370
    50
100
AcDbLine
 10
-35.394039
 20
286.552894
 30
0.0
 11
-35.394039
 21
286.552894
 31
0.0
  0
LINE
  5
4A0
330
49A
100
AcDbEntity
  8
LC-001-100-D00-0
 62
     7
370
    50
100
AcDbLine
 10
-35.394039
 20
286.552894
 30
0.0
 11
-35.42569
 21
286.494856
 31
0.0
  0
LINE
  5
4A1
330
49A
100
AcDbEntity
  8
LC-001-100-D00-0
 62
     7
370
    50
100
AcDbLine
 10
-35.42569
 20
286.494856
 30
0.0
 11
-35.42569
 21
286.494856
 31
0.0
  0
LINE
  5
4A2
330
49A
100
AcDbEntity
  8
LC-001-100-D00-0
 62
     7
370
    50
100
AcDbLine
 10
-35.42569
 20
286.494856
 30
0.0
 11
-35.31792
 21
286.441938
 31
0.0
  0
LINE
  5
4A3
330
49A
100
AcDbEntity
  8
LC-001-100-D00-0
 62
     7
370
    50
100
AcDbLine
 10
-35.31792
 20
286.441938
 30
0.0
 11
-35.31792
 21
286.441938
 31
0.0
  0
LINE
  5
4A4
330
49A
100
AcDbEntity
  8
LC-001-100-D00-0
 62
     7
370
    50
100
AcDbLine
 10
-35.31792
 20
286.441938
 30
0.0
 11
-35.241688
 21
286.404506
 31
0.0
  0
ENDBLK
  5
49C
330
49A
100
AcDbEntity
  8
0
100
AcDbBlockEnd
  0
BLOCK
  5
4A7
330
4A6
100
AcDbEntity
  8
0
100
AcDbBlockBegin
  2
POLY23
 70
     0
 71
     0
 10
0.0
 20
0.0
 30
0.0
  3
POLY23
  1

  4
POLY23
  0
LINE
  5
4A9
330
4A6
100
AcDbEntity
  8
LC-001-100-D00-0
 62
     7
370
    50
100
AcDbLine
 10
-29.081823
 20
285.162494
 30
0.0
 11
-29.081823
 21
285.162494
 31
0.0
  0
LINE
  5
4AA
330
4A6
100
AcDbEntity
  8
LC-001-100-D00-0
 62
     7
370
    50
100
AcDbLine
 10
-29.081823
 20
285.162494
 30
0.0
 11
-28.992664
 21
285.113968
 31
0.0
  0
LINE
  5
4AB
330
4A6
100
AcDbEntity
  8
LC-001-100-D00-0
 62
     7
370
    50
100
AcDbLine
 10
-28.992664
 20
285.113968
 30
0.0
 11
-28.992664
 21
285.113968
 31
0.0
  0
LINE
  5
4AC
330
4A6
100
AcDbEntity
  8
LC-001-100-D00-0
 62
     7
370
    50
100
AcDbLine
 10
-28.992664
 20
285.113968
 30
0.0
 11
-28.87423
 21
285.049509
 31
0.0
  0
LINE
  5
4AD
330
4A6
100
AcDbEntity
  8
LC-001-100-D00-0
 62
     7
370
    50
100
AcDbLine
 10
-28.87423
 20
285.049509
 30
0.0
 11
-28.87423
 21
285.049509
 31
0.0
  0
LINE
  5
4AE
330
4A6
100
AcDbEntity
  8
LC-001-100-D00-0
 62
     7
370
    50
100
AcDbLine
 10
-28.87423
 20
285.049509
 30
0.0
 11
-28.908154
 21
284.989378
 31
0.0
  0
LINE
  5
4AF
330
4A6
100
AcDbEntity
  8
LC-001-100-D00-0
 62
     7
370
    50
100
AcDbLine
 10
-28.908154
 20
284.989378
 30
0.0
 11
-28.908154
 21
284.989378
 31
0.0
  0
LINE
  5
4B0
330
4A6
100
AcDbEntity
  8
LC-001-100-D00-0
 62
     7
370
    50
100
AcDbLine
 10
-28.908154
 20
284.989378
 30
0.0
 11
-28.91654
 21
284.974516
 31
0.0
  0
ENDBLK
  5
4A8
330
4A6
100
AcDbEntity
  8
0
100
AcDbBlockEnd
  0
BLOCK
  5
4B3
330
4B2
100
AcDbEntity
  8
0
100
AcDbBlockBegin
  2
POLY24
 70
     0
 71
     0
 10
0.0
 20
0.0
 30
0.0
  3
POLY24
  1

  4
POLY24
  0
LINE
  5
4B5
330
4B2
100
AcDbEntity
  8
LC-001-100-D00-0
 62
     7
370
    50
100
AcDbLine
 10
-30.176567
 20
276.596457
 30
0.0
 11
-30.176567
 21
276.596457
 31
0.0
  0
LINE
  5
4B6
330
4B2
100
AcDbEntity
  8
LC-001-100-D00-0
 62
     7
370
    50
100
AcDbLine
 10
-30.176567
 20
276.596457
 30
0.0
 11
-30.057687
 21
276.539219
 31
0.0
  0
LINE
  5
4B7
330
4B2
100
AcDbEntity
  8
LC-001-100-D00-0
 62
     7
370
    50
100
AcDbLine
 10
-30.057687
 20
276.539219
 30
0.0
 11
-30.057687
 21
276.539219
 31
0.0
  0
LINE
  5
4B8
330
4B2
100
AcDbEntity
  8
LC-001-100-D00-0
 62
     7
370
    50
100
AcDbLine
 10
-30.057687
 20
276.539219
 30
0.0
 11
-29.819927
 21
276.424744
 31
0.0
  0
LINE
  5
4B9
330
4B2
100
AcDbEntity
  8
LC-001-100-D00-0
 62
     7
370
    50
100
AcDbLine
 10
-29.819927
 20
276.424744
 30
0.0
 11
-29.819927
 21
276.424744
 31
0.0
  0
LINE
  5
4BA
330
4B2
100
AcDbEntity
  8
LC-001-100-D00-0
 62
     7
370
    50
100
AcDbLine
 10
-29.819927
 20
276.424744
 30
0.0
 11
-29.399985
 21
276.217262
 31
0.0
  0
LINE
  5
4BB
330
4B2
100
AcDbEntity
  8
LC-001-100-D00-0
 62
     7
370
    50
100
AcDbLine
 10
-29.399985
 20
276.217262
 30
0.0
 11
-29.399985
 21
276.217262
 31
0.0
  0
LINE
  5
4BC
330
4B2
100
AcDbEntity
  8
LC-001-100-D00-0
 62
     7
370
    50
100
AcDbLine
 10
-29.399985
 20
276.217262
 30
0.0
 11
-29.099307
 21
276.066284
 31
0.0
  0
LINE
  5
4BD
330
4B2
100
AcDbEntity
  8
LC-001-100-D00-0
 62
     7
370
    50
100
AcDbLine
 10
-29.099307
 20
276.066284
 30
0.0
 11
-29.099307
 21
276.066284
 31
0.0
  0
LINE
  5
4BE
330
4B2
100
AcDbEntity
  8
LC-001-100-D00-0
 62
     7
370
    50
100
AcDbLine
 10
-29.099307
 20
276.066284
 30
0.0
 11
-28.91654
 21
275.974512
 31
0.0
  0
ENDBLK
  5
4B4
330
4B2
100
AcDbEntity
  8
0
100
AcDbBlockEnd
  0
BLOCK
  5
4C2
330
4C1
100
AcDbEntity
  8
0
100
AcDbBlockBegin
  2
POLY25
 70
     0
 71
     0
 10
0.0
 20
0.0
 30
0.0
  3
POLY25
  1

  4
POLY25
  0
LINE
  5
4C4
330
4C1
100
AcDbEntity
  8
LC-001-100-D00-0
 62
     7
370
    50
100
AcDbLine
 10
-35.384776
 20
277.569875
 30
0.0
 11
-35.384776
 21
277.569875
 31
0.0
  0
LINE
  5
4C5
330
4C1
100
AcDbEntity
  8
LC-001-100-D00-0
 62
     7
370
    50
100
AcDbLine
 10
-35.384776
 20
277.569875
 30
0.0
 11
-35.268387
 21
277.632019
 31
0.0
  0
LINE
  5
4C6
330
4C1
100
AcDbEntity
  8
LC-001-100-D00-0
 62
     7
370
    50
100
AcDbLine
 10
-35.268387
 20
277.632019
 30
0.0
 11
-35.268387
 21
277.632019
 31
0.0
  0
LINE
  5
4C7
330
4C1
100
AcDbEntity
  8
LC-001-100-D00-0
 62
     7
370
    50
100
AcDbLine
 10
-35.268387
 20
277.632019
 30
0.0
 11
-35.03561
 21
277.756306
 31
0.0
  0
LINE
  5
4C8
330
4C1
100
AcDbEntity
  8
LC-001-100-D00-0
 62
     7
370
    50
100
AcDbLine
 10
-35.03561
 20
277.756306
 30
0.0
 11
-35.03561
 21
277.756306
 31
0.0
  0
LINE
  5
4C9
330
4C1
100
AcDbEntity
  8
LC-001-100-D00-0
 62
     7
370
    50
100
AcDbLine
 10
-35.03561
 20
277.756306
 30
0.0
 11
-34.614994
 21
277.982382
 31
0.0
  0
LINE
  5
4CA
330
4C1
100
AcDbEntity
  8
LC-001-100-D00-0
 62
     7
370
    50
100
AcDbLine
 10
-34.614994
 20
277.982382
 30
0.0
 11
-34.614994
 21
277.982382
 31
0.0
  0
LINE
  5
4CB
330
4C1
100
AcDbEntity
  8
LC-001-100-D00-0
 62
     7
370
    50
100
AcDbLine
 10
-34.614994
 20
277.982382
 30
0.0
 11
-34.312039
 21
278.148651
 31
0.0
  0
LINE
  5
4CC
330
4C1
100
AcDbEntity
  8
LC-001-100-D00-0
 62
     7
370
    50
100
AcDbLine
 10
-34.312039
 20
278.148651
 30
0.0
 11
-34.312039
 21
278.148651
 31
0.0
  0
LINE
  5
4CD
330
4C1
100
AcDbEntity
  8
LC-001-100-D00-0
 62
     7
370
    50
100
AcDbLine
 10
-34.312039
 20
278.148651
 30
0.0
 11
-34.124749
 21
278.25144
 31
0.0
  0
ENDBLK
  5
4C3
330
4C1
100
AcDbEntity
  8
0
100
AcDbBlockEnd
  0
BLOCK
  5
4D0
330
4CF
100
AcDbEntity
  8
0
100
AcDbBlockBegin
  2
POLY26
 70
     0
 71
     0
 10
0.0
 20
0.0
 30
0.0
  3
POLY26
  1

  4
POLY26
  0
LINE
  5
4D2
330
4CF
100
AcDbEntity
  8
LC-001-100-D00-0
 62
     7
370
    50
100
AcDbLine
 10
-28.91654
 20
284.974516
 30
0.0
 11
-28.91654
 21
284.974516
 31
0.0
  0
LINE
  5
4D3
330
4CF
100
AcDbEntity
  8
LC-001-100-D00-0
 62
     7
370
    50
100
AcDbLine
 10
-28.91654
 20
284.974516
 30
0.0
 11
-29.032969
 21
284.912453
 31
0.0
  0
LINE
  5
4D4
330
4CF
100
AcDbEntity
  8
LC-001-100-D00-0
 62
     7
370
    50
100
AcDbLine
 10
-29.032969
 20
284.912453
 30
0.0
 11
-29.032969
 21
284.912453
 31
0.0
  0
LINE
  5
4D5
330
4CF
100
AcDbEntity
  8
LC-001-100-D00-0
 62
     7
370
    50
100
AcDbLine
 10
-29.032969
 20
284.912453
 30
0.0
 11
-29.265831
 21
284.788325
 31
0.0
  0
LINE
  5
4D6
330
4CF
100
AcDbEntity
  8
LC-001-100-D00-0
 62
     7
370
    50
100
AcDbLine
 10
-29.265831
 20
284.788325
 30
0.0
 11
-29.265831
 21
284.788325
 31
0.0
  0
LINE
  5
4D7
330
4CF
100
AcDbEntity
  8
LC-001-100-D00-0
 62
     7
370
    50
100
AcDbLine
 10
-29.265831
 20
284.788325
 30
0.0
 11
-29.686353
 21
284.562776
 31
0.0
  0
LINE
  5
4D8
330
4CF
100
AcDbEntity
  8
LC-001-100-D00-0
 62
     7
370
    50
100
AcDbLine
 10
-29.686353
 20
284.562776
 30
0.0
 11
-29.686353
 21
284.562776
 31
0.0
  0
LINE
  5
4D9
330
4CF
100
AcDbEntity
  8
LC-001-100-D00-0
 62
     7
370
    50
100
AcDbLine
 10
-29.686353
 20
284.562776
 30
0.0
 11
-29.989358
 21
284.397285
 31
0.0
  0
LINE
  5
4DA
330
4CF
100
AcDbEntity
  8
LC-001-100-D00-0
 62
     7
370
    50
100
AcDbLine
 10
-29.989358
 20
284.397285
 30
0.0
 11
-29.989358
 21
284.397285
 31
0.0
  0
LINE
  5
4DB
330
4CF
100
AcDbEntity
  8
LC-001-100-D00-0
 62
     7
370
    50
100
AcDbLine
 10
-29.989358
 20
284.397285
 30
0.0
 11
-30.176567
 21
284.295038
 31
0.0
  0
ENDBLK
  5
4D1
330
4CF
100
AcDbEntity
  8
0
100
AcDbBlockEnd
  0
BLOCK
  5
4DE
330
4DD
100
AcDbEntity
  8
0
100
AcDbBlockBegin
  2
POLY27
 70
     0
 71
     0
 10
0.0
 20
0.0
 30
0.0
  3
POLY27
  1

  4
POLY27
  0
LINE
  5
4E0
330
4DD
100
AcDbEntity
  8
LC-001-100-D00-0
 62
     7
370
    50
100
AcDbLine
 10
-34.124749
 20
285.95002
 30
0.0
 11
-34.124749
 21
285.95002
 31
0.0
  0
LINE
  5
4E1
330
4DD
100
AcDbEntity
  8
LC-001-100-D00-0
 62
     7
370
    50
100
AcDbLine
 10
-34.124749
 20
285.95002
 30
0.0
 11
-34.243761
 21
286.006982
 31
0.0
  0
LINE
  5
4E2
330
4DD
100
AcDbEntity
  8
LC-001-100-D00-0
 62
     7
370
    50
100
AcDbLine
 10
-34.243761
 20
286.006982
 30
0.0
 11
-34.243761
 21
286.006982
 31
0.0
  0
LINE
  5
4E3
330
4DD
100
AcDbEntity
  8
LC-001-100-D00-0
 62
     7
370
    50
100
AcDbLine
 10
-34.243761
 20
286.006982
 30
0.0
 11
-34.481787
 21
286.120905
 31
0.0
  0
LINE
  5
4E4
330
4DD
100
AcDbEntity
  8
LC-001-100-D00-0
 62
     7
370
    50
100
AcDbLine
 10
-34.481787
 20
286.120905
 30
0.0
 11
-34.481787
 21
286.120905
 31
0.0
  0
LINE
  5
4E5
330
4DD
100
AcDbEntity
  8
LC-001-100-D00-0
 62
     7
370
    50
100
AcDbLine
 10
-34.481787
 20
286.120905
 30
0.0
 11
-34.901699
 21
286.327761
 31
0.0
  0
LINE
  5
4E6
330
4DD
100
AcDbEntity
  8
LC-001-100-D00-0
 62
     7
370
    50
100
AcDbLine
 10
-34.901699
 20
286.327761
 30
0.0
 11
-34.901699
 21
286.327761
 31
0.0
  0
LINE
  5
4E7
330
4DD
100
AcDbEntity
  8
LC-001-100-D00-0
 62
     7
370
    50
100
AcDbLine
 10
-34.901699
 20
286.327761
 30
0.0
 11
-35.202215
 21
286.478379
 31
0.0
  0
LINE
  5
4E8
330
4DD
100
AcDbEntity
  8
LC-001-100-D00-0
 62
     7
370
    50
100
AcDbLine
 10
-35.202215
 20
286.478379
 30
0.0
 11
-35.202215
 21
286.478379
 31
0.0
  0
LINE
  5
4E9
330
4DD
100
AcDbEntity
  8
LC-001-100-D00-0
 62
     7
370
    50
100
AcDbLine
 10
-35.202215
 20
286.478379
 30
0.0
 11
-35.384776
 21
286.569879
 31
0.0
  0
ENDBLK
  5
4DF
330
4DD
100
AcDbEntity
  8
0
100
AcDbBlockEnd
  0
BLOCK
  5
4ED
330
4EC
100
AcDbEntity
  8
0
100
AcDbBlockBegin
  2
POLY28
 70
     0
 71
     0
 10
0.0
 20
0.0
 30
0.0
  3
POLY28
  1

  4
POLY28
  0
LINE
  5
4EF
330
4EC
100
AcDbEntity
  8
LC-001-100-D00-0
 62
     7
370
    50
100
AcDbLine
 10
-28.91654
 20
281.97451
 30
0.0
 11
-28.91654
 21
281.97451
 31
0.0
  0
LINE
  5
4F0
330
4EC
100
AcDbEntity
  8
LC-001-100-D00-0
 62
     7
370
    50
100
AcDbLine
 10
-28.91654
 20
281.97451
 30
0.0
 11
-29.032968
 21
281.912445
 31
0.0
  0
LINE
  5
4F1
330
4EC
100
AcDbEntity
  8
LC-001-100-D00-0
 62
     7
370
    50
100
AcDbLine
 10
-29.032968
 20
281.912445
 30
0.0
 11
-29.032968
 21
281.912445
 31
0.0
  0
LINE
  5
4F2
330
4EC
100
AcDbEntity
  8
LC-001-100-D00-0
 62
     7
370
    50
100
AcDbLine
 10
-29.032968
 20
281.912445
 30
0.0
 11
-29.265827
 21
281.788316
 31
0.0
  0
LINE
  5
4F3
330
4EC
100
AcDbEntity
  8
LC-001-100-D00-0
 62
     7
370
    50
100
AcDbLine
 10
-29.265827
 20
281.788316
 30
0.0
 11
-29.265827
 21
281.788316
 31
0.0
  0
LINE
  5
4F4
330
4EC
100
AcDbEntity
  8
LC-001-100-D00-0
 62
     7
370
    50
100
AcDbLine
 10
-29.265827
 20
281.788316
 30
0.0
 11
-29.686359
 21
281.56279
 31
0.0
  0
LINE
  5
4F5
330
4EC
100
AcDbEntity
  8
LC-001-100-D00-0
 62
     7
370
    50
100
AcDbLine
 10
-29.686359
 20
281.56279
 30
0.0
 11
-29.686359
 21
281.56279
 31
0.0
  0
LINE
  5
4F6
330
4EC
100
AcDbEntity
  8
LC-001-100-D00-0
 62
     7
370
    50
100
AcDbLine
 10
-29.686359
 20
281.56279
 30
0.0
 11
-29.98936
 21
281.397296
 31
0.0
  0
LINE
  5
4F7
330
4EC
100
AcDbEntity
  8
LC-001-100-D00-0
 62
     7
370
    50
100
AcDbLine
 10
-29.98936
 20
281.397296
 30
0.0
 11
-29.98936
 21
281.397296
 31
0.0
  0
LINE
  5
4F8
330
4EC
100
AcDbEntity
  8
LC-001-100-D00-0
 62
     7
370
    50
100
AcDbLine
 10
-29.98936
 20
281.397296
 30
0.0
 11
-30.176567
 21
281.295047
 31
0.0
  0
ENDBLK
  5
4EE
330
4EC
100
AcDbEntity
  8
0
100
AcDbBlockEnd
  0
BLOCK
  5
4FB
330
4FA
100
AcDbEntity
  8
0
100
AcDbBlockBegin
  2
POLY29
 70
     0
 71
     0
 10
0.0
 20
0.0
 30
0.0
  3
POLY29
  1

  4
POLY29
  0
LINE
  5
4FD
330
4FA
100
AcDbEntity
  8
LC-001-100-D00-0
 62
     7
370
    50
100
AcDbLine
 10
-34.124749
 20
282.950014
 30
0.0
 11
-34.124749
 21
282.950014
 31
0.0
  0
LINE
  5
4FE
330
4FA
100
AcDbEntity
  8
LC-001-100-D00-0
 62
     7
370
    50
100
AcDbLine
 10
-34.124749
 20
282.950014
 30
0.0
 11
-34.24376
 21
283.006983
 31
0.0
  0
LINE
  5
4FF
330
4FA
100
AcDbEntity
  8
LC-001-100-D00-0
 62
     7
370
    50
100
AcDbLine
 10
-34.24376
 20
283.006983
 30
0.0
 11
-34.24376
 21
283.006983
 31
0.0
  0
LINE
  5
500
330
4FA
100
AcDbEntity
  8
LC-001-100-D00-0
 62
     7
370
    50
100
AcDbLine
 10
-34.24376
 20
283.006983
 30
0.0
 11
-34.481779
 21
283.12092
 31
0.0
  0
LINE
  5
501
330
4FA
100
AcDbEntity
  8
LC-001-100-D00-0
 62
     7
370
    50
100
AcDbLine
 10
-34.481779
 20
283.12092
 30
0.0
 11
-34.481779
 21
283.12092
 31
0.0
  0
LINE
  5
502
330
4FA
100
AcDbEntity
  8
LC-001-100-D00-0
 62
     7
370
    50
100
AcDbLine
 10
-34.481779
 20
283.12092
 30
0.0
 11
-34.901707
 21
283.327747
 31
0.0
  0
LINE
  5
503
330
4FA
100
AcDbEntity
  8
LC-001-100-D00-0
 62
     7
370
    50
100
AcDbLine
 10
-34.901707
 20
283.327747
 30
0.0
 11
-34.901707
 21
283.327747
 31
0.0
  0
LINE
  5
504
330
4FA
100
AcDbEntity
  8
LC-001-100-D00-0
 62
     7
370
    50
100
AcDbLine
 10
-34.901707
 20
283.327747
 30
0.0
 11
-35.202217
 21
283.478379
 31
0.0
  0
LINE
  5
505
330
4FA
100
AcDbEntity
  8
LC-001-100-D00-0
 62
     7
370
    50
100
AcDbLine
 10
-35.202217
 20
283.478379
 30
0.0
 11
-35.202217
 21
283.478379
 31
0.0
  0
LINE
  5
506
330
4FA
100
AcDbEntity
  8
LC-001-100-D00-0
 62
     7
370
    50
100
AcDbLine
 10
-35.202217
 20
283.478379
 30
0.0
 11
-35.384776
 21
283.569888
 31
0.0
  0
ENDBLK
  5
4FC
330
4FA
100
AcDbEntity
  8
0
100
AcDbBlockEnd
  0
BLOCK
  5
50A
330
509
100
AcDbEntity
  8
0
100
AcDbBlockBegin
  2
POLY30
 70
     0
 71
     0
 10
0.0
 20
0.0
 30
0.0
  3
POLY30
  1

  4
POLY30
  0
LINE
  5
50C
330
509
100
AcDbEntity
  8
LC-001-100-D00-0
 62
     7
370
    50
100
AcDbLine
 10
-30.176567
 20
282.596469
 30
0.0
 11
-30.176567
 21
282.596469
 31
0.0
  0
LINE
  5
50D
330
509
100
AcDbEntity
  8
LC-001-100-D00-0
 62
     7
370
    50
100
AcDbLine
 10
-30.176567
 20
282.596469
 30
0.0
 11
-30.057687
 21
282.539225
 31
0.0
  0
LINE
  5
50E
330
509
100
AcDbEntity
  8
LC-001-100-D00-0
 62
     7
370
    50
100
AcDbLine
 10
-30.057687
 20
282.539225
 30
0.0
 11
-30.057687
 21
282.539225
 31
0.0
  0
LINE
  5
50F
330
509
100
AcDbEntity
  8
LC-001-100-D00-0
 62
     7
370
    50
100
AcDbLine
 10
-30.057687
 20
282.539225
 30
0.0
 11
-29.819931
 21
282.424739
 31
0.0
  0
LINE
  5
510
330
509
100
AcDbEntity
  8
LC-001-100-D00-0
 62
     7
370
    50
100
AcDbLine
 10
-29.819931
 20
282.424739
 30
0.0
 11
-29.819931
 21
282.424739
 31
0.0
  0
LINE
  5
511
330
509
100
AcDbEntity
  8
LC-001-100-D00-0
 62
     7
370
    50
100
AcDbLine
 10
-29.819931
 20
282.424739
 30
0.0
 11
-29.399984
 21
282.217261
 31
0.0
  0
LINE
  5
512
330
509
100
AcDbEntity
  8
LC-001-100-D00-0
 62
     7
370
    50
100
AcDbLine
 10
-29.399984
 20
282.217261
 30
0.0
 11
-29.399984
 21
282.217261
 31
0.0
  0
LINE
  5
513
330
509
100
AcDbEntity
  8
LC-001-100-D00-0
 62
     7
370
    50
100
AcDbLine
 10
-29.399984
 20
282.217261
 30
0.0
 11
-29.099307
 21
282.066282
 31
0.0
  0
LINE
  5
514
330
509
100
AcDbEntity
  8
LC-001-100-D00-0
 62
     7
370
    50
100
AcDbLine
 10
-29.099307
 20
282.066282
 30
0.0
 11
-29.099307
 21
282.066282
 31
0.0
  0
LINE
  5
515
330
509
100
AcDbEntity
  8
LC-001-100-D00-0
 62
     7
370
    50
100
AcDbLine
 10
-29.099307
 20
282.066282
 30
0.0
 11
-28.91654
 21
281.97451
 31
0.0
  0
ENDBLK
  5
50B
330
509
100
AcDbEntity
  8
0
100
AcDbBlockEnd
  0
BLOCK
  5
519
330
518
100
AcDbEntity
  8
0
100
AcDbBlockBegin
  2
POLY31
 70
     0
 71
     0
 10
0.0
 20
0.0
 30
0.0
  3
POLY31
  1

  4
POLY31
  0
LINE
  5
51B
330
518
100
AcDbEntity
  8
LC-001-100-D00-0
 62
     7
370
    50
100
AcDbLine
 10
-35.384776
 20
283.569888
 30
0.0
 11
-35.384776
 21
283.569888
 31
0.0
  0
LINE
  5
51C
330
518
100
AcDbEntity
  8
LC-001-100-D00-0
 62
     7
370
    50
100
AcDbLine
 10
-35.384776
 20
283.569888
 30
0.0
 11
-35.268386
 21
283.632024
 31
0.0
  0
LINE
  5
51D
330
518
100
AcDbEntity
  8
LC-001-100-D00-0
 62
     7
370
    50
100
AcDbLine
 10
-35.268386
 20
283.632024
 30
0.0
 11
-35.268386
 21
283.632024
 31
0.0
  0
LINE
  5
51E
330
518
100
AcDbEntity
  8
LC-001-100-D00-0
 62
     7
370
    50
100
AcDbLine
 10
-35.268386
 20
283.632024
 30
0.0
 11
-35.035602
 21
283.756298
 31
0.0
  0
LINE
  5
51F
330
518
100
AcDbEntity
  8
LC-001-100-D00-0
 62
     7
370
    50
100
AcDbLine
 10
-35.035602
 20
283.756298
 30
0.0
 11
-35.035602
 21
283.756298
 31
0.0
  0
LINE
  5
520
330
518
100
AcDbEntity
  8
LC-001-100-D00-0
 62
     7
370
    50
100
AcDbLine
 10
-35.035602
 20
283.756298
 30
0.0
 11
-34.615003
 21
283.982402
 31
0.0
  0
LINE
  5
521
330
518
100
AcDbEntity
  8
LC-001-100-D00-0
 62
     7
370
    50
100
AcDbLine
 10
-34.615003
 20
283.982402
 30
0.0
 11
-34.615003
 21
283.982402
 31
0.0
  0
LINE
  5
522
330
518
100
AcDbEntity
  8
LC-001-100-D00-0
 62
     7
370
    50
100
AcDbLine
 10
-34.615003
 20
283.982402
 30
0.0
 11
-34.312041
 21
284.148657
 31
0.0
  0
LINE
  5
523
330
518
100
AcDbEntity
  8
LC-001-100-D00-0
 62
     7
370
    50
100
AcDbLine
 10
-34.312041
 20
284.148657
 30
0.0
 11
-34.312041
 21
284.148657
 31
0.0
  0
LINE
  5
524
330
518
100
AcDbEntity
  8
LC-001-100-D00-0
 62
     7
370
    50
100
AcDbLine
 10
-34.312041
 20
284.148657
 30
0.0
 11
-34.124749
 21
284.251437
 31
0.0
  0
ENDBLK
  5
51A
330
518
100
AcDbEntity
  8
0
100
AcDbBlockEnd
  0
BLOCK
  5
527
330
526
100
AcDbEntity
  8
0
100
AcDbBlockBegin
  2
POLY32
 70
     0
 71
     0
 10
0.0
 20
0.0
 30
0.0
  3
POLY32
  1

  4
POLY32
  0
LINE
  5
529
330
526
100
AcDbEntity
  8
LC-001-100-D00-0
 62
     7
370
    50
100
AcDbLine
 10
-28.91654
 20
275.974512
 30
0.0
 11
-28.91654
 21
275.974512
 31
0.0
  0
LINE
  5
52A
330
526
100
AcDbEntity
  8
LC-001-100-D00-0
 62
     7
370
    50
100
AcDbLine
 10
-28.91654
 20
275.974512
 30
0.0
 11
-29.032968
 21
275.912448
 31
0.0
  0
LINE
  5
52B
330
526
100
AcDbEntity
  8
LC-001-100-D00-0
 62
     7
370
    50
100
AcDbLine
 10
-29.032968
 20
275.912448
 30
0.0
 11
-29.032968
 21
275.912448
 31
0.0
  0
LINE
  5
52C
330
526
100
AcDbEntity
  8
LC-001-100-D00-0
 62
     7
370
    50
100
AcDbLine
 10
-29.032968
 20
275.912448
 30
0.0
 11
-29.265827
 21
275.788319
 31
0.0
  0
LINE
  5
52D
330
526
100
AcDbEntity
  8
LC-001-100-D00-0
 62
     7
370
    50
100
AcDbLine
 10
-29.265827
 20
275.788319
 30
0.0
 11
-29.265827
 21
275.788319
 31
0.0
  0
LINE
  5
52E
330
526
100
AcDbEntity
  8
LC-001-100-D00-0
 62
     7
370
    50
100
AcDbLine
 10
-29.265827
 20
275.788319
 30
0.0
 11
-29.686359
 21
275.562793
 31
0.0
  0
LINE
  5
52F
330
526
100
AcDbEntity
  8
LC-001-100-D00-0
 62
     7
370
    50
100
AcDbLine
 10
-29.686359
 20
275.562793
 30
0.0
 11
-29.686359
 21
275.562793
 31
0.0
  0
LINE
  5
530
330
526
100
AcDbEntity
  8
LC-001-100-D00-0
 62
     7
370
    50
100
AcDbLine
 10
-29.686359
 20
275.562793
 30
0.0
 11
-29.98936
 21
275.397299
 31
0.0
  0
LINE
  5
531
330
526
100
AcDbEntity
  8
LC-001-100-D00-0
 62
     7
370
    50
100
AcDbLine
 10
-29.98936
 20
275.397299
 30
0.0
 11
-29.98936
 21
275.397299
 31
0.0
  0
LINE
  5
532
330
526
100
AcDbEntity
  8
LC-001-100-D00-0
 62
     7
370
    50
100
AcDbLine
 10
-29.98936
 20
275.397299
 30
0.0
 11
-30.176567
 21
275.295049
 31
0.0
  0
ENDBLK
  5
528
330
526
100
AcDbEntity
  8
0
100
AcDbBlockEnd
  0
BLOCK
  5
535
330
534
100
AcDbEntity
  8
0
100
AcDbBlockBegin
  2
POLY33
 70
     0
 71
     0
 10
0.0
 20
0.0
 30
0.0
  3
POLY33
  1

  4
POLY33
  0
LINE
  5
537
330
534
100
AcDbEntity
  8
LC-001-100-D00-0
 62
     7
370
    50
100
AcDbLine
 10
-34.124749
 20
276.950017
 30
0.0
 11
-34.124749
 21
276.950017
 31
0.0
  0
LINE
  5
538
330
534
100
AcDbEntity
  8
LC-001-100-D00-0
 62
     7
370
    50
100
AcDbLine
 10
-34.124749
 20
276.950017
 30
0.0
 11
-34.24376
 21
277.006986
 31
0.0
  0
LINE
  5
539
330
534
100
AcDbEntity
  8
LC-001-100-D00-0
 62
     7
370
    50
100
AcDbLine
 10
-34.24376
 20
277.006986
 30
0.0
 11
-34.24376
 21
277.006986
 31
0.0
  0
LINE
  5
53A
330
534
100
AcDbEntity
  8
LC-001-100-D00-0
 62
     7
370
    50
100
AcDbLine
 10
-34.24376
 20
277.006986
 30
0.0
 11
-34.48178
 21
277.120922
 31
0.0
  0
LINE
  5
53B
330
534
100
AcDbEntity
  8
LC-001-100-D00-0
 62
     7
370
    50
100
AcDbLine
 10
-34.48178
 20
277.120922
 30
0.0
 11
-34.48178
 21
277.120922
 31
0.0
  0
LINE
  5
53C
330
534
100
AcDbEntity
  8
LC-001-100-D00-0
 62
     7
370
    50
100
AcDbLine
 10
-34.48178
 20
277.120922
 30
0.0
 11
-34.901704
 21
277.327751
 31
0.0
  0
LINE
  5
53D
330
534
100
AcDbEntity
  8
LC-001-100-D00-0
 62
     7
370
    50
100
AcDbLine
 10
-34.901704
 20
277.327751
 30
0.0
 11
-34.901704
 21
277.327751
 31
0.0
  0
LINE
  5
53E
330
534
100
AcDbEntity
  8
LC-001-100-D00-0
 62
     7
370
    50
100
AcDbLine
 10
-34.901704
 20
277.327751
 30
0.0
 11
-35.202217
 21
277.478373
 31
0.0
  0
LINE
  5
53F
330
534
100
AcDbEntity
  8
LC-001-100-D00-0
 62
     7
370
    50
100
AcDbLine
 10
-35.202217
 20
277.478373
 30
0.0
 11
-35.202217
 21
277.478373
 31
0.0
  0
LINE
  5
540
330
534
100
AcDbEntity
  8
LC-001-100-D00-0
 62
     7
370
    50
100
AcDbLine
 10
-35.202217
 20
277.478373
 30
0.0
 11
-35.384776
 21
277.569875
 31
0.0
  0
ENDBLK
  5
536
330
534
100
AcDbEntity
  8
0
100
AcDbBlockEnd
  0
BLOCK
  5
544
330
543
100
AcDbEntity
  8
0
100
AcDbBlockBegin
  2
POLY34
 70
     0
 71
     0
 10
0.0
 20
0.0
 30
0.0
  3
POLY34
  1

  4
POLY34
  0
LINE
  5
546
330
543
100
AcDbEntity
  8
LC-001-100-D00-0
 62
     7
370
    50
100
AcDbLine
 10
-28.91654
 20
287.974507
 30
0.0
 11
-28.91654
 21
287.974507
 31
0.0
  0
LINE
  5
547
330
543
100
AcDbEntity
  8
LC-001-100-D00-0
 62
     7
370
    50
100
AcDbLine
 10
-28.91654
 20
287.974507
 30
0.0
 11
-29.032968
 21
287.912443
 31
0.0
  0
LINE
  5
548
330
543
100
AcDbEntity
  8
LC-001-100-D00-0
 62
     7
370
    50
100
AcDbLine
 10
-29.032968
 20
287.912443
 30
0.0
 11
-29.032968
 21
287.912443
 31
0.0
  0
LINE
  5
549
330
543
100
AcDbEntity
  8
LC-001-100-D00-0
 62
     7
370
    50
100
AcDbLine
 10
-29.032968
 20
287.912443
 30
0.0
 11
-29.265827
 21
287.788313
 31
0.0
  0
LINE
  5
54A
330
543
100
AcDbEntity
  8
LC-001-100-D00-0
 62
     7
370
    50
100
AcDbLine
 10
-29.265827
 20
287.788313
 30
0.0
 11
-29.265827
 21
287.788313
 31
0.0
  0
LINE
  5
54B
330
543
100
AcDbEntity
  8
LC-001-100-D00-0
 62
     7
370
    50
100
AcDbLine
 10
-29.265827
 20
287.788313
 30
0.0
 11
-29.686359
 21
287.562787
 31
0.0
  0
LINE
  5
54C
330
543
100
AcDbEntity
  8
LC-001-100-D00-0
 62
     7
370
    50
100
AcDbLine
 10
-29.686359
 20
287.562787
 30
0.0
 11
-29.686359
 21
287.562787
 31
0.0
  0
LINE
  5
54D
330
543
100
AcDbEntity
  8
LC-001-100-D00-0
 62
     7
370
    50
100
AcDbLine
 10
-29.686359
 20
287.562787
 30
0.0
 11
-29.98936
 21
287.397293
 31
0.0
  0
LINE
  5
54E
330
543
100
AcDbEntity
  8
LC-001-100-D00-0
 62
     7
370
    50
100
AcDbLine
 10
-29.98936
 20
287.397293
 30
0.0
 11
-29.98936
 21
287.397293
 31
0.0
  0
LINE
  5
54F
330
543
100
AcDbEntity
  8
LC-001-100-D00-0
 62
     7
370
    50
100
AcDbLine
 10
-29.98936
 20
287.397293
 30
0.0
 11
-30.176567
 21
287.295044
 31
0.0
  0
ENDBLK
  5
545
330
543
100
AcDbEntity
  8
0
100
AcDbBlockEnd
  0
BLOCK
  5
552
330
551
100
AcDbEntity
  8
0
100
AcDbBlockBegin
  2
POLY35
 70
     0
 71
     0
 10
0.0
 20
0.0
 30
0.0
  3
POLY35
  1

  4
POLY35
  0
LINE
  5
554
330
551
100
AcDbEntity
  8
LC-001-100-D00-0
 62
     7
370
    50
100
AcDbLine
 10
-35.384776
 20
289.569885
 30
0.0
 11
-35.384776
 21
289.569885
 31
0.0
  0
LINE
  5
555
330
551
100
AcDbEntity
  8
LC-001-100-D00-0
 62
     7
370
    50
100
AcDbLine
 10
-35.384776
 20
289.569885
 30
0.0
 11
-35.394039
 21
289.552894
 31
0.0
  0
LINE
  5
556
330
551
100
AcDbEntity
  8
LC-001-100-D00-0
 62
     7
370
    50
100
AcDbLine
 10
-35.394039
 20
289.552894
 30
0.0
 11
-35.394039
 21
289.552894
 31
0.0
  0
LINE
  5
557
330
551
100
AcDbEntity
  8
LC-001-100-D00-0
 62
     7
370
    50
100
AcDbLine
 10
-35.394039
 20
289.552894
 30
0.0
 11
-35.42569
 21
289.494836
 31
0.0
  0
LINE
  5
558
330
551
100
AcDbEntity
  8
LC-001-100-D00-0
 62
     7
370
    50
100
AcDbLine
 10
-35.42569
 20
289.494836
 30
0.0
 11
-35.42569
 21
289.494836
 31
0.0
  0
LINE
  5
559
330
551
100
AcDbEntity
  8
LC-001-100-D00-0
 62
     7
370
    50
100
AcDbLine
 10
-35.42569
 20
289.494836
 30
0.0
 11
-35.317919
 21
289.441933
 31
0.0
  0
LINE
  5
55A
330
551
100
AcDbEntity
  8
LC-001-100-D00-0
 62
     7
370
    50
100
AcDbLine
 10
-35.317919
 20
289.441933
 30
0.0
 11
-35.317919
 21
289.441933
 31
0.0
  0
LINE
  5
55B
330
551
100
AcDbEntity
  8
LC-001-100-D00-0
 62
     7
370
    50
100
AcDbLine
 10
-35.317919
 20
289.441933
 30
0.0
 11
-35.241688
 21
289.404512
 31
0.0
  0
ENDBLK
  5
553
330
551
100
AcDbEntity
  8
0
100
AcDbBlockEnd
  0
BLOCK
  5
55E
330
55D
100
AcDbEntity
  8
0
100
AcDbBlockBegin
  2
POLY36
 70
     0
 71
     0
 10
0.0
 20
0.0
 30
0.0
  3
POLY36
  1

  4
POLY36
  0
LINE
  5
560
330
55D
100
AcDbEntity
  8
LC-001-100-D00-0
 62
     7
370
    50
100
AcDbLine
 10
-29.081652
 20
288.162366
 30
0.0
 11
-29.081652
 21
288.162366
 31
0.0
  0
LINE
  5
561
330
55D
100
AcDbEntity
  8
LC-001-100-D00-0
 62
     7
370
    50
100
AcDbLine
 10
-29.081652
 20
288.162366
 30
0.0
 11
-28.992583
 21
288.113878
 31
0.0
  0
LINE
  5
562
330
55D
100
AcDbEntity
  8
LC-001-100-D00-0
 62
     7
370
    50
100
AcDbLine
 10
-28.992583
 20
288.113878
 30
0.0
 11
-28.992583
 21
288.113878
 31
0.0
  0
LINE
  5
563
330
55D
100
AcDbEntity
  8
LC-001-100-D00-0
 62
     7
370
    50
100
AcDbLine
 10
-28.992583
 20
288.113878
 30
0.0
 11
-28.874243
 21
288.049456
 31
0.0
  0
LINE
  5
564
330
55D
100
AcDbEntity
  8
LC-001-100-D00-0
 62
     7
370
    50
100
AcDbLine
 10
-28.874243
 20
288.049456
 30
0.0
 11
-28.874243
 21
288.049456
 31
0.0
  0
LINE
  5
565
330
55D
100
AcDbEntity
  8
LC-001-100-D00-0
 62
     7
370
    50
100
AcDbLine
 10
-28.874243
 20
288.049456
 30
0.0
 11
-28.908152
 21
287.989369
 31
0.0
  0
LINE
  5
566
330
55D
100
AcDbEntity
  8
LC-001-100-D00-0
 62
     7
370
    50
100
AcDbLine
 10
-28.908152
 20
287.989369
 30
0.0
 11
-28.908152
 21
287.989369
 31
0.0
  0
LINE
  5
567
330
55D
100
AcDbEntity
  8
LC-001-100-D00-0
 62
     7
370
    50
100
AcDbLine
 10
-28.908152
 20
287.989369
 30
0.0
 11
-28.91654
 21
287.974507
 31
0.0
  0
ENDBLK
  5
55F
330
55D
100
AcDbEntity
  8
0
100
AcDbBlockEnd
  0
BLOCK
  5
56A
330
569
100
AcDbEntity
  8
0
100
AcDbBlockBegin
  2
POLY37
 70
     0
 71
     0
 10
0.0
 20
0.0
 30
0.0
  3
POLY37
  1

  4
POLY37
  0
LINE
  5
56C
330
569
100
AcDbEntity
  8
LC-001-100-D00-0
 62
     7
370
    50
100
AcDbLine
 10
-34.124749
 20
288.950026
 30
0.0
 11
-34.124749
 21
288.950026
 31
0.0
  0
LINE
  5
56D
330
569
100
AcDbEntity
  8
LC-001-100-D00-0
 62
     7
370
    50
100
AcDbLine
 10
-34.124749
 20
288.950026
 30
0.0
 11
-34.243761
 21
289.006989
 31
0.0
  0
LINE
  5
56E
330
569
100
AcDbEntity
  8
LC-001-100-D00-0
 62
     7
370
    50
100
AcDbLine
 10
-34.243761
 20
289.006989
 30
0.0
 11
-34.243761
 21
289.006989
 31
0.0
  0
LINE
  5
56F
330
569
100
AcDbEntity
  8
LC-001-100-D00-0
 62
     7
370
    50
100
AcDbLine
 10
-34.243761
 20
289.006989
 30
0.0
 11
-34.481783
 21
289.120915
 31
0.0
  0
LINE
  5
570
330
569
100
AcDbEntity
  8
LC-001-100-D00-0
 62
     7
370
    50
100
AcDbLine
 10
-34.481783
 20
289.120915
 30
0.0
 11
-34.481783
 21
289.120915
 31
0.0
  0
LINE
  5
571
330
569
100
AcDbEntity
  8
LC-001-100-D00-0
 62
     7
370
    50
100
AcDbLine
 10
-34.481783
 20
289.120915
 30
0.0
 11
-34.901707
 21
289.327746
 31
0.0
  0
LINE
  5
572
330
569
100
AcDbEntity
  8
LC-001-100-D00-0
 62
     7
370
    50
100
AcDbLine
 10
-34.901707
 20
289.327746
 30
0.0
 11
-34.901707
 21
289.327746
 31
0.0
  0
LINE
  5
573
330
569
100
AcDbEntity
  8
LC-001-100-D00-0
 62
     7
370
    50
100
AcDbLine
 10
-34.901707
 20
289.327746
 30
0.0
 11
-35.202217
 21
289.478377
 31
0.0
  0
LINE
  5
574
330
569
100
AcDbEntity
  8
LC-001-100-D00-0
 62
     7
370
    50
100
AcDbLine
 10
-35.202217
 20
289.478377
 30
0.0
 11
-35.202217
 21
289.478377
 31
0.0
  0
LINE
  5
575
330
569
100
AcDbEntity
  8
LC-001-100-D00-0
 62
     7
370
    50
100
AcDbLine
 10
-35.202217
 20
289.478377
 30
0.0
 11
-35.384776
 21
289.569885
 31
0.0
  0
ENDBLK
  5
56B
330
569
100
AcDbEntity
  8
0
100
AcDbBlockEnd
  0
BLOCK
  5
579
330
578
100
AcDbEntity
  8
0
100
AcDbBlockBegin
  2
POLY38
 70
     0
 71
     0
 10
0.0
 20
0.0
 30
0.0
  3
POLY38
  1

  4
POLY38
  0
LINE
  5
57B
330
578
100
AcDbEntity
  8
LC-001-100-D00-0
 62
     7
370
    50
100
AcDbLine
 10
-30.176567
 20
279.596463
 30
0.0
 11
-30.176567
 21
279.596463
 31
0.0
  0
LINE
  5
57C
330
578
100
AcDbEntity
  8
LC-001-100-D00-0
 62
     7
370
    50
100
AcDbLine
 10
-30.176567
 20
279.596463
 30
0.0
 11
-30.057687
 21
279.539225
 31
0.0
  0
LINE
  5
57D
330
578
100
AcDbEntity
  8
LC-001-100-D00-0
 62
     7
370
    50
100
AcDbLine
 10
-30.057687
 20
279.539225
 30
0.0
 11
-30.057687
 21
279.539225
 31
0.0
  0
LINE
  5
57E
330
578
100
AcDbEntity
  8
LC-001-100-D00-0
 62
     7
370
    50
100
AcDbLine
 10
-30.057687
 20
279.539225
 30
0.0
 11
-29.819927
 21
279.42475
 31
0.0
  0
LINE
  5
57F
330
578
100
AcDbEntity
  8
LC-001-100-D00-0
 62
     7
370
    50
100
AcDbLine
 10
-29.819927
 20
279.42475
 30
0.0
 11
-29.819927
 21
279.42475
 31
0.0
  0
LINE
  5
580
330
578
100
AcDbEntity
  8
LC-001-100-D00-0
 62
     7
370
    50
100
AcDbLine
 10
-29.819927
 20
279.42475
 30
0.0
 11
-29.399985
 21
279.217268
 31
0.0
  0
LINE
  5
581
330
578
100
AcDbEntity
  8
LC-001-100-D00-0
 62
     7
370
    50
100
AcDbLine
 10
-29.399985
 20
279.217268
 30
0.0
 11
-29.399985
 21
279.217268
 31
0.0
  0
LINE
  5
582
330
578
100
AcDbEntity
  8
LC-001-100-D00-0
 62
     7
370
    50
100
AcDbLine
 10
-29.399985
 20
279.217268
 30
0.0
 11
-29.099307
 21
279.06629
 31
0.0
  0
LINE
  5
583
330
578
100
AcDbEntity
  8
LC-001-100-D00-0
 62
     7
370
    50
100
AcDbLine
 10
-29.099307
 20
279.06629
 30
0.0
 11
-29.099307
 21
279.06629
 31
0.0
  0
LINE
  5
584
330
578
100
AcDbEntity
  8
LC-001-100-D00-0
 62
     7
370
    50
100
AcDbLine
 10
-29.099307
 20
279.06629
 30
0.0
 11
-28.91654
 21
278.974519
 31
0.0
  0
ENDBLK
  5
57A
330
578
100
AcDbEntity
  8
0
100
AcDbBlockEnd
  0
BLOCK
  5
588
330
587
100
AcDbEntity
  8
0
100
AcDbBlockBegin
  2
POLY39
 70
     0
 71
     0
 10
0.0
 20
0.0
 30
0.0
  3
POLY39
  1

  4
POLY39
  0
LINE
  5
58A
330
587
100
AcDbEntity
  8
LC-001-100-D00-0
 62
     7
370
    50
100
AcDbLine
 10
-35.384776
 20
280.569882
 30
0.0
 11
-35.384776
 21
280.569882
 31
0.0
  0
LINE
  5
58B
330
587
100
AcDbEntity
  8
LC-001-100-D00-0
 62
     7
370
    50
100
AcDbLine
 10
-35.384776
 20
280.569882
 30
0.0
 11
-35.268387
 21
280.632025
 31
0.0
  0
LINE
  5
58C
330
587
100
AcDbEntity
  8
LC-001-100-D00-0
 62
     7
370
    50
100
AcDbLine
 10
-35.268387
 20
280.632025
 30
0.0
 11
-35.268387
 21
280.632025
 31
0.0
  0
LINE
  5
58D
330
587
100
AcDbEntity
  8
LC-001-100-D00-0
 62
     7
370
    50
100
AcDbLine
 10
-35.268387
 20
280.632025
 30
0.0
 11
-35.03561
 21
280.756312
 31
0.0
  0
LINE
  5
58E
330
587
100
AcDbEntity
  8
LC-001-100-D00-0
 62
     7
370
    50
100
AcDbLine
 10
-35.03561
 20
280.756312
 30
0.0
 11
-35.03561
 21
280.756312
 31
0.0
  0
LINE
  5
58F
330
587
100
AcDbEntity
  8
LC-001-100-D00-0
 62
     7
370
    50
100
AcDbLine
 10
-35.03561
 20
280.756312
 30
0.0
 11
-34.614997
 21
280.982389
 31
0.0
  0
LINE
  5
590
330
587
100
AcDbEntity
  8
LC-001-100-D00-0
 62
     7
370
    50
100
AcDbLine
 10
-34.614997
 20
280.982389
 30
0.0
 11
-34.614997
 21
280.982389
 31
0.0
  0
LINE
  5
591
330
587
100
AcDbEntity
  8
LC-001-100-D00-0
 62
     7
370
    50
100
AcDbLine
 10
-34.614997
 20
280.982389
 30
0.0
 11
-34.31204
 21
281.148648
 31
0.0
  0
LINE
  5
592
330
587
100
AcDbEntity
  8
LC-001-100-D00-0
 62
     7
370
    50
100
AcDbLine
 10
-34.31204
 20
281.148648
 30
0.0
 11
-34.31204
 21
281.148648
 31
0.0
  0
LINE
  5
593
330
587
100
AcDbEntity
  8
LC-001-100-D00-0
 62
     7
370
    50
100
AcDbLine
 10
-34.31204
 20
281.148648
 30
0.0
 11
-34.124749
 21
281.251431
 31
0.0
  0
ENDBLK
  5
589
330
587
100
AcDbEntity
  8
0
100
AcDbBlockEnd
  0
BLOCK
  5
596
330
595
100
AcDbEntity
  8
0
100
AcDbBlockBegin
  2
POLY40
 70
     0
 71
     0
 10
0.0
 20
0.0
 30
0.0
  3
POLY40
  1

  4
POLY40
  0
LINE
  5
598
330
595
100
AcDbEntity
  8
LC-001-100-D00-0
 62
     7
370
    50
100
AcDbLine
 10
-30.176567
 20
288.596467
 30
0.0
 11
-30.176567
 21
288.596467
 31
0.0
  0
LINE
  5
599
330
595
100
AcDbEntity
  8
LC-001-100-D00-0
 62
     7
370
    50
100
AcDbLine
 10
-30.176567
 20
288.596467
 30
0.0
 11
-30.057687
 21
288.539229
 31
0.0
  0
LINE
  5
59A
330
595
100
AcDbEntity
  8
LC-001-100-D00-0
 62
     7
370
    50
100
AcDbLine
 10
-30.057687
 20
288.539229
 30
0.0
 11
-30.057687
 21
288.539229
 31
0.0
  0
LINE
  5
59B
330
595
100
AcDbEntity
  8
LC-001-100-D00-0
 62
     7
370
    50
100
AcDbLine
 10
-30.057687
 20
288.539229
 30
0.0
 11
-29.819928
 21
288.424753
 31
0.0
  0
LINE
  5
59C
330
595
100
AcDbEntity
  8
LC-001-100-D00-0
 62
     7
370
    50
100
AcDbLine
 10
-29.819928
 20
288.424753
 30
0.0
 11
-29.819928
 21
288.424753
 31
0.0
  0
LINE
  5
59D
330
595
100
AcDbEntity
  8
LC-001-100-D00-0
 62
     7
370
    50
100
AcDbLine
 10
-29.819928
 20
288.424753
 30
0.0
 11
-29.399982
 21
288.217273
 31
0.0
  0
LINE
  5
59E
330
595
100
AcDbEntity
  8
LC-001-100-D00-0
 62
     7
370
    50
100
AcDbLine
 10
-29.399982
 20
288.217273
 30
0.0
 11
-29.399982
 21
288.217273
 31
0.0
  0
LINE
  5
59F
330
595
100
AcDbEntity
  8
LC-001-100-D00-0
 62
     7
370
    50
100
AcDbLine
 10
-29.399982
 20
288.217273
 30
0.0
 11
-29.099306
 21
288.066285
 31
0.0
  0
LINE
  5
5A0
330
595
100
AcDbEntity
  8
LC-001-100-D00-0
 62
     7
370
    50
100
AcDbLine
 10
-29.099306
 20
288.066285
 30
0.0
 11
-29.099306
 21
288.066285
 31
0.0
  0
LINE
  5
5A1
330
595
100
AcDbEntity
  8
LC-001-100-D00-0
 62
     7
370
    50
100
AcDbLine
 10
-29.099306
 20
288.066285
 30
0.0
 11
-28.91654
 21
287.974507
 31
0.0
  0
ENDBLK
  5
597
330
595
100
AcDbEntity
  8
0
100
AcDbBlockEnd
  0
BLOCK
  5
5A5
330
5A4
100
AcDbEntity
  8
0
100
AcDbBlockBegin
  2
POLY41
 70
     0
 71
     0
 10
0.0
 20
0.0
 30
0.0
  3
POLY41
  1

  4
POLY41
  0
LINE
  5
5A7
330
5A4
100
AcDbEntity
  8
LC-001-100-D00-0
 62
     7
370
    50
100
AcDbLine
 10
-35.384776
 20
289.569885
 30
0.0
 11
-35.384776
 21
289.569885
 31
0.0
  0
LINE
  5
5A8
330
5A4
100
AcDbEntity
  8
LC-001-100-D00-0
 62
     7
370
    50
100
AcDbLine
 10
-35.384776
 20
289.569885
 30
0.0
 11
-35.268385
 21
289.632026
 31
0.0
  0
LINE
  5
5A9
330
5A4
100
AcDbEntity
  8
LC-001-100-D00-0
 62
     7
370
    50
100
AcDbLine
 10
-35.268385
 20
289.632026
 30
0.0
 11
-35.268385
 21
289.632026
 31
0.0
  0
LINE
  5
5AA
330
5A4
100
AcDbEntity
  8
LC-001-100-D00-0
 62
     7
370
    50
100
AcDbLine
 10
-35.268385
 20
289.632026
 30
0.0
 11
-35.035606
 21
289.756307
 31
0.0
  0
LINE
  5
5AB
330
5A4
100
AcDbEntity
  8
LC-001-100-D00-0
 62
     7
370
    50
100
AcDbLine
 10
-35.035606
 20
289.756307
 30
0.0
 11
-35.035606
 21
289.756307
 31
0.0
  0
LINE
  5
5AC
330
5A4
100
AcDbEntity
  8
LC-001-100-D00-0
 62
     7
370
    50
100
AcDbLine
 10
-35.035606
 20
289.756307
 30
0.0
 11
-34.660454
 21
289.958004
 31
0.0
  0
LINE
  5
5AD
330
5A4
100
AcDbEntity
  8
LC-001-100-D00-0
 62
     7
370
    50
100
AcDbLine
 10
-34.660454
 20
289.958004
 30
0.0
 11
-34.660454
 21
289.958004
 31
0.0
  0
LINE
  5
5AE
330
5A4
100
AcDbEntity
  8
LC-001-100-D00-0
 62
     7
370
    50
100
AcDbLine
 10
-34.660454
 20
289.958004
 30
0.0
 11
-34.402467
 21
290.098981
 31
0.0
  0
LINE
  5
5AF
330
5A4
100
AcDbEntity
  8
LC-001-100-D00-0
 62
     7
370
    50
100
AcDbLine
 10
-34.402467
 20
290.098981
 30
0.0
 11
-34.402467
 21
290.098981
 31
0.0
  0
LINE
  5
5B0
330
5A4
100
AcDbEntity
  8
LC-001-100-D00-0
 62
     7
370
    50
100
AcDbLine
 10
-34.402467
 20
290.098981
 30
0.0
 11
-34.26026
 21
290.17669
 31
0.0
  0
ENDBLK
  5
5A6
330
5A4
100
AcDbEntity
  8
0
100
AcDbBlockEnd
  0
BLOCK
  5
5C4
330
5C3
100
AcDbEntity
  8
0
100
AcDbBlockBegin
  2
POLY42
 70
     0
 71
     0
 10
0.0
 20
0.0
 30
0.0
  3
POLY42
  1

  4
POLY42
  0
LINE
  5
5C6
330
5C3
100
AcDbEntity
  8
LC-001-100-D00-0
 62
     7
370
    50
100
AcDbLine
 10
-26.910471
 20
292.976678
 30
0.0
 11
-26.910471
 21
292.976678
 31
0.0
  0
LINE
  5
5C7
330
5C3
100
AcDbEntity
  8
LC-001-100-D00-0
 62
     7
370
    50
100
AcDbLine
 10
-26.910471
 20
292.976678
 30
0.0
 11
-26.912501
 21
292.998193
 31
0.0
  0
LINE
  5
5C8
330
5C3
100
AcDbEntity
  8
LC-001-100-D00-0
 62
     7
370
    50
100
AcDbLine
 10
-26.912501
 20
292.998193
 30
0.0
 11
-26.912501
 21
292.998193
 31
0.0
  0
LINE
  5
5C9
330
5C3
100
AcDbEntity
  8
LC-001-100-D00-0
 62
     7
370
    50
100
AcDbLine
 10
-26.912501
 20
292.998193
 30
0.0
 11
-26.916649
 21
293.042143
 31
0.0
  0
LINE
  5
5CA
330
5C3
100
AcDbEntity
  8
LC-001-100-D00-0
 62
     7
370
    50
100
AcDbLine
 10
-26.916649
 20
293.042143
 30
0.0
 11
-26.916649
 21
293.042143
 31
0.0
  0
LINE
  5
5CB
330
5C3
100
AcDbEntity
  8
LC-001-100-D00-0
 62
     7
370
    50
100
AcDbLine
 10
-26.916649
 20
293.042143
 30
0.0
 11
-26.949761
 21
293.101635
 31
0.0
  0
LINE
  5
5CC
330
5C3
100
AcDbEntity
  8
LC-001-100-D00-0
 62
     7
370
    50
100
AcDbLine
 10
-26.949761
 20
293.101635
 30
0.0
 11
-26.949761
 21
293.101635
 31
0.0
  0
LINE
  5
5CD
330
5C3
100
AcDbEntity
  8
LC-001-100-D00-0
 62
     7
370
    50
100
AcDbLine
 10
-26.949761
 20
293.101635
 30
0.0
 11
-26.999818
 21
293.147575
 31
0.0
  0
LINE
  5
5CE
330
5C3
100
AcDbEntity
  8
LC-001-100-D00-0
 62
     7
370
    50
100
AcDbLine
 10
-26.999818
 20
293.147575
 30
0.0
 11
-26.999818
 21
293.147575
 31
0.0
  0
LINE
  5
5CF
330
5C3
100
AcDbEntity
  8
LC-001-100-D00-0
 62
     7
370
    50
100
AcDbLine
 10
-26.999818
 20
293.147575
 30
0.0
 11
-27.05672
 21
293.172893
 31
0.0
  0
LINE
  5
5D0
330
5C3
100
AcDbEntity
  8
LC-001-100-D00-0
 62
     7
370
    50
100
AcDbLine
 10
-27.05672
 20
293.172893
 30
0.0
 11
-27.05672
 21
293.172893
 31
0.0
  0
LINE
  5
5D1
330
5C3
100
AcDbEntity
  8
LC-001-100-D00-0
 62
     7
370
    50
100
AcDbLine
 10
-27.05672
 20
293.172893
 30
0.0
 11
-27.095014
 21
293.175572
 31
0.0
  0
LINE
  5
5D2
330
5C3
100
AcDbEntity
  8
LC-001-100-D00-0
 62
     7
370
    50
100
AcDbLine
 10
-27.095014
 20
293.175572
 30
0.0
 11
-27.095014
 21
293.175572
 31
0.0
  0
LINE
  5
5D3
330
5C3
100
AcDbEntity
  8
LC-001-100-D00-0
 62
     7
370
    50
100
AcDbLine
 10
-27.095014
 20
293.175572
 30
0.0
 11
-27.110862
 21
293.176681
 31
0.0
  0
ENDBLK
  5
5C5
330
5C3
100
AcDbEntity
  8
0
100
AcDbBlockEnd
  0
BLOCK
  5
5D9
330
5D8
100
AcDbEntity
  8
0
100
AcDbBlockBegin
  2
POLY43
 70
     0
 71
     0
 10
0.0
 20
0.0
 30
0.0
  3
POLY43
  1

  4
POLY43
  0
LINE
  5
5DB
330
5D8
100
AcDbEntity
  8
LC-001-100-D00-0
 62
     7
370
    50
100
AcDbLine
 10
-34.124749
 20
274.577096
 30
0.0
 11
-34.124749
 21
274.577096
 31
0.0
  0
LINE
  5
5DC
330
5D8
100
AcDbEntity
  8
LC-001-100-D00-0
 62
     7
370
    50
100
AcDbLine
 10
-34.124749
 20
274.577096
 30
0.0
 11
-34.019654
 21
274.504661
 31
0.0
  0
LINE
  5
5DD
330
5D8
100
AcDbEntity
  8
LC-001-100-D00-0
 62
     7
370
    50
100
AcDbLine
 10
-34.019654
 20
274.504661
 30
0.0
 11
-34.019654
 21
274.504661
 31
0.0
  0
LINE
  5
5DE
330
5D8
100
AcDbEntity
  8
LC-001-100-D00-0
 62
     7
370
    50
100
AcDbLine
 10
-34.019654
 20
274.504661
 30
0.0
 11
-33.683387
 21
274.272892
 31
0.0
  0
LINE
  5
5DF
330
5D8
100
AcDbEntity
  8
LC-001-100-D00-0
 62
     7
370
    50
100
AcDbLine
 10
-33.683387
 20
274.272892
 30
0.0
 11
-33.683387
 21
274.272892
 31
0.0
  0
LINE
  5
5E0
330
5D8
100
AcDbEntity
  8
LC-001-100-D00-0
 62
     7
370
    50
100
AcDbLine
 10
-33.683387
 20
274.272892
 30
0.0
 11
-33.206721
 21
273.943322
 31
0.0
  0
LINE
  5
5E1
330
5D8
100
AcDbEntity
  8
LC-001-100-D00-0
 62
     7
370
    50
100
AcDbLine
 10
-33.206721
 20
273.943322
 30
0.0
 11
-33.206721
 21
273.943322
 31
0.0
  0
LINE
  5
5E2
330
5D8
100
AcDbEntity
  8
LC-001-100-D00-0
 62
     7
370
    50
100
AcDbLine
 10
-33.206721
 20
273.943322
 30
0.0
 11
-32.690978
 21
273.616627
 31
0.0
  0
LINE
  5
5E3
330
5D8
100
AcDbEntity
  8
LC-001-100-D00-0
 62
     7
370
    50
100
AcDbLine
 10
-32.690978
 20
273.616627
 30
0.0
 11
-32.690978
 21
273.616627
 31
0.0
  0
LINE
  5
5E4
330
5D8
100
AcDbEntity
  8
LC-001-100-D00-0
 62
     7
370
    50
100
AcDbLine
 10
-32.690978
 20
273.616627
 30
0.0
 11
-32.339625
 21
273.39495
 31
0.0
  0
LINE
  5
5E5
330
5D8
100
AcDbEntity
  8
LC-001-100-D00-0
 62
     7
370
    50
100
AcDbLine
 10
-32.339625
 20
273.39495
 30
0.0
 11
-32.339625
 21
273.39495
 31
0.0
  0
LINE
  5
5E6
330
5D8
100
AcDbEntity
  8
LC-001-100-D00-0
 62
     7
370
    50
100
AcDbLine
 10
-32.339625
 20
273.39495
 30
0.0
 11
-31.988119
 21
273.405226
 31
0.0
  0
LINE
  5
5E7
330
5D8
100
AcDbEntity
  8
LC-001-100-D00-0
 62
     7
370
    50
100
AcDbLine
 10
-31.988119
 20
273.405226
 30
0.0
 11
-31.988119
 21
273.405226
 31
0.0
  0
LINE
  5
5E8
330
5D8
100
AcDbEntity
  8
LC-001-100-D00-0
 62
     7
370
    50
100
AcDbLine
 10
-31.988119
 20
273.405226
 30
0.0
 11
-31.373268
 21
273.735981
 31
0.0
  0
LINE
  5
5E9
330
5D8
100
AcDbEntity
  8
LC-001-100-D00-0
 62
     7
370
    50
100
AcDbLine
 10
-31.373268
 20
273.735981
 30
0.0
 11
-31.373268
 21
273.735981
 31
0.0
  0
LINE
  5
5EA
330
5D8
100
AcDbEntity
  8
LC-001-100-D00-0
 62
     7
370
    50
100
AcDbLine
 10
-31.373268
 20
273.735981
 30
0.0
 11
-30.780779
 21
274.161438
 31
0.0
  0
LINE
  5
5EB
330
5D8
100
AcDbEntity
  8
LC-001-100-D00-0
 62
     7
370
    50
100
AcDbLine
 10
-30.780779
 20
274.161438
 30
0.0
 11
-30.780779
 21
274.161438
 31
0.0
  0
LINE
  5
5EC
330
5D8
100
AcDbEntity
  8
LC-001-100-D00-0
 62
     7
370
    50
100
AcDbLine
 10
-30.780779
 20
274.161438
 30
0.0
 11
-30.268233
 21
274.514036
 31
0.0
  0
LINE
  5
5ED
330
5D8
100
AcDbEntity
  8
LC-001-100-D00-0
 62
     7
370
    50
100
AcDbLine
 10
-30.268233
 20
274.514036
 30
0.0
 11
-30.268233
 21
274.514036
 31
0.0
  0
LINE
  5
5EE
330
5D8
100
AcDbEntity
  8
LC-001-100-D00-0
 62
     7
370
    50
100
AcDbLine
 10
-30.268233
 20
274.514036
 30
0.0
 11
-30.176567
 21
274.577096
 31
0.0
  0
ENDBLK
  5
5DA
330
5D8
100
AcDbEntity
  8
0
100
AcDbBlockEnd
  0
BLOCK
  5
5F3
330
5F2
100
AcDbEntity
  8
0
100
AcDbBlockBegin
  2
POLY44
 70
     0
 71
     0
 10
0.0
 20
0.0
 30
0.0
  3
POLY44
  1

  4
POLY44
  0
LINE
  5
5F5
330
5F2
100
AcDbEntity
  8
LC-001-100-D00-0
 62
     7
370
    50
100
AcDbLine
 10
-37.190454
 20
293.176681
 30
0.0
 11
-37.190454
 21
293.176681
 31
0.0
  0
LINE
  5
5F6
330
5F2
100
AcDbEntity
  8
LC-001-100-D00-0
 62
     7
370
    50
100
AcDbLine
 10
-37.190454
 20
293.176681
 30
0.0
 11
-37.211191
 21
293.1748
 31
0.0
  0
LINE
  5
5F7
330
5F2
100
AcDbEntity
  8
LC-001-100-D00-0
 62
     7
370
    50
100
AcDbLine
 10
-37.211191
 20
293.1748
 30
0.0
 11
-37.211191
 21
293.1748
 31
0.0
  0
LINE
  5
5F8
330
5F2
100
AcDbEntity
  8
LC-001-100-D00-0
 62
     7
370
    50
100
AcDbLine
 10
-37.211191
 20
293.1748
 30
0.0
 11
-37.254485
 21
293.170872
 31
0.0
  0
LINE
  5
5F9
330
5F2
100
AcDbEntity
  8
LC-001-100-D00-0
 62
     7
370
    50
100
AcDbLine
 10
-37.254485
 20
293.170872
 30
0.0
 11
-37.254485
 21
293.170872
 31
0.0
  0
LINE
  5
5FA
330
5F2
100
AcDbEntity
  8
LC-001-100-D00-0
 62
     7
370
    50
100
AcDbLine
 10
-37.254485
 20
293.170872
 30
0.0
 11
-37.313809
 21
293.138905
 31
0.0
  0
LINE
  5
5FB
330
5F2
100
AcDbEntity
  8
LC-001-100-D00-0
 62
     7
370
    50
100
AcDbLine
 10
-37.313809
 20
293.138905
 30
0.0
 11
-37.313809
 21
293.138905
 31
0.0
  0
LINE
  5
5FC
330
5F2
100
AcDbEntity
  8
LC-001-100-D00-0
 62
     7
370
    50
100
AcDbLine
 10
-37.313809
 20
293.138905
 30
0.0
 11
-37.355012
 21
293.095311
 31
0.0
  0
LINE
  5
5FD
330
5F2
100
AcDbEntity
  8
LC-001-100-D00-0
 62
     7
370
    50
100
AcDbLine
 10
-37.355012
 20
293.095311
 30
0.0
 11
-37.355012
 21
293.095311
 31
0.0
  0
LINE
  5
5FE
330
5F2
100
AcDbEntity
  8
LC-001-100-D00-0
 62
     7
370
    50
100
AcDbLine
 10
-37.355012
 20
293.095311
 30
0.0
 11
-37.382256
 21
293.042749
 31
0.0
  0
LINE
  5
5FF
330
5F2
100
AcDbEntity
  8
LC-001-100-D00-0
 62
     7
370
    50
100
AcDbLine
 10
-37.382256
 20
293.042749
 30
0.0
 11
-37.382256
 21
293.042749
 31
0.0
  0
LINE
  5
600
330
5F2
100
AcDbEntity
  8
LC-001-100-D00-0
 62
     7
370
    50
100
AcDbLine
 10
-37.382256
 20
293.042749
 30
0.0
 11
-37.390519
 21
293.003848
 31
0.0
  0
LINE
  5
601
330
5F2
100
AcDbEntity
  8
LC-001-100-D00-0
 62
     7
370
    50
100
AcDbLine
 10
-37.390519
 20
293.003848
 30
0.0
 11
-37.390519
 21
293.003848
 31
0.0
  0
LINE
  5
602
330
5F2
100
AcDbEntity
  8
LC-001-100-D00-0
 62
     7
370
    50
100
AcDbLine
 10
-37.390519
 20
293.003848
 30
0.0
 11
-37.390816
 21
292.979092
 31
0.0
  0
LINE
  5
603
330
5F2
100
AcDbEntity
  8
LC-001-100-D00-0
 62
     7
370
    50
100
AcDbLine
 10
-37.390816
 20
292.979092
 30
0.0
 11
-37.390816
 21
292.979092
 31
0.0
  0
LINE
  5
604
330
5F2
100
AcDbEntity
  8
LC-001-100-D00-0
 62
     7
370
    50
100
AcDbLine
 10
-37.390816
 20
292.979092
 30
0.0
 11
-37.390845
 21
292.976678
 31
0.0
  0
ENDBLK
  5
5F4
330
5F2
100
AcDbEntity
  8
0
100
AcDbBlockEnd
  0
BLOCK
  5
614
330
613
100
AcDbEntity
  8
0
100
AcDbBlockBegin
  2
POLY45
 70
     0
 71
     0
 10
0.0
 20
0.0
 30
0.0
  3
POLY45
  1

  4
POLY45
  0
LINE
  5
616
330
613
100
AcDbEntity
  8
LC-001-100-D00-0
 62
     7
370
    50
100
AcDbLine
 10
-29.149519
 20
294.155673
 30
0.0
 11
-29.149519
 21
294.155673
 31
0.0
  0
LINE
  5
617
330
613
100
AcDbEntity
  8
LC-001-100-D00-0
 62
     7
370
    50
100
AcDbLine
 10
-29.149519
 20
294.155673
 30
0.0
 11
-29.171193
 21
294.164088
 31
0.0
  0
LINE
  5
618
330
613
100
AcDbEntity
  8
LC-001-100-D00-0
 62
     7
370
    50
100
AcDbLine
 10
-29.171193
 20
294.164088
 30
0.0
 11
-29.171193
 21
294.164088
 31
0.0
  0
LINE
  5
619
330
613
100
AcDbEntity
  8
LC-001-100-D00-0
 62
     7
370
    50
100
AcDbLine
 10
-29.171193
 20
294.164088
 30
0.0
 11
-29.200581
 21
294.175499
 31
0.0
  0
LINE
  5
61A
330
613
100
AcDbEntity
  8
LC-001-100-D00-0
 62
     7
370
    50
100
AcDbLine
 10
-29.200581
 20
294.175499
 30
0.0
 11
-29.200581
 21
294.175499
 31
0.0
  0
LINE
  5
61B
330
613
100
AcDbEntity
  8
LC-001-100-D00-0
 62
     7
370
    50
100
AcDbLine
 10
-29.200581
 20
294.175499
 30
0.0
 11
-29.231809
 21
294.176437
 31
0.0
  0
LINE
  5
61C
330
613
100
AcDbEntity
  8
LC-001-100-D00-0
 62
     7
370
    50
100
AcDbLine
 10
-29.231809
 20
294.176437
 30
0.0
 11
-29.231809
 21
294.176437
 31
0.0
  0
LINE
  5
61D
330
613
100
AcDbEntity
  8
LC-001-100-D00-0
 62
     7
370
    50
100
AcDbLine
 10
-29.231809
 20
294.176437
 30
0.0
 11
-29.240007
 21
294.176683
 31
0.0
  0
ENDBLK
  5
615
330
613
100
AcDbEntity
  8
0
100
AcDbBlockEnd
  0
BLOCK
  5
621
330
620
100
AcDbEntity
  8
0
100
AcDbBlockBegin
  2
POLY46
 70
     0
 71
     0
 10
0.0
 20
0.0
 30
0.0
  3
POLY46
  1

  4
POLY46
  0
LINE
  5
623
330
620
100
AcDbEntity
  8
LC-001-100-D00-0
 62
     7
370
    50
100
AcDbLine
 10
-35.061309
 20
294.176683
 30
0.0
 11
-35.061309
 21
294.176683
 31
0.0
  0
LINE
  5
624
330
620
100
AcDbEntity
  8
LC-001-100-D00-0
 62
     7
370
    50
100
AcDbLine
 10
-35.061309
 20
294.176683
 30
0.0
 11
-35.084478
 21
294.174695
 31
0.0
  0
LINE
  5
625
330
620
100
AcDbEntity
  8
LC-001-100-D00-0
 62
     7
370
    50
100
AcDbLine
 10
-35.084478
 20
294.174695
 30
0.0
 11
-35.084478
 21
294.174695
 31
0.0
  0
LINE
  5
626
330
620
100
AcDbEntity
  8
LC-001-100-D00-0
 62
     7
370
    50
100
AcDbLine
 10
-35.084478
 20
294.174695
 30
0.0
 11
-35.115892
 21
294.171999
 31
0.0
  0
LINE
  5
627
330
620
100
AcDbEntity
  8
LC-001-100-D00-0
 62
     7
370
    50
100
AcDbLine
 10
-35.115892
 20
294.171999
 30
0.0
 11
-35.115892
 21
294.171999
 31
0.0
  0
LINE
  5
628
330
620
100
AcDbEntity
  8
LC-001-100-D00-0
 62
     7
370
    50
100
AcDbLine
 10
-35.115892
 20
294.171999
 30
0.0
 11
-35.144332
 21
294.159067
 31
0.0
  0
LINE
  5
629
330
620
100
AcDbEntity
  8
LC-001-100-D00-0
 62
     7
370
    50
100
AcDbLine
 10
-35.144332
 20
294.159067
 30
0.0
 11
-35.144332
 21
294.159067
 31
0.0
  0
LINE
  5
62A
330
620
100
AcDbEntity
  8
LC-001-100-D00-0
 62
     7
370
    50
100
AcDbLine
 10
-35.144332
 20
294.159067
 30
0.0
 11
-35.151796
 21
294.155673
 31
0.0
  0
ENDBLK
  5
622
330
620
100
AcDbEntity
  8
0
100
AcDbBlockEnd
  0
BLOCK
  5
637
330
636
100
AcDbEntity
  8
0
100
AcDbBlockBegin
  2
KLON23
 70
     0
 71
     0
 10
0.0
 20
0.0
 30
0.0
  3
KLON23
  1

  4
KLON23
  0
LINE
  5
639
330
636
100
AcDbEntity
  8
LC-001-100-D00-0
 62
     7
370
    25
100
AcDbLine
 10
-34.821596
 20
277.28871
 30
0.0
 11
-34.820476
 21
277.28983
 31
0.0
  0
LINE
  5
63A
330
636
100
AcDbEntity
  8
LC-001-100-D00-0
 62
     7
370
    25
100
AcDbLine
 10
-34.818836
 20
277.29147
 30
0.0
 11
-29.732858
 21
282.377448
 31
0.0
  0
LINE
  5
63B
330
636
100
AcDbEntity
  8
LC-001-100-D00-0
 62
     7
370
    25
100
AcDbLine
 10
-29.730703
 20
282.379603
 30
0.0
 11
-29.73043
 21
282.379876
 31
0.0
  0
LINE
  5
63C
330
636
100
AcDbEntity
  8
LC-001-100-D00-0
 62
     7
370
    25
100
AcDbLine
 10
-34.808357
 20
286.282205
 30
0.0
 11
-34.807281
 21
286.283281
 31
0.0
  0
LINE
  5
63D
330
636
100
AcDbEntity
  8
LC-001-100-D00-0
 62
     7
370
    25
100
AcDbLine
 10
-34.805602
 20
286.28496
 30
0.0
 11
-28.413879
 21
292.676683
 31
0.0
  0
LINE
  5
63E
330
636
100
AcDbEntity
  8
LC-001-100-D00-0
 62
     7
370
    25
100
AcDbLine
 10
-28.400658
 20
292.689904
 30
0.0
 11
-27.797989
 21
293.292573
 31
0.0
  0
LINE
  5
63F
330
636
100
AcDbEntity
  8
LC-001-100-D00-0
 62
     7
370
    25
100
AcDbLine
 10
-37.390842
 20
292.679976
 30
0.0
 11
-36.894135
 21
293.176683
 31
0.0
  0
ENDBLK
  5
638
330
636
100
AcDbEntity
  8
0
100
AcDbBlockEnd
  0
BLOCK
  5
642
330
641
100
AcDbEntity
  8
0
100
AcDbBlockBegin
  2
KLON24
 70
     0
 71
     0
 10
0.0
 20
0.0
 30
0.0
  3
KLON24
  1

  4
KLON24
  0
LINE
  5
644
330
641
100
AcDbEntity
  8
LC-001-100-D00-0
 62
     7
370
    25
100
AcDbLine
 10
92.348607
 20
287.715583
 30
0.0
 11
94.348607
 21
289.715583
 31
0.0
  0
LINE
  5
645
330
641
100
AcDbEntity
  8
LC-001-100-D00-0
 62
     7
370
    25
100
AcDbLine
 10
95.909706
 20
291.276683
 30
0.0
 11
99.560014
 21
294.92699
 31
0.0
  0
LINE
  5
646
330
641
100
AcDbEntity
  8
LC-001-100-D00-0
 62
     7
370
    25
100
AcDbLine
 10
89.089048
 20
293.436281
 30
0.0
 11
97.662262
 21
302.009495
 31
0.0
  0
LINE
  5
647
330
641
100
AcDbEntity
  8
LC-001-100-D00-0
 62
     7
370
    25
100
AcDbLine
 10
87.191297
 20
300.518785
 30
0.0
 11
95.764511
 21
309.092
 31
0.0
  0
LINE
  5
648
330
641
100
AcDbEntity
  8
LC-001-100-D00-0
 62
     7
370
    25
100
AcDbLine
 10
85.293545
 20
307.60129
 30
0.0
 11
93.86676
 21
316.174504
 31
0.0
  0
LINE
  5
649
330
641
100
AcDbEntity
  8
LC-001-100-D00-0
 62
     7
370
    25
100
AcDbLine
 10
83.395794
 20
314.683795
 30
0.0
 11
91.969008
 21
323.257009
 31
0.0
  0
LINE
  5
64A
330
641
100
AcDbEntity
  8
LC-001-100-D00-0
 62
     7
370
    25
100
AcDbLine
 10
81.498043
 20
321.7663
 30
0.0
 11
90.071257
 21
330.339514
 31
0.0
  0
LINE
  5
64B
330
641
100
AcDbEntity
  8
LC-001-100-D00-0
 62
     7
370
    25
100
AcDbLine
 10
78.53468
 20
327.783193
 30
0.0
 11
88.173505
 21
337.422018
 31
0.0
  0
LINE
  5
64C
330
641
100
AcDbEntity
  8
LC-001-100-D00-0
 62
     7
370
    25
100
AcDbLine
 10
77.648607
 20
335.877376
 30
0.0
 11
86.275754
 21
344.504523
 31
0.0
  0
LINE
  5
64D
330
641
100
AcDbEntity
  8
LC-001-100-D00-0
 62
     7
370
    25
100
AcDbLine
 10
75.804788
 20
343.013814
 30
0.0
 11
84.378002
 21
351.587028
 31
0.0
  0
LINE
  5
64E
330
641
100
AcDbEntity
  8
LC-001-100-D00-0
 62
     7
370
    25
100
AcDbLine
 10
73.907037
 20
350.096318
 30
0.0
 11
82.345491
 21
358.534772
 31
0.0
  0
LINE
  5
64F
330
641
100
AcDbEntity
  8
LC-001-100-D00-0
 62
     7
370
    25
100
AcDbLine
 10
72.009286
 20
357.178823
 30
0.0
 11
78.377022
 21
363.546559
 31
0.0
  0
LINE
  5
650
330
641
100
AcDbEntity
  8
LC-001-100-D00-0
 62
     7
370
    25
100
AcDbLine
 10
68.318467
 20
362.468261
 30
0.0
 11
71.98171
 21
366.131504
 31
0.0
  0
LINE
  5
651
330
641
100
AcDbEntity
  8
LC-001-100-D00-0
 62
     7
370
    25
100
AcDbLine
 10
-18.651393
 20
284.478657
 30
0.0
 11
-16.651393
 21
286.478657
 31
0.0
  0
LINE
  5
652
330
641
100
AcDbEntity
  8
LC-001-100-D00-0
 62
     7
370
    25
100
AcDbLine
 10
59.338211
 20
362.468261
 30
0.0
 11
63.088211
 21
366.218261
 31
0.0
  0
LINE
  5
653
330
641
100
AcDbEntity
  8
LC-001-100-D00-0
 62
     7
370
    25
100
AcDbLine
 10
-20.833623
 20
291.276683
 30
0.0
 11
-11.458419
 21
300.651887
 31
0.0
  0
LINE
  5
654
330
641
100
AcDbEntity
  8
LC-001-100-D00-0
 62
     7
370
    25
100
AcDbLine
 10
50.357955
 20
362.468261
 30
0.0
 11
54.107955
 21
366.218261
 31
0.0
  0
LINE
  5
655
330
641
100
AcDbEntity
  8
LC-001-100-D00-0
 62
     7
370
    25
100
AcDbLine
 10
-23.020659
 20
298.069903
 30
0.0
 11
-8.171417
 21
312.919145
 31
0.0
  0
LINE
  5
656
330
641
100
AcDbEntity
  8
LC-001-100-D00-0
 62
     7
370
    25
100
AcDbLine
 10
41.377699
 20
362.468261
 30
0.0
 11
45.127699
 21
366.218261
 31
0.0
  0
LINE
  5
657
330
641
100
AcDbEntity
  8
LC-001-100-D00-0
 62
     7
370
    25
100
AcDbLine
 10
-19.733657
 20
310.337161
 30
0.0
 11
-4.884415
 21
325.186403
 31
0.0
  0
LINE
  5
658
330
641
100
AcDbEntity
  8
LC-001-100-D00-0
 62
     7
370
    25
100
AcDbLine
 10
32.397443
 20
362.468261
 30
0.0
 11
36.147443
 21
366.218261
 31
0.0
  0
LINE
  5
659
330
641
100
AcDbEntity
  8
LC-001-100-D00-0
 62
     7
370
    25
100
AcDbLine
 10
-16.446655
 20
322.604419
 30
0.0
 11
-1.597413
 21
337.453661
 31
0.0
  0
LINE
  5
65A
330
641
100
AcDbEntity
  8
LC-001-100-D00-0
 62
     7
370
    25
100
AcDbLine
 10
23.417186
 20
362.468261
 30
0.0
 11
27.267186
 21
366.318261
 31
0.0
  0
LINE
  5
65B
330
641
100
AcDbEntity
  8
LC-001-100-D00-0
 62
     7
370
    25
100
AcDbLine
 10
-13.159653
 20
334.871677
 30
0.0
 11
1.689589
 21
349.720919
 31
0.0
  0
LINE
  5
65C
330
641
100
AcDbEntity
  8
LC-001-100-D00-0
 62
     7
370
    25
100
AcDbLine
 10
14.43693
 20
362.468261
 30
0.0
 11
18.28693
 21
366.318261
 31
0.0
  0
LINE
  5
65D
330
641
100
AcDbEntity
  8
LC-001-100-D00-0
 62
     7
370
    25
100
AcDbLine
 10
-9.872652
 20
347.138935
 30
0.0
 11
4.976591
 21
361.988177
 31
0.0
  0
LINE
  5
65E
330
641
100
AcDbEntity
  8
LC-001-100-D00-0
 62
     7
370
    25
100
AcDbLine
 10
5.456674
 20
362.468261
 30
0.0
 11
9.206674
 21
366.218261
 31
0.0
  0
LINE
  5
65F
330
641
100
AcDbEntity
  8
LC-001-100-D00-0
 62
     7
370
    25
100
AcDbLine
 10
-5.677695
 20
360.314148
 30
0.0
 11
-1.880998
 21
364.110845
 31
0.0
  0
ENDBLK
  5
643
330
641
100
AcDbEntity
  8
0
100
AcDbBlockEnd
  0
BLOCK
  5
665
330
664
100
AcDbEntity
  8
0
100
AcDbBlockBegin
  2
KLON25
 70
     0
 71
     0
 10
0.0
 20
0.0
 30
0.0
  3
KLON25
  1

  4
KLON25
  0
LINE
  5
667
330
664
100
AcDbEntity
  8
LC-001-100-D00-0
 62
     7
370
    25
100
AcDbLine
 10
140.095795
 20
290.561491
 30
0.0
 11
141.468746
 21
291.934442
 31
0.0
  0
LINE
  5
668
330
664
100
AcDbEntity
  8
LC-001-100-D00-0
 62
     7
370
    25
100
AcDbLine
 10
142.400252
 20
292.865948
 30
0.0
 11
143.210987
 21
293.676683
 31
0.0
  0
LINE
  5
669
330
664
100
AcDbEntity
  8
LC-001-100-D00-0
 62
     7
370
    25
100
AcDbLine
 10
128.691476
 20
288.137428
 30
0.0
 11
129.989783
 21
289.435735
 31
0.0
  0
LINE
  5
66A
330
664
100
AcDbEntity
  8
LC-001-100-D00-0
 62
     7
370
    25
100
AcDbLine
 10
117.76772
 20
286.193928
 30
0.0
 11
118.797698
 21
287.223906
 31
0.0
  0
LINE
  5
66B
330
664
100
AcDbEntity
  8
LC-001-100-D00-0
 62
     7
370
    25
100
AcDbLine
 10
111.770219
 20
289.176683
 30
0.0
 11
112.770219
 21
290.176683
 31
0.0
  0
ENDBLK
  5
666
330
664
100
AcDbEntity
  8
0
100
AcDbBlockEnd
  0
BLOCK
  5
66E
330
66D
100
AcDbEntity
  8
0
100
AcDbBlockBegin
  2
KLON26
 70
     0
 71
     0
 10
0.0
 20
0.0
 30
0.0
  3
KLON26
  1

  4
KLON26
  0
LINE
  5
670
330
66D
100
AcDbEntity
  8
LC-001-100-D00-0
 62
     7
370
    25
100
AcDbLine
 10
-43.757003
 20
286.313816
 30
0.0
 11
-42.867423
 21
287.203396
 31
0.0
  0
LINE
  5
671
330
66D
100
AcDbEntity
  8
LC-001-100-D00-0
 62
     7
370
    25
100
AcDbLine
 10
-51.278371
 20
287.772704
 30
0.0
 11
-50.43524
 21
288.615834
 31
0.0
  0
LINE
  5
672
330
66D
100
AcDbEntity
  8
LC-001-100-D00-0
 62
     7
370
    25
100
AcDbLine
 10
-58.684422
 20
289.346909
 30
0.0
 11
-57.841292
 21
290.190039
 31
0.0
  0
LINE
  5
673
330
66D
100
AcDbEntity
  8
LC-001-100-D00-0
 62
     7
370
    25
100
AcDbLine
 10
-66.048389
 20
290.963198
 30
0.0
 11
-65.247343
 21
291.764244
 31
0.0
  0
ENDBLK
  5
66F
330
66D
100
AcDbEntity
  8
0
100
AcDbBlockEnd
  0
BLOCK
  5
677
330
676
100
AcDbEntity
  8
0
100
AcDbBlockBegin
  2
KLON27
 70
     0
 71
     0
 10
0.0
 20
0.0
 30
0.0
  3
KLON27
  1

  4
KLON27
  0
LINE
  5
679
330
676
100
AcDbEntity
  8
LC-001-100-D00-0
 62
     7
370
    25
100
AcDbLine
 10
106.026399
 20
274.452607
 30
0.0
 11
109.848607
 21
278.274815
 31
0.0
  0
LINE
  5
67A
330
676
100
AcDbEntity
  8
LC-001-100-D00-0
 62
     7
370
    25
100
AcDbLine
 10
110.048928
 20
278.475136
 30
0.0
 11
110.767645
 21
279.193853
 31
0.0
  0
LINE
  5
67B
330
676
100
AcDbEntity
  8
LC-001-100-D00-0
 62
     7
370
    25
100
AcDbLine
 10
105.595928
 20
283.002392
 30
0.0
 11
109.848607
 21
287.255071
 31
0.0
  0
LINE
  5
67C
330
676
100
AcDbEntity
  8
LC-001-100-D00-0
 62
     7
370
    25
100
AcDbLine
 10
110.09011
 20
287.496574
 30
0.0
 11
110.780629
 21
288.187093
 31
0.0
  0
LINE
  5
67D
330
676
100
AcDbEntity
  8
LC-001-100-D00-0
 62
     7
370
    25
100
AcDbLine
 10
112.770219
 20
290.176683
 30
0.0
 11
113.098607
 21
290.505071
 31
0.0
  0
LINE
  5
67E
330
676
100
AcDbEntity
  8
LC-001-100-D00-0
 62
     7
370
    25
100
AcDbLine
 10
103.789963
 20
290.176683
 30
0.0
 11
106.075175
 21
292.461895
 31
0.0
  0
ENDBLK
  5
678
330
676
100
AcDbEntity
  8
0
100
AcDbBlockEnd
  0
BLOCK
  5
681
330
680
100
AcDbEntity
  8
0
100
AcDbBlockBegin
  2
KLON28
 70
     0
 71
     0
 10
0.0
 20
0.0
 30
0.0
  3
KLON28
  1

  4
KLON28
  0
LINE
  5
683
330
680
100
AcDbEntity
  8
LC-001-100-D00-0
 62
     7
370
    25
100
AcDbLine
 10
62.848607
 20
69.630205
 30
0.0
 11
65.848607
 21
72.630205
 31
0.0
  0
LINE
  5
684
330
680
100
AcDbEntity
  8
LC-001-100-D00-0
 62
     7
370
    25
100
AcDbLine
 10
62.848607
 20
78.610461
 30
0.0
 11
65.848607
 21
81.610461
 31
0.0
  0
LINE
  5
685
330
680
100
AcDbEntity
  8
LC-001-100-D00-0
 62
     7
370
    25
100
AcDbLine
 10
62.848607
 20
87.590717
 30
0.0
 11
65.848607
 21
90.590717
 31
0.0
  0
LINE
  5
686
330
680
100
AcDbEntity
  8
LC-001-100-D00-0
 62
     7
370
    25
100
AcDbLine
 10
62.848607
 20
96.570973
 30
0.0
 11
65.848607
 21
99.570973
 31
0.0
  0
LINE
  5
687
330
680
100
AcDbEntity
  8
LC-001-100-D00-0
 62
     7
370
    25
100
AcDbLine
 10
62.848607
 20
105.551229
 30
0.0
 11
65.848607
 21
108.551229
 31
0.0
  0
LINE
  5
688
330
680
100
AcDbEntity
  8
LC-001-100-D00-0
 62
     7
370
    25
100
AcDbLine
 10
62.848607
 20
114.531485
 30
0.0
 11
65.848607
 21
117.531485
 31
0.0
  0
LINE
  5
689
330
680
100
AcDbEntity
  8
LC-001-100-D00-0
 62
     7
370
    25
100
AcDbLine
 10
62.848607
 20
123.511741
 30
0.0
 11
65.848607
 21
126.511741
 31
0.0
  0
LINE
  5
68A
330
680
100
AcDbEntity
  8
LC-001-100-D00-0
 62
     7
370
    25
100
AcDbLine
 10
62.848607
 20
132.491998
 30
0.0
 11
65.848607
 21
135.491998
 31
0.0
  0
LINE
  5
68B
330
680
100
AcDbEntity
  8
LC-001-100-D00-0
 62
     7
370
    25
100
AcDbLine
 10
62.848607
 20
141.472254
 30
0.0
 11
65.848607
 21
144.472254
 31
0.0
  0
LINE
  5
68C
330
680
100
AcDbEntity
  8
LC-001-100-D00-0
 62
     7
370
    25
100
AcDbLine
 10
62.848607
 20
150.45251
 30
0.0
 11
65.848607
 21
153.45251
 31
0.0
  0
LINE
  5
68D
330
680
100
AcDbEntity
  8
LC-001-100-D00-0
 62
     7
370
    25
100
AcDbLine
 10
62.848607
 20
159.432766
 30
0.0
 11
65.848607
 21
162.432766
 31
0.0
  0
LINE
  5
68E
330
680
100
AcDbEntity
  8
LC-001-100-D00-0
 62
     7
370
    25
100
AcDbLine
 10
62.848607
 20
168.413022
 30
0.0
 11
65.848607
 21
171.413022
 31
0.0
  0
LINE
  5
68F
330
680
100
AcDbEntity
  8
LC-001-100-D00-0
 62
     7
370
    25
100
AcDbLine
 10
62.848607
 20
177.393278
 30
0.0
 11
65.848607
 21
180.393278
 31
0.0
  0
LINE
  5
690
330
680
100
AcDbEntity
  8
LC-001-100-D00-0
 62
     7
370
    25
100
AcDbLine
 10
62.848607
 20
186.373534
 30
0.0
 11
65.848607
 21
189.373534
 31
0.0
  0
LINE
  5
691
330
680
100
AcDbEntity
  8
LC-001-100-D00-0
 62
     7
370
    25
100
AcDbLine
 10
62.848607
 20
195.35379
 30
0.0
 11
65.848607
 21
198.35379
 31
0.0
  0
LINE
  5
692
330
680
100
AcDbEntity
  8
LC-001-100-D00-0
 62
     7
370
    25
100
AcDbLine
 10
62.848607
 20
204.334046
 30
0.0
 11
65.848607
 21
207.334046
 31
0.0
  0
LINE
  5
693
330
680
100
AcDbEntity
  8
LC-001-100-D00-0
 62
     7
370
    25
100
AcDbLine
 10
143.991243
 20
285.476683
 30
0.0
 11
146.944791
 21
288.430231
 31
0.0
  0
LINE
  5
694
330
680
100
AcDbEntity
  8
LC-001-100-D00-0
 62
     7
370
    25
100
AcDbLine
 10
62.848607
 20
213.314303
 30
0.0
 11
65.848607
 21
216.314303
 31
0.0
  0
LINE
  5
695
330
680
100
AcDbEntity
  8
LC-001-100-D00-0
 62
     7
370
    25
100
AcDbLine
 10
131.967536
 20
282.433232
 30
0.0
 11
135.949142
 21
286.414838
 31
0.0
  0
LINE
  5
696
330
680
100
AcDbEntity
  8
LC-001-100-D00-0
 62
     7
370
    25
100
AcDbLine
 10
62.848607
 20
222.294559
 30
0.0
 11
65.848607
 21
225.294559
 31
0.0
  0
LINE
  5
697
330
680
100
AcDbEntity
  8
LC-001-100-D00-0
 62
     7
370
    25
100
AcDbLine
 10
107.887699
 20
267.333651
 30
0.0
 11
115.098607
 21
274.544559
 31
0.0
  0
LINE
  5
698
330
680
100
AcDbEntity
  8
LC-001-100-D00-0
 62
     7
370
    25
100
AcDbLine
 10
118.030731
 20
277.476683
 30
0.0
 11
124.217179
 21
283.66313
 31
0.0
  0
LINE
  5
699
330
680
100
AcDbEntity
  8
LC-001-100-D00-0
 62
     7
370
    25
100
AcDbLine
 10
62.848607
 20
231.274815
 30
0.0
 11
65.848607
 21
234.274815
 31
0.0
  0
LINE
  5
69A
330
680
100
AcDbEntity
  8
LC-001-100-D00-0
 62
     7
370
    25
100
AcDbLine
 10
100.750475
 20
269.176683
 30
0.0
 11
105.098607
 21
273.524815
 31
0.0
  0
LINE
  5
69B
330
680
100
AcDbEntity
  8
LC-001-100-D00-0
 62
     7
370
    25
100
AcDbLine
 10
110.098607
 20
278.524815
 30
0.0
 11
114.098607
 21
282.524815
 31
0.0
  0
LINE
  5
69C
330
680
100
AcDbEntity
  8
LC-001-100-D00-0
 62
     7
370
    25
100
AcDbLine
 10
62.848607
 20
240.255071
 30
0.0
 11
65.848607
 21
243.255071
 31
0.0
  0
LINE
  5
69D
330
680
100
AcDbEntity
  8
LC-001-100-D00-0
 62
     7
370
    25
100
AcDbLine
 10
91.770218
 20
269.176683
 30
0.0
 11
94.770219
 21
272.176683
 31
0.0
  0
LINE
  5
69E
330
680
100
AcDbEntity
  8
LC-001-100-D00-0
 62
     7
370
    25
100
AcDbLine
 10
97.598607
 20
275.005071
 30
0.0
 11
105.098607
 21
282.505071
 31
0.0
  0
LINE
  5
69F
330
680
100
AcDbEntity
  8
LC-001-100-D00-0
 62
     7
370
    25
100
AcDbLine
 10
62.848607
 20
249.235327
 30
0.0
 11
65.848607
 21
252.235327
 31
0.0
  0
LINE
  5
6A0
330
680
100
AcDbEntity
  8
LC-001-100-D00-0
 62
     7
370
    25
100
AcDbLine
 10
82.789962
 20
269.176683
 30
0.0
 11
85.789963
 21
272.176683
 31
0.0
  0
LINE
  5
6A1
330
680
100
AcDbEntity
  8
LC-001-100-D00-0
 62
     7
370
    25
100
AcDbLine
 10
97.598607
 20
283.985327
 30
0.0
 11
98.789963
 21
285.176683
 31
0.0
  0
LINE
  5
6A2
330
680
100
AcDbEntity
  8
LC-001-100-D00-0
 62
     7
370
    25
100
AcDbLine
 10
62.848607
 20
258.215583
 30
0.0
 11
65.848607
 21
261.215583
 31
0.0
  0
LINE
  5
6A3
330
680
100
AcDbEntity
  8
LC-001-100-D00-0
 62
     7
370
    25
100
AcDbLine
 10
73.809706
 20
269.176683
 30
0.0
 11
76.809706
 21
272.176683
 31
0.0
  0
LINE
  5
6A4
330
680
100
AcDbEntity
  8
LC-001-100-D00-0
 62
     7
370
    25
100
AcDbLine
 10
62.848607
 20
267.195839
 30
0.0
 11
67.82945
 21
272.176683
 31
0.0
  0
ENDBLK
  5
682
330
680
100
AcDbEntity
  8
0
100
AcDbBlockEnd
  0
BLOCK
  5
6A7
330
6A6
100
AcDbEntity
  8
0
100
AcDbBlockBegin
  2
KLON29
 70
     0
 71
     0
 10
0.0
 20
0.0
 30
0.0
  3
KLON29
  1

  4
KLON29
  0
LINE
  5
6A9
330
6A6
100
AcDbEntity
  8
LC-001-100-D00-0
 62
     7
370
    25
100
AcDbLine
 10
10.094788
 20
70.757922
 30
0.0
 11
12.848607
 21
73.511741
 31
0.0
  0
LINE
  5
6AA
330
6A6
100
AcDbEntity
  8
LC-001-100-D00-0
 62
     7
370
    25
100
AcDbLine
 10
9.848607
 20
79.491998
 30
0.0
 11
12.848607
 21
82.491998
 31
0.0
  0
LINE
  5
6AB
330
6A6
100
AcDbEntity
  8
LC-001-100-D00-0
 62
     7
370
    25
100
AcDbLine
 10
9.848607
 20
88.472254
 30
0.0
 11
12.848607
 21
91.472254
 31
0.0
  0
LINE
  5
6AC
330
6A6
100
AcDbEntity
  8
LC-001-100-D00-0
 62
     7
370
    25
100
AcDbLine
 10
9.848607
 20
97.45251
 30
0.0
 11
12.848607
 21
100.45251
 31
0.0
  0
LINE
  5
6AD
330
6A6
100
AcDbEntity
  8
LC-001-100-D00-0
 62
     7
370
    25
100
AcDbLine
 10
9.848607
 20
106.432766
 30
0.0
 11
12.848607
 21
109.432766
 31
0.0
  0
LINE
  5
6AE
330
6A6
100
AcDbEntity
  8
LC-001-100-D00-0
 62
     7
370
    25
100
AcDbLine
 10
9.848607
 20
115.413022
 30
0.0
 11
12.848607
 21
118.413022
 31
0.0
  0
LINE
  5
6AF
330
6A6
100
AcDbEntity
  8
LC-001-100-D00-0
 62
     7
370
    25
100
AcDbLine
 10
9.848607
 20
124.393278
 30
0.0
 11
12.848607
 21
127.393278
 31
0.0
  0
LINE
  5
6B0
330
6A6
100
AcDbEntity
  8
LC-001-100-D00-0
 62
     7
370
    25
100
AcDbLine
 10
9.848607
 20
133.373534
 30
0.0
 11
12.848607
 21
136.373534
 31
0.0
  0
LINE
  5
6B1
330
6A6
100
AcDbEntity
  8
LC-001-100-D00-0
 62
     7
370
    25
100
AcDbLine
 10
9.848607
 20
142.35379
 30
0.0
 11
12.848607
 21
145.35379
 31
0.0
  0
LINE
  5
6B2
330
6A6
100
AcDbEntity
  8
LC-001-100-D00-0
 62
     7
370
    25
100
AcDbLine
 10
9.848607
 20
151.334046
 30
0.0
 11
12.848607
 21
154.334046
 31
0.0
  0
LINE
  5
6B3
330
6A6
100
AcDbEntity
  8
LC-001-100-D00-0
 62
     7
370
    25
100
AcDbLine
 10
9.848607
 20
160.314303
 30
0.0
 11
12.848607
 21
163.314303
 31
0.0
  0
LINE
  5
6B4
330
6A6
100
AcDbEntity
  8
LC-001-100-D00-0
 62
     7
370
    25
100
AcDbLine
 10
9.848607
 20
169.294559
 30
0.0
 11
12.848607
 21
172.294559
 31
0.0
  0
LINE
  5
6B5
330
6A6
100
AcDbEntity
  8
LC-001-100-D00-0
 62
     7
370
    25
100
AcDbLine
 10
9.848607
 20
178.274815
 30
0.0
 11
12.848607
 21
181.274815
 31
0.0
  0
LINE
  5
6B6
330
6A6
100
AcDbEntity
  8
LC-001-100-D00-0
 62
     7
370
    25
100
AcDbLine
 10
9.848607
 20
187.255071
 30
0.0
 11
12.848607
 21
190.255071
 31
0.0
  0
LINE
  5
6B7
330
6A6
100
AcDbEntity
  8
LC-001-100-D00-0
 62
     7
370
    25
100
AcDbLine
 10
9.848607
 20
196.235327
 30
0.0
 11
12.848607
 21
199.235327
 31
0.0
  0
LINE
  5
6B8
330
6A6
100
AcDbEntity
  8
LC-001-100-D00-0
 62
     7
370
    25
100
AcDbLine
 10
9.848607
 20
205.215583
 30
0.0
 11
12.848607
 21
208.215583
 31
0.0
  0
LINE
  5
6B9
330
6A6
100
AcDbEntity
  8
LC-001-100-D00-0
 62
     7
370
    25
100
AcDbLine
 10
9.848607
 20
214.195839
 30
0.0
 11
12.848607
 21
217.195839
 31
0.0
  0
LINE
  5
6BA
330
6A6
100
AcDbEntity
  8
LC-001-100-D00-0
 62
     7
370
    25
100
AcDbLine
 10
9.848607
 20
223.176095
 30
0.0
 11
12.848607
 21
226.176095
 31
0.0
  0
LINE
  5
6BB
330
6A6
100
AcDbEntity
  8
LC-001-100-D00-0
 62
     7
370
    25
100
AcDbLine
 10
9.848607
 20
232.156352
 30
0.0
 11
12.848607
 21
235.156352
 31
0.0
  0
LINE
  5
6BC
330
6A6
100
AcDbEntity
  8
LC-001-100-D00-0
 62
     7
370
    25
100
AcDbLine
 10
9.848607
 20
241.136608
 30
0.0
 11
12.848607
 21
244.136608
 31
0.0
  0
LINE
  5
6BD
330
6A6
100
AcDbEntity
  8
LC-001-100-D00-0
 62
     7
370
    25
100
AcDbLine
 10
9.848607
 20
250.116864
 30
0.0
 11
12.848607
 21
253.116864
 31
0.0
  0
LINE
  5
6BE
330
6A6
100
AcDbEntity
  8
LC-001-100-D00-0
 62
     7
370
    25
100
AcDbLine
 10
9.848607
 20
259.09712
 30
0.0
 11
12.848607
 21
262.09712
 31
0.0
  0
LINE
  5
6BF
330
6A6
100
AcDbEntity
  8
LC-001-100-D00-0
 62
     7
370
    25
100
AcDbLine
 10
9.848607
 20
268.077376
 30
0.0
 11
12.848607
 21
271.077376
 31
0.0
  0
LINE
  5
6C0
330
6A6
100
AcDbEntity
  8
LC-001-100-D00-0
 62
     7
370
    25
100
AcDbLine
 10
1.967657
 20
269.176683
 30
0.0
 11
4.967657
 21
272.176683
 31
0.0
  0
LINE
  5
6C1
330
6A6
100
AcDbEntity
  8
LC-001-100-D00-0
 62
     7
370
    25
100
AcDbLine
 10
-7.012599
 20
269.176683
 30
0.0
 11
-4.012599
 21
272.176683
 31
0.0
  0
LINE
  5
6C2
330
6A6
100
AcDbEntity
  8
LC-001-100-D00-0
 62
     7
370
    25
100
AcDbLine
 10
-15.992855
 20
269.176683
 30
0.0
 11
-12.992855
 21
272.176683
 31
0.0
  0
LINE
  5
6C3
330
6A6
100
AcDbEntity
  8
LC-001-100-D00-0
 62
     7
370
    25
100
AcDbLine
 10
-24.973111
 20
269.176683
 30
0.0
 11
-21.901393
 21
272.248401
 31
0.0
  0
LINE
  5
6C4
330
6A6
100
AcDbEntity
  8
LC-001-100-D00-0
 62
     7
370
    25
100
AcDbLine
 10
-34.963289
 20
268.166761
 30
0.0
 11
-32.953367
 21
270.176683
 31
0.0
  0
LINE
  5
6C5
330
6A6
100
AcDbEntity
  8
LC-001-100-D00-0
 62
     7
370
    25
100
AcDbLine
 10
-29.401393
 20
273.728657
 30
0.0
 11
-21.901393
 21
281.228657
 31
0.0
  0
LINE
  5
6C6
330
6A6
100
AcDbEntity
  8
LC-001-100-D00-0
 62
     7
370
    25
100
AcDbLine
 10
-39.401393
 20
272.708913
 30
0.0
 11
-34.401393
 21
277.708913
 31
0.0
  0
LINE
  5
6C7
330
6A6
100
AcDbEntity
  8
LC-001-100-D00-0
 62
     7
370
    25
100
AcDbLine
 10
-29.401393
 20
282.708913
 30
0.0
 11
-28.533623
 21
283.576683
 31
0.0
  0
LINE
  5
6C8
330
6A6
100
AcDbEntity
  8
LC-001-100-D00-0
 62
     7
370
    25
100
AcDbLine
 10
-24.901393
 20
287.208913
 30
0.0
 11
-22.933623
 21
289.176683
 31
0.0
  0
LINE
  5
6C9
330
6A6
100
AcDbEntity
  8
LC-001-100-D00-0
 62
     7
370
    25
100
AcDbLine
 10
-43.613879
 20
277.476683
 30
0.0
 11
-41.013879
 21
280.076683
 31
0.0
  0
LINE
  5
6CA
330
6A6
100
AcDbEntity
  8
LC-001-100-D00-0
 62
     7
370
    25
100
AcDbLine
 10
-38.401393
 20
282.689169
 30
0.0
 11
-37.513879
 21
283.576683
 31
0.0
  0
LINE
  5
6CB
330
6A6
100
AcDbEntity
  8
LC-001-100-D00-0
 62
     7
370
    25
100
AcDbLine
 10
-49.622764
 20
280.448054
 30
0.0
 11
-46.494135
 21
283.576683
 31
0.0
  0
LINE
  5
6CC
330
6A6
100
AcDbEntity
  8
LC-001-100-D00-0
 62
     7
370
    25
100
AcDbLine
 10
-56.544403
 20
282.506672
 30
0.0
 11
-54.083118
 21
284.967956
 31
0.0
  0
LINE
  5
6CD
330
6A6
100
AcDbEntity
  8
LC-001-100-D00-0
 62
     7
370
    25
100
AcDbLine
 10
-63.626907
 20
284.404423
 30
0.0
 11
-61.357243
 21
286.674087
 31
0.0
  0
LINE
  5
6CE
330
6A6
100
AcDbEntity
  8
LC-001-100-D00-0
 62
     7
370
    25
100
AcDbLine
 10
-71.534904
 20
285.476683
 30
0.0
 11
-68.631369
 21
288.380218
 31
0.0
  0
ENDBLK
  5
6A8
330
6A6
100
AcDbEntity
  8
0
100
AcDbBlockEnd
  0
BLOCK
  5
6D1
330
6D0
100
AcDbEntity
  8
0
100
AcDbBlockBegin
  2
KLON30
 70
     0
 71
     0
 10
0.0
 20
0.0
 30
0.0
  3
KLON30
  1

  4
KLON30
  0
LINE
  5
6D3
330
6D0
100
AcDbEntity
  8
LC-001-100-D00-0
 62
     7
370
    25
100
AcDbLine
 10
65.831595
 20
72.613193
 30
0.0
 11
67.348607
 21
74.130205
 31
0.0
  0
LINE
  5
6D4
330
6D0
100
AcDbEntity
  8
LC-001-100-D00-0
 62
     7
370
    25
100
AcDbLine
 10
69.315654
 20
76.097252
 30
0.0
 11
71.395085
 21
78.176683
 31
0.0
  0
LINE
  5
6D5
330
6D0
100
AcDbEntity
  8
LC-001-100-D00-0
 62
     7
370
    25
100
AcDbLine
 10
65.848607
 20
81.610461
 30
0.0
 11
67.348607
 21
83.110461
 31
0.0
  0
LINE
  5
6D6
330
6D0
100
AcDbEntity
  8
LC-001-100-D00-0
 62
     7
370
    25
100
AcDbLine
 10
73.514102
 20
89.275956
 30
0.0
 11
74.616355
 21
90.378208
 31
0.0
  0
LINE
  5
6D7
330
6D0
100
AcDbEntity
  8
LC-001-100-D00-0
 62
     7
370
    25
100
AcDbLine
 10
65.848607
 20
90.590717
 30
0.0
 11
67.348607
 21
92.090717
 31
0.0
  0
LINE
  5
6D8
330
6D0
100
AcDbEntity
  8
LC-001-100-D00-0
 62
     7
370
    25
100
AcDbLine
 10
65.848607
 20
99.570973
 30
0.0
 11
69.025745
 21
102.748112
 31
0.0
  0
LINE
  5
6D9
330
6D0
100
AcDbEntity
  8
LC-001-100-D00-0
 62
     7
370
    25
100
AcDbLine
 10
65.848607
 20
108.551229
 30
0.0
 11
67.348607
 21
110.051229
 31
0.0
  0
LINE
  5
6DA
330
6D0
100
AcDbEntity
  8
LC-001-100-D00-0
 62
     7
370
    25
100
AcDbLine
 10
70.505201
 20
113.207823
 30
0.0
 11
72.331203
 21
115.033826
 31
0.0
  0
LINE
  5
6DB
330
6D0
100
AcDbEntity
  8
LC-001-100-D00-0
 62
     7
370
    25
100
AcDbLine
 10
65.848607
 20
117.531485
 30
0.0
 11
67.348607
 21
119.031485
 31
0.0
  0
LINE
  5
6DC
330
6D0
100
AcDbEntity
  8
LC-001-100-D00-0
 62
     7
370
    25
100
AcDbLine
 10
65.848607
 20
126.511741
 30
0.0
 11
67.348607
 21
128.011741
 31
0.0
  0
LINE
  5
6DD
330
6D0
100
AcDbEntity
  8
LC-001-100-D00-0
 62
     7
370
    25
100
AcDbLine
 10
65.848607
 20
135.491998
 30
0.0
 11
69.350317
 21
138.993708
 31
0.0
  0
LINE
  5
6DE
330
6D0
100
AcDbEntity
  8
LC-001-100-D00-0
 62
     7
370
    25
100
AcDbLine
 10
65.848607
 20
144.472254
 30
0.0
 11
67.348607
 21
145.972254
 31
0.0
  0
LINE
  5
6DF
330
6D0
100
AcDbEntity
  8
LC-001-100-D00-0
 62
     7
370
    25
100
AcDbLine
 10
65.848607
 20
153.45251
 30
0.0
 11
67.348607
 21
154.95251
 31
0.0
  0
LINE
  5
6E0
330
6D0
100
AcDbEntity
  8
LC-001-100-D00-0
 62
     7
370
    25
100
AcDbLine
 10
65.848607
 20
162.432766
 30
0.0
 11
67.638713
 21
164.222872
 31
0.0
  0
LINE
  5
6E1
330
6D0
100
AcDbEntity
  8
LC-001-100-D00-0
 62
     7
370
    25
100
AcDbLine
 10
65.848607
 20
171.413022
 30
0.0
 11
67.348607
 21
172.913022
 31
0.0
  0
LINE
  5
6E2
330
6D0
100
AcDbEntity
  8
LC-001-100-D00-0
 62
     7
370
    25
100
AcDbLine
 10
68.685106
 20
174.249521
 30
0.0
 11
69.350317
 21
174.914733
 31
0.0
  0
LINE
  5
6E3
330
6D0
100
AcDbEntity
  8
LC-001-100-D00-0
 62
     7
370
    25
100
AcDbLine
 10
65.848607
 20
180.393278
 30
0.0
 11
67.348607
 21
181.893278
 31
0.0
  0
LINE
  5
6E4
330
6D0
100
AcDbEntity
  8
LC-001-100-D00-0
 62
     7
370
    25
100
AcDbLine
 10
65.848607
 20
189.373534
 30
0.0
 11
67.348607
 21
190.873534
 31
0.0
  0
LINE
  5
6E5
330
6D0
100
AcDbEntity
  8
LC-001-100-D00-0
 62
     7
370
    25
100
AcDbLine
 10
65.848607
 20
198.35379
 30
0.0
 11
68.528642
 21
201.033826
 31
0.0
  0
LINE
  5
6E6
330
6D0
100
AcDbEntity
  8
LC-001-100-D00-0
 62
     7
370
    25
100
AcDbLine
 10
65.848607
 20
207.334046
 30
0.0
 11
67.348607
 21
208.834046
 31
0.0
  0
LINE
  5
6E7
330
6D0
100
AcDbEntity
  8
LC-001-100-D00-0
 62
     7
370
    25
100
AcDbLine
 10
69.873913
 20
211.359353
 30
0.0
 11
71.8341
 21
213.31954
 31
0.0
  0
LINE
  5
6E8
330
6D0
100
AcDbEntity
  8
LC-001-100-D00-0
 62
     7
370
    25
100
AcDbLine
 10
65.848607
 20
216.314303
 30
0.0
 11
67.348607
 21
217.814303
 31
0.0
  0
LINE
  5
6E9
330
6D0
100
AcDbEntity
  8
LC-001-100-D00-0
 62
     7
370
    25
100
AcDbLine
 10
74.071623
 20
224.537318
 30
0.0
 11
74.809073
 21
225.274769
 31
0.0
  0
LINE
  5
6EA
330
6D0
100
AcDbEntity
  8
LC-001-100-D00-0
 62
     7
370
    25
100
AcDbLine
 10
65.848607
 20
225.294559
 30
0.0
 11
67.348607
 21
226.794559
 31
0.0
  0
LINE
  5
6EB
330
6D0
100
AcDbEntity
  8
LC-001-100-D00-0
 62
     7
370
    25
100
AcDbLine
 10
65.848607
 20
234.274815
 30
0.0
 11
69.464761
 21
237.890969
 31
0.0
  0
LINE
  5
6EC
330
6D0
100
AcDbEntity
  8
LC-001-100-D00-0
 62
     7
370
    25
100
AcDbLine
 10
65.848607
 20
243.255071
 30
0.0
 11
67.348607
 21
244.755071
 31
0.0
  0
LINE
  5
6ED
330
6D0
100
AcDbEntity
  8
LC-001-100-D00-0
 62
     7
370
    25
100
AcDbLine
 10
71.061981
 20
248.468445
 30
0.0
 11
72.770218
 21
250.176683
 31
0.0
  0
ENDBLK
  5
6D2
330
6D0
100
AcDbEntity
  8
0
100
AcDbBlockEnd
  0
BLOCK
  5
6F0
330
6EF
100
AcDbEntity
  8
0
100
AcDbBlockBegin
  2
KLON31
 70
     0
 71
     0
 10
0.0
 20
0.0
 30
0.0
  3
KLON31
  1

  4
KLON31
  0
LINE
  5
6F2
330
6EF
100
AcDbEntity
  8
LC-001-100-D00-0
 62
     7
370
    25
100
AcDbLine
 10
8.348607
 20
69.011741
 30
0.0
 11
10.306113
 21
70.969247
 31
0.0
  0
LINE
  5
6F3
330
6EF
100
AcDbEntity
  8
LC-001-100-D00-0
 62
     7
370
    25
100
AcDbLine
 10
6.441187
 20
76.084578
 30
0.0
 11
9.848607
 21
79.491998
 31
0.0
  0
LINE
  5
6F4
330
6EF
100
AcDbEntity
  8
LC-001-100-D00-0
 62
     7
370
    25
100
AcDbLine
 10
8.348607
 20
86.972254
 30
0.0
 11
9.848607
 21
88.472254
 31
0.0
  0
LINE
  5
6F5
330
6EF
100
AcDbEntity
  8
LC-001-100-D00-0
 62
     7
370
    25
100
AcDbLine
 10
1.76164
 20
89.365542
 30
0.0
 11
2.858494
 21
90.462397
 31
0.0
  0
LINE
  5
6F6
330
6EF
100
AcDbEntity
  8
LC-001-100-D00-0
 62
     7
370
    25
100
AcDbLine
 10
8.348607
 20
95.95251
 30
0.0
 11
9.848607
 21
97.45251
 31
0.0
  0
LINE
  5
6F7
330
6EF
100
AcDbEntity
  8
LC-001-100-D00-0
 62
     7
370
    25
100
AcDbLine
 10
4.487664
 20
101.071823
 30
0.0
 11
6.163953
 21
102.748112
 31
0.0
  0
LINE
  5
6F8
330
6EF
100
AcDbEntity
  8
LC-001-100-D00-0
 62
     7
370
    25
100
AcDbLine
 10
8.348607
 20
104.932766
 30
0.0
 11
9.848607
 21
106.432766
 31
0.0
  0
LINE
  5
6F9
330
6EF
100
AcDbEntity
  8
LC-001-100-D00-0
 62
     7
370
    25
100
AcDbLine
 10
7.213688
 20
112.778103
 30
0.0
 11
9.848607
 21
115.413022
 31
0.0
  0
LINE
  5
6FA
330
6EF
100
AcDbEntity
  8
LC-001-100-D00-0
 62
     7
370
    25
100
AcDbLine
 10
8.348607
 20
122.893278
 30
0.0
 11
9.848607
 21
124.393278
 31
0.0
  0
LINE
  5
6FB
330
6EF
100
AcDbEntity
  8
LC-001-100-D00-0
 62
     7
370
    25
100
AcDbLine
 10
2.53366
 20
126.058587
 30
0.0
 11
3.794612
 21
127.31954
 31
0.0
  0
LINE
  5
6FC
330
6EF
100
AcDbEntity
  8
LC-001-100-D00-0
 62
     7
370
    25
100
AcDbLine
 10
8.348607
 20
131.873534
 30
0.0
 11
9.848607
 21
133.373534
 31
0.0
  0
LINE
  5
6FD
330
6EF
100
AcDbEntity
  8
LC-001-100-D00-0
 62
     7
370
    25
100
AcDbLine
 10
5.259685
 20
137.764868
 30
0.0
 11
7.100071
 21
139.605255
 31
0.0
  0
LINE
  5
6FE
330
6EF
100
AcDbEntity
  8
LC-001-100-D00-0
 62
     7
370
    25
100
AcDbLine
 10
8.348607
 20
140.85379
 30
0.0
 11
9.848607
 21
142.35379
 31
0.0
  0
LINE
  5
6FF
330
6EF
100
AcDbEntity
  8
LC-001-100-D00-0
 62
     7
370
    25
100
AcDbLine
 10
7.984779
 20
149.470219
 30
0.0
 11
9.848607
 21
151.334046
 31
0.0
  0
LINE
  5
700
330
6EF
100
AcDbEntity
  8
LC-001-100-D00-0
 62
     7
370
    25
100
AcDbLine
 10
0.862487
 20
151.328182
 30
0.0
 11
1.425273
 21
151.890969
 31
0.0
  0
LINE
  5
701
330
6EF
100
AcDbEntity
  8
LC-001-100-D00-0
 62
     7
370
    25
100
AcDbLine
 10
8.348607
 20
158.814303
 30
0.0
 11
9.848607
 21
160.314303
 31
0.0
  0
LINE
  5
702
330
6EF
100
AcDbEntity
  8
LC-001-100-D00-0
 62
     7
370
    25
100
AcDbLine
 10
3.305681
 20
162.751632
 30
0.0
 11
4.730731
 21
164.176683
 31
0.0
  0
LINE
  5
703
330
6EF
100
AcDbEntity
  8
LC-001-100-D00-0
 62
     7
370
    25
100
AcDbLine
 10
8.348607
 20
167.794559
 30
0.0
 11
9.848607
 21
169.294559
 31
0.0
  0
LINE
  5
704
330
6EF
100
AcDbEntity
  8
LC-001-100-D00-0
 62
     7
370
    25
100
AcDbLine
 10
6.031704
 20
174.457912
 30
0.0
 11
8.109888
 21
176.536096
 31
0.0
  0
LINE
  5
705
330
6EF
100
AcDbEntity
  8
LC-001-100-D00-0
 62
     7
370
    25
100
AcDbLine
 10
8.274907
 20
176.701115
 30
0.0
 11
9.848607
 21
178.274815
 31
0.0
  0
LINE
  5
706
330
6EF
100
AcDbEntity
  8
LC-001-100-D00-0
 62
     7
370
    25
100
AcDbLine
 10
8.348607
 20
185.755071
 30
0.0
 11
9.848607
 21
187.255071
 31
0.0
  0
LINE
  5
707
330
6EF
100
AcDbEntity
  8
LC-001-100-D00-0
 62
     7
370
    25
100
AcDbLine
 10
1.351677
 20
187.738398
 30
0.0
 11
2.361391
 21
188.748112
 31
0.0
  0
LINE
  5
708
330
6EF
100
AcDbEntity
  8
LC-001-100-D00-0
 62
     7
370
    25
100
AcDbLine
 10
8.348607
 20
194.735327
 30
0.0
 11
9.848607
 21
196.235327
 31
0.0
  0
LINE
  5
709
330
6EF
100
AcDbEntity
  8
LC-001-100-D00-0
 62
     7
370
    25
100
AcDbLine
 10
4.077701
 20
199.444677
 30
0.0
 11
5.666849
 21
201.033826
 31
0.0
  0
LINE
  5
70A
330
6EF
100
AcDbEntity
  8
LC-001-100-D00-0
 62
     7
370
    25
100
AcDbLine
 10
8.348607
 20
203.715583
 30
0.0
 11
9.848607
 21
205.215583
 31
0.0
  0
LINE
  5
70B
330
6EF
100
AcDbEntity
  8
LC-001-100-D00-0
 62
     7
370
    25
100
AcDbLine
 10
6.803725
 20
211.150957
 30
0.0
 11
9.848607
 21
214.195839
 31
0.0
  0
LINE
  5
70C
330
6EF
100
AcDbEntity
  8
LC-001-100-D00-0
 62
     7
370
    25
100
AcDbLine
 10
8.348607
 20
221.676095
 30
0.0
 11
9.848607
 21
223.176095
 31
0.0
  0
LINE
  5
70D
330
6EF
100
AcDbEntity
  8
LC-001-100-D00-0
 62
     7
370
    25
100
AcDbLine
 10
2.123698
 20
224.431443
 30
0.0
 11
3.29751
 21
225.605255
 31
0.0
  0
LINE
  5
70E
330
6EF
100
AcDbEntity
  8
LC-001-100-D00-0
 62
     7
370
    25
100
AcDbLine
 10
8.348607
 20
230.656352
 30
0.0
 11
9.848607
 21
232.156352
 31
0.0
  0
LINE
  5
70F
330
6EF
100
AcDbEntity
  8
LC-001-100-D00-0
 62
     7
370
    25
100
AcDbLine
 10
4.849722
 20
236.137722
 30
0.0
 11
6.602968
 21
237.890969
 31
0.0
  0
LINE
  5
710
330
6EF
100
AcDbEntity
  8
LC-001-100-D00-0
 62
     7
370
    25
100
AcDbLine
 10
8.348607
 20
239.636608
 30
0.0
 11
9.848607
 21
241.136608
 31
0.0
  0
LINE
  5
711
330
6EF
100
AcDbEntity
  8
LC-001-100-D00-0
 62
     7
370
    25
100
AcDbLine
 10
7.575265
 20
247.843522
 30
0.0
 11
9.848607
 21
250.116864
 31
0.0
  0
ENDBLK
  5
6F1
330
6EF
100
AcDbEntity
  8
0
100
AcDbBlockEnd
  0
BLOCK
  5
725
330
71A
100
AcDbEntity
  8
0
100
AcDbBlockBegin
  2
*D78
 70
     1
 71
     0
 10
0.0
 20
0.0
 30
0.0
  3
*D78
  1

  0
LINE
  5
71B
330
71A
100
AcDbEntity
  8
LC-002-003-----0
 62
     2
370
    -2
100
AcDbLine
 10
9.848608
 20
72.676681
 30
0.0
 11
9.848608
 21
18.140683
 31
0.0
  0
LINE
  5
71C
330
71A
100
AcDbEntity
  8
LC-002-003-----0
 62
     2
370
    -2
100
AcDbLine
 10
65.848607
 20
72.676681
 30
0.0
 11
65.848607
 21
18.140683
 31
0.0
  0
LINE
  5
71D
330
71A
100
AcDbEntity
  8
LC-002-003-----0
 62
     2
370
    -2
100
AcDbLine
 10
-18.151392
 20
21.740683
 30
0.0
 11
-46.151392
 21
21.740683
 31
0.0
  0
LINE
  5
71E
330
71A
100
AcDbEntity
  8
LC-002-003-----0
 62
     2
370
    -2
100
AcDbLine
 10
93.848607
 20
21.740683
 30
0.0
 11
152.497981
 21
21.740683
 31
0.0
  0
SOLID
  5
71F
330
71A
100
AcDbEntity
  8
LC-002-003-----0
 62
     2
100
AcDbTrace
 10
-18.151392
 20
17.074016
 30
0.0
 11
-18.151392
 21
26.407349
 31
0.0
 12
9.848608
 22
21.740683
 32
0.0
 13
9.848608
 23
21.740683
 33
0.0
  0
SOLID
  5
720
330
71A
100
AcDbEntity
  8
LC-002-003-----0
 62
     2
100
AcDbTrace
 10
93.848607
 20
26.407349
 30
0.0
 11
93.848607
 21
17.074016
 31
0.0
 12
65.848607
 22
21.740683
 32
0.0
 13
65.848607
 23
21.740683
 33
0.0
  0
MTEXT
  5
721
330
71A
100
AcDbEntity
  8
LC-002-003-----0
 62
     2
100
AcDbMText
 10
129.397122
 20
52.540683
 30
0.0
 40
28.0
 41
0.0
 71
     5
 72
     1
  1
%%c\A1;56
  7
LCTX15-400-0-0pDIN-Schrift
 73
     1
 44
1.0
  0
POINT
  5
722
330
71A
100
AcDbEntity
  8
Defpoints
 62
     0
100
AcDbPoint
 10
9.848608
 20
72.676681
 30
0.0
  0
POINT
  5
723
330
71A
100
AcDbEntity
  8
Defpoints
 62
     0
100
AcDbPoint
 10
65.848607
 20
72.676681
 30
0.0
  0
POINT
  5
724
330
71A
100
AcDbEntity
  8
Defpoints
 62
     0
100
AcDbPoint
 10
65.848607
 20
21.740683
 30
0.0
  0
ENDBLK
  5
726
330
71A
100
AcDbEntity
  8
0
100
AcDbBlockEnd
  0
BLOCK
  5
733
330
728
100
AcDbEntity
  8
0
100
AcDbBlockBegin
  2
*D79
 70
     1
 71
     0
 10
0.0
 20
0.0
 30
0.0
  3
*D79
  1

  0
LINE
  5
729
330
728
100
AcDbEntity
  8
LC-002-003-----0
 62
     2
370
    -2
100
AcDbLine
 10
0.85579
 20
77.676683
 30
0.0
 11
0.9302
 21
-27.654881
 31
0.0
  0
LINE
  5
72A
330
728
100
AcDbEntity
  8
LC-002-003-----0
 62
     2
370
    -2
100
AcDbLine
 10
74.838685
 20
77.728947
 30
0.0
 11
74.913095
 21
-27.602617
 31
0.0
  0
LINE
  5
72B
330
728
100
AcDbEntity
  8
LC-002-003-----0
 62
     2
370
    -2
100
AcDbLine
 10
28.92765
 20
-24.035102
 30
0.0
 11
46.910559
 21
-24.022398
 31
0.0
  0
LINE
  5
72C
330
728
100
AcDbEntity
  8
LC-002-003-----0
 62
     2
370
    -2
100
AcDbLine
 10
74.910552
 20
-24.002618
 30
0.0
 11
120.098596
 21
-23.970696
 31
0.0
  0
SOLID
  5
72D
330
728
100
AcDbEntity
  8
LC-002-003-----0
 62
     2
100
AcDbTrace
 10
28.924353
 20
-19.368437
 30
0.0
 11
28.930946
 21
-28.701768
 31
0.0
 12
0.927657
 22
-24.054882
 32
0.0
 13
0.927657
 23
-24.054882
 33
0.0
  0
SOLID
  5
72E
330
728
100
AcDbEntity
  8
LC-002-003-----0
 62
     2
100
AcDbTrace
 10
46.913856
 20
-28.689064
 30
0.0
 11
46.907262
 21
-19.355733
 31
0.0
 12
74.910552
 22
-24.002618
 32
0.0
 13
74.910552
 23
-24.002618
 33
0.0
  0
MTEXT
  5
72F
330
728
100
AcDbEntity
  8
LC-002-003-----0
 62
     2
100
AcDbMText
 10
82.392225
 20
6.802675
 30
0.0
 40
28.0
 41
0.0
 71
     5
 72
     1
  1
\A1;%%c73,5
  7
LCTX15-400-0-0pDIN-Schrift
 11
0.9999997504736942
 21
0.0007064365148432295
 31
0.0
 73
     1
 44
1.0
  0
POINT
  5
730
330
728
100
AcDbEntity
  8
Defpoints
 62
     0
100
AcDbPoint
 10
0.85579
 20
77.676683
 30
0.0
  0
POINT
  5
731
330
728
100
AcDbEntity
  8
Defpoints
 62
     0
100
AcDbPoint
 10
74.838685
 20
77.728947
 30
0.0
  0
POINT
  5
732
330
728
100
AcDbEntity
  8
Defpoints
 62
     0
100
AcDbPoint
 10
74.910552
 20
-24.002618
 30
0.0
  0
ENDBLK
  5
734
330
728
100
AcDbEntity
  8
0
100
AcDbBlockEnd
  0
BLOCK
  5
740
330
736
100
AcDbEntity
  8
0
100
AcDbBlockBegin
  2
*D80
 70
     1
 71
     0
 10
0.0
 20
0.0
 30
0.0
  3
*D80
  1

  0
LINE
  5
737
330
736
100
AcDbEntity
  8
LC-002-003-----0
 62
     2
370
    -2
100
AcDbLine
 10
-77.151393
 20
285.476683
 30
0.0
 11
-77.151393
 21
390.056683
 31
0.0
  0
LINE
  5
738
330
736
100
AcDbEntity
  8
LC-002-003-----0
 62
     2
370
    -2
100
AcDbLine
 10
152.848607
 20
285.476683
 30
0.0
 11
152.848607
 21
390.056683
 31
0.0
  0
LINE
  5
739
330
736
100
AcDbEntity
  8
LC-002-003-----0
 62
     2
370
    -2
100
AcDbLine
 10
-49.151393
 20
386.456683
 30
0.0
 11
124.848607
 21
386.456683
 31
0.0
  0
SOLID
  5
73A
330
736
100
AcDbEntity
  8
LC-002-003-----0
 62
     2
100
AcDbTrace
 10
-49.151393
 20
391.123349
 30
0.0
 11
-49.151393
 21
381.790016
 31
0.0
 12
-77.151393
 22
386.456683
 32
0.0
 13
-77.151393
 23
386.456683
 33
0.0
  0
SOLID
  5
73B
330
736
100
AcDbEntity
  8
LC-002-003-----0
 62
     2
100
AcDbTrace
 10
124.848607
 20
381.790016
 30
0.0
 11
124.848607
 21
391.123349
 31
0.0
 12
152.848607
 22
386.456683
 32
0.0
 13
152.848607
 23
386.456683
 33
0.0
  0
MTEXT
  5
73C
330
736
100
AcDbEntity
  8
LC-002-003-----0
 62
     2
100
AcDbMText
 10
37.203794
 20
417.256683
 30
0.0
 40
28.0
 41
0.0
 71
     5
 72
     1
  1
%%c\A1;230
  7
LCTX15-400-0-0pDIN-Schrift
 73
     1
 44
1.0
  0
POINT
  5
73D
330
736
100
AcDbEntity
  8
Defpoints
 62
     0
100
AcDbPoint
 10
-77.151393
 20
285.476683
 30
0.0
  0
POINT
  5
73E
330
736
100
AcDbEntity
  8
Defpoints
 62
     0
100
AcDbPoint
 10
152.848607
 20
285.476683
 30
0.0
  0
POINT
  5
73F
330
736
100
AcDbEntity
  8
Defpoints
 62
     0
100
AcDbPoint
 10
152.848607
 20
386.456683
 30
0.0
  0
ENDBLK
  5
741
330
736
100
AcDbEntity
  8
0
100
AcDbBlockEnd
  0
BLOCK
  5
74D
330
743
100
AcDbEntity
  8
0
100
AcDbBlockBegin
  2
*D81
 70
     1
 71
     0
 10
0.0
 20
0.0
 30
0.0
  3
*D81
  1

  0
LINE
  5
744
330
743
100
AcDbEntity
  8
LC-002-003-----0
 62
     2
370
    -2
100
AcDbLine
 10
62.848607
 20
68.17668
 30
0.0
 11
117.750317
 21
68.17668
 31
0.0
  0
LINE
  5
745
330
743
100
AcDbEntity
  8
LC-002-003-----0
 62
     2
370
    -2
100
AcDbLine
 10
72.770218
 20
250.176683
 30
0.0
 11
117.750317
 21
250.176683
 31
0.0
  0
LINE
  5
746
330
743
100
AcDbEntity
  8
LC-002-003-----0
 62
     2
370
    -2
100
AcDbLine
 10
114.150317
 20
96.17668
 30
0.0
 11
114.150317
 21
222.176683
 31
0.0
  0
SOLID
  5
747
330
743
100
AcDbEntity
  8
LC-002-003-----0
 62
     2
100
AcDbTrace
 10
109.483651
 20
96.17668
 30
0.0
 11
118.816984
 21
96.17668
 31
0.0
 12
114.150317
 22
68.17668
 32
0.0
 13
114.150317
 23
68.17668
 33
0.0
  0
SOLID
  5
748
330
743
100
AcDbEntity
  8
LC-002-003-----0
 62
     2
100
AcDbTrace
 10
118.816984
 20
222.176683
 30
0.0
 11
109.483651
 21
222.176683
 31
0.0
 12
114.150317
 22
250.176683
 32
0.0
 13
114.150317
 23
250.176683
 33
0.0
  0
MTEXT
  5
749
330
743
100
AcDbEntity
  8
LC-002-003-----0
 62
     2
100
AcDbMText
 10
83.350317
 20
161.089663
 30
0.0
 40
28.0
 41
0.0
 71
     5
 72
     1
  1
\A1;182
  7
LCTX15-400-0-0pDIN-Schrift
 11
6.123031769111886E-17
 21
1.0
 31
0.0
 73
     1
 44
1.0
  0
POINT
  5
74A
330
743
100
AcDbEntity
  8
Defpoints
 62
     0
100
AcDbPoint
 10
62.848607
 20
68.17668
 30
0.0
  0
POINT
  5
74B
330
743
100
AcDbEntity
  8
Defpoints
 62
     0
100
AcDbPoint
 10
72.770218
 20
250.176683
 30
0.0
  0
POINT
  5
74C
330
743
100
AcDbEntity
  8
Defpoints
 62
     0
100
AcDbPoint
 10
114.150317
 20
250.176683
 30
0.0
  0
ENDBLK
  5
74E
330
743
100
AcDbEntity
  8
0
100
AcDbBlockEnd
  0
BLOCK
  5
75A
330
750
100
AcDbEntity
  8
0
100
AcDbBlockBegin
  2
*D82
 70
     1
 71
     0
 10
0.0
 20
0.0
 30
0.0
  3
*D82
  1

  0
LINE
  5
751
330
750
100
AcDbEntity
  8
LC-002-003-----0
 62
     2
370
    -2
100
AcDbLine
 10
103.265306
 20
269.176677
 30
0.0
 11
168.918144
 21
269.176677
 31
0.0
  0
LINE
  5
752
330
750
100
AcDbEntity
  8
LC-002-003-----0
 62
     2
370
    -2
100
AcDbLine
 10
62.848607
 20
68.17668
 30
0.0
 11
168.918144
 21
68.17668
 31
0.0
  0
LINE
  5
753
330
750
100
AcDbEntity
  8
LC-002-003-----0
 62
     2
370
    -2
100
AcDbLine
 10
165.318144
 20
241.176677
 30
0.0
 11
165.318144
 21
96.17668
 31
0.0
  0
SOLID
  5
754
330
750
100
AcDbEntity
  8
LC-002-003-----0
 62
     2
100
AcDbTrace
 10
169.98481
 20
241.176677
 30
0.0
 11
160.651477
 21
241.176677
 31
0.0
 12
165.318144
 22
269.176677
 32
0.0
 13
165.318144
 23
269.176677
 33
0.0
  0
SOLID
  5
755
330
750
100
AcDbEntity
  8
LC-002-003-----0
 62
     2
100
AcDbTrace
 10
160.651477
 20
96.17668
 30
0.0
 11
169.98481
 21
96.17668
 31
0.0
 12
165.318144
 22
68.17668
 32
0.0
 13
165.318144
 23
68.17668
 33
0.0
  0
MTEXT
  5
756
330
750
100
AcDbEntity
  8
LC-002-003-----0
 62
     2
100
AcDbMText
 10
134.518144
 20
174.792503
 30
0.0
 40
28.0
 41
0.0
 71
     5
 72
     1
  1
\A1;200
  7
LCTX15-400-0-0pDIN-Schrift
 11
6.123031769111886E-17
 21
1.0
 31
0.0
 73
     1
 44
1.0
  0
POINT
  5
757
330
750
100
AcDbEntity
  8
Defpoints
 62
     0
100
AcDbPoint
 10
103.265306
 20
269.176677
 30
0.0
  0
POINT
  5
758
330
750
100
AcDbEntity
  8
Defpoints
 62
     0
100
AcDbPoint
 10
62.848607
 20
68.17668
 30
0.0
  0
POINT
  5
759
330
750
100
AcDbEntity
  8
Defpoints
 62
     0
100
AcDbPoint
 10
165.318144
 20
68.17668
 30
0.0
  0
ENDBLK
  5
75B
330
750
100
AcDbEntity
  8
0
100
AcDbBlockEnd
  0
BLOCK
  5
767
330
75D
100
AcDbEntity
  8
0
100
AcDbBlockBegin
  2
*D83
 70
     1
 71
     0
 10
0.0
 20
0.0
 30
0.0
  3
*D83
  1

  0
LINE
  5
75E
330
75D
100
AcDbEntity
  8
LC-002-003-----0
 62
     2
370
    -2
100
AcDbLine
 10
152.848607
 20
285.476683
 30
0.0
 11
216.057007
 21
285.476683
 31
0.0
  0
LINE
  5
75F
330
75D
100
AcDbEntity
  8
LC-002-003-----0
 62
     2
370
    -2
100
AcDbLine
 10
62.848607
 20
68.17668
 30
0.0
 11
216.057007
 21
68.17668
 31
0.0
  0
LINE
  5
760
330
75D
100
AcDbEntity
  8
LC-002-003-----0
 62
     2
370
    -2
100
AcDbLine
 10
212.457007
 20
257.476683
 30
0.0
 11
212.457007
 21
96.17668
 31
0.0
  0
SOLID
  5
761
330
75D
100
AcDbEntity
  8
LC-002-003-----0
 62
     2
100
AcDbTrace
 10
217.123674
 20
257.476683
 30
0.0
 11
207.790341
 21
257.476683
 31
0.0
 12
212.457007
 22
285.476683
 32
0.0
 13
212.457007
 23
285.476683
 33
0.0
  0
SOLID
  5
762
330
75D
100
AcDbEntity
  8
LC-002-003-----0
 62
     2
100
AcDbTrace
 10
207.790341
 20
96.17668
 30
0.0
 11
217.123674
 21
96.17668
 31
0.0
 12
212.457007
 22
68.17668
 32
0.0
 13
212.457007
 23
68.17668
 33
0.0
  0
MTEXT
  5
763
330
75D
100
AcDbEntity
  8
LC-002-003-----0
 62
     2
100
AcDbMText
 10
181.657007
 20
178.822751
 30
0.0
 40
28.0
 41
0.0
 71
     5
 72
     1
  1
\A1;217
  7
LCTX15-400-0-0pDIN-Schrift
 11
6.123031769111886E-17
 21
1.0
 31
0.0
 73
     1
 44
1.0
  0
POINT
  5
764
330
75D
100
AcDbEntity
  8
Defpoints
 62
     0
100
AcDbPoint
 10
152.848607
 20
285.476683
 30
0.0
  0
POINT
  5
765
330
75D
100
AcDbEntity
  8
Defpoints
 62
     0
100
AcDbPoint
 10
62.848607
 20
68.17668
 30
0.0
  0
POINT
  5
766
330
75D
100
AcDbEntity
  8
Defpoints
 62
     0
100
AcDbPoint
 10
212.457007
 20
68.17668
 30
0.0
  0
ENDBLK
  5
768
330
75D
100
AcDbEntity
  8
0
100
AcDbBlockEnd
  0
ENDSEC
  0
SECTION
  2
ENTITIES
  0
LINE
  5
31
330
1F
100
AcDbEntity
  8
LC-001-100-D00-0
 62
     7
370
    50
100
AcDbLine
 10
149.848623
 20
288.486511
 30
0.0
 11
130.333776
 21
288.486511
 31
0.0
  0
LINE
  5
32
330
1F
100
AcDbEntity
  8
LC-001-100-D00-0
 62
     7
370
    50
100
AcDbLine
 10
-54.636555
 20
288.486511
 30
0.0
 11
-74.151414
 21
288.486511
 31
0.0
  0
ARC
  5
33
330
1F
100
AcDbEntity
  8
LC-001-100-D00-0
 62
     7
370
    50
100
AcDbCircle
 10
72.723607
 20
273.326683
 30
0.0
 40
6.000000000000038
100
AcDbArc
 50
223.762185
 51
316.237815
  0
ARC
  5
34
330
1F
100
AcDbEntity
  8
LC-001-100-D00-0
 62
     7
370
    50
100
AcDbCircle
 10
2.973607
 20
273.326683
 30
0.0
 40
6.000000000000039
100
AcDbArc
 50
223.762185
 51
316.237815
  0
INSERT
  5
40
330
1F
100
AcDbEntity
  8
LC-001-100-D00-0
 62
     7
370
    50
100
AcDbBlockReference
  2
POLY1
 10
0.0
 20
0.0
 30
0.0
  0
LINE
  5
41
330
1F
100
AcDbEntity
  8
LC-001-100-D00-0
 62
     7
370
    50
100
AcDbLine
 10
109.932132
 20
282.735378
 30
0.0
 11
109.848607
 21
282.782555
 31
0.0
  0
LINE
  5
42
330
1F
100
AcDbEntity
  8
LC-001-100-D00-0
 62
     7
370
    50
100
AcDbLine
 10
109.932132
 20
276.735366
 30
0.0
 11
109.848607
 21
276.782558
 31
0.0
  0
LINE
  5
43
330
1F
100
AcDbEntity
  8
LC-001-100-D00-0
 62
     7
370
    50
100
AcDbLine
 10
109.932132
 20
279.735372
 30
0.0
 11
109.848607
 21
279.782564
 31
0.0
  0
INSERT
  5
4F
330
1F
100
AcDbEntity
  8
LC-001-100-D00-0
 62
     7
370
    50
100
AcDbBlockReference
  2
POLY2
 10
0.0
 20
0.0
 30
0.0
  0
INSERT
  5
5B
330
1F
100
AcDbEntity
  8
LC-001-100-D00-0
 62
     7
370
    50
100
AcDbBlockReference
  2
POLY3
 10
0.0
 20
0.0
 30
0.0
  0
INSERT
  5
67
330
1F
100
AcDbEntity
  8
LC-001-100-D00-0
 62
     7
370
    50
100
AcDbBlockReference
  2
POLY4
 10
0.0
 20
0.0
 30
0.0
  0
INSERT
  5
73
330
1F
100
AcDbEntity
  8
LC-001-100-D00-0
 62
     7
370
    50
100
AcDbBlockReference
  2
POLY5
 10
0.0
 20
0.0
 30
0.0
  0
INSERT
  5
7F
330
1F
100
AcDbEntity
  8
LC-001-100-D00-0
 62
     7
370
    50
100
AcDbBlockReference
  2
POLY6
 10
0.0
 20
0.0
 30
0.0
  0
INSERT
  5
8B
330
1F
100
AcDbEntity
  8
LC-001-100-D00-0
 62
     7
370
    50
100
AcDbBlockReference
  2
POLY7
 10
0.0
 20
0.0
 30
0.0
  0
LINE
  5
8C
330
1F
100
AcDbEntity
  8
LC-001-100-D00-0
 62
     7
370
    50
100
AcDbLine
 10
10.69436
 20
366.318256
 30
0.0
 11
10.69436
 21
366.218254
 31
0.0
  0
INSERT
  5
98
330
1F
100
AcDbEntity
  8
LC-001-100-D00-0
 62
     7
370
    50
100
AcDbBlockReference
  2
POLY8
 10
0.0
 20
0.0
 30
0.0
  0
LINE
  5
99
330
1F
100
AcDbEntity
  8
LC-001-100-D00-0
 62
     7
370
    50
100
AcDbLine
 10
-29.722305
 20
276.541457
 30
0.0
 11
-30.150661
 21
276.782737
 31
0.0
  0
INSERT
  5
A5
330
1F
100
AcDbEntity
  8
LC-001-100-D00-0
 62
     7
370
    50
100
AcDbBlockReference
  2
POLY9
 10
0.0
 20
0.0
 30
0.0
  0
LINE
  5
A6
330
1F
100
AcDbEntity
  8
LC-001-100-D00-0
 62
     7
370
    50
100
AcDbLine
 10
-29.722305
 20
282.541454
 30
0.0
 11
-30.150661
 21
282.782734
 31
0.0
  0
INSERT
  5
B2
330
1F
100
AcDbEntity
  8
LC-001-100-D00-0
 62
     7
370
    50
100
AcDbBlockReference
  2
POLY10
 10
0.0
 20
0.0
 30
0.0
  0
LINE
  5
B3
330
1F
100
AcDbEntity
  8
LC-001-100-D00-0
 62
     7
370
    50
100
AcDbLine
 10
-29.722305
 20
279.541463
 30
0.0
 11
-30.150661
 21
279.782728
 31
0.0
  0
INSERT
  5
BF
330
1F
100
AcDbEntity
  8
LC-001-100-D00-0
 62
     7
370
    50
100
AcDbBlockReference
  2
POLY11
 10
0.0
 20
0.0
 30
0.0
  0
LINE
  5
C0
330
1F
100
AcDbEntity
  8
LC-001-100-D00-0
 62
     7
370
    50
100
AcDbLine
 10
-34.150655
 20
282.950014
 30
0.0
 11
-34.150655
 21
281.237275
 31
0.0
  0
LINE
  5
C1
330
1F
100
AcDbEntity
  8
LC-001-100-D00-0
 62
     7
370
    50
100
AcDbLine
 10
-30.150661
 20
279.596463
 30
0.0
 11
-30.150661
 21
281.309143
 31
0.0
  0
LINE
  5
C2
330
1F
100
AcDbEntity
  8
LC-001-100-D00-0
 62
     7
370
    50
100
AcDbLine
 10
-34.150655
 20
288.950026
 30
0.0
 11
-34.150655
 21
287.237272
 31
0.0
  0
LINE
  5
C3
330
1F
100
AcDbEntity
  8
LC-001-100-D00-0
 62
     7
370
    50
100
AcDbLine
 10
-30.150661
 20
285.59646
 30
0.0
 11
-30.150661
 21
287.30914
 31
0.0
  0
LINE
  5
C4
330
1F
100
AcDbEntity
  8
LC-001-100-D00-0
 62
     7
370
    50
100
AcDbLine
 10
-34.150655
 20
279.950023
 30
0.0
 11
-34.150655
 21
278.237284
 31
0.0
  0
LINE
  5
C5
330
1F
100
AcDbEntity
  8
LC-001-100-D00-0
 62
     7
370
    50
100
AcDbLine
 10
-30.150661
 20
276.596457
 30
0.0
 11
-30.150661
 21
278.309137
 31
0.0
  0
LINE
  5
C6
330
1F
100
AcDbEntity
  8
LC-001-100-D00-0
 62
     7
370
    50
100
AcDbLine
 10
-34.150655
 20
285.95002
 30
0.0
 11
-34.150655
 21
284.237281
 31
0.0
  0
LINE
  5
C7
330
1F
100
AcDbEntity
  8
LC-001-100-D00-0
 62
     7
370
    50
100
AcDbLine
 10
-30.150661
 20
282.596469
 30
0.0
 11
-30.150661
 21
284.309149
 31
0.0
  0
LINE
  5
C8
330
1F
100
AcDbEntity
  8
LC-001-100-D00-0
 62
     7
370
    50
100
AcDbLine
 10
-34.150655
 20
276.950017
 30
0.0
 11
-34.150655
 21
274.577096
 31
0.0
  0
LINE
  5
C9
330
1F
100
AcDbEntity
  8
LC-001-100-D00-0
 62
     7
370
    50
100
AcDbLine
 10
-30.150661
 20
274.577096
 30
0.0
 11
-30.150661
 21
275.309146
 31
0.0
  0
LINE
  5
CA
330
1F
100
AcDbEntity
  8
LC-001-100-D00-0
 62
     7
370
    50
100
AcDbLine
 10
-34.150655
 20
274.577096
 30
0.0
 11
-32.150658
 21
273.176685
 31
0.0
  0
LINE
  5
CB
330
1F
100
AcDbEntity
  8
LC-001-100-D00-0
 62
     7
370
    50
100
AcDbLine
 10
-32.150658
 20
273.176685
 30
0.0
 11
-30.150661
 21
274.577096
 31
0.0
  0
LINE
  5
CC
330
1F
100
AcDbEntity
  8
LC-001-100-D00-0
 62
     7
370
    50
100
AcDbLine
 10
-37.400657
 20
292.976678
 30
0.0
 11
-37.400657
 21
290.17669
 31
0.0
  0
LINE
  5
CD
330
1F
100
AcDbEntity
  8
LC-001-100-D00-0
 62
     7
370
    50
100
AcDbLine
 10
-26.900658
 20
290.17669
 30
0.0
 11
-26.900658
 21
292.976678
 31
0.0
  0
ARC
  5
CE
330
1F
100
AcDbEntity
  8
LC-001-100-D00-0
 62
     7
370
    50
100
AcDbCircle
 10
-32.150658
 20
288.051683
 30
0.0
 40
6.820236432851962
100
AcDbArc
 50
123.355647
 51
131.284711
  0
ARC
  5
CF
330
1F
100
AcDbEntity
  8
LC-001-100-D00-0
 62
     7
370
    50
100
AcDbCircle
 10
-32.150658
 20
288.051683
 30
0.0
 40
6.820236432851929
100
AcDbArc
 50
48.715289
 51
56.644353
  0
LINE
  5
D0
330
1F
100
AcDbEntity
  8
LC-001-100-D00-0
 62
     7
370
    50
100
AcDbLine
 10
-30.150661
 20
288.596467
 30
0.0
 11
-30.150661
 21
290.17669
 31
0.0
  0
ARC
  5
D1
330
1F
100
AcDbEntity
  8
LC-001-100-D00-0
 62
     7
370
    50
100
AcDbCircle
 10
-37.200658
 20
292.976683
 30
0.0
 40
0.1999999999999886
100
AcDbArc
 50
90.0
 51
180.0
  0
ARC
  5
D2
330
1F
100
AcDbEntity
  8
LC-001-100-D00-0
 62
     7
370
    50
100
AcDbCircle
 10
-27.100658
 20
292.976683
 30
0.0
 40
0.1999999999999886
100
AcDbArc
 50
0.0
 51
90.0
  0
ARC
  5
D3
330
1F
100
AcDbEntity
  8
LC-001-100-D00-0
 62
     7
370
    50
100
AcDbCircle
 10
7.848607
 20
127.81954
 30
0.0
 40
0.5
100
AcDbArc
 50
270.0
 51
0.0
  0
ARC
  5
D4
330
1F
100
AcDbEntity
  8
LC-001-100-D00-0
 62
     7
370
    50
100
AcDbCircle
 10
67.848607
 20
127.81954
 30
0.0
 40
0.5
100
AcDbArc
 50
180.0
 51
270.0
  0
ARC
  5
D5
330
1F
100
AcDbEntity
  8
LC-001-100-D00-0
 62
     7
370
    50
100
AcDbCircle
 10
7.848607
 20
238.390969
 30
0.0
 40
0.5000000000000568
100
AcDbArc
 50
270.0
 51
0.0
  0
ARC
  5
D6
330
1F
100
AcDbEntity
  8
LC-001-100-D00-0
 62
     7
370
    50
100
AcDbCircle
 10
67.848607
 20
238.390969
 30
0.0
 40
0.5000000000000568
100
AcDbArc
 50
180.0
 51
270.0
  0
ARC
  5
D7
330
1F
100
AcDbEntity
  8
LC-001-100-D00-0
 62
     7
370
    50
100
AcDbCircle
 10
7.848607
 20
247.274251
 30
0.0
 40
0.4999999999999716
100
AcDbArc
 50
0.0
 51
78.000002
  0
ARC
  5
D8
330
1F
100
AcDbEntity
  8
LC-001-100-D00-0
 62
     7
370
    50
100
AcDbCircle
 10
67.848607
 20
247.274251
 30
0.0
 40
0.4999999999999827
100
AcDbArc
 50
101.999998
 51
180.0
  0
LINE
  5
D9
330
1F
100
AcDbEntity
  8
LC-001-100-D00-0
 62
     7
370
    50
100
AcDbLine
 10
8.348605
 20
238.390968
 30
0.0
 11
8.348605
 21
247.27425
 31
0.0
  0
LINE
  5
DA
330
1F
100
AcDbEntity
  8
LC-001-100-D00-0
 62
     7
370
    50
100
AcDbLine
 10
67.348607
 20
247.27425
 30
0.0
 11
67.348607
 21
238.390968
 31
0.0
  0
ARC
  5
DB
330
1F
100
AcDbEntity
  8
LC-001-100-D00-0
 62
     7
370
    50
100
AcDbCircle
 10
7.848607
 20
115.533826
 30
0.0
 40
0.5
100
AcDbArc
 50
270.0
 51
0.0
  0
ARC
  5
DC
330
1F
100
AcDbEntity
  8
LC-001-100-D00-0
 62
     7
370
    50
100
AcDbCircle
 10
67.848607
 20
115.533826
 30
0.0
 40
0.5
100
AcDbArc
 50
180.0
 51
270.0
  0
LINE
  5
DD
330
1F
100
AcDbEntity
  8
LC-001-100-D00-0
 62
     7
370
    50
100
AcDbLine
 10
67.744652
 20
100.335338
 30
0.0
 11
74.442641
 21
101.759039
 31
0.0
  0
LINE
  5
DE
330
1F
100
AcDbEntity
  8
LC-001-100-D00-0
 62
     7
370
    50
100
AcDbLine
 10
1.254572
 20
101.759039
 30
0.0
 11
7.952562
 21
100.335338
 31
0.0
  0
LINE
  5
DF
330
1F
100
AcDbEntity
  8
LC-001-100-D00-0
 62
     7
370
    50
100
AcDbLine
 10
8.348605
 20
90.962395
 30
0.0
 11
8.348605
 21
99.846263
 31
0.0
  0
LINE
  5
E0
330
1F
100
AcDbEntity
  8
LC-001-100-D00-0
 62
     7
370
    50
100
AcDbLine
 10
67.348607
 20
99.846263
 30
0.0
 11
67.348607
 21
90.962395
 31
0.0
  0
LINE
  5
E1
330
1F
100
AcDbEntity
  8
LC-001-100-D00-0
 62
     7
370
    50
100
AcDbLine
 10
8.348605
 20
115.533825
 30
0.0
 11
8.348605
 21
124.417691
 31
0.0
  0
LINE
  5
E2
330
1F
100
AcDbEntity
  8
LC-001-100-D00-0
 62
     7
370
    50
100
AcDbLine
 10
67.348607
 20
124.417691
 30
0.0
 11
67.348607
 21
115.533825
 31
0.0
  0
ARC
  5
E3
330
1F
100
AcDbEntity
  8
LC-001-100-D00-0
 62
     7
370
    50
100
AcDbCircle
 10
7.848607
 20
234.989119
 30
0.0
 40
0.5
100
AcDbArc
 50
0.0
 51
78.0
  0
ARC
  5
E4
330
1F
100
AcDbEntity
  8
LC-001-100-D00-0
 62
     7
370
    50
100
AcDbCircle
 10
67.848607
 20
234.989119
 30
0.0
 40
0.4999999999999983
100
AcDbArc
 50
102.0
 51
180.0
  0
LINE
  5
E5
330
1F
100
AcDbEntity
  8
LC-001-100-D00-0
 62
     7
370
    50
100
AcDbLine
 10
67.848606
 20
237.890967
 30
0.0
 11
74.338685
 21
237.890967
 31
0.0
  0
ARC
  5
E6
330
1F
100
AcDbEntity
  8
LC-001-100-D00-0
 62
     7
370
    50
100
AcDbCircle
 10
74.338685
 20
237.390969
 30
0.0
 40
0.5000000000003437
100
AcDbArc
 50
282.0
 51
90.0
  0
LINE
  5
E7
330
1F
100
AcDbEntity
  8
LC-001-100-D00-0
 62
     7
370
    50
100
AcDbLine
 10
67.744652
 20
235.478193
 30
0.0
 11
74.442641
 21
236.901895
 31
0.0
  0
LINE
  5
E8
330
1F
100
AcDbEntity
  8
LC-001-100-D00-0
 62
     7
370
    50
100
AcDbLine
 10
67.348607
 20
234.989122
 30
0.0
 11
67.348607
 21
226.105258
 31
0.0
  0
ARC
  5
E9
330
1F
100
AcDbEntity
  8
LC-001-100-D00-0
 62
     7
370
    50
100
AcDbCircle
 10
67.848607
 20
226.105255
 30
0.0
 40
0.5
100
AcDbArc
 50
180.0
 51
270.0
  0
LINE
  5
EA
330
1F
100
AcDbEntity
  8
LC-001-100-D00-0
 62
     7
370
    50
100
AcDbLine
 10
67.848606
 20
225.605257
 30
0.0
 11
74.338685
 21
225.605257
 31
0.0
  0
ARC
  5
EB
330
1F
100
AcDbEntity
  8
LC-001-100-D00-0
 62
     7
370
    50
100
AcDbCircle
 10
74.338685
 20
225.105255
 30
0.0
 40
0.5000000000003437
100
AcDbArc
 50
282.0
 51
90.0
  0
LINE
  5
EC
330
1F
100
AcDbEntity
  8
LC-001-100-D00-0
 62
     7
370
    50
100
AcDbLine
 10
67.744652
 20
223.192476
 30
0.0
 11
74.442641
 21
224.616178
 31
0.0
  0
ARC
  5
ED
330
1F
100
AcDbEntity
  8
LC-001-100-D00-0
 62
     7
370
    50
100
AcDbCircle
 10
67.848607
 20
222.703405
 30
0.0
 40
0.5000000000000087
100
AcDbArc
 50
102.0
 51
180.0
  0
LINE
  5
EE
330
1F
100
AcDbEntity
  8
LC-001-100-D00-0
 62
     7
370
    50
100
AcDbLine
 10
67.348607
 20
222.703405
 30
0.0
 11
67.348607
 21
213.819541
 31
0.0
  0
ARC
  5
EF
330
1F
100
AcDbEntity
  8
LC-001-100-D00-0
 62
     7
370
    50
100
AcDbCircle
 10
67.848607
 20
213.81954
 30
0.0
 40
0.5
100
AcDbArc
 50
180.0
 51
270.0
  0
LINE
  5
F0
330
1F
100
AcDbEntity
  8
LC-001-100-D00-0
 62
     7
370
    50
100
AcDbLine
 10
67.848606
 20
213.31954
 30
0.0
 11
74.338685
 21
213.31954
 31
0.0
  0
ARC
  5
F1
330
1F
100
AcDbEntity
  8
LC-001-100-D00-0
 62
     7
370
    50
100
AcDbCircle
 10
74.338685
 20
212.81954
 30
0.0
 40
0.5000000000003159
100
AcDbArc
 50
282.0
 51
90.0
  0
LINE
  5
F2
330
1F
100
AcDbEntity
  8
LC-001-100-D00-0
 62
     7
370
    50
100
AcDbLine
 10
67.744652
 20
210.906767
 30
0.0
 11
74.442641
 21
212.330468
 31
0.0
  0
ARC
  5
F3
330
1F
100
AcDbEntity
  8
LC-001-100-D00-0
 62
     7
370
    50
100
AcDbCircle
 10
67.848607
 20
210.41769
 30
0.0
 40
0.4999999999999983
100
AcDbArc
 50
102.0
 51
180.0
  0
LINE
  5
F4
330
1F
100
AcDbEntity
  8
LC-001-100-D00-0
 62
     7
370
    50
100
AcDbLine
 10
67.348607
 20
210.417688
 30
0.0
 11
67.348607
 21
201.533825
 31
0.0
  0
ARC
  5
F5
330
1F
100
AcDbEntity
  8
LC-001-100-D00-0
 62
     7
370
    50
100
AcDbCircle
 10
67.848607
 20
201.533826
 30
0.0
 40
0.5
100
AcDbArc
 50
180.0
 51
270.0
  0
LINE
  5
F6
330
1F
100
AcDbEntity
  8
LC-001-100-D00-0
 62
     7
370
    50
100
AcDbLine
 10
67.848606
 20
201.033827
 30
0.0
 11
69.350317
 21
201.033827
 31
0.0
  0
LINE
  5
F7
330
1F
100
AcDbEntity
  8
LC-001-100-D00-0
 62
     7
370
    50
100
AcDbLine
 10
67.744652
 20
198.62105
 30
0.0
 11
69.350317
 21
198.962345
 31
0.0
  0
ARC
  5
F8
330
1F
100
AcDbEntity
  8
LC-001-100-D00-0
 62
     7
370
    50
100
AcDbCircle
 10
67.848607
 20
198.131976
 30
0.0
 40
0.5000000000000087
100
AcDbArc
 50
102.0
 51
180.0
  0
LINE
  5
F9
330
1F
100
AcDbEntity
  8
LC-001-100-D00-0
 62
     7
370
    50
100
AcDbLine
 10
67.348607
 20
198.131975
 30
0.0
 11
67.348607
 21
189.248111
 31
0.0
  0
ARC
  5
FA
330
1F
100
AcDbEntity
  8
LC-001-100-D00-0
 62
     7
370
    50
100
AcDbCircle
 10
67.848607
 20
189.248112
 30
0.0
 40
0.5000000000000568
100
AcDbArc
 50
180.0
 51
270.0
  0
LINE
  5
FB
330
1F
100
AcDbEntity
  8
LC-001-100-D00-0
 62
     7
370
    50
100
AcDbLine
 10
67.848606
 20
188.74811
 30
0.0
 11
69.350317
 21
188.74811
 31
0.0
  0
LINE
  5
FC
330
1F
100
AcDbEntity
  8
LC-001-100-D00-0
 62
     7
370
    50
100
AcDbLine
 10
67.744652
 20
186.335337
 30
0.0
 11
69.350317
 21
186.676632
 31
0.0
  0
ARC
  5
FD
330
1F
100
AcDbEntity
  8
LC-001-100-D00-0
 62
     7
370
    50
100
AcDbCircle
 10
67.848607
 20
185.846262
 30
0.0
 40
0.4999999999999983
100
AcDbArc
 50
102.0
 51
180.0
  0
LINE
  5
FE
330
1F
100
AcDbEntity
  8
LC-001-100-D00-0
 62
     7
370
    50
100
AcDbLine
 10
67.348607
 20
185.846262
 30
0.0
 11
67.348607
 21
176.962398
 31
0.0
  0
ARC
  5
FF
330
1F
100
AcDbEntity
  8
LC-001-100-D00-0
 62
     7
370
    50
100
AcDbCircle
 10
67.848607
 20
176.962397
 30
0.0
 40
0.5
100
AcDbArc
 50
180.0
 51
270.0
  0
LINE
  5
100
330
1F
100
AcDbEntity
  8
LC-001-100-D00-0
 62
     7
370
    50
100
AcDbLine
 10
67.848606
 20
176.462397
 30
0.0
 11
69.350317
 21
176.462397
 31
0.0
  0
LINE
  5
101
330
1F
100
AcDbEntity
  8
LC-001-100-D00-0
 62
     7
370
    50
100
AcDbLine
 10
67.744652
 20
174.049622
 30
0.0
 11
69.350317
 21
174.390916
 31
0.0
  0
ARC
  5
102
330
1F
100
AcDbEntity
  8
LC-001-100-D00-0
 62
     7
370
    50
100
AcDbCircle
 10
67.848607
 20
173.560547
 30
0.0
 40
0.5000000000000087
100
AcDbArc
 50
102.0
 51
180.0
  0
LINE
  5
103
330
1F
100
AcDbEntity
  8
LC-001-100-D00-0
 62
     7
370
    50
100
AcDbLine
 10
67.348607
 20
173.560547
 30
0.0
 11
67.348607
 21
164.676683
 31
0.0
  0
ARC
  5
104
330
1F
100
AcDbEntity
  8
LC-001-100-D00-0
 62
     7
370
    50
100
AcDbCircle
 10
67.848607
 20
164.676683
 30
0.0
 40
0.5
100
AcDbArc
 50
180.0
 51
270.0
  0
LINE
  5
105
330
1F
100
AcDbEntity
  8
LC-001-100-D00-0
 62
     7
370
    50
100
AcDbLine
 10
67.848606
 20
164.176682
 30
0.0
 11
69.350317
 21
164.176682
 31
0.0
  0
LINE
  5
106
330
1F
100
AcDbEntity
  8
LC-001-100-D00-0
 62
     7
370
    50
100
AcDbLine
 10
67.744652
 20
161.763907
 30
0.0
 11
69.350317
 21
162.105202
 31
0.0
  0
ARC
  5
107
330
1F
100
AcDbEntity
  8
LC-001-100-D00-0
 62
     7
370
    50
100
AcDbCircle
 10
67.848607
 20
161.274833
 30
0.0
 40
0.5000000000000087
100
AcDbArc
 50
102.0
 51
180.0
  0
LINE
  5
108
330
1F
100
AcDbEntity
  8
LC-001-100-D00-0
 62
     7
370
    50
100
AcDbLine
 10
67.348607
 20
161.274834
 30
0.0
 11
67.348607
 21
152.390968
 31
0.0
  0
ARC
  5
109
330
1F
100
AcDbEntity
  8
LC-001-100-D00-0
 62
     7
370
    50
100
AcDbCircle
 10
67.848607
 20
152.390969
 30
0.0
 40
0.5
100
AcDbArc
 50
180.0
 51
270.0
  0
LINE
  5
10A
330
1F
100
AcDbEntity
  8
LC-001-100-D00-0
 62
     7
370
    50
100
AcDbLine
 10
67.848606
 20
151.890968
 30
0.0
 11
69.350317
 21
151.890968
 31
0.0
  0
LINE
  5
10B
330
1F
100
AcDbEntity
  8
LC-001-100-D00-0
 62
     7
370
    50
100
AcDbLine
 10
67.744652
 20
149.478193
 30
0.0
 11
69.350317
 21
149.819488
 31
0.0
  0
ARC
  5
10C
330
1F
100
AcDbEntity
  8
LC-001-100-D00-0
 62
     7
370
    50
100
AcDbCircle
 10
67.848607
 20
148.989119
 30
0.0
 40
0.5000000000000087
100
AcDbArc
 50
102.0
 51
180.0
  0
LINE
  5
10D
330
1F
100
AcDbEntity
  8
LC-001-100-D00-0
 62
     7
370
    50
100
AcDbLine
 10
67.348607
 20
148.989119
 30
0.0
 11
67.348607
 21
140.105255
 31
0.0
  0
ARC
  5
10E
330
1F
100
AcDbEntity
  8
LC-001-100-D00-0
 62
     7
370
    50
100
AcDbCircle
 10
67.848607
 20
140.105255
 30
0.0
 40
0.5
100
AcDbArc
 50
180.0
 51
270.0
  0
LINE
  5
10F
330
1F
100
AcDbEntity
  8
LC-001-100-D00-0
 62
     7
370
    50
100
AcDbLine
 10
67.848606
 20
139.605255
 30
0.0
 11
69.350317
 21
139.605255
 31
0.0
  0
LINE
  5
110
330
1F
100
AcDbEntity
  8
LC-001-100-D00-0
 62
     7
370
    50
100
AcDbLine
 10
67.744652
 20
137.192479
 30
0.0
 11
69.350317
 21
137.533774
 31
0.0
  0
ARC
  5
111
330
1F
100
AcDbEntity
  8
LC-001-100-D00-0
 62
     7
370
    50
100
AcDbCircle
 10
67.848607
 20
136.703405
 30
0.0
 40
0.5000000000000087
100
AcDbArc
 50
102.0
 51
180.0
  0
LINE
  5
112
330
1F
100
AcDbEntity
  8
LC-001-100-D00-0
 62
     7
370
    50
100
AcDbLine
 10
67.348607
 20
136.703405
 30
0.0
 11
67.348607
 21
127.819539
 31
0.0
  0
ARC
  5
113
330
1F
100
AcDbEntity
  8
LC-001-100-D00-0
 62
     7
370
    50
100
AcDbCircle
 10
74.338685
 20
126.81954
 30
0.0
 40
0.5000000000003159
100
AcDbArc
 50
282.0
 51
90.0
  0
LINE
  5
114
330
1F
100
AcDbEntity
  8
LC-001-100-D00-0
 62
     7
370
    50
100
AcDbLine
 10
67.744652
 20
124.906764
 30
0.0
 11
74.442641
 21
126.330465
 31
0.0
  0
ARC
  5
115
330
1F
100
AcDbEntity
  8
LC-001-100-D00-0
 62
     7
370
    50
100
AcDbCircle
 10
67.848607
 20
124.41769
 30
0.0
 40
0.5000000000000087
100
AcDbArc
 50
102.0
 51
180.0
  0
ARC
  5
116
330
1F
100
AcDbEntity
  8
LC-001-100-D00-0
 62
     7
370
    50
100
AcDbCircle
 10
74.338685
 20
114.533826
 30
0.0
 40
0.5000000000003159
100
AcDbArc
 50
282.0
 51
90.0
  0
LINE
  5
117
330
1F
100
AcDbEntity
  8
LC-001-100-D00-0
 62
     7
370
    50
100
AcDbLine
 10
67.744652
 20
112.621051
 30
0.0
 11
74.442641
 21
114.044752
 31
0.0
  0
ARC
  5
118
330
1F
100
AcDbEntity
  8
LC-001-100-D00-0
 62
     7
370
    50
100
AcDbCircle
 10
67.848607
 20
112.131976
 30
0.0
 40
0.5000000000000087
100
AcDbArc
 50
102.0
 51
180.0
  0
LINE
  5
119
330
1F
100
AcDbEntity
  8
LC-001-100-D00-0
 62
     7
370
    50
100
AcDbLine
 10
67.348607
 20
112.131976
 30
0.0
 11
67.348607
 21
103.248112
 31
0.0
  0
ARC
  5
11A
330
1F
100
AcDbEntity
  8
LC-001-100-D00-0
 62
     7
370
    50
100
AcDbCircle
 10
67.848607
 20
103.248112
 30
0.0
 40
0.5
100
AcDbArc
 50
180.0
 51
270.0
  0
LINE
  5
11B
330
1F
100
AcDbEntity
  8
LC-001-100-D00-0
 62
     7
370
    50
100
AcDbLine
 10
67.848606
 20
102.748111
 30
0.0
 11
74.338685
 21
102.748111
 31
0.0
  0
ARC
  5
11C
330
1F
100
AcDbEntity
  8
LC-001-100-D00-0
 62
     7
370
    50
100
AcDbCircle
 10
74.338685
 20
102.248112
 30
0.0
 40
0.5000000000003159
100
AcDbArc
 50
282.0
 51
90.0
  0
ARC
  5
11D
330
1F
100
AcDbEntity
  8
LC-001-100-D00-0
 62
     7
370
    50
100
AcDbCircle
 10
67.848607
 20
99.846262
 30
0.0
 40
0.5000000000000087
100
AcDbArc
 50
102.0
 51
180.0
  0
ARC
  5
11E
330
1F
100
AcDbEntity
  8
LC-001-100-D00-0
 62
     7
370
    50
100
AcDbCircle
 10
67.848607
 20
90.962397
 30
0.0
 40
0.5000000000000568
100
AcDbArc
 50
180.0
 51
270.0
  0
LINE
  5
11F
330
1F
100
AcDbEntity
  8
LC-001-100-D00-0
 62
     7
370
    50
100
AcDbLine
 10
67.848606
 20
90.462398
 30
0.0
 11
74.338685
 21
90.462398
 31
0.0
  0
ARC
  5
120
330
1F
100
AcDbEntity
  8
LC-001-100-D00-0
 62
     7
370
    50
100
AcDbCircle
 10
74.338685
 20
89.962397
 30
0.0
 40
0.5000000000003437
100
AcDbArc
 50
282.0
 51
90.0
  0
LINE
  5
121
330
1F
100
AcDbEntity
  8
LC-001-100-D00-0
 62
     7
370
    50
100
AcDbLine
 10
67.744652
 20
88.049621
 30
0.0
 11
74.442641
 21
89.473322
 31
0.0
  0
ARC
  5
122
330
1F
100
AcDbEntity
  8
LC-001-100-D00-0
 62
     7
370
    50
100
AcDbCircle
 10
67.848607
 20
87.560547
 30
0.0
 40
0.5000000000000087
100
AcDbArc
 50
102.0
 51
180.0
  0
LINE
  5
123
330
1F
100
AcDbEntity
  8
LC-001-100-D00-0
 62
     7
370
    50
100
AcDbLine
 10
67.348607
 20
87.560546
 30
0.0
 11
67.348607
 21
78.676686
 31
0.0
  0
ARC
  5
124
330
1F
100
AcDbEntity
  8
LC-001-100-D00-0
 62
     7
370
    50
100
AcDbCircle
 10
67.848607
 20
78.676683
 30
0.0
 40
0.5
100
AcDbArc
 50
180.0
 51
270.0
  0
LINE
  5
125
330
1F
100
AcDbEntity
  8
LC-001-100-D00-0
 62
     7
370
    50
100
AcDbLine
 10
67.848606
 20
78.176685
 30
0.0
 11
74.341424
 21
78.176685
 31
0.0
  0
ARC
  5
126
330
1F
100
AcDbEntity
  8
LC-001-100-D00-0
 62
     7
370
    50
100
AcDbCircle
 10
74.341424
 20
77.676683
 30
0.0
 40
0.4999999999999983
100
AcDbArc
 50
282.0
 51
90.0
  0
LINE
  5
127
330
1F
100
AcDbEntity
  8
LC-001-100-D00-0
 62
     7
370
    50
100
AcDbLine
 10
67.744652
 20
75.763323
 30
0.0
 11
74.44538
 21
77.187606
 31
0.0
  0
ARC
  5
128
330
1F
100
AcDbEntity
  8
LC-001-100-D00-0
 62
     7
370
    50
100
AcDbCircle
 10
67.848607
 20
75.274251
 30
0.0
 40
0.5000000000000121
100
AcDbArc
 50
102.0
 51
180.0
  0
LINE
  5
129
330
1F
100
AcDbEntity
  8
LC-001-100-D00-0
 62
     7
370
    50
100
AcDbLine
 10
67.348607
 20
75.274252
 30
0.0
 11
67.348607
 21
68.17668
 31
0.0
  0
LINE
  5
12A
330
1F
100
AcDbEntity
  8
LC-001-100-D00-0
 62
     7
370
    50
100
AcDbLine
 10
64.642835
 20
68.17668
 30
0.0
 11
67.348607
 21
68.17668
 31
0.0
  0
LINE
  5
12B
330
1F
100
AcDbEntity
  8
LC-001-100-D00-0
 62
     7
370
    50
100
AcDbLine
 10
64.642835
 20
68.17668
 30
0.0
 11
65.848607
 21
72.676681
 31
0.0
  0
LINE
  5
12C
330
1F
100
AcDbEntity
  8
LC-001-100-D00-0
 62
     7
370
    50
100
AcDbLine
 10
65.848607
 20
250.176683
 30
0.0
 11
65.848607
 21
72.676681
 31
0.0
  0
LINE
  5
12D
330
1F
100
AcDbEntity
  8
LC-001-100-D00-0
 62
     7
370
    50
100
AcDbLine
 10
65.848607
 20
250.176683
 30
0.0
 11
74.341424
 21
250.176683
 31
0.0
  0
ARC
  5
12E
330
1F
100
AcDbEntity
  8
LC-001-100-D00-0
 62
     7
370
    50
100
AcDbCircle
 10
74.341424
 20
249.676683
 30
0.0
 40
0.5000000000000489
100
AcDbArc
 50
281.999998
 51
90.0
  0
LINE
  5
12F
330
1F
100
AcDbEntity
  8
LC-001-100-D00-0
 62
     7
370
    50
100
AcDbLine
 10
67.744652
 20
247.763329
 30
0.0
 11
74.44538
 21
249.187611
 31
0.0
  0
LINE
  5
130
330
1F
100
AcDbEntity
  8
LC-001-100-D00-0
 62
     7
370
    50
100
AcDbLine
 10
67.848606
 20
127.319539
 30
0.0
 11
74.338685
 21
127.319539
 31
0.0
  0
LINE
  5
131
330
1F
100
AcDbEntity
  8
LC-001-100-D00-0
 62
     7
370
    50
100
AcDbLine
 10
67.848606
 20
115.033826
 30
0.0
 11
74.338685
 21
115.033826
 31
0.0
  0
LINE
  5
132
330
1F
100
AcDbEntity
  8
LC-001-100-D00-0
 62
     7
370
    50
100
AcDbLine
 10
8.348605
 20
127.819539
 30
0.0
 11
8.348605
 21
136.703405
 31
0.0
  0
LINE
  5
133
330
1F
100
AcDbEntity
  8
LC-001-100-D00-0
 62
     7
370
    50
100
AcDbLine
 10
1.254572
 20
150.901895
 30
0.0
 11
7.952562
 21
149.478193
 31
0.0
  0
ARC
  5
134
330
1F
100
AcDbEntity
  8
LC-001-100-D00-0
 62
     7
370
    50
100
AcDbCircle
 10
1.358529
 20
114.533826
 30
0.0
 40
0.5000000000003126
100
AcDbArc
 50
90.0
 51
258.0
  0
ARC
  5
135
330
1F
100
AcDbEntity
  8
LC-001-100-D00-0
 62
     7
370
    50
100
AcDbCircle
 10
7.848607
 20
90.962397
 30
0.0
 40
0.5
100
AcDbArc
 50
270.0
 51
0.0
  0
ARC
  5
136
330
1F
100
AcDbEntity
  8
LC-001-100-D00-0
 62
     7
370
    50
100
AcDbCircle
 10
7.848607
 20
124.41769
 30
0.0
 40
0.5
100
AcDbArc
 50
0.0
 51
78.0
  0
ARC
  5
137
330
1F
100
AcDbEntity
  8
LC-001-100-D00-0
 62
     7
370
    50
100
AcDbCircle
 10
1.35579
 20
249.676683
 30
0.0
 40
0.5000000000000568
100
AcDbArc
 50
90.0
 51
258.000002
  0
LINE
  5
138
330
1F
100
AcDbEntity
  8
LC-001-100-D00-0
 62
     7
370
    50
100
AcDbLine
 10
1.355788
 20
250.176683
 30
0.0
 11
9.848608
 21
250.176683
 31
0.0
  0
LINE
  5
139
330
1F
100
AcDbEntity
  8
LC-001-100-D00-0
 62
     7
370
    50
100
AcDbLine
 10
9.848608
 20
72.676681
 30
0.0
 11
9.848608
 21
250.176683
 31
0.0
  0
LINE
  5
13A
330
1F
100
AcDbEntity
  8
LC-001-100-D00-0
 62
     7
370
    50
100
AcDbLine
 10
9.848608
 20
72.676681
 30
0.0
 11
11.05438
 21
68.17668
 31
0.0
  0
LINE
  5
13B
330
1F
100
AcDbEntity
  8
LC-001-100-D00-0
 62
     7
370
    50
100
AcDbLine
 10
8.348605
 20
68.17668
 30
0.0
 11
11.05438
 21
68.17668
 31
0.0
  0
LINE
  5
13C
330
1F
100
AcDbEntity
  8
LC-001-100-D00-0
 62
     7
370
    50
100
AcDbLine
 10
8.348605
 20
68.17668
 30
0.0
 11
8.348605
 21
75.274252
 31
0.0
  0
ARC
  5
13D
330
1F
100
AcDbEntity
  8
LC-001-100-D00-0
 62
     7
370
    50
100
AcDbCircle
 10
7.848607
 20
75.274251
 30
0.0
 40
0.5
100
AcDbArc
 50
0.0
 51
78.0
  0
LINE
  5
13E
330
1F
100
AcDbEntity
  8
LC-001-100-D00-0
 62
     7
370
    50
100
AcDbLine
 10
1.251837
 20
77.187606
 30
0.0
 11
7.952562
 21
75.763323
 31
0.0
  0
ARC
  5
13F
330
1F
100
AcDbEntity
  8
LC-001-100-D00-0
 62
     7
370
    50
100
AcDbCircle
 10
1.35579
 20
77.676683
 30
0.0
 40
0.5
100
AcDbArc
 50
90.0
 51
258.0
  0
LINE
  5
140
330
1F
100
AcDbEntity
  8
LC-001-100-D00-0
 62
     7
370
    50
100
AcDbLine
 10
1.355788
 20
78.176685
 30
0.0
 11
7.848604
 21
78.176685
 31
0.0
  0
ARC
  5
141
330
1F
100
AcDbEntity
  8
LC-001-100-D00-0
 62
     7
370
    50
100
AcDbCircle
 10
7.848607
 20
78.676683
 30
0.0
 40
0.5
100
AcDbArc
 50
270.0
 51
0.0
  0
LINE
  5
142
330
1F
100
AcDbEntity
  8
LC-001-100-D00-0
 62
     7
370
    50
100
AcDbLine
 10
8.348605
 20
78.676686
 30
0.0
 11
8.348605
 21
87.560546
 31
0.0
  0
ARC
  5
143
330
1F
100
AcDbEntity
  8
LC-001-100-D00-0
 62
     7
370
    50
100
AcDbCircle
 10
7.848607
 20
87.560547
 30
0.0
 40
0.5
100
AcDbArc
 50
0.0
 51
78.0
  0
LINE
  5
144
330
1F
100
AcDbEntity
  8
LC-001-100-D00-0
 62
     7
370
    50
100
AcDbLine
 10
1.254572
 20
89.473322
 30
0.0
 11
7.952562
 21
88.049621
 31
0.0
  0
ARC
  5
145
330
1F
100
AcDbEntity
  8
LC-001-100-D00-0
 62
     7
370
    50
100
AcDbCircle
 10
1.358529
 20
89.962397
 30
0.0
 40
0.5000000000003411
100
AcDbArc
 50
90.0
 51
258.0
  0
LINE
  5
146
330
1F
100
AcDbEntity
  8
LC-001-100-D00-0
 62
     7
370
    50
100
AcDbLine
 10
1.358529
 20
90.462398
 30
0.0
 11
7.848604
 21
90.462398
 31
0.0
  0
ARC
  5
147
330
1F
100
AcDbEntity
  8
LC-001-100-D00-0
 62
     7
370
    50
100
AcDbCircle
 10
7.848607
 20
99.846262
 30
0.0
 40
0.5000000000000284
100
AcDbArc
 50
0.0
 51
78.0
  0
ARC
  5
148
330
1F
100
AcDbEntity
  8
LC-001-100-D00-0
 62
     7
370
    50
100
AcDbCircle
 10
1.358529
 20
102.248112
 30
0.0
 40
0.5000000000003411
100
AcDbArc
 50
90.0
 51
258.0
  0
LINE
  5
149
330
1F
100
AcDbEntity
  8
LC-001-100-D00-0
 62
     7
370
    50
100
AcDbLine
 10
1.358529
 20
102.748111
 30
0.0
 11
7.848604
 21
102.748111
 31
0.0
  0
ARC
  5
14A
330
1F
100
AcDbEntity
  8
LC-001-100-D00-0
 62
     7
370
    50
100
AcDbCircle
 10
7.848607
 20
103.248112
 30
0.0
 40
0.5
100
AcDbArc
 50
270.0
 51
0.0
  0
LINE
  5
14B
330
1F
100
AcDbEntity
  8
LC-001-100-D00-0
 62
     7
370
    50
100
AcDbLine
 10
8.348605
 20
103.248112
 30
0.0
 11
8.348605
 21
112.131976
 31
0.0
  0
ARC
  5
14C
330
1F
100
AcDbEntity
  8
LC-001-100-D00-0
 62
     7
370
    50
100
AcDbCircle
 10
7.848607
 20
112.131976
 30
0.0
 40
0.5
100
AcDbArc
 50
0.0
 51
78.0
  0
LINE
  5
14D
330
1F
100
AcDbEntity
  8
LC-001-100-D00-0
 62
     7
370
    50
100
AcDbLine
 10
1.254572
 20
114.044752
 30
0.0
 11
7.952562
 21
112.621051
 31
0.0
  0
LINE
  5
14E
330
1F
100
AcDbEntity
  8
LC-001-100-D00-0
 62
     7
370
    50
100
AcDbLine
 10
1.254572
 20
126.330465
 30
0.0
 11
7.952562
 21
124.906764
 31
0.0
  0
ARC
  5
14F
330
1F
100
AcDbEntity
  8
LC-001-100-D00-0
 62
     7
370
    50
100
AcDbCircle
 10
1.358529
 20
126.81954
 30
0.0
 40
0.5000000000003126
100
AcDbArc
 50
90.0
 51
258.0
  0
ARC
  5
150
330
1F
100
AcDbEntity
  8
LC-001-100-D00-0
 62
     7
370
    50
100
AcDbCircle
 10
7.848607
 20
136.703405
 30
0.0
 40
0.5
100
AcDbArc
 50
0.0
 51
78.0
  0
LINE
  5
151
330
1F
100
AcDbEntity
  8
LC-001-100-D00-0
 62
     7
370
    50
100
AcDbLine
 10
1.254572
 20
138.616181
 30
0.0
 11
7.952562
 21
137.192479
 31
0.0
  0
ARC
  5
152
330
1F
100
AcDbEntity
  8
LC-001-100-D00-0
 62
     7
370
    50
100
AcDbCircle
 10
1.358529
 20
139.105255
 30
0.0
 40
0.5000000000003126
100
AcDbArc
 50
90.0
 51
258.0
  0
LINE
  5
153
330
1F
100
AcDbEntity
  8
LC-001-100-D00-0
 62
     7
370
    50
100
AcDbLine
 10
1.358529
 20
139.605255
 30
0.0
 11
7.848604
 21
139.605255
 31
0.0
  0
ARC
  5
154
330
1F
100
AcDbEntity
  8
LC-001-100-D00-0
 62
     7
370
    50
100
AcDbCircle
 10
7.848607
 20
140.105255
 30
0.0
 40
0.5
100
AcDbArc
 50
270.0
 51
0.0
  0
LINE
  5
155
330
1F
100
AcDbEntity
  8
LC-001-100-D00-0
 62
     7
370
    50
100
AcDbLine
 10
8.348605
 20
140.105255
 30
0.0
 11
8.348605
 21
148.989119
 31
0.0
  0
ARC
  5
156
330
1F
100
AcDbEntity
  8
LC-001-100-D00-0
 62
     7
370
    50
100
AcDbCircle
 10
7.848607
 20
148.989119
 30
0.0
 40
0.5000000000000284
100
AcDbArc
 50
0.0
 51
78.0
  0
ARC
  5
157
330
1F
100
AcDbEntity
  8
LC-001-100-D00-0
 62
     7
370
    50
100
AcDbCircle
 10
1.358529
 20
151.390969
 30
0.0
 40
0.5000000000003126
100
AcDbArc
 50
90.0
 51
258.0
  0
LINE
  5
158
330
1F
100
AcDbEntity
  8
LC-001-100-D00-0
 62
     7
370
    50
100
AcDbLine
 10
1.358529
 20
151.890968
 30
0.0
 11
7.848604
 21
151.890968
 31
0.0
  0
ARC
  5
159
330
1F
100
AcDbEntity
  8
LC-001-100-D00-0
 62
     7
370
    50
100
AcDbCircle
 10
7.848607
 20
152.390969
 30
0.0
 40
0.5
100
AcDbArc
 50
270.0
 51
0.0
  0
LINE
  5
15A
330
1F
100
AcDbEntity
  8
LC-001-100-D00-0
 62
     7
370
    50
100
AcDbLine
 10
8.348605
 20
152.390968
 30
0.0
 11
8.348605
 21
161.274834
 31
0.0
  0
ARC
  5
15B
330
1F
100
AcDbEntity
  8
LC-001-100-D00-0
 62
     7
370
    50
100
AcDbCircle
 10
7.848607
 20
161.274833
 30
0.0
 40
0.5
100
AcDbArc
 50
0.0
 51
78.0
  0
LINE
  5
15C
330
1F
100
AcDbEntity
  8
LC-001-100-D00-0
 62
     7
370
    50
100
AcDbLine
 10
1.254572
 20
163.187608
 30
0.0
 11
7.952562
 21
161.763907
 31
0.0
  0
ARC
  5
15D
330
1F
100
AcDbEntity
  8
LC-001-100-D00-0
 62
     7
370
    50
100
AcDbCircle
 10
1.358529
 20
163.676683
 30
0.0
 40
0.5000000000003695
100
AcDbArc
 50
90.0
 51
258.0
  0
LINE
  5
15E
330
1F
100
AcDbEntity
  8
LC-001-100-D00-0
 62
     7
370
    50
100
AcDbLine
 10
1.358529
 20
164.176682
 30
0.0
 11
7.848604
 21
164.176682
 31
0.0
  0
ARC
  5
15F
330
1F
100
AcDbEntity
  8
LC-001-100-D00-0
 62
     7
370
    50
100
AcDbCircle
 10
7.848607
 20
164.676683
 30
0.0
 40
0.5
100
AcDbArc
 50
270.0
 51
0.0
  0
LINE
  5
160
330
1F
100
AcDbEntity
  8
LC-001-100-D00-0
 62
     7
370
    50
100
AcDbLine
 10
8.348605
 20
164.676683
 30
0.0
 11
8.348605
 21
173.560547
 31
0.0
  0
ARC
  5
161
330
1F
100
AcDbEntity
  8
LC-001-100-D00-0
 62
     7
370
    50
100
AcDbCircle
 10
7.848607
 20
173.560547
 30
0.0
 40
0.5
100
AcDbArc
 50
0.0
 51
78.0
  0
LINE
  5
162
330
1F
100
AcDbEntity
  8
LC-001-100-D00-0
 62
     7
370
    50
100
AcDbLine
 10
1.254572
 20
175.473322
 30
0.0
 11
7.952562
 21
174.049622
 31
0.0
  0
ARC
  5
163
330
1F
100
AcDbEntity
  8
LC-001-100-D00-0
 62
     7
370
    50
100
AcDbCircle
 10
1.358529
 20
175.962397
 30
0.0
 40
0.5000000000002842
100
AcDbArc
 50
90.0
 51
258.0
  0
LINE
  5
164
330
1F
100
AcDbEntity
  8
LC-001-100-D00-0
 62
     7
370
    50
100
AcDbLine
 10
1.358529
 20
176.462397
 30
0.0
 11
7.848604
 21
176.462397
 31
0.0
  0
ARC
  5
165
330
1F
100
AcDbEntity
  8
LC-001-100-D00-0
 62
     7
370
    50
100
AcDbCircle
 10
7.848607
 20
176.962397
 30
0.0
 40
0.5
100
AcDbArc
 50
270.0
 51
0.0
  0
LINE
  5
166
330
1F
100
AcDbEntity
  8
LC-001-100-D00-0
 62
     7
370
    50
100
AcDbLine
 10
8.348605
 20
176.962398
 30
0.0
 11
8.348605
 21
185.846262
 31
0.0
  0
ARC
  5
167
330
1F
100
AcDbEntity
  8
LC-001-100-D00-0
 62
     7
370
    50
100
AcDbCircle
 10
7.848607
 20
185.846262
 30
0.0
 40
0.5000000000000284
100
AcDbArc
 50
0.0
 51
78.0
  0
LINE
  5
168
330
1F
100
AcDbEntity
  8
LC-001-100-D00-0
 62
     7
370
    50
100
AcDbLine
 10
1.254572
 20
187.759038
 30
0.0
 11
7.952562
 21
186.335337
 31
0.0
  0
ARC
  5
169
330
1F
100
AcDbEntity
  8
LC-001-100-D00-0
 62
     7
370
    50
100
AcDbCircle
 10
1.358529
 20
188.248112
 30
0.0
 40
0.5000000000002274
100
AcDbArc
 50
90.0
 51
258.0
  0
LINE
  5
16A
330
1F
100
AcDbEntity
  8
LC-001-100-D00-0
 62
     7
370
    50
100
AcDbLine
 10
1.358529
 20
188.74811
 30
0.0
 11
7.848604
 21
188.74811
 31
0.0
  0
ARC
  5
16B
330
1F
100
AcDbEntity
  8
LC-001-100-D00-0
 62
     7
370
    50
100
AcDbCircle
 10
7.848607
 20
189.248112
 30
0.0
 40
0.5
100
AcDbArc
 50
270.0
 51
0.0
  0
LINE
  5
16C
330
1F
100
AcDbEntity
  8
LC-001-100-D00-0
 62
     7
370
    50
100
AcDbLine
 10
8.348605
 20
189.248111
 30
0.0
 11
8.348605
 21
198.131975
 31
0.0
  0
ARC
  5
16D
330
1F
100
AcDbEntity
  8
LC-001-100-D00-0
 62
     7
370
    50
100
AcDbCircle
 10
7.848607
 20
198.131976
 30
0.0
 40
0.5000000000000284
100
AcDbArc
 50
0.0
 51
78.0
  0
LINE
  5
16E
330
1F
100
AcDbEntity
  8
LC-001-100-D00-0
 62
     7
370
    50
100
AcDbLine
 10
1.254572
 20
200.044752
 30
0.0
 11
7.952562
 21
198.62105
 31
0.0
  0
ARC
  5
16F
330
1F
100
AcDbEntity
  8
LC-001-100-D00-0
 62
     7
370
    50
100
AcDbCircle
 10
1.358529
 20
200.533826
 30
0.0
 40
0.5000000000003126
100
AcDbArc
 50
90.0
 51
258.0
  0
LINE
  5
170
330
1F
100
AcDbEntity
  8
LC-001-100-D00-0
 62
     7
370
    50
100
AcDbLine
 10
1.358529
 20
201.033827
 30
0.0
 11
7.848604
 21
201.033827
 31
0.0
  0
ARC
  5
171
330
1F
100
AcDbEntity
  8
LC-001-100-D00-0
 62
     7
370
    50
100
AcDbCircle
 10
7.848607
 20
201.533826
 30
0.0
 40
0.5
100
AcDbArc
 50
270.0
 51
0.0
  0
LINE
  5
172
330
1F
100
AcDbEntity
  8
LC-001-100-D00-0
 62
     7
370
    50
100
AcDbLine
 10
8.348605
 20
201.533825
 30
0.0
 11
8.348605
 21
210.417688
 31
0.0
  0
ARC
  5
173
330
1F
100
AcDbEntity
  8
LC-001-100-D00-0
 62
     7
370
    50
100
AcDbCircle
 10
7.848607
 20
210.41769
 30
0.0
 40
0.5000000000000284
100
AcDbArc
 50
0.0
 51
78.0
  0
LINE
  5
174
330
1F
100
AcDbEntity
  8
LC-001-100-D00-0
 62
     7
370
    50
100
AcDbLine
 10
1.254572
 20
212.330468
 30
0.0
 11
7.952562
 21
210.906767
 31
0.0
  0
ARC
  5
175
330
1F
100
AcDbEntity
  8
LC-001-100-D00-0
 62
     7
370
    50
100
AcDbCircle
 10
1.358529
 20
212.81954
 30
0.0
 40
0.5000000000003126
100
AcDbArc
 50
90.0
 51
258.0
  0
LINE
  5
176
330
1F
100
AcDbEntity
  8
LC-001-100-D00-0
 62
     7
370
    50
100
AcDbLine
 10
1.358529
 20
213.31954
 30
0.0
 11
7.848604
 21
213.31954
 31
0.0
  0
ARC
  5
177
330
1F
100
AcDbEntity
  8
LC-001-100-D00-0
 62
     7
370
    50
100
AcDbCircle
 10
7.848607
 20
213.81954
 30
0.0
 40
0.5
100
AcDbArc
 50
270.0
 51
0.0
  0
LINE
  5
178
330
1F
100
AcDbEntity
  8
LC-001-100-D00-0
 62
     7
370
    50
100
AcDbLine
 10
8.348605
 20
213.819541
 30
0.0
 11
8.348605
 21
222.703405
 31
0.0
  0
ARC
  5
179
330
1F
100
AcDbEntity
  8
LC-001-100-D00-0
 62
     7
370
    50
100
AcDbCircle
 10
7.848607
 20
222.703405
 30
0.0
 40
0.5
100
AcDbArc
 50
0.0
 51
78.0
  0
LINE
  5
17A
330
1F
100
AcDbEntity
  8
LC-001-100-D00-0
 62
     7
370
    50
100
AcDbLine
 10
1.254572
 20
224.616178
 30
0.0
 11
7.952562
 21
223.192476
 31
0.0
  0
ARC
  5
17B
330
1F
100
AcDbEntity
  8
LC-001-100-D00-0
 62
     7
370
    50
100
AcDbCircle
 10
1.358529
 20
225.105255
 30
0.0
 40
0.5000000000003411
100
AcDbArc
 50
90.0
 51
258.0
  0
LINE
  5
17C
330
1F
100
AcDbEntity
  8
LC-001-100-D00-0
 62
     7
370
    50
100
AcDbLine
 10
1.358529
 20
225.605257
 30
0.0
 11
7.848604
 21
225.605257
 31
0.0
  0
ARC
  5
17D
330
1F
100
AcDbEntity
  8
LC-001-100-D00-0
 62
     7
370
    50
100
AcDbCircle
 10
7.848607
 20
226.105255
 30
0.0
 40
0.5
100
AcDbArc
 50
270.0
 51
0.0
  0
LINE
  5
17E
330
1F
100
AcDbEntity
  8
LC-001-100-D00-0
 62
     7
370
    50
100
AcDbLine
 10
8.348605
 20
226.105258
 30
0.0
 11
8.348605
 21
234.989122
 31
0.0
  0
LINE
  5
17F
330
1F
100
AcDbEntity
  8
LC-001-100-D00-0
 62
     7
370
    50
100
AcDbLine
 10
1.254572
 20
236.901895
 30
0.0
 11
7.952562
 21
235.478193
 31
0.0
  0
ARC
  5
180
330
1F
100
AcDbEntity
  8
LC-001-100-D00-0
 62
     7
370
    50
100
AcDbCircle
 10
1.358529
 20
237.390969
 30
0.0
 40
0.5000000000003411
100
AcDbArc
 50
90.0
 51
258.0
  0
LINE
  5
181
330
1F
100
AcDbEntity
  8
LC-001-100-D00-0
 62
     7
370
    50
100
AcDbLine
 10
1.251837
 20
249.187611
 30
0.0
 11
7.952562
 21
247.763329
 31
0.0
  0
LINE
  5
182
330
1F
100
AcDbEntity
  8
LC-001-100-D00-0
 62
     7
370
    50
100
AcDbLine
 10
1.358529
 20
237.890967
 30
0.0
 11
7.848604
 21
237.890967
 31
0.0
  0
LINE
  5
183
330
1F
100
AcDbEntity
  8
LC-001-100-D00-0
 62
     7
370
    50
100
AcDbLine
 10
1.358529
 20
127.319539
 30
0.0
 11
7.848604
 21
127.319539
 31
0.0
  0
LINE
  5
184
330
1F
100
AcDbEntity
  8
LC-001-100-D00-0
 62
     7
370
    50
100
AcDbLine
 10
1.358529
 20
115.033826
 30
0.0
 11
7.848604
 21
115.033826
 31
0.0
  0
LINE
  5
185
330
1F
100
AcDbEntity
  8
LC-001-100-D00-0
 62
     7
370
    50
100
AcDbLine
 10
101.598607
 20
285.17668
 30
0.0
 11
101.598607
 21
283.576683
 31
0.0
  0
LINE
  5
186
330
1F
100
AcDbEntity
  8
LC-001-100-D00-0
 62
     7
370
    50
100
AcDbLine
 10
101.598607
 20
283.576683
 30
0.0
 11
105.098607
 21
283.576683
 31
0.0
  0
LINE
  5
187
330
1F
100
AcDbEntity
  8
LC-001-100-D00-0
 62
     7
370
    50
100
AcDbLine
 10
105.098607
 20
283.576683
 30
0.0
 11
105.098607
 21
270.176679
 31
0.0
  0
LINE
  5
188
330
1F
100
AcDbEntity
  8
LC-001-100-D00-0
 62
     7
370
    50
100
AcDbLine
 10
110.098608
 20
270.176679
 30
0.0
 11
105.098607
 21
270.176679
 31
0.0
  0
LINE
  5
189
330
1F
100
AcDbEntity
  8
LC-001-100-D00-0
 62
     7
370
    50
100
AcDbLine
 10
110.098608
 20
270.176679
 30
0.0
 11
110.098608
 21
283.576683
 31
0.0
  0
LINE
  5
18A
330
1F
100
AcDbEntity
  8
LC-001-100-D00-0
 62
     7
370
    50
100
AcDbLine
 10
110.098608
 20
283.576683
 30
0.0
 11
114.098607
 21
283.576683
 31
0.0
  0
LINE
  5
18B
330
1F
100
AcDbEntity
  8
LC-001-100-D00-0
 62
     7
370
    50
100
AcDbLine
 10
114.098607
 20
283.576683
 30
0.0
 11
114.098607
 21
280.076683
 31
0.0
  0
LINE
  5
18C
330
1F
100
AcDbEntity
  8
LC-001-100-D00-0
 62
     7
370
    50
100
AcDbLine
 10
114.098607
 20
280.076683
 30
0.0
 11
120.098608
 21
280.076683
 31
0.0
  0
LINE
  5
18D
330
1F
100
AcDbEntity
  8
LC-001-100-D00-0
 62
     7
370
    50
100
AcDbLine
 10
120.098608
 20
280.076683
 30
0.0
 11
120.098608
 21
283.576683
 31
0.0
  0
LINE
  5
18E
330
1F
100
AcDbEntity
  8
LC-001-100-D00-0
 62
     7
370
    50
100
AcDbLine
 10
120.098608
 20
283.576683
 30
0.0
 11
123.848608
 21
283.576683
 31
0.0
  0
LINE
  5
18F
330
1F
100
AcDbEntity
  8
LC-001-100-D00-0
 62
     7
370
    50
100
AcDbLine
 10
123.848608
 20
283.576683
 30
0.0
 11
144.348608
 21
288.384915
 31
0.0
  0
LINE
  5
190
330
1F
100
AcDbEntity
  8
LC-001-100-D00-0
 62
     7
370
    50
100
AcDbLine
 10
144.348608
 20
288.384915
 30
0.0
 11
149.606002
 21
288.476676
 31
0.0
  0
ARC
  5
191
330
1F
100
AcDbEntity
  8
LC-001-100-D00-0
 62
     7
370
    50
100
AcDbCircle
 10
149.848623
 20
285.486509
 30
0.0
 40
2.999999999940309
100
AcDbArc
 50
359.812325
 51
94.638715
  0
LINE
  5
192
330
1F
100
AcDbEntity
  8
LC-001-100-D00-0
 62
     7
370
    50
100
AcDbLine
 10
152.848607
 20
285.476685
 30
0.0
 11
143.325848
 21
285.476685
 31
0.0
  0
LINE
  5
193
330
1F
100
AcDbEntity
  8
LC-001-100-D00-0
 62
     7
370
    50
100
AcDbLine
 10
143.325848
 20
285.476685
 30
0.0
 11
125.598608
 21
280.726686
 31
0.0
  0
LINE
  5
194
330
1F
100
AcDbEntity
  8
LC-001-100-D00-0
 62
     7
370
    50
100
AcDbLine
 10
125.598608
 20
280.726686
 30
0.0
 11
122.348608
 21
277.476684
 31
0.0
  0
LINE
  5
195
330
1F
100
AcDbEntity
  8
LC-001-100-D00-0
 62
     7
370
    50
100
AcDbLine
 10
122.348608
 20
277.476684
 30
0.0
 11
115.098607
 21
277.476684
 31
0.0
  0
LINE
  5
196
330
1F
100
AcDbEntity
  8
LC-001-100-D00-0
 62
     7
370
    50
100
AcDbLine
 10
115.098607
 20
277.476684
 30
0.0
 11
115.098607
 21
269.176677
 31
0.0
  0
LINE
  5
197
330
1F
100
AcDbEntity
  8
LC-001-100-D00-0
 62
     7
370
    50
100
AcDbLine
 10
115.098607
 20
269.176677
 30
0.0
 11
111.931909
 21
269.176677
 31
0.0
  0
ARC
  5
198
330
1F
100
AcDbEntity
  8
LC-001-100-D00-0
 62
     7
370
    50
100
AcDbCircle
 10
107.598607
 20
273.326683
 30
0.0
 40
6.000000000000038
100
AcDbArc
 50
223.762185
 51
316.237815
  0
LINE
  5
199
330
1F
100
AcDbEntity
  8
LC-001-100-D00-0
 62
     7
370
    50
100
AcDbLine
 10
103.265306
 20
269.176677
 30
0.0
 11
65.848607
 21
269.176677
 31
0.0
  0
LINE
  5
19A
330
1F
100
AcDbEntity
  8
LC-001-100-D00-0
 62
     7
370
    50
100
AcDbLine
 10
65.848607
 20
269.176677
 30
0.0
 11
65.848607
 21
71.676679
 31
0.0
  0
LINE
  5
19B
330
1F
100
AcDbEntity
  8
LC-001-100-D00-0
 62
     7
370
    50
100
AcDbLine
 10
65.848607
 20
71.676679
 30
0.0
 11
64.910784
 21
68.17668
 31
0.0
  0
LINE
  5
19C
330
1F
100
AcDbEntity
  8
LC-001-100-D00-0
 62
     7
370
    50
100
AcDbLine
 10
64.910784
 20
68.17668
 30
0.0
 11
62.848607
 21
68.17668
 31
0.0
  0
LINE
  5
19D
330
1F
100
AcDbEntity
  8
LC-001-100-D00-0
 62
     7
370
    50
100
AcDbLine
 10
62.848607
 20
68.17668
 30
0.0
 11
62.848607
 21
272.176683
 31
0.0
  0
LINE
  5
19E
330
1F
100
AcDbEntity
  8
LC-001-100-D00-0
 62
     7
370
    50
100
AcDbLine
 10
62.848607
 20
272.176683
 30
0.0
 11
97.598607
 21
272.176683
 31
0.0
  0
LINE
  5
19F
330
1F
100
AcDbEntity
  8
LC-001-100-D00-0
 62
     7
370
    50
100
AcDbLine
 10
97.598607
 20
272.176683
 30
0.0
 11
97.598607
 21
285.17668
 31
0.0
  0
LINE
  5
1A0
330
1F
100
AcDbEntity
  8
LC-001-100-D00-0
 62
     7
370
    50
100
AcDbLine
 10
97.598607
 20
285.17668
 30
0.0
 11
101.598607
 21
285.17668
 31
0.0
  0
LINE
  5
1A1
330
1F
100
AcDbEntity
  8
LC-001-100-D00-0
 62
     7
370
    50
100
AcDbLine
 10
-22.076601
 20
288.176686
 30
0.0
 11
-22.076601
 21
285.17668
 31
0.0
  0
LINE
  5
1A2
330
1F
100
AcDbEntity
  8
LC-001-100-D00-0
 62
     7
370
    50
100
AcDbLine
 10
-24.901392
 20
285.17668
 30
0.0
 11
-24.901392
 21
288.176686
 31
0.0
  0
LINE
  5
1A3
330
1F
100
AcDbEntity
  8
LC-001-100-D00-0
 62
     7
370
    50
100
AcDbLine
 10
-22.15139
 20
288.176686
 30
0.0
 11
-22.15139
 21
285.17668
 31
0.0
  0
LINE
  5
1A4
330
1F
100
AcDbEntity
  8
LC-001-100-D00-0
 62
     7
370
    50
100
AcDbLine
 10
110.098608
 20
283.576683
 30
0.0
 11
109.848607
 21
283.576683
 31
0.0
  0
LINE
  5
1A5
330
1F
100
AcDbEntity
  8
LC-001-100-D00-0
 62
     7
370
    50
100
AcDbLine
 10
105.440145
 20
283.576683
 30
0.0
 11
105.098607
 21
283.576683
 31
0.0
  0
LINE
  5
1A6
330
1F
100
AcDbEntity
  8
LC-001-100-D00-0
 62
     7
370
    50
100
AcDbLine
 10
-25.901394
 20
283.576683
 30
0.0
 11
-25.901394
 21
285.17668
 31
0.0
  0
LINE
  5
1A7
330
1F
100
AcDbEntity
  8
LC-001-100-D00-0
 62
     7
370
    50
100
AcDbLine
 10
-29.401394
 20
270.176679
 30
0.0
 11
-29.401394
 21
283.576683
 31
0.0
  0
LINE
  5
1A8
330
1F
100
AcDbEntity
  8
LC-001-100-D00-0
 62
     7
370
    50
100
AcDbLine
 10
-34.401396
 20
283.576683
 30
0.0
 11
-34.401396
 21
270.176679
 31
0.0
  0
LINE
  5
1A9
330
1F
100
AcDbEntity
  8
LC-001-100-D00-0
 62
     7
370
    50
100
AcDbLine
 10
-29.401394
 20
283.576683
 30
0.0
 11
-30.150661
 21
283.576683
 31
0.0
  0
LINE
  5
1AA
330
1F
100
AcDbEntity
  8
LC-001-100-D00-0
 62
     7
370
    50
100
AcDbLine
 10
-21.901393
 20
285.17668
 30
0.0
 11
-21.901393
 21
272.176683
 31
0.0
  0
LINE
  5
1AB
330
1F
100
AcDbEntity
  8
LC-001-100-D00-0
 62
     7
370
    50
100
AcDbLine
 10
-21.901393
 20
285.17668
 30
0.0
 11
-18.651391
 21
285.17668
 31
0.0
  0
LINE
  5
1AC
330
1F
100
AcDbEntity
  8
LC-001-100-D00-0
 62
     7
370
    50
100
AcDbLine
 10
94.348607
 20
285.17668
 30
0.0
 11
97.598607
 21
285.17668
 31
0.0
  0
LINE
  5
1AD
330
1F
100
AcDbEntity
  8
LC-001-100-D00-0
 62
     7
370
    50
100
AcDbLine
 10
-39.401399
 20
269.176677
 30
0.0
 11
-39.401399
 21
277.476684
 31
0.0
  0
ARC
  5
1AE
330
1F
100
AcDbEntity
  8
LC-001-100-D00-0
 62
     7
370
    50
100
AcDbCircle
 10
-31.901393
 20
273.326683
 30
0.0
 40
5.999999999999979
100
AcDbArc
 50
223.762185
 51
316.237815
  0
LINE
  5
1AF
330
1F
100
AcDbEntity
  8
LC-001-100-D00-0
 62
     7
370
    50
100
AcDbLine
 10
10.786427
 20
68.17668
 30
0.0
 11
9.848608
 21
71.676679
 31
0.0
  0
LINE
  5
1B0
330
1F
100
AcDbEntity
  8
LC-001-100-D00-0
 62
     7
370
    50
100
AcDbLine
 10
9.848608
 20
71.676679
 30
0.0
 11
9.848608
 21
269.176677
 31
0.0
  0
LINE
  5
1B1
330
1F
100
AcDbEntity
  8
LC-001-100-D00-0
 62
     7
370
    50
100
AcDbLine
 10
12.848606
 20
272.176683
 30
0.0
 11
12.848606
 21
68.17668
 31
0.0
  0
LINE
  5
1B2
330
1F
100
AcDbEntity
  8
LC-001-100-D00-0
 62
     7
370
    50
100
AcDbLine
 10
12.848606
 20
68.17668
 30
0.0
 11
62.848607
 21
68.17668
 31
0.0
  0
LINE
  5
1B3
330
1F
100
AcDbEntity
  8
LC-001-100-D00-0
 62
     7
370
    50
100
AcDbLine
 10
12.848606
 20
272.176683
 30
0.0
 11
62.848607
 21
272.176683
 31
0.0
  0
LINE
  5
1B4
330
1F
100
AcDbEntity
  8
LC-001-100-D00-0
 62
     7
370
    50
100
AcDbLine
 10
-46.651395
 20
277.476684
 30
0.0
 11
-49.901398
 21
280.726686
 31
0.0
  0
LINE
  5
1B5
330
1F
100
AcDbEntity
  8
LC-001-100-D00-0
 62
     7
370
    50
100
AcDbLine
 10
-49.901398
 20
280.726686
 30
0.0
 11
-67.628639
 21
285.476685
 31
0.0
  0
ARC
  5
1B6
330
1F
100
AcDbEntity
  8
LC-001-100-D00-0
 62
     7
370
    50
100
AcDbCircle
 10
-74.151409
 20
285.486509
 30
0.0
 40
2.999999999940289
100
AcDbArc
 50
85.361285
 51
180.187675
  0
LINE
  5
1B7
330
1F
100
AcDbEntity
  8
LC-001-100-D00-0
 62
     7
370
    50
100
AcDbLine
 10
-73.908793
 20
288.476676
 30
0.0
 11
-54.590331
 21
288.476676
 31
0.0
  0
LINE
  5
1B8
330
1F
100
AcDbEntity
  8
LC-001-100-D00-0
 62
     7
370
    50
100
AcDbLine
 10
130.287545
 20
288.476676
 30
0.0
 11
149.606002
 21
288.476676
 31
0.0
  0
LINE
  5
1B9
330
1F
100
AcDbEntity
  8
LC-001-100-D00-0
 62
     7
370
    50
100
AcDbLine
 10
-73.908793
 20
288.476676
 30
0.0
 11
-68.651395
 21
288.384915
 31
0.0
  0
LINE
  5
1BA
330
1F
100
AcDbEntity
  8
LC-001-100-D00-0
 62
     7
370
    50
100
AcDbLine
 10
-68.651395
 20
288.384915
 30
0.0
 11
-48.151391
 21
283.576683
 31
0.0
  0
LINE
  5
1BB
330
1F
100
AcDbEntity
  8
LC-001-100-D00-0
 62
     7
370
    50
100
AcDbLine
 10
-44.401394
 20
283.576683
 30
0.0
 11
-44.401394
 21
280.076683
 31
0.0
  0
LINE
  5
1BC
330
1F
100
AcDbEntity
  8
LC-001-100-D00-0
 62
     7
370
    50
100
AcDbLine
 10
-44.401394
 20
283.576683
 30
0.0
 11
-43.651389
 21
283.576683
 31
0.0
  0
LINE
  5
1BD
330
1F
100
AcDbEntity
  8
LC-001-100-D00-0
 62
     7
370
    50
100
AcDbLine
 10
119.348606
 20
283.576683
 30
0.0
 11
120.098608
 21
283.576683
 31
0.0
  0
LINE
  5
1BE
330
1F
100
AcDbEntity
  8
LC-001-100-D00-0
 62
     7
370
    50
100
AcDbLine
 10
-38.40139
 20
280.076683
 30
0.0
 11
-38.40139
 21
283.576683
 31
0.0
  0
LINE
  5
1BF
330
1F
100
AcDbEntity
  8
LC-001-100-D00-0
 62
     7
370
    50
100
AcDbLine
 10
-22.15139
 20
285.17668
 30
0.0
 11
-21.901393
 21
285.17668
 31
0.0
  0
LINE
  5
1C0
330
1F
100
AcDbEntity
  8
LC-001-100-D00-0
 62
     7
370
    50
100
AcDbLine
 10
-25.901394
 20
285.17668
 30
0.0
 11
-24.901392
 21
285.17668
 31
0.0
  0
LINE
  5
1C1
330
1F
100
AcDbEntity
  8
LC-001-100-D00-0
 62
     7
370
    50
100
AcDbLine
 10
-39.401399
 20
277.476684
 30
0.0
 11
-46.651395
 21
277.476684
 31
0.0
  0
LINE
  5
1C2
330
1F
100
AcDbEntity
  8
LC-001-100-D00-0
 62
     7
370
    50
100
AcDbLine
 10
-44.401394
 20
280.076683
 30
0.0
 11
-38.40139
 21
280.076683
 31
0.0
  0
LINE
  5
1C3
330
1F
100
AcDbEntity
  8
LC-001-100-D00-0
 62
     7
370
    50
100
AcDbLine
 10
-67.628639
 20
285.476685
 30
0.0
 11
-77.15139
 21
285.476685
 31
0.0
  0
LINE
  5
1C4
330
1F
100
AcDbEntity
  8
LC-001-100-D00-0
 62
     7
370
    50
100
AcDbLine
 10
-36.234694
 20
269.176677
 30
0.0
 11
-39.401399
 21
269.176677
 31
0.0
  0
LINE
  5
1C5
330
1F
100
AcDbEntity
  8
LC-001-100-D00-0
 62
     7
370
    50
100
AcDbLine
 10
9.848608
 20
269.176677
 30
0.0
 11
-27.568089
 21
269.176677
 31
0.0
  0
LINE
  5
1C6
330
1F
100
AcDbEntity
  8
LC-001-100-D00-0
 62
     7
370
    50
100
AcDbLine
 10
12.848606
 20
68.17668
 30
0.0
 11
10.786427
 21
68.17668
 31
0.0
  0
LINE
  5
1C7
330
1F
100
AcDbEntity
  8
LC-001-100-D00-0
 62
     7
370
    50
100
AcDbLine
 10
-21.901393
 20
272.176683
 30
0.0
 11
12.848606
 21
272.176683
 31
0.0
  0
LINE
  5
1C8
330
1F
100
AcDbEntity
  8
LC-001-100-D00-0
 62
     7
370
    50
100
AcDbLine
 10
-29.401394
 20
270.176679
 30
0.0
 11
-34.401396
 21
270.176679
 31
0.0
  0
LINE
  5
1C9
330
1F
100
AcDbEntity
  8
LC-001-100-D00-0
 62
     7
370
    50
100
AcDbLine
 10
-22.15139
 20
289.176688
 30
0.0
 11
-24.901392
 21
289.176688
 31
0.0
  0
LINE
  5
1CA
330
1F
100
AcDbEntity
  8
LC-001-100-D00-0
 62
     7
370
    50
100
AcDbLine
 10
-29.401394
 20
283.576683
 30
0.0
 11
-25.901394
 21
283.576683
 31
0.0
  0
LINE
  5
1CB
330
1F
100
AcDbEntity
  8
LC-001-100-D00-0
 62
     7
370
    50
100
AcDbLine
 10
-38.40139
 20
283.576683
 30
0.0
 11
-34.401396
 21
283.576683
 31
0.0
  0
LINE
  5
1CC
330
1F
100
AcDbEntity
  8
LC-001-100-D00-0
 62
     7
370
    50
100
AcDbLine
 10
-48.151391
 20
283.576683
 30
0.0
 11
-44.401394
 21
283.576683
 31
0.0
  0
LINE
  5
1CD
330
1F
100
AcDbEntity
  8
LC-001-100-D00-0
 62
     7
370
    50
100
AcDbLine
 10
101.598607
 20
284.096301
 30
0.0
 11
103.298876
 21
284.096301
 31
0.0
  0
LINE
  5
1CE
330
1F
100
AcDbEntity
  8
LC-001-100-D00-0
 62
     7
370
    50
100
AcDbLine
 10
103.298876
 20
284.096301
 30
0.0
 11
103.017799
 21
283.576683
 31
0.0
  0
LINE
  5
1CF
330
1F
100
AcDbEntity
  8
LC-001-100-D00-0
 62
     7
370
    50
100
AcDbLine
 10
103.58124
 20
283.576683
 30
0.0
 11
103.298876
 21
284.096301
 31
0.0
  0
LINE
  5
1D0
330
1F
100
AcDbEntity
  8
LC-001-100-D00-0
 62
     7
370
    50
100
AcDbLine
 10
-27.320588
 20
283.576683
 30
0.0
 11
-27.601661
 21
284.096301
 31
0.0
  0
LINE
  5
1D1
330
1F
100
AcDbEntity
  8
LC-001-100-D00-0
 62
     7
370
    50
100
AcDbLine
 10
-27.601661
 20
284.096301
 30
0.0
 11
-27.884031
 21
283.576683
 31
0.0
  0
LINE
  5
1D2
330
1F
100
AcDbEntity
  8
LC-001-100-D00-0
 62
     7
370
    50
100
AcDbLine
 10
-27.601661
 20
284.096301
 30
0.0
 11
-25.901394
 21
284.096301
 31
0.0
  0
LINE
  5
1D3
330
1F
100
AcDbEntity
  8
LC-001-100-D00-0
 62
     7
370
    50
100
AcDbLine
 10
-36.101664
 20
284.096301
 30
0.0
 11
-36.420586
 21
283.576683
 31
0.0
  0
LINE
  5
1D4
330
1F
100
AcDbEntity
  8
LC-001-100-D00-0
 62
     7
370
    50
100
AcDbLine
 10
-35.78403
 20
283.576683
 30
0.0
 11
-36.101664
 21
284.096301
 31
0.0
  0
LINE
  5
1D5
330
1F
100
AcDbEntity
  8
LC-001-100-D00-0
 62
     7
370
    50
100
AcDbLine
 10
111.798875
 20
284.096301
 30
0.0
 11
111.481242
 21
283.576683
 31
0.0
  0
LINE
  5
1D6
330
1F
100
AcDbEntity
  8
LC-001-100-D00-0
 62
     7
370
    50
100
AcDbLine
 10
112.117801
 20
283.576683
 30
0.0
 11
111.798875
 21
284.096301
 31
0.0
  0
LINE
  5
1D7
330
1F
100
AcDbEntity
  8
LC-001-100-D00-0
 62
     7
370
    50
100
AcDbLine
 10
-36.101664
 20
284.096301
 30
0.0
 11
-34.45928
 21
284.096301
 31
0.0
  0
LINE
  5
1D8
330
1F
100
AcDbEntity
  8
LC-001-100-D00-0
 62
     7
370
    50
100
AcDbLine
 10
110.016009
 20
284.096301
 30
0.0
 11
111.798875
 21
284.096301
 31
0.0
  0
LINE
  5
1D9
330
1F
100
AcDbEntity
  8
LC-001-100-D00-0
 62
     7
370
    50
100
AcDbLine
 10
-29.218795
 20
284.096301
 30
0.0
 11
-29.508473
 21
283.576683
 31
0.0
  0
LINE
  5
1DA
330
1F
100
AcDbEntity
  8
LC-001-100-D00-0
 62
     7
370
    50
100
AcDbLine
 10
-28.930405
 20
283.576683
 30
0.0
 11
-29.218795
 21
284.096301
 31
0.0
  0
LINE
  5
1DB
330
1F
100
AcDbEntity
  8
LC-001-100-D00-0
 62
     7
370
    50
100
AcDbLine
 10
-29.218795
 20
284.096301
 30
0.0
 11
-27.671458
 21
284.096301
 31
0.0
  0
LINE
  5
1DC
330
1F
100
AcDbEntity
  8
LC-001-100-D00-0
 62
     7
370
    50
100
AcDbLine
 10
103.443317
 20
284.096301
 30
0.0
 11
104.916008
 21
284.096301
 31
0.0
  0
LINE
  5
1DD
330
1F
100
AcDbEntity
  8
LC-001-100-D00-0
 62
     7
370
    50
100
AcDbLine
 10
104.916008
 20
284.096301
 30
0.0
 11
104.62762
 21
283.576683
 31
0.0
  0
LINE
  5
1DE
330
1F
100
AcDbEntity
  8
LC-001-100-D00-0
 62
     7
370
    50
100
AcDbLine
 10
105.09295
 20
283.778906
 30
0.0
 11
104.916008
 21
284.096301
 31
0.0
  0
LINE
  5
1DF
330
1F
100
AcDbEntity
  8
LC-001-100-D00-0
 62
     7
370
    50
100
AcDbLine
 10
110.016009
 20
284.096301
 30
0.0
 11
109.848607
 21
283.815995
 31
0.0
  0
LINE
  5
1E0
330
1F
100
AcDbEntity
  8
LC-001-100-D00-0
 62
     7
370
    50
100
AcDbLine
 10
110.327622
 20
283.576683
 30
0.0
 11
110.016009
 21
284.096301
 31
0.0
  0
LINE
  5
1E1
330
1F
100
AcDbEntity
  8
LC-001-100-D00-0
 62
     7
370
    50
100
AcDbLine
 10
109.848607
 20
284.096301
 30
0.0
 11
110.016009
 21
284.096301
 31
0.0
  0
LINE
  5
1E2
330
1F
100
AcDbEntity
  8
LC-001-100-D00-0
 62
     7
370
    50
100
AcDbLine
 10
-30.150661
 20
284.096301
 30
0.0
 11
-29.218795
 21
284.096301
 31
0.0
  0
LINE
  5
1E3
330
1F
100
AcDbEntity
  8
LC-001-100-D00-0
 62
     7
370
    50
100
AcDbLine
 10
104.916008
 20
284.096301
 30
0.0
 11
105.844727
 21
284.096301
 31
0.0
  0
INSERT
  5
1EA
330
1F
100
AcDbEntity
  8
LC-001-100-D00-0
 62
     7
370
    50
100
AcDbBlockReference
  2
KLON1
 10
0.0
 20
0.0
 30
0.0
  0
INSERT
  5
1F1
330
1F
100
AcDbEntity
  8
LC-001-100-D00-0
 62
     7
370
    50
100
AcDbBlockReference
  2
KLON2
 10
0.0
 20
0.0
 30
0.0
  0
INSERT
  5
1FD
330
1F
100
AcDbEntity
  8
LC-001-100-D00-0
 62
     7
370
    50
100
AcDbBlockReference
  2
POLY12
 10
0.0
 20
0.0
 30
0.0
  0
LINE
  5
1FE
330
1F
100
AcDbEntity
  8
LC-001-100-D00-0
 62
     7
370
    50
100
AcDbLine
 10
110.887028
 20
285.185948
 30
0.0
 11
111.098606
 21
285.021559
 31
0.0
  0
INSERT
  5
205
330
1F
100
AcDbEntity
  8
LC-001-100-D00-0
 62
     7
370
    50
100
AcDbBlockReference
  2
KLON3
 10
0.0
 20
0.0
 30
0.0
  0
INSERT
  5
20C
330
1F
100
AcDbEntity
  8
LC-001-100-D00-0
 62
     7
370
    50
100
AcDbBlockReference
  2
KLON4
 10
0.0
 20
0.0
 30
0.0
  0
INSERT
  5
213
330
1F
100
AcDbEntity
  8
LC-001-100-D00-0
 62
     7
370
    50
100
AcDbBlockReference
  2
KLON5
 10
0.0
 20
0.0
 30
0.0
  0
INSERT
  5
21A
330
1F
100
AcDbEntity
  8
LC-001-100-D00-0
 62
     7
370
    50
100
AcDbBlockReference
  2
KLON6
 10
0.0
 20
0.0
 30
0.0
  0
INSERT
  5
221
330
1F
100
AcDbEntity
  8
LC-001-100-D00-0
 62
     7
370
    50
100
AcDbBlockReference
  2
KLON7
 10
0.0
 20
0.0
 30
0.0
  0
INSERT
  5
228
330
1F
100
AcDbEntity
  8
LC-001-100-D00-0
 62
     7
370
    50
100
AcDbBlockReference
  2
KLON8
 10
0.0
 20
0.0
 30
0.0
  0
INSERT
  5
22F
330
1F
100
AcDbEntity
  8
LC-001-100-D00-0
 62
     7
370
    50
100
AcDbBlockReference
  2
KLON9
 10
0.0
 20
0.0
 30
0.0
  0
INSERT
  5
236
330
1F
100
AcDbEntity
  8
LC-001-100-D00-0
 62
     7
370
    50
100
AcDbBlockReference
  2
KLON10
 10
0.0
 20
0.0
 30
0.0
  0
INSERT
  5
242
330
1F
100
AcDbEntity
  8
LC-001-100-D00-0
 62
     7
370
    50
100
AcDbBlockReference
  2
POLY13
 10
0.0
 20
0.0
 30
0.0
  0
LINE
  5
243
330
1F
100
AcDbEntity
  8
LC-001-100-D00-0
 62
     7
370
    50
100
AcDbLine
 10
110.887028
 20
288.18594
 30
0.0
 11
111.098606
 21
288.021565
 31
0.0
  0
INSERT
  5
24A
330
1F
100
AcDbEntity
  8
LC-001-100-D00-0
 62
     7
370
    50
100
AcDbBlockReference
  2
KLON11
 10
0.0
 20
0.0
 30
0.0
  0
INSERT
  5
251
330
1F
100
AcDbEntity
  8
LC-001-100-D00-0
 62
     7
370
    50
100
AcDbBlockReference
  2
KLON12
 10
0.0
 20
0.0
 30
0.0
  0
INSERT
  5
258
330
1F
100
AcDbEntity
  8
LC-001-100-D00-0
 62
     7
370
    50
100
AcDbBlockReference
  2
KLON13
 10
0.0
 20
0.0
 30
0.0
  0
INSERT
  5
25F
330
1F
100
AcDbEntity
  8
LC-001-100-D00-0
 62
     7
370
    50
100
AcDbBlockReference
  2
KLON14
 10
0.0
 20
0.0
 30
0.0
  0
INSERT
  5
266
330
1F
100
AcDbEntity
  8
LC-001-100-D00-0
 62
     7
370
    50
100
AcDbBlockReference
  2
KLON15
 10
0.0
 20
0.0
 30
0.0
  0
INSERT
  5
26D
330
1F
100
AcDbEntity
  8
LC-001-100-D00-0
 62
     7
370
    50
100
AcDbBlockReference
  2
KLON16
 10
0.0
 20
0.0
 30
0.0
  0
INSERT
  5
274
330
1F
100
AcDbEntity
  8
LC-001-100-D00-0
 62
     7
370
    50
100
AcDbBlockReference
  2
KLON17
 10
0.0
 20
0.0
 30
0.0
  0
INSERT
  5
27B
330
1F
100
AcDbEntity
  8
LC-001-100-D00-0
 62
     7
370
    50
100
AcDbBlockReference
  2
KLON18
 10
0.0
 20
0.0
 30
0.0
  0
INSERT
  5
282
330
1F
100
AcDbEntity
  8
LC-001-100-D00-0
 62
     7
370
    50
100
AcDbBlockReference
  2
KLON19
 10
0.0
 20
0.0
 30
0.0
  0
INSERT
  5
289
330
1F
100
AcDbEntity
  8
LC-001-100-D00-0
 62
     7
370
    50
100
AcDbBlockReference
  2
KLON20
 10
0.0
 20
0.0
 30
0.0
  0
LINE
  5
28A
330
1F
100
AcDbEntity
  8
LC-001-100-D00-0
 62
     7
370
    50
100
AcDbLine
 10
109.848607
 20
279.67228
 30
0.0
 11
109.848607
 21
281.370849
 31
0.0
  0
LINE
  5
28B
330
1F
100
AcDbEntity
  8
LC-001-100-D00-0
 62
     7
370
    50
100
AcDbLine
 10
105.848607
 20
282.870859
 30
0.0
 11
105.848607
 21
281.172276
 31
0.0
  0
LINE
  5
28C
330
1F
100
AcDbEntity
  8
LC-001-100-D00-0
 62
     7
370
    50
100
AcDbLine
 10
109.622039
 20
292.176679
 30
0.0
 11
109.622039
 21
292.676688
 31
0.0
  0
LINE
  5
28D
330
1F
100
AcDbEntity
  8
LC-001-100-D00-0
 62
     7
370
    50
100
AcDbLine
 10
111.598607
 20
292.676688
 30
0.0
 11
109.622039
 21
292.676688
 31
0.0
  0
LINE
  5
28E
330
1F
100
AcDbEntity
  8
LC-001-100-D00-0
 62
     7
370
    50
100
AcDbLine
 10
111.598607
 20
292.676688
 30
0.0
 11
111.598607
 21
293.748454
 31
0.0
  0
ARC
  5
28F
330
1F
100
AcDbEntity
  8
LC-001-100-D00-0
 62
     7
370
    50
100
AcDbCircle
 10
107.848607
 20
288.051683
 30
0.0
 40
6.82023643285201
100
AcDbArc
 50
48.715289
 51
56.644353
  0
LINE
  5
290
330
1F
100
AcDbEntity
  8
LC-001-100-D00-0
 62
     7
370
    50
100
AcDbLine
 10
112.898607
 20
293.176681
 30
0.0
 11
112.348607
 21
293.176681
 31
0.0
  0
ARC
  5
291
330
1F
100
AcDbEntity
  8
LC-001-100-D00-0
 62
     7
370
    50
100
AcDbCircle
 10
112.898607
 20
292.976683
 30
0.0
 40
0.1999999999999886
100
AcDbArc
 50
0.0
 51
90.0
  0
LINE
  5
292
330
1F
100
AcDbEntity
  8
LC-001-100-D00-0
 62
     7
370
    50
100
AcDbLine
 10
113.098606
 20
290.17669
 30
0.0
 11
113.098606
 21
292.976678
 31
0.0
  0
LINE
  5
293
330
1F
100
AcDbEntity
  8
LC-001-100-D00-0
 62
     7
370
    50
100
AcDbLine
 10
109.848607
 20
290.17669
 30
0.0
 11
113.098606
 21
290.17669
 31
0.0
  0
LINE
  5
294
330
1F
100
AcDbEntity
  8
LC-001-100-D00-0
 62
     7
370
    50
100
AcDbLine
 10
109.848607
 20
288.672269
 30
0.0
 11
109.848607
 21
290.17669
 31
0.0
  0
LINE
  5
295
330
1F
100
AcDbEntity
  8
LC-001-100-D00-0
 62
     7
370
    50
100
AcDbLine
 10
109.848607
 20
285.672278
 30
0.0
 11
109.848607
 21
287.370861
 31
0.0
  0
LINE
  5
296
330
1F
100
AcDbEntity
  8
LC-001-100-D00-0
 62
     7
370
    50
100
AcDbLine
 10
109.848607
 20
282.672271
 30
0.0
 11
109.848607
 21
284.370855
 31
0.0
  0
LINE
  5
297
330
1F
100
AcDbEntity
  8
LC-001-100-D00-0
 62
     7
370
    50
100
AcDbLine
 10
109.848607
 20
276.672274
 30
0.0
 11
109.848607
 21
278.370858
 31
0.0
  0
LINE
  5
298
330
1F
100
AcDbEntity
  8
LC-001-100-D00-0
 62
     7
370
    50
100
AcDbLine
 10
109.848607
 20
274.577096
 30
0.0
 11
109.848607
 21
275.370851
 31
0.0
  0
LINE
  5
299
330
1F
100
AcDbEntity
  8
LC-001-100-D00-0
 62
     7
370
    50
100
AcDbLine
 10
107.848607
 20
273.176685
 30
0.0
 11
109.848607
 21
274.577096
 31
0.0
  0
LINE
  5
29A
330
1F
100
AcDbEntity
  8
LC-001-100-D00-0
 62
     7
370
    50
100
AcDbLine
 10
105.848607
 20
274.577096
 30
0.0
 11
107.848607
 21
273.176685
 31
0.0
  0
LINE
  5
29B
330
1F
100
AcDbEntity
  8
LC-001-100-D00-0
 62
     7
370
    50
100
AcDbLine
 10
105.848607
 20
276.870862
 30
0.0
 11
105.848607
 21
274.577096
 31
0.0
  0
LINE
  5
29C
330
1F
100
AcDbEntity
  8
LC-001-100-D00-0
 62
     7
370
    50
100
AcDbLine
 10
105.848607
 20
279.870853
 30
0.0
 11
105.848607
 21
278.17227
 31
0.0
  0
LINE
  5
29D
330
1F
100
AcDbEntity
  8
LC-001-100-D00-0
 62
     7
370
    50
100
AcDbLine
 10
105.848607
 20
285.87085
 30
0.0
 11
105.848607
 21
284.172267
 31
0.0
  0
LINE
  5
29E
330
1F
100
AcDbEntity
  8
LC-001-100-D00-0
 62
     7
370
    50
100
AcDbLine
 10
105.848607
 20
288.870857
 30
0.0
 11
105.848607
 21
287.172273
 31
0.0
  0
LINE
  5
29F
330
1F
100
AcDbEntity
  8
LC-001-100-D00-0
 62
     7
370
    50
100
AcDbLine
 10
105.848607
 20
290.17669
 30
0.0
 11
105.848607
 21
290.172279
 31
0.0
  0
LINE
  5
2A0
330
1F
100
AcDbEntity
  8
LC-001-100-D00-0
 62
     7
370
    50
100
AcDbLine
 10
102.598607
 20
290.17669
 30
0.0
 11
105.848607
 21
290.17669
 31
0.0
  0
LINE
  5
2A1
330
1F
100
AcDbEntity
  8
LC-001-100-D00-0
 62
     7
370
    50
100
AcDbLine
 10
102.598607
 20
292.976678
 30
0.0
 11
102.598607
 21
290.17669
 31
0.0
  0
ARC
  5
2A2
330
1F
100
AcDbEntity
  8
LC-001-100-D00-0
 62
     7
370
    50
100
AcDbCircle
 10
102.798607
 20
292.976683
 30
0.0
 40
0.2000000000000455
100
AcDbArc
 50
90.0
 51
180.0
  0
LINE
  5
2A3
330
1F
100
AcDbEntity
  8
LC-001-100-D00-0
 62
     7
370
    50
100
AcDbLine
 10
103.348607
 20
293.176681
 30
0.0
 11
102.798607
 21
293.176681
 31
0.0
  0
ARC
  5
2A4
330
1F
100
AcDbEntity
  8
LC-001-100-D00-0
 62
     7
370
    50
100
AcDbCircle
 10
107.848607
 20
288.051683
 30
0.0
 40
6.820236432851962
100
AcDbArc
 50
123.355647
 51
131.284711
  0
LINE
  5
2A5
330
1F
100
AcDbEntity
  8
LC-001-100-D00-0
 62
     7
370
    50
100
AcDbLine
 10
104.098607
 20
293.748454
 30
0.0
 11
104.098607
 21
292.676688
 31
0.0
  0
LINE
  5
2A6
330
1F
100
AcDbEntity
  8
LC-001-100-D00-0
 62
     7
370
    50
100
AcDbLine
 10
106.075175
 20
292.676688
 30
0.0
 11
104.098607
 21
292.676688
 31
0.0
  0
LINE
  5
2A7
330
1F
100
AcDbEntity
  8
LC-001-100-D00-0
 62
     7
370
    50
100
AcDbLine
 10
106.075175
 20
292.176679
 30
0.0
 11
106.075175
 21
292.676688
 31
0.0
  0
LINE
  5
2A8
330
1F
100
AcDbEntity
  8
LC-001-100-D00-0
 62
     7
370
    50
100
AcDbLine
 10
109.622039
 20
292.176679
 30
0.0
 11
106.075175
 21
292.176679
 31
0.0
  0
ARC
  5
2A9
330
1F
100
AcDbEntity
  8
LC-001-100-D00-0
 62
     7
370
    50
100
AcDbCircle
 10
107.848607
 20
288.051683
 30
0.0
 40
6.801883930206413
100
AcDbArc
 50
56.54253
 51
63.818118
  0
ARC
  5
2AA
330
1F
100
AcDbEntity
  8
LC-001-100-D00-0
 62
     7
370
    50
100
AcDbCircle
 10
107.848607
 20
288.051683
 30
0.0
 40
6.80188393020646
100
AcDbArc
 50
116.181882
 51
123.45747
  0
INSERT
  5
2B6
330
1F
100
AcDbEntity
  8
LC-001-100-D00-0
 62
     7
370
    50
100
AcDbBlockReference
  2
POLY14
 10
0.0
 20
0.0
 30
0.0
  0
INSERT
  5
2C2
330
1F
100
AcDbEntity
  8
LC-001-100-D00-0
 62
     7
370
    50
100
AcDbBlockReference
  2
POLY15
 10
0.0
 20
0.0
 30
0.0
  0
LINE
  5
2C3
330
1F
100
AcDbEntity
  8
LC-001-100-D00-0
 62
     7
370
    50
100
AcDbLine
 10
110.75926
 20
294.176683
 30
0.0
 11
109.622039
 21
294.176683
 31
0.0
  0
LINE
  5
2C4
330
1F
100
AcDbEntity
  8
LC-001-100-D00-0
 62
     7
370
    50
100
AcDbLine
 10
109.622039
 20
294.176683
 30
0.0
 11
109.622039
 21
292.676688
 31
0.0
  0
LINE
  5
2C5
330
1F
100
AcDbEntity
  8
LC-001-100-D00-0
 62
     7
370
    50
100
AcDbLine
 10
106.075175
 20
294.176683
 30
0.0
 11
104.937954
 21
294.176683
 31
0.0
  0
LINE
  5
2C6
330
1F
100
AcDbEntity
  8
LC-001-100-D00-0
 62
     7
370
    50
100
AcDbLine
 10
106.075175
 20
294.176683
 30
0.0
 11
106.075175
 21
292.676688
 31
0.0
  0
LINE
  5
2C7
330
1F
100
AcDbEntity
  8
LC-001-100-D00-0
 62
     7
370
    50
100
AcDbLine
 10
107.179059
 20
294.176683
 30
0.0
 11
108.518155
 21
294.176683
 31
0.0
  0
LINE
  5
2C8
330
1F
100
AcDbEntity
  8
LC-001-100-D00-0
 62
     7
370
    50
100
AcDbLine
 10
108.821269
 20
294.176683
 30
0.0
 11
108.518155
 21
294.176683
 31
0.0
  0
LINE
  5
2C9
330
1F
100
AcDbEntity
  8
LC-001-100-D00-0
 62
     7
370
    50
100
AcDbLine
 10
106.875945
 20
294.176683
 30
0.0
 11
107.179059
 21
294.176683
 31
0.0
  0
LINE
  5
2CA
330
1F
100
AcDbEntity
  8
LC-001-100-D00-0
 62
     7
370
    50
100
AcDbLine
 10
108.821269
 20
294.176683
 30
0.0
 11
109.622039
 21
294.176683
 31
0.0
  0
LINE
  5
2CB
330
1F
100
AcDbEntity
  8
LC-001-100-D00-0
 62
     7
370
    50
100
AcDbLine
 10
106.875945
 20
294.176683
 30
0.0
 11
106.075175
 21
294.176683
 31
0.0
  0
ARC
  5
2CC
330
1F
100
AcDbEntity
  8
LC-001-100-D00-0
 62
     7
370
    50
100
AcDbCircle
 10
-64.901967
 20
293.735513
 30
0.0
 40
3.000002521012265
100
AcDbArc
 50
181.123646
 51
258.0
  0
ARC
  5
2CD
330
1F
100
AcDbEntity
  8
LC-001-100-D00-0
 62
     7
370
    50
100
AcDbCircle
 10
140.599181
 20
293.735513
 30
0.0
 40
3.000002521012259
100
AcDbArc
 50
282.0
 51
358.876354
  0
ARC
  5
2CE
330
1F
100
AcDbEntity
  8
LC-001-100-D00-0
 62
     7
370
    50
100
AcDbCircle
 10
-64.901967
 20
293.735513
 30
0.0
 40
2.000000000000029
100
AcDbArc
 50
181.685606
 51
258.0
  0
ARC
  5
2CF
330
1F
100
AcDbEntity
  8
LC-001-100-D00-0
 62
     7
370
    50
100
AcDbCircle
 10
140.599181
 20
293.735513
 30
0.0
 40
2.000000000000025
100
AcDbArc
 50
282.0
 51
358.314394
  0
LINE
  5
2D0
330
1F
100
AcDbEntity
  8
LC-001-100-D00-0
 62
     7
370
    50
100
AcDbLine
 10
-66.901105
 20
293.67669
 30
0.0
 11
-36.007473
 21
293.67669
 31
0.0
  0
LINE
  5
2D1
330
1F
100
AcDbEntity
  8
LC-001-100-D00-0
 62
     7
370
    50
100
AcDbLine
 10
-28.293843
 20
293.67669
 30
0.0
 11
-24.197819
 21
293.67669
 31
0.0
  0
LINE
  5
2D2
330
1F
100
AcDbEntity
  8
LC-001-100-D00-0
 62
     7
370
    50
100
AcDbLine
 10
13.343124
 20
293.67669
 30
0.0
 11
20.582406
 21
293.67669
 31
0.0
  0
LINE
  5
2D3
330
1F
100
AcDbEntity
  8
LC-001-100-D00-0
 62
     7
370
    50
100
AcDbLine
 10
25.810683
 20
293.67669
 30
0.0
 11
36.598606
 21
293.67669
 31
0.0
  0
LINE
  5
2D4
330
1F
100
AcDbEntity
  8
LC-001-100-D00-0
 62
     7
370
    50
100
AcDbLine
 10
39.098607
 20
293.67669
 30
0.0
 11
49.88653
 21
293.67669
 31
0.0
  0
LINE
  5
2D5
330
1F
100
AcDbEntity
  8
LC-001-100-D00-0
 62
     7
370
    50
100
AcDbLine
 10
55.114811
 20
293.67669
 30
0.0
 11
62.354088
 21
293.67669
 31
0.0
  0
LINE
  5
2D6
330
1F
100
AcDbEntity
  8
LC-001-100-D00-0
 62
     7
370
    50
100
AcDbLine
 10
99.895033
 20
293.67669
 30
0.0
 11
103.991795
 21
293.67669
 31
0.0
  0
LINE
  5
2D7
330
1F
100
AcDbEntity
  8
LC-001-100-D00-0
 62
     7
370
    50
100
AcDbLine
 10
111.598607
 20
293.67669
 30
0.0
 11
142.598314
 21
293.67669
 31
0.0
  0
LINE
  5
2D8
330
1F
100
AcDbEntity
  8
LC-001-100-D00-0
 62
     7
370
    50
100
AcDbLine
 10
141.222918
 20
290.801064
 30
0.0
 11
122.037081
 21
286.722988
 31
0.0
  0
LINE
  5
2D9
330
1F
100
AcDbEntity
  8
LC-001-100-D00-0
 62
     7
370
    50
100
AcDbLine
 10
-46.339871
 20
286.722988
 30
0.0
 11
-65.525698
 21
290.801064
 31
0.0
  0
LINE
  5
2DA
330
1F
100
AcDbEntity
  8
LC-001-100-D00-0
 62
     7
370
    50
100
AcDbLine
 10
121.590303
 20
287.650377
 30
0.0
 11
141.015006
 21
291.77922
 31
0.0
  0
LINE
  5
2DB
330
1F
100
AcDbEntity
  8
LC-001-100-D00-0
 62
     7
370
    50
100
AcDbLine
 10
-65.317797
 20
291.77922
 30
0.0
 11
-45.89309
 21
287.650377
 31
0.0
  0
ARC
  5
2DC
330
1F
100
AcDbEntity
  8
LC-001-100-D00-0
 62
     7
370
    50
100
AcDbCircle
 10
-41.142077
 20
311.17668
 30
0.0
 40
24.99999742266697
100
AcDbArc
 50
258.0
 51
270.0
  0
ARC
  5
2DD
330
1F
100
AcDbEntity
  8
LC-001-100-D00-0
 62
     7
370
    50
100
AcDbCircle
 10
116.83929
 20
311.17668
 30
0.0
 40
24.99999742266698
100
AcDbArc
 50
270.0
 51
282.0
  0
ARC
  5
2DE
330
1F
100
AcDbEntity
  8
LC-001-100-D00-0
 62
     7
370
    50
100
AcDbCircle
 10
-40.879987
 20
311.120964
 30
0.0
 40
24.0000000000001
100
AcDbArc
 50
257.943315
 51
269.310822
  0
ARC
  5
2DF
330
1F
100
AcDbEntity
  8
LC-001-100-D00-0
 62
     7
370
    50
100
AcDbCircle
 10
116.5772
 20
311.120964
 30
0.0
 40
24.00000000000012
100
AcDbArc
 50
270.689178
 51
282.056685
  0
ARC
  5
2E0
330
1F
100
AcDbEntity
  8
LC-001-100-D00-0
 62
     7
370
    50
100
AcDbCircle
 10
-41.176745
 20
287.622635
 30
0.0
 40
0.499999999999997
100
AcDbArc
 50
270.926243
 51
315.389952
  0
ARC
  5
2E1
330
1F
100
AcDbEntity
  8
LC-001-100-D00-0
 62
     7
370
    50
100
AcDbCircle
 10
116.873958
 20
287.622635
 30
0.0
 40
0.4999999999999734
100
AcDbArc
 50
224.610048
 51
269.073757
  0
ARC
  5
2E2
330
1F
100
AcDbEntity
  8
LC-001-100-D00-0
 62
     7
370
    50
100
AcDbCircle
 10
-41.122713
 20
287.676683
 30
0.0
 40
1.499999999999943
100
AcDbArc
 50
270.0
 51
315.00009
  0
ARC
  5
2E3
330
1F
100
AcDbEntity
  8
LC-001-100-D00-0
 62
     7
370
    50
100
AcDbCircle
 10
116.819927
 20
287.676683
 30
0.0
 40
1.499999999999946
100
AcDbArc
 50
224.99991
 51
270.0
  0
LINE
  5
2E4
330
1F
100
AcDbEntity
  8
LC-001-100-D00-0
 62
     7
370
    50
100
AcDbLine
 10
-40.820794
 20
287.2715
 30
0.0
 11
-38.208501
 21
289.883793
 31
0.0
  0
LINE
  5
2E5
330
1F
100
AcDbEntity
  8
LC-001-100-D00-0
 62
     7
370
    50
100
AcDbLine
 10
113.905713
 20
289.883793
 30
0.0
 11
116.518008
 21
287.2715
 31
0.0
  0
LINE
  5
2E6
330
1F
100
AcDbEntity
  8
LC-001-100-D00-0
 62
     7
370
    50
100
AcDbLine
 10
-37.501397
 20
289.176688
 30
0.0
 11
-40.062057
 21
286.616028
 31
0.0
  0
LINE
  5
2E7
330
1F
100
AcDbEntity
  8
LC-001-100-D00-0
 62
     7
370
    50
100
AcDbLine
 10
115.759265
 20
286.616028
 30
0.0
 11
113.198606
 21
289.176688
 31
0.0
  0
LINE
  5
2E8
330
1F
100
AcDbEntity
  8
LC-001-100-D00-0
 62
     7
370
    50
100
AcDbLine
 10
113.198606
 20
290.17669
 30
0.0
 11
111.598607
 21
290.17669
 31
0.0
  0
ARC
  5
2E9
330
1F
100
AcDbEntity
  8
LC-001-100-D00-0
 62
     7
370
    50
100
AcDbCircle
 10
113.198607
 20
289.176683
 30
0.0
 40
1.000000000000048
100
AcDbArc
 50
45.0
 51
90.0
  0
LINE
  5
2EA
330
1F
100
AcDbEntity
  8
LC-001-100-D00-0
 62
     7
370
    50
100
AcDbLine
 10
113.198606
 20
289.176688
 30
0.0
 11
111.598607
 21
289.176688
 31
0.0
  0
LINE
  5
2EB
330
1F
100
AcDbEntity
  8
LC-001-100-D00-0
 62
     7
370
    50
100
AcDbLine
 10
111.598607
 20
289.176688
 30
0.0
 11
111.598607
 21
290.17669
 31
0.0
  0
LINE
  5
2EC
330
1F
100
AcDbEntity
  8
LC-001-100-D00-0
 62
     7
370
    50
100
AcDbLine
 10
114.348607
 20
289.176688
 30
0.0
 11
114.348607
 21
289.176211
 31
0.0
  0
LINE
  5
2ED
330
1F
100
AcDbEntity
  8
LC-001-100-D00-0
 62
     7
370
    50
100
AcDbLine
 10
116.83929
 20
286.176682
 30
0.0
 11
116.819927
 21
286.176682
 31
0.0
  0
LINE
  5
2EE
330
1F
100
AcDbEntity
  8
LC-001-100-D00-0
 62
     7
370
    50
100
AcDbLine
 10
142.598314
 20
293.67669
 30
0.0
 11
143.598607
 21
293.67669
 31
0.0
  0
LINE
  5
2EF
330
1F
100
AcDbEntity
  8
LC-001-100-D00-0
 62
     7
370
    50
100
AcDbLine
 10
-35.901392
 20
289.176688
 30
0.0
 11
-37.501397
 21
289.176688
 31
0.0
  0
ARC
  5
2F0
330
1F
100
AcDbEntity
  8
LC-001-100-D00-0
 62
     7
370
    50
100
AcDbCircle
 10
-37.501393
 20
289.176683
 30
0.0
 40
1.0
100
AcDbArc
 50
90.0
 51
135.0
  0
LINE
  5
2F1
330
1F
100
AcDbEntity
  8
LC-001-100-D00-0
 62
     7
370
    50
100
AcDbLine
 10
-35.901392
 20
290.17669
 30
0.0
 11
-37.501397
 21
290.17669
 31
0.0
  0
LINE
  5
2F2
330
1F
100
AcDbEntity
  8
LC-001-100-D00-0
 62
     7
370
    50
100
AcDbLine
 10
-35.901392
 20
290.17669
 30
0.0
 11
-35.901392
 21
289.176688
 31
0.0
  0
LINE
  5
2F3
330
1F
100
AcDbEntity
  8
LC-001-100-D00-0
 62
     7
370
    50
100
AcDbLine
 10
-38.651394
 20
289.176211
 30
0.0
 11
-38.651394
 21
289.176688
 31
0.0
  0
ARC
  5
2F4
330
1F
100
AcDbEntity
  8
LC-001-100-D00-0
 62
     7
370
    50
100
AcDbCircle
 10
-38.625657
 20
288.476683
 30
0.0
 40
0.6999999999999886
100
AcDbArc
 50
90.0
 51
92.106989
  0
LINE
  5
2F5
330
1F
100
AcDbEntity
  8
LC-001-100-D00-0
 62
     7
370
    50
100
AcDbLine
 10
-38.625659
 20
289.176688
 30
0.0
 11
-38.651394
 21
289.176688
 31
0.0
  0
LINE
  5
2F6
330
1F
100
AcDbEntity
  8
LC-001-100-D00-0
 62
     7
370
    50
100
AcDbLine
 10
-41.122707
 20
286.176682
 30
0.0
 11
-41.142078
 21
286.176682
 31
0.0
  0
LINE
  5
2F7
330
1F
100
AcDbEntity
  8
LC-001-100-D00-0
 62
     7
370
    50
100
AcDbLine
 10
-67.90139
 20
293.67669
 30
0.0
 11
-66.901105
 21
293.67669
 31
0.0
  0
LINE
  5
2F8
330
1F
100
AcDbEntity
  8
LC-001-100-D00-0
 62
     7
370
    50
100
AcDbLine
 10
-25.13648
 20
289.176688
 30
0.0
 11
-19.151392
 21
289.176688
 31
0.0
  0
LINE
  5
2F9
330
1F
100
AcDbEntity
  8
LC-001-100-D00-0
 62
     7
370
    50
100
AcDbLine
 10
-19.151392
 20
289.176688
 30
0.0
 11
-19.151392
 21
288.176686
 31
0.0
  0
LINE
  5
2FA
330
1F
100
AcDbEntity
  8
LC-001-100-D00-0
 62
     7
370
    50
100
AcDbLine
 10
-19.151392
 20
288.176686
 30
0.0
 11
-25.401393
 21
288.176686
 31
0.0
  0
ARC
  5
2FB
330
1F
100
AcDbEntity
  8
LC-001-100-D00-0
 62
     7
370
    50
100
AcDbCircle
 10
-25.401393
 20
289.176683
 30
0.0
 40
1.0
100
AcDbArc
 50
180.0
 51
270.0
  0
LINE
  5
2FC
330
1F
100
AcDbEntity
  8
LC-001-100-D00-0
 62
     7
370
    50
100
AcDbLine
 10
-28.401392
 20
289.176688
 30
0.0
 11
-28.401392
 21
290.17669
 31
0.0
  0
ARC
  5
2FD
330
1F
100
AcDbEntity
  8
LC-001-100-D00-0
 62
     7
370
    50
100
AcDbCircle
 10
-26.401393
 20
289.176683
 30
0.0
 40
1.000000000000002
100
AcDbArc
 50
13.342364
 51
90.0
  0
ARC
  5
2FE
330
1F
100
AcDbEntity
  8
LC-001-100-D00-0
 62
     7
370
    50
100
AcDbCircle
 10
-25.136482
 20
289.476683
 30
0.0
 40
0.3000000000000075
100
AcDbArc
 50
193.342364
 51
270.0
  0
LINE
  5
2FF
330
1F
100
AcDbEntity
  8
LC-001-100-D00-0
 62
     7
370
    50
100
AcDbLine
 10
-26.401395
 20
290.17669
 30
0.0
 11
-28.401392
 21
290.17669
 31
0.0
  0
LINE
  5
300
330
1F
100
AcDbEntity
  8
LC-001-100-D00-0
 62
     7
370
    50
100
AcDbLine
 10
-26.401395
 20
289.176688
 30
0.0
 11
-28.401392
 21
289.176688
 31
0.0
  0
LINE
  5
301
330
1F
100
AcDbEntity
  8
LC-001-100-D00-0
 62
     7
370
    50
100
AcDbLine
 10
-28.401392
 20
289.176688
 30
0.0
 11
-30.150661
 21
289.176688
 31
0.0
  0
LINE
  5
302
330
1F
100
AcDbEntity
  8
LC-001-100-D00-0
 62
     7
370
    50
100
AcDbLine
 10
-34.883881
 20
289.176688
 30
0.0
 11
-35.901392
 21
289.176688
 31
0.0
  0
LINE
  5
303
330
1F
100
AcDbEntity
  8
LC-001-100-D00-0
 62
     7
370
    50
100
AcDbLine
 10
104.098607
 20
290.17669
 30
0.0
 11
104.098607
 21
289.176688
 31
0.0
  0
LINE
  5
304
330
1F
100
AcDbEntity
  8
LC-001-100-D00-0
 62
     7
370
    50
100
AcDbLine
 10
111.598607
 20
289.176688
 30
0.0
 11
109.848607
 21
289.176688
 31
0.0
  0
LINE
  5
305
330
1F
100
AcDbEntity
  8
LC-001-100-D00-0
 62
     7
370
    50
100
AcDbLine
 10
105.125131
 20
289.176688
 30
0.0
 11
104.098607
 21
289.176688
 31
0.0
  0
ARC
  5
306
330
1F
100
AcDbEntity
  8
LC-001-100-D00-0
 62
     7
370
    50
100
AcDbCircle
 10
101.098607
 20
289.176683
 30
0.0
 40
1.0
100
AcDbArc
 50
270.0
 51
0.0
  0
LINE
  5
307
330
1F
100
AcDbEntity
  8
LC-001-100-D00-0
 62
     7
370
    50
100
AcDbLine
 10
101.098607
 20
288.176686
 30
0.0
 11
101.098607
 21
289.176688
 31
0.0
  0
ARC
  5
308
330
1F
100
AcDbEntity
  8
LC-001-100-D00-0
 62
     7
370
    50
100
AcDbCircle
 10
102.098607
 20
289.176683
 30
0.0
 40
1.0
100
AcDbArc
 50
90.0
 51
180.0
  0
LINE
  5
309
330
1F
100
AcDbEntity
  8
LC-001-100-D00-0
 62
     7
370
    50
100
AcDbLine
 10
104.098607
 20
290.17669
 30
0.0
 11
102.098606
 21
290.17669
 31
0.0
  0
LINE
  5
30A
330
1F
100
AcDbEntity
  8
LC-001-100-D00-0
 62
     7
370
    50
100
AcDbLine
 10
104.098607
 20
289.176688
 30
0.0
 11
102.098606
 21
289.176688
 31
0.0
  0
INSERT
  5
31A
330
1F
100
AcDbEntity
  8
LC-001-100-D00-0
 62
     7
370
    50
100
AcDbBlockReference
  2
POLY16
 10
0.0
 20
0.0
 30
0.0
  0
INSERT
  5
32A
330
1F
100
AcDbEntity
  8
LC-001-100-D00-0
 62
     7
370
    50
100
AcDbBlockReference
  2
POLY17
 10
0.0
 20
0.0
 30
0.0
  0
LINE
  5
32B
330
1F
100
AcDbEntity
  8
LC-001-100-D00-0
 62
     7
370
    50
100
AcDbLine
 10
101.098607
 20
289.176688
 30
0.0
 11
100.911608
 21
289.176688
 31
0.0
  0
LINE
  5
32C
330
1F
100
AcDbEntity
  8
LC-001-100-D00-0
 62
     7
370
    50
100
AcDbLine
 10
-19.151392
 20
288.176686
 30
0.0
 11
-18.651391
 21
288.176686
 31
0.0
  0
LINE
  5
32D
330
1F
100
AcDbEntity
  8
LC-001-100-D00-0
 62
     7
370
    50
100
AcDbLine
 10
-19.151392
 20
289.176688
 30
0.0
 11
-18.657485
 21
289.176688
 31
0.0
  0
LINE
  5
32E
330
1F
100
AcDbEntity
  8
LC-001-100-D00-0
 62
     7
370
    50
100
AcDbLine
 10
105.848607
 20
287.745342
 30
0.0
 11
105.054656
 21
288.176686
 31
0.0
  0
LINE
  5
32F
330
1F
100
AcDbEntity
  8
LC-001-100-D00-0
 62
     7
370
    50
100
AcDbLine
 10
-42.651387
 20
284.326688
 30
0.0
 11
-41.151391
 21
284.326688
 31
0.0
  0
LINE
  5
330
330
1F
100
AcDbEntity
  8
LC-001-100-D00-0
 62
     7
370
    50
100
AcDbLine
 10
116.848607
 20
284.326688
 30
0.0
 11
118.348608
 21
284.326688
 31
0.0
  0
LINE
  5
331
330
1F
100
AcDbEntity
  8
LC-001-100-D00-0
 62
     7
370
    50
100
AcDbLine
 10
118.348608
 20
284.326688
 30
0.0
 11
118.204268
 21
284.076676
 31
0.0
  0
LINE
  5
332
330
1F
100
AcDbEntity
  8
LC-001-100-D00-0
 62
     7
370
    50
100
AcDbLine
 10
-42.507054
 20
284.076676
 30
0.0
 11
-42.651387
 21
284.326688
 31
0.0
  0
LINE
  5
333
330
1F
100
AcDbEntity
  8
LC-001-100-D00-0
 62
     7
370
    50
100
AcDbLine
 10
-42.651387
 20
284.326688
 30
0.0
 11
-42.795735
 21
284.076676
 31
0.0
  0
LINE
  5
334
330
1F
100
AcDbEntity
  8
LC-001-100-D00-0
 62
     7
370
    50
100
AcDbLine
 10
118.492944
 20
284.076676
 30
0.0
 11
118.348608
 21
284.326688
 31
0.0
  0
LINE
  5
335
330
1F
100
AcDbEntity
  8
LC-001-100-D00-0
 62
     7
370
    50
100
AcDbLine
 10
118.848609
 20
280.076683
 30
0.0
 11
119.848607
 21
281.076685
 31
0.0
  0
LINE
  5
336
330
1F
100
AcDbEntity
  8
LC-001-100-D00-0
 62
     7
370
    50
100
AcDbLine
 10
-44.151397
 20
281.076685
 30
0.0
 11
-43.151395
 21
280.076683
 31
0.0
  0
LINE
  5
337
330
1F
100
AcDbEntity
  8
LC-001-100-D00-0
 62
     7
370
    50
100
AcDbLine
 10
-41.151391
 20
284.326688
 30
0.0
 11
-39.651396
 21
284.326688
 31
0.0
  0
LINE
  5
338
330
1F
100
AcDbEntity
  8
LC-001-100-D00-0
 62
     7
370
    50
100
AcDbLine
 10
115.348607
 20
284.326688
 30
0.0
 11
116.848607
 21
284.326688
 31
0.0
  0
LINE
  5
339
330
1F
100
AcDbEntity
  8
LC-001-100-D00-0
 62
     7
370
    50
100
AcDbLine
 10
116.848607
 20
284.326688
 30
0.0
 11
116.704268
 21
284.076676
 31
0.0
  0
LINE
  5
33A
330
1F
100
AcDbEntity
  8
LC-001-100-D00-0
 62
     7
370
    50
100
AcDbLine
 10
-41.007059
 20
284.076676
 30
0.0
 11
-41.151391
 21
284.326688
 31
0.0
  0
LINE
  5
33B
330
1F
100
AcDbEntity
  8
LC-001-100-D00-0
 62
     7
370
    50
100
AcDbLine
 10
116.992945
 20
280.076683
 30
0.0
 11
116.848607
 21
279.826686
 31
0.0
  0
LINE
  5
33C
330
1F
100
AcDbEntity
  8
LC-001-100-D00-0
 62
     7
370
    50
100
AcDbLine
 10
-41.151391
 20
279.826686
 30
0.0
 11
-41.295724
 21
280.076683
 31
0.0
  0
LINE
  5
33D
330
1F
100
AcDbEntity
  8
LC-001-100-D00-0
 62
     7
370
    50
100
AcDbLine
 10
-41.007059
 20
280.076683
 30
0.0
 11
-41.151391
 21
279.826686
 31
0.0
  0
LINE
  5
33E
330
1F
100
AcDbEntity
  8
LC-001-100-D00-0
 62
     7
370
    50
100
AcDbLine
 10
116.848607
 20
279.826686
 30
0.0
 11
116.704268
 21
280.076683
 31
0.0
  0
LINE
  5
33F
330
1F
100
AcDbEntity
  8
LC-001-100-D00-0
 62
     7
370
    50
100
AcDbLine
 10
-39.151387
 20
280.076683
 30
0.0
 11
-38.151393
 21
281.076685
 31
0.0
  0
LINE
  5
340
330
1F
100
AcDbEntity
  8
LC-001-100-D00-0
 62
     7
370
    50
100
AcDbLine
 10
113.848606
 20
281.076685
 30
0.0
 11
114.848606
 21
280.076683
 31
0.0
  0
LINE
  5
341
330
1F
100
AcDbEntity
  8
LC-001-100-D00-0
 62
     7
370
    50
100
AcDbLine
 10
-44.151397
 20
283.076689
 30
0.0
 11
-44.151397
 21
281.076685
 31
0.0
  0
LINE
  5
342
330
1F
100
AcDbEntity
  8
LC-001-100-D00-0
 62
     7
370
    50
100
AcDbLine
 10
119.848607
 20
281.076685
 30
0.0
 11
119.848607
 21
283.076689
 31
0.0
  0
LINE
  5
343
330
1F
100
AcDbEntity
  8
LC-001-100-D00-0
 62
     7
370
    50
100
AcDbLine
 10
-39.651396
 20
284.326688
 30
0.0
 11
-34.150655
 21
284.326688
 31
0.0
  0
LINE
  5
344
330
1F
100
AcDbEntity
  8
LC-001-100-D00-0
 62
     7
370
    50
100
AcDbLine
 10
-30.150661
 20
284.326688
 30
0.0
 11
-25.901394
 21
284.326688
 31
0.0
  0
LINE
  5
345
330
1F
100
AcDbEntity
  8
LC-001-100-D00-0
 62
     7
370
    50
100
AcDbLine
 10
101.598607
 20
284.326688
 30
0.0
 11
105.848607
 21
284.326688
 31
0.0
  0
LINE
  5
346
330
1F
100
AcDbEntity
  8
LC-001-100-D00-0
 62
     7
370
    50
100
AcDbLine
 10
109.848607
 20
284.326688
 30
0.0
 11
115.348607
 21
284.326688
 31
0.0
  0
LINE
  5
347
330
1F
100
AcDbEntity
  8
LC-001-100-D00-0
 62
     7
370
    50
100
AcDbLine
 10
115.348607
 20
284.326688
 30
0.0
 11
115.204269
 21
284.076676
 31
0.0
  0
LINE
  5
348
330
1F
100
AcDbEntity
  8
LC-001-100-D00-0
 62
     7
370
    50
100
AcDbLine
 10
-39.507048
 20
284.076676
 30
0.0
 11
-39.651396
 21
284.326688
 31
0.0
  0
LINE
  5
349
330
1F
100
AcDbEntity
  8
LC-001-100-D00-0
 62
     7
370
    50
100
AcDbLine
 10
-39.651396
 20
284.326688
 30
0.0
 11
-39.795728
 21
284.076676
 31
0.0
  0
LINE
  5
34A
330
1F
100
AcDbEntity
  8
LC-001-100-D00-0
 62
     7
370
    50
100
AcDbLine
 10
115.492944
 20
284.076676
 30
0.0
 11
115.348607
 21
284.326688
 31
0.0
  0
LINE
  5
34B
330
1F
100
AcDbEntity
  8
LC-001-100-D00-0
 62
     7
370
    50
100
AcDbLine
 10
-41.151391
 20
284.326688
 30
0.0
 11
-41.295724
 21
284.076676
 31
0.0
  0
LINE
  5
34C
330
1F
100
AcDbEntity
  8
LC-001-100-D00-0
 62
     7
370
    50
100
AcDbLine
 10
116.992945
 20
284.076676
 30
0.0
 11
116.848607
 21
284.326688
 31
0.0
  0
LINE
  5
34D
330
1F
100
AcDbEntity
  8
LC-001-100-D00-0
 62
     7
370
    50
100
AcDbLine
 10
-39.507048
 20
284.076676
 30
0.0
 11
-39.151387
 21
284.076676
 31
0.0
  0
LINE
  5
34E
330
1F
100
AcDbEntity
  8
LC-001-100-D00-0
 62
     7
370
    50
100
AcDbLine
 10
-39.151387
 20
284.076676
 30
0.0
 11
-38.151393
 21
283.076689
 31
0.0
  0
LINE
  5
34F
330
1F
100
AcDbEntity
  8
LC-001-100-D00-0
 62
     7
370
    50
100
AcDbLine
 10
-38.151393
 20
281.076685
 30
0.0
 11
-38.151393
 21
283.076689
 31
0.0
  0
LINE
  5
350
330
1F
100
AcDbEntity
  8
LC-001-100-D00-0
 62
     7
370
    50
100
AcDbLine
 10
-39.507048
 20
280.076683
 30
0.0
 11
-39.651396
 21
279.826686
 31
0.0
  0
LINE
  5
351
330
1F
100
AcDbEntity
  8
LC-001-100-D00-0
 62
     7
370
    50
100
AcDbLine
 10
-39.651396
 20
279.826686
 30
0.0
 11
-39.795728
 21
280.076683
 31
0.0
  0
LINE
  5
352
330
1F
100
AcDbEntity
  8
LC-001-100-D00-0
 62
     7
370
    50
100
AcDbLine
 10
-39.795728
 20
280.076683
 30
0.0
 11
-41.007059
 21
280.076683
 31
0.0
  0
LINE
  5
353
330
1F
100
AcDbEntity
  8
LC-001-100-D00-0
 62
     7
370
    50
100
AcDbLine
 10
-41.295724
 20
280.076683
 30
0.0
 11
-42.507054
 21
280.076683
 31
0.0
  0
LINE
  5
354
330
1F
100
AcDbEntity
  8
LC-001-100-D00-0
 62
     7
370
    50
100
AcDbLine
 10
-42.507054
 20
280.076683
 30
0.0
 11
-42.651387
 21
279.826686
 31
0.0
  0
LINE
  5
355
330
1F
100
AcDbEntity
  8
LC-001-100-D00-0
 62
     7
370
    50
100
AcDbLine
 10
-42.651387
 20
279.826686
 30
0.0
 11
-42.795735
 21
280.076683
 31
0.0
  0
LINE
  5
356
330
1F
100
AcDbEntity
  8
LC-001-100-D00-0
 62
     7
370
    50
100
AcDbLine
 10
-42.795735
 20
280.076683
 30
0.0
 11
-43.151395
 21
280.076683
 31
0.0
  0
LINE
  5
357
330
1F
100
AcDbEntity
  8
LC-001-100-D00-0
 62
     7
370
    50
100
AcDbLine
 10
-44.151397
 20
283.076689
 30
0.0
 11
-43.151395
 21
284.076676
 31
0.0
  0
LINE
  5
358
330
1F
100
AcDbEntity
  8
LC-001-100-D00-0
 62
     7
370
    50
100
AcDbLine
 10
-39.795728
 20
284.076676
 30
0.0
 11
-41.007059
 21
284.076676
 31
0.0
  0
LINE
  5
359
330
1F
100
AcDbEntity
  8
LC-001-100-D00-0
 62
     7
370
    50
100
AcDbLine
 10
-39.507048
 20
280.076683
 30
0.0
 11
-39.151387
 21
280.076683
 31
0.0
  0
LINE
  5
35A
330
1F
100
AcDbEntity
  8
LC-001-100-D00-0
 62
     7
370
    50
100
AcDbLine
 10
-42.795735
 20
284.076676
 30
0.0
 11
-43.151395
 21
284.076676
 31
0.0
  0
LINE
  5
35B
330
1F
100
AcDbEntity
  8
LC-001-100-D00-0
 62
     7
370
    50
100
AcDbLine
 10
-41.295724
 20
284.076676
 30
0.0
 11
-42.507054
 21
284.076676
 31
0.0
  0
LINE
  5
35C
330
1F
100
AcDbEntity
  8
LC-001-100-D00-0
 62
     7
370
    50
100
AcDbLine
 10
118.848609
 20
284.076676
 30
0.0
 11
119.848607
 21
283.076689
 31
0.0
  0
LINE
  5
35D
330
1F
100
AcDbEntity
  8
LC-001-100-D00-0
 62
     7
370
    50
100
AcDbLine
 10
118.848609
 20
280.076683
 30
0.0
 11
118.492944
 21
280.076683
 31
0.0
  0
LINE
  5
35E
330
1F
100
AcDbEntity
  8
LC-001-100-D00-0
 62
     7
370
    50
100
AcDbLine
 10
118.492944
 20
280.076683
 30
0.0
 11
118.348608
 21
279.826686
 31
0.0
  0
LINE
  5
35F
330
1F
100
AcDbEntity
  8
LC-001-100-D00-0
 62
     7
370
    50
100
AcDbLine
 10
118.348608
 20
279.826686
 30
0.0
 11
118.204268
 21
280.076683
 31
0.0
  0
LINE
  5
360
330
1F
100
AcDbEntity
  8
LC-001-100-D00-0
 62
     7
370
    50
100
AcDbLine
 10
116.704268
 20
280.076683
 30
0.0
 11
115.492944
 21
280.076683
 31
0.0
  0
LINE
  5
361
330
1F
100
AcDbEntity
  8
LC-001-100-D00-0
 62
     7
370
    50
100
AcDbLine
 10
115.492944
 20
280.076683
 30
0.0
 11
115.348607
 21
279.826686
 31
0.0
  0
LINE
  5
362
330
1F
100
AcDbEntity
  8
LC-001-100-D00-0
 62
     7
370
    50
100
AcDbLine
 10
115.348607
 20
279.826686
 30
0.0
 11
115.204269
 21
280.076683
 31
0.0
  0
LINE
  5
363
330
1F
100
AcDbEntity
  8
LC-001-100-D00-0
 62
     7
370
    50
100
AcDbLine
 10
113.848606
 20
283.076689
 30
0.0
 11
113.848606
 21
281.076685
 31
0.0
  0
LINE
  5
364
330
1F
100
AcDbEntity
  8
LC-001-100-D00-0
 62
     7
370
    50
100
AcDbLine
 10
113.848606
 20
283.076689
 30
0.0
 11
114.848606
 21
284.076676
 31
0.0
  0
LINE
  5
365
330
1F
100
AcDbEntity
  8
LC-001-100-D00-0
 62
     7
370
    50
100
AcDbLine
 10
114.848606
 20
284.076676
 30
0.0
 11
115.204269
 21
284.076676
 31
0.0
  0
LINE
  5
366
330
1F
100
AcDbEntity
  8
LC-001-100-D00-0
 62
     7
370
    50
100
AcDbLine
 10
118.204268
 20
280.076683
 30
0.0
 11
116.992945
 21
280.076683
 31
0.0
  0
LINE
  5
367
330
1F
100
AcDbEntity
  8
LC-001-100-D00-0
 62
     7
370
    50
100
AcDbLine
 10
116.704268
 20
284.076676
 30
0.0
 11
115.492944
 21
284.076676
 31
0.0
  0
LINE
  5
368
330
1F
100
AcDbEntity
  8
LC-001-100-D00-0
 62
     7
370
    50
100
AcDbLine
 10
114.848606
 20
280.076683
 30
0.0
 11
115.204269
 21
280.076683
 31
0.0
  0
LINE
  5
369
330
1F
100
AcDbEntity
  8
LC-001-100-D00-0
 62
     7
370
    50
100
AcDbLine
 10
118.848609
 20
284.076676
 30
0.0
 11
118.492944
 21
284.076676
 31
0.0
  0
LINE
  5
36A
330
1F
100
AcDbEntity
  8
LC-001-100-D00-0
 62
     7
370
    50
100
AcDbLine
 10
118.204268
 20
284.076676
 30
0.0
 11
116.992945
 21
284.076676
 31
0.0
  0
LINE
  5
36B
330
1F
100
AcDbEntity
  8
LC-001-100-D00-0
 62
     7
370
    50
100
AcDbLine
 10
-39.151387
 20
284.076676
 30
0.0
 11
-36.159182
 21
284.076676
 31
0.0
  0
LINE
  5
36C
330
1F
100
AcDbEntity
  8
LC-001-100-D00-0
 62
     7
370
    50
100
AcDbLine
 10
111.937603
 20
284.076676
 30
0.0
 11
114.848606
 21
284.076676
 31
0.0
  0
LINE
  5
36D
330
1F
100
AcDbEntity
  8
LC-001-100-D00-0
 62
     7
370
    50
100
AcDbLine
 10
-24.840893
 20
291.276679
 30
0.0
 11
-7.342147
 21
356.58291
 31
0.0
  0
ARC
  5
36E
330
1F
100
AcDbEntity
  8
LC-001-100-D00-0
 62
     7
370
    50
100
AcDbCircle
 10
5.214889
 20
353.218261
 30
0.0
 40
13.0
100
AcDbArc
 50
90.0
 51
165.0
  0
LINE
  5
36F
330
1F
100
AcDbEntity
  8
LC-001-100-D00-0
 62
     7
370
    50
100
AcDbLine
 10
5.21489
 20
366.218254
 30
0.0
 11
10.922542
 21
366.218254
 31
0.0
  0
LINE
  5
370
330
1F
100
AcDbEntity
  8
LC-001-100-D00-0
 62
     7
370
    50
100
AcDbLine
 10
10.922542
 20
366.218254
 30
0.0
 11
10.922542
 21
366.318256
 31
0.0
  0
LINE
  5
371
330
1F
100
AcDbEntity
  8
LC-001-100-D00-0
 62
     7
370
    50
100
AcDbLine
 10
11.212764
 20
366.318256
 30
0.0
 11
10.922542
 21
366.318256
 31
0.0
  0
LINE
  5
372
330
1F
100
AcDbEntity
  8
LC-001-100-D00-0
 62
     7
370
    50
100
AcDbLine
 10
11.212764
 20
366.218254
 30
0.0
 11
11.212764
 21
366.318256
 31
0.0
  0
LINE
  5
373
330
1F
100
AcDbEntity
  8
LC-001-100-D00-0
 62
     7
370
    50
100
AcDbLine
 10
11.212764
 20
366.218254
 30
0.0
 11
11.357879
 21
366.218254
 31
0.0
  0
LINE
  5
374
330
1F
100
AcDbEntity
  8
LC-001-100-D00-0
 62
     7
370
    50
100
AcDbLine
 10
11.357879
 20
366.318256
 30
0.0
 11
11.357879
 21
366.218254
 31
0.0
  0
LINE
  5
375
330
1F
100
AcDbEntity
  8
LC-001-100-D00-0
 62
     7
370
    50
100
AcDbLine
 10
11.523588
 20
366.318256
 30
0.0
 11
11.357879
 21
366.318256
 31
0.0
  0
LINE
  5
376
330
1F
100
AcDbEntity
  8
LC-001-100-D00-0
 62
     7
370
    50
100
AcDbLine
 10
11.523588
 20
366.218254
 30
0.0
 11
11.523588
 21
366.318256
 31
0.0
  0
LINE
  5
377
330
1F
100
AcDbEntity
  8
LC-001-100-D00-0
 62
     7
370
    50
100
AcDbLine
 10
11.523588
 20
366.218254
 30
0.0
 11
11.648109
 21
366.218254
 31
0.0
  0
LINE
  5
378
330
1F
100
AcDbEntity
  8
LC-001-100-D00-0
 62
     7
370
    50
100
AcDbLine
 10
11.648109
 20
366.318256
 30
0.0
 11
11.648109
 21
366.218254
 31
0.0
  0
LINE
  5
379
330
1F
100
AcDbEntity
  8
LC-001-100-D00-0
 62
     7
370
    50
100
AcDbLine
 10
12.809021
 20
366.318256
 30
0.0
 11
11.648109
 21
366.318256
 31
0.0
  0
LINE
  5
37A
330
1F
100
AcDbEntity
  8
LC-001-100-D00-0
 62
     7
370
    50
100
AcDbLine
 10
12.809021
 20
366.218254
 30
0.0
 11
12.809021
 21
366.318256
 31
0.0
  0
LINE
  5
37B
330
1F
100
AcDbEntity
  8
LC-001-100-D00-0
 62
     7
370
    50
100
AcDbLine
 10
12.809021
 20
366.218254
 30
0.0
 11
12.948653
 21
366.218254
 31
0.0
  0
LINE
  5
37C
330
1F
100
AcDbEntity
  8
LC-001-100-D00-0
 62
     7
370
    50
100
AcDbLine
 10
12.948653
 20
366.318256
 30
0.0
 11
12.948653
 21
366.218254
 31
0.0
  0
LINE
  5
37D
330
1F
100
AcDbEntity
  8
LC-001-100-D00-0
 62
     7
370
    50
100
AcDbLine
 10
13.099251
 20
366.318256
 30
0.0
 11
12.948653
 21
366.318256
 31
0.0
  0
LINE
  5
37E
330
1F
100
AcDbEntity
  8
LC-001-100-D00-0
 62
     7
370
    50
100
AcDbLine
 10
13.099251
 20
366.218254
 30
0.0
 11
13.099251
 21
366.318256
 31
0.0
  0
LINE
  5
37F
330
1F
100
AcDbEntity
  8
LC-001-100-D00-0
 62
     7
370
    50
100
AcDbLine
 10
13.099251
 20
366.218254
 30
0.0
 11
13.244366
 21
366.218254
 31
0.0
  0
LINE
  5
380
330
1F
100
AcDbEntity
  8
LC-001-100-D00-0
 62
     7
370
    50
100
AcDbLine
 10
13.244366
 20
366.318256
 30
0.0
 11
13.244366
 21
366.218254
 31
0.0
  0
LINE
  5
381
330
1F
100
AcDbEntity
  8
LC-001-100-D00-0
 62
     7
370
    50
100
AcDbLine
 10
13.389481
 20
366.318256
 30
0.0
 11
13.244366
 21
366.318256
 31
0.0
  0
LINE
  5
382
330
1F
100
AcDbEntity
  8
LC-001-100-D00-0
 62
     7
370
    50
100
AcDbLine
 10
13.534589
 20
366.318256
 30
0.0
 11
13.534589
 21
366.218254
 31
0.0
  0
LINE
  5
383
330
1F
100
AcDbEntity
  8
LC-001-100-D00-0
 62
     7
370
    50
100
AcDbLine
 10
13.824819
 20
366.318256
 30
0.0
 11
13.534589
 21
366.318256
 31
0.0
  0
LINE
  5
384
330
1F
100
AcDbEntity
  8
LC-001-100-D00-0
 62
     7
370
    50
100
AcDbLine
 10
13.824819
 20
366.318256
 30
0.0
 11
13.824819
 21
366.218254
 31
0.0
  0
LINE
  5
385
330
1F
100
AcDbEntity
  8
LC-001-100-D00-0
 62
     7
370
    50
100
AcDbLine
 10
13.824819
 20
366.218254
 30
0.0
 11
14.502963
 21
366.218254
 31
0.0
  0
LINE
  5
386
330
1F
100
AcDbEntity
  8
LC-001-100-D00-0
 62
     7
370
    50
100
AcDbLine
 10
14.502963
 20
366.218254
 30
0.0
 11
14.502963
 21
366.318256
 31
0.0
  0
LINE
  5
387
330
1F
100
AcDbEntity
  8
LC-001-100-D00-0
 62
     7
370
    50
100
AcDbLine
 10
15.163807
 20
366.318256
 30
0.0
 11
14.502963
 21
366.318256
 31
0.0
  0
LINE
  5
388
330
1F
100
AcDbEntity
  8
LC-001-100-D00-0
 62
     7
370
    50
100
AcDbLine
 10
15.163807
 20
366.218254
 30
0.0
 11
15.163807
 21
366.318256
 31
0.0
  0
LINE
  5
389
330
1F
100
AcDbEntity
  8
LC-001-100-D00-0
 62
     7
370
    50
100
AcDbLine
 10
15.163807
 20
366.218254
 30
0.0
 11
15.625907
 21
366.218254
 31
0.0
  0
LINE
  5
38A
330
1F
100
AcDbEntity
  8
LC-001-100-D00-0
 62
     7
370
    50
100
AcDbLine
 10
15.625907
 20
366.318256
 30
0.0
 11
15.625907
 21
366.218254
 31
0.0
  0
LINE
  5
38B
330
1F
100
AcDbEntity
  8
LC-001-100-D00-0
 62
     7
370
    50
100
AcDbLine
 10
16.217185
 20
366.318256
 30
0.0
 11
15.625907
 21
366.318256
 31
0.0
  0
LINE
  5
38C
330
1F
100
AcDbEntity
  8
LC-001-100-D00-0
 62
     7
370
    50
100
AcDbLine
 10
16.217185
 20
366.318256
 30
0.0
 11
16.217185
 21
366.218254
 31
0.0
  0
LINE
  5
38D
330
1F
100
AcDbEntity
  8
LC-001-100-D00-0
 62
     7
370
    50
100
AcDbLine
 10
16.217185
 20
366.218254
 30
0.0
 11
16.520282
 21
366.218254
 31
0.0
  0
LINE
  5
38E
330
1F
100
AcDbEntity
  8
LC-001-100-D00-0
 62
     7
370
    50
100
AcDbLine
 10
16.520282
 20
366.218254
 30
0.0
 11
16.520282
 21
366.318256
 31
0.0
  0
LINE
  5
38F
330
1F
100
AcDbEntity
  8
LC-001-100-D00-0
 62
     7
370
    50
100
AcDbLine
 10
18.398469
 20
366.318256
 30
0.0
 11
16.520282
 21
366.318256
 31
0.0
  0
LINE
  5
390
330
1F
100
AcDbEntity
  8
LC-001-100-D00-0
 62
     7
370
    50
100
AcDbLine
 10
18.398469
 20
366.318256
 30
0.0
 11
18.398469
 21
366.218254
 31
0.0
  0
LINE
  5
391
330
1F
100
AcDbEntity
  8
LC-001-100-D00-0
 62
     7
370
    50
100
AcDbLine
 10
18.398469
 20
366.218254
 30
0.0
 11
18.746277
 21
366.218254
 31
0.0
  0
LINE
  5
392
330
1F
100
AcDbEntity
  8
LC-001-100-D00-0
 62
     7
370
    50
100
AcDbLine
 10
18.746277
 20
366.218254
 30
0.0
 11
18.746277
 21
366.318256
 31
0.0
  0
LINE
  5
393
330
1F
100
AcDbEntity
  8
LC-001-100-D00-0
 62
     7
370
    50
100
AcDbLine
 10
18.746277
 20
366.318256
 30
0.0
 11
19.372342
 21
366.318256
 31
0.0
  0
LINE
  5
394
330
1F
100
AcDbEntity
  8
LC-001-100-D00-0
 62
     7
370
    50
100
AcDbLine
 10
19.372342
 20
366.318256
 30
0.0
 11
19.372342
 21
366.218254
 31
0.0
  0
LINE
  5
395
330
1F
100
AcDbEntity
  8
LC-001-100-D00-0
 62
     7
370
    50
100
AcDbLine
 10
19.372342
 20
366.218254
 30
0.0
 11
20.24187
 21
366.218254
 31
0.0
  0
LINE
  5
396
330
1F
100
AcDbEntity
  8
LC-001-100-D00-0
 62
     7
370
    50
100
AcDbLine
 10
20.24187
 20
366.218254
 30
0.0
 11
20.24187
 21
366.318256
 31
0.0
  0
LINE
  5
397
330
1F
100
AcDbEntity
  8
LC-001-100-D00-0
 62
     7
370
    50
100
AcDbLine
 10
20.24187
 20
366.318256
 30
0.0
 11
20.867934
 21
366.318256
 31
0.0
  0
LINE
  5
398
330
1F
100
AcDbEntity
  8
LC-001-100-D00-0
 62
     7
370
    50
100
AcDbLine
 10
20.867934
 20
366.318256
 30
0.0
 11
20.867934
 21
366.218254
 31
0.0
  0
LINE
  5
399
330
1F
100
AcDbEntity
  8
LC-001-100-D00-0
 62
     7
370
    50
100
AcDbLine
 10
20.867934
 20
366.218254
 30
0.0
 11
21.737469
 21
366.218254
 31
0.0
  0
LINE
  5
39A
330
1F
100
AcDbEntity
  8
LC-001-100-D00-0
 62
     7
370
    50
100
AcDbLine
 10
21.737469
 20
366.218254
 30
0.0
 11
21.737469
 21
366.318256
 31
0.0
  0
LINE
  5
39B
330
1F
100
AcDbEntity
  8
LC-001-100-D00-0
 62
     7
370
    50
100
AcDbLine
 10
22.363527
 20
366.318256
 30
0.0
 11
21.737469
 21
366.318256
 31
0.0
  0
LINE
  5
39C
330
1F
100
AcDbEntity
  8
LC-001-100-D00-0
 62
     7
370
    50
100
AcDbLine
 10
22.363527
 20
366.318256
 30
0.0
 11
22.363527
 21
366.218254
 31
0.0
  0
LINE
  5
39D
330
1F
100
AcDbEntity
  8
LC-001-100-D00-0
 62
     7
370
    50
100
AcDbLine
 10
22.363527
 20
366.218254
 30
0.0
 11
22.815688
 21
366.218254
 31
0.0
  0
LINE
  5
39E
330
1F
100
AcDbEntity
  8
LC-001-100-D00-0
 62
     7
370
    50
100
AcDbLine
 10
22.815688
 20
366.218254
 30
0.0
 11
22.815688
 21
366.318256
 31
0.0
  0
LINE
  5
39F
330
1F
100
AcDbEntity
  8
LC-001-100-D00-0
 62
     7
370
    50
100
AcDbLine
 10
23.476532
 20
366.318256
 30
0.0
 11
22.815688
 21
366.318256
 31
0.0
  0
LINE
  5
3A0
330
1F
100
AcDbEntity
  8
LC-001-100-D00-0
 62
     7
370
    50
100
AcDbLine
 10
23.476532
 20
366.318256
 30
0.0
 11
23.476532
 21
366.218254
 31
0.0
  0
LINE
  5
3A1
330
1F
100
AcDbEntity
  8
LC-001-100-D00-0
 62
     7
370
    50
100
AcDbLine
 10
23.476532
 20
366.218254
 30
0.0
 11
23.928685
 21
366.218254
 31
0.0
  0
LINE
  5
3A2
330
1F
100
AcDbEntity
  8
LC-001-100-D00-0
 62
     7
370
    50
100
AcDbLine
 10
23.928685
 20
366.218254
 30
0.0
 11
23.928685
 21
366.318256
 31
0.0
  0
LINE
  5
3A3
330
1F
100
AcDbEntity
  8
LC-001-100-D00-0
 62
     7
370
    50
100
AcDbLine
 10
24.55475
 20
366.318256
 30
0.0
 11
23.928685
 21
366.318256
 31
0.0
  0
LINE
  5
3A4
330
1F
100
AcDbEntity
  8
LC-001-100-D00-0
 62
     7
370
    50
100
AcDbLine
 10
24.55475
 20
366.318256
 30
0.0
 11
24.55475
 21
366.218254
 31
0.0
  0
LINE
  5
3A5
330
1F
100
AcDbEntity
  8
LC-001-100-D00-0
 62
     7
370
    50
100
AcDbLine
 10
24.55475
 20
366.218254
 30
0.0
 11
24.832999
 21
366.218254
 31
0.0
  0
LINE
  5
3A6
330
1F
100
AcDbEntity
  8
LC-001-100-D00-0
 62
     7
370
    50
100
AcDbLine
 10
24.832999
 20
366.218254
 30
0.0
 11
24.832999
 21
366.318256
 31
0.0
  0
LINE
  5
3A7
330
1F
100
AcDbEntity
  8
LC-001-100-D00-0
 62
     7
370
    50
100
AcDbLine
 10
24.832999
 20
366.318256
 30
0.0
 11
26.363375
 21
366.318256
 31
0.0
  0
LINE
  5
3A8
330
1F
100
AcDbEntity
  8
LC-001-100-D00-0
 62
     7
370
    50
100
AcDbLine
 10
26.363375
 20
366.318256
 30
0.0
 11
26.363375
 21
366.218254
 31
0.0
  0
LINE
  5
3A9
330
1F
100
AcDbEntity
  8
LC-001-100-D00-0
 62
     7
370
    50
100
AcDbLine
 10
26.363375
 20
366.218254
 30
0.0
 11
26.745969
 21
366.218254
 31
0.0
  0
LINE
  5
3AA
330
1F
100
AcDbEntity
  8
LC-001-100-D00-0
 62
     7
370
    50
100
AcDbLine
 10
26.745969
 20
366.218254
 30
0.0
 11
26.745969
 21
366.318256
 31
0.0
  0
LINE
  5
3AB
330
1F
100
AcDbEntity
  8
LC-001-100-D00-0
 62
     7
370
    50
100
AcDbLine
 10
28.607583
 20
366.318256
 30
0.0
 11
26.745969
 21
366.318256
 31
0.0
  0
LINE
  5
3AC
330
1F
100
AcDbEntity
  8
LC-001-100-D00-0
 62
     7
370
    50
100
AcDbLine
 10
28.607583
 20
366.318256
 30
0.0
 11
28.607583
 21
366.218254
 31
0.0
  0
LINE
  5
3AD
330
1F
100
AcDbEntity
  8
LC-001-100-D00-0
 62
     7
370
    50
100
AcDbLine
 10
28.607583
 20
366.218254
 30
0.0
 11
70.482325
 21
366.218254
 31
0.0
  0
ARC
  5
3AE
330
1F
100
AcDbEntity
  8
LC-001-100-D00-0
 62
     7
370
    50
100
AcDbCircle
 10
70.482325
 20
353.218261
 30
0.0
 40
12.99999999999999
100
AcDbArc
 50
15.0
 51
90.0
  0
LINE
  5
3AF
330
1F
100
AcDbEntity
  8
LC-001-100-D00-0
 62
     7
370
    50
100
AcDbLine
 10
83.03936
 20
356.58291
 30
0.0
 11
100.538111
 21
291.276679
 31
0.0
  0
LINE
  5
3B0
330
1F
100
AcDbEntity
  8
LC-001-100-D00-0
 62
     7
370
    50
100
AcDbLine
 10
100.538111
 20
291.276679
 30
0.0
 11
94.348607
 21
291.276679
 31
0.0
  0
LINE
  5
3B1
330
1F
100
AcDbEntity
  8
LC-001-100-D00-0
 62
     7
370
    50
100
AcDbLine
 10
94.348607
 20
291.276679
 30
0.0
 11
94.348607
 21
281.276688
 31
0.0
  0
LINE
  5
3B2
330
1F
100
AcDbEntity
  8
LC-001-100-D00-0
 62
     7
370
    50
100
AcDbLine
 10
94.348607
 20
281.276688
 30
0.0
 11
92.348607
 21
281.276688
 31
0.0
  0
LINE
  5
3B3
330
1F
100
AcDbEntity
  8
LC-001-100-D00-0
 62
     7
370
    50
100
AcDbLine
 10
92.348607
 20
281.276688
 30
0.0
 11
92.348607
 21
291.276679
 31
0.0
  0
LINE
  5
3B4
330
1F
100
AcDbEntity
  8
LC-001-100-D00-0
 62
     7
370
    50
100
AcDbLine
 10
92.348607
 20
291.276679
 30
0.0
 11
89.667711
 21
291.276679
 31
0.0
  0
LINE
  5
3B5
330
1F
100
AcDbEntity
  8
LC-001-100-D00-0
 62
     7
370
    50
100
AcDbLine
 10
89.667711
 20
291.276679
 30
0.0
 11
79.887565
 21
327.776686
 31
0.0
  0
LINE
  5
3B6
330
1F
100
AcDbEntity
  8
LC-001-100-D00-0
 62
     7
370
    50
100
AcDbLine
 10
79.887565
 20
327.776686
 30
0.0
 11
78.648607
 21
327.776686
 31
0.0
  0
ARC
  5
3B7
330
1F
100
AcDbEntity
  8
LC-001-100-D00-0
 62
     7
370
    50
100
AcDbCircle
 10
78.648607
 20
328.776683
 30
0.0
 40
1.0
100
AcDbArc
 50
180.0
 51
270.0
  0
LINE
  5
3B8
330
1F
100
AcDbEntity
  8
LC-001-100-D00-0
 62
     7
370
    50
100
AcDbLine
 10
77.648607
 20
328.776688
 30
0.0
 11
77.648607
 21
336.132586
 31
0.0
  0
LINE
  5
3B9
330
1F
100
AcDbEntity
  8
LC-001-100-D00-0
 62
     7
370
    50
100
AcDbLine
 10
77.648607
 20
336.132586
 30
0.0
 11
70.591985
 21
362.468258
 31
0.0
  0
LINE
  5
3BA
330
1F
100
AcDbEntity
  8
LC-001-100-D00-0
 62
     7
370
    50
100
AcDbLine
 10
70.591985
 20
362.468258
 30
0.0
 11
5.105225
 21
362.468258
 31
0.0
  0
LINE
  5
3BB
330
1F
100
AcDbEntity
  8
LC-001-100-D00-0
 62
     7
370
    50
100
AcDbLine
 10
5.105225
 20
362.468258
 30
0.0
 11
-1.951391
 21
336.132586
 31
0.0
  0
LINE
  5
3BC
330
1F
100
AcDbEntity
  8
LC-001-100-D00-0
 62
     7
370
    50
100
AcDbLine
 10
-1.951391
 20
336.132586
 30
0.0
 11
-1.951391
 21
328.776688
 31
0.0
  0
ARC
  5
3BD
330
1F
100
AcDbEntity
  8
LC-001-100-D00-0
 62
     7
370
    50
100
AcDbCircle
 10
-2.951393
 20
328.776683
 30
0.0
 40
1.0
100
AcDbArc
 50
270.0
 51
0.0
  0
LINE
  5
3BE
330
1F
100
AcDbEntity
  8
LC-001-100-D00-0
 62
     7
370
    50
100
AcDbLine
 10
-2.951393
 20
327.776686
 30
0.0
 11
-4.19035
 21
327.776686
 31
0.0
  0
LINE
  5
3BF
330
1F
100
AcDbEntity
  8
LC-001-100-D00-0
 62
     7
370
    50
100
AcDbLine
 10
-4.19035
 20
327.776686
 30
0.0
 11
-13.970496
 21
291.276679
 31
0.0
  0
LINE
  5
3C0
330
1F
100
AcDbEntity
  8
LC-001-100-D00-0
 62
     7
370
    50
100
AcDbLine
 10
-13.970496
 20
291.276679
 30
0.0
 11
-16.651394
 21
291.276679
 31
0.0
  0
LINE
  5
3C1
330
1F
100
AcDbEntity
  8
LC-001-100-D00-0
 62
     7
370
    50
100
AcDbLine
 10
-16.651394
 20
291.276679
 30
0.0
 11
-16.651394
 21
281.276688
 31
0.0
  0
LINE
  5
3C2
330
1F
100
AcDbEntity
  8
LC-001-100-D00-0
 62
     7
370
    50
100
AcDbLine
 10
-16.651394
 20
281.276688
 30
0.0
 11
-18.651391
 21
281.276688
 31
0.0
  0
LINE
  5
3C3
330
1F
100
AcDbEntity
  8
LC-001-100-D00-0
 62
     7
370
    50
100
AcDbLine
 10
-18.651391
 20
281.276688
 30
0.0
 11
-18.651391
 21
291.276679
 31
0.0
  0
LINE
  5
3C4
330
1F
100
AcDbEntity
  8
LC-001-100-D00-0
 62
     7
370
    50
100
AcDbLine
 10
-18.651391
 20
291.276679
 30
0.0
 11
-24.840893
 21
291.276679
 31
0.0
  0
LINE
  5
3C5
330
1F
100
AcDbEntity
  8
LC-001-100-D00-0
 62
     7
370
    50
100
AcDbLine
 10
13.389481
 20
366.218254
 30
0.0
 11
13.389481
 21
366.318256
 31
0.0
  0
LINE
  5
3C6
330
1F
100
AcDbEntity
  8
LC-001-100-D00-0
 62
     7
370
    50
100
AcDbLine
 10
13.389481
 20
366.218254
 30
0.0
 11
13.534589
 21
366.218254
 31
0.0
  0
LINE
  5
3C7
330
1F
100
AcDbEntity
  8
LC-001-100-D00-0
 62
     7
370
    50
100
AcDbLine
 10
11.357879
 20
366.318256
 30
0.0
 11
11.281034
 21
366.318256
 31
0.0
  0
LINE
  5
3C8
330
1F
100
AcDbEntity
  8
LC-001-100-D00-0
 62
     7
370
    50
100
AcDbLine
 10
10.701058
 20
366.318256
 30
0.0
 11
10.922542
 21
366.318256
 31
0.0
  0
LINE
  5
3C9
330
1F
100
AcDbEntity
  8
LC-001-100-D00-0
 62
     7
370
    50
100
AcDbLine
 10
-9.96236
 20
291.276679
 30
0.0
 11
-11.881279
 21
291.276679
 31
0.0
  0
LINE
  5
3CA
330
1F
100
AcDbEntity
  8
LC-001-100-D00-0
 62
     7
370
    50
100
AcDbLine
 10
-1.562456
 20
291.276679
 30
0.0
 11
-6.403053
 21
291.276679
 31
0.0
  0
LINE
  5
3CB
330
1F
100
AcDbEntity
  8
LC-001-100-D00-0
 62
     7
370
    50
100
AcDbLine
 10
9.523241
 20
291.276679
 30
0.0
 11
2.090847
 21
291.276679
 31
0.0
  0
LINE
  5
3CC
330
1F
100
AcDbEntity
  8
LC-001-100-D00-0
 62
     7
370
    50
100
AcDbLine
 10
22.539271
 20
291.276679
 30
0.0
 11
13.021586
 21
291.276679
 31
0.0
  0
LINE
  5
3CD
330
1F
100
AcDbEntity
  8
LC-001-100-D00-0
 62
     7
370
    50
100
AcDbLine
 10
36.598606
 20
291.276679
 30
0.0
 11
25.644245
 21
291.276679
 31
0.0
  0
LINE
  5
3CE
330
1F
100
AcDbEntity
  8
LC-001-100-D00-0
 62
     7
370
    50
100
AcDbLine
 10
50.052972
 20
291.276679
 30
0.0
 11
39.098607
 21
291.276679
 31
0.0
  0
LINE
  5
3CF
330
1F
100
AcDbEntity
  8
LC-001-100-D00-0
 62
     7
370
    50
100
AcDbLine
 10
62.675627
 20
291.276679
 30
0.0
 11
53.157942
 21
291.276679
 31
0.0
  0
LINE
  5
3D0
330
1F
100
AcDbEntity
  8
LC-001-100-D00-0
 62
     7
370
    50
100
AcDbLine
 10
73.606363
 20
291.276679
 30
0.0
 11
66.173971
 21
291.276679
 31
0.0
  0
LINE
  5
3D1
330
1F
100
AcDbEntity
  8
LC-001-100-D00-0
 62
     7
370
    50
100
AcDbLine
 10
82.100267
 20
291.276679
 30
0.0
 11
77.259673
 21
291.276679
 31
0.0
  0
LINE
  5
3D2
330
1F
100
AcDbEntity
  8
LC-001-100-D00-0
 62
     7
370
    50
100
AcDbLine
 10
87.578494
 20
291.276679
 30
0.0
 11
85.659575
 21
291.276679
 31
0.0
  0
LINE
  5
3D3
330
1F
100
AcDbEntity
  8
LC-001-100-D00-0
 62
     7
370
    50
100
AcDbLine
 10
92.348607
 20
281.276688
 30
0.0
 11
-16.651394
 21
281.276688
 31
0.0
  0
LINE
  5
3D4
330
1F
100
AcDbEntity
  8
LC-001-100-D00-0
 62
     7
370
    50
100
AcDbLine
 10
78.648607
 20
327.776686
 30
0.0
 11
-2.951393
 21
327.776686
 31
0.0
  0
LINE
  5
3D5
330
1F
100
AcDbEntity
  8
LC-001-100-D00-0
 62
     7
370
    50
100
AcDbLine
 10
-0.899801
 20
336.920202
 30
0.0
 11
-1.740353
 21
336.920202
 31
0.0
  0
LINE
  5
3D6
330
1F
100
AcDbEntity
  8
LC-001-100-D00-0
 62
     7
370
    50
100
AcDbLine
 10
-0.899801
 20
336.20587
 30
0.0
 11
-0.899801
 21
336.920202
 31
0.0
  0
ELLIPSE
  5
3D7
330
1F
100
AcDbEntity
  8
LC-001-100-D00-0
 62
     7
370
    50
100
AcDbEllipse
 10
37.848607
 20
484.668212
 30
0.0
 11
-38.6123599240775
 21
-148.5144309623285
 31
0.0
210
0.0
220
0.0
230
1.0
 40
0.064978
 41
3.127072504765258
 42
3.189896906356342
  0
LINE
  5
3D8
330
1F
100
AcDbEntity
  8
LC-001-100-D00-0
 62
     7
370
    50
100
AcDbLine
 10
2.772799
 20
336.920202
 30
0.0
 11
-0.067869
 21
336.920202
 31
0.0
  0
LINE
  5
3D9
330
1F
100
AcDbEntity
  8
LC-001-100-D00-0
 62
     7
370
    50
100
AcDbLine
 10
2.772799
 20
336.20587
 30
0.0
 11
2.772799
 21
336.920202
 31
0.0
  0
ELLIPSE
  5
3DA
330
1F
100
AcDbEntity
  8
LC-001-100-D00-0
 62
     7
370
    50
100
AcDbEllipse
 10
37.848607
 20
484.668212
 30
0.0
 11
-35.04875173267045
 21
-148.4688948661076
 31
0.0
210
0.0
220
0.0
230
1.0
 40
0.127017
 41
3.140156036093111
 42
3.202980437684096
  0
LINE
  5
3DB
330
1F
100
AcDbEntity
  8
LC-001-100-D00-0
 62
     7
370
    50
100
AcDbLine
 10
8.835753
 20
336.920202
 30
0.0
 11
4.188565
 21
336.920202
 31
0.0
  0
LINE
  5
3DC
330
1F
100
AcDbEntity
  8
LC-001-100-D00-0
 62
     7
370
    50
100
AcDbLine
 10
8.835753
 20
336.20587
 30
0.0
 11
8.835753
 21
336.920202
 31
0.0
  0
ELLIPSE
  5
3DD
330
1F
100
AcDbEntity
  8
LC-001-100-D00-0
 62
     7
370
    50
100
AcDbEllipse
 10
37.848607
 20
484.668212
 30
0.0
 11
-29.13311655020939
 21
-148.4402514731615
 31
0.0
210
0.0
220
0.0
230
1.0
 40
0.182676
 41
3.146017345020757
 42
3.208841746611632
  0
LINE
  5
3DE
330
1F
100
AcDbEntity
  8
LC-001-100-D00-0
 62
     7
370
    50
100
AcDbLine
 10
16.875891
 20
336.920202
 30
0.0
 11
10.73887
 21
336.920202
 31
0.0
  0
LINE
  5
3DF
330
1F
100
AcDbEntity
  8
LC-001-100-D00-0
 62
     7
370
    50
100
AcDbLine
 10
16.875891
 20
336.20587
 30
0.0
 11
16.875891
 21
336.920202
 31
0.0
  0
ELLIPSE
  5
3E0
330
1F
100
AcDbEntity
  8
LC-001-100-D00-0
 62
     7
370
    50
100
AcDbEllipse
 10
37.848607
 20
484.668212
 30
0.0
 11
-20.99942077801085
 21
-148.4586158042306
 31
0.0
210
0.0
220
0.0
230
1.0
 40
0.227735
 41
3.14238236676904
 42
3.205206768359918
  0
LINE
  5
3E1
330
1F
100
AcDbEntity
  8
LC-001-100-D00-0
 62
     7
370
    50
100
AcDbLine
 10
26.345285
 20
336.920202
 30
0.0
 11
19.040955
 21
336.920202
 31
0.0
  0
LINE
  5
3E2
330
1F
100
AcDbEntity
  8
LC-001-100-D00-0
 62
     7
370
    50
100
AcDbLine
 10
26.345285
 20
336.20587
 30
0.0
 11
26.345285
 21
336.920202
 31
0.0
  0
ELLIPSE
  5
3E3
330
1F
100
AcDbEntity
  8
LC-001-100-D00-0
 62
     7
370
    50
100
AcDbEllipse
 10
37.848607
 20
484.668212
 30
0.0
 11
-11.03449487866733
 21
-148.5084444693127
 31
0.0
210
0.0
220
0.0
230
1.0
 40
0.257492
 41
3.129310341179231
 42
3.19213474277016
  0
LINE
  5
3E4
330
1F
100
AcDbEntity
  8
LC-001-100-D00-0
 62
     7
370
    50
100
AcDbLine
 10
36.598606
 20
336.920202
 30
0.0
 11
28.7601
 21
336.920202
 31
0.0
  0
ELLIPSE
  5
3E5
330
1F
100
AcDbEntity
  8
LC-001-100-D00-0
 62
     7
370
    50
100
AcDbEllipse
 10
37.848607
 20
484.668212
 30
0.0
 11
0.0
 21
-148.5356221412429
 31
0.0
210
0.0
220
0.0
230
1.0
 40
0.267949
 41
3.11018045279435
 42
3.173004854385281
  0
LINE
  5
3E6
330
1F
100
AcDbEntity
  8
LC-001-100-D00-0
 62
     7
370
    50
100
AcDbLine
 10
46.937117
 20
336.920202
 30
0.0
 11
39.098607
 21
336.920202
 31
0.0
  0
ELLIPSE
  5
3E7
330
1F
100
AcDbEntity
  8
LC-001-100-D00-0
 62
     7
370
    50
100
AcDbEllipse
 10
37.848607
 20
484.668212
 30
0.0
 11
11.03449487866851
 21
-148.5084444693172
 31
0.0
210
0.0
220
0.0
230
1.0
 40
0.257492
 41
3.091050564409443
 42
3.153874966000377
  0
LINE
  5
3E8
330
1F
100
AcDbEntity
  8
LC-001-100-D00-0
 62
     7
370
    50
100
AcDbLine
 10
49.351929
 20
336.20587
 30
0.0
 11
49.351929
 21
336.920202
 31
0.0
  0
LINE
  5
3E9
330
1F
100
AcDbEntity
  8
LC-001-100-D00-0
 62
     7
370
    50
100
AcDbLine
 10
56.656258
 20
336.920202
 30
0.0
 11
49.351929
 21
336.920202
 31
0.0
  0
ELLIPSE
  5
3EA
330
1F
100
AcDbEntity
  8
LC-001-100-D00-0
 62
     7
370
    50
100
AcDbEllipse
 10
37.848607
 20
484.668212
 30
0.0
 11
20.99942077801027
 21
-148.4586158042217
 31
0.0
210
0.0
220
0.0
230
1.0
 40
0.227735
 41
3.077978538819718
 42
3.140802940410598
  0
LINE
  5
3EB
330
1F
100
AcDbEntity
  8
LC-001-100-D00-0
 62
     7
370
    50
100
AcDbLine
 10
58.821322
 20
336.20587
 30
0.0
 11
58.821322
 21
336.920202
 31
0.0
  0
LINE
  5
3EC
330
1F
100
AcDbEntity
  8
LC-001-100-D00-0
 62
     7
370
    50
100
AcDbLine
 10
64.958345
 20
336.920202
 30
0.0
 11
58.821322
 21
336.920202
 31
0.0
  0
ELLIPSE
  5
3ED
330
1F
100
AcDbEntity
  8
LC-001-100-D00-0
 62
     7
370
    50
100
AcDbEllipse
 10
37.848607
 20
484.668212
 30
0.0
 11
29.13311655020548
 21
-148.4402514731391
 31
0.0
210
0.0
220
0.0
230
1.0
 40
0.182676
 41
3.07434356056802
 42
3.137167962158899
  0
LINE
  5
3EE
330
1F
100
AcDbEntity
  8
LC-001-100-D00-0
 62
     7
370
    50
100
AcDbLine
 10
66.861456
 20
336.20587
 30
0.0
 11
66.861456
 21
336.920202
 31
0.0
  0
LINE
  5
3EF
330
1F
100
AcDbEntity
  8
LC-001-100-D00-0
 62
     7
370
    50
100
AcDbLine
 10
71.508651
 20
336.920202
 30
0.0
 11
66.861456
 21
336.920202
 31
0.0
  0
ELLIPSE
  5
3F0
330
1F
100
AcDbEntity
  8
LC-001-100-D00-0
 62
     7
370
    50
100
AcDbEllipse
 10
37.848607
 20
484.668212
 30
0.0
 11
35.04875173267638
 21
-148.4688948661316
 31
0.0
210
0.0
220
0.0
230
1.0
 40
0.127017
 41
3.080204869495633
 42
3.143029271086625
  0
LINE
  5
3F1
330
1F
100
AcDbEntity
  8
LC-001-100-D00-0
 62
     7
370
    50
100
AcDbLine
 10
72.924415
 20
336.20587
 30
0.0
 11
72.924415
 21
336.920202
 31
0.0
  0
LINE
  5
3F2
330
1F
100
AcDbEntity
  8
LC-001-100-D00-0
 62
     7
370
    50
100
AcDbLine
 10
75.765081
 20
336.920202
 30
0.0
 11
72.924415
 21
336.920202
 31
0.0
  0
ELLIPSE
  5
3F3
330
1F
100
AcDbEntity
  8
LC-001-100-D00-0
 62
     7
370
    50
100
AcDbEllipse
 10
37.848607
 20
484.668212
 30
0.0
 11
38.61235992416236
 21
-148.5144309626544
 31
0.0
210
0.0
220
0.0
230
1.0
 40
0.064978
 41
3.093288400823358
 42
3.156112802414446
  0
LINE
  5
3F4
330
1F
100
AcDbEntity
  8
LC-001-100-D00-0
 62
     7
370
    50
100
AcDbLine
 10
76.597013
 20
336.20587
 30
0.0
 11
76.597013
 21
336.920202
 31
0.0
  0
LINE
  5
3F5
330
1F
100
AcDbEntity
  8
LC-001-100-D00-0
 62
     7
370
    50
100
AcDbLine
 10
77.437566
 20
336.920202
 30
0.0
 11
76.597013
 21
336.920202
 31
0.0
  0
LINE
  5
3F6
330
1F
100
AcDbEntity
  8
LC-001-100-D00-0
 62
     7
370
    50
100
AcDbLine
 10
13.534589
 20
366.318256
 30
0.0
 11
13.389481
 21
366.318256
 31
0.0
  0
LINE
  5
3F7
330
1F
100
AcDbEntity
  8
LC-001-100-D00-0
 62
     7
370
    50
100
AcDbLine
 10
13.244366
 20
366.318256
 30
0.0
 11
13.119457
 21
366.318256
 31
0.0
  0
LINE
  5
3F8
330
1F
100
AcDbEntity
  8
LC-001-100-D00-0
 62
     7
370
    50
100
AcDbLine
 10
13.119457
 20
366.318256
 30
0.0
 11
13.099251
 21
366.318256
 31
0.0
  0
LINE
  5
3F9
330
1F
100
AcDbEntity
  8
LC-001-100-D00-0
 62
     7
370
    50
100
AcDbLine
 10
12.948653
 20
366.318256
 30
0.0
 11
12.942178
 21
366.318256
 31
0.0
  0
LINE
  5
3FA
330
1F
100
AcDbEntity
  8
LC-001-100-D00-0
 62
     7
370
    50
100
AcDbLine
 10
11.64413
 20
366.318256
 30
0.0
 11
11.523588
 21
366.318256
 31
0.0
  0
LINE
  5
3FB
330
1F
100
AcDbEntity
  8
LC-001-100-D00-0
 62
     7
370
    50
100
AcDbLine
 10
11.648109
 20
366.318256
 30
0.0
 11
11.64413
 21
366.318256
 31
0.0
  0
LINE
  5
3FC
330
1F
100
AcDbEntity
  8
LC-001-100-D00-0
 62
     7
370
    50
100
AcDbLine
 10
28.624156
 20
366.318256
 30
0.0
 11
28.624156
 21
366.218254
 31
0.0
  0
LINE
  5
3FD
330
1F
100
AcDbEntity
  8
LC-001-100-D00-0
 62
     7
370
    50
100
AcDbLine
 10
28.607583
 20
366.318256
 30
0.0
 11
28.624156
 21
366.318256
 31
0.0
  0
LINE
  5
3FE
330
1F
100
AcDbEntity
  8
LC-001-100-D00-0
 62
     7
370
    50
100
AcDbLine
 10
12.942178
 20
366.318256
 30
0.0
 11
12.827827
 21
366.318256
 31
0.0
  0
LINE
  5
3FF
330
1F
100
AcDbEntity
  8
LC-001-100-D00-0
 62
     7
370
    50
100
AcDbLine
 10
11.281034
 20
366.318256
 30
0.0
 11
11.212764
 21
366.318256
 31
0.0
  0
LINE
  5
400
330
1F
100
AcDbEntity
  8
LC-001-100-D00-0
 62
     7
370
    50
100
AcDbLine
 10
12.827827
 20
366.318256
 30
0.0
 11
12.809811
 21
366.318256
 31
0.0
  0
LINE
  5
401
330
1F
100
AcDbEntity
  8
LC-001-100-D00-0
 62
     7
370
    50
100
AcDbLine
 10
15.625907
 20
366.318256
 30
0.0
 11
15.521562
 21
366.318256
 31
0.0
  0
LINE
  5
402
330
1F
100
AcDbEntity
  8
LC-001-100-D00-0
 62
     7
370
    50
100
AcDbLine
 10
10.69436
 20
366.318256
 30
0.0
 11
10.701058
 21
366.318256
 31
0.0
  0
LINE
  5
403
330
1F
100
AcDbEntity
  8
LC-001-100-D00-0
 62
     7
370
    50
100
AcDbLine
 10
22.363527
 20
366.318256
 30
0.0
 11
22.433093
 21
366.318256
 31
0.0
  0
LINE
  5
404
330
1F
100
AcDbEntity
  8
LC-001-100-D00-0
 62
     7
370
    50
100
AcDbLine
 10
22.746121
 20
366.318256
 30
0.0
 11
22.815688
 21
366.318256
 31
0.0
  0
LINE
  5
405
330
1F
100
AcDbEntity
  8
LC-001-100-D00-0
 62
     7
370
    50
100
AcDbLine
 10
23.476532
 20
366.318256
 30
0.0
 11
23.546094
 21
366.318256
 31
0.0
  0
LINE
  5
406
330
1F
100
AcDbEntity
  8
LC-001-100-D00-0
 62
     7
370
    50
100
AcDbLine
 10
23.859123
 20
366.318256
 30
0.0
 11
23.928685
 21
366.318256
 31
0.0
  0
LINE
  5
407
330
1F
100
AcDbEntity
  8
LC-001-100-D00-0
 62
     7
370
    50
100
AcDbLine
 10
15.521562
 20
366.318256
 30
0.0
 11
15.163807
 21
366.318256
 31
0.0
  0
LINE
  5
408
330
1F
100
AcDbEntity
  8
LC-001-100-D00-0
 62
     7
370
    50
100
AcDbLine
 10
22.433093
 20
366.318256
 30
0.0
 11
22.746121
 21
366.318256
 31
0.0
  0
LINE
  5
409
330
1F
100
AcDbEntity
  8
LC-001-100-D00-0
 62
     7
370
    50
100
AcDbLine
 10
23.546094
 20
366.318256
 30
0.0
 11
23.859123
 21
366.318256
 31
0.0
  0
LINE
  5
40A
330
1F
100
AcDbEntity
  8
LC-001-100-D00-0
 62
     7
370
    50
100
AcDbLine
 10
88.225542
 20
291.276679
 30
0.0
 11
89.667711
 21
291.276679
 31
0.0
  0
LINE
  5
40B
330
1F
100
AcDbEntity
  8
LC-001-100-D00-0
 62
     7
370
    50
100
AcDbLine
 10
78.778646
 20
327.776686
 30
0.0
 11
88.225542
 21
291.276679
 31
0.0
  0
LINE
  5
40C
330
1F
100
AcDbEntity
  8
LC-001-100-D00-0
 62
     7
370
    50
100
AcDbLine
 10
69.799805
 20
362.468258
 30
0.0
 11
76.597013
 21
336.20587
 31
0.0
  0
LINE
  5
40D
330
1F
100
AcDbEntity
  8
LC-001-100-D00-0
 62
     7
370
    50
100
AcDbLine
 10
-3.081435
 20
327.776686
 30
0.0
 11
-12.528325
 21
291.276679
 31
0.0
  0
LINE
  5
40E
330
1F
100
AcDbEntity
  8
LC-001-100-D00-0
 62
     7
370
    50
100
AcDbLine
 10
-12.528325
 20
291.276679
 30
0.0
 11
-13.970496
 21
291.276679
 31
0.0
  0
LINE
  5
40F
330
1F
100
AcDbEntity
  8
LC-001-100-D00-0
 62
     7
370
    50
100
AcDbLine
 10
5.897408
 20
362.468258
 30
0.0
 11
-0.899801
 21
336.20587
 31
0.0
  0
LINE
  5
410
330
1F
100
AcDbEntity
  8
LC-001-100-D00-0
 62
     7
370
    50
100
AcDbLine
 10
69.152757
 20
362.468258
 30
0.0
 11
75.949966
 21
336.20587
 31
0.0
  0
LINE
  5
411
330
1F
100
AcDbEntity
  8
LC-001-100-D00-0
 62
     7
370
    50
100
AcDbLine
 10
6.544454
 20
362.468258
 30
0.0
 11
-0.252755
 21
336.20587
 31
0.0
  0
LINE
  5
412
330
1F
100
AcDbEntity
  8
LC-001-100-D00-0
 62
     7
370
    50
100
AcDbLine
 10
88.225542
 20
291.276679
 30
0.0
 11
87.578494
 21
291.276679
 31
0.0
  0
LINE
  5
413
330
1F
100
AcDbEntity
  8
LC-001-100-D00-0
 62
     7
370
    50
100
AcDbLine
 10
78.131598
 20
327.776686
 30
0.0
 11
87.578494
 21
291.276679
 31
0.0
  0
LINE
  5
414
330
1F
100
AcDbEntity
  8
LC-001-100-D00-0
 62
     7
370
    50
100
AcDbLine
 10
-11.881279
 20
291.276679
 30
0.0
 11
-12.528325
 21
291.276679
 31
0.0
  0
LINE
  5
415
330
1F
100
AcDbEntity
  8
LC-001-100-D00-0
 62
     7
370
    50
100
AcDbLine
 10
-2.434382
 20
327.776686
 30
0.0
 11
-11.881279
 21
291.276679
 31
0.0
  0
LINE
  5
416
330
1F
100
AcDbEntity
  8
LC-001-100-D00-0
 62
     7
370
    50
100
AcDbLine
 10
83.350267
 20
291.276679
 30
0.0
 11
85.659575
 21
291.276679
 31
0.0
  0
LINE
  5
417
330
1F
100
AcDbEntity
  8
LC-001-100-D00-0
 62
     7
370
    50
100
AcDbLine
 10
74.880413
 20
327.776686
 30
0.0
 11
83.350267
 21
291.276679
 31
0.0
  0
LINE
  5
418
330
1F
100
AcDbEntity
  8
LC-001-100-D00-0
 62
     7
370
    50
100
AcDbLine
 10
66.830205
 20
362.468258
 30
0.0
 11
72.924415
 21
336.20587
 31
0.0
  0
LINE
  5
419
330
1F
100
AcDbEntity
  8
LC-001-100-D00-0
 62
     7
370
    50
100
AcDbLine
 10
0.816798
 20
327.776686
 30
0.0
 11
-7.653052
 21
291.276679
 31
0.0
  0
LINE
  5
41A
330
1F
100
AcDbEntity
  8
LC-001-100-D00-0
 62
     7
370
    50
100
AcDbLine
 10
-7.653052
 20
291.276679
 30
0.0
 11
-9.96236
 21
291.276679
 31
0.0
  0
LINE
  5
41B
330
1F
100
AcDbEntity
  8
LC-001-100-D00-0
 62
     7
370
    50
100
AcDbLine
 10
8.867009
 20
362.468258
 30
0.0
 11
2.772799
 21
336.20587
 31
0.0
  0
LINE
  5
41C
330
1F
100
AcDbEntity
  8
LC-001-100-D00-0
 62
     7
370
    50
100
AcDbLine
 10
65.580204
 20
362.468258
 30
0.0
 11
71.674414
 21
336.20587
 31
0.0
  0
LINE
  5
41D
330
1F
100
AcDbEntity
  8
LC-001-100-D00-0
 62
     7
370
    50
100
AcDbLine
 10
10.117007
 20
362.468258
 30
0.0
 11
4.022797
 21
336.20587
 31
0.0
  0
LINE
  5
41E
330
1F
100
AcDbEntity
  8
LC-001-100-D00-0
 62
     7
370
    50
100
AcDbLine
 10
83.350267
 20
291.276679
 30
0.0
 11
82.100267
 21
291.276679
 31
0.0
  0
LINE
  5
41F
330
1F
100
AcDbEntity
  8
LC-001-100-D00-0
 62
     7
370
    50
100
AcDbLine
 10
73.630413
 20
327.776686
 30
0.0
 11
82.100267
 21
291.276679
 31
0.0
  0
LINE
  5
420
330
1F
100
AcDbEntity
  8
LC-001-100-D00-0
 62
     7
370
    50
100
AcDbLine
 10
-6.403053
 20
291.276679
 30
0.0
 11
-7.653052
 21
291.276679
 31
0.0
  0
LINE
  5
421
330
1F
100
AcDbEntity
  8
LC-001-100-D00-0
 62
     7
370
    50
100
AcDbLine
 10
2.066804
 20
327.776686
 30
0.0
 11
-6.403053
 21
291.276679
 31
0.0
  0
LINE
  5
422
330
1F
100
AcDbEntity
  8
LC-001-100-D00-0
 62
     7
370
    50
100
AcDbLine
 10
75.37413
 20
291.276679
 30
0.0
 11
77.259673
 21
291.276679
 31
0.0
  0
LINE
  5
423
330
1F
100
AcDbEntity
  8
LC-001-100-D00-0
 62
     7
370
    50
100
AcDbLine
 10
68.458524
 20
327.776686
 30
0.0
 11
75.37413
 21
291.276679
 31
0.0
  0
LINE
  5
424
330
1F
100
AcDbEntity
  8
LC-001-100-D00-0
 62
     7
370
    50
100
AcDbLine
 10
61.885554
 20
362.468258
 30
0.0
 11
66.861456
 21
336.20587
 31
0.0
  0
LINE
  5
425
330
1F
100
AcDbEntity
  8
LC-001-100-D00-0
 62
     7
370
    50
100
AcDbLine
 10
7.238692
 20
327.776686
 30
0.0
 11
0.323085
 21
291.276679
 31
0.0
  0
LINE
  5
426
330
1F
100
AcDbEntity
  8
LC-001-100-D00-0
 62
     7
370
    50
100
AcDbLine
 10
0.323085
 20
291.276679
 30
0.0
 11
-1.562456
 21
291.276679
 31
0.0
  0
LINE
  5
427
330
1F
100
AcDbEntity
  8
LC-001-100-D00-0
 62
     7
370
    50
100
AcDbLine
 10
13.811661
 20
362.468258
 30
0.0
 11
8.835753
 21
336.20587
 31
0.0
  0
LINE
  5
428
330
1F
100
AcDbEntity
  8
LC-001-100-D00-0
 62
     7
370
    50
100
AcDbLine
 10
60.117789
 20
362.468258
 30
0.0
 11
65.09369
 21
336.20587
 31
0.0
  0
LINE
  5
429
330
1F
100
AcDbEntity
  8
LC-001-100-D00-0
 62
     7
370
    50
100
AcDbLine
 10
15.579423
 20
362.468258
 30
0.0
 11
10.603523
 21
336.20587
 31
0.0
  0
INSERT
  5
42F
330
1F
100
AcDbEntity
  8
LC-001-100-D00-0
 62
     7
370
    50
100
AcDbBlockReference
  2
KLON21
 10
0.0
 20
0.0
 30
0.0
  0
LINE
  5
430
330
1F
100
AcDbEntity
  8
LC-001-100-D00-0
 62
     7
370
    50
100
AcDbLine
 10
70.275891
 20
291.276679
 30
0.0
 11
65.385818
 21
327.776686
 31
0.0
  0
LINE
  5
431
330
1F
100
AcDbEntity
  8
LC-001-100-D00-0
 62
     7
370
    50
100
AcDbLine
 10
64.160818
 20
336.920202
 30
0.0
 11
62.235419
 21
351.291582
 31
0.0
  0
LINE
  5
432
330
1F
100
AcDbEntity
  8
LC-001-100-D00-0
 62
     7
370
    50
100
AcDbLine
 10
64.840691
 20
291.276679
 30
0.0
 11
66.173971
 21
291.276679
 31
0.0
  0
LINE
  5
433
330
1F
100
AcDbEntity
  8
LC-001-100-D00-0
 62
     7
370
    50
100
AcDbLine
 10
59.950618
 20
327.776686
 30
0.0
 11
64.840691
 21
291.276679
 31
0.0
  0
LINE
  5
434
330
1F
100
AcDbEntity
  8
LC-001-100-D00-0
 62
     7
370
    50
100
AcDbLine
 10
55.302828
 20
362.468258
 30
0.0
 11
58.821322
 21
336.20587
 31
0.0
  0
LINE
  5
435
330
1F
100
AcDbEntity
  8
LC-001-100-D00-0
 62
     7
370
    50
100
AcDbLine
 10
15.746599
 20
327.776686
 30
0.0
 11
10.856522
 21
291.276679
 31
0.0
  0
LINE
  5
436
330
1F
100
AcDbEntity
  8
LC-001-100-D00-0
 62
     7
370
    50
100
AcDbLine
 10
10.856522
 20
291.276679
 30
0.0
 11
9.523241
 21
291.276679
 31
0.0
  0
LINE
  5
437
330
1F
100
AcDbEntity
  8
LC-001-100-D00-0
 62
     7
370
    50
100
AcDbLine
 10
5.421324
 20
291.276679
 30
0.0
 11
10.311393
 21
327.776686
 31
0.0
  0
LINE
  5
438
330
1F
100
AcDbEntity
  8
LC-001-100-D00-0
 62
     7
370
    50
100
AcDbLine
 10
11.536395
 20
336.920202
 30
0.0
 11
13.461796
 21
351.291582
 31
0.0
  0
INSERT
  5
43E
330
1F
100
AcDbEntity
  8
LC-001-100-D00-0
 62
     7
370
    50
100
AcDbBlockReference
  2
KLON22
 10
0.0
 20
0.0
 30
0.0
  0
LINE
  5
43F
330
1F
100
AcDbEntity
  8
LC-001-100-D00-0
 62
     7
370
    50
100
AcDbLine
 10
20.394383
 20
362.468258
 30
0.0
 11
16.875891
 21
336.20587
 31
0.0
  0
LINE
  5
440
330
1F
100
AcDbEntity
  8
LC-001-100-D00-0
 62
     7
370
    50
100
AcDbLine
 10
53.137762
 20
362.468258
 30
0.0
 11
56.656258
 21
336.20587
 31
0.0
  0
LINE
  5
441
330
1F
100
AcDbEntity
  8
LC-001-100-D00-0
 62
     7
370
    50
100
AcDbLine
 10
22.559447
 20
362.468258
 30
0.0
 11
19.040955
 21
336.20587
 31
0.0
  0
LINE
  5
442
330
1F
100
AcDbEntity
  8
LC-001-100-D00-0
 62
     7
370
    50
100
AcDbLine
 10
66.690756
 20
327.776686
 30
0.0
 11
73.606363
 21
291.276679
 31
0.0
  0
LINE
  5
443
330
1F
100
AcDbEntity
  8
LC-001-100-D00-0
 62
     7
370
    50
100
AcDbLine
 10
2.090847
 20
291.276679
 30
0.0
 11
0.323085
 21
291.276679
 31
0.0
  0
LINE
  5
444
330
1F
100
AcDbEntity
  8
LC-001-100-D00-0
 62
     7
370
    50
100
AcDbLine
 10
9.006461
 20
327.776686
 30
0.0
 11
2.090847
 21
291.276679
 31
0.0
  0
ARC
  5
445
330
1F
100
AcDbEntity
  8
LC-001-100-D00-0
 62
     7
370
    50
100
AcDbCircle
 10
19.131327
 20
354.832789
 30
0.0
 40
31.66931056448021
100
AcDbArc
 50
3.167915
 51
13.951469
  0
LINE
  5
446
330
1F
100
AcDbEntity
  8
LC-001-100-D00-0
 62
     7
370
    50
100
AcDbLine
 10
55.281252
 20
291.276679
 30
0.0
 11
52.749963
 21
327.776686
 31
0.0
  0
LINE
  5
447
330
1F
100
AcDbEntity
  8
LC-001-100-D00-0
 62
     7
370
    50
100
AcDbLine
 10
52.115856
 20
336.920202
 30
0.0
 11
50.752243
 21
356.58291
 31
0.0
  0
LINE
  5
448
330
1F
100
AcDbEntity
  8
LC-001-100-D00-0
 62
     7
370
    50
100
AcDbLine
 10
52.467784
 20
291.276679
 30
0.0
 11
53.157942
 21
291.276679
 31
0.0
  0
LINE
  5
449
330
1F
100
AcDbEntity
  8
LC-001-100-D00-0
 62
     7
370
    50
100
AcDbLine
 10
49.936498
 20
327.776686
 30
0.0
 11
52.467784
 21
291.276679
 31
0.0
  0
LINE
  5
44A
330
1F
100
AcDbEntity
  8
LC-001-100-D00-0
 62
     7
370
    50
100
AcDbLine
 10
47.530623
 20
362.468258
 30
0.0
 11
49.351929
 21
336.20587
 31
0.0
  0
LINE
  5
44B
330
1F
100
AcDbEntity
  8
LC-001-100-D00-0
 62
     7
370
    50
100
AcDbLine
 10
25.760716
 20
327.776686
 30
0.0
 11
23.229426
 21
291.276679
 31
0.0
  0
LINE
  5
44C
330
1F
100
AcDbEntity
  8
LC-001-100-D00-0
 62
     7
370
    50
100
AcDbLine
 10
23.229426
 20
291.276679
 30
0.0
 11
22.539271
 21
291.276679
 31
0.0
  0
LINE
  5
44D
330
1F
100
AcDbEntity
  8
LC-001-100-D00-0
 62
     7
370
    50
100
AcDbLine
 10
20.41596
 20
291.276679
 30
0.0
 11
22.94725
 21
327.776686
 31
0.0
  0
LINE
  5
44E
330
1F
100
AcDbEntity
  8
LC-001-100-D00-0
 62
     7
370
    50
100
AcDbLine
 10
23.581358
 20
336.920202
 30
0.0
 11
24.94497
 21
356.58291
 31
0.0
  0
ARC
  5
44F
330
1F
100
AcDbEntity
  8
LC-001-100-D00-0
 62
     7
370
    50
100
AcDbCircle
 10
56.565886
 20
354.832789
 30
0.0
 40
31.66931056448017
100
AcDbArc
 50
166.048531
 51
176.832085
  0
LINE
  5
450
330
1F
100
AcDbEntity
  8
LC-001-100-D00-0
 62
     7
370
    50
100
AcDbLine
 10
28.16659
 20
362.468258
 30
0.0
 11
26.345285
 21
336.20587
 31
0.0
  0
LINE
  5
451
330
1F
100
AcDbEntity
  8
LC-001-100-D00-0
 62
     7
370
    50
100
AcDbLine
 10
45.115808
 20
362.468258
 30
0.0
 11
46.937117
 21
336.20587
 31
0.0
  0
LINE
  5
452
330
1F
100
AcDbEntity
  8
LC-001-100-D00-0
 62
     7
370
    50
100
AcDbLine
 10
30.581405
 20
362.468258
 30
0.0
 11
28.7601
 21
336.20587
 31
0.0
  0
LINE
  5
453
330
1F
100
AcDbEntity
  8
LC-001-100-D00-0
 62
     7
370
    50
100
AcDbLine
 10
36.598606
 20
362.468258
 30
0.0
 11
36.598606
 21
336.20587
 31
0.0
  0
LINE
  5
454
330
1F
100
AcDbEntity
  8
LC-001-100-D00-0
 62
     7
370
    50
100
AcDbLine
 10
39.098607
 20
362.468258
 30
0.0
 11
39.098607
 21
336.20587
 31
0.0
  0
LINE
  5
455
330
1F
100
AcDbEntity
  8
LC-001-100-D00-0
 62
     7
370
    50
100
AcDbLine
 10
64.840691
 20
291.276679
 30
0.0
 11
62.675627
 21
291.276679
 31
0.0
  0
LINE
  5
456
330
1F
100
AcDbEntity
  8
LC-001-100-D00-0
 62
     7
370
    50
100
AcDbLine
 10
57.785554
 20
327.776686
 30
0.0
 11
62.675627
 21
291.276679
 31
0.0
  0
LINE
  5
457
330
1F
100
AcDbEntity
  8
LC-001-100-D00-0
 62
     7
370
    50
100
AcDbLine
 10
13.021586
 20
291.276679
 30
0.0
 11
10.856522
 21
291.276679
 31
0.0
  0
LINE
  5
458
330
1F
100
AcDbEntity
  8
LC-001-100-D00-0
 62
     7
370
    50
100
AcDbLine
 10
17.911656
 20
327.776686
 30
0.0
 11
13.021586
 21
291.276679
 31
0.0
  0
LINE
  5
459
330
1F
100
AcDbEntity
  8
LC-001-100-D00-0
 62
     7
370
    50
100
AcDbLine
 10
52.467784
 20
291.276679
 30
0.0
 11
50.052972
 21
291.276679
 31
0.0
  0
LINE
  5
45A
330
1F
100
AcDbEntity
  8
LC-001-100-D00-0
 62
     7
370
    50
100
AcDbLine
 10
47.521682
 20
327.776686
 30
0.0
 11
50.052972
 21
291.276679
 31
0.0
  0
LINE
  5
45B
330
1F
100
AcDbEntity
  8
LC-001-100-D00-0
 62
     7
370
    50
100
AcDbLine
 10
25.644245
 20
291.276679
 30
0.0
 11
23.229426
 21
291.276679
 31
0.0
  0
LINE
  5
45C
330
1F
100
AcDbEntity
  8
LC-001-100-D00-0
 62
     7
370
    50
100
AcDbLine
 10
28.175531
 20
327.776686
 30
0.0
 11
25.644245
 21
291.276679
 31
0.0
  0
LINE
  5
45D
330
1F
100
AcDbEntity
  8
LC-001-100-D00-0
 62
     7
370
    50
100
AcDbLine
 10
39.098607
 20
291.276679
 30
0.0
 11
36.598606
 21
291.276679
 31
0.0
  0
LINE
  5
45E
330
1F
100
AcDbEntity
  8
LC-001-100-D00-0
 62
     7
370
    50
100
AcDbLine
 10
36.598606
 20
327.776686
 30
0.0
 11
36.598606
 21
291.276679
 31
0.0
  0
LINE
  5
45F
330
1F
100
AcDbEntity
  8
LC-001-100-D00-0
 62
     7
370
    50
100
AcDbLine
 10
39.098607
 20
327.776686
 30
0.0
 11
39.098607
 21
291.276679
 31
0.0
  0
INSERT
  5
46D
330
1F
100
AcDbEntity
  8
LC-001-100-D00-0
 62
     7
370
    50
100
AcDbBlockReference
  2
POLY18
 10
0.0
 20
0.0
 30
0.0
  0
INSERT
  5
47B
330
1F
100
AcDbEntity
  8
LC-001-100-D00-0
 62
     7
370
    50
100
AcDbBlockReference
  2
POLY19
 10
0.0
 20
0.0
 30
0.0
  0
LINE
  5
47C
330
1F
100
AcDbEntity
  8
LC-001-100-D00-0
 62
     7
370
    50
100
AcDbLine
 10
-34.124749
 20
279.950023
 30
0.0
 11
-34.149924
 21
279.870883
 31
0.0
  0
INSERT
  5
48A
330
1F
100
AcDbEntity
  8
LC-001-100-D00-0
 62
     7
370
    50
100
AcDbBlockReference
  2
POLY20
 10
0.0
 20
0.0
 30
0.0
  0
LINE
  5
48B
330
1F
100
AcDbEntity
  8
LC-001-100-D00-0
 62
     7
370
    50
100
AcDbLine
 10
-30.176567
 20
285.59646
 30
0.0
 11
-30.151004
 21
285.669148
 31
0.0
  0
INSERT
  5
499
330
1F
100
AcDbEntity
  8
LC-001-100-D00-0
 62
     7
370
    50
100
AcDbBlockReference
  2
POLY21
 10
0.0
 20
0.0
 30
0.0
  0
INSERT
  5
4A5
330
1F
100
AcDbEntity
  8
LC-001-100-D00-0
 62
     7
370
    50
100
AcDbBlockReference
  2
POLY22
 10
0.0
 20
0.0
 30
0.0
  0
INSERT
  5
4B1
330
1F
100
AcDbEntity
  8
LC-001-100-D00-0
 62
     7
370
    50
100
AcDbBlockReference
  2
POLY23
 10
0.0
 20
0.0
 30
0.0
  0
INSERT
  5
4BF
330
1F
100
AcDbEntity
  8
LC-001-100-D00-0
 62
     7
370
    50
100
AcDbBlockReference
  2
POLY24
 10
0.0
 20
0.0
 30
0.0
  0
LINE
  5
4C0
330
1F
100
AcDbEntity
  8
LC-001-100-D00-0
 62
     7
370
    50
100
AcDbLine
 10
-30.176567
 20
276.596457
 30
0.0
 11
-30.151004
 21
276.66916
 31
0.0
  0
INSERT
  5
4CE
330
1F
100
AcDbEntity
  8
LC-001-100-D00-0
 62
     7
370
    50
100
AcDbBlockReference
  2
POLY25
 10
0.0
 20
0.0
 30
0.0
  0
INSERT
  5
4DC
330
1F
100
AcDbEntity
  8
LC-001-100-D00-0
 62
     7
370
    50
100
AcDbBlockReference
  2
POLY26
 10
0.0
 20
0.0
 30
0.0
  0
INSERT
  5
4EA
330
1F
100
AcDbEntity
  8
LC-001-100-D00-0
 62
     7
370
    50
100
AcDbBlockReference
  2
POLY27
 10
0.0
 20
0.0
 30
0.0
  0
LINE
  5
4EB
330
1F
100
AcDbEntity
  8
LC-001-100-D00-0
 62
     7
370
    50
100
AcDbLine
 10
-34.124749
 20
285.95002
 30
0.0
 11
-34.149924
 21
285.870895
 31
0.0
  0
INSERT
  5
4F9
330
1F
100
AcDbEntity
  8
LC-001-100-D00-0
 62
     7
370
    50
100
AcDbBlockReference
  2
POLY28
 10
0.0
 20
0.0
 30
0.0
  0
INSERT
  5
507
330
1F
100
AcDbEntity
  8
LC-001-100-D00-0
 62
     7
370
    50
100
AcDbBlockReference
  2
POLY29
 10
0.0
 20
0.0
 30
0.0
  0
LINE
  5
508
330
1F
100
AcDbEntity
  8
LC-001-100-D00-0
 62
     7
370
    50
100
AcDbLine
 10
-34.124749
 20
282.950014
 30
0.0
 11
-34.149924
 21
282.870889
 31
0.0
  0
INSERT
  5
516
330
1F
100
AcDbEntity
  8
LC-001-100-D00-0
 62
     7
370
    50
100
AcDbBlockReference
  2
POLY30
 10
0.0
 20
0.0
 30
0.0
  0
LINE
  5
517
330
1F
100
AcDbEntity
  8
LC-001-100-D00-0
 62
     7
370
    50
100
AcDbLine
 10
-30.176567
 20
282.596469
 30
0.0
 11
-30.151004
 21
282.669157
 31
0.0
  0
INSERT
  5
525
330
1F
100
AcDbEntity
  8
LC-001-100-D00-0
 62
     7
370
    50
100
AcDbBlockReference
  2
POLY31
 10
0.0
 20
0.0
 30
0.0
  0
INSERT
  5
533
330
1F
100
AcDbEntity
  8
LC-001-100-D00-0
 62
     7
370
    50
100
AcDbBlockReference
  2
POLY32
 10
0.0
 20
0.0
 30
0.0
  0
INSERT
  5
541
330
1F
100
AcDbEntity
  8
LC-001-100-D00-0
 62
     7
370
    50
100
AcDbBlockReference
  2
POLY33
 10
0.0
 20
0.0
 30
0.0
  0
LINE
  5
542
330
1F
100
AcDbEntity
  8
LC-001-100-D00-0
 62
     7
370
    50
100
AcDbLine
 10
-34.124749
 20
276.950017
 30
0.0
 11
-34.149924
 21
276.870892
 31
0.0
  0
INSERT
  5
550
330
1F
100
AcDbEntity
  8
LC-001-100-D00-0
 62
     7
370
    50
100
AcDbBlockReference
  2
POLY34
 10
0.0
 20
0.0
 30
0.0
  0
INSERT
  5
55C
330
1F
100
AcDbEntity
  8
LC-001-100-D00-0
 62
     7
370
    50
100
AcDbBlockReference
  2
POLY35
 10
0.0
 20
0.0
 30
0.0
  0
INSERT
  5
568
330
1F
100
AcDbEntity
  8
LC-001-100-D00-0
 62
     7
370
    50
100
AcDbBlockReference
  2
POLY36
 10
0.0
 20
0.0
 30
0.0
  0
INSERT
  5
576
330
1F
100
AcDbEntity
  8
LC-001-100-D00-0
 62
     7
370
    50
100
AcDbBlockReference
  2
POLY37
 10
0.0
 20
0.0
 30
0.0
  0
LINE
  5
577
330
1F
100
AcDbEntity
  8
LC-001-100-D00-0
 62
     7
370
    50
100
AcDbLine
 10
-34.124749
 20
288.950026
 30
0.0
 11
-34.149924
 21
288.870886
 31
0.0
  0
INSERT
  5
585
330
1F
100
AcDbEntity
  8
LC-001-100-D00-0
 62
     7
370
    50
100
AcDbBlockReference
  2
POLY38
 10
0.0
 20
0.0
 30
0.0
  0
LINE
  5
586
330
1F
100
AcDbEntity
  8
LC-001-100-D00-0
 62
     7
370
    50
100
AcDbLine
 10
-30.176567
 20
279.596463
 30
0.0
 11
-30.151004
 21
279.669151
 31
0.0
  0
INSERT
  5
594
330
1F
100
AcDbEntity
  8
LC-001-100-D00-0
 62
     7
370
    50
100
AcDbBlockReference
  2
POLY39
 10
0.0
 20
0.0
 30
0.0
  0
INSERT
  5
5A2
330
1F
100
AcDbEntity
  8
LC-001-100-D00-0
 62
     7
370
    50
100
AcDbBlockReference
  2
POLY40
 10
0.0
 20
0.0
 30
0.0
  0
LINE
  5
5A3
330
1F
100
AcDbEntity
  8
LC-001-100-D00-0
 62
     7
370
    50
100
AcDbLine
 10
-30.176567
 20
288.596467
 30
0.0
 11
-30.151004
 21
288.669154
 31
0.0
  0
INSERT
  5
5B1
330
1F
100
AcDbEntity
  8
LC-001-100-D00-0
 62
     7
370
    50
100
AcDbBlockReference
  2
POLY41
 10
0.0
 20
0.0
 30
0.0
  0
LINE
  5
5B2
330
1F
100
AcDbEntity
  8
LC-001-100-D00-0
 62
     7
370
    50
100
AcDbLine
 10
-30.176567
 20
279.596463
 30
0.0
 11
-30.176567
 21
281.295047
 31
0.0
  0
LINE
  5
5B3
330
1F
100
AcDbEntity
  8
LC-001-100-D00-0
 62
     7
370
    50
100
AcDbLine
 10
-34.124749
 20
282.950014
 30
0.0
 11
-34.124749
 21
281.251431
 31
0.0
  0
LINE
  5
5B4
330
1F
100
AcDbEntity
  8
LC-001-100-D00-0
 62
     7
370
    50
100
AcDbLine
 10
-30.176567
 20
285.59646
 30
0.0
 11
-30.176567
 21
287.295044
 31
0.0
  0
LINE
  5
5B5
330
1F
100
AcDbEntity
  8
LC-001-100-D00-0
 62
     7
370
    50
100
AcDbLine
 10
-34.124749
 20
288.950026
 30
0.0
 11
-34.124749
 21
287.251443
 31
0.0
  0
LINE
  5
5B6
330
1F
100
AcDbEntity
  8
LC-001-100-D00-0
 62
     7
370
    50
100
AcDbLine
 10
-30.176567
 20
276.596457
 30
0.0
 11
-30.176567
 21
278.29504
 31
0.0
  0
LINE
  5
5B7
330
1F
100
AcDbEntity
  8
LC-001-100-D00-0
 62
     7
370
    50
100
AcDbLine
 10
-34.124749
 20
279.950023
 30
0.0
 11
-34.124749
 21
278.25144
 31
0.0
  0
LINE
  5
5B8
330
1F
100
AcDbEntity
  8
LC-001-100-D00-0
 62
     7
370
    50
100
AcDbLine
 10
-30.176567
 20
282.596469
 30
0.0
 11
-30.176567
 21
284.295038
 31
0.0
  0
LINE
  5
5B9
330
1F
100
AcDbEntity
  8
LC-001-100-D00-0
 62
     7
370
    50
100
AcDbLine
 10
-34.124749
 20
285.95002
 30
0.0
 11
-34.124749
 21
284.251437
 31
0.0
  0
LINE
  5
5BA
330
1F
100
AcDbEntity
  8
LC-001-100-D00-0
 62
     7
370
    50
100
AcDbLine
 10
-30.176567
 20
274.577096
 30
0.0
 11
-30.150661
 21
274.577096
 31
0.0
  0
LINE
  5
5BB
330
1F
100
AcDbEntity
  8
LC-001-100-D00-0
 62
     7
370
    50
100
AcDbLine
 10
-34.150655
 20
274.577096
 30
0.0
 11
-34.124749
 21
274.577096
 31
0.0
  0
LINE
  5
5BC
330
1F
100
AcDbEntity
  8
LC-001-100-D00-0
 62
     7
370
    50
100
AcDbLine
 10
-30.176567
 20
274.577096
 30
0.0
 11
-30.176567
 21
275.295049
 31
0.0
  0
LINE
  5
5BD
330
1F
100
AcDbEntity
  8
LC-001-100-D00-0
 62
     7
370
    50
100
AcDbLine
 10
-34.124749
 20
276.950017
 30
0.0
 11
-34.124749
 21
274.577096
 31
0.0
  0
LINE
  5
5BE
330
1F
100
AcDbEntity
  8
LC-001-100-D00-0
 62
     7
370
    50
100
AcDbLine
 10
-30.377226
 20
292.176679
 30
0.0
 11
-30.377226
 21
292.676688
 31
0.0
  0
LINE
  5
5BF
330
1F
100
AcDbEntity
  8
LC-001-100-D00-0
 62
     7
370
    50
100
AcDbLine
 10
-28.400654
 20
292.676688
 30
0.0
 11
-30.377226
 21
292.676688
 31
0.0
  0
LINE
  5
5C0
330
1F
100
AcDbEntity
  8
LC-001-100-D00-0
 62
     7
370
    50
100
AcDbLine
 10
-28.400654
 20
292.676688
 30
0.0
 11
-28.400654
 21
293.739409
 31
0.0
  0
ARC
  5
5C1
330
1F
100
AcDbEntity
  8
LC-001-100-D00-0
 62
     7
370
    50
100
AcDbCircle
 10
-32.150658
 20
288.051683
 30
0.0
 40
6.81268368560887
100
AcDbArc
 50
48.787683
 51
56.60253
  0
LINE
  5
5C2
330
1F
100
AcDbEntity
  8
LC-001-100-D00-0
 62
     7
370
    50
100
AcDbLine
 10
-27.110862
 20
293.176681
 30
0.0
 11
-27.662115
 21
293.176681
 31
0.0
  0
INSERT
  5
5D4
330
1F
100
AcDbEntity
  8
LC-001-100-D00-0
 62
     7
370
    50
100
AcDbBlockReference
  2
POLY42
 10
0.0
 20
0.0
 30
0.0
  0
LINE
  5
5D5
330
1F
100
AcDbEntity
  8
LC-001-100-D00-0
 62
     7
370
    50
100
AcDbLine
 10
-26.910471
 20
290.17669
 30
0.0
 11
-26.910471
 21
292.976678
 31
0.0
  0
LINE
  5
5D6
330
1F
100
AcDbEntity
  8
LC-001-100-D00-0
 62
     7
370
    50
100
AcDbLine
 10
-30.176567
 20
290.17669
 30
0.0
 11
-26.910471
 21
290.17669
 31
0.0
  0
LINE
  5
5D7
330
1F
100
AcDbEntity
  8
LC-001-100-D00-0
 62
     7
370
    50
100
AcDbLine
 10
-30.176567
 20
288.596467
 30
0.0
 11
-30.176567
 21
290.17669
 31
0.0
  0
INSERT
  5
5EF
330
1F
100
AcDbEntity
  8
LC-001-100-D00-0
 62
     7
370
    50
100
AcDbBlockReference
  2
POLY43
 10
0.0
 20
0.0
 30
0.0
  0
LINE
  5
5F0
330
1F
100
AcDbEntity
  8
LC-001-100-D00-0
 62
     7
370
    50
100
AcDbLine
 10
-37.390845
 20
290.17669
 30
0.0
 11
-34.26026
 21
290.17669
 31
0.0
  0
LINE
  5
5F1
330
1F
100
AcDbEntity
  8
LC-001-100-D00-0
 62
     7
370
    50
100
AcDbLine
 10
-37.390845
 20
292.976678
 30
0.0
 11
-37.390845
 21
290.17669
 31
0.0
  0
INSERT
  5
605
330
1F
100
AcDbEntity
  8
LC-001-100-D00-0
 62
     7
370
    50
100
AcDbBlockReference
  2
POLY44
 10
0.0
 20
0.0
 30
0.0
  0
LINE
  5
606
330
1F
100
AcDbEntity
  8
LC-001-100-D00-0
 62
     7
370
    50
100
AcDbLine
 10
-36.639201
 20
293.176681
 30
0.0
 11
-37.190454
 21
293.176681
 31
0.0
  0
ARC
  5
607
330
1F
100
AcDbEntity
  8
LC-001-100-D00-0
 62
     7
370
    50
100
AcDbCircle
 10
-32.150658
 20
288.051683
 30
0.0
 40
6.812683685608934
100
AcDbArc
 50
123.39747
 51
131.212317
  0
LINE
  5
608
330
1F
100
AcDbEntity
  8
LC-001-100-D00-0
 62
     7
370
    50
100
AcDbLine
 10
-35.900654
 20
293.739409
 30
0.0
 11
-35.900654
 21
292.676688
 31
0.0
  0
LINE
  5
609
330
1F
100
AcDbEntity
  8
LC-001-100-D00-0
 62
     7
370
    50
100
AcDbLine
 10
-33.92409
 20
292.676688
 30
0.0
 11
-35.900654
 21
292.676688
 31
0.0
  0
LINE
  5
60A
330
1F
100
AcDbEntity
  8
LC-001-100-D00-0
 62
     7
370
    50
100
AcDbLine
 10
-33.92409
 20
292.176679
 30
0.0
 11
-33.92409
 21
292.676688
 31
0.0
  0
LINE
  5
60B
330
1F
100
AcDbEntity
  8
LC-001-100-D00-0
 62
     7
370
    50
100
AcDbLine
 10
-30.377226
 20
292.176679
 30
0.0
 11
-33.92409
 21
292.176679
 31
0.0
  0
LINE
  5
60C
330
1F
100
AcDbEntity
  8
LC-001-100-D00-0
 62
     7
370
    50
100
AcDbLine
 10
-28.400654
 20
293.739409
 30
0.0
 11
-28.400654
 21
293.748454
 31
0.0
  0
ARC
  5
60D
330
1F
100
AcDbEntity
  8
LC-001-100-D00-0
 62
     7
370
    50
100
AcDbCircle
 10
-32.150658
 20
288.051683
 30
0.0
 40
6.801883930206429
100
AcDbArc
 50
56.54253
 51
63.818118
  0
ARC
  5
60E
330
1F
100
AcDbEntity
  8
LC-001-100-D00-0
 62
     7
370
    50
100
AcDbCircle
 10
-32.150658
 20
288.051683
 30
0.0
 40
6.801883930206587
100
AcDbArc
 50
116.181882
 51
123.45747
  0
LINE
  5
60F
330
1F
100
AcDbEntity
  8
LC-001-100-D00-0
 62
     7
370
    50
100
AcDbLine
 10
-35.900654
 20
293.748454
 30
0.0
 11
-35.900654
 21
293.739409
 31
0.0
  0
LINE
  5
610
330
1F
100
AcDbEntity
  8
LC-001-100-D00-0
 62
     7
370
    50
100
AcDbLine
 10
-27.110862
 20
293.176681
 30
0.0
 11
-27.100654
 21
293.176681
 31
0.0
  0
LINE
  5
611
330
1F
100
AcDbEntity
  8
LC-001-100-D00-0
 62
     7
370
    50
100
AcDbLine
 10
-37.200654
 20
293.176681
 30
0.0
 11
-37.190454
 21
293.176681
 31
0.0
  0
LINE
  5
612
330
1F
100
AcDbEntity
  8
LC-001-100-D00-0
 62
     7
370
    50
100
AcDbLine
 10
-29.240007
 20
294.176683
 30
0.0
 11
-30.377226
 21
294.176683
 31
0.0
  0
INSERT
  5
61E
330
1F
100
AcDbEntity
  8
LC-001-100-D00-0
 62
     7
370
    50
100
AcDbBlockReference
  2
POLY45
 10
0.0
 20
0.0
 30
0.0
  0
LINE
  5
61F
330
1F
100
AcDbEntity
  8
LC-001-100-D00-0
 62
     7
370
    50
100
AcDbLine
 10
-30.377226
 20
294.176683
 30
0.0
 11
-30.377226
 21
292.676688
 31
0.0
  0
INSERT
  5
62B
330
1F
100
AcDbEntity
  8
LC-001-100-D00-0
 62
     7
370
    50
100
AcDbBlockReference
  2
POLY46
 10
0.0
 20
0.0
 30
0.0
  0
LINE
  5
62C
330
1F
100
AcDbEntity
  8
LC-001-100-D00-0
 62
     7
370
    50
100
AcDbLine
 10
-33.92409
 20
294.176683
 30
0.0
 11
-35.061309
 21
294.176683
 31
0.0
  0
LINE
  5
62D
330
1F
100
AcDbEntity
  8
LC-001-100-D00-0
 62
     7
370
    50
100
AcDbLine
 10
-33.92409
 20
294.176683
 30
0.0
 11
-33.92409
 21
292.676688
 31
0.0
  0
LINE
  5
62E
330
1F
100
AcDbEntity
  8
LC-001-100-D00-0
 62
     7
370
    50
100
AcDbLine
 10
-32.820204
 20
294.176683
 30
0.0
 11
-31.481111
 21
294.176683
 31
0.0
  0
LINE
  5
62F
330
1F
100
AcDbEntity
  8
LC-001-100-D00-0
 62
     7
370
    50
100
AcDbLine
 10
-31.177992
 20
294.176683
 30
0.0
 11
-31.481111
 21
294.176683
 31
0.0
  0
LINE
  5
630
330
1F
100
AcDbEntity
  8
LC-001-100-D00-0
 62
     7
370
    50
100
AcDbLine
 10
-33.123316
 20
294.176683
 30
0.0
 11
-32.820204
 21
294.176683
 31
0.0
  0
LINE
  5
631
330
1F
100
AcDbEntity
  8
LC-001-100-D00-0
 62
     7
370
    50
100
AcDbLine
 10
-31.177992
 20
294.176683
 30
0.0
 11
-30.377226
 21
294.176683
 31
0.0
  0
LINE
  5
632
330
1F
100
AcDbEntity
  8
LC-001-100-D00-0
 62
     7
370
    50
100
AcDbLine
 10
-33.123316
 20
294.176683
 30
0.0
 11
-33.92409
 21
294.176683
 31
0.0
  0
LINE
  5
633
330
1F
100
AcDbEntity
  8
LC-001-100-D00-0
 62
     7
370
    50
100
AcDbLine
 10
2.450844
 20
293.176681
 30
0.0
 11
5.675873
 21
293.176681
 31
0.0
  0
LINE
  5
634
330
1F
100
AcDbEntity
  8
LC-001-100-D00-0
 62
     7
370
    50
100
AcDbLine
 10
2.640312
 20
294.176683
 30
0.0
 11
5.75926
 21
294.176683
 31
0.0
  0
LINE
  5
635
330
1F
100
AcDbEntity
  8
LC-001-100-D00-0
 62
     7
370
    50
100
AcDbLine
 10
5.75926
 20
294.176683
 30
0.0
 11
5.808724
 21
294.168279
 31
0.0
  0
INSERT
  5
640
330
1F
100
AcDbEntity
  8
LC-001-100-D00-0
 62
     7
370
    25
100
AcDbBlockReference
  2
KLON23
 10
0.0
 20
0.0
 30
0.0
  0
INSERT
  5
660
330
1F
100
AcDbEntity
  8
LC-001-100-D00-0
 62
     7
370
    25
100
AcDbBlockReference
  2
KLON24
 10
0.0
 20
0.0
 30
0.0
  0
LINE
  5
661
330
1F
100
AcDbEntity
  8
LC-001-100-D00-0
 62
     7
370
    25
100
AcDbLine
 10
-41.192566
 20
279.897996
 30
0.0
 11
-38.151393
 21
282.939169
 31
0.0
  0
LINE
  5
662
330
1F
100
AcDbEntity
  8
LC-001-100-D00-0
 62
     7
370
    25
100
AcDbLine
 10
113.848607
 20
282.274815
 30
0.0
 11
115.650475
 21
284.076683
 31
0.0
  0
LINE
  5
663
330
1F
100
AcDbEntity
  8
LC-001-100-D00-0
 62
     7
370
    50
100
AcDbLine
 10
102.789963
 20
289.176683
 30
0.0
 11
103.789963
 21
290.176683
 31
0.0
  0
INSERT
  5
66C
330
1F
100
AcDbEntity
  8
LC-001-100-D00-0
 62
     7
370
    25
100
AcDbBlockReference
  2
KLON25
 10
0.0
 20
0.0
 30
0.0
  0
INSERT
  5
674
330
1F
100
AcDbEntity
  8
LC-001-100-D00-0
 62
     7
370
    25
100
AcDbBlockReference
  2
KLON26
 10
0.0
 20
0.0
 30
0.0
  0
LINE
  5
675
330
1F
100
AcDbEntity
  8
LC-001-100-D00-0
 62
     7
370
    50
100
AcDbLine
 10
-23.933623
 20
288.176683
 30
0.0
 11
-22.933623
 21
289.176683
 31
0.0
  0
INSERT
  5
67F
330
1F
100
AcDbEntity
  8
LC-001-100-D00-0
 62
     7
370
    25
100
AcDbBlockReference
  2
KLON27
 10
0.0
 20
0.0
 30
0.0
  0
INSERT
  5
6A5
330
1F
100
AcDbEntity
  8
LC-001-100-D00-0
 62
     7
370
    25
100
AcDbBlockReference
  2
KLON28
 10
0.0
 20
0.0
 30
0.0
  0
INSERT
  5
6CF
330
1F
100
AcDbEntity
  8
LC-001-100-D00-0
 62
     7
370
    25
100
AcDbBlockReference
  2
KLON29
 10
0.0
 20
0.0
 30
0.0
  0
INSERT
  5
6EE
330
1F
100
AcDbEntity
  8
LC-001-100-D00-0
 62
     7
370
    25
100
AcDbBlockReference
  2
KLON30
 10
0.0
 20
0.0
 30
0.0
  0
INSERT
  5
712
330
1F
100
AcDbEntity
  8
LC-001-100-D00-0
 62
     7
370
    25
100
AcDbBlockReference
  2
KLON31
 10
0.0
 20
0.0
 30
0.0
  0
LINE
  5
714
330
1F
100
AcDbEntity
  8
LC-001-100-D00-0
  6
DASHDOT
 62
     7
370
    25
100
AcDbLine
 10
37.848607
 20
68.17668
 30
0.0
 11
37.848607
 21
366.218254
 31
0.0
  0
DIMENSION
  5
718
330
1F
100
AcDbEntity
  8
LC-002-003-----0
 62
     7
370
    25
100
AcDbDimension
  2
*D78
 10
65.848607
 20
21.740683
 30
0.0
 11
129.397122
 21
52.540683
 31
0.0
 70
   160
  1
%%c<>
 71
     5
 42
56.0
  3
LC-DIM-L-0140-02-02
100
AcDbAlignedDimension
 13
9.848608
 23
72.676681
 33
0.0
 14
65.848607
 24
72.676681
 34
0.0
100
AcDbRotatedDimension
  0
DIMENSION
  5
727
330
1F
100
AcDbEntity
  8
LC-002-003-----0
 62
     7
370
    25
100
AcDbDimension
  2
*D79
 10
74.910552
 20
-24.002618
 30
0.0
 11
82.392225
 21
6.802675
 31
0.0
 70
   160
  1
%%c73,5
 71
     5
 42
73.982914
 53
0.040476
  3
LC-DIM-L-0140-02-02
100
AcDbAlignedDimension
 13
0.85579
 23
77.676683
 33
0.0
 14
74.838685
 24
77.728947
 34
0.0
 50
0.040476
100
AcDbRotatedDimension
  0
DIMENSION
  5
735
330
1F
100
AcDbEntity
  8
LC-002-003-----0
 62
     7
370
    25
100
AcDbDimension
  2
*D80
 10
152.848607
 20
386.456683
 30
0.0
 11
37.203794
 21
417.256683
 31
0.0
 70
   160
  1
%%c<>
 71
     5
 42
230.0
  3
LC-DIM-L-0140-02-02
100
AcDbAlignedDimension
 13
-77.151393
 23
285.476683
 33
0.0
 14
152.848607
 24
285.476683
 34
0.0
100
AcDbRotatedDimension
  0
DIMENSION
  5
742
330
1F
100
AcDbEntity
  8
LC-002-003-----0
 62
     7
370
    25
100
AcDbDimension
  2
*D81
 10
114.150317
 20
250.176683
 30
0.0
 11
83.350317
 21
161.089663
 31
0.0
 70
   160
 71
     5
 42
182.000003
 53
90.0
  3
LC-DIM-L-0140-02-02
100
AcDbAlignedDimension
 13
62.848607
 23
68.17668
 33
0.0
 14
72.770218
 24
250.176683
 34
0.0
 50
90.0
100
AcDbRotatedDimension
  0
DIMENSION
  5
74F
330
1F
100
AcDbEntity
  8
LC-002-003-----0
 62
     7
370
    25
100
AcDbDimension
  2
*D82
 10
165.318144
 20
68.17668
 30
0.0
 11
134.518144
 21
174.792503
 31
0.0
 70
   160
  1
200
 71
     5
 42
200.999998
 53
90.0
  3
LC-DIM-L-0140-02-02
100
AcDbAlignedDimension
 13
103.265306
 23
269.176677
 33
0.0
 14
62.848607
 24
68.17668
 34
0.0
 50
90.0
100
AcDbRotatedDimension
  0
DIMENSION
  5
75C
330
1F
100
AcDbEntity
  8
LC-002-003-----0
 62
     7
370
    25
100
AcDbDimension
  2
*D83
 10
212.457007
 20
68.17668
 30
0.0
 11
181.657007
 21
178.822751
 31
0.0
 70
   160
  1
217
 71
     5
 42
217.300003
 53
90.0
  3
LC-DIM-L-0140-02-02
100
AcDbAlignedDimension
 13
152.848607
 23
285.476683
 33
0.0
 14
62.848607
 24
68.17668
 34
0.0
 50
90.0
100
AcDbRotatedDimension
  0
ENDSEC
  0
SECTION
  2
OBJECTS
  0
DICTIONARY
  5
C
330
0
100
AcDbDictionary
281
     1
  3
ACAD_GROUP
350
D
  3
ACAD_LAYOUT
350
1A
  3
ACAD_MLINESTYLE
350
17
  3
ACAD_PLOTSETTINGS
350
19
  3
ACAD_PLOTSTYLENAME
350
E
  0
DICTIONARY
  5
D
102
{ACAD_REACTORS
330
C
102
}
330
C
100
AcDbDictionary
281
     1
  0
DICTIONARY
  5
1A
102
{ACAD_REACTORS
330
C
102
}
330
C
100
AcDbDictionary
281
     1
  3
Layout1
350
1E
  3
Layout2
350
26
  3
Model
350
22
  0
DICTIONARY
  5
17
102
{ACAD_REACTORS
330
C
102
}
330
C
100
AcDbDictionary
281
     1
  3
Standard
350
18
  0
DICTIONARY
  5
19
102
{ACAD_REACTORS
330
C
102
}
330
C
100
AcDbDictionary
281
     1
  0
ACDBDICTIONARYWDFLT
  5
E
102
{ACAD_REACTORS
330
C
102
}
330
C
100
AcDbDictionary
281
     1
  3
Normal
350
F
100
AcDbDictionaryWithDefault
340
F
  0
LAYOUT
  5
1E
102
{ACAD_REACTORS
330
1A
102
}
330
1A
100
AcDbPlotSettings
  1

  2

  4

  6

 40
0.0
 41
0.0
 42
0.0
 43
0.0
 44
0.0
 45
0.0
 46
0.0
 47
0.0
 48
0.0
 49
0.0
140
0.0
141
0.0
142
1.0
143
1.0
 70
   688
 72
     0
 73
     0
 74
     5
  7

 75
    16
147
1.0
148
0.0
149
0.0
100
AcDbLayout
  1
Layout1
 70
     1
 71
     1
 10
-291.489352
 20
-132.105317
 11
548.510648
 21
461.894683
 12
0.0
 22
0.0
 32
0.0
 14
-291.489352
 24
-132.105317
 34
0.0
 15
548.510648
 25
461.894683
 35
0.0
146
0.0
 13
0.0
 23
0.0
 33
0.0
 16
1.0
 26
0.0
 36
0.0
 17
0.0
 27
1.0
 37
0.0
 76
     0
330
1B
  0
LAYOUT
  5
26
102
{ACAD_REACTORS
330
1A
102
}
330
1A
100
AcDbPlotSettings
  1

  2

  4

  6

 40
0.0
 41
0.0
 42
0.0
 43
0.0
 44
0.0
 45
0.0
 46
0.0
 47
0.0
 48
0.0
 49
0.0
140
0.0
141
0.0
142
1.0
143
1.0
 70
   688
 72
     0
 73
     0
 74
     5
  7

 75
    16
147
1.0
148
0.0
149
0.0
100
AcDbLayout
  1
Layout2
 70
     1
 71
     2
 10
0.0
 20
0.0
 11
0.0
 21
0.0
 12
0.0
 22
0.0
 32
0.0
 14
0.0
 24
0.0
 34
0.0
 15
0.0
 25
0.0
 35
0.0
146
0.0
 13
0.0
 23
0.0
 33
0.0
 16
1.0
 26
0.0
 36
0.0
 17
0.0
 27
1.0
 37
0.0
 76
     0
330
23
  0
LAYOUT
  5
22
102
{ACAD_REACTORS
330
1A
102
}
330
1A
100
AcDbPlotSettings
  1

  2

  4

  6

 40
0.0
 41
0.0
 42
0.0
 43
0.0
 44
0.0
 45
0.0
 46
0.0
 47
0.0
 48
0.0
 49
0.0
140
0.0
141
0.0
142
1.0
143
1.0
 70
  1776
 72
     0
 73
     0
 74
     0
  7

 75
     0
147
1.0
148
0.0
149
0.0
100
AcDbLayout
  1
Model
 70
     1
 71
     0
 10
-291.489352
 20
-132.105317
 11
548.510648
 21
461.894683
 12
0.0
 22
0.0
 32
0.0
 14
-291.489352
 24
-132.105317
 34
0.0
 15
548.510648
 25
461.894683
 35
0.0
146
0.0
 13
0.0
 23
0.0
 33
0.0
 16
1.0
 26
0.0
 36
0.0
 17
0.0
 27
1.0
 37
0.0
 76
     0
330
1F
  0
MLINESTYLE
  5
18
102
{ACAD_REACTORS
330
17
102
}
330
17
100
AcDbMlineStyle
  2
Standard
 70
     0
  3

 62
   256
 51
90.0
 52
90.0
 71
     2
 49
0.5
 62
   256
  6
BYLAYER
 49
-0.5
 62
   256
  6
BYLAYER
  0
ACDBPLACEHOLDER
  5
F
102
{ACAD_REACTORS
330
E
102
}
330
E
  0
ENDSEC
  0
EOF
