  0
SECTION
  2
HEADER
  9
$ACADVER
  1
AC1009
  9
$INSBASE
 10
114.13242
 20
198.461502
 30
0.0
  9
$EXTMIN
 10
-145.523192
 20
-210.76
 30
0.0
  9
$EXTMAX
 10
694.476808
 20
383.24
 30
0.0
  9
$LIMMIN
 10
-145.523192
 20
-210.76
  9
$LIMMAX
 10
694.476808
 20
383.24
  9
$ORTHOMODE
 70
     0
  9
$REGENMODE
 70
     1
  9
$FILLMODE
 70
     1
  9
$QTEXTMODE
 70
     0
  9
$MIRRTEXT
 70
     1
  9
$DRAGMODE
 70
     2
  9
$LTSCALE
 40
2.0
  9
$OSMODE
 70
     0
  9
$ATTMODE
 70
     1
  9
$TEXTSIZE
 40
0.2
  9
$TRACEWID
 40
0.05
  9
$TEXTSTYLE
  7
STANDARD
  9
$CLAYER
  8
0
  9
$CELTYPE
  6
BYLAYER
  9
$CECOLOR
 62
     7
  9
$DIMSCALE
 40
2.0
  9
$DIMASZ
 40
3.5
  9
$DIMEXO
 40
0.0625
  9
$DIMDLI
 40
0.38
  9
$DIMRND
 40
0.0
  9
$DIMDLE
 40
0.0
  9
$DIMEXE
 40
0.18
  9
$DIMTP
 40
0.0
  9
$DIMTM
 40
0.0
  9
$DIMTXT
 40
3.5
  9
$DIMCEN
 40
0.09
  9
$DIMTSZ
 40
0.0
  9
$DIMTOL
 70
     0
  9
$DIMLIM
 70
     0
  9
$DIMTIH
 70
     1
  9
$DIMTOH
 70
     1
  9
$DIMSE1
 70
     0
  9
$DIMSE2
 70
     0
  9
$DIMTAD
 70
     1
  9
$DIMZIN
 70
     0
  9
$DIMBLK
  1

  9
$DIMASO
 70
     1
  9
$DIMSHO
 70
     1
  9
$DIMPOST
  1

  9
$DIMAPOST
  1

  9
$DIMALT
 70
     0
  9
$DIMALTD
 70
     2
  9
$DIMALTF
 40
25.4
  9
$DIMLFAC
 40
1.0
  9
$DIMTOFL
 70
     0
  9
$DIMTVP
 40
0.0
  9
$DIMTIX
 70
     0
  9
$DIMSOXD
 70
     0
  9
$DIMSAH
 70
     0
  9
$DIMBLK1
  1

  9
$DIMBLK2
  1

  9
$DIMSTYLE
  2
STANDARD
  9
$DIMCLRD
 70
     0
  9
$DIMCLRE
 70
     0
  9
$DIMCLRT
 70
     0
  9
$DIMTFAC
 40
1.0
  9
$DIMGAP
 40
0.09
  9
$LUNITS
 70
     2
  9
$LUPREC
 70
     2
  9
$AXISMODE
 70
     0
  9
$AXISUNIT
 10
0.0
 20
0.0
  9
$SKETCHINC
 40
0.1
  9
$FILLETRAD
 40
0.0
  9
$AUNITS
 70
     0
  9
$AUPREC
 70
     0
  9
$MENU
  1
acad
  9
$ELEVATION
 40
0.0
  9
$PELEVATION
 40
0.0
  9
$THICKNESS
 40
0.0
  9
$LIMCHECK
 70
     0
  9
$BLIPMODE
 70
     1
  9
$CHAMFERA
 40
0.0
  9
$CHAMFERB
 40
0.0
  9
$SKPOLY
 70
     0
  9
$TDCREATE
 40
0.000000000
  9
$TDUPDATE
 40
0.000000000
  9
$TDINDWG
 40
0.0000000000
  9
$TDUSRTIMER
 40
0.0000000000
  9
$USRTIMER
 70
     1
  9
$ANGBASE
 50
0.0
  9
$ANGDIR
 70
     0
  9
$PDMODE
 70
     0
  9
$PDSIZE
 40
0.0
  9
$PLINEWID
 40
0.0
  9
$COORDS
 70
     0
  9
$SPLFRAME
 70
     0
  9
$SPLINETYPE
 70
     6
  9
$SPLINESEGS
 70
     8
  9
$ATTDIA
 70
     0
  9
$ATTREQ
 70
     1
  9
$HANDLING
 70
     1
  9
$HANDSEED
  5
190
  9
$SURFTAB1
 70
     6
  9
$SURFTAB2
 70
     6
  9
$SURFTYPE
 70
     6
  9
$SURFU
 70
     6
  9
$SURFV
 70
     6
  9
$UCSNAME
  2

  9
$UCSORG
 10
0.0
 20
0.0
 30
0.0
  9
$UCSXDIR
 10
1.0
 20
0.0
 30
0.0
  9
$UCSYDIR
 10
0.0
 20
1.0
 30
0.0
  9
$PUCSNAME
  2

  9
$PUCSORG
 10
0.0
 20
0.0
 30
0.0
  9
$PUCSXDIR
 10
1.0
 20
0.0
 30
0.0
  9
$PUCSYDIR
 10
0.0
 20
1.0
 30
0.0
  9
$USERI1
 70
     0
  9
$USERI2
 70
     0
  9
$USERI3
 70
     0
  9
$USERI4
 70
     0
  9
$USERI5
 70
     0
  9
$USERR1
 40
0.0
  9
$USERR2
 40
0.0
  9
$USERR3
 40
0.0
  9
$USERR4
 40
0.0
  9
$USERR5
 40
0.0
  9
$WORLDVIEW
 70
     1
  9
$SHADEDGE
 70
     3
  9
$SHADEDIF
 70
    70
  9
$TILEMODE
 70
     1
  9
$MAXACTVP
 70
    16
  9
$PINSBASE
 10
0.0
 20
0.0
 30
0.0
  9
$PLIMCHECK
 70
     0
  9
$PEXTMIN
 10
1.000000E+20
 20
1.000000E+20
 30
1.000000E+20
  9
$PEXTMAX
 10
-1.000000E+20
 20
-1.000000E+20
 30
-1.000000E+20
  9
$PLIMMIN
 10
-145.523192
 20
-210.76
  9
$PLIMMAX
 10
694.476808
 20
383.24
  9
$UNITMODE
 70
     0
  9
$VISRETAIN
 70
     0
  9
$PLINEGEN
 70
     1
  9
$PSLTSCALE
 70
     0
  9
$TREEDEPTH
 70
  3020
  9
$DWGCODEPAGE
  3
dos850
  0
ENDSEC
  0
SECTION
  2
TABLES
  0
TABLE
  2
VPORT
 70
     1
  0
VPORT
  2
*ACTIVE
 70
     0
 10
0.0
 20
0.0
 11
1.0
 21
1.0
 12
420.0
 22
297.0
 13
0.0
 23
0.0
 14
1.0
 24
1.0
 15
0.0
 25
0.0
 16
0.0
 26
0.0
 36
1.0
 17
-145.523192
 27
-210.76
 37
0.0
 40
594.0
 41
1.604229
 42
50.0
 43
0.0
 44
0.0
 50
0.0
 51
0.0
 71
     0
 72
   100
 73
     1
 74
     1
 75
     0
 76
     0
 77
     0
 78
     0
  0
ENDTAB
  0
TABLE
  2
LTYPE
 70
     2
  0
LTYPE
  2
CONTINUOUS
 70
    64
  3
Solid line
 72
    65
 73
     0
 40
0.0
  0
LTYPE
  2
DIVIDE
 70
    64
  3
__ . . __ . . __ . . __
 72
    65
 73
     6
 40
8.75
 49
5.0
 49
-1.25
 49
0.0
 49
-1.25
 49
0.0
 49
-1.25
  0
ENDTAB
  0
TABLE
  2
LAYER
 70
     9
  0
LAYER
  2
0
 70
     0
 62
     7
  6
CONTINUOUS
  0
LAYER
  2
LC-INFO-1-2-MM-A3-0
 70
     1
 62
    -1
  6
CONTINUOUS
  0
LAYER
  2
LC-002-101-MTH-0
 70
     0
 62
     2
  6
CONTINUOUS
  0
LAYER
  2
LC-003-101-MTG-0
 70
     0
 62
     2
  6
CONTINUOUS
  0
LAYER
  2
LC-001-101-D10-0
 70
     0
 62
     2
  6
CONTINUOUS
  0
LAYER
  2
LC-005-100-MTH-0
 70
     0
 62
     2
  6
CONTINUOUS
  0
LAYER
  2
LC-006-100-MTG-0
 70
     0
 62
     2
  6
CONTINUOUS
  0
LAYER
  2
LC-004-100-D10-0
 70
     0
 62
     2
  6
CONTINUOUS
  0
LAYER
  2
LC-000
 70
     0
 62
     7
  6
CONTINUOUS
  0
ENDTAB
  0
TABLE
  2
STYLE
 70
     3
  0
STYLE
  2
STANDARD
 70
     0
 40
0.0
 41
1.0
 50
0.0
 71
     0
 42
0.0
  3
txt
  4

  0
STYLE
  2
LC-TXTSTYLE-150-400-0-0-A1
 70
    64
 40
0.0
 41
1.0
 50
15.0
 71
     0
 42
3.5
  3
Arial
  4

  0
STYLE
  2
LC-STANDARD
 70
    64
 40
0.0
 41
1.0
 50
0.0
 71
     0
 42
3.5
  3
MONOTXT
  4

  0
ENDTAB
  0
TABLE
  2
VIEW
 70
     0
  0
ENDTAB
  0
TABLE
  2
UCS
 70
     0
  0
ENDTAB
  0
TABLE
  2
APPID
 70
     1
  0
APPID
  2
ACAD
 70
     0
  0
ENDTAB
  0
TABLE
  2
DIMSTYLE
 70
     3
  0
DIMSTYLE
  2
STANDARD
 70
     0
  3

  4

  5

  6

  7

 40
1.0
 41
0.18
 42
0.0625
 43
0.38
 44
0.18
 45
0.0
 46
0.0
 47
0.0
 48
0.0
 71
     0
 72
     0
 73
     1
 74
     1
 75
     0
 76
     0
 77
     0
 78
     0
140
0.18
141
0.09
142
0.0
143
25.4
144
1.0
145
0.0
146
1.0
147
0.09
170
     0
171
     2
172
     0
173
     0
174
     0
175
     0
176
     0
177
     0
178
     0
  0
DIMSTYLE
  2
LC-STANDARD
 70
     0
  3

  4

  5

  6

  7

 40
1.0
 41
3.5
 42
0.0
 43
7.5
 44
1.8
 45
0.0
 46
0.0
 47
0.0
 48
0.0
 71
     0
 72
     0
 73
     0
 74
     0
 75
     0
 76
     0
 77
     1
 78
     8
140
3.5
141
0.0
142
0.0
143
25.4
144
1.0
145
0.0
146
0.71
147
1.5
170
     0
171
     2
172
     1
173
     0
174
     0
175
     0
176
     0
177
     0
178
     3
  0
DIMSTYLE
  2
LC-DIM-L-0070-02-02
 70
     0
  3

  4

  5

  6

  7

 40
2.0
 41
3.5
 42
0.0
 43
7.5
 44
1.8
 45
0.0
 46
0.0
 47
0.0
 48
0.0
 71
     0
 72
     0
 73
     0
 74
     0
 75
     0
 76
     0
 77
     1
 78
     8
140
0.7
141
0.0
142
0.0
143
25.4
144
1.0
145
0.0
146
0.71
147
1.5
170
     0
171
     2
172
     0
173
     0
174
     0
175
     0
176
     2
177
     2
178
     3
  0
ENDTAB
  0
ENDSEC
  0
SECTION
  2
BLOCKS
  0
BLOCK
  8
0
  5
23
  2
*D0
 70
    65
 10
0.0
 20
0.0
 30
0.0
  3
*D0
  0
LINE
  8
LC-002-101-MTH-0
  6
CONTINUOUS
  5
25
 10
68.93242
 20
41.461502
 30
0.0
 11
11.2
 21
41.461502
 31
0.0
  0
LINE
  8
LC-002-101-MTH-0
  6
CONTINUOUS
  5
26
 10
82.13242
 20
91.461502
 30
0.0
 11
11.2
 21
91.461502
 31
0.0
  0
LINE
  8
LC-003-101-MTG-0
  6
CONTINUOUS
  5
28
 10
19.6
 20
41.461502
 30
0.0
 11
19.6
 21
91.461502
 31
0.0
  0
LINE
  8
LC-001-101-D10-0
  6
CONTINUOUS
  5
2A
 10
17.772633
 20
55.34173
 30
0.0
 11
19.6
 21
41.461502
 31
0.0
  0
LINE
  8
LC-001-101-D10-0
  6
CONTINUOUS
  5
2B
 10
19.6
 20
41.461502
 30
0.0
 11
21.427367
 21
55.34173
 31
0.0
  0
LINE
  8
LC-001-101-D10-0
  6
CONTINUOUS
  5
2C
 10
21.427367
 20
55.34173
 30
0.0
 11
17.772633
 21
55.34173
 31
0.0
  0
LINE
  8
LC-001-101-D10-0
  6
CONTINUOUS
  5
2D
 10
18.247749
 20
55.372871
 30
0.0
 11
19.6
 21
45.101502
 31
0.0
  0
LINE
  8
LC-001-101-D10-0
  6
CONTINUOUS
  5
2E
 10
19.6
 20
45.101502
 30
0.0
 11
20.952251
 21
55.372871
 31
0.0
  0
LINE
  8
LC-001-101-D10-0
  6
CONTINUOUS
  5
2F
 10
18.722864
 20
55.404011
 30
0.0
 11
19.6
 21
48.741502
 31
0.0
  0
LINE
  8
LC-001-101-D10-0
  6
CONTINUOUS
  5
30
 10
19.6
 20
48.741502
 30
0.0
 11
20.477136
 21
55.404011
 31
0.0
  0
LINE
  8
LC-001-101-D10-0
  6
CONTINUOUS
  5
31
 10
19.197979
 20
55.435152
 30
0.0
 11
19.6
 21
52.381502
 31
0.0
  0
LINE
  8
LC-001-101-D10-0
  6
CONTINUOUS
  5
32
 10
19.6
 20
52.381502
 30
0.0
 11
20.002021
 21
55.435152
 31
0.0
  0
LINE
  8
LC-001-101-D10-0
  6
CONTINUOUS
  5
33
 10
21.427367
 20
77.581274
 30
0.0
 11
19.6
 21
91.461502
 31
0.0
  0
LINE
  8
LC-001-101-D10-0
  6
CONTINUOUS
  5
34
 10
19.6
 20
91.461502
 30
0.0
 11
17.772633
 21
77.581274
 31
0.0
  0
LINE
  8
LC-001-101-D10-0
  6
CONTINUOUS
  5
35
 10
17.772633
 20
77.581274
 30
0.0
 11
21.427367
 21
77.581274
 31
0.0
  0
LINE
  8
LC-001-101-D10-0
  6
CONTINUOUS
  5
36
 10
20.952251
 20
77.550133
 30
0.0
 11
19.6
 21
87.821502
 31
0.0
  0
LINE
  8
LC-001-101-D10-0
  6
CONTINUOUS
  5
37
 10
19.6
 20
87.821502
 30
0.0
 11
18.247749
 21
77.550133
 31
0.0
  0
LINE
  8
LC-001-101-D10-0
  6
CONTINUOUS
  5
38
 10
20.477136
 20
77.518992
 30
0.0
 11
19.6
 21
84.181502
 31
0.0
  0
LINE
  8
LC-001-101-D10-0
  6
CONTINUOUS
  5
39
 10
19.6
 20
84.181502
 30
0.0
 11
18.722864
 21
77.518992
 31
0.0
  0
LINE
  8
LC-001-101-D10-0
  6
CONTINUOUS
  5
3A
 10
20.002021
 20
77.487852
 30
0.0
 11
19.6
 21
80.541502
 31
0.0
  0
LINE
  8
LC-001-101-D10-0
  6
CONTINUOUS
  5
3B
 10
19.6
 20
80.541502
 30
0.0
 11
19.197979
 21
77.487852
 31
0.0
  0
TEXT
  8
LC-001-101-D10-0
  6
CONTINUOUS
 62
     4
  5
3C
 10
15.686223
 20
59.834482
 30
0.0
 40
14.0
  1
50
 50
90.0
 41
0.9
 51
15.0
  7
LC-TXTSTYLE-150-400-0-0-A0
 72
     1
 11
15.686223
 21
68.635582
 31
0.0
  0
ENDBLK
  8
0
  5
3D
  0
BLOCK
  8
0
  5
3F
  2
*D1
 70
    65
 10
0.0
 20
0.0
 30
0.0
  3
*D1
  0
LINE
  8
LC-005-100-MTH-0
  6
CONTINUOUS
  5
41
 10
61.13242
 20
24.461502
 30
0.0
 11
-8.4
 21
24.461502
 31
0.0
  0
LINE
  8
LC-005-100-MTH-0
  6
CONTINUOUS
  5
42
 10
26.13242
 20
124.461502
 30
0.0
 11
-8.4
 21
124.461502
 31
0.0
  0
LINE
  8
LC-006-100-MTG-0
  6
CONTINUOUS
  5
44
 10
0.0
 20
24.461502
 30
0.0
 11
0.0
 21
124.461502
 31
0.0
  0
LINE
  8
LC-004-100-D10-0
  6
CONTINUOUS
  5
46
 10
-1.827367
 20
38.34173
 30
0.0
 11
0.0
 21
24.461502
 31
0.0
  0
LINE
  8
LC-004-100-D10-0
  6
CONTINUOUS
  5
47
 10
0.0
 20
24.461502
 30
0.0
 11
1.827367
 21
38.34173
 31
0.0
  0
LINE
  8
LC-004-100-D10-0
  6
CONTINUOUS
  5
48
 10
1.827367
 20
38.34173
 30
0.0
 11
-1.827367
 21
38.34173
 31
0.0
  0
LINE
  8
LC-004-100-D10-0
  6
CONTINUOUS
  5
49
 10
-1.352251
 20
38.372871
 30
0.0
 11
0.0
 21
28.101502
 31
0.0
  0
LINE
  8
LC-004-100-D10-0
  6
CONTINUOUS
  5
4A
 10
0.0
 20
28.101502
 30
0.0
 11
1.352251
 21
38.372871
 31
0.0
  0
LINE
  8
LC-004-100-D10-0
  6
CONTINUOUS
  5
4B
 10
-0.877136
 20
38.404011
 30
0.0
 11
0.0
 21
31.741502
 31
0.0
  0
LINE
  8
LC-004-100-D10-0
  6
CONTINUOUS
  5
4C
 10
0.0
 20
31.741502
 30
0.0
 11
0.877136
 21
38.404011
 31
0.0
  0
LINE
  8
LC-004-100-D10-0
  6
CONTINUOUS
  5
4D
 10
-0.402021
 20
38.435152
 30
0.0
 11
0.0
 21
35.381502
 31
0.0
  0
LINE
  8
LC-004-100-D10-0
  6
CONTINUOUS
  5
4E
 10
0.0
 20
35.381502
 30
0.0
 11
0.402021
 21
38.435152
 31
0.0
  0
LINE
  8
LC-004-100-D10-0
  6
CONTINUOUS
  5
4F
 10
1.827367
 20
110.581274
 30
0.0
 11
0.0
 21
124.461502
 31
0.0
  0
LINE
  8
LC-004-100-D10-0
  6
CONTINUOUS
  5
50
 10
0.0
 20
124.461502
 30
0.0
 11
-1.827367
 21
110.581274
 31
0.0
  0
LINE
  8
LC-004-100-D10-0
  6
CONTINUOUS
  5
51
 10
-1.827367
 20
110.581274
 30
0.0
 11
1.827367
 21
110.581274
 31
0.0
  0
LINE
  8
LC-004-100-D10-0
  6
CONTINUOUS
  5
52
 10
1.352251
 20
110.550133
 30
0.0
 11
0.0
 21
120.821502
 31
0.0
  0
LINE
  8
LC-004-100-D10-0
  6
CONTINUOUS
  5
53
 10
0.0
 20
120.821502
 30
0.0
 11
-1.352251
 21
110.550133
 31
0.0
  0
LINE
  8
LC-004-100-D10-0
  6
CONTINUOUS
  5
54
 10
0.877136
 20
110.518992
 30
0.0
 11
0.0
 21
117.181502
 31
0.0
  0
LINE
  8
LC-004-100-D10-0
  6
CONTINUOUS
  5
55
 10
0.0
 20
117.181502
 30
0.0
 11
-0.877136
 21
110.518992
 31
0.0
  0
LINE
  8
LC-004-100-D10-0
  6
CONTINUOUS
  5
56
 10
0.402021
 20
110.487852
 30
0.0
 11
0.0
 21
113.541502
 31
0.0
  0
LINE
  8
LC-004-100-D10-0
  6
CONTINUOUS
  5
57
 10
0.0
 20
113.541502
 30
0.0
 11
-0.402021
 21
110.487852
 31
0.0
  0
TEXT
  8
LC-004-100-D10-0
  6
CONTINUOUS
 62
     4
  5
58
 10
-3.913777
 20
63.433932
 30
0.0
 40
14.0
  1
100
 50
90.0
 41
0.9
 51
15.0
  7
LC-TXTSTYLE-150-400-0-0-A0
 72
     1
 11
-3.913777
 21
76.635582
 31
0.0
  0
ENDBLK
  8
0
  5
59
  0
BLOCK
  8
0
  5
5B
  2
*D2
 70
    65
 10
0.0
 20
0.0
 30
0.0
  3
*D2
  0
LINE
  8
LC-004-100-D10-0
  6
CONTINUOUS
 62
     7
  5
5C
 10
66.13242
 20
58.57475
 30
0.0
 11
56.13242
 21
58.57475
 31
0.0
  0
LINE
  8
LC-004-100-D10-0
  6
CONTINUOUS
 62
     7
  5
5D
 10
146.13242
 20
58.57475
 30
0.0
 11
146.13242
 21
31.461502
 31
0.0
  0
LINE
  8
LC-004-100-D10-0
  6
CONTINUOUS
 62
     7
  5
5E
 10
155.13242
 20
26.461502
 30
0.0
 11
167.13242
 21
26.461502
 31
0.0
  0
LINE
  8
LC-001-101-D10-0
  6
CONTINUOUS
 62
     7
  5
5F
 10
161.13242
 20
57.57475
 30
0.0
 11
161.13242
 21
43.961502
 31
0.0
  0
LINE
  8
LC-001-101-D10-0
  6
CONTINUOUS
 62
     7
  5
60
 10
161.13242
 20
43.961502
 30
0.0
 11
161.73242
 21
43.361502
 31
0.0
  0
LINE
  8
LC-001-101-D10-0
  6
CONTINUOUS
 62
     7
  5
61
 10
161.73242
 20
43.361502
 30
0.0
 11
161.73242
 21
41.461502
 31
0.0
  0
LINE
  8
LC-001-101-D10-0
  6
CONTINUOUS
 62
     7
  5
62
 10
161.73242
 20
41.461502
 30
0.0
 11
155.13242
 21
41.461502
 31
0.0
  0
LINE
  8
LC-001-101-D10-0
  6
CONTINUOUS
 62
     7
  5
63
 10
155.13242
 20
26.461502
 30
0.0
 11
155.13242
 21
41.461502
 31
0.0
  0
LINE
  8
LC-001-101-D10-0
  6
CONTINUOUS
 62
     7
  5
64
 10
67.13242
 20
43.961502
 30
0.0
 11
67.13242
 21
57.57475
 31
0.0
  0
LINE
  8
LC-001-101-D10-0
  6
CONTINUOUS
 62
     7
  5
65
 10
66.53242
 20
43.361502
 30
0.0
 11
67.13242
 21
43.961502
 31
0.0
  0
LINE
  8
LC-001-101-D10-0
  6
CONTINUOUS
 62
     7
  5
66
 10
66.53242
 20
41.461502
 30
0.0
 11
66.53242
 21
43.361502
 31
0.0
  0
LINE
  8
LC-001-101-D10-0
  6
CONTINUOUS
 62
     7
  5
67
 10
73.13242
 20
41.461502
 30
0.0
 11
66.53242
 21
41.461502
 31
0.0
  0
LINE
  8
LC-001-101-D10-0
  6
CONTINUOUS
 62
     7
  5
68
 10
73.13242
 20
31.461502
 30
0.0
 11
73.13242
 21
26.461502
 31
0.0
  0
LINE
  8
LC-004-100-D10-0
  6
CONTINUOUS
 62
     7
  5
69
 10
73.13242
 20
26.461502
 30
0.0
 11
77.13242
 21
26.461502
 31
0.0
  0
LINE
  8
LC-001-101-D10-0
  6
CONTINUOUS
 62
     7
  5
6A
 10
73.13242
 20
41.461502
 30
0.0
 11
73.13242
 21
31.461502
 31
0.0
  0
LINE
  8
LC-004-100-D10-0
  6
CONTINUOUS
 62
     7
  5
6B
 10
151.13242
 20
26.461502
 30
0.0
 11
155.13242
 21
26.461502
 31
0.0
  0
LINE
  8
LC-004-100-D10-0
  6
CONTINUOUS
 62
     7
  5
6C
 10
61.13242
 20
26.461502
 30
0.0
 11
73.13242
 21
26.461502
 31
0.0
  0
LINE
  8
LC-004-100-D10-0
  6
CONTINUOUS
 62
     7
  5
6D
 10
31.63242
 20
124.461502
 30
0.0
 11
26.13242
 21
124.461502
 31
0.0
  0
LINE
  8
LC-004-100-D10-0
  6
CONTINUOUS
 62
     7
  5
6E
 10
44.931967
 20
124.461502
 30
0.0
 11
31.63242
 21
124.461502
 31
0.0
  0
LINE
  8
LC-004-100-D10-0
  6
CONTINUOUS
 62
     7
  5
6F
 10
26.13242
 20
121.461502
 30
0.0
 11
30.13242
 21
121.461502
 31
0.0
  0
LINE
  8
LC-004-100-D10-0
  6
CONTINUOUS
 62
     7
  5
70
 10
196.63242
 20
124.461502
 30
0.0
 11
196.63242
 21
120.461502
 31
0.0
  0
LINE
  8
LC-004-100-D10-0
  6
CONTINUOUS
 62
     7
  5
71
 10
31.63242
 20
124.461502
 30
0.0
 11
31.63242
 21
120.461502
 31
0.0
  0
LINE
  8
LC-004-100-D10-0
  6
CONTINUOUS
 62
     7
  5
72
 10
33.33242
 20
116.604064
 30
0.0
 11
30.13242
 21
117.461502
 31
0.0
  0
LINE
  8
LC-004-100-D10-0
  6
CONTINUOUS
 62
     7
  5
73
 10
33.33242
 20
112.318939
 30
0.0
 11
30.13242
 21
111.461502
 31
0.0
  0
LINE
  8
LC-004-100-D10-0
  6
CONTINUOUS
 62
     7
  5
74
 10
33.03242
 20
108.707785
 30
0.0
 11
30.13242
 21
108.961502
 31
0.0
  0
LINE
  8
LC-004-100-D10-0
  6
CONTINUOUS
 62
     7
  5
75
 10
146.13242
 20
91.461502
 30
0.0
 11
146.13242
 21
58.57475
 31
0.0
  0
LINE
  8
LC-004-100-D10-0
  6
CONTINUOUS
 62
     7
  5
76
 10
190.326705
 20
75.582635
 30
0.0
 11
192.88242
 21
104.794588
 31
0.0
  0
LINE
  8
LC-004-100-D10-0
  6
CONTINUOUS
 62
     7
  5
77
 10
192.88242
 20
104.794588
 30
0.0
 11
157.767214
 21
104.794588
 31
0.0
  0
LINE
  8
LC-004-100-D10-0
  6
CONTINUOUS
 62
     7
  5
78
 10
146.13242
 20
91.461502
 30
0.0
 11
144.13242
 21
91.461502
 31
0.0
  0
LINE
  8
LC-004-100-D10-0
  6
CONTINUOUS
 62
     7
  5
79
 10
187.845732
 20
71.688287
 30
0.0
 11
161.13242
 21
71.688287
 31
0.0
  0
LINE
  8
LC-004-100-D10-0
  6
CONTINUOUS
 62
     7
  5
7A
 10
175.63242
 20
64.636928
 30
0.0
 11
161.13242
 21
64.636928
 31
0.0
  0
LINE
  8
LC-004-100-D10-0
  6
CONTINUOUS
 62
     7
  5
7B
 10
174.13242
 20
31.461502
 30
0.0
 11
174.13242
 21
58.57475
 31
0.0
  0
LINE
  8
LC-004-100-D10-0
  6
CONTINUOUS
 62
     7
  5
7C
 10
172.13242
 20
31.461502
 30
0.0
 11
172.13242
 21
58.57475
 31
0.0
  0
LINE
  8
LC-004-100-D10-0
  6
CONTINUOUS
 62
     7
  5
7D
 10
155.13242
 20
31.461502
 30
0.0
 11
146.13242
 21
31.461502
 31
0.0
  0
LINE
  8
LC-004-100-D10-0
  6
CONTINUOUS
 62
     7
  5
7E
 10
172.13242
 20
58.57475
 30
0.0
 11
162.13242
 21
58.57475
 31
0.0
  0
LINE
  8
LC-004-100-D10-0
  6
CONTINUOUS
 62
     7
  5
7F
 10
175.63242
 20
64.636928
 30
0.0
 11
187.845732
 21
71.688287
 31
0.0
  0
LINE
  8
LC-004-100-D10-0
  6
CONTINUOUS
 62
     7
  5
80
 10
176.63242
 20
62.904877
 30
0.0
 11
188.845732
 21
69.956236
 31
0.0
  0
LINE
  8
LC-004-100-D10-0
  6
CONTINUOUS
 62
     7
  5
81
 10
190.326705
 20
75.582635
 30
0.0
 11
161.13242
 21
75.582635
 31
0.0
  0
LINE
  8
LC-004-100-D10-0
  6
CONTINUOUS
 62
     7
  5
82
 10
192.88242
 20
104.794588
 30
0.0
 11
192.88242
 21
118.296438
 31
0.0
  0
LINE
  8
LC-004-100-D10-0
  6
CONTINUOUS
 62
     7
  5
83
 10
48.920106
 20
118.296438
 30
0.0
 11
35.38242
 21
118.296438
 31
0.0
  0
LINE
  8
LC-004-100-D10-0
  6
CONTINUOUS
 62
     7
  5
84
 10
194.93242
 20
116.604064
 30
0.0
 11
194.93242
 21
115.327527
 31
0.0
  0
LINE
  8
LC-004-100-D10-0
  6
CONTINUOUS
 62
     7
  5
85
 10
194.93242
 20
112.318939
 30
0.0
 11
194.93242
 21
113.595476
 31
0.0
  0
LINE
  8
LC-004-100-D10-0
  6
CONTINUOUS
 62
     7
  5
86
 10
192.319095
 20
75.408324
 30
0.0
 11
195.23242
 21
108.707785
 31
0.0
  0
LINE
  8
LC-004-100-D10-0
  6
CONTINUOUS
 62
     7
  5
87
 10
84.13242
 20
31.461502
 30
0.0
 11
144.13242
 21
31.461502
 31
0.0
  0
LINE
  8
LC-004-100-D10-0
  6
CONTINUOUS
 62
     7
  5
88
 10
82.13242
 20
91.461502
 30
0.0
 11
82.13242
 21
31.461502
 31
0.0
  0
LINE
  8
LC-004-100-D10-0
  6
CONTINUOUS
 62
     7
  5
89
 10
84.13242
 20
91.461502
 30
0.0
 11
84.13242
 21
31.461502
 31
0.0
  0
LINE
  8
LC-004-100-D10-0
  6
CONTINUOUS
 62
     7
  5
8A
 10
56.13242
 20
31.461502
 30
0.0
 11
56.13242
 21
58.57475
 31
0.0
  0
LINE
  8
LC-004-100-D10-0
  6
CONTINUOUS
 62
     7
  5
8B
 10
51.63242
 20
62.904877
 30
0.0
 11
39.419108
 21
69.956236
 31
0.0
  0
LINE
  8
LC-004-100-D10-0
  6
CONTINUOUS
 62
     7
  5
8C
 10
37.938135
 20
75.582635
 30
0.0
 11
35.38242
 21
104.794588
 31
0.0
  0
LINE
  8
LC-004-100-D10-0
  6
CONTINUOUS
 62
     7
  5
8D
 10
52.63242
 20
64.636928
 30
0.0
 11
40.419108
 21
71.688287
 31
0.0
  0
LINE
  8
LC-004-100-D10-0
  6
CONTINUOUS
 62
     7
  5
8E
 10
82.13242
 20
31.461502
 30
0.0
 11
73.13242
 21
31.461502
 31
0.0
  0
LINE
  8
LC-004-100-D10-0
  6
CONTINUOUS
 62
     7
  5
8F
 10
35.945745
 20
75.408324
 30
0.0
 11
33.03242
 21
108.707785
 31
0.0
  0
LINE
  8
LC-004-100-D10-0
  6
CONTINUOUS
 62
     7
  5
90
 10
54.13242
 20
31.461502
 30
0.0
 11
54.13242
 21
58.57475
 31
0.0
  0
ENDBLK
  8
0
  5
91
  0
BLOCK
  8
0
  5
93
  2
*D3
 70
    65
 10
0.0
 20
0.0
 30
0.0
  3
*D3
  0
LINE
  8
LC-004-100-D10-0
  6
CONTINUOUS
 62
     7
  5
94
 10
35.38242
 20
104.794588
 30
0.0
 11
35.38242
 21
118.296438
 31
0.0
  0
LINE
  8
LC-004-100-D10-0
  6
CONTINUOUS
 62
     7
  5
95
 10
33.33242
 20
116.604064
 30
0.0
 11
33.33242
 21
115.327527
 31
0.0
  0
LINE
  8
LC-004-100-D10-0
  6
CONTINUOUS
 62
     7
  5
96
 10
35.38242
 20
118.296438
 30
0.0
 11
31.63242
 21
120.461502
 31
0.0
  0
LINE
  8
LC-004-100-D10-0
  6
CONTINUOUS
 62
     7
  5
97
 10
84.13242
 20
91.461502
 30
0.0
 11
82.13242
 21
91.461502
 31
0.0
  0
LINE
  8
LC-004-100-D10-0
  6
CONTINUOUS
 62
     7
  5
98
 10
33.33242
 20
112.318939
 30
0.0
 11
33.33242
 21
113.595476
 31
0.0
  0
LINE
  8
LC-004-100-D10-0
  6
CONTINUOUS
 62
     7
  5
99
 10
84.13242
 20
91.461502
 30
0.0
 11
144.13242
 21
91.461502
 31
0.0
  0
LINE
  8
LC-004-100-D10-0
  6
CONTINUOUS
 62
     7
  5
9A
 10
144.13242
 20
91.461502
 30
0.0
 11
144.13242
 21
31.461502
 31
0.0
  0
LINE
  8
LC-004-100-D10-0
  6
CONTINUOUS
 62
     7
  5
9B
 10
181.470018
 20
120.461502
 30
0.0
 11
177.090341
 21
120.461502
 31
0.0
  0
LINE
  8
LC-004-100-D10-0
  6
CONTINUOUS
 62
     7
  5
9C
 10
30.13242
 20
108.961502
 30
0.0
 11
30.13242
 21
111.461502
 31
0.0
  0
LINE
  8
LC-004-100-D10-0
  6
CONTINUOUS
 62
     7
  5
9D
 10
30.13242
 20
121.461502
 30
0.0
 11
30.13242
 21
117.461502
 31
0.0
  0
LINE
  8
LC-004-100-D10-0
  6
CONTINUOUS
 62
     7
  5
9E
 10
26.13242
 20
124.461502
 30
0.0
 11
26.13242
 21
121.461502
 31
0.0
  0
LINE
  8
LC-004-100-D10-0
  6
CONTINUOUS
 62
     7
  5
9F
 10
196.63242
 20
124.461502
 30
0.0
 11
44.931967
 21
124.461502
 31
0.0
  0
LINE
  8
LC-004-100-D10-0
  6
CONTINUOUS
 62
     7
  5
A0
 10
194.93242
 20
116.604064
 30
0.0
 11
198.13242
 21
117.461502
 31
0.0
  0
LINE
  8
LC-004-100-D10-0
  6
CONTINUOUS
 62
     7
  5
A1
 10
194.93242
 20
112.318939
 30
0.0
 11
198.13242
 21
111.461502
 31
0.0
  0
LINE
  8
LC-004-100-D10-0
  6
CONTINUOUS
 62
     7
  5
A2
 10
195.23242
 20
108.707785
 30
0.0
 11
198.13242
 21
108.961502
 31
0.0
  0
LINE
  8
LC-004-100-D10-0
  6
CONTINUOUS
 62
     7
  5
A3
 10
192.88242
 20
118.296438
 30
0.0
 11
87.605704
 21
118.296438
 31
0.0
  0
LINE
  8
LC-004-100-D10-0
  6
CONTINUOUS
 62
     7
  5
A4
 10
198.13242
 20
121.461502
 30
0.0
 11
202.13242
 21
121.461502
 31
0.0
  0
LINE
  8
LC-004-100-D10-0
  6
CONTINUOUS
 62
     7
  5
A5
 10
198.13242
 20
121.461502
 30
0.0
 11
198.13242
 21
117.461502
 31
0.0
  0
LINE
  8
LC-004-100-D10-0
  6
CONTINUOUS
 62
     7
  5
A6
 10
202.13242
 20
124.461502
 30
0.0
 11
202.13242
 21
121.461502
 31
0.0
  0
LINE
  8
LC-004-100-D10-0
  6
CONTINUOUS
 62
     7
  5
A7
 10
198.13242
 20
108.961502
 30
0.0
 11
198.13242
 21
111.461502
 31
0.0
  0
LINE
  8
LC-004-100-D10-0
  6
CONTINUOUS
 62
     7
  5
A8
 10
202.13242
 20
124.461502
 30
0.0
 11
196.63242
 21
124.461502
 31
0.0
  0
LINE
  8
LC-004-100-D10-0
  6
CONTINUOUS
 62
     7
  5
A9
 10
196.63242
 20
120.461502
 30
0.0
 11
181.470018
 21
120.461502
 31
0.0
  0
LINE
  8
LC-004-100-D10-0
  6
CONTINUOUS
 62
     7
  5
AA
 10
167.13242
 20
24.461502
 30
0.0
 11
151.13242
 21
24.461502
 31
0.0
  0
LINE
  8
LC-004-100-D10-0
  6
CONTINUOUS
 62
     7
  5
AB
 10
77.13242
 20
24.461502
 30
0.0
 11
151.13242
 21
24.461502
 31
0.0
  0
LINE
  8
LC-004-100-D10-0
  6
CONTINUOUS
 62
     7
  5
AC
 10
77.13242
 20
24.461502
 30
0.0
 11
61.13242
 21
24.461502
 31
0.0
  0
LINE
  8
LC-004-100-D10-0
  6
CONTINUOUS
 62
     7
  5
AD
 10
192.88242
 20
118.296438
 30
0.0
 11
196.63242
 21
120.461502
 31
0.0
  0
LINE
  8
LC-001-101-D10-0
  6
DIVIDE
  5
AF
 10
114.13242
 20
127.764958
 30
0.0
 11
114.13242
 21
20.235042
 31
0.0
  0
LINE
  8
LC-004-100-D10-0
  6
CONTINUOUS
 62
     7
  5
B0
 10
67.13242
 20
64.636928
 30
0.0
 11
52.63242
 21
64.636928
 31
0.0
  0
LINE
  8
LC-004-100-D10-0
  6
CONTINUOUS
 62
     7
  5
B1
 10
67.13242
 20
71.688287
 30
0.0
 11
40.419108
 21
71.688287
 31
0.0
  0
LINE
  8
LC-004-100-D10-0
  6
CONTINUOUS
 62
     7
  5
B2
 10
67.13242
 20
75.582635
 30
0.0
 11
37.938135
 21
75.582635
 31
0.0
  0
LINE
  8
LC-004-100-D10-0
  6
CONTINUOUS
 62
     7
  5
B3
 10
70.497626
 20
104.794588
 30
0.0
 11
35.38242
 21
104.794588
 31
0.0
  0
LINE
  8
LC-004-100-D10-0
  6
CONTINUOUS
 62
     7
  5
B4
 10
87.605704
 20
118.296438
 30
0.0
 11
48.920106
 21
118.296438
 31
0.0
  0
LINE
  8
LC-004-100-D10-0
  6
CONTINUOUS
 62
     7
  5
B5
 10
181.470018
 20
120.461502
 30
0.0
 11
31.63242
 21
120.461502
 31
0.0
  0
LINE
  8
LC-004-100-D10-0
  6
CONTINUOUS
 62
     7
  5
B6
 10
46.463817
 20
124.461502
 30
0.0
 11
44.931967
 21
124.461502
 31
0.0
  0
ARC
  8
LC-004-100-D10-0
  6
CONTINUOUS
 62
     7
  5
B7
 10
61.13242
 20
31.461502
 30
0.0
 40
5.0
 50
180.0
 51
270.0
  0
ARC
  8
LC-004-100-D10-0
  6
CONTINUOUS
 62
     7
  5
B8
 10
185.345732
 20
76.018414
 30
0.0
 40
7.0
 50
300.0
 51
355.0
  0
ARC
  8
LC-004-100-D10-0
  6
CONTINUOUS
 62
     7
  5
B9
 10
185.345732
 20
76.018414
 30
0.0
 40
5.0
 50
300.0
 51
355.0
  0
ARC
  8
LC-004-100-D10-0
  6
CONTINUOUS
 62
     7
  5
BA
 10
179.13242
 20
58.57475
 30
0.0
 40
5.0
 50
120.0
 51
180.0
  0
ARC
  8
LC-004-100-D10-0
  6
CONTINUOUS
 62
     7
  5
BB
 10
179.13242
 20
58.57475
 30
0.0
 40
7.0
 50
120.0
 51
180.0
  0
ARC
  8
LC-004-100-D10-0
  6
CONTINUOUS
 62
     7
  5
BC
 10
167.13242
 20
31.461502
 30
0.0
 40
5.0
 50
270.0
 51
0.0
  0
ARC
  8
LC-004-100-D10-0
  6
CONTINUOUS
 62
     7
  5
BD
 10
151.13242
 20
31.461502
 30
0.0
 40
5.0
 50
180.0
 51
270.0
  0
ARC
  8
LC-004-100-D10-0
  6
CONTINUOUS
 62
     7
  5
BE
 10
77.13242
 20
31.461502
 30
0.0
 40
5.0
 50
270.0
 51
0.0
  0
ARC
  8
LC-004-100-D10-0
  6
CONTINUOUS
 62
     7
  5
BF
 10
194.43242
 20
114.461502
 30
0.0
 40
1.0
 50
300.0
 51
60.0
  0
ARC
  8
LC-004-100-D10-0
  6
CONTINUOUS
 62
     7
  5
C0
 10
49.13242
 20
58.57475
 30
0.0
 40
7.0
 50
0.0
 51
60.0
  0
ARC
  8
LC-004-100-D10-0
  6
CONTINUOUS
 62
     7
  5
C1
 10
49.13242
 20
58.57475
 30
0.0
 40
5.0
 50
0.0
 51
60.0
  0
ARC
  8
LC-004-100-D10-0
  6
CONTINUOUS
 62
     7
  5
C2
 10
42.919108
 20
76.018414
 30
0.0
 40
5.0
 50
185.0
 51
240.0
  0
ARC
  8
LC-004-100-D10-0
  6
CONTINUOUS
 62
     7
  5
C3
 10
42.919108
 20
76.018414
 30
0.0
 40
7.0
 50
185.0
 51
240.0
  0
ARC
  8
LC-004-100-D10-0
  6
CONTINUOUS
 62
     7
  5
C4
 10
33.83242
 20
114.461502
 30
0.0
 40
1.0
 50
120.0
 51
240.0
  0
ARC
  8
LC-004-100-D10-0
  6
CONTINUOUS
 62
     7
  5
C5
 10
167.13242
 20
31.461502
 30
0.0
 40
7.0
 50
270.0
 51
0.0
  0
ARC
  8
LC-004-100-D10-0
  6
CONTINUOUS
 62
     7
  5
C6
 10
61.13242
 20
31.461502
 30
0.0
 40
7.0
 50
180.0
 51
270.0
  0
ARC
  8
LC-004-100-D10-0
  6
CONTINUOUS
 62
     7
  5
C7
 10
77.13242
 20
31.461502
 30
0.0
 40
7.0
 50
270.0
 51
0.0
  0
ENDBLK
  8
0
  5
C8
  0
BLOCK
  8
0
  5
CA
  2
*D4
 70
    65
 10
0.0
 20
0.0
 30
0.0
  3
*D4
  0
ARC
  8
LC-004-100-D10-0
  6
CONTINUOUS
 62
     7
  5
CB
 10
151.13242
 20
31.461502
 30
0.0
 40
7.0
 50
180.0
 51
270.0
  0
ARC
  8
LC-001-101-D10-0
  6
CONTINUOUS
 62
     7
  5
CC
 10
162.13242
 20
57.57475
 30
0.0
 40
1.0
 50
90.0
 51
180.0
  0
ARC
  8
LC-001-101-D10-0
  6
CONTINUOUS
 62
     7
  5
CD
 10
66.13242
 20
57.57475
 30
0.0
 40
1.0
 50
0.0
 51
90.0
  0
LINE
  8
LC-004-100-D10-0
  6
CONTINUOUS
  5
CE
 10
84.13242
 20
88.814208
 30
0.0
 11
82.13242
 21
90.814208
 31
0.0
  0
LINE
  8
LC-004-100-D10-0
  6
CONTINUOUS
  5
CF
 10
84.13242
 20
84.571567
 30
0.0
 11
82.13242
 21
86.571567
 31
0.0
  0
LINE
  8
LC-004-100-D10-0
  6
CONTINUOUS
  5
D0
 10
84.13242
 20
80.328927
 30
0.0
 11
82.13242
 21
82.328927
 31
0.0
  0
LINE
  8
LC-004-100-D10-0
  6
CONTINUOUS
  5
D1
 10
84.13242
 20
76.086286
 30
0.0
 11
82.13242
 21
78.086286
 31
0.0
  0
LINE
  8
LC-004-100-D10-0
  6
CONTINUOUS
  5
D2
 10
84.13242
 20
71.843645
 30
0.0
 11
82.13242
 21
73.843645
 31
0.0
  0
LINE
  8
LC-004-100-D10-0
  6
CONTINUOUS
  5
D3
 10
31.63242
 20
124.343645
 30
0.0
 11
31.514564
 21
124.461502
 31
0.0
  0
LINE
  8
LC-004-100-D10-0
  6
CONTINUOUS
  5
D4
 10
84.13242
 20
67.601005
 30
0.0
 11
82.13242
 21
69.601005
 31
0.0
  0
LINE
  8
LC-004-100-D10-0
  6
CONTINUOUS
  5
D5
 10
35.38242
 20
116.351005
 30
0.0
 11
27.271923
 21
124.461502
 31
0.0
  0
LINE
  8
LC-004-100-D10-0
  6
CONTINUOUS
  5
D6
 10
84.13242
 20
63.358364
 30
0.0
 11
82.13242
 21
65.358364
 31
0.0
  0
LINE
  8
LC-004-100-D10-0
  6
CONTINUOUS
  5
D7
 10
35.38242
 20
112.108364
 30
0.0
 11
32.848835
 21
114.641949
 31
0.0
  0
LINE
  8
LC-004-100-D10-0
  6
CONTINUOUS
  5
D8
 10
84.13242
 20
59.115723
 30
0.0
 11
82.13242
 21
61.115723
 31
0.0
  0
LINE
  8
LC-004-100-D10-0
  6
CONTINUOUS
  5
D9
 10
35.38242
 20
107.865723
 30
0.0
 11
31.437064
 21
111.81108
 31
0.0
  0
LINE
  8
LC-004-100-D10-0
  6
CONTINUOUS
  5
DA
 10
84.13242
 20
54.873083
 30
0.0
 11
82.13242
 21
56.873083
 31
0.0
  0
LINE
  8
LC-004-100-D10-0
  6
CONTINUOUS
  5
DB
 10
35.49474
 20
103.510762
 30
0.0
 11
33.294615
 21
105.710888
 31
0.0
  0
LINE
  8
LC-004-100-D10-0
  6
CONTINUOUS
  5
DC
 10
84.13242
 20
50.630442
 30
0.0
 11
82.13242
 21
52.630442
 31
0.0
  0
LINE
  8
LC-004-100-D10-0
  6
CONTINUOUS
  5
DD
 10
35.901511
 20
98.861351
 30
0.0
 11
33.701385
 21
101.061477
 31
0.0
  0
LINE
  8
LC-004-100-D10-0
  6
CONTINUOUS
  5
DE
 10
84.13242
 20
46.387801
 30
0.0
 11
82.13242
 21
48.387801
 31
0.0
  0
LINE
  8
LC-004-100-D10-0
  6
CONTINUOUS
  5
DF
 10
36.308282
 20
94.211939
 30
0.0
 11
34.108156
 21
96.412065
 31
0.0
  0
LINE
  8
LC-004-100-D10-0
  6
CONTINUOUS
  5
E0
 10
84.13242
 20
42.145161
 30
0.0
 11
82.13242
 21
44.145161
 31
0.0
  0
LINE
  8
LC-004-100-D10-0
  6
CONTINUOUS
  5
E1
 10
36.715053
 20
89.562528
 30
0.0
 11
34.514927
 21
91.762654
 31
0.0
  0
LINE
  8
LC-004-100-D10-0
  6
CONTINUOUS
  5
E2
 10
84.13242
 20
37.90252
 30
0.0
 11
82.13242
 21
39.90252
 31
0.0
  0
LINE
  8
LC-004-100-D10-0
  6
CONTINUOUS
  5
E3
 10
37.121823
 20
84.913117
 30
0.0
 11
34.921698
 21
87.113242
 31
0.0
  0
LINE
  8
LC-004-100-D10-0
  6
CONTINUOUS
  5
E4
 10
84.13242
 20
33.659879
 30
0.0
 11
82.13242
 21
35.659879
 31
0.0
  0
LINE
  8
LC-004-100-D10-0
  6
CONTINUOUS
  5
E5
 10
37.528594
 20
80.263705
 30
0.0
 11
35.328469
 21
82.463831
 31
0.0
  0
LINE
  8
LC-004-100-D10-0
  6
CONTINUOUS
  5
E6
 10
83.895165
 20
29.654493
 30
0.0
 11
82.132226
 21
31.417433
 31
0.0
  0
LINE
  8
LC-004-100-D10-0
  6
CONTINUOUS
  5
E7
 10
56.13242
 20
57.417239
 30
0.0
 11
54.04523
 21
59.504429
 31
0.0
  0
LINE
  8
LC-004-100-D10-0
  6
CONTINUOUS
  5
E8
 10
49.295641
 20
64.254017
 30
0.0
 11
43.83154
 21
69.718119
 31
0.0
  0
LINE
  8
LC-004-100-D10-0
  6
CONTINUOUS
  5
E9
 10
37.935365
 20
75.614294
 30
0.0
 11
35.735239
 21
77.814419
 31
0.0
  0
LINE
  8
LC-004-100-D10-0
  6
CONTINUOUS
  5
EA
 10
82.425857
 20
26.881161
 30
0.0
 11
81.006478
 21
28.30054
 31
0.0
  0
LINE
  8
LC-004-100-D10-0
  6
CONTINUOUS
  5
EB
 10
56.13242
 20
53.174598
 30
0.0
 11
54.13242
 21
55.174598
 31
0.0
  0
LINE
  8
LC-004-100-D10-0
  6
CONTINUOUS
  5
EC
 10
39.249869
 20
70.057149
 30
0.0
 11
36.957843
 21
72.349175
 31
0.0
  0
LINE
  8
LC-004-100-D10-0
  6
CONTINUOUS
  5
ED
 10
79.992102
 20
25.072275
 30
0.0
 11
78.431237
 21
26.63314
 31
0.0
  0
LINE
  8
LC-004-100-D10-0
  6
CONTINUOUS
  5
EE
 10
56.13242
 20
48.931957
 30
0.0
 11
54.13242
 21
50.931957
 31
0.0
  0
LINE
  8
LC-004-100-D10-0
  6
CONTINUOUS
  5
EF
 10
76.360235
 20
24.461502
 30
0.0
 11
74.360235
 21
26.461502
 31
0.0
  0
LINE
  8
LC-004-100-D10-0
  6
CONTINUOUS
  5
F0
 10
56.13242
 20
44.689316
 30
0.0
 11
54.13242
 21
46.689316
 31
0.0
  0
LINE
  8
LC-004-100-D10-0
  6
CONTINUOUS
  5
F1
 10
72.117594
 20
24.461502
 30
0.0
 11
70.117594
 21
26.461502
 31
0.0
  0
LINE
  8
LC-004-100-D10-0
  6
CONTINUOUS
  5
F2
 10
56.13242
 20
40.446676
 30
0.0
 11
54.13242
 21
42.446676
 31
0.0
  0
LINE
  8
LC-004-100-D10-0
  6
CONTINUOUS
  5
F3
 10
67.874953
 20
24.461502
 30
0.0
 11
65.874953
 21
26.461502
 31
0.0
  0
LINE
  8
LC-004-100-D10-0
  6
CONTINUOUS
  5
F4
 10
56.13242
 20
36.204035
 30
0.0
 11
54.13242
 21
38.204035
 31
0.0
  0
LINE
  8
LC-004-100-D10-0
  6
CONTINUOUS
  5
F5
 10
63.632313
 20
24.461502
 30
0.0
 11
61.632313
 21
26.461502
 31
0.0
  0
LINE
  8
LC-004-100-D10-0
  6
CONTINUOUS
  5
F6
 10
56.13242
 20
31.961394
 30
0.0
 11
54.13242
 21
33.961394
 31
0.0
  0
LINE
  8
LC-004-100-D10-0
  6
CONTINUOUS
  5
F7
 10
59.082918
 20
24.768256
 30
0.0
 11
54.439174
 21
29.412
 31
0.0
  0
LINE
  8
LC-004-100-D10-0
  6
CONTINUOUS
  5
F8
 10
202.13242
 20
123.549273
 30
0.0
 11
201.220191
 21
124.461502
 31
0.0
  0
LINE
  8
LC-004-100-D10-0
  6
CONTINUOUS
  5
F9
 10
199.977551
 20
121.461502
 30
0.0
 11
196.977551
 21
124.461502
 31
0.0
  0
LINE
  8
LC-004-100-D10-0
  6
CONTINUOUS
  5
FA
 10
198.13242
 20
119.063992
 30
0.0
 11
196.63242
 21
120.563992
 31
0.0
  0
LINE
  8
LC-004-100-D10-0
  6
CONTINUOUS
  5
FB
 10
196.050199
 20
116.903572
 30
0.0
 11
194.00767
 21
118.946101
 31
0.0
  0
LINE
  8
LC-004-100-D10-0
  6
CONTINUOUS
  5
FC
 10
198.13242
 20
110.57871
 30
0.0
 11
196.926504
 21
111.784626
 31
0.0
  0
LINE
  8
LC-004-100-D10-0
  6
CONTINUOUS
  5
FD
 10
195.0422
 20
113.668931
 30
0.0
 11
192.88242
 21
115.82871
 31
0.0
  0
LINE
  8
LC-004-100-D10-0
  6
CONTINUOUS
  5
FE
 10
195.718204
 20
108.750285
 30
0.0
 11
192.88242
 21
111.586069
 31
0.0
  0
LINE
  8
LC-004-100-D10-0
  6
CONTINUOUS
  5
FF
 10
194.933599
 20
105.292249
 30
0.0
 11
192.88242
 21
107.343429
 31
0.0
  0
LINE
  8
LC-004-100-D10-0
  6
CONTINUOUS
  5
100
 10
194.592278
 20
101.39093
 30
0.0
 11
192.746154
 21
103.237055
 31
0.0
  0
LINE
  8
LC-004-100-D10-0
  6
CONTINUOUS
  5
101
 10
194.250957
 20
97.48961
 30
0.0
 11
192.404832
 21
99.335735
 31
0.0
  0
LINE
  8
LC-004-100-D10-0
  6
CONTINUOUS
  5
102
 10
193.909636
 20
93.588291
 30
0.0
 11
192.063511
 21
95.434416
 31
0.0
  0
LINE
  8
LC-004-100-D10-0
  6
CONTINUOUS
  5
103
 10
193.568315
 20
89.686972
 30
0.0
 11
191.72219
 21
91.533096
 31
0.0
  0
LINE
  8
LC-004-100-D10-0
  6
CONTINUOUS
  5
104
 10
193.226993
 20
85.785652
 30
0.0
 11
191.380869
 21
87.631777
 31
0.0
  0
LINE
  8
LC-004-100-D10-0
  6
CONTINUOUS
  5
105
 10
192.885672
 20
81.884333
 30
0.0
 11
191.039547
 21
83.730457
 31
0.0
  0
LINE
  8
LC-004-100-D10-0
  6
CONTINUOUS
  5
106
 10
192.544351
 20
77.983013
 30
0.0
 11
190.698226
 21
79.829138
 31
0.0
  0
LINE
  8
LC-004-100-D10-0
  6
CONTINUOUS
  5
107
 10
192.101015
 20
74.183708
 30
0.0
 11
190.356905
 21
75.927818
 31
0.0
  0
LINE
  8
LC-004-100-D10-0
  6
CONTINUOUS
  5
108
 10
190.622827
 20
71.419255
 30
0.0
 11
189.203947
 21
72.838135
 31
0.0
  0
LINE
  8
LC-004-100-D10-0
  6
CONTINUOUS
  5
109
 10
188.210156
 20
69.589286
 30
0.0
 11
186.746054
 21
71.053388
 31
0.0
  0
LINE
  8
LC-004-100-D10-0
  6
CONTINUOUS
  5
10A
 10
185.520429
 20
68.036372
 30
0.0
 11
184.056328
 21
69.500474
 31
0.0
  0
LINE
  8
LC-004-100-D10-0
  6
CONTINUOUS
  5
10B
 10
182.830703
 20
66.483458
 30
0.0
 11
181.366601
 21
67.947559
 31
0.0
  0
LINE
  8
LC-004-100-D10-0
  6
CONTINUOUS
  5
10C
 10
180.140976
 20
64.930543
 30
0.0
 11
178.676875
 21
66.394645
 31
0.0
  0
LINE
  8
LC-004-100-D10-0
  6
CONTINUOUS
  5
10D
 10
177.45125
 20
63.377629
 30
0.0
 11
175.987148
 21
64.841731
 31
0.0
  0
LINE
  8
LC-004-100-D10-0
  6
CONTINUOUS
  5
10E
 10
175.081126
 20
61.505112
 30
0.0
 11
173.65404
 21
62.932198
 31
0.0
  0
LINE
  8
LC-004-100-D10-0
  6
CONTINUOUS
  5
10F
 10
146.13242
 20
90.453818
 30
0.0
 11
145.124737
 21
91.461502
 31
0.0
  0
LINE
  8
LC-004-100-D10-0
  6
CONTINUOUS
  5
110
 10
174.13242
 20
58.211178
 30
0.0
 11
172.290343
 21
60.053255
 31
0.0
  0
LINE
  8
LC-004-100-D10-0
  6
CONTINUOUS
  5
111
 10
146.13242
 20
86.211178
 30
0.0
 11
144.13242
 21
88.211178
 31
0.0
  0
LINE
  8
LC-004-100-D10-0
  6
CONTINUOUS
  5
112
 10
174.13242
 20
53.968537
 30
0.0
 11
172.13242
 21
55.968537
 31
0.0
  0
LINE
  8
LC-004-100-D10-0
  6
CONTINUOUS
  5
113
 10
146.13242
 20
81.968537
 30
0.0
 11
144.13242
 21
83.968537
 31
0.0
  0
LINE
  8
LC-004-100-D10-0
  6
CONTINUOUS
  5
114
 10
174.13242
 20
49.725896
 30
0.0
 11
172.13242
 21
51.725896
 31
0.0
  0
LINE
  8
LC-004-100-D10-0
  6
CONTINUOUS
  5
115
 10
146.13242
 20
77.725896
 30
0.0
 11
144.13242
 21
79.725896
 31
0.0
  0
LINE
  8
LC-004-100-D10-0
  6
CONTINUOUS
  5
116
 10
174.13242
 20
45.483256
 30
0.0
 11
172.13242
 21
47.483256
 31
0.0
  0
LINE
  8
LC-004-100-D10-0
  6
CONTINUOUS
  5
117
 10
146.13242
 20
73.483256
 30
0.0
 11
144.13242
 21
75.483256
 31
0.0
  0
LINE
  8
LC-004-100-D10-0
  6
CONTINUOUS
  5
118
 10
174.13242
 20
41.240615
 30
0.0
 11
172.13242
 21
43.240615
 31
0.0
  0
LINE
  8
LC-004-100-D10-0
  6
CONTINUOUS
  5
119
 10
146.13242
 20
69.240615
 30
0.0
 11
144.13242
 21
71.240615
 31
0.0
  0
LINE
  8
LC-004-100-D10-0
  6
CONTINUOUS
  5
11A
 10
174.13242
 20
36.997974
 30
0.0
 11
172.13242
 21
38.997974
 31
0.0
  0
LINE
  8
LC-004-100-D10-0
  6
CONTINUOUS
  5
11B
 10
146.13242
 20
64.997974
 30
0.0
 11
144.13242
 21
66.997974
 31
0.0
  0
LINE
  8
LC-004-100-D10-0
  6
CONTINUOUS
  5
11C
 10
174.13242
 20
32.755334
 30
0.0
 11
172.13242
 21
34.755334
 31
0.0
  0
LINE
  8
LC-004-100-D10-0
  6
CONTINUOUS
  5
11D
 10
146.13242
 20
60.755334
 30
0.0
 11
144.13242
 21
62.755334
 31
0.0
  0
LINE
  8
LC-004-100-D10-0
  6
CONTINUOUS
  5
11E
 10
173.674315
 20
28.970798
 30
0.0
 11
172.055767
 21
30.589346
 31
0.0
  0
LINE
  8
LC-004-100-D10-0
  6
CONTINUOUS
  5
11F
 10
146.13242
 20
56.512693
 30
0.0
 11
144.13242
 21
58.512693
 31
0.0
  0
LINE
  8
LC-004-100-D10-0
  6
CONTINUOUS
  5
120
 10
171.985517
 20
26.416955
 30
0.0
 11
170.570933
 21
27.831539
 31
0.0
  0
LINE
  8
LC-004-100-D10-0
  6
CONTINUOUS
  5
121
 10
146.13242
 20
52.270052
 30
0.0
 11
144.13242
 21
54.270052
 31
0.0
  0
LINE
  8
LC-004-100-D10-0
  6
CONTINUOUS
  5
122
 10
169.340837
 20
24.818995
 30
0.0
 11
167.66941
 21
26.490421
 31
0.0
  0
LINE
  8
LC-004-100-D10-0
  6
CONTINUOUS
  5
123
 10
146.13242
 20
48.027412
 30
0.0
 11
144.13242
 21
50.027412
 31
0.0
  0
LINE
  8
LC-004-100-D10-0
  6
CONTINUOUS
  5
124
 10
165.455689
 20
24.461502
 30
0.0
 11
163.455689
 21
26.461502
 31
0.0
  0
LINE
  8
LC-004-100-D10-0
  6
CONTINUOUS
  5
125
 10
146.13242
 20
43.784771
 30
0.0
 11
144.13242
 21
45.784771
 31
0.0
  0
LINE
  8
LC-004-100-D10-0
  6
CONTINUOUS
  5
126
 10
161.213049
 20
24.461502
 30
0.0
 11
159.213049
 21
26.461502
 31
0.0
  0
LINE
  8
LC-004-100-D10-0
  6
CONTINUOUS
  5
127
 10
146.13242
 20
39.54213
 30
0.0
 11
144.13242
 21
41.54213
 31
0.0
  0
LINE
  8
LC-004-100-D10-0
  6
CONTINUOUS
  5
128
 10
156.970408
 20
24.461502
 30
0.0
 11
154.970408
 21
26.461502
 31
0.0
  0
LINE
  8
LC-004-100-D10-0
  6
CONTINUOUS
  5
129
 10
146.13242
 20
35.29949
 30
0.0
 11
144.13242
 21
37.29949
 31
0.0
  0
LINE
  8
LC-004-100-D10-0
  6
CONTINUOUS
  5
12A
 10
152.727767
 20
24.461502
 30
0.0
 11
150.709881
 21
26.479388
 31
0.0
  0
LINE
  8
LC-004-100-D10-0
  6
CONTINUOUS
  5
12B
 10
146.150306
 20
31.038963
 30
0.0
 11
144.13242
 21
33.056849
 31
0.0
  0
LINE
  8
LC-004-100-D10-0
  6
CONTINUOUS
  5
12C
 10
147.418923
 20
25.527706
 30
0.0
 11
145.198624
 21
27.748004
 31
0.0
  0
ENDBLK
  8
0
  5
12D
  0
BLOCK
  8
0
  5
12F
  2
*D5
 70
    65
 10
0.0
 20
0.0
 30
0.0
  3
*D5
  0
LINE
  8
LC-004-100-D10-0
  6
CONTINUOUS
 62
     7
  5
130
 10
159.13242
 20
96.461502
 30
0.0
 11
114.13242
 21
96.461502
 31
0.0
  0
LINE
  8
LC-004-100-D10-0
  6
CONTINUOUS
 62
     7
  5
131
 10
161.13242
 20
43.461502
 30
0.0
 11
161.13242
 21
96.461502
 31
0.0
  0
LINE
  8
LC-004-100-D10-0
  6
CONTINUOUS
 62
     7
  5
132
 10
159.33242
 20
96.461502
 30
0.0
 11
159.33242
 21
41.461502
 31
0.0
  0
LINE
  8
LC-004-100-D10-0
  6
CONTINUOUS
 62
     7
  5
133
 10
114.13242
 20
96.461502
 30
0.0
 11
69.13242
 21
96.461502
 31
0.0
  0
LINE
  8
LC-004-100-D10-0
  6
CONTINUOUS
 62
     7
  5
134
 10
68.93242
 20
96.461502
 30
0.0
 11
68.93242
 21
41.461502
 31
0.0
  0
LINE
  8
LC-004-100-D10-0
  6
CONTINUOUS
 62
     7
  5
135
 10
149.13242
 20
106.661502
 30
0.0
 11
79.13242
 21
106.661502
 31
0.0
  0
LINE
  8
LC-004-100-D10-0
  6
CONTINUOUS
 62
     7
  5
136
 10
79.13242
 20
108.461502
 30
0.0
 11
149.13242
 21
108.461502
 31
0.0
  0
LINE
  8
LC-001-101-D10-0
  6
CONTINUOUS
 62
     7
  5
137
 10
161.63242
 20
43.461502
 30
0.0
 11
161.13242
 21
43.461502
 31
0.0
  0
LINE
  8
LC-001-101-D10-0
  6
CONTINUOUS
 62
     7
  5
138
 10
161.63242
 20
41.461502
 30
0.0
 11
161.63242
 21
43.461502
 31
0.0
  0
LINE
  8
LC-004-100-D10-0
  6
CONTINUOUS
 62
     7
  5
139
 10
161.63242
 20
41.461502
 30
0.0
 11
159.33242
 21
41.461502
 31
0.0
  0
LINE
  8
LC-001-101-D10-0
  6
CONTINUOUS
 62
     7
  5
13A
 10
67.13242
 20
43.461502
 30
0.0
 11
66.63242
 21
43.461502
 31
0.0
  0
LINE
  8
LC-001-101-D10-0
  6
CONTINUOUS
 62
     7
  5
13B
 10
66.63242
 20
43.461502
 30
0.0
 11
66.63242
 21
41.461502
 31
0.0
  0
LINE
  8
LC-004-100-D10-0
  6
CONTINUOUS
 62
     7
  5
13C
 10
67.13242
 20
96.461502
 30
0.0
 11
67.13242
 21
43.461502
 31
0.0
  0
LINE
  8
LC-001-101-D10-0
  6
DIVIDE
  5
13D
 10
114.13242
 20
38.957452
 30
0.0
 11
114.13242
 21
110.736716
 31
0.0
  0
LINE
  8
LC-004-100-D10-0
  6
CONTINUOUS
 62
     7
  5
13E
 10
159.33242
 20
41.461502
 30
0.0
 11
146.13242
 21
41.461502
 31
0.0
  0
LINE
  8
LC-004-100-D10-0
  6
CONTINUOUS
 62
     7
  5
13F
 10
68.93242
 20
41.461502
 30
0.0
 11
66.63242
 21
41.461502
 31
0.0
  0
LINE
  8
LC-004-100-D10-0
  6
CONTINUOUS
 62
     7
  5
140
 10
82.13242
 20
41.461502
 30
0.0
 11
68.93242
 21
41.461502
 31
0.0
  0
ARC
  8
LC-004-100-D10-0
  6
CONTINUOUS
 62
     7
  5
141
 10
149.13242
 20
96.461502
 30
0.0
 40
12.0
 50
0.0
 51
90.0
  0
ARC
  8
LC-004-100-D10-0
  6
CONTINUOUS
 62
     7
  5
142
 10
79.13242
 20
96.461502
 30
0.0
 40
12.0
 50
90.0
 51
180.0
  0
ARC
  8
LC-001-101-D10-0
  6
CONTINUOUS
 62
     7
  5
143
 10
149.13242
 20
96.461502
 30
0.0
 40
10.2
 50
0.0
 51
90.0
  0
ARC
  8
LC-001-101-D10-0
  6
CONTINUOUS
 62
     7
  5
144
 10
79.13242
 20
96.461502
 30
0.0
 40
10.2
 50
90.0
 51
180.0
  0
LINE
  8
LC-004-100-D10-0
  6
CONTINUOUS
  5
145
 10
159.927226
 20
41.461502
 30
0.0
 11
161.63242
 21
43.166696
 31
0.0
  0
LINE
  8
LC-004-100-D10-0
  6
CONTINUOUS
  5
146
 10
159.33242
 20
45.109337
 30
0.0
 11
161.13242
 21
46.909337
 31
0.0
  0
LINE
  8
LC-004-100-D10-0
  6
CONTINUOUS
  5
147
 10
159.33242
 20
49.351978
 30
0.0
 11
161.13242
 21
51.151978
 31
0.0
  0
LINE
  8
LC-004-100-D10-0
  6
CONTINUOUS
  5
148
 10
159.33242
 20
53.594618
 30
0.0
 11
161.13242
 21
55.394618
 31
0.0
  0
LINE
  8
LC-004-100-D10-0
  6
CONTINUOUS
  5
149
 10
159.33242
 20
57.837259
 30
0.0
 11
161.13242
 21
59.637259
 31
0.0
  0
LINE
  8
LC-004-100-D10-0
  6
CONTINUOUS
  5
14A
 10
159.33242
 20
62.0799
 30
0.0
 11
161.13242
 21
63.8799
 31
0.0
  0
LINE
  8
LC-004-100-D10-0
  6
CONTINUOUS
  5
14B
 10
159.33242
 20
66.32254
 30
0.0
 11
161.13242
 21
68.12254
 31
0.0
  0
LINE
  8
LC-004-100-D10-0
  6
CONTINUOUS
  5
14C
 10
159.33242
 20
70.565181
 30
0.0
 11
161.13242
 21
72.365181
 31
0.0
  0
LINE
  8
LC-004-100-D10-0
  6
CONTINUOUS
  5
14D
 10
159.33242
 20
74.807822
 30
0.0
 11
161.13242
 21
76.607822
 31
0.0
  0
LINE
  8
LC-004-100-D10-0
  6
CONTINUOUS
  5
14E
 10
159.33242
 20
79.050462
 30
0.0
 11
161.13242
 21
80.850462
 31
0.0
  0
LINE
  8
LC-004-100-D10-0
  6
CONTINUOUS
  5
14F
 10
159.33242
 20
83.293103
 30
0.0
 11
161.13242
 21
85.093103
 31
0.0
  0
LINE
  8
LC-004-100-D10-0
  6
CONTINUOUS
  5
150
 10
159.33242
 20
87.535744
 30
0.0
 11
161.13242
 21
89.335744
 31
0.0
  0
LINE
  8
LC-004-100-D10-0
  6
CONTINUOUS
  5
151
 10
159.33242
 20
91.778384
 30
0.0
 11
161.13242
 21
93.578384
 31
0.0
  0
LINE
  8
LC-004-100-D10-0
  6
CONTINUOUS
  5
152
 10
159.33242
 20
96.021025
 30
0.0
 11
161.062883
 21
97.751488
 31
0.0
  0
LINE
  8
LC-004-100-D10-0
  6
CONTINUOUS
  5
153
 10
158.795619
 20
99.726864
 30
0.0
 11
160.190532
 21
101.121777
 31
0.0
  0
LINE
  8
LC-004-100-D10-0
  6
CONTINUOUS
  5
154
 10
157.341552
 20
102.515439
 30
0.0
 11
158.626596
 21
103.800482
 31
0.0
  0
LINE
  8
LC-004-100-D10-0
  6
CONTINUOUS
  5
155
 10
155.225268
 20
104.641795
 30
0.0
 11
156.509543
 21
105.92607
 31
0.0
  0
LINE
  8
LC-004-100-D10-0
  6
CONTINUOUS
  5
156
 10
152.448311
 20
106.107479
 30
0.0
 11
153.840274
 21
107.499442
 31
0.0
  0
LINE
  8
LC-004-100-D10-0
  6
CONTINUOUS
  5
157
 10
148.759693
 20
106.661502
 30
0.0
 11
150.483403
 21
108.385211
 31
0.0
  0
LINE
  8
LC-004-100-D10-0
  6
CONTINUOUS
  5
158
 10
144.517053
 20
106.661502
 30
0.0
 11
146.317053
 21
108.461502
 31
0.0
  0
LINE
  8
LC-004-100-D10-0
  6
CONTINUOUS
  5
159
 10
140.274412
 20
106.661502
 30
0.0
 11
142.074412
 21
108.461502
 31
0.0
  0
LINE
  8
LC-004-100-D10-0
  6
CONTINUOUS
  5
15A
 10
136.031771
 20
106.661502
 30
0.0
 11
137.831771
 21
108.461502
 31
0.0
  0
LINE
  8
LC-004-100-D10-0
  6
CONTINUOUS
  5
15B
 10
66.63242
 20
41.504791
 30
0.0
 11
68.93242
 21
43.804791
 31
0.0
  0
LINE
  8
LC-004-100-D10-0
  6
CONTINUOUS
  5
15C
 10
131.789131
 20
106.661502
 30
0.0
 11
133.589131
 21
108.461502
 31
0.0
  0
LINE
  8
LC-004-100-D10-0
  6
CONTINUOUS
  5
15D
 10
67.13242
 20
46.247432
 30
0.0
 11
68.93242
 21
48.047432
 31
0.0
  0
LINE
  8
LC-004-100-D10-0
  6
CONTINUOUS
  5
15E
 10
127.54649
 20
106.661502
 30
0.0
 11
129.34649
 21
108.461502
 31
0.0
  0
LINE
  8
LC-004-100-D10-0
  6
CONTINUOUS
  5
15F
 10
67.13242
 20
50.490073
 30
0.0
 11
68.93242
 21
52.290073
 31
0.0
  0
LINE
  8
LC-004-100-D10-0
  6
CONTINUOUS
  5
160
 10
123.303849
 20
106.661502
 30
0.0
 11
125.103849
 21
108.461502
 31
0.0
  0
LINE
  8
LC-004-100-D10-0
  6
CONTINUOUS
  5
161
 10
67.13242
 20
54.732713
 30
0.0
 11
68.93242
 21
56.532713
 31
0.0
  0
LINE
  8
LC-004-100-D10-0
  6
CONTINUOUS
  5
162
 10
119.061208
 20
106.661502
 30
0.0
 11
120.861208
 21
108.461502
 31
0.0
  0
LINE
  8
LC-004-100-D10-0
  6
CONTINUOUS
  5
163
 10
67.13242
 20
58.975354
 30
0.0
 11
68.93242
 21
60.775354
 31
0.0
  0
LINE
  8
LC-004-100-D10-0
  6
CONTINUOUS
  5
164
 10
114.818568
 20
106.661502
 30
0.0
 11
116.618568
 21
108.461502
 31
0.0
  0
LINE
  8
LC-004-100-D10-0
  6
CONTINUOUS
  5
165
 10
67.13242
 20
63.217995
 30
0.0
 11
68.93242
 21
65.017995
 31
0.0
  0
LINE
  8
LC-004-100-D10-0
  6
CONTINUOUS
  5
166
 10
110.575927
 20
106.661502
 30
0.0
 11
112.375927
 21
108.461502
 31
0.0
  0
LINE
  8
LC-004-100-D10-0
  6
CONTINUOUS
  5
167
 10
67.13242
 20
67.460635
 30
0.0
 11
68.93242
 21
69.260635
 31
0.0
  0
LINE
  8
LC-004-100-D10-0
  6
CONTINUOUS
  5
168
 10
106.333286
 20
106.661502
 30
0.0
 11
108.133286
 21
108.461502
 31
0.0
  0
LINE
  8
LC-004-100-D10-0
  6
CONTINUOUS
  5
169
 10
67.13242
 20
71.703276
 30
0.0
 11
68.93242
 21
73.503276
 31
0.0
  0
LINE
  8
LC-004-100-D10-0
  6
CONTINUOUS
  5
16A
 10
102.090646
 20
106.661502
 30
0.0
 11
103.890646
 21
108.461502
 31
0.0
  0
LINE
  8
LC-004-100-D10-0
  6
CONTINUOUS
  5
16B
 10
67.13242
 20
75.945917
 30
0.0
 11
68.93242
 21
77.745917
 31
0.0
  0
LINE
  8
LC-004-100-D10-0
  6
CONTINUOUS
  5
16C
 10
97.848005
 20
106.661502
 30
0.0
 11
99.648005
 21
108.461502
 31
0.0
  0
LINE
  8
LC-004-100-D10-0
  6
CONTINUOUS
  5
16D
 10
67.13242
 20
80.188558
 30
0.0
 11
68.93242
 21
81.988558
 31
0.0
  0
LINE
  8
LC-004-100-D10-0
  6
CONTINUOUS
  5
16E
 10
93.605364
 20
106.661502
 30
0.0
 11
95.405364
 21
108.461502
 31
0.0
  0
LINE
  8
LC-004-100-D10-0
  6
CONTINUOUS
  5
16F
 10
67.13242
 20
84.431198
 30
0.0
 11
68.93242
 21
86.231198
 31
0.0
  0
LINE
  8
LC-004-100-D10-0
  6
CONTINUOUS
  5
170
 10
89.362724
 20
106.661502
 30
0.0
 11
91.162724
 21
108.461502
 31
0.0
  0
LINE
  8
LC-004-100-D10-0
  6
CONTINUOUS
  5
171
 10
67.13242
 20
88.673839
 30
0.0
 11
68.93242
 21
90.473839
 31
0.0
  0
LINE
  8
LC-004-100-D10-0
  6
CONTINUOUS
  5
172
 10
85.120083
 20
106.661502
 30
0.0
 11
86.920083
 21
108.461502
 31
0.0
  0
LINE
  8
LC-004-100-D10-0
  6
CONTINUOUS
  5
173
 10
67.13242
 20
92.91648
 30
0.0
 11
68.93242
 21
94.71648
 31
0.0
  0
LINE
  8
LC-004-100-D10-0
  6
CONTINUOUS
  5
174
 10
80.877442
 20
106.661502
 30
0.0
 11
82.677442
 21
108.461502
 31
0.0
  0
LINE
  8
LC-004-100-D10-0
  6
CONTINUOUS
  5
175
 10
67.153991
 20
97.180691
 30
0.0
 11
69.36124
 21
99.38794
 31
0.0
  0
LINE
  8
LC-004-100-D10-0
  6
CONTINUOUS
  5
176
 10
76.205982
 20
106.232682
 30
0.0
 11
78.413231
 21
108.439931
 31
0.0
  0
LINE
  8
LC-004-100-D10-0
  6
CONTINUOUS
  5
177
 10
70.155433
 20
104.424774
 30
0.0
 11
71.169148
 21
105.438489
 31
0.0
  0
ENDBLK
  8
0
  5
178
  0
BLOCK
  8
0
  5
17A
  2
*D6
 70
    65
 10
0.0
 20
0.0
 30
0.0
  3
*D6
  0
LINE
  8
LC-004-100-D10-0
  6
CONTINUOUS
 62
     7
  5
17B
 10
33.33242
 20
116.461502
 30
0.0
 11
30.83242
 21
116.461502
 31
0.0
  0
LINE
  8
LC-004-100-D10-0
  6
CONTINUOUS
 62
     7
  5
17C
 10
33.33242
 20
112.461502
 30
0.0
 11
30.83242
 21
112.461502
 31
0.0
  0
LINE
  8
LC-004-100-D10-0
  6
CONTINUOUS
 62
     7
  5
17D
 10
197.43242
 20
116.461502
 30
0.0
 11
194.93242
 21
116.461502
 31
0.0
  0
LINE
  8
LC-004-100-D10-0
  6
CONTINUOUS
 62
     7
  5
17E
 10
197.43242
 20
112.461502
 30
0.0
 11
194.93242
 21
112.461502
 31
0.0
  0
ARC
  8
LC-004-100-D10-0
  6
CONTINUOUS
 62
     7
  5
17F
 10
30.83242
 20
114.461502
 30
0.0
 40
2.0
 50
270.0
 51
90.0
  0
ARC
  8
LC-004-100-D10-0
  6
CONTINUOUS
 62
     7
  5
180
 10
197.43242
 20
114.461502
 30
0.0
 40
2.0
 50
90.0
 51
270.0
  0
ARC
  8
LC-004-100-D10-0
  6
CONTINUOUS
 62
     7
  5
181
 10
30.83242
 20
114.461502
 30
0.0
 40
2.0
 50
90.0
 51
270.0
  0
ARC
  8
LC-004-100-D10-0
  6
CONTINUOUS
 62
     7
  5
182
 10
197.43242
 20
114.461502
 30
0.0
 40
2.0
 50
270.0
 51
90.0
  0
ENDBLK
  8
0
  5
183
  0
ENDSEC
  0
SECTION
  2
ENTITIES
  0
VIEWPORT
  8
LC-000
  5
18C
 67
     1
 68
     1
 10
420.0
 20
297.0
 30
0.0
 40
840.0
 41
594.0
 69
     1
1001
ACAD
1000
MVIEW
1002
{
1070
    16
1010
0.0
1020
0.0
1030
0.0
1010
0.0
1020
0.0
1030
1.0
1040
0.0
1040
594.0
1040
420.0
1040
297.0
1040
50.0
1040
0.0
1040
0.0
1070
     0
1070
   100
1070
     1
1070
     1
1070
     0
1070
     0
1070
     0
1070
     0
1040
0.0
1040
0.0
1040
0.0
1040
1.0
1040
1.0
1040
0.0
1040
0.0
1070
     0
1002
{
1002
}
1002
}
  0
VIEWPORT
  8
0
  5
18D
 67
     1
 68
     1
 10
0.0
 20
0.0
 30
0.0
 40
0.0
 41
0.0
 69
     1
1001
ACAD
1000
MVIEW
1002
{
1070
    16
1010
0.0
1020
0.0
1030
0.0
1010
0.0
1020
0.0
1030
1.0
1040
0.0
1040
594.0
1040
0.0
1040
0.0
1040
50.0
1040
0.0
1040
0.0
1070
     0
1070
   100
1070
     0
1070
     1
1070
     0
1070
     0
1070
     0
1070
     0
1040
0.0
1040
0.0
1040
0.0
1040
0.5
1040
0.5
1040
0.5
1040
0.5
1070
     0
1002
{
1002
}
1002
}
  0
DIMENSION
  8
LC-001-101-D10-0
  6
CONTINUOUS
  5
184
  2
*D0
 10
19.6
 20
66.461502
 30
0.0
 11
19.6
 21
66.461502
 31
0.0
 13
68.93242
 23
41.461502
 33
0.0
 14
82.13242
 24
91.461502
 34
0.0
 50
90.0
  3
LC-DIM-L-0070-02-02
  0
DIMENSION
  8
LC-004-100-D10-0
  6
CONTINUOUS
  5
185
  2
*D1
 10
0.0
 20
74.461502
 30
0.0
 11
0.0
 21
74.461502
 31
0.0
 13
61.13242
 23
24.461502
 33
0.0
 14
26.13242
 24
124.461502
 34
0.0
 50
90.0
  3
LC-DIM-L-0070-02-02
  0
INSERT
  8
LC-004-100-D10-0
  6
CONTINUOUS
  5
186
  2
*D2
 10
0.0
 20
0.0
 30
0.0
  0
INSERT
  8
LC-004-100-D10-0
  6
CONTINUOUS
 62
     1
  5
187
  2
*D3
 10
0.0
 20
0.0
 30
0.0
  0
INSERT
  8
LC-004-100-D10-0
  6
CONTINUOUS
  5
188
  2
*D4
 10
0.0
 20
0.0
 30
0.0
  0
INSERT
  8
LC-004-100-D10-0
  6
CONTINUOUS
  5
189
  2
*D5
 10
0.0
 20
0.0
 30
0.0
  0
INSERT
  8
LC-004-100-D10-0
  6
CONTINUOUS
 62
     7
  5
18A
  2
*D6
 10
0.0
 20
0.0
 30
0.0
  0
ENDSEC
  0
EOF
