  0
SECTION
  2
HEADER
  9
$ACADVER
  1
AC1015
  9
$ACADMAINTVER
 70
     6
  9
$DWGCODEPAGE
  3
DOS850
  9
$INSBASE
 10
0.0
 20
0.0
 30
0.0
  9
$EXTMIN
 10
-231.687089
 20
-82.014
 30
0.0
  9
$EXTMAX
 10
956.312911
 20
757.986
 30
0.0
  9
$LIMMIN
 10
-231.687089
 20
-82.014
  9
$LIMMAX
 10
956.312911
 20
757.986
  9
$ORTHOMODE
 70
     0
  9
$REGENMODE
 70
     1
  9
$FILLMODE
 70
     1
  9
$QTEXTMODE
 70
     0
  9
$MIRRTEXT
 70
     1
  9
$LTSCALE
 40
2.0
  9
$ATTMODE
 70
     1
  9
$TEXTSIZE
 40
2.5
  9
$TRACEWID
 40
1.0
  9
$TEXTSTYLE
  7
Standard
  9
$CLAYER
  8
0
  9
$CELTYPE
  6
ByLayer
  9
$CECOLOR
 62
     7
  9
$CELTSCALE
 40
1.0
  9
$DISPSILH
 70
     0
  9
$DIMSCALE
 40
2.0
  9
$DIMASZ
 40
3.5
  9
$DIMEXO
 40
0.625
  9
$DIMDLI
 40
3.75
  9
$DIMRND
 40
0.0
  9
$DIMDLE
 40
0.0
  9
$DIMEXE
 40
1.25
  9
$DIMTP
 40
0.0
  9
$DIMTM
 40
0.0
  9
$DIMTXT
 40
3.5
  9
$DIMCEN
 40
2.5
  9
$DIMTSZ
 40
0.0
  9
$DIMTOL
 70
     0
  9
$DIMLIM
 70
     0
  9
$DIMTIH
 70
     0
  9
$DIMTOH
 70
     0
  9
$DIMSE1
 70
     0
  9
$DIMSE2
 70
     0
  9
$DIMTAD
 70
     1
  9
$DIMZIN
 70
     8
  9
$DIMBLK
  1

  9
$DIMASO
 70
     1
  9
$DIMSHO
 70
     1
  9
$DIMPOST
  1

  9
$DIMAPOST
  1

  9
$DIMALT
 70
     0
  9
$DIMALTD
 70
     3
  9
$DIMALTF
 40
0.03937
  9
$DIMLFAC
 40
1.0
  9
$DIMTOFL
 70
     1
  9
$DIMTVP
 40
0.0
  9
$DIMTIX
 70
     0
  9
$DIMSOXD
 70
     0
  9
$DIMSAH
 70
     0
  9
$DIMBLK1
  1

  9
$DIMBLK2
  1

  9
$DIMSTYLE
  2
ISO-25
  9
$DIMCLRD
 70
     0
  9
$DIMCLRE
 70
     0
  9
$DIMCLRT
 70
     0
  9
$DIMTFAC
 40
1.0
  9
$DIMGAP
 40
0.625
  9
$DIMJUST
 70
     0
  9
$DIMSD1
 70
     0
  9
$DIMSD2
 70
     0
  9
$DIMTOLJ
 70
     0
  9
$DIMTZIN
 70
     8
  9
$DIMALTZ
 70
     0
  9
$DIMALTTZ
 70
     0
  9
$DIMUPT
 70
     0
  9
$DIMDEC
 70
     2
  9
$DIMTDEC
 70
     2
  9
$DIMALTU
 70
     2
  9
$DIMALTTD
 70
     3
  9
$DIMTXSTY
  7
Standard
  9
$DIMAUNIT
 70
     0
  9
$DIMADEC
 70
     0
  9
$DIMALTRND
 40
0.0
  9
$DIMAZIN
 70
     0
  9
$DIMDSEP
 70
    44
  9
$DIMATFIT
 70
     3
  9
$DIMFRAC
 70
     0
  9
$DIMLDRBLK
  1

  9
$DIMLUNIT
 70
     2
  9
$DIMLWD
 70
    -2
  9
$DIMLWE
 70
    -2
  9
$DIMTMOVE
 70
     0
  9
$LUNITS
 70
     2
  9
$LUPREC
 70
     4
  9
$SKETCHINC
 40
1.0
  9
$FILLETRAD
 40
10.0
  9
$AUNITS
 70
     0
  9
$AUPREC
 70
     0
  9
$MENU
  1
.
  9
$ELEVATION
 40
0.0
  9
$PELEVATION
 40
0.0
  9
$THICKNESS
 40
0.0
  9
$LIMCHECK
 70
     0
  9
$CHAMFERA
 40
10.0
  9
$CHAMFERB
 40
10.0
  9
$CHAMFERC
 40
20.0
  9
$CHAMFERD
 40
0.0
  9
$SKPOLY
 70
     0
  9
$TDCREATE
 40
2454665.595798889
  9
$TDUCREATE
 40
2454665.512465556
  9
$TDUPDATE
 40
2454665.5957989
  9
$TDUUPDATE
 40
2454665.512465567
  9
$TDINDWG
 40
0.0000000116
  9
$TDUSRTIMER
 40
0.0000000116
  9
$USRTIMER
 70
     1
  9
$ANGBASE
 50
0.0
  9
$ANGDIR
 70
     0
  9
$PDMODE
 70
     0
  9
$PDSIZE
 40
0.0
  9
$PLINEWID
 40
0.0
  9
$SPLFRAME
 70
     0
  9
$SPLINETYPE
 70
     6
  9
$SPLINESEGS
 70
     8
  9
$HANDSEED
  5
2A3
  9
$SURFTAB1
 70
     6
  9
$SURFTAB2
 70
     6
  9
$SURFTYPE
 70
     6
  9
$SURFU
 70
     6
  9
$SURFV
 70
     6
  9
$UCSBASE
  2

  9
$UCSNAME
  2

  9
$UCSORG
 10
0.0
 20
0.0
 30
0.0
  9
$UCSXDIR
 10
1.0
 20
0.0
 30
0.0
  9
$UCSYDIR
 10
0.0
 20
1.0
 30
0.0
  9
$UCSORTHOREF
  2

  9
$UCSORTHOVIEW
 70
     0
  9
$UCSORGTOP
 10
0.0
 20
0.0
 30
0.0
  9
$UCSORGBOTTOM
 10
0.0
 20
0.0
 30
0.0
  9
$UCSORGLEFT
 10
0.0
 20
0.0
 30
0.0
  9
$UCSORGRIGHT
 10
0.0
 20
0.0
 30
0.0
  9
$UCSORGFRONT
 10
0.0
 20
0.0
 30
0.0
  9
$UCSORGBACK
 10
0.0
 20
0.0
 30
0.0
  9
$PUCSBASE
  2

  9
$PUCSNAME
  2

  9
$PUCSORG
 10
0.0
 20
0.0
 30
0.0
  9
$PUCSXDIR
 10
1.0
 20
0.0
 30
0.0
  9
$PUCSYDIR
 10
0.0
 20
1.0
 30
0.0
  9
$PUCSORTHOREF
  2

  9
$PUCSORTHOVIEW
 70
     0
  9
$PUCSORGTOP
 10
0.0
 20
0.0
 30
0.0
  9
$PUCSORGBOTTOM
 10
0.0
 20
0.0
 30
0.0
  9
$PUCSORGLEFT
 10
0.0
 20
0.0
 30
0.0
  9
$PUCSORGRIGHT
 10
0.0
 20
0.0
 30
0.0
  9
$PUCSORGFRONT
 10
0.0
 20
0.0
 30
0.0
  9
$PUCSORGBACK
 10
0.0
 20
0.0
 30
0.0
  9
$USERI1
 70
     0
  9
$USERI2
 70
     0
  9
$USERI3
 70
     0
  9
$USERI4
 70
     0
  9
$USERI5
 70
     0
  9
$USERR1
 40
0.0
  9
$USERR2
 40
0.0
  9
$USERR3
 40
0.0
  9
$USERR4
 40
0.0
  9
$USERR5
 40
0.0
  9
$WORLDVIEW
 70
     1
  9
$SHADEDGE
 70
     3
  9
$SHADEDIF
 70
    70
  9
$TILEMODE
 70
     1
  9
$MAXACTVP
 70
    64
  9
$PINSBASE
 10
0.0
 20
0.0
 30
0.0
  9
$PLIMCHECK
 70
     0
  9
$PEXTMIN
 10
-231.687089
 20
-82.014
 30
0.0
  9
$PEXTMAX
 10
956.312911
 20
757.986
 30
0.0
  9
$PLIMMIN
 10
-231.687089
 20
-82.014
  9
$PLIMMAX
 10
956.312911
 20
757.986
  9
$UNITMODE
 70
     0
  9
$VISRETAIN
 70
     1
  9
$PLINEGEN
 70
     0
  9
$PSLTSCALE
 70
     1
  9
$TREEDEPTH
 70
  3020
  9
$CMLSTYLE
  2
Standard
  9
$CMLJUST
 70
     0
  9
$CMLSCALE
 40
20.0
  9
$PROXYGRAPHICS
 70
     1
  9
$MEASUREMENT
 70
     1
  9
$CELWEIGHT
370
    -1
  9
$ENDCAPS
280
     0
  9
$JOINSTYLE
280
     0
  9
$LWDISPLAY
290
     0
  9
$INSUNITS
 70
     4
  9
$HYPERLINKBASE
  1

  9
$STYLESHEET
  1

  9
$XEDIT
290
     1
  9
$CEPSNTYPE
380
     0
  9
$PSTYLEMODE
290
     1
  9
$FINGERPRINTGUID
  2
{FAEB1C30-E019-11D5-929B-00C0DF256EC4}
  9
$VERSIONGUID
  2
{FAEB1C32-E019-11D5-929B-00C0DF256EC4}
  9
$EXTNAMES
290
     1
  9
$PSVPSCALE
 40
0.0
  9
$OLESTARTUP
290
     0
  0
ENDSEC
  0
SECTION
  2
CLASSES
  0
CLASS
  1
ACDBDICTIONARYWDFLT
  2
AcDbDictionaryWithDefault
  3
ObjectDBX Classes
 90
        0
280
     0
281
     0
  0
CLASS
  1
ACDBPLACEHOLDER
  2
AcDbPlaceHolder
  3
ObjectDBX Classes
 90
        0
280
     0
281
     0
  0
CLASS
  1
LAYOUT
  2
AcDbLayout
  3
ObjectDBX Classes
 90
        0
280
     0
281
     0
  0
ENDSEC
  0
SECTION
  2
TABLES
  0
TABLE
  2
VPORT
  5
8
330
0
100
AcDbSymbolTable
 70
     2
  0
VPORT
  5
29
330
8
100
AcDbSymbolTableRecord
100
AcDbViewportTableRecord
  2
*ACTIVE
 70
     0
 10
0.0
 20
0.0
 11
1.0
 21
1.0
 12
362.312911
 22
337.986
 13
0.0
 23
0.0
 14
1.0
 24
1.0
 15
0.0
 25
0.0
 16
0.0
 26
0.0
 36
1.0
 17
0.0
 27
0.0
 37
0.0
 40
840.0
 41
1.414286
 42
50.0
 43
0.0
 44
0.0
 50
0.0
 51
0.0
 71
    16
 72
   100
 73
     1
 74
     0
 75
     0
 76
     0
 77
     0
 78
     0
281
     0
 65
     0
110
0.0
120
0.0
130
0.0
111
1.0
121
0.0
131
0.0
112
0.0
122
1.0
132
0.0
 79
     0
146
0.0
  0
ENDTAB
  0
TABLE
  2
LTYPE
  5
5
330
0
100
AcDbSymbolTable
 70
     4
  0
LTYPE
  5
14
330
5
100
AcDbSymbolTableRecord
100
AcDbLinetypeTableRecord
  2
ByBlock
 70
     0
  3

 72
    65
 73
     0
 40
0.0
  0
LTYPE
  5
15
330
5
100
AcDbSymbolTableRecord
100
AcDbLinetypeTableRecord
  2
ByLayer
 70
     0
  3

 72
    65
 73
     0
 40
0.0
  0
LTYPE
  5
16
330
5
100
AcDbSymbolTableRecord
100
AcDbLinetypeTableRecord
  2
Continuous
 70
     0
  3
Solid line
 72
    65
 73
     0
 40
0.0
  0
LTYPE
  5
2A
330
5
100
AcDbSymbolTableRecord
100
AcDbLinetypeTableRecord
  2
DASHED
 70
     0
  3
__ __ __ __ __
 72
    65
 73
     2
 40
6.25
 49
5.0
 74
     4
 75
     0
340
0
 46
1.0
 50
0.0
 44
0.0
 45
0.0
 49
-1.25
 74
     4
 75
     0
340
0
 46
1.0
 50
0.0
 44
0.0
 45
0.0
  0
LTYPE
  5
35
330
5
100
AcDbSymbolTableRecord
100
AcDbLinetypeTableRecord
  2
DASHDOT
 70
     0
  3
__ . __ . __ . __ . __
 72
    65
 73
     4
 40
7.5
 49
5.0
 74
     4
 75
     0
340
0
 46
1.0
 50
0.0
 44
0.0
 45
0.0
 49
-1.25
 74
     4
 75
     0
340
0
 46
1.0
 50
0.0
 44
0.0
 45
0.0
 49
0.0
 74
     4
 75
     0
340
0
 46
1.0
 50
0.0
 44
0.0
 45
0.0
 49
-1.25
 74
     4
 75
     0
340
0
 46
1.0
 50
0.0
 44
0.0
 45
0.0
  0
LTYPE
  5
DE
330
5
100
AcDbSymbolTableRecord
100
AcDbLinetypeTableRecord
  2
CENTER
 70
     0
  3
__ . __ . __ . __ . __
 72
    65
 73
     4
 40
7.5
 49
5.0
 74
     4
 75
     0
340
0
 46
1.0
 50
0.0
 44
0.0
 45
0.0
 49
-1.25
 74
     4
 75
     0
340
0
 46
1.0
 50
0.0
 44
0.0
 45
0.0
 49
0.0
 74
     4
 75
     0
340
0
 46
1.0
 50
0.0
 44
0.0
 45
0.0
 49
-1.25
 74
     4
 75
     0
340
0
 46
1.0
 50
0.0
 44
0.0
 45
0.0
  0
ENDTAB
  0
TABLE
  2
LAYER
  5
2
330
0
100
AcDbSymbolTable
 70
    11
  0
LAYER
  5
10
330
2
100
AcDbSymbolTableRecord
100
AcDbLayerTableRecord
  2
0
 70
     0
 62
     7
  6
Continuous
370
    -3
390
F
  0
LAYER
  5
2B
330
2
100
AcDbSymbolTableRecord
100
AcDbLayerTableRecord
  2
LC-INFO-1-2-mm-A2-0
 70
     1
 62
     7
  6
ByBlock
370
    -3
390
F
  0
LAYER
  5
2C
330
2
100
AcDbSymbolTableRecord
100
AcDbLayerTableRecord
  2
LC-CUT-HIDDEN
 70
     0
 62
     7
  6
DASHED
370
    -3
390
F
  0
LAYER
  5
2D
330
2
100
AcDbSymbolTableRecord
100
AcDbLayerTableRecord
  2
LC-VIEWPORT
 70
     0
 62
     7
  6
ByBlock
370
    -3
390
F
  0
LAYER
  5
2E
330
2
100
AcDbSymbolTableRecord
100
AcDbLayerTableRecord
  2
LC-3D-HIDDEN
 70
     0
 62
     9
  6
DASHED
370
    -3
390
F
  0
LAYER
  5
31
330
2
100
AcDbSymbolTableRecord
100
AcDbLayerTableRecord
  2
LC-001-002-RND-0
 70
     0
 62
     1
  6
ByBlock
370
    -3
390
F
  0
LAYER
  5
33
330
2
100
AcDbSymbolTableRecord
100
AcDbLayerTableRecord
  2
LC-002-002-----0
 70
     0
 62
     1
  6
ByBlock
370
    -3
390
F
  0
LAYER
  5
BD
330
2
100
AcDbSymbolTableRecord
100
AcDbLayerTableRecord
  2
LC-003-001-----0
 70
     0
 62
     1
  6
ByBlock
370
    -3
390
F
  0
LAYER
  5
DF
330
2
100
AcDbSymbolTableRecord
100
AcDbLayerTableRecord
  2
LC-004-006-MLN-0
 70
     0
 62
     2
  6
CENTER
370
    -3
390
F
  0
LAYER
  5
E4
330
2
100
AcDbSymbolTableRecord
100
AcDbLayerTableRecord
  2
LC-005-003-----0
 70
     0
 62
     2
  6
ByBlock
370
    -3
390
F
  0
LAYER
  5
E6
330
2
100
AcDbSymbolTableRecord
100
AcDbLayerTableRecord
  2
Defpoints
 70
     0
 62
     7
  6
Continuous
290
     0
370
    -3
390
F
  0
ENDTAB
  0
TABLE
  2
STYLE
  5
3
330
0
100
AcDbSymbolTable
 70
     4
  0
STYLE
  5
11
330
3
100
AcDbSymbolTableRecord
100
AcDbTextStyleTableRecord
  2
Standard
 70
     0
 40
0.0
 41
1.0
 50
0.0
 71
     0
 42
2.5
  3
txt
  4

  0
STYLE
  5
2F
330
3
100
AcDbSymbolTableRecord
100
AcDbTextStyleTableRecord
  2
LCTX15-400-0-0-Arial
 70
     0
 40
0.0
 41
0.9
 50
0.0
 71
     0
 42
3.5
  3

  4

1001
ACAD
1000
Arial
1071
 16777218
  0
STYLE
  5
30
330
3
100
AcDbSymbolTableRecord
100
AcDbTextStyleTableRecord
  2
LCTX0-0-0-0-DIN-Schrift
 70
     0
 40
0.0
 41
0.8
 50
0.0
 71
     0
 42
3.5
  3
MONOTXT
  4

  0
STYLE
  5
E2
330
3
100
AcDbSymbolTableRecord
100
AcDbTextStyleTableRecord
  2
LCTX15-400-0-0pDIN-Schrift
 70
     0
 40
2.5
 41
0.8
 50
15.0
 71
     0
 42
3.5
  3
STANDARD
  4

  0
ENDTAB
  0
TABLE
  2
VIEW
  5
6
330
0
100
AcDbSymbolTable
 70
     0
  0
ENDTAB
  0
TABLE
  2
UCS
  5
7
330
0
100
AcDbSymbolTable
 70
     0
  0
ENDTAB
  0
TABLE
  2
APPID
  5
9
330
0
100
AcDbSymbolTable
 70
     1
  0
APPID
  5
12
330
9
100
AcDbSymbolTableRecord
100
AcDbRegAppTableRecord
  2
ACAD
 70
     0
  0
ENDTAB
  0
TABLE
  2
DIMSTYLE
  5
A
330
0
100
AcDbSymbolTable
 70
     2
100
AcDbDimStyleTable
  0
DIMSTYLE
105
27
330
A
100
AcDbSymbolTableRecord
100
AcDbDimStyleTableRecord
  2
ISO-25
 70
     0
 41
2.5
 42
0.625
 43
3.75
 44
1.25
 73
     0
 74
     0
 77
     1
 78
     8
140
2.5
141
2.5
143
0.03937
147
0.625
171
     3
172
     1
271
     2
272
     2
274
     3
278
    44
283
     0
284
     8
340
11
  0
DIMSTYLE
105
E3
102
{ACAD_REACTORS
330
E5
330
128
330
136
330
144
330
152
330
15F
330
16E
330
285
102
}
330
A
100
AcDbSymbolTableRecord
100
AcDbDimStyleTableRecord
  2
LC-DIM-L-0140-02-02
 70
     0
 40
2.0
 41
14.0
 42
0.0
 43
7.5
 44
1.8
 73
     0
 74
     0
 77
     1
 78
     8
 79
     2
140
14.0
141
0.0
146
0.71
147
1.5
176
     2
177
     2
178
     2
179
     2
271
     2
278
    44
289
     1
340
E2
  0
ENDTAB
  0
TABLE
  2
BLOCK_RECORD
  5
1
330
0
100
AcDbSymbolTable
 70
     9
  0
BLOCK_RECORD
  5
1F
330
1
100
AcDbSymbolTableRecord
100
AcDbBlockTableRecord
  2
*Model_Space
340
22
  0
BLOCK_RECORD
  5
1B
330
1
100
AcDbSymbolTableRecord
100
AcDbBlockTableRecord
  2
*Paper_Space
340
1E
  0
BLOCK_RECORD
  5
23
330
1
100
AcDbSymbolTableRecord
100
AcDbBlockTableRecord
  2
*Paper_Space0
340
26
  0
BLOCK_RECORD
  5
E7
330
1
100
AcDbSymbolTableRecord
100
AcDbBlockTableRecord
  2
*D1
340
0
  0
BLOCK_RECORD
  5
129
330
1
100
AcDbSymbolTableRecord
100
AcDbBlockTableRecord
  2
*D2
340
0
  0
BLOCK_RECORD
  5
137
330
1
100
AcDbSymbolTableRecord
100
AcDbBlockTableRecord
  2
*D3
340
0
  0
BLOCK_RECORD
  5
145
330
1
100
AcDbSymbolTableRecord
100
AcDbBlockTableRecord
  2
*D4
340
0
  0
BLOCK_RECORD
  5
153
330
1
100
AcDbSymbolTableRecord
100
AcDbBlockTableRecord
  2
*D5
340
0
  0
BLOCK_RECORD
  5
160
330
1
100
AcDbSymbolTableRecord
100
AcDbBlockTableRecord
  2
*D6
340
0
  0
BLOCK_RECORD
  5
16F
330
1
100
AcDbSymbolTableRecord
100
AcDbBlockTableRecord
  2
*D7
340
0
  0
BLOCK_RECORD
  5
286
330
1
100
AcDbSymbolTableRecord
100
AcDbBlockTableRecord
  2
*D8
340
0
  0
ENDTAB
  0
ENDSEC
  0
SECTION
  2
BLOCKS
  0
BLOCK
  5
20
330
1F
100
AcDbEntity
  8
0
100
AcDbBlockBegin
  2
*Model_Space
 70
     0
 71
     0
 10
0.0
 20
0.0
 30
0.0
  3
*Model_Space
  1

  0
ENDBLK
  5
21
330
1F
100
AcDbEntity
  8
0
100
AcDbBlockEnd
  0
BLOCK
  5
1C
330
1B
100
AcDbEntity
 67
     1
  8
0
100
AcDbBlockBegin
  2
*Paper_Space
 70
     0
 71
     0
 10
0.0
 20
0.0
 30
0.0
  3
*Paper_Space
  1

  0
ENDBLK
  5
1D
330
1B
100
AcDbEntity
 67
     1
  8
0
100
AcDbBlockEnd
  0
BLOCK
  5
24
330
23
100
AcDbEntity
  8
0
100
AcDbBlockBegin
  2
*Paper_Space0
 70
     0
 71
     0
 10
0.0
 20
0.0
 30
0.0
  3
*Paper_Space0
  1

  0
ENDBLK
  5
25
330
23
100
AcDbEntity
  8
0
100
AcDbBlockEnd
  0
BLOCK
  5
F1
330
E7
100
AcDbEntity
  8
0
100
AcDbBlockBegin
  2
*D1
 70
     1
 71
     0
 10
0.0
 20
0.0
 30
0.0
  3
*D1
  1

  0
LINE
  5
E8
330
E7
100
AcDbEntity
  8
LC-005-003-----0
 62
     2
370
    -2
100
AcDbLine
 10
451.210789
 20
504.0
 30
0.0
 11
451.210789
 21
513.2
 31
0.0
  0
LINE
  5
E9
330
E7
100
AcDbEntity
  8
LC-005-003-----0
 62
     2
370
    -2
100
AcDbLine
 10
551.210789
 20
462.610164
 30
0.0
 11
551.210789
 21
513.2
 31
0.0
  0
LINE
  5
EA
330
E7
100
AcDbEntity
  8
LC-005-003-----0
 62
     2
370
    -2
100
AcDbLine
 10
479.210789
 20
509.6
 30
0.0
 11
523.210789
 21
509.6
 31
0.0
  0
SOLID
  5
EB
330
E7
100
AcDbEntity
  8
LC-005-003-----0
 62
     2
100
AcDbTrace
 10
479.210789
 20
514.266667
 30
0.0
 11
479.210789
 21
504.933333
 31
0.0
 12
451.210789
 22
509.6
 32
0.0
 13
451.210789
 23
509.6
 33
0.0
  0
SOLID
  5
EC
330
E7
100
AcDbEntity
  8
LC-005-003-----0
 62
     2
100
AcDbTrace
 10
523.210789
 20
504.933333
 30
0.0
 11
523.210789
 21
514.266667
 31
0.0
 12
551.210789
 22
509.6
 32
0.0
 13
551.210789
 23
509.6
 33
0.0
  0
MTEXT
  5
ED
330
E7
100
AcDbEntity
  8
LC-005-003-----0
 62
     2
100
AcDbMText
 10
501.210789
 20
540.4
 30
0.0
 40
28.0
 41
0.0
 71
     5
 72
     1
  1
\A1;100
  7
LCTX15-400-0-0pDIN-Schrift
 73
     1
 44
1.0
  0
POINT
  5
EE
330
E7
100
AcDbEntity
  8
Defpoints
 62
     0
100
AcDbPoint
 10
451.210789
 20
504.0
 30
0.0
  0
POINT
  5
EF
330
E7
100
AcDbEntity
  8
Defpoints
 62
     0
100
AcDbPoint
 10
551.210789
 20
462.610164
 30
0.0
  0
POINT
  5
F0
330
E7
100
AcDbEntity
  8
Defpoints
 62
     0
100
AcDbPoint
 10
551.210789
 20
509.6
 30
0.0
  0
ENDBLK
  5
F2
330
E7
100
AcDbEntity
  8
0
100
AcDbBlockEnd
  0
BLOCK
  5
134
330
129
100
AcDbEntity
  8
0
100
AcDbBlockBegin
  2
*D2
 70
     1
 71
     0
 10
0.0
 20
0.0
 30
0.0
  3
*D2
  1

  0
LINE
  5
12A
330
129
100
AcDbEntity
  8
LC-005-003-----0
 62
     2
370
    -2
100
AcDbLine
 10
70.329174
 20
377.209984
 30
0.0
 11
70.329174
 21
304.4
 31
0.0
  0
LINE
  5
12B
330
129
100
AcDbEntity
  8
LC-005-003-----0
 62
     2
370
    -2
100
AcDbLine
 10
167.170183
 20
375.924021
 30
0.0
 11
167.170183
 21
304.4
 31
0.0
  0
LINE
  5
12C
330
129
100
AcDbEntity
  8
LC-005-003-----0
 62
     2
370
    -2
100
AcDbLine
 10
98.329174
 20
308.0
 30
0.0
 11
139.170183
 21
308.0
 31
0.0
  0
LINE
  5
12D
330
129
100
AcDbEntity
  8
LC-005-003-----0
 62
     2
370
    -2
100
AcDbLine
 10
70.329174
 20
308.0
 30
0.0
 11
-49.738265
 21
308.0
 31
0.0
  0
SOLID
  5
12E
330
129
100
AcDbEntity
  8
LC-005-003-----0
 62
     2
100
AcDbTrace
 10
98.329174
 20
312.666667
 30
0.0
 11
98.329174
 21
303.333333
 31
0.0
 12
70.329174
 22
308.0
 32
0.0
 13
70.329174
 23
308.0
 33
0.0
  0
SOLID
  5
12F
330
129
100
AcDbEntity
  8
LC-005-003-----0
 62
     2
100
AcDbTrace
 10
139.170183
 20
303.333333
 30
0.0
 11
139.170183
 21
312.666667
 31
0.0
 12
167.170183
 22
308.0
 32
0.0
 13
167.170183
 23
308.0
 33
0.0
  0
MTEXT
  5
130
330
129
100
AcDbEntity
  8
LC-005-003-----0
 62
     2
100
AcDbMText
 10
17.631826
 20
338.8
 30
0.0
 40
28.0
 41
0.0
 71
     5
 72
     1
  1
\A1;73-120
  7
LCTX15-400-0-0pDIN-Schrift
 73
     1
 44
1.0
  0
POINT
  5
131
330
129
100
AcDbEntity
  8
Defpoints
 62
     0
100
AcDbPoint
 10
70.329174
 20
377.209984
 30
0.0
  0
POINT
  5
132
330
129
100
AcDbEntity
  8
Defpoints
 62
     0
100
AcDbPoint
 10
167.170183
 20
375.924021
 30
0.0
  0
POINT
  5
133
330
129
100
AcDbEntity
  8
Defpoints
 62
     0
100
AcDbPoint
 10
167.170183
 20
308.0
 30
0.0
  0
ENDBLK
  5
135
330
129
100
AcDbEntity
  8
0
100
AcDbBlockEnd
  0
BLOCK
  5
142
330
137
100
AcDbEntity
  8
0
100
AcDbBlockBegin
  2
*D3
 70
     1
 71
     0
 10
0.0
 20
0.0
 30
0.0
  3
*D3
  1

  0
LINE
  5
138
330
137
100
AcDbEntity
  8
LC-005-003-----0
 62
     2
370
    -2
100
AcDbLine
 10
109.670183
 20
290.53454
 30
0.0
 11
109.670183
 21
192.4
 31
0.0
  0
LINE
  5
139
330
137
100
AcDbEntity
  8
LC-005-003-----0
 62
     2
370
    -2
100
AcDbLine
 10
149.670183
 20
290.709984
 30
0.0
 11
149.670183
 21
192.4
 31
0.0
  0
LINE
  5
13A
330
137
100
AcDbEntity
  8
LC-005-003-----0
 62
     2
370
    -2
100
AcDbLine
 10
81.670183
 20
196.0
 30
0.0
 11
53.670183
 21
196.0
 31
0.0
  0
LINE
  5
13B
330
137
100
AcDbEntity
  8
LC-005-003-----0
 62
     2
370
    -2
100
AcDbLine
 10
177.670183
 20
196.0
 30
0.0
 11
277.397201
 21
196.0
 31
0.0
  0
SOLID
  5
13C
330
137
100
AcDbEntity
  8
LC-005-003-----0
 62
     2
100
AcDbTrace
 10
81.670183
 20
191.333333
 30
0.0
 11
81.670183
 21
200.666667
 31
0.0
 12
109.670183
 22
196.0
 32
0.0
 13
109.670183
 23
196.0
 33
0.0
  0
SOLID
  5
13D
330
137
100
AcDbEntity
  8
LC-005-003-----0
 62
     2
100
AcDbTrace
 10
177.670183
 20
200.666667
 30
0.0
 11
177.670183
 21
191.333333
 31
0.0
 12
149.670183
 22
196.0
 32
0.0
 13
149.670183
 23
196.0
 33
0.0
  0
MTEXT
  5
13E
330
137
100
AcDbEntity
  8
LC-005-003-----0
 62
     2
100
AcDbMText
 10
231.360443
 20
226.8
 30
0.0
 40
28.0
 41
0.0
 71
     5
 72
     1
  1
\A1;DN40
  7
LCTX15-400-0-0pDIN-Schrift
 73
     1
 44
1.0
  0
POINT
  5
13F
330
137
100
AcDbEntity
  8
Defpoints
 62
     0
100
AcDbPoint
 10
109.670183
 20
290.53454
 30
0.0
  0
POINT
  5
140
330
137
100
AcDbEntity
  8
Defpoints
 62
     0
100
AcDbPoint
 10
149.670183
 20
290.709984
 30
0.0
  0
POINT
  5
141
330
137
100
AcDbEntity
  8
Defpoints
 62
     0
100
AcDbPoint
 10
149.670183
 20
196.0
 30
0.0
  0
ENDBLK
  5
143
330
137
100
AcDbEntity
  8
0
100
AcDbBlockEnd
  0
BLOCK
  5
150
330
145
100
AcDbEntity
  8
0
100
AcDbBlockBegin
  2
*D4
 70
     1
 71
     0
 10
0.0
 20
0.0
 30
0.0
  3
*D4
  1

  0
LINE
  5
146
330
145
100
AcDbEntity
  8
LC-005-003-----0
 62
     2
370
    -2
100
AcDbLine
 10
104.670183
 20
237.709984
 30
0.0
 11
104.670183
 21
153.2
 31
0.0
  0
LINE
  5
147
330
145
100
AcDbEntity
  8
LC-005-003-----0
 62
     2
370
    -2
100
AcDbLine
 10
154.670183
 20
237.709984
 30
0.0
 11
154.670183
 21
153.2
 31
0.0
  0
LINE
  5
148
330
145
100
AcDbEntity
  8
LC-005-003-----0
 62
     2
370
    -2
100
AcDbLine
 10
76.670183
 20
156.8
 30
0.0
 11
48.670183
 21
156.8
 31
0.0
  0
LINE
  5
149
330
145
100
AcDbEntity
  8
LC-005-003-----0
 62
     2
370
    -2
100
AcDbLine
 10
182.670183
 20
156.8
 30
0.0
 11
247.827289
 21
156.8
 31
0.0
  0
SOLID
  5
14A
330
145
100
AcDbEntity
  8
LC-005-003-----0
 62
     2
100
AcDbTrace
 10
76.670183
 20
152.133333
 30
0.0
 11
76.670183
 21
161.466667
 31
0.0
 12
104.670183
 22
156.8
 32
0.0
 13
104.670183
 23
156.8
 33
0.0
  0
SOLID
  5
14B
330
145
100
AcDbEntity
  8
LC-005-003-----0
 62
     2
100
AcDbTrace
 10
182.670183
 20
161.466667
 30
0.0
 11
182.670183
 21
152.133333
 31
0.0
 12
154.670183
 22
156.8
 32
0.0
 13
154.670183
 23
156.8
 33
0.0
  0
MTEXT
  5
14C
330
145
100
AcDbEntity
  8
LC-005-003-----0
 62
     2
100
AcDbMText
 10
201.790531
 20
187.6
 30
0.0
 40
28.0
 41
0.0
 71
     5
 72
     1
  1
\A1;DN50
  7
LCTX15-400-0-0pDIN-Schrift
 73
     1
 44
1.0
  0
POINT
  5
14D
330
145
100
AcDbEntity
  8
Defpoints
 62
     0
100
AcDbPoint
 10
104.670183
 20
237.709984
 30
0.0
  0
POINT
  5
14E
330
145
100
AcDbEntity
  8
Defpoints
 62
     0
100
AcDbPoint
 10
154.670183
 20
237.709984
 30
0.0
  0
POINT
  5
14F
330
145
100
AcDbEntity
  8
Defpoints
 62
     0
100
AcDbPoint
 10
154.670183
 20
156.8
 30
0.0
  0
ENDBLK
  5
151
330
145
100
AcDbEntity
  8
0
100
AcDbBlockEnd
  0
BLOCK
  5
15D
330
153
100
AcDbEntity
  8
0
100
AcDbBlockBegin
  2
*D5
 70
     1
 71
     0
 10
0.0
 20
0.0
 30
0.0
  3
*D5
  1

  0
LINE
  5
154
330
153
100
AcDbEntity
  8
LC-005-003-----0
 62
     2
370
    -2
100
AcDbLine
 10
232.070789
 20
427.367992
 30
0.0
 11
381.235546
 21
427.367992
 31
0.0
  0
LINE
  5
155
330
153
100
AcDbEntity
  8
LC-005-003-----0
 62
     2
370
    -2
100
AcDbLine
 10
427.148611
 20
234.367992
 30
0.0
 11
374.035546
 21
234.367992
 31
0.0
  0
LINE
  5
156
330
153
100
AcDbEntity
  8
LC-005-003-----0
 62
     2
370
    -2
100
AcDbLine
 10
377.635546
 20
399.367992
 30
0.0
 11
377.635546
 21
262.367992
 31
0.0
  0
SOLID
  5
157
330
153
100
AcDbEntity
  8
LC-005-003-----0
 62
     2
100
AcDbTrace
 10
382.302213
 20
399.367992
 30
0.0
 11
372.968879
 21
399.367992
 31
0.0
 12
377.635546
 22
427.367992
 32
0.0
 13
377.635546
 23
427.367992
 33
0.0
  0
SOLID
  5
158
330
153
100
AcDbEntity
  8
LC-005-003-----0
 62
     2
100
AcDbTrace
 10
372.968879
 20
262.367992
 30
0.0
 11
382.302213
 21
262.367992
 31
0.0
 12
377.635546
 22
234.367992
 32
0.0
 13
377.635546
 23
234.367992
 33
0.0
  0
MTEXT
  5
159
330
153
100
AcDbEntity
  8
LC-005-003-----0
 62
     2
100
AcDbMText
 10
346.835546
 20
313.626
 30
0.0
 40
28.0
 41
0.0
 71
     5
 72
     1
  1
\A1;193
  7
LCTX15-400-0-0pDIN-Schrift
 11
6.123031769111886E-17
 21
1.0
 31
0.0
 73
     1
 44
1.0
  0
POINT
  5
15A
330
153
100
AcDbEntity
  8
Defpoints
 62
     0
100
AcDbPoint
 10
232.070789
 20
427.367992
 30
0.0
  0
POINT
  5
15B
330
153
100
AcDbEntity
  8
Defpoints
 62
     0
100
AcDbPoint
 10
427.148611
 20
234.367992
 30
0.0
  0
POINT
  5
15C
330
153
100
AcDbEntity
  8
Defpoints
 62
     0
100
AcDbPoint
 10
377.635546
 20
234.367992
 30
0.0
  0
ENDBLK
  5
15E
330
153
100
AcDbEntity
  8
0
100
AcDbBlockEnd
  0
BLOCK
  5
16A
330
160
100
AcDbEntity
  8
0
100
AcDbBlockBegin
  2
*D6
 70
     1
 71
     0
 10
0.0
 20
0.0
 30
0.0
  3
*D6
  1

  0
LINE
  5
161
330
160
100
AcDbEntity
  8
LC-005-003-----0
 62
     2
370
    -2
100
AcDbLine
 10
598.710789
 20
377.367992
 30
0.0
 11
699.180217
 21
377.367992
 31
0.0
  0
LINE
  5
162
330
160
100
AcDbEntity
  8
LC-005-003-----0
 62
     2
370
    -2
100
AcDbLine
 10
598.710789
 20
477.367992
 30
0.0
 11
699.180217
 21
477.367992
 31
0.0
  0
LINE
  5
163
330
160
100
AcDbEntity
  8
LC-005-003-----0
 62
     2
370
    -2
100
AcDbLine
 10
695.580217
 20
405.367992
 30
0.0
 11
695.580217
 21
449.367992
 31
0.0
  0
SOLID
  5
164
330
160
100
AcDbEntity
  8
LC-005-003-----0
 62
     2
100
AcDbTrace
 10
690.91355
 20
405.367992
 30
0.0
 11
700.246883
 21
405.367992
 31
0.0
 12
695.580217
 22
377.367992
 32
0.0
 13
695.580217
 23
377.367992
 33
0.0
  0
SOLID
  5
165
330
160
100
AcDbEntity
  8
LC-005-003-----0
 62
     2
100
AcDbTrace
 10
700.246883
 20
449.367992
 30
0.0
 11
690.91355
 21
449.367992
 31
0.0
 12
695.580217
 22
477.367992
 32
0.0
 13
695.580217
 23
477.367992
 33
0.0
  0
MTEXT
  5
166
330
160
100
AcDbEntity
  8
LC-005-003-----0
 62
     2
100
AcDbMText
 10
664.780217
 20
421.146
 30
0.0
 40
28.0
 41
0.0
 71
     5
 72
     1
  1
\A1;100
  7
LCTX15-400-0-0pDIN-Schrift
 11
6.123031769111886E-17
 21
1.0
 31
0.0
 73
     1
 44
1.0
  0
POINT
  5
167
330
160
100
AcDbEntity
  8
Defpoints
 62
     0
100
AcDbPoint
 10
598.710789
 20
377.367992
 30
0.0
  0
POINT
  5
168
330
160
100
AcDbEntity
  8
Defpoints
 62
     0
100
AcDbPoint
 10
598.710789
 20
477.367992
 30
0.0
  0
POINT
  5
169
330
160
100
AcDbEntity
  8
Defpoints
 62
     0
100
AcDbPoint
 10
695.580217
 20
477.367992
 30
0.0
  0
ENDBLK
  5
16B
330
160
100
AcDbEntity
  8
0
100
AcDbBlockEnd
  0
BLOCK
  5
17B
330
16F
100
AcDbEntity
  8
0
100
AcDbBlockBegin
  2
*D7
 70
     1
 71
     0
 10
0.0
 20
0.0
 30
0.0
  3
*D7
  1

  0
LINE
  5
170
330
16F
100
AcDbEntity
  8
LC-005-003-----0
 62
     2
370
    -2
100
AcDbLine
 10
12.327022
 20
426.211265
 30
0.0
 11
12.327022
 21
493.6
 31
0.0
  0
LINE
  5
171
330
16F
100
AcDbEntity
  8
LC-005-003-----0
 62
     2
370
    -2
100
AcDbLine
 10
65.329174
 20
470.967344
 30
0.0
 11
65.329174
 21
493.6
 31
0.0
  0
LINE
  5
172
330
16F
100
AcDbEntity
  8
LC-005-003-----0
 62
     2
370
    -2
100
AcDbLine
 10
-15.672978
 20
490.0
 30
0.0
 11
-43.672978
 21
490.0
 31
0.0
  0
LINE
  5
173
330
16F
100
AcDbEntity
  8
LC-005-003-----0
 62
     2
370
    -2
100
AcDbLine
 10
93.329174
 20
490.0
 30
0.0
 11
121.329174
 21
490.0
 31
0.0
  0
LINE
  5
174
330
16F
100
AcDbEntity
  8
LC-005-003-----0
 62
     2
370
    -2
100
AcDbLine
 10
12.327022
 20
490.0
 30
0.0
 11
65.329174
 21
490.0
 31
0.0
  0
SOLID
  5
175
330
16F
100
AcDbEntity
  8
LC-005-003-----0
 62
     2
100
AcDbTrace
 10
-15.672978
 20
485.333333
 30
0.0
 11
-15.672978
 21
494.666667
 31
0.0
 12
12.327022
 22
490.0
 32
0.0
 13
12.327022
 23
490.0
 33
0.0
  0
SOLID
  5
176
330
16F
100
AcDbEntity
  8
LC-005-003-----0
 62
     2
100
AcDbTrace
 10
93.329174
 20
494.666667
 30
0.0
 11
93.329174
 21
485.333333
 31
0.0
 12
65.329174
 22
490.0
 32
0.0
 13
65.329174
 23
490.0
 33
0.0
  0
MTEXT
  5
177
330
16F
100
AcDbEntity
  8
LC-005-003-----0
 62
     2
100
AcDbMText
 10
38.828098
 20
520.8
 30
0.0
 40
28.0
 41
0.0
 71
     5
 72
     1
  1
\A1;55
  7
LCTX15-400-0-0pDIN-Schrift
 73
     1
 44
1.0
  0
POINT
  5
178
330
16F
100
AcDbEntity
  8
Defpoints
 62
     0
100
AcDbPoint
 10
12.327022
 20
426.211265
 30
0.0
  0
POINT
  5
179
330
16F
100
AcDbEntity
  8
Defpoints
 62
     0
100
AcDbPoint
 10
65.329174
 20
470.967344
 30
0.0
  0
POINT
  5
17A
330
16F
100
AcDbEntity
  8
Defpoints
 62
     0
100
AcDbPoint
 10
65.329174
 20
490.0
 30
0.0
  0
ENDBLK
  5
17C
330
16F
100
AcDbEntity
  8
0
100
AcDbBlockEnd
  0
BLOCK
  5
290
330
286
100
AcDbEntity
  8
0
100
AcDbBlockBegin
  2
*D8
 70
     1
 71
     0
 10
0.0
 20
0.0
 30
0.0
  3
*D8
  1

  0
LINE
  5
287
330
286
100
AcDbEntity
  8
LC-005-003-----0
 62
     2
370
    -2
100
AcDbLine
 10
400.960789
 20
475.117992
 30
0.0
 11
400.960789
 21
562.39113
 31
0.0
  0
LINE
  5
288
330
286
100
AcDbEntity
  8
LC-005-003-----0
 62
     2
370
    -2
100
AcDbLine
 10
601.210789
 20
474.867992
 30
0.0
 11
601.210789
 21
562.39113
 31
0.0
  0
LINE
  5
289
330
286
100
AcDbEntity
  8
LC-005-003-----0
 62
     2
370
    -2
100
AcDbLine
 10
428.960789
 20
558.79113
 30
0.0
 11
573.210789
 21
558.79113
 31
0.0
  0
SOLID
  5
28A
330
286
100
AcDbEntity
  8
LC-005-003-----0
 62
     2
100
AcDbTrace
 10
428.960789
 20
563.457796
 30
0.0
 11
428.960789
 21
554.124463
 31
0.0
 12
400.960789
 22
558.79113
 32
0.0
 13
400.960789
 23
558.79113
 33
0.0
  0
SOLID
  5
28B
330
286
100
AcDbEntity
  8
LC-005-003-----0
 62
     2
100
AcDbTrace
 10
573.210789
 20
554.124463
 30
0.0
 11
573.210789
 21
563.457796
 31
0.0
 12
601.210789
 22
558.79113
 32
0.0
 13
601.210789
 23
558.79113
 33
0.0
  0
MTEXT
  5
28C
330
286
100
AcDbEntity
  8
LC-005-003-----0
 62
     2
100
AcDbMText
 10
498.903985
 20
589.59113
 30
0.0
 40
28.0
 41
0.0
 71
     5
 72
     1
  1
\A1;200
  7
LCTX15-400-0-0pDIN-Schrift
 73
     1
 44
1.0
  0
POINT
  5
28D
330
286
100
AcDbEntity
  8
Defpoints
 62
     0
100
AcDbPoint
 10
400.960789
 20
475.117992
 30
0.0
  0
POINT
  5
28E
330
286
100
AcDbEntity
  8
Defpoints
 62
     0
100
AcDbPoint
 10
601.210789
 20
474.867992
 30
0.0
  0
POINT
  5
28F
330
286
100
AcDbEntity
  8
Defpoints
 62
     0
100
AcDbPoint
 10
601.210789
 20
558.79113
 30
0.0
  0
ENDBLK
  5
291
330
286
100
AcDbEntity
  8
0
100
AcDbBlockEnd
  0
ENDSEC
  0
SECTION
  2
ENTITIES
  0
ARC
  5
32
102
{ACAD_REACTORS
330
29C
102
}
330
1F
100
AcDbEntity
  8
LC-001-002-RND-0
 62
     7
370
    50
100
AcDbCircle
 10
430.210789
 20
284.367992
 30
0.0
 40
4.0
100
AcDbArc
 50
90.0
 51
180.0
  0
LINE
  5
34
330
1F
100
AcDbEntity
  8
LC-002-002-----0
 62
     7
370
    50
100
AcDbLine
 10
583.710789
 20
467.367992
 30
0.0
 11
518.710789
 21
467.367992
 31
0.0
  0
LINE
  5
36
330
1F
100
AcDbEntity
  8
LC-002-002-----0
  6
DASHDOT
 62
     7
370
    25
100
AcDbLine
 10
404.210789
 20
432.367992
 30
0.0
 11
404.210789
 21
422.367992
 31
0.0
  0
LINE
  5
37
330
1F
100
AcDbEntity
  8
LC-002-002-----0
 62
     7
370
    50
100
AcDbLine
 10
525.460789
 20
456.117992
 30
0.0
 11
576.960789
 21
456.117992
 31
0.0
  0
LINE
  5
38
330
1F
100
AcDbEntity
  8
LC-002-002-----0
 62
     7
370
    50
100
AcDbLine
 10
525.460789
 20
398.617992
 30
0.0
 11
576.960789
 21
398.617992
 31
0.0
  0
LINE
  5
39
330
1F
100
AcDbEntity
  8
LC-002-002-----0
 62
     7
370
    50
100
AcDbLine
 10
422.229267
 20
339.367992
 30
0.0
 11
477.874356
 21
339.367992
 31
0.0
  0
LINE
  5
3A
330
1F
100
AcDbEntity
  8
LC-002-002-----0
  6
DASHDOT
 62
     7
370
    25
100
AcDbLine
 10
498.210789
 20
432.367992
 30
0.0
 11
498.210789
 21
422.367992
 31
0.0
  0
ARC
  5
3B
330
1F
100
AcDbEntity
  8
LC-001-002-RND-0
 62
     7
370
    50
100
AcDbCircle
 10
472.210789
 20
284.367992
 30
0.0
 40
4.0
100
AcDbArc
 50
360.0
 51
90.0
  0
LINE
  5
3C
330
1F
100
AcDbEntity
  8
LC-002-002-----0
  6
DASHDOT
 62
     7
370
    25
100
AcDbLine
 10
492.436867
 20
393.365193
 30
0.0
 11
492.436867
 21
383.365193
 31
0.0
  0
LINE
  5
3D
330
1F
100
AcDbEntity
  8
LC-002-002-----0
 62
     7
370
    50
100
AcDbLine
 10
471.210789
 20
339.367992
 30
0.0
 11
471.210789
 21
288.367992
 31
0.0
  0
LINE
  5
3E
330
1F
100
AcDbEntity
  8
LC-002-002-----0
 62
     7
370
    50
100
AcDbLine
 10
90.329174
 20
410.709984
 30
0.0
 11
90.329174
 21
443.709984
 31
0.0
  0
LINE
  5
3F
330
1F
100
AcDbEntity
  8
LC-002-002-----0
  6
DASHDOT
 62
     7
370
    25
100
AcDbLine
 10
489.836867
 20
388.365193
 30
0.0
 11
497.436867
 21
388.365193
 31
0.0
  0
LINE
  5
40
330
1F
100
AcDbEntity
  8
LC-002-002-----0
  6
DASHDOT
 62
     7
370
    25
100
AcDbLine
 10
401.436867
 20
387.865193
 30
0.0
 11
410.788708
 21
387.865193
 31
0.0
  0
LINE
  5
41
330
1F
100
AcDbEntity
  8
LC-002-002-----0
  6
DASHDOT
 62
     7
370
    25
100
AcDbLine
 10
406.436867
 20
392.865193
 30
0.0
 11
406.436867
 21
382.865193
 31
0.0
  0
LINE
  5
42
102
{ACAD_REACTORS
330
29B
102
}
330
1F
100
AcDbEntity
  8
LC-002-002-----0
 62
     7
370
    50
100
AcDbLine
 10
151.170183
 20
429.309984
 30
0.0
 11
151.170183
 21
447.209984
 31
0.0
  0
LINE
  5
43
102
{ACAD_REACTORS
330
29B
102
}
330
1F
100
AcDbEntity
  8
LC-002-002-----0
 62
     7
370
    50
100
AcDbLine
 10
152.670183
 20
429.309984
 30
0.0
 11
152.670183
 21
447.209984
 31
0.0
  0
LINE
  5
44
102
{ACAD_REACTORS
330
29C
102
}
330
1F
100
AcDbEntity
  8
LC-002-002-----0
  6
DASHDOT
 62
     7
370
    25
100
AcDbLine
 10
451.210789
 20
288.367992
 30
0.0
 11
451.210789
 21
231.81099
 31
0.0
  0
LINE
  5
45
102
{ACAD_REACTORS
330
29B
102
}
330
1F
100
AcDbEntity
  8
LC-002-002-----0
 62
     7
370
    50
100
AcDbLine
 10
154.170183
 20
429.309984
 30
0.0
 11
154.170183
 21
447.209984
 31
0.0
  0
LINE
  5
46
330
1F
100
AcDbEntity
  8
LC-002-002-----0
 62
     7
370
    50
100
AcDbLine
 10
169.170183
 20
420.209984
 30
0.0
 11
168.670183
 21
420.209984
 31
0.0
  0
ARC
  5
47
330
1F
100
AcDbEntity
  8
LC-002-002-----0
 62
     7
370
    50
100
AcDbCircle
 10
160.045183
 20
414.709984
 30
0.0
 40
10.62499999999995
100
AcDbArc
 50
334.942385
 51
25.057615
  0
ARC
  5
48
330
1F
100
AcDbEntity
  8
LC-001-002-RND-0
 62
     7
370
    50
100
AcDbCircle
 10
168.670183
 20
419.709984
 30
0.0
 40
0.5
100
AcDbArc
 50
90.0
 51
180.0
  0
ARC
  5
49
330
1F
100
AcDbEntity
  8
LC-001-002-RND-0
 62
     7
370
    50
100
AcDbCircle
 10
169.170183
 20
419.709984
 30
0.0
 40
0.5
100
AcDbArc
 50
0.0
 51
90.0
  0
LINE
  5
4A
330
1F
100
AcDbEntity
  8
LC-002-002-----0
 62
     7
370
    50
100
AcDbLine
 10
169.670183
 20
409.709984
 30
0.0
 11
169.670183
 21
419.709984
 31
0.0
  0
ARC
  5
4B
330
1F
100
AcDbEntity
  8
LC-001-002-RND-0
 62
     7
370
    50
100
AcDbCircle
 10
169.170183
 20
409.709984
 30
0.0
 40
0.5
100
AcDbArc
 50
270.0
 51
0.0
  0
LINE
  5
4C
330
1F
100
AcDbEntity
  8
LC-002-002-----0
 62
     7
370
    50
100
AcDbLine
 10
169.170183
 20
409.209984
 30
0.0
 11
168.670183
 21
409.209984
 31
0.0
  0
ARC
  5
4D
330
1F
100
AcDbEntity
  8
LC-001-002-RND-0
 62
     7
370
    50
100
AcDbCircle
 10
168.670183
 20
409.709984
 30
0.0
 40
0.5
100
AcDbArc
 50
180.0
 51
270.0
  0
ARC
  5
4E
102
{ACAD_REACTORS
330
2A1
102
}
330
1F
100
AcDbEntity
  8
LC-002-002-----0
  6
DASHED
 62
     7
370
    25
100
AcDbCircle
 10
451.210789
 20
427.367992
 30
0.0
 40
57.5
100
AcDbArc
 50
209.712765
 51
330.408154
  0
ARC
  5
4F
102
{ACAD_REACTORS
330
2A1
102
}
330
1F
100
AcDbEntity
  8
LC-002-002-----0
 62
     7
370
    50
100
AcDbCircle
 10
451.210789
 20
427.367992
 30
0.0
 40
57.49999999999994
100
AcDbArc
 50
331.317262
 51
29.591846
  0
LINE
  5
50
330
1F
100
AcDbEntity
  8
LC-002-002-----0
 62
     7
370
    50
100
AcDbLine
 10
165.170183
 20
484.709984
 30
0.0
 11
165.170183
 21
475.613998
 31
0.0
  0
LINE
  5
51
330
1F
100
AcDbEntity
  8
LC-002-002-----0
 62
     7
370
    50
100
AcDbLine
 10
156.170183
 20
483.709984
 30
0.0
 11
156.170183
 21
370.709984
 31
0.0
  0
LINE
  5
52
330
1F
100
AcDbEntity
  8
LC-002-002-----0
 62
     7
370
    50
100
AcDbLine
 10
167.170183
 20
478.495947
 30
0.0
 11
167.170183
 21
453.209984
 31
0.0
  0
LINE
  5
53
102
{ACAD_REACTORS
330
29B
102
}
330
1F
100
AcDbEntity
  8
LC-002-002-----0
 62
     7
370
    50
100
AcDbLine
 10
157.170183
 20
285.709984
 30
0.0
 11
154.378282
 21
285.709984
 31
0.0
  0
LINE
  5
54
102
{ACAD_REACTORS
330
29B
102
}
330
1F
100
AcDbEntity
  8
LC-002-002-----0
 62
     7
370
    50
100
AcDbLine
 10
157.170183
 20
288.209984
 30
0.0
 11
157.170183
 21
285.709984
 31
0.0
  0
LINE
  5
55
102
{ACAD_REACTORS
330
29B
102
}
330
1F
100
AcDbEntity
  8
LC-002-002-----0
 62
     7
370
    50
100
AcDbLine
 10
104.962084
 20
285.709984
 30
0.0
 11
102.170183
 21
285.709984
 31
0.0
  0
LINE
  5
56
102
{ACAD_REACTORS
330
29B
102
}
330
1F
100
AcDbEntity
  8
LC-002-002-----0
 62
     7
370
    50
100
AcDbLine
 10
102.170183
 20
288.209984
 30
0.0
 11
102.170183
 21
285.709984
 31
0.0
  0
LINE
  5
57
102
{ACAD_REACTORS
330
29B
102
}
330
1F
100
AcDbEntity
  8
LC-002-002-----0
 62
     7
370
    50
100
AcDbLine
 10
109.670183
 20
290.53454
 30
0.0
 11
109.670183
 21
341.209984
 31
0.0
  0
ARC
  5
58
102
{ACAD_REACTORS
330
29B
102
}
330
1F
100
AcDbEntity
  8
LC-001-002-RND-0
 62
     7
370
    50
100
AcDbCircle
 10
110.670183
 20
343.709984
 30
0.0
 40
2.5
100
AcDbArc
 50
180.0
 51
270.0
  0
LINE
  5
59
102
{ACAD_REACTORS
330
29B
102
}
330
1F
100
AcDbEntity
  8
LC-002-002-----0
 62
     7
370
    50
100
AcDbLine
 10
106.690909
 20
234.209984
 30
0.0
 11
152.649457
 21
234.209984
 31
0.0
  0
ARC
  5
5A
102
{ACAD_REACTORS
330
29B
102
}
330
1F
100
AcDbEntity
  8
LC-001-002-RND-0
 62
     7
370
    50
100
AcDbCircle
 10
152.170183
 20
290.709984
 30
0.0
 40
2.5
100
AcDbArc
 50
180.0
 51
270.0
  0
ARC
  5
5B
102
{ACAD_REACTORS
330
29B
102
}
330
1F
100
AcDbEntity
  8
LC-001-002-RND-0
 62
     7
370
    50
100
AcDbCircle
 10
107.170183
 20
290.53454
 30
0.0
 40
2.499999999999967
100
AcDbArc
 50
283.342364
 51
0.0
  0
LINE
  5
5C
102
{ACAD_REACTORS
330
29B
102
}
330
1F
100
AcDbEntity
  8
LC-002-002-----0
 62
     7
370
    50
100
AcDbLine
 10
154.670183
 20
237.709984
 30
0.0
 11
154.670183
 21
284.209984
 31
0.0
  0
LINE
  5
5D
102
{ACAD_REACTORS
330
29B
102
}
330
1F
100
AcDbEntity
  8
LC-002-002-----0
 62
     7
370
    50
100
AcDbLine
 10
150.670183
 20
288.209984
 30
0.0
 11
102.170183
 21
288.209984
 31
0.0
  0
LINE
  5
5E
102
{ACAD_REACTORS
330
29B
102
}
330
1F
100
AcDbEntity
  8
LC-002-002-----0
 62
     7
370
    50
100
AcDbLine
 10
148.170183
 20
422.209984
 30
0.0
 11
148.170183
 21
432.209984
 31
0.0
  0
LINE
  5
5F
102
{ACAD_REACTORS
330
29B
102
}
330
1F
100
AcDbEntity
  8
LC-002-002-----0
 62
     7
370
    50
100
AcDbLine
 10
123.073337
 20
443.709984
 30
0.0
 11
116.129174
 21
443.709984
 31
0.0
  0
LINE
  5
60
102
{ACAD_REACTORS
330
29B
102
}
330
1F
100
AcDbEntity
  8
LC-002-002-----0
 62
     7
370
    50
100
AcDbLine
 10
135.170183
 20
422.209984
 30
0.0
 11
135.170183
 21
432.209984
 31
0.0
  0
ARC
  5
61
102
{ACAD_REACTORS
330
29B
102
}
330
1F
100
AcDbEntity
  8
LC-001-002-RND-0
 62
     7
370
    50
100
AcDbCircle
 10
110.670183
 20
366.209984
 30
0.0
 40
2.499999999999977
100
AcDbArc
 50
169.082115
 51
180.0
  0
LINE
  5
62
102
{ACAD_REACTORS
330
29B
102
}
330
1F
100
AcDbEntity
  8
LC-002-002-----0
 62
     7
370
    50
100
AcDbLine
 10
108.215434
 20
366.683489
 30
0.0
 11
117.286535
 21
413.709984
 31
0.0
  0
ARC
  5
63
102
{ACAD_REACTORS
330
29B
102
}
330
1F
100
AcDbEntity
  8
LC-001-002-RND-0
 62
     7
370
    50
100
AcDbCircle
 10
129.670183
 20
464.709984
 30
0.0
 40
2.5
100
AcDbArc
 50
90.0
 51
169.082115
  0
LINE
  5
64
102
{ACAD_REACTORS
330
29B
102
}
330
1F
100
AcDbEntity
  8
LC-002-002-----0
 62
     7
370
    50
100
AcDbLine
 10
125.098717
 20
454.209984
 30
0.0
 11
127.215434
 21
465.183489
 31
0.0
  0
LINE
  5
65
102
{ACAD_REACTORS
330
29B
102
}
330
1F
100
AcDbEntity
  8
LC-002-002-----0
 62
     7
370
    50
100
AcDbLine
 10
135.170183
 20
422.209984
 30
0.0
 11
148.170183
 21
422.209984
 31
0.0
  0
LINE
  5
66
102
{ACAD_REACTORS
330
29B
102
}
330
1F
100
AcDbEntity
  8
LC-002-002-----0
 62
     7
370
    50
100
AcDbLine
 10
135.170183
 20
432.209984
 30
0.0
 11
148.170183
 21
432.209984
 31
0.0
  0
LINE
  5
67
102
{ACAD_REACTORS
330
29B
102
}
330
1F
100
AcDbEntity
  8
LC-002-002-----0
  6
DASHED
 62
     7
370
    25
100
AcDbLine
 10
135.170183
 20
390.307185
 30
0.0
 11
148.270183
 21
390.307185
 31
0.0
  0
LINE
  5
68
102
{ACAD_REACTORS
330
29B
102
}
330
1F
100
AcDbEntity
  8
LC-002-002-----0
  6
DASHED
 62
     7
370
    25
100
AcDbLine
 10
135.170183
 20
385.107185
 30
0.0
 11
148.270183
 21
385.107185
 31
0.0
  0
LINE
  5
69
102
{ACAD_REACTORS
330
29B
102
}
330
1F
100
AcDbEntity
  8
LC-002-002-----0
 62
     7
370
    50
100
AcDbLine
 10
135.170183
 20
447.209984
 30
0.0
 11
135.170183
 21
449.709984
 31
0.0
  0
ARC
  5
6A
330
1F
100
AcDbEntity
  8
LC-002-002-----0
  6
DASHED
 62
     7
370
    25
100
AcDbCircle
 10
55.66105
 20
398.9256
 30
0.0
 40
8.451552690948081
100
AcDbArc
 50
8.690273
 51
78.599914
  0
ARC
  5
6B
330
1F
100
AcDbEntity
  8
LC-002-002-----0
 62
     7
370
    50
100
AcDbCircle
 10
64.012369
 20
447.527019
 30
0.0
 40
6.690726162945984
100
AcDbArc
 50
87.284886
 51
182.717845
  0
ARC
  5
6C
330
1F
100
AcDbEntity
  8
LC-002-002-----0
 62
     7
370
    50
100
AcDbCircle
 10
64.014781
 20
406.893297
 30
0.0
 40
6.690726162946038
100
AcDbArc
 50
177.288957
 51
272.721915
  0
ARC
  5
6D
330
1F
100
AcDbEntity
  8
LC-002-002-----0
  6
DASHED
 62
     7
370
    25
100
AcDbCircle
 10
55.657692
 20
455.493724
 30
0.0
 40
8.451552690948041
100
AcDbArc
 50
281.406888
 51
351.316528
  0
LINE
  5
6E
330
1F
100
AcDbEntity
  8
LC-002-002-----0
 62
     7
370
    50
100
AcDbLine
 10
65.329178
 20
452.132346
 30
0.0
 11
64.329314
 21
450.750543
 31
0.0
  0
LINE
  5
6F
330
1F
100
AcDbEntity
  8
LC-002-002-----0
 62
     7
370
    50
100
AcDbLine
 10
64.329308
 20
454.210234
 30
0.0
 11
65.32917
 21
453.914088
 31
0.0
  0
LINE
  5
70
330
1F
100
AcDbEntity
  8
LC-002-002-----0
 62
     7
370
    50
100
AcDbLine
 10
65.329862
 20
421.418452
 30
0.0
 11
65.329174
 21
427.210488
 31
0.0
  0
LINE
  5
71
330
1F
100
AcDbEntity
  8
LC-002-002-----0
 62
     7
370
    50
100
AcDbLine
 10
64.330032
 20
421.122187
 30
0.0
 11
65.329862
 21
421.418452
 31
0.0
  0
ELLIPSE
  5
72
330
1F
100
AcDbEntity
  8
LC-002-002-----0
 62
     7
370
    50
100
AcDbEllipse
 10
60.829288
 20
427.209969
 30
0.0
 11
2.646547255363541E-5
 21
-5.999999999946102
 31
0.0
210
0.0
220
0.0
230
1.0
 40
0.583333
 41
0.0
 42
6.283185307179586
  0
ELLIPSE
  5
73
330
1F
100
AcDbEntity
  8
LC-002-002-----0
 62
     7
370
    50
100
AcDbEllipse
 10
60.824314
 20
414.218458
 30
0.0
 11
0.003250440392496452
 21
-4.499998826090771
 31
0.0
210
0.0
220
0.0
230
1.0
 40
0.777778
 41
0.0
 42
6.283185307179586
  0
ELLIPSE
  5
74
330
1F
100
AcDbEntity
  8
LC-002-002-----0
 62
     7
370
    50
100
AcDbEllipse
 10
60.822771
 20
440.20148
 30
0.0
 11
-0.002716242005931206
 21
-4.49999918024888
 31
0.0
210
0.0
220
0.0
230
1.0
 40
0.777778
 41
0.0
 42
6.283185307179586
  0
LINE
  5
75
102
{ACAD_REACTORS
330
29B
102
}
330
1F
100
AcDbEntity
  8
LC-002-002-----0
 62
     7
370
    50
100
AcDbLine
 10
148.170183
 20
432.209984
 30
0.0
 11
148.170183
 21
422.209984
 31
0.0
  0
LINE
  5
76
102
{ACAD_REACTORS
330
29B
102
}
330
1F
100
AcDbEntity
  8
LC-002-002-----0
 62
     7
370
    50
100
AcDbLine
 10
148.270183
 20
447.209984
 30
0.0
 11
135.170183
 21
447.209984
 31
0.0
  0
LINE
  5
77
330
1F
100
AcDbEntity
  8
LC-002-002-----0
 62
     7
370
    25
100
AcDbLine
 10
42.327975
 20
441.085709
 30
0.0
 11
42.327975
 21
435.085709
 31
0.0
  0
LINE
  5
78
330
1F
100
AcDbEntity
  8
LC-002-002-----0
 62
     7
370
    50
100
AcDbLine
 10
64.32931
 20
453.298167
 30
0.0
 11
65.329174
 21
453.00202
 31
0.0
  0
LINE
  5
79
330
1F
100
AcDbEntity
  8
LC-002-002-----0
 62
     7
370
    50
100
AcDbLine
 10
64.329308
 20
454.210234
 30
0.0
 11
64.329392
 21
400.210235
 31
0.0
  0
ARC
  5
7A
102
{ACAD_REACTORS
330
2A2
102
}
330
1F
100
AcDbEntity
  8
LC-002-002-----0
  6
DASHED
 62
     7
370
    25
100
AcDbCircle
 10
98.059509
 20
256.255831
 30
0.0
 40
4.499999999999594
100
AcDbArc
 50
278.327207
 51
278.714603
  0
LINE
  5
7B
330
1F
100
AcDbEntity
  8
LC-002-002-----0
 62
     7
370
    50
100
AcDbLine
 10
64.32931
 20
448.798167
 30
0.0
 11
65.329174
 21
448.50202
 31
0.0
  0
LINE
  5
7C
330
1F
100
AcDbEntity
  8
LC-002-002-----0
  6
DASHDOT
 62
     7
370
    25
100
AcDbLine
 10
22.327022
 20
427.208147
 30
0.0
 11
22.32699
 21
377.211258
 31
0.0
  0
LINE
  5
7D
330
1F
100
AcDbEntity
  8
LC-002-002-----0
 62
     7
370
    50
100
AcDbLine
 10
32.327015
 20
415.211252
 30
0.0
 11
22.327022
 21
427.208147
 31
0.0
  0
ARC
  5
7E
102
{ACAD_REACTORS
330
29C
102
}
330
1F
100
AcDbEntity
  8
LC-002-002-----0
  6
DASHED
 62
     7
370
    25
100
AcDbCircle
 10
451.210789
 20
427.367992
 30
0.0
 40
42.00000000000173
100
AcDbArc
 50
359.831098
 51
26.765501
  0
LINE
  5
7F
102
{ACAD_REACTORS
330
29C
102
}
330
1F
100
AcDbEntity
  8
LC-002-002-----0
 62
     7
370
    50
100
AcDbLine
 10
482.837087
 20
343.758646
 30
0.0
 11
487.013226
 21
377.367992
 31
0.0
  0
LINE
  5
80
330
1F
100
AcDbEntity
  8
LC-002-002-----0
 62
     7
370
    25
100
AcDbLine
 10
42.32797
 20
430.209334
 30
0.0
 11
56.327024
 21
430.210165
 31
0.0
  0
ARC
  5
81
102
{ACAD_REACTORS
330
29C
102
}
330
1F
100
AcDbEntity
  8
LC-002-002-----0
 62
     7
370
    50
100
AcDbCircle
 10
477.874356
 20
344.367992
 30
0.0
 40
5.000000000000227
100
AcDbArc
 50
270.0
 51
353.0
  0
ARC
  5
82
102
{ACAD_REACTORS
330
29C
102
}
330
1F
100
AcDbEntity
  8
LC-002-002-----0
 62
     7
370
    50
100
AcDbCircle
 10
422.229267
 20
349.367992
 30
0.0
 40
9.99999999999983
100
AcDbArc
 50
182.183915
 51
270.0
  0
LINE
  5
83
330
1F
100
AcDbEntity
  8
LC-002-002-----0
 62
     7
370
    25
100
AcDbLine
 10
42.328326
 20
424.209334
 30
0.0
 11
56.32702
 21
424.210165
 31
0.0
  0
LINE
  5
84
102
{ACAD_REACTORS
330
29C
102
}
330
1F
100
AcDbEntity
  8
LC-002-002-----0
 62
     7
370
    50
100
AcDbLine
 10
476.210789
 20
237.867992
 30
0.0
 11
475.272967
 21
234.367992
 31
0.0
  0
LINE
  5
85
102
{ACAD_REACTORS
330
29C
102
}
330
1F
100
AcDbEntity
  8
LC-002-002-----0
 62
     7
370
    50
100
AcDbLine
 10
426.210789
 20
237.867992
 30
0.0
 11
427.148611
 21
234.367992
 31
0.0
  0
ARC
  5
86
102
{ACAD_REACTORS
330
29B
102
}
330
1F
100
AcDbEntity
  8
LC-001-002-RND-0
 62
     7
370
    50
100
AcDbCircle
 10
150.670183
 20
284.209984
 30
0.0
 40
4.0
100
AcDbArc
 50
0.0
 51
90.0
  0
ARC
  5
87
102
{ACAD_REACTORS
330
29B
102
}
330
1F
100
AcDbEntity
  8
LC-001-002-RND-0
 62
     7
370
    50
100
AcDbCircle
 10
108.670183
 20
284.209984
 30
0.0
 40
3.999999999999968
100
AcDbArc
 50
103.342364
 51
180.0
  0
LINE
  5
88
102
{ACAD_REACTORS
330
29B
102
}
330
1F
100
AcDbEntity
  8
LC-002-002-----0
 62
     7
370
    50
100
AcDbLine
 10
154.170183
 20
340.209984
 30
0.0
 11
154.170183
 21
425.109984
 31
0.0
  0
LINE
  5
89
102
{ACAD_REACTORS
330
29B
102
}
330
1F
100
AcDbEntity
  8
LC-002-002-----0
 62
     7
370
    50
100
AcDbLine
 10
154.170183
 20
447.209984
 30
0.0
 11
154.170183
 21
468.209984
 31
0.0
  0
LINE
  5
8A
102
{ACAD_REACTORS
330
29B
102
}
330
1F
100
AcDbEntity
  8
LC-002-002-----0
 62
     7
370
    50
100
AcDbLine
 10
152.670183
 20
339.209984
 30
0.0
 11
152.670183
 21
425.077426
 31
0.0
  0
LINE
  5
8B
102
{ACAD_REACTORS
330
29B
102
}
330
1F
100
AcDbEntity
  8
LC-002-002-----0
 62
     7
370
    50
100
AcDbLine
 10
152.670183
 20
447.209984
 30
0.0
 11
152.670183
 21
469.209984
 31
0.0
  0
LINE
  5
8C
102
{ACAD_REACTORS
330
29B
102
}
330
1F
100
AcDbEntity
  8
LC-002-002-----0
 62
     7
370
    50
100
AcDbLine
 10
156.170183
 20
343.209984
 30
0.0
 11
156.170183
 21
447.209984
 31
0.0
  0
LINE
  5
8D
102
{ACAD_REACTORS
330
29B
102
}
330
1F
100
AcDbEntity
  8
LC-002-002-----0
 62
     7
370
    50
100
AcDbLine
 10
156.170183
 20
447.209984
 30
0.0
 11
156.170183
 21
465.209984
 31
0.0
  0
LINE
  5
8E
102
{ACAD_REACTORS
330
29B
102
}
330
1F
100
AcDbEntity
  8
LC-002-002-----0
 62
     7
370
    50
100
AcDbLine
 10
125.098717
 20
454.209984
 30
0.0
 11
117.286535
 21
413.709984
 31
0.0
  0
LINE
  5
8F
102
{ACAD_REACTORS
330
29B
102
}
330
1F
100
AcDbEntity
  8
LC-002-002-----0
 62
     7
370
    50
100
AcDbLine
 10
148.270183
 20
449.709984
 30
0.0
 11
135.170183
 21
449.709984
 31
0.0
  0
LINE
  5
90
102
{ACAD_REACTORS
330
29B
102
}
330
1F
100
AcDbEntity
  8
LC-002-002-----0
 62
     7
370
    50
100
AcDbLine
 10
151.170183
 20
340.209984
 30
0.0
 11
151.170183
 21
425.109984
 31
0.0
  0
LINE
  5
91
330
1F
100
AcDbEntity
  8
LC-002-002-----0
 62
     7
370
    50
100
AcDbLine
 10
65.32917
 20
453.914088
 30
0.0
 11
65.32917
 21
452.132346
 31
0.0
  0
LINE
  5
92
102
{ACAD_REACTORS
330
29B
102
}
330
1F
100
AcDbEntity
  8
LC-002-002-----0
 62
     7
370
    50
100
AcDbLine
 10
151.170183
 20
447.209984
 30
0.0
 11
151.170183
 21
468.209984
 31
0.0
  0
LINE
  5
93
102
{ACAD_REACTORS
330
29C
102
}
330
1F
100
AcDbEntity
  8
LC-002-002-----0
 62
     7
370
    50
100
AcDbLine
 10
476.210789
 20
284.367992
 30
0.0
 11
476.210789
 21
237.867992
 31
0.0
  0
LINE
  5
94
330
1F
100
AcDbEntity
  8
LC-002-002-----0
 62
     7
370
    25
100
AcDbLine
 10
42.327975
 20
441.085709
 30
0.0
 11
56.327029
 21
441.0857
 31
0.0
  0
LINE
  5
95
102
{ACAD_REACTORS
330
29C
102
}
330
1F
100
AcDbEntity
  8
LC-002-002-----0
 62
     7
370
    50
100
AcDbLine
 10
426.210789
 20
284.367992
 30
0.0
 11
426.210789
 21
237.867992
 31
0.0
  0
LINE
  5
96
102
{ACAD_REACTORS
330
29C
102
}
330
1F
100
AcDbEntity
  8
LC-002-002-----0
 62
     7
370
    50
100
AcDbLine
 10
431.210789
 20
339.367992
 30
0.0
 11
431.210789
 21
288.367992
 31
0.0
  0
LINE
  5
97
330
1F
100
AcDbEntity
  8
LC-002-002-----0
 62
     7
370
    50
100
AcDbLine
 10
56.32701
 20
408.459208
 30
0.0
 11
56.327035
 21
446.961236
 31
0.0
  0
LINE
  5
98
330
1F
100
AcDbEntity
  8
LC-002-002-----0
 62
     7
370
    50
100
AcDbLine
 10
56.327035
 20
446.961236
 30
0.0
 11
57.327035
 21
446.961235
 31
0.0
  0
ARC
  5
99
330
1F
100
AcDbEntity
  8
LC-002-002-----0
 62
     7
370
    50
100
AcDbCircle
 10
42.327033
 20
442.961245
 30
0.0
 40
3.000000000000186
100
AcDbArc
 50
89.999963
 51
179.999963
  0
LINE
  5
9A
330
1F
100
AcDbEntity
  8
LC-002-002-----0
 62
     7
370
    50
100
AcDbLine
 10
42.327035
 20
445.961245
 30
0.0
 11
56.327035
 21
445.961236
 31
0.0
  0
LINE
  5
9B
330
1F
100
AcDbEntity
  8
LC-002-002-----0
 62
     7
370
    50
100
AcDbLine
 10
42.329375
 20
408.459143
 30
0.0
 11
56.329375
 21
408.459208
 31
0.0
  0
LINE
  5
9C
330
1F
100
AcDbEntity
  8
LC-002-002-----0
 62
     7
370
    50
100
AcDbLine
 10
56.329375
 20
408.459208
 30
0.0
 11
56.32938
 21
407.459208
 31
0.0
  0
LINE
  5
9D
330
1F
100
AcDbEntity
  8
LC-002-002-----0
 62
     7
370
    50
100
AcDbLine
 10
56.32938
 20
407.459208
 30
0.0
 11
57.32938
 21
407.459213
 31
0.0
  0
ARC
  5
9E
330
1F
100
AcDbEntity
  8
LC-002-002-----0
 62
     7
370
    50
100
AcDbCircle
 10
42.329361
 20
411.459143
 30
0.0
 40
3.000000000000197
100
AcDbArc
 50
180.000267
 51
270.000229
  0
LINE
  5
9F
330
1F
100
AcDbEntity
  8
LC-002-002-----0
 62
     7
370
    25
100
AcDbLine
 10
42.327975
 20
435.085709
 30
0.0
 11
56.327029
 21
435.0857
 31
0.0
  0
LINE
  5
A0
330
1F
100
AcDbEntity
  8
LC-002-002-----0
 62
     7
370
    50
100
AcDbLine
 10
39.327013
 20
412.459129
 30
0.0
 11
39.327033
 21
442.961247
 31
0.0
  0
LINE
  5
A1
330
1F
100
AcDbEntity
  8
LC-002-002-----0
 62
     7
370
    25
100
AcDbLine
 10
42.32891
 20
419.332958
 30
0.0
 11
56.327964
 21
419.334629
 31
0.0
  0
LINE
  5
A2
330
1F
100
AcDbEntity
  8
LC-002-002-----0
 62
     7
370
    50
100
AcDbLine
 10
39.329357
 20
412.459129
 30
0.0
 11
39.329361
 21
411.459129
 31
0.0
  0
LINE
  5
A3
102
{ACAD_REACTORS
330
29C
102
}
330
1F
100
AcDbEntity
  8
LC-002-002-----0
  6
DASHDOT
 62
     7
370
    25
100
AcDbLine
 10
451.210789
 20
339.367992
 30
0.0
 11
451.210789
 21
288.367992
 31
0.0
  0
LINE
  5
A4
102
{ACAD_REACTORS
330
29C
102
}
330
1F
100
AcDbEntity
  8
LC-002-002-----0
 62
     7
370
    50
100
AcDbLine
 10
427.148611
 20
234.367992
 30
0.0
 11
475.272967
 21
234.367992
 31
0.0
  0
LINE
  5
A5
102
{ACAD_REACTORS
330
29C
102
}
330
1F
100
AcDbEntity
  8
LC-002-002-----0
 62
     7
370
    50
100
AcDbLine
 10
426.210789
 20
237.867992
 30
0.0
 11
476.210789
 21
237.867992
 31
0.0
  0
LINE
  5
A6
330
1F
100
AcDbEntity
  8
LC-002-002-----0
 62
     7
370
    50
100
AcDbLine
 10
12.327022
 20
426.211265
 30
0.0
 11
12.327013
 21
412.211265
 31
0.0
  0
LINE
  5
A7
102
{ACAD_REACTORS
330
29C
102
}
330
1F
100
AcDbEntity
  8
LC-002-002-----0
 62
     7
370
    50
100
AcDbLine
 10
430.210789
 20
288.367992
 30
0.0
 11
472.210789
 21
288.367992
 31
0.0
  0
LINE
  5
A8
330
1F
100
AcDbEntity
  8
LC-002-002-----0
 62
     7
370
    50
100
AcDbLine
 10
32.327015
 20
415.211252
 30
0.0
 11
32.327013
 21
412.211252
 31
0.0
  0
ARC
  5
A9
330
1F
100
AcDbEntity
  8
LC-001-002-RND-0
 62
     7
370
    50
100
AcDbCircle
 10
25.327022
 20
426.211256
 30
0.0
 40
13.00000000000005
100
AcDbArc
 50
89.999963
 51
179.999963
  0
LINE
  5
AA
330
1F
100
AcDbEntity
  8
LC-002-002-----0
 62
     7
370
    50
100
AcDbLine
 10
39.32703
 20
439.211247
 30
0.0
 11
25.32703
 21
439.211256
 31
0.0
  0
LINE
  5
AB
102
{ACAD_REACTORS
330
29C
102
}
330
1F
100
AcDbEntity
  8
LC-002-002-----0
  6
DASHED
 62
     7
370
    25
100
AcDbLine
 10
409.210806
 20
427.329406
 30
0.0
 11
411.140404
 21
377.367992
 31
0.0
  0
LINE
  5
AC
330
1F
100
AcDbEntity
  8
LC-002-002-----0
 62
     7
370
    25
100
AcDbLine
 10
42.329622
 20
413.332958
 30
0.0
 11
56.328677
 21
413.334629
 31
0.0
  0
LINE
  5
AD
330
1F
100
AcDbEntity
  8
LC-002-002-----0
 62
     7
370
    50
100
AcDbLine
 10
65.331702
 20
405.918452
 30
0.0
 11
65.330515
 21
415.918452
 31
0.0
  0
LINE
  5
AE
330
1F
100
AcDbEntity
  8
LC-002-002-----0
 62
     7
370
    50
100
AcDbLine
 10
65.329174
 20
448.50202
 30
0.0
 11
65.329174
 21
438.50202
 31
0.0
  0
LINE
  5
AF
330
1F
100
AcDbEntity
  8
LC-002-002-----0
 62
     7
370
    50
100
AcDbLine
 10
64.32931
 20
433.298167
 30
0.0
 11
65.329174
 21
433.00202
 31
0.0
  0
LINE
  5
B0
330
1F
100
AcDbEntity
  8
LC-002-002-----0
 62
     7
370
    50
100
AcDbLine
 10
65.329174
 20
433.00202
 30
0.0
 11
65.329174
 21
427.209984
 31
0.0
  0
LINE
  5
B1
330
1F
100
AcDbEntity
  8
LC-002-002-----0
 62
     7
370
    50
100
AcDbLine
 10
64.330615
 20
416.21448
 30
0.0
 11
65.330515
 21
415.918452
 31
0.0
  0
LINE
  5
B2
330
1F
100
AcDbEntity
  8
LC-002-002-----0
 62
     7
370
    50
100
AcDbLine
 10
64.32931
 20
438.205873
 30
0.0
 11
65.329174
 21
438.50202
 31
0.0
  0
LINE
  5
B3
330
1F
100
AcDbEntity
  8
LC-002-002-----0
 62
     7
370
    50
100
AcDbLine
 10
64.331872
 20
405.622187
 30
0.0
 11
65.331702
 21
405.918452
 31
0.0
  0
LINE
  5
B4
330
1F
100
AcDbEntity
  8
LC-002-002-----0
 62
     7
370
    50
100
AcDbLine
 10
65.332137
 20
402.288126
 30
0.0
 11
64.332108
 21
403.669811
 31
0.0
  0
LINE
  5
B5
330
1F
100
AcDbEntity
  8
LC-002-002-----0
 62
     7
370
    50
100
AcDbLine
 10
65.33234
 20
400.506384
 30
0.0
 11
65.332129
 21
402.288126
 31
0.0
  0
LINE
  5
B6
330
1F
100
AcDbEntity
  8
LC-002-002-----0
 62
     7
370
    50
100
AcDbLine
 10
64.332407
 20
401.122187
 30
0.0
 11
65.332236
 21
401.418453
 31
0.0
  0
LINE
  5
B7
330
1F
100
AcDbEntity
  8
LC-002-002-----0
 62
     7
370
    50
100
AcDbLine
 10
64.332514
 20
400.210119
 30
0.0
 11
65.33234
 21
400.506384
 31
0.0
  0
LINE
  5
B8
102
{ACAD_REACTORS
330
29A
102
}
330
1F
100
AcDbEntity
  8
LC-002-002-----0
 62
     7
370
    50
100
AcDbLine
 10
70.329174
 20
443.709984
 30
0.0
 11
70.329174
 21
477.385575
 31
0.0
  0
LINE
  5
B9
102
{ACAD_REACTORS
330
29B
102
}
330
1F
100
AcDbEntity
  8
LC-002-002-----0
 62
     7
370
    50
100
AcDbLine
 10
157.170183
 20
288.209984
 30
0.0
 11
152.170183
 21
288.209984
 31
0.0
  0
LINE
  5
BA
102
{ACAD_REACTORS
330
29B
102
}
330
1F
100
AcDbEntity
  8
LC-002-002-----0
 62
     7
370
    50
100
AcDbLine
 10
104.670183
 20
284.209984
 30
0.0
 11
104.670183
 21
237.709984
 31
0.0
  0
LINE
  5
BB
102
{ACAD_REACTORS
330
29B
102
}
330
1F
100
AcDbEntity
  8
LC-002-002-----0
 62
     7
370
    50
100
AcDbLine
 10
149.670183
 20
341.209984
 30
0.0
 11
149.670183
 21
290.709984
 31
0.0
  0
LINE
  5
BC
102
{ACAD_REACTORS
330
29B
102
}
330
1F
100
AcDbEntity
  8
LC-002-002-----0
 62
     7
370
    50
100
AcDbLine
 10
108.170183
 20
343.709984
 30
0.0
 11
108.170183
 21
366.209984
 31
0.0
  0
LINE
  5
BE
102
{ACAD_REACTORS
330
29B
102
}
330
1F
100
AcDbEntity
  8
LC-003-001-----0
 62
     7
370
    50
100
AcDbLine
 10
104.670183
 20
237.709984
 30
0.0
 11
154.670183
 21
237.709984
 31
0.0
  0
LINE
  5
BF
102
{ACAD_REACTORS
330
29B
102
}
330
1F
100
AcDbEntity
  8
LC-002-002-----0
 62
     7
370
    50
100
AcDbLine
 10
154.670183
 20
237.709984
 30
0.0
 11
152.649457
 21
234.209984
 31
0.0
  0
LINE
  5
C0
102
{ACAD_REACTORS
330
29B
102
}
330
1F
100
AcDbEntity
  8
LC-002-002-----0
 62
     7
370
    50
100
AcDbLine
 10
104.670183
 20
237.709984
 30
0.0
 11
106.690909
 21
234.209984
 31
0.0
  0
LINE
  5
C1
102
{ACAD_REACTORS
330
29B
102
}
330
1F
100
AcDbEntity
  8
LC-002-002-----0
  6
DASHDOT
 62
     7
370
    25
100
AcDbLine
 10
129.670183
 20
427.209984
 30
0.0
 11
129.670183
 21
234.209984
 31
0.0
  0
LINE
  5
C2
102
{ACAD_REACTORS
330
29B
102
}
330
1F
100
AcDbEntity
  8
LC-002-002-----0
 62
     7
370
    50
100
AcDbLine
 10
148.670183
 20
341.209984
 30
0.0
 11
151.170183
 21
341.209984
 31
0.0
  0
ARC
  5
C3
102
{ACAD_REACTORS
330
29B
102
}
330
1F
100
AcDbEntity
  8
LC-001-002-RND-0
 62
     7
370
    50
100
AcDbCircle
 10
152.170183
 20
340.209984
 30
0.0
 40
1.0
100
AcDbArc
 50
180.0
 51
270.0
  0
LINE
  5
C4
102
{ACAD_REACTORS
330
29B
102
}
330
1F
100
AcDbEntity
  8
LC-002-002-----0
 62
     7
370
    50
100
AcDbLine
 10
153.170183
 20
339.209984
 30
0.0
 11
152.170183
 21
339.209984
 31
0.0
  0
ARC
  5
C5
102
{ACAD_REACTORS
330
29B
102
}
330
1F
100
AcDbEntity
  8
LC-001-002-RND-0
 62
     7
370
    50
100
AcDbCircle
 10
153.170183
 20
340.209984
 30
0.0
 40
1.0
100
AcDbArc
 50
270.0
 51
0.0
  0
ARC
  5
C6
102
{ACAD_REACTORS
330
29B
102
}
330
1F
100
AcDbEntity
  8
LC-001-002-RND-0
 62
     7
370
    50
100
AcDbCircle
 10
153.170183
 20
468.209984
 30
0.0
 40
1.0
100
AcDbArc
 50
0.0
 51
90.0
  0
ARC
  5
C7
102
{ACAD_REACTORS
330
29B
102
}
330
1F
100
AcDbEntity
  8
LC-001-002-RND-0
 62
     7
370
    50
100
AcDbCircle
 10
152.170183
 20
468.209984
 30
0.0
 40
1.0
100
AcDbArc
 50
90.0
 51
180.0
  0
LINE
  5
C8
102
{ACAD_REACTORS
330
29B
102
}
330
1F
100
AcDbEntity
  8
LC-002-002-----0
 62
     7
370
    50
100
AcDbLine
 10
152.170183
 20
469.209984
 30
0.0
 11
153.170183
 21
469.209984
 31
0.0
  0
LINE
  5
C9
102
{ACAD_REACTORS
330
29B
102
}
330
1F
100
AcDbEntity
  8
LC-002-002-----0
 62
     7
370
    50
100
AcDbLine
 10
148.670183
 20
341.209984
 30
0.0
 11
110.670183
 21
341.209984
 31
0.0
  0
LINE
  5
CA
102
{ACAD_REACTORS
330
29B
102
}
330
1F
100
AcDbEntity
  8
LC-002-002-----0
 62
     7
370
    50
100
AcDbLine
 10
151.170183
 20
467.209984
 30
0.0
 11
129.670183
 21
467.209984
 31
0.0
  0
CIRCLE
  5
CB
330
1F
100
AcDbEntity
  8
LC-002-002-----0
 62
     7
370
    50
100
AcDbCircle
 10
237.070789
 20
414.867992
 30
0.0
 40
4.249999999998491
  0
CIRCLE
  5
CC
330
1F
100
AcDbEntity
  8
LC-002-002-----0
 62
     7
370
    50
100
AcDbCircle
 10
237.070789
 20
439.867992
 30
0.0
 40
4.249999999998619
  0
ARC
  5
CD
330
1F
100
AcDbEntity
  8
LC-002-002-----0
 62
     7
370
    50
100
AcDbCircle
 10
251.210789
 20
441.507992
 30
0.0
 40
3.099999999999909
100
AcDbArc
 50
90.0
 51
270.0
  0
LINE
  5
CE
330
1F
100
AcDbEntity
  8
LC-002-002-----0
 62
     7
370
    50
100
AcDbLine
 10
262.930789
 20
444.607992
 30
0.0
 11
251.210789
 21
444.607992
 31
0.0
  0
ARC
  5
CF
330
1F
100
AcDbEntity
  8
LC-002-002-----0
 62
     7
370
    50
100
AcDbCircle
 10
262.930789
 20
441.507992
 30
0.0
 40
3.099999999999909
100
AcDbArc
 50
270.0
 51
90.0
  0
ARC
  5
D0
330
1F
100
AcDbEntity
  8
LC-002-002-----0
 62
     7
370
    50
100
AcDbCircle
 10
261.299725
 20
436.907992
 30
0.0
 40
1.5
100
AcDbArc
 50
90.0
 51
156.828899
  0
ARC
  5
D1
330
1F
100
AcDbEntity
  8
LC-002-002-----0
 62
     7
370
    50
100
AcDbCircle
 10
262.930789
 20
441.507992
 30
0.0
 40
3.099999999999909
100
AcDbArc
 50
270.0
 51
90.0
  0
ARC
  5
D2
330
1F
100
AcDbEntity
  8
LC-002-002-----0
 62
     7
370
    50
100
AcDbCircle
 10
257.070789
 20
438.717992
 30
0.0
 40
3.100000000000014
100
AcDbArc
 50
203.171101
 51
336.828899
  0
ARC
  5
D3
330
1F
100
AcDbEntity
  8
LC-002-002-----0
 62
     7
370
    50
100
AcDbCircle
 10
252.841853
 20
436.907992
 30
0.0
 40
1.500000000000014
100
AcDbArc
 50
23.171101
 51
90.0
  0
ARC
  5
D4
330
1F
100
AcDbEntity
  8
LC-002-002-----0
 62
     7
370
    50
100
AcDbCircle
 10
251.210789
 20
441.507992
 30
0.0
 40
3.099999999999909
100
AcDbArc
 50
90.0
 51
270.0
  0
CIRCLE
  5
D5
330
1F
100
AcDbEntity
  8
LC-002-002-----0
 62
     7
370
    50
100
AcDbCircle
 10
267.070789
 20
427.367992
 30
0.0
 40
4.249999999999909
  0
LINE
  5
D6
330
1F
100
AcDbEntity
  8
LC-002-002-----0
 62
     7
370
    50
100
AcDbLine
 10
242.820789
 20
431.617992
 30
0.0
 11
251.320789
 21
431.617992
 31
0.0
  0
ARC
  5
D7
330
1F
100
AcDbEntity
  8
LC-002-002-----0
 62
     7
370
    50
100
AcDbCircle
 10
242.820789
 20
427.367992
 30
0.0
 40
4.25
100
AcDbArc
 50
90.0
 51
270.0
  0
ARC
  5
D8
330
1F
100
AcDbEntity
  8
LC-002-002-----0
 62
     7
370
    50
100
AcDbCircle
 10
251.320789
 20
427.367992
 30
0.0
 40
4.25
100
AcDbArc
 50
270.0
 51
90.0
  0
LINE
  5
D9
330
1F
100
AcDbEntity
  8
LC-002-002-----0
  6
DASHDOT
 62
     7
370
    25
100
AcDbLine
 10
168.170183
 20
414.709984
 30
0.0
 11
154.654039
 21
414.709984
 31
0.0
  0
LINE
  5
DA
330
1F
100
AcDbEntity
  8
LC-002-002-----0
  6
DASHDOT
 62
     7
370
    25
100
AcDbLine
 10
168.170183
 20
439.709984
 30
0.0
 11
155.218379
 21
439.709984
 31
0.0
  0
LINE
  5
DB
330
1F
100
AcDbEntity
  8
LC-002-002-----0
 62
     7
370
    50
100
AcDbLine
 10
165.170183
 20
484.709984
 30
0.0
 11
157.170183
 21
484.709984
 31
0.0
  0
LINE
  5
DC
330
1F
100
AcDbEntity
  8
LC-002-002-----0
 62
     7
370
    50
100
AcDbLine
 10
403.210789
 20
477.367992
 30
0.0
 11
598.710789
 21
477.367992
 31
0.0
  0
LINE
  5
DD
330
1F
100
AcDbEntity
  8
LC-002-002-----0
 62
     7
370
    50
100
AcDbLine
 10
167.170183
 20
478.495947
 30
0.0
 11
165.170183
 21
478.495947
 31
0.0
  0
LINE
  5
E0
330
1F
100
AcDbEntity
  8
LC-004-006-MLN-0
 62
     7
370
    25
100
AcDbLine
 10
551.210789
 20
472.610164
 30
0.0
 11
551.210789
 21
379.190535
 31
0.0
  0
LINE
  5
E1
330
1F
100
AcDbEntity
  8
LC-002-002-----0
 62
     7
370
    50
100
AcDbLine
 10
601.210789
 20
379.867992
 30
0.0
 11
601.210789
 21
474.867992
 31
0.0
  0
DIMENSION
  5
E5
330
1F
100
AcDbEntity
  8
LC-005-003-----0
 62
     7
370
    25
100
AcDbDimension
  2
*D1
 10
551.210789
 20
509.6
 30
0.0
 11
501.210789
 21
540.4
 31
0.0
 70
   160
 71
     5
 42
100.0
  3
LC-DIM-L-0140-02-02
100
AcDbAlignedDimension
 13
451.210789
 23
504.0
 33
0.0
 14
551.210789
 24
462.610164
 34
0.0
100
AcDbRotatedDimension
  0
LINE
  5
F3
330
1F
100
AcDbEntity
  8
LC-002-002-----0
 62
     7
370
    50
100
AcDbLine
 10
242.820789
 20
423.117992
 30
0.0
 11
251.320789
 21
423.117992
 31
0.0
  0
LINE
  5
F4
330
1F
100
AcDbEntity
  8
LC-002-002-----0
 62
     7
370
    50
100
AcDbLine
 10
262.930789
 20
410.127992
 30
0.0
 11
251.210789
 21
410.127992
 31
0.0
  0
ARC
  5
F5
330
1F
100
AcDbEntity
  8
LC-002-002-----0
 62
     7
370
    50
100
AcDbCircle
 10
251.210789
 20
413.227992
 30
0.0
 40
3.099999999999909
100
AcDbArc
 50
90.0
 51
270.0
  0
ARC
  5
F6
330
1F
100
AcDbEntity
  8
LC-002-002-----0
 62
     7
370
    50
100
AcDbCircle
 10
262.930789
 20
413.227992
 30
0.0
 40
3.100000000000023
100
AcDbArc
 50
270.0
 51
90.0
  0
ARC
  5
F7
330
1F
100
AcDbEntity
  8
LC-002-002-----0
 62
     7
370
    50
100
AcDbCircle
 10
262.930789
 20
413.227992
 30
0.0
 40
3.100000000000023
100
AcDbArc
 50
270.0
 51
90.0
  0
ARC
  5
F8
330
1F
100
AcDbEntity
  8
LC-002-002-----0
 62
     7
370
    50
100
AcDbCircle
 10
261.299725
 20
417.827992
 30
0.0
 40
1.500000000000014
100
AcDbArc
 50
203.171101
 51
270.0
  0
ARC
  5
F9
330
1F
100
AcDbEntity
  8
LC-002-002-----0
 62
     7
370
    50
100
AcDbCircle
 10
257.070789
 20
416.017992
 30
0.0
 40
3.09999999999997
100
AcDbArc
 50
23.171101
 51
156.828899
  0
ARC
  5
FA
330
1F
100
AcDbEntity
  8
LC-002-002-----0
 62
     7
370
    50
100
AcDbCircle
 10
252.841853
 20
417.827992
 30
0.0
 40
1.5
100
AcDbArc
 50
270.0
 51
336.828899
  0
LINE
  5
FB
330
1F
100
AcDbEntity
  8
LC-002-002-----0
 62
     7
370
    50
100
AcDbLine
 10
251.210789
 20
438.407992
 30
0.0
 11
252.841853
 21
438.407992
 31
0.0
  0
LINE
  5
FC
330
1F
100
AcDbEntity
  8
LC-002-002-----0
 62
     7
370
    50
100
AcDbLine
 10
262.930789
 20
438.407992
 30
0.0
 11
261.299725
 21
438.407992
 31
0.0
  0
LINE
  5
FD
330
1F
100
AcDbEntity
  8
LC-002-002-----0
 62
     7
370
    50
100
AcDbLine
 10
251.210789
 20
416.327992
 30
0.0
 11
252.841853
 21
416.327992
 31
0.0
  0
LINE
  5
FE
330
1F
100
AcDbEntity
  8
LC-002-002-----0
 62
     7
370
    50
100
AcDbLine
 10
262.930789
 20
416.327992
 30
0.0
 11
261.299725
 21
416.327992
 31
0.0
  0
ARC
  5
FF
330
1F
100
AcDbEntity
  8
LC-001-002-RND-0
 62
     7
370
    50
100
AcDbCircle
 10
598.710789
 20
379.867992
 30
0.0
 40
2.5
100
AcDbArc
 50
270.0
 51
0.0
  0
ARC
  5
100
330
1F
100
AcDbEntity
  8
LC-001-002-RND-0
 62
     7
370
    50
100
AcDbCircle
 10
598.710789
 20
474.867992
 30
0.0
 40
2.5
100
AcDbArc
 50
0.0
 51
90.0
  0
CIRCLE
  5
101
330
1F
100
AcDbEntity
  8
LC-002-002-----0
 62
     7
370
    50
100
AcDbCircle
 10
627.070789
 20
427.367992
 30
0.0
 40
4.25
  0
ARC
  5
102
330
1F
100
AcDbEntity
  8
LC-002-002-----0
 62
     7
370
    50
100
AcDbCircle
 10
622.930789
 20
441.507992
 30
0.0
 40
3.099999999999909
100
AcDbArc
 50
270.0
 51
90.0
  0
ARC
  5
103
330
1F
100
AcDbEntity
  8
LC-002-002-----0
 62
     7
370
    50
100
AcDbCircle
 10
611.210789
 20
441.507992
 30
0.0
 40
3.099999999999909
100
AcDbArc
 50
90.0
 51
270.0
  0
LINE
  5
104
330
1F
100
AcDbEntity
  8
LC-002-002-----0
 62
     7
370
    50
100
AcDbLine
 10
622.930789
 20
444.607992
 30
0.0
 11
611.210789
 21
444.607992
 31
0.0
  0
LINE
  5
105
330
1F
100
AcDbEntity
  8
LC-002-002-----0
 62
     7
370
    50
100
AcDbLine
 10
622.930789
 20
438.407992
 30
0.0
 11
621.299725
 21
438.407992
 31
0.0
  0
LINE
  5
106
330
1F
100
AcDbEntity
  8
LC-002-002-----0
 62
     7
370
    50
100
AcDbLine
 10
611.210789
 20
438.407992
 30
0.0
 11
612.841853
 21
438.407992
 31
0.0
  0
ARC
  5
107
330
1F
100
AcDbEntity
  8
LC-002-002-----0
 62
     7
370
    50
100
AcDbCircle
 10
617.070789
 20
438.717992
 30
0.0
 40
3.09999999999991
100
AcDbArc
 50
203.171101
 51
336.828899
  0
ARC
  5
108
330
1F
100
AcDbEntity
  8
LC-002-002-----0
 62
     7
370
    50
100
AcDbCircle
 10
612.841853
 20
436.907992
 30
0.0
 40
1.500000000000014
100
AcDbArc
 50
23.171101
 51
90.0
  0
ARC
  5
109
330
1F
100
AcDbEntity
  8
LC-002-002-----0
 62
     7
370
    50
100
AcDbCircle
 10
621.299725
 20
436.907992
 30
0.0
 40
1.5
100
AcDbArc
 50
90.0
 51
156.828899
  0
ARC
  5
10A
330
1F
100
AcDbEntity
  8
LC-002-002-----0
 62
     7
370
    50
100
AcDbCircle
 10
622.930789
 20
413.227992
 30
0.0
 40
3.100000000000023
100
AcDbArc
 50
270.0
 51
90.0
  0
ARC
  5
10B
330
1F
100
AcDbEntity
  8
LC-002-002-----0
 62
     7
370
    50
100
AcDbCircle
 10
611.210789
 20
413.227992
 30
0.0
 40
3.099999999999909
100
AcDbArc
 50
90.0
 51
270.0
  0
LINE
  5
10C
330
1F
100
AcDbEntity
  8
LC-002-002-----0
 62
     7
370
    50
100
AcDbLine
 10
622.930789
 20
410.127992
 30
0.0
 11
611.210789
 21
410.127992
 31
0.0
  0
LINE
  5
10D
330
1F
100
AcDbEntity
  8
LC-002-002-----0
 62
     7
370
    50
100
AcDbLine
 10
622.930789
 20
416.327992
 30
0.0
 11
621.299725
 21
416.327992
 31
0.0
  0
LINE
  5
10E
330
1F
100
AcDbEntity
  8
LC-002-002-----0
 62
     7
370
    50
100
AcDbLine
 10
611.210789
 20
416.327992
 30
0.0
 11
612.841853
 21
416.327992
 31
0.0
  0
ARC
  5
10F
330
1F
100
AcDbEntity
  8
LC-002-002-----0
 62
     7
370
    50
100
AcDbCircle
 10
617.070789
 20
416.017992
 30
0.0
 40
3.100000000000074
100
AcDbArc
 50
23.171101
 51
156.828899
  0
ARC
  5
110
330
1F
100
AcDbEntity
  8
LC-002-002-----0
 62
     7
370
    50
100
AcDbCircle
 10
612.841853
 20
417.827992
 30
0.0
 40
1.5
100
AcDbArc
 50
270.0
 51
336.828899
  0
ARC
  5
111
330
1F
100
AcDbEntity
  8
LC-002-002-----0
 62
     7
370
    50
100
AcDbCircle
 10
621.299725
 20
417.827992
 30
0.0
 40
1.500000000000014
100
AcDbArc
 50
203.171101
 51
270.0
  0
ARC
  5
112
330
1F
100
AcDbEntity
  8
LC-002-002-----0
 62
     7
370
    50
100
AcDbCircle
 10
611.320789
 20
427.367992
 30
0.0
 40
4.25
100
AcDbArc
 50
270.0
 51
90.0
  0
LINE
  5
113
330
1F
100
AcDbEntity
  8
LC-002-002-----0
 62
     7
370
    50
100
AcDbLine
 10
601.210789
 20
402.367992
 30
0.0
 11
632.070789
 21
402.367992
 31
0.0
  0
LINE
  5
114
330
1F
100
AcDbEntity
  8
LC-002-002-----0
 62
     7
370
    50
100
AcDbLine
 10
601.210789
 20
452.367992
 30
0.0
 11
632.070789
 21
452.367992
 31
0.0
  0
LINE
  5
115
330
1F
100
AcDbEntity
  8
LC-002-002-----0
 62
     7
370
    50
100
AcDbLine
 10
601.210789
 20
431.617992
 30
0.0
 11
611.320789
 21
431.617992
 31
0.0
  0
LINE
  5
116
330
1F
100
AcDbEntity
  8
LC-002-002-----0
 62
     7
370
    50
100
AcDbLine
 10
601.210789
 20
423.117992
 30
0.0
 11
611.320789
 21
423.117992
 31
0.0
  0
LINE
  5
117
330
1F
100
AcDbEntity
  8
LC-002-002-----0
 62
     7
370
    50
100
AcDbLine
 10
579.960789
 20
453.117992
 30
0.0
 11
579.960789
 21
401.617992
 31
0.0
  0
LINE
  5
118
330
1F
100
AcDbEntity
  8
LC-002-002-----0
 62
     7
370
    50
100
AcDbLine
 10
511.210789
 20
394.867992
 30
0.0
 11
511.210789
 21
459.867992
 31
0.0
  0
LINE
  5
119
330
1F
100
AcDbEntity
  8
LC-002-002-----0
 62
     7
370
    50
100
AcDbLine
 10
591.210789
 20
459.867992
 30
0.0
 11
591.210789
 21
394.867992
 31
0.0
  0
LINE
  5
11A
330
1F
100
AcDbEntity
  8
LC-002-002-----0
 62
     7
370
    50
100
AcDbLine
 10
583.710789
 20
387.367992
 30
0.0
 11
518.710789
 21
387.367992
 31
0.0
  0
ARC
  5
11B
102
{ACAD_REACTORS
330
29B
102
}
330
1F
100
AcDbEntity
  8
LC-001-002-RND-0
 62
     7
370
    50
100
AcDbCircle
 10
154.170183
 20
343.209984
 30
0.0
 40
2.000000000000114
100
AcDbArc
 50
270.0
 51
0.0
  0
ARC
  5
11C
102
{ACAD_REACTORS
330
29B
102
}
330
1F
100
AcDbEntity
  8
LC-001-002-RND-0
 62
     7
370
    50
100
AcDbCircle
 10
154.170183
 20
465.209984
 30
0.0
 40
2.0
100
AcDbArc
 50
0.0
 51
90.0
  0
LINE
  5
11D
330
1F
100
AcDbEntity
  8
LC-002-002-----0
 62
     7
370
    50
100
AcDbLine
 10
522.460789
 20
453.117992
 30
0.0
 11
522.460789
 21
401.617992
 31
0.0
  0
ARC
  5
11E
330
1F
100
AcDbEntity
  8
LC-001-002-RND-0
 62
     7
370
    50
100
AcDbCircle
 10
525.460789
 20
453.117992
 30
0.0
 40
3.0
100
AcDbArc
 50
90.0
 51
180.0
  0
ARC
  5
11F
330
1F
100
AcDbEntity
  8
LC-001-002-RND-0
 62
     7
370
    50
100
AcDbCircle
 10
576.960789
 20
453.117992
 30
0.0
 40
3.0
100
AcDbArc
 50
0.0
 51
90.0
  0
ARC
  5
120
330
1F
100
AcDbEntity
  8
LC-001-002-RND-0
 62
     7
370
    50
100
AcDbCircle
 10
576.960789
 20
401.617992
 30
0.0
 40
3.0
100
AcDbArc
 50
270.0
 51
0.0
  0
ARC
  5
121
330
1F
100
AcDbEntity
  8
LC-001-002-RND-0
 62
     7
370
    50
100
AcDbCircle
 10
525.460789
 20
401.617992
 30
0.0
 40
3.0
100
AcDbArc
 50
180.0
 51
270.0
  0
LINE
  5
122
330
1F
100
AcDbEntity
  8
LC-002-002-----0
 62
     7
370
    50
100
AcDbLine
 10
539.960789
 20
404.617992
 30
0.0
 11
562.460789
 21
404.617992
 31
0.0
  0
LINE
  5
123
330
1F
100
AcDbEntity
  8
LC-002-002-----0
 62
     7
370
    50
100
AcDbLine
 10
539.960789
 20
399.617992
 30
0.0
 11
562.460789
 21
399.617992
 31
0.0
  0
ARC
  5
124
330
1F
100
AcDbEntity
  8
LC-001-002-RND-0
 62
     7
370
    50
100
AcDbCircle
 10
518.710789
 20
459.867992
 30
0.0
 40
7.5
100
AcDbArc
 50
90.0
 51
180.0
  0
ARC
  5
125
330
1F
100
AcDbEntity
  8
LC-001-002-RND-0
 62
     7
370
    50
100
AcDbCircle
 10
583.710789
 20
459.867992
 30
0.0
 40
7.5
100
AcDbArc
 50
0.0
 51
90.0
  0
ARC
  5
126
330
1F
100
AcDbEntity
  8
LC-001-002-RND-0
 62
     7
370
    50
100
AcDbCircle
 10
583.710789
 20
394.867992
 30
0.0
 40
7.5
100
AcDbArc
 50
270.0
 51
0.0
  0
ARC
  5
127
330
1F
100
AcDbEntity
  8
LC-001-002-RND-0
 62
     7
370
    50
100
AcDbCircle
 10
518.710789
 20
394.867992
 30
0.0
 40
7.499999999999943
100
AcDbArc
 50
180.0
 51
270.0
  0
DIMENSION
  5
128
330
1F
100
AcDbEntity
  8
LC-005-003-----0
 62
     7
370
    25
100
AcDbDimension
  2
*D2
 10
167.170183
 20
308.0
 30
0.0
 11
17.631826
 21
338.8
 31
0.0
 70
   160
  1
73-120
 71
     5
 42
96.841009
  3
LC-DIM-L-0140-02-02
100
AcDbAlignedDimension
 13
70.329174
 23
377.209984
 33
0.0
 14
167.170183
 24
375.924021
 34
0.0
100
AcDbRotatedDimension
  0
DIMENSION
  5
136
330
1F
100
AcDbEntity
  8
LC-005-003-----0
 62
     7
370
    25
100
AcDbDimension
  2
*D3
 10
149.670183
 20
196.0
 30
0.0
 11
231.360443
 21
226.8
 31
0.0
 70
   160
  1
DN40
 71
     5
 42
40.0
  3
LC-DIM-L-0140-02-02
100
AcDbAlignedDimension
 13
109.670183
 23
290.53454
 33
0.0
 14
149.670183
 24
290.709984
 34
0.0
100
AcDbRotatedDimension
  0
DIMENSION
  5
144
330
1F
100
AcDbEntity
  8
LC-005-003-----0
 62
     7
370
    25
100
AcDbDimension
  2
*D4
 10
154.670183
 20
156.8
 30
0.0
 11
201.790531
 21
187.6
 31
0.0
 70
   160
  1
DN50
 71
     5
 42
50.0
  3
LC-DIM-L-0140-02-02
100
AcDbAlignedDimension
 13
104.670183
 23
237.709984
 33
0.0
 14
154.670183
 24
237.709984
 34
0.0
100
AcDbRotatedDimension
  0
DIMENSION
  5
152
330
1F
100
AcDbEntity
  8
LC-005-003-----0
 62
     7
370
    25
100
AcDbDimension
  2
*D5
 10
377.635546
 20
234.367992
 30
0.0
 11
346.835546
 21
313.626
 31
0.0
 70
   160
 71
     5
 42
193.0
 53
90.0
  3
LC-DIM-L-0140-02-02
100
AcDbAlignedDimension
 13
232.070789
 23
427.367992
 33
0.0
 14
427.148611
 24
234.367992
 34
0.0
 50
90.0
100
AcDbRotatedDimension
  0
DIMENSION
  5
15F
330
1F
100
AcDbEntity
  8
LC-005-003-----0
 62
     7
370
    25
100
AcDbDimension
  2
*D6
 10
695.580217
 20
477.367992
 30
0.0
 11
664.780217
 21
421.146
 31
0.0
 70
   160
 71
     5
 42
100.0
 53
90.0
  3
LC-DIM-L-0140-02-02
100
AcDbAlignedDimension
 13
598.710789
 23
377.367992
 33
0.0
 14
598.710789
 24
477.367992
 34
0.0
 50
90.0
100
AcDbRotatedDimension
  0
LINE
  5
16C
330
1F
100
AcDbEntity
  8
LC-002-002-----0
 62
     7
370
    50
100
AcDbLine
 10
562.460789
 20
404.617992
 30
0.0
 11
562.460789
 21
398.617992
 31
0.0
  0
LINE
  5
16D
330
1F
100
AcDbEntity
  8
LC-002-002-----0
 62
     7
370
    50
100
AcDbLine
 10
539.960789
 20
404.617992
 30
0.0
 11
539.960789
 21
398.617992
 31
0.0
  0
DIMENSION
  5
16E
330
1F
100
AcDbEntity
  8
LC-005-003-----0
 62
     7
370
    25
100
AcDbDimension
  2
*D7
 10
65.329174
 20
490.0
 30
0.0
 11
38.828098
 21
520.8
 31
0.0
 70
   160
  1
55
 71
     5
 42
53.002153
  3
LC-DIM-L-0140-02-02
100
AcDbAlignedDimension
 13
12.327022
 23
426.211265
 33
0.0
 14
65.329174
 24
470.967344
 34
0.0
100
AcDbRotatedDimension
  0
ARC
  5
17D
102
{ACAD_REACTORS
330
292
102
}
330
1F
100
AcDbEntity
  8
LC-002-002-----0
 62
     7
370
    50
100
AcDbCircle
 10
451.21506
 20
427.367992
 30
0.0
 40
26.99999999999998
100
AcDbArc
 50
293.556464
 51
246.443536
  0
ELLIPSE
  5
17E
102
{ACAD_REACTORS
330
292
102
}
330
1F
100
AcDbEntity
  8
LC-002-002-----0
 62
     7
370
    50
100
AcDbEllipse
 10
451.21506
 20
450.367992
 30
0.0
 11
5.500000000008195
 21
0.0
 31
0.0
210
0.0
220
0.0
230
1.0
 40
0.727273
 41
0.0
 42
6.283185307179586
  0
ELLIPSE
  5
17F
102
{ACAD_REACTORS
330
292
102
}
330
1F
100
AcDbEntity
  8
LC-002-002-----0
 62
     7
370
    50
100
AcDbEllipse
 10
434.951604
 20
443.631448
 30
0.0
 11
-3.889087296528908
 21
-3.889087296528909
 31
0.0
210
0.0
220
0.0
230
1.0
 40
0.727273
 41
0.0
 42
6.283185307179586
  0
ELLIPSE
  5
180
102
{ACAD_REACTORS
330
292
102
}
330
1F
100
AcDbEntity
  8
LC-002-002-----0
 62
     7
370
    50
100
AcDbEllipse
 10
428.21506
 20
427.367992
 30
0.0
 11
0.0
 21
-5.5
 31
0.0
210
0.0
220
0.0
230
0.9999999999999999
 40
0.727273
 41
0.0
 42
6.283185307179586
  0
ELLIPSE
  5
181
102
{ACAD_REACTORS
330
292
102
}
330
1F
100
AcDbEntity
  8
LC-002-002-----0
 62
     7
370
    50
100
AcDbEllipse
 10
434.951604
 20
411.104536
 30
0.0
 11
3.889087296595553
 21
-3.889087296595553
 31
0.0
210
0.0
220
0.0
230
1.0
 40
0.727273
 41
1.104164111570229
 42
6.787733208150425
  0
ELLIPSE
  5
182
102
{ACAD_REACTORS
330
292
102
}
330
1F
100
AcDbEntity
  8
LC-002-002-----0
 62
     7
370
    50
100
AcDbEllipse
 10
467.478516
 20
411.104536
 30
0.0
 11
-3.889087296578168
 21
-3.889087296578168
 31
0.0
210
0.0
220
0.0
230
1.0
 40
0.727273
 41
2.63704475260734
 42
8.320613849210782
  0
ELLIPSE
  5
183
102
{ACAD_REACTORS
330
292
102
}
330
1F
100
AcDbEntity
  8
LC-002-002-----0
 62
     7
370
    50
100
AcDbEllipse
 10
474.21506
 20
427.367992
 30
0.0
 11
0.0
 21
-5.500000000073761
 31
0.0
210
0.0
220
0.0
230
1.0
 40
0.727273
 41
0.0
 42
6.283185307179586
  0
ELLIPSE
  5
184
102
{ACAD_REACTORS
330
292
102
}
330
1F
100
AcDbEntity
  8
LC-002-002-----0
 62
     7
370
    50
100
AcDbEllipse
 10
467.478516
 20
443.631448
 30
0.0
 11
3.889087296554987
 21
-3.889087296554987
 31
0.0
210
0.0
220
0.0
230
1.0
 40
0.727273
 41
0.0
 42
6.283185307179586
  0
LINE
  5
185
330
1F
100
AcDbEntity
  8
LC-002-002-----0
 62
     7
370
    50
100
AcDbLine
 10
600.210789
 20
380.554147
 30
0.0
 11
600.210789
 21
474.867992
 31
0.0
  0
LINE
  5
186
102
{ACAD_REACTORS
330
29B
102
}
330
1F
100
AcDbEntity
  8
LC-002-002-----0
 62
     7
370
    50
100
AcDbLine
 10
148.270183
 20
447.209984
 30
0.0
 11
148.270183
 21
449.709984
 31
0.0
  0
ARC
  5
187
330
1F
100
AcDbEntity
  8
LC-001-002-RND-0
 62
     7
370
    50
100
AcDbCircle
 10
597.710789
 20
380.867992
 30
0.0
 40
2.5
100
AcDbArc
 50
270.0
 51
0.0
  0
ARC
  5
188
330
1F
100
AcDbEntity
  8
LC-001-002-RND-0
 62
     7
370
    50
100
AcDbCircle
 10
597.710789
 20
473.867992
 30
0.0
 40
2.5
100
AcDbArc
 50
0.0
 51
90.0
  0
LINE
  5
189
330
1F
100
AcDbEntity
  8
LC-002-002-----0
 62
     7
370
    50
100
AcDbLine
 10
403.210789
 20
476.367992
 30
0.0
 11
597.710789
 21
476.367992
 31
0.0
  0
CIRCLE
  5
18A
102
{ACAD_REACTORS
330
29C
102
}
330
1F
100
AcDbEntity
  8
LC-002-002-----0
  6
DASHED
 62
     7
370
    25
100
AcDbCircle
 10
404.210789
 20
427.367992
 30
0.0
 40
2.600000000000136
  0
CIRCLE
  5
18B
102
{ACAD_REACTORS
330
29C
102
}
330
1F
100
AcDbEntity
  8
LC-002-002-----0
  6
DASHED
 62
     7
370
    25
100
AcDbCircle
 10
404.210789
 20
427.367992
 30
0.0
 40
5.0
  0
CIRCLE
  5
18C
102
{ACAD_REACTORS
330
29C
102
}
330
1F
100
AcDbEntity
  8
LC-002-002-----0
  6
DASHED
 62
     7
370
    25
100
AcDbCircle
 10
498.210789
 20
427.367992
 30
0.0
 40
2.599999999999909
  0
LINE
  5
18D
102
{ACAD_REACTORS
330
29B
102
}
330
1F
100
AcDbEntity
  8
LC-002-002-----0
 62
     7
370
    50
100
AcDbLine
 10
148.270183
 20
404.209984
 30
0.0
 11
135.170183
 21
404.209984
 31
0.0
  0
CIRCLE
  5
18E
102
{ACAD_REACTORS
330
29C
102
}
330
1F
100
AcDbEntity
  8
LC-002-002-----0
  6
DASHED
 62
     7
370
    25
100
AcDbCircle
 10
498.210789
 20
427.367992
 30
0.0
 40
5.0
  0
CIRCLE
  5
18F
102
{ACAD_REACTORS
330
29C
102
}
330
1F
100
AcDbEntity
  8
LC-002-002-----0
  6
DASHED
 62
     7
370
    25
100
AcDbCircle
 10
406.436867
 20
387.865193
 30
0.0
 40
2.600000000000136
  0
ARC
  5
190
102
{ACAD_REACTORS
330
29C
102
}
330
1F
100
AcDbEntity
  8
LC-002-002-----0
  6
DASHED
 62
     7
370
    25
100
AcDbCircle
 10
406.436867
 20
387.865193
 30
0.0
 40
5.000000000000103
100
AcDbArc
 50
33.009186
 51
331.414343
  0
CIRCLE
  5
191
102
{ACAD_REACTORS
330
29C
102
}
330
1F
100
AcDbEntity
  8
LC-002-002-----0
  6
DASHED
 62
     7
370
    25
100
AcDbCircle
 10
492.436867
 20
388.365193
 30
0.0
 40
2.600000000000136
  0
ARC
  5
192
102
{ACAD_REACTORS
330
29C
102
}
330
1F
100
AcDbEntity
  8
LC-002-002-----0
  6
DASHED
 62
     7
370
    25
100
AcDbCircle
 10
492.436867
 20
388.365193
 30
0.0
 40
4.999999999999972
100
AcDbArc
 50
209.283206
 51
221.822378
  0
LINE
  5
193
102
{ACAD_REACTORS
330
29B
102
}
330
1F
100
AcDbEntity
  8
LC-002-002-----0
 62
     7
370
    50
100
AcDbLine
 10
148.270183
 20
406.709984
 30
0.0
 11
135.170183
 21
406.709984
 31
0.0
  0
LINE
  5
194
330
1F
100
AcDbEntity
  8
LC-002-002-----0
 62
     7
370
    50
100
AcDbLine
 10
232.070789
 20
452.367992
 30
0.0
 11
232.070789
 21
402.367992
 31
0.0
  0
LINE
  5
195
330
1F
100
AcDbEntity
  8
LC-002-002-----0
 62
     7
370
    50
100
AcDbLine
 10
632.070789
 20
452.367992
 30
0.0
 11
632.070789
 21
402.367992
 31
0.0
  0
LINE
  5
196
330
1F
100
AcDbEntity
  8
LC-002-002-----0
  6
DASHED
 62
     7
370
    25
100
AcDbLine
 10
342.941093
 20
402.367992
 30
0.0
 11
601.210789
 21
402.367992
 31
0.0
  0
LINE
  5
197
330
1F
100
AcDbEntity
  8
LC-002-002-----0
  6
DASHED
 62
     7
370
    25
100
AcDbLine
 10
342.710789
 20
452.367992
 30
0.0
 11
601.210789
 21
452.367992
 31
0.0
  0
LINE
  5
198
330
1F
100
AcDbEntity
  8
LC-002-002-----0
 62
     7
370
    50
100
AcDbLine
 10
232.070789
 20
402.367992
 30
0.0
 11
342.941093
 21
402.367992
 31
0.0
  0
LINE
  5
199
330
1F
100
AcDbEntity
  8
LC-002-002-----0
 62
     7
370
    50
100
AcDbLine
 10
232.070789
 20
452.367992
 30
0.0
 11
342.710789
 21
452.367992
 31
0.0
  0
ARC
  5
19A
102
{ACAD_REACTORS
330
2A1
102
}
330
1F
100
AcDbEntity
  8
LC-002-002-----0
  6
DASHED
 62
     7
370
    25
100
AcDbCircle
 10
451.210789
 20
427.367992
 30
0.0
 40
57.49999999999987
100
AcDbArc
 50
121.768796
 51
150.287235
  0
LINE
  5
19B
102
{ACAD_REACTORS
330
29C
102
}
330
1F
100
AcDbEntity
  8
LC-002-002-----0
 62
     7
370
    50
100
AcDbLine
 10
411.140404
 20
377.367992
 30
0.0
 11
412.236531
 21
348.986919
 31
0.0
  0
ARC
  5
19C
102
{ACAD_REACTORS
330
2A1
102
}
330
1F
100
AcDbEntity
  8
LC-002-002-----0
  6
DASHED
 62
     7
370
    25
100
AcDbCircle
 10
451.210789
 20
427.367992
 30
0.0
 40
57.49999999999998
100
AcDbArc
 50
29.88571
 51
60.408154
  0
LINE
  5
19D
102
{ACAD_REACTORS
330
29C
102
}
330
1F
100
AcDbEntity
  8
LC-002-002-----0
  6
DASHED
 62
     7
370
    25
100
AcDbLine
 10
487.013226
 20
377.367992
 30
0.0
 11
493.210606
 21
427.244181
 31
0.0
  0
LINE
  5
19E
102
{ACAD_REACTORS
330
29C
102
}
330
1F
100
AcDbEntity
  8
LC-002-002-----0
  6
DASHED
 62
     7
370
    25
100
AcDbLine
 10
487.695188
 20
382.856386
 30
0.0
 11
488.710789
 21
391.029887
 31
0.0
  0
ARC
  5
19F
102
{ACAD_REACTORS
330
29C
102
}
330
1F
100
AcDbEntity
  8
LC-002-002-----0
  6
DASHED
 62
     7
370
    25
100
AcDbCircle
 10
492.436867
 20
388.365193
 30
0.0
 40
5.000000000000291
100
AcDbArc
 50
221.822378
 51
136.550794
  0
ARC
  5
1A0
102
{ACAD_REACTORS
330
2A1
102
}
330
1F
100
AcDbEntity
  8
LC-002-002-----0
 62
     7
370
    50
100
AcDbCircle
 10
451.210789
 20
427.367992
 30
0.0
 40
57.50000000000492
100
AcDbArc
 50
56.238444
 51
119.591846
  0
ARC
  5
1A1
102
{ACAD_REACTORS
330
29C
102
}
330
1F
100
AcDbEntity
  8
LC-002-002-----0
  6
DASHED
 62
     7
370
    25
100
AcDbCircle
 10
451.210789
 20
427.367992
 30
0.0
 40
42.00000000000168
100
AcDbArc
 50
26.765501
 51
180.052638
  0
ARC
  5
1A2
102
{ACAD_REACTORS
330
2A0
102
}
330
1F
100
AcDbEntity
  8
LC-002-002-----0
 62
     7
370
    50
100
AcDbCircle
 10
451.21506
 20
427.367992
 30
0.0
 40
19.00000000000016
100
AcDbArc
 50
309.720187
 51
230.279778
  0
ARC
  5
1A3
102
{ACAD_REACTORS
330
2A0
102
}
330
1F
100
AcDbEntity
  8
LC-002-002-----0
 62
     7
370
    50
100
AcDbCircle
 10
451.21506
 20
427.367992
 30
0.0
 40
14.00000000000011
100
AcDbArc
 50
315.584808
 51
224.415063
  0
ARC
  5
1A4
102
{ACAD_REACTORS
330
2A0
102
}
330
1F
100
AcDbEntity
  8
LC-002-002-----0
 62
     7
370
    50
100
AcDbCircle
 10
451.21506
 20
427.367992
 30
0.0
 40
12.99999999999996
100
AcDbArc
 50
320.28498
 51
219.714892
  0
LINE
  5
1A5
102
{ACAD_REACTORS
330
2A0
102
}
330
1F
100
AcDbEntity
  8
LC-002-002-----0
 62
     7
370
    50
100
AcDbLine
 10
460.46506
 20
385.367992
 30
0.0
 11
441.96506
 21
385.367992
 31
0.0
  0
LINE
  5
1A6
102
{ACAD_REACTORS
330
2A0
102
}
330
1F
100
AcDbEntity
  8
LC-002-002-----0
 62
     7
370
    50
100
AcDbLine
 10
459.230771
 20
378.367992
 30
0.0
 11
443.177207
 21
378.367992
 31
0.0
  0
LINE
  5
1A7
102
{ACAD_REACTORS
330
2A0
102
}
330
1F
100
AcDbEntity
  8
LC-002-002-----0
 62
     7
370
    50
100
AcDbLine
 10
461.21506
 20
392.367992
 30
0.0
 11
441.21506
 21
392.367992
 31
0.0
  0
LINE
  5
1A8
102
{ACAD_REACTORS
330
2A0
102
}
330
1F
100
AcDbEntity
  8
LC-002-002-----0
 62
     7
370
    50
100
AcDbLine
 10
461.96506
 20
399.367992
 30
0.0
 11
440.46506
 21
399.367992
 31
0.0
  0
LINE
  5
1A9
102
{ACAD_REACTORS
330
2A0
102
}
330
1F
100
AcDbEntity
  8
LC-002-002-----0
 62
     7
370
    50
100
AcDbLine
 10
462.71506
 20
406.367992
 30
0.0
 11
439.71506
 21
406.367992
 31
0.0
  0
LINE
  5
1AA
102
{ACAD_REACTORS
330
2A0
102
}
330
1F
100
AcDbEntity
  8
LC-002-002-----0
 62
     7
370
    50
100
AcDbLine
 10
461.21506
 20
413.367992
 30
0.0
 11
461.21506
 21
419.061368
 31
0.0
  0
LINE
  5
1AB
102
{ACAD_REACTORS
330
2A0
102
}
330
1F
100
AcDbEntity
  8
LC-002-002-----0
 62
     7
370
    50
100
AcDbLine
 10
441.21506
 20
413.367992
 30
0.0
 11
441.21506
 21
419.061368
 31
0.0
  0
LINE
  5
1AC
102
{ACAD_REACTORS
330
2A0
102
}
330
1F
100
AcDbEntity
  8
LC-002-002-----0
 62
     7
370
    50
100
AcDbLine
 10
439.71506
 20
406.367992
 30
0.0
 11
440.949349
 21
399.367992
 31
0.0
  0
LINE
  5
1AD
102
{ACAD_REACTORS
330
2A0
102
}
330
1F
100
AcDbEntity
  8
LC-002-002-----0
 62
     7
370
    50
100
AcDbLine
 10
440.46506
 20
399.367992
 30
0.0
 11
441.699349
 21
392.367992
 31
0.0
  0
LINE
  5
1AE
102
{ACAD_REACTORS
330
2A0
102
}
330
1F
100
AcDbEntity
  8
LC-002-002-----0
 62
     7
370
    50
100
AcDbLine
 10
441.21506
 20
392.367992
 30
0.0
 11
442.449349
 21
385.367992
 31
0.0
  0
LINE
  5
1AF
102
{ACAD_REACTORS
330
2A0
102
}
330
1F
100
AcDbEntity
  8
LC-002-002-----0
 62
     7
370
    50
100
AcDbLine
 10
441.96506
 20
385.367992
 30
0.0
 11
443.177207
 21
378.493563
 31
0.0
  0
LINE
  5
1B0
102
{ACAD_REACTORS
330
2A0
102
}
330
1F
100
AcDbEntity
  8
LC-002-002-----0
 62
     7
370
    50
100
AcDbLine
 10
462.71506
 20
406.367992
 30
0.0
 11
461.480771
 21
399.367992
 31
0.0
  0
LINE
  5
1B1
102
{ACAD_REACTORS
330
2A0
102
}
330
1F
100
AcDbEntity
  8
LC-002-002-----0
 62
     7
370
    50
100
AcDbLine
 10
461.96506
 20
399.367992
 30
0.0
 11
460.730771
 21
392.367992
 31
0.0
  0
LINE
  5
1B2
102
{ACAD_REACTORS
330
2A0
102
}
330
1F
100
AcDbEntity
  8
LC-002-002-----0
 62
     7
370
    50
100
AcDbLine
 10
461.21506
 20
392.367992
 30
0.0
 11
459.980771
 21
385.367992
 31
0.0
  0
LINE
  5
1B3
102
{ACAD_REACTORS
330
2A0
102
}
330
1F
100
AcDbEntity
  8
LC-002-002-----0
 62
     7
370
    50
100
AcDbLine
 10
460.46506
 20
385.367992
 30
0.0
 11
459.230771
 21
378.367992
 31
0.0
  0
LINE
  5
1B4
102
{ACAD_REACTORS
330
2A0
102
}
330
1F
100
AcDbEntity
  8
LC-003-001-----0
 62
     7
370
    50
100
AcDbLine
 10
462.71506
 20
413.367992
 30
0.0
 11
439.71506
 21
413.367992
 31
0.0
  0
LINE
  5
1B5
102
{ACAD_REACTORS
330
2A0
102
}
330
1F
100
AcDbEntity
  8
LC-002-002-----0
 62
     7
370
    50
100
AcDbLine
 10
439.71506
 20
413.367992
 30
0.0
 11
438.96506
 21
413.367992
 31
0.0
  0
LINE
  5
1B6
102
{ACAD_REACTORS
330
2A0
102
}
330
1F
100
AcDbEntity
  8
LC-002-002-----0
 62
     7
370
    50
100
AcDbLine
 10
462.71506
 20
413.367992
 30
0.0
 11
463.46506
 21
413.367992
 31
0.0
  0
LINE
  5
1B7
102
{ACAD_REACTORS
330
2A0
102
}
330
1F
100
AcDbEntity
  8
LC-002-002-----0
 62
     7
370
    50
100
AcDbLine
 10
463.46506
 20
413.367992
 30
0.0
 11
462.230771
 21
406.367992
 31
0.0
  0
LINE
  5
1B8
102
{ACAD_REACTORS
330
2A0
102
}
330
1F
100
AcDbEntity
  8
LC-002-002-----0
 62
     7
370
    50
100
AcDbLine
 10
438.96506
 20
413.367992
 30
0.0
 11
440.199349
 21
406.367992
 31
0.0
  0
LINE
  5
1B9
102
{ACAD_REACTORS
330
29B
102
}
330
1F
100
AcDbEntity
  8
LC-002-002-----0
 62
     7
370
    50
100
AcDbLine
 10
135.170183
 20
404.209984
 30
0.0
 11
135.170183
 21
406.709984
 31
0.0
  0
LINE
  5
1BA
102
{ACAD_REACTORS
330
29B
102
}
330
1F
100
AcDbEntity
  8
LC-002-002-----0
 62
     7
370
    50
100
AcDbLine
 10
148.270183
 20
404.209984
 30
0.0
 11
148.270183
 21
406.709984
 31
0.0
  0
LINE
  5
1BB
102
{ACAD_REACTORS
330
29B
102
}
330
1F
100
AcDbEntity
  8
LC-002-002-----0
 62
     7
370
    50
100
AcDbLine
 10
148.270183
 20
382.707185
 30
0.0
 11
148.270183
 21
392.707185
 31
0.0
  0
LINE
  5
1BC
102
{ACAD_REACTORS
330
29B
102
}
330
1F
100
AcDbEntity
  8
LC-002-002-----0
 62
     7
370
    50
100
AcDbLine
 10
135.170183
 20
382.707185
 30
0.0
 11
148.270183
 21
382.707185
 31
0.0
  0
LINE
  5
1BD
102
{ACAD_REACTORS
330
29B
102
}
330
1F
100
AcDbEntity
  8
LC-002-002-----0
 62
     7
370
    50
100
AcDbLine
 10
135.170183
 20
382.707185
 30
0.0
 11
135.170183
 21
392.707185
 31
0.0
  0
LINE
  5
1BE
102
{ACAD_REACTORS
330
29B
102
}
330
1F
100
AcDbEntity
  8
LC-002-002-----0
 62
     7
370
    50
100
AcDbLine
 10
135.170183
 20
392.707185
 30
0.0
 11
148.270183
 21
392.707185
 31
0.0
  0
LINE
  5
1BF
102
{ACAD_REACTORS
330
29B
102
}
330
1F
100
AcDbEntity
  8
LC-002-002-----0
  6
DASHDOT
 62
     7
370
    25
100
AcDbLine
 10
132.662889
 20
387.707185
 30
0.0
 11
149.405363
 21
387.707185
 31
0.0
  0
LINE
  5
1C0
102
{ACAD_REACTORS
330
299
102
}
330
1F
100
AcDbEntity
  8
LC-002-002-----0
 62
     7
370
    50
100
AcDbLine
 10
70.329174
 20
377.209984
 30
0.0
 11
70.329174
 21
410.709984
 31
0.0
  0
LINE
  5
1C1
102
{ACAD_REACTORS
330
298
102
}
330
1F
100
AcDbEntity
  8
LC-002-002-----0
 62
     7
370
    50
100
AcDbLine
 10
70.329174
 20
377.209984
 30
0.0
 11
66.207854
 21
381.331305
 31
0.0
  0
ARC
  5
1C2
102
{ACAD_REACTORS
330
297
102
}
330
1F
100
AcDbEntity
  8
LC-002-002-----0
 62
     7
370
    50
100
AcDbCircle
 10
68.329174
 20
383.452625
 30
0.0
 40
3.000000000000114
100
AcDbArc
 50
180.0
 51
225.0
  0
LINE
  5
1C3
102
{ACAD_REACTORS
330
2A1
102
}
330
1F
100
AcDbEntity
  8
LC-001-002-RND-0
 62
     7
370
    50
100
AcDbLine
 10
347.710789
 20
455.867992
 30
0.0
 11
401.270825
 21
455.867992
 31
0.0
  0
LINE
  5
1C4
102
{ACAD_REACTORS
330
2A1
102
}
330
1F
100
AcDbEntity
  8
LC-001-002-RND-0
 62
     7
370
    50
100
AcDbLine
 10
347.710789
 20
398.867992
 30
0.0
 11
401.270825
 21
398.867992
 31
0.0
  0
ARC
  5
1C5
102
{ACAD_REACTORS
330
2A1
102
}
330
1F
100
AcDbEntity
  8
LC-001-002-RND-0
 62
     7
370
    50
100
AcDbCircle
 10
347.710789
 20
450.867992
 30
0.0
 40
5.0
100
AcDbArc
 50
90.0
 51
180.0
  0
ARC
  5
1C6
102
{ACAD_REACTORS
330
2A1
102
}
330
1F
100
AcDbEntity
  8
LC-001-002-RND-0
 62
     7
370
    50
100
AcDbCircle
 10
347.710789
 20
403.867992
 30
0.0
 40
5.0
100
AcDbArc
 50
180.0
 51
270.0
  0
LINE
  5
1C7
102
{ACAD_REACTORS
330
2A1
102
}
330
1F
100
AcDbEntity
  8
LC-004-006-MLN-0
 62
     7
370
    25
100
AcDbLine
 10
451.210789
 20
492.367992
 30
0.0
 11
451.210789
 21
329.367992
 31
0.0
  0
CIRCLE
  5
1C8
102
{ACAD_REACTORS
330
2A1
102
}
330
1F
100
AcDbEntity
  8
LC-002-002-----0
  6
DASHED
 62
     7
370
    25
100
AcDbCircle
 10
404.210789
 20
427.367992
 30
0.0
 40
1.5
  0
LINE
  5
1C9
102
{ACAD_REACTORS
330
2A1
102
}
330
1F
100
AcDbEntity
  8
LC-001-002-RND-0
 62
     7
370
    50
100
AcDbLine
 10
342.710789
 20
450.867992
 30
0.0
 11
342.710789
 21
403.867992
 31
0.0
  0
LINE
  5
1CA
102
{ACAD_REACTORS
330
2A1
102
}
330
1F
100
AcDbEntity
  8
LC-002-002-----0
  6
DASHDOT
 62
     7
370
    25
100
AcDbLine
 10
451.210789
 20
381.867992
 30
0.0
 11
451.210789
 21
378.867992
 31
0.0
  0
CIRCLE
  5
1CB
102
{ACAD_REACTORS
330
2A1
102
}
330
1F
100
AcDbEntity
  8
LC-002-002-----0
  6
DASHED
 62
     7
370
    25
100
AcDbCircle
 10
498.210789
 20
427.367992
 30
0.0
 40
1.5
  0
LINE
  5
1CC
102
{ACAD_REACTORS
330
296
102
}
330
1F
100
AcDbEntity
  8
LC-002-002-----0
 62
     7
370
    50
100
AcDbLine
 10
65.329174
 20
410.209984
 30
0.0
 11
65.329174
 21
383.452625
 31
0.0
  0
LINE
  5
1CD
102
{ACAD_REACTORS
330
295
102
}
330
1F
100
AcDbEntity
  8
LC-002-002-----0
 62
     7
370
    50
100
AcDbLine
 10
70.329174
 20
477.209984
 30
0.0
 11
66.207854
 21
473.088664
 31
0.0
  0
ARC
  5
1CE
102
{ACAD_REACTORS
330
294
102
}
330
1F
100
AcDbEntity
  8
LC-002-002-----0
 62
     7
370
    50
100
AcDbCircle
 10
68.329174
 20
470.967344
 30
0.0
 40
2.999999999999944
100
AcDbArc
 50
135.0
 51
180.0
  0
LINE
  5
1CF
330
1F
100
AcDbEntity
  8
LC-002-002-----0
 62
     7
370
    50
100
AcDbLine
 10
65.329174
 20
470.967344
 30
0.0
 11
65.329174
 21
410.209984
 31
0.0
  0
LINE
  5
1D0
330
1F
100
AcDbEntity
  8
LC-002-002-----0
 62
     7
370
    50
100
AcDbLine
 10
32.327013
 20
412.211252
 30
0.0
 11
33.827013
 21
412.211251
 31
0.0
  0
LINE
  5
1D1
330
1F
100
AcDbEntity
  8
LC-002-002-----0
 62
     7
370
    50
100
AcDbLine
 10
165.170183
 20
453.209984
 30
0.0
 11
165.170183
 21
401.209984
 31
0.0
  0
LINE
  5
1D2
330
1F
100
AcDbEntity
  8
LC-002-002-----0
 62
     7
370
    50
100
AcDbLine
 10
167.170183
 20
453.209984
 30
0.0
 11
165.170183
 21
453.209984
 31
0.0
  0
LINE
  5
1D3
330
1F
100
AcDbEntity
  8
LC-002-002-----0
 62
     7
370
    50
100
AcDbLine
 10
167.170183
 20
401.209984
 30
0.0
 11
165.170183
 21
401.209984
 31
0.0
  0
LINE
  5
1D4
330
1F
100
AcDbEntity
  8
LC-002-002-----0
 62
     7
370
    50
100
AcDbLine
 10
167.170183
 20
375.924021
 30
0.0
 11
165.170183
 21
375.924021
 31
0.0
  0
LINE
  5
1D5
330
1F
100
AcDbEntity
  8
LC-002-002-----0
 62
     7
370
    50
100
AcDbLine
 10
167.170183
 20
401.209984
 30
0.0
 11
167.170183
 21
375.924021
 31
0.0
  0
LINE
  5
1D6
330
1F
100
AcDbEntity
  8
LC-002-002-----0
 62
     7
370
    50
100
AcDbLine
 10
165.170183
 20
378.743501
 30
0.0
 11
165.170183
 21
369.709984
 31
0.0
  0
LINE
  5
1D7
330
1F
100
AcDbEntity
  8
LC-002-002-----0
 62
     7
370
    50
100
AcDbLine
 10
165.170183
 20
369.709984
 30
0.0
 11
157.170183
 21
369.709984
 31
0.0
  0
ARC
  5
1D8
330
1F
100
AcDbEntity
  8
LC-001-002-RND-0
 62
     7
370
    50
100
AcDbCircle
 10
157.170183
 20
483.709984
 30
0.0
 40
1.0
100
AcDbArc
 50
90.0
 51
180.0
  0
LINE
  5
1D9
330
1F
100
AcDbEntity
  8
LC-002-002-----0
 62
     7
370
    50
100
AcDbLine
 10
165.170183
 20
453.209984
 30
0.0
 11
165.170183
 21
475.613998
 31
0.0
  0
LINE
  5
1DA
330
1F
100
AcDbEntity
  8
LC-002-002-----0
 62
     7
370
    50
100
AcDbLine
 10
165.170183
 20
384.709984
 30
0.0
 11
165.170183
 21
378.709984
 31
0.0
  0
LINE
  5
1DB
330
1F
100
AcDbEntity
  8
LC-002-002-----0
 62
     7
370
    50
100
AcDbLine
 10
165.170183
 20
384.709984
 30
0.0
 11
165.170183
 21
401.209984
 31
0.0
  0
ARC
  5
1DC
330
1F
100
AcDbEntity
  8
LC-001-002-RND-0
 62
     7
370
    50
100
AcDbCircle
 10
157.170183
 20
370.709984
 30
0.0
 40
1.0
100
AcDbArc
 50
180.0
 51
270.0
  0
LINE
  5
1DD
330
1F
100
AcDbEntity
  8
LC-002-002-----0
 62
     7
370
    50
100
AcDbLine
 10
165.170183
 20
452.209984
 30
0.0
 11
168.170183
 21
452.209984
 31
0.0
  0
LINE
  5
1DE
330
1F
100
AcDbEntity
  8
LC-002-002-----0
 62
     7
370
    50
100
AcDbLine
 10
168.170183
 20
452.209984
 30
0.0
 11
168.170183
 21
402.209984
 31
0.0
  0
LINE
  5
1DF
330
1F
100
AcDbEntity
  8
LC-002-002-----0
 62
     7
370
    50
100
AcDbLine
 10
168.170183
 20
402.209984
 30
0.0
 11
165.170183
 21
402.209984
 31
0.0
  0
LINE
  5
1E0
330
1F
100
AcDbEntity
  8
LC-002-002-----0
 62
     7
370
    50
100
AcDbLine
 10
32.327013
 20
412.211252
 30
0.0
 11
10.827013
 21
412.211266
 31
0.0
  0
LINE
  5
1E1
330
1F
100
AcDbEntity
  8
LC-002-002-----0
 62
     7
370
    50
100
AcDbLine
 10
11.327008
 20
405.211265
 30
0.0
 11
32.327008
 21
405.211252
 31
0.0
  0
LINE
  5
1E2
330
1F
100
AcDbEntity
  8
LC-002-002-----0
 62
     7
370
    50
100
AcDbLine
 10
11.827004
 20
398.211265
 30
0.0
 11
32.187257
 21
398.211252
 31
0.0
  0
LINE
  5
1E3
330
1F
100
AcDbEntity
  8
LC-002-002-----0
 62
     7
370
    50
100
AcDbLine
 10
12.326999
 20
391.211265
 30
0.0
 11
31.456705
 21
391.211252
 31
0.0
  0
LINE
  5
1E4
330
1F
100
AcDbEntity
  8
LC-002-002-----0
 62
     7
370
    50
100
AcDbLine
 10
12.826995
 20
384.211264
 30
0.0
 11
31.423452
 21
384.211252
 31
0.0
  0
LINE
  5
1E5
330
1F
100
AcDbEntity
  8
LC-002-002-----0
 62
     7
370
    50
100
AcDbLine
 10
13.82699
 20
377.211264
 30
0.0
 11
30.82699
 21
377.211252
 31
0.0
  0
LINE
  5
1E6
330
1F
100
AcDbEntity
  8
LC-002-002-----0
 62
     7
370
    50
100
AcDbLine
 10
33.827013
 20
412.211251
 30
0.0
 11
32.327008
 21
405.211252
 31
0.0
  0
LINE
  5
1E7
330
1F
100
AcDbEntity
  8
LC-002-002-----0
 62
     7
370
    50
100
AcDbLine
 10
33.327008
 20
405.211251
 30
0.0
 11
32.187257
 21
398.211252
 31
0.0
  0
LINE
  5
1E8
330
1F
100
AcDbEntity
  8
LC-002-002-----0
 62
     7
370
    50
100
AcDbLine
 10
32.827004
 20
398.211251
 30
0.0
 11
31.456705
 21
391.211252
 31
0.0
  0
LINE
  5
1E9
330
1F
100
AcDbEntity
  8
LC-002-002-----0
 62
     7
370
    50
100
AcDbLine
 10
32.326999
 20
391.211252
 30
0.0
 11
31.423452
 21
384.211252
 31
0.0
  0
LINE
  5
1EA
330
1F
100
AcDbEntity
  8
LC-002-002-----0
 62
     7
370
    50
100
AcDbLine
 10
31.826995
 20
384.211252
 30
0.0
 11
30.82699
 21
377.211252
 31
0.0
  0
LINE
  5
1EB
330
1F
100
AcDbEntity
  8
LC-002-002-----0
 62
     7
370
    50
100
AcDbLine
 10
10.826743
 20
412.21153
 30
0.0
 11
12.326743
 21
405.21153
 31
0.0
  0
LINE
  5
1EC
330
1F
100
AcDbEntity
  8
LC-002-002-----0
 62
     7
370
    50
100
AcDbLine
 10
11.326743
 20
405.21153
 30
0.0
 11
12.466491
 21
398.21153
 31
0.0
  0
LINE
  5
1ED
330
1F
100
AcDbEntity
  8
LC-002-002-----0
 62
     7
370
    50
100
AcDbLine
 10
11.826743
 20
398.21153
 30
0.0
 11
13.197038
 21
391.21153
 31
0.0
  0
LINE
  5
1EE
330
1F
100
AcDbEntity
  8
LC-002-002-----0
 62
     7
370
    50
100
AcDbLine
 10
12.326743
 20
391.21153
 30
0.0
 11
13.230286
 21
384.21153
 31
0.0
  0
LINE
  5
1EF
330
1F
100
AcDbEntity
  8
LC-002-002-----0
 62
     7
370
    50
100
AcDbLine
 10
12.826743
 20
384.21153
 30
0.0
 11
13.826743
 21
377.21153
 31
0.0
  0
LINE
  5
1F0
330
1F
100
AcDbEntity
  8
LC-002-002-----0
 62
     7
370
    50
100
AcDbLine
 10
32.327008
 20
405.211252
 30
0.0
 11
33.327008
 21
405.211251
 31
0.0
  0
LINE
  5
1F1
330
1F
100
AcDbEntity
  8
LC-002-002-----0
 62
     7
370
    50
100
AcDbLine
 10
32.187257
 20
398.211252
 30
0.0
 11
32.827004
 21
398.211251
 31
0.0
  0
LINE
  5
1F2
330
1F
100
AcDbEntity
  8
LC-002-002-----0
 62
     7
370
    50
100
AcDbLine
 10
31.456705
 20
391.211252
 30
0.0
 11
32.326999
 21
391.211252
 31
0.0
  0
LINE
  5
1F3
330
1F
100
AcDbEntity
  8
LC-002-002-----0
 62
     7
370
    50
100
AcDbLine
 10
31.423452
 20
384.211252
 30
0.0
 11
31.826995
 21
384.211252
 31
0.0
  0
LINE
  5
1F4
330
1F
100
AcDbEntity
  8
LC-002-002-----0
 62
     7
370
    50
100
AcDbLine
 10
39.327015
 20
415.211247
 30
0.0
 11
32.327015
 21
415.211252
 31
0.0
  0
LINE
  5
1F5
102
{ACAD_REACTORS
330
293
102
}
330
1F
100
AcDbEntity
  8
LC-002-002-----0
 62
     7
370
    25
100
AcDbLine
 10
90.329174
 20
442.209984
 30
0.0
 11
70.329174
 21
442.209984
 31
0.0
  0
LINE
  5
1F6
102
{ACAD_REACTORS
330
293
102
}
330
1F
100
AcDbEntity
  8
LC-002-002-----0
 62
     7
370
    25
100
AcDbLine
 10
90.329174
 20
412.209984
 30
0.0
 11
70.329174
 21
412.209984
 31
0.0
  0
LINE
  5
1F7
102
{ACAD_REACTORS
330
293
102
}
330
1F
100
AcDbEntity
  8
LC-002-002-----0
 62
     7
370
    50
100
AcDbLine
 10
95.329174
 20
438.709984
 30
0.0
 11
98.329174
 21
438.709984
 31
0.0
  0
LINE
  5
1F8
102
{ACAD_REACTORS
330
293
102
}
330
1F
100
AcDbEntity
  8
LC-002-002-----0
 62
     7
370
    50
100
AcDbLine
 10
90.329174
 20
443.709984
 30
0.0
 11
70.329174
 21
443.709984
 31
0.0
  0
LINE
  5
1F9
102
{ACAD_REACTORS
330
293
102
}
330
1F
100
AcDbEntity
  8
LC-002-002-----0
 62
     7
370
    50
100
AcDbLine
 10
90.329174
 20
410.709984
 30
0.0
 11
70.329174
 21
410.709984
 31
0.0
  0
LINE
  5
1FA
102
{ACAD_REACTORS
330
293
102
}
330
1F
100
AcDbEntity
  8
LC-002-002-----0
 62
     7
370
    50
100
AcDbLine
 10
93.329174
 20
440.709984
 30
0.0
 11
90.329174
 21
443.709984
 31
0.0
  0
LINE
  5
1FB
102
{ACAD_REACTORS
330
293
102
}
330
1F
100
AcDbEntity
  8
LC-002-002-----0
 62
     7
370
    50
100
AcDbLine
 10
93.329174
 20
413.709984
 30
0.0
 11
90.329174
 21
410.709984
 31
0.0
  0
LINE
  5
1FC
102
{ACAD_REACTORS
330
293
102
}
330
1F
100
AcDbEntity
  8
LC-002-002-----0
 62
     7
370
    50
100
AcDbLine
 10
95.329174
 20
438.709984
 30
0.0
 11
95.329174
 21
415.709984
 31
0.0
  0
LINE
  5
1FD
102
{ACAD_REACTORS
330
293
102
}
330
1F
100
AcDbEntity
  8
LC-002-002-----0
 62
     7
370
    50
100
AcDbLine
 10
95.420607
 20
415.87475
 30
0.0
 11
98.329174
 21
415.87475
 31
0.0
  0
LINE
  5
1FE
102
{ACAD_REACTORS
330
293
102
}
330
1F
100
AcDbEntity
  8
LC-002-002-----0
 62
     7
370
    50
100
AcDbLine
 10
116.129174
 20
446.709984
 30
0.0
 11
116.129174
 21
440.709984
 31
0.0
  0
LINE
  5
1FF
102
{ACAD_REACTORS
330
293
102
}
330
1F
100
AcDbEntity
  8
LC-002-002-----0
 62
     7
370
    50
100
AcDbLine
 10
116.129174
 20
413.709984
 30
0.0
 11
116.129174
 21
407.709984
 31
0.0
  0
LINE
  5
200
102
{ACAD_REACTORS
330
293
102
}
330
1F
100
AcDbEntity
  8
LC-002-002-----0
 62
     7
370
    50
100
AcDbLine
 10
114.629174
 20
446.709984
 30
0.0
 11
114.629174
 21
440.709984
 31
0.0
  0
LINE
  5
201
102
{ACAD_REACTORS
330
293
102
}
330
1F
100
AcDbEntity
  8
LC-002-002-----0
 62
     7
370
    50
100
AcDbLine
 10
114.629174
 20
413.709984
 30
0.0
 11
114.629174
 21
407.709984
 31
0.0
  0
LINE
  5
202
102
{ACAD_REACTORS
330
293
102
}
330
1F
100
AcDbEntity
  8
LC-002-002-----0
 62
     7
370
    50
100
AcDbLine
 10
114.629174
 20
438.137822
 30
0.0
 11
114.629174
 21
416.282147
 31
0.0
  0
LINE
  5
203
102
{ACAD_REACTORS
330
293
102
}
330
1F
100
AcDbEntity
  8
LC-002-002-----0
 62
     7
370
    50
100
AcDbLine
 10
116.129174
 20
436.517506
 30
0.0
 11
116.129174
 21
417.917506
 31
0.0
  0
LINE
  5
204
102
{ACAD_REACTORS
330
293
102
}
330
1F
100
AcDbEntity
  8
LC-002-002-----0
 62
     7
370
    50
100
AcDbLine
 10
98.329174
 20
444.709984
 30
0.0
 11
98.329174
 21
440.709984
 31
0.0
  0
LINE
  5
205
102
{ACAD_REACTORS
330
293
102
}
330
1F
100
AcDbEntity
  8
LC-002-002-----0
  6
DASHDOT
 62
     7
370
    25
100
AcDbLine
 10
22.327022
 20
427.209984
 30
0.0
 11
168.170183
 21
427.209984
 31
0.0
  0
LINE
  5
206
102
{ACAD_REACTORS
330
293
102
}
330
1F
100
AcDbEntity
  8
LC-002-002-----0
 62
     7
370
    50
100
AcDbLine
 10
98.329174
 20
438.709984
 30
0.0
 11
98.329174
 21
415.87475
 31
0.0
  0
LINE
  5
207
102
{ACAD_REACTORS
330
293
102
}
330
1F
100
AcDbEntity
  8
LC-002-002-----0
 62
     7
370
    50
100
AcDbLine
 10
98.329174
 20
413.709984
 30
0.0
 11
98.329174
 21
409.709984
 31
0.0
  0
LINE
  5
208
102
{ACAD_REACTORS
330
293
102
}
330
1F
100
AcDbEntity
  8
LC-002-002-----0
 62
     7
370
    50
100
AcDbLine
 10
70.329174
 20
436.517506
 30
0.0
 11
70.329174
 21
417.917506
 31
0.0
  0
LINE
  5
209
102
{ACAD_REACTORS
330
293
102
}
330
1F
100
AcDbEntity
  8
LC-002-002-----0
 62
     7
370
    50
100
AcDbLine
 10
70.329174
 20
418.243383
 30
0.0
 11
70.329174
 21
410.709984
 31
0.0
  0
LINE
  5
20A
102
{ACAD_REACTORS
330
293
102
}
330
1F
100
AcDbEntity
  8
LC-002-002-----0
 62
     7
370
    50
100
AcDbLine
 10
116.129174
 20
410.709984
 30
0.0
 11
116.129174
 21
410.709984
 31
0.0
  0
LINE
  5
20B
102
{ACAD_REACTORS
330
293
102
}
330
1F
100
AcDbEntity
  8
LC-002-002-----0
 62
     7
370
    50
100
AcDbLine
 10
98.829174
 20
441.701918
 30
0.0
 11
98.829174
 21
444.137555
 31
0.0
  0
LINE
  5
20C
102
{ACAD_REACTORS
330
293
102
}
330
1F
100
AcDbEntity
  8
LC-002-002-----0
 62
     7
370
    50
100
AcDbLine
 10
116.129174
 20
443.709984
 30
0.0
 11
116.129174
 21
443.709984
 31
0.0
  0
LINE
  5
20D
102
{ACAD_REACTORS
330
293
102
}
330
1F
100
AcDbEntity
  8
LC-002-002-----0
 62
     7
370
    50
100
AcDbLine
 10
114.629174
 20
419.746248
 30
0.0
 11
98.829174
 21
419.746248
 31
0.0
  0
LINE
  5
20E
102
{ACAD_REACTORS
330
293
102
}
330
1F
100
AcDbEntity
  8
LC-002-002-----0
 62
     7
370
    50
100
AcDbLine
 10
98.829174
 20
429.209984
 30
0.0
 11
98.829174
 21
425.209984
 31
0.0
  0
LINE
  5
20F
102
{ACAD_REACTORS
330
293
102
}
330
1F
100
AcDbEntity
  8
LC-002-002-----0
 62
     7
370
    50
100
AcDbLine
 10
114.629174
 20
416.282147
 30
0.0
 11
98.829174
 21
416.282147
 31
0.0
  0
LINE
  5
210
102
{ACAD_REACTORS
330
293
102
}
330
1F
100
AcDbEntity
  8
LC-002-002-----0
 62
     7
370
    50
100
AcDbLine
 10
98.829174
 20
419.746248
 30
0.0
 11
98.829174
 21
416.282147
 31
0.0
  0
LINE
  5
211
102
{ACAD_REACTORS
330
293
102
}
330
1F
100
AcDbEntity
  8
LC-002-002-----0
 62
     7
370
    50
100
AcDbLine
 10
114.629174
 20
412.718051
 30
0.0
 11
98.829174
 21
412.718051
 31
0.0
  0
LINE
  5
212
102
{ACAD_REACTORS
330
293
102
}
330
1F
100
AcDbEntity
  8
LC-002-002-----0
 62
     7
370
    50
100
AcDbLine
 10
98.829174
 20
412.718051
 30
0.0
 11
98.829174
 21
410.282414
 31
0.0
  0
LINE
  5
213
102
{ACAD_REACTORS
330
293
102
}
330
1F
100
AcDbEntity
  8
LC-002-002-----0
 62
     7
370
    50
100
AcDbLine
 10
98.829174
 20
434.673721
 30
0.0
 11
98.829174
 21
438.137822
 31
0.0
  0
LINE
  5
214
102
{ACAD_REACTORS
330
293
102
}
330
1F
100
AcDbEntity
  8
LC-002-002-----0
 62
     7
370
    50
100
AcDbLine
 10
114.629174
 20
410.282414
 30
0.0
 11
98.829174
 21
410.282414
 31
0.0
  0
LINE
  5
215
102
{ACAD_REACTORS
330
293
102
}
330
1F
100
AcDbEntity
  8
LC-002-002-----0
 62
     7
370
    50
100
AcDbLine
 10
114.629174
 20
434.673721
 30
0.0
 11
98.829174
 21
434.673721
 31
0.0
  0
LINE
  5
216
102
{ACAD_REACTORS
330
293
102
}
330
1F
100
AcDbEntity
  8
LC-002-002-----0
 62
     7
370
    50
100
AcDbLine
 10
114.629174
 20
438.137822
 30
0.0
 11
98.829174
 21
438.137822
 31
0.0
  0
LINE
  5
217
102
{ACAD_REACTORS
330
293
102
}
330
1F
100
AcDbEntity
  8
LC-002-002-----0
 62
     7
370
    50
100
AcDbLine
 10
114.629174
 20
429.209984
 30
0.0
 11
98.829174
 21
429.209984
 31
0.0
  0
LINE
  5
218
102
{ACAD_REACTORS
330
293
102
}
330
1F
100
AcDbEntity
  8
LC-002-002-----0
 62
     7
370
    50
100
AcDbLine
 10
114.629174
 20
425.209984
 30
0.0
 11
98.829174
 21
425.209984
 31
0.0
  0
LINE
  5
219
102
{ACAD_REACTORS
330
293
102
}
330
1F
100
AcDbEntity
  8
LC-002-002-----0
 62
     7
370
    50
100
AcDbLine
 10
114.629174
 20
441.701918
 30
0.0
 11
98.829174
 21
441.701918
 31
0.0
  0
LINE
  5
21A
102
{ACAD_REACTORS
330
293
102
}
330
1F
100
AcDbEntity
  8
LC-002-002-----0
 62
     7
370
    50
100
AcDbLine
 10
114.629174
 20
444.137555
 30
0.0
 11
98.829174
 21
444.137555
 31
0.0
  0
ARC
  5
21B
102
{ACAD_REACTORS
330
293
102
}
330
1F
100
AcDbEntity
  8
LC-001-002-RND-0
 62
     7
370
    50
100
AcDbCircle
 10
99.329174
 20
444.709984
 30
0.0
 40
1.0
100
AcDbArc
 50
90.0
 51
180.0
  0
LINE
  5
21C
102
{ACAD_REACTORS
330
293
102
}
330
1F
100
AcDbEntity
  8
LC-002-002-----0
 62
     7
370
    50
100
AcDbLine
 10
99.329174
 20
445.709984
 30
0.0
 11
114.629174
 21
445.709984
 31
0.0
  0
LINE
  5
21D
102
{ACAD_REACTORS
330
293
102
}
330
1F
100
AcDbEntity
  8
LC-002-002-----0
 62
     7
370
    50
100
AcDbLine
 10
114.629174
 20
446.709984
 30
0.0
 11
116.129174
 21
446.709984
 31
0.0
  0
LINE
  5
21E
102
{ACAD_REACTORS
330
293
102
}
330
1F
100
AcDbEntity
  8
LC-002-002-----0
 62
     7
370
    50
100
AcDbLine
 10
114.629174
 20
407.709984
 30
0.0
 11
116.129174
 21
407.709984
 31
0.0
  0
LINE
  5
21F
102
{ACAD_REACTORS
330
293
102
}
330
1F
100
AcDbEntity
  8
LC-002-002-----0
 62
     7
370
    50
100
AcDbLine
 10
99.329174
 20
408.709984
 30
0.0
 11
114.629174
 21
408.709984
 31
0.0
  0
ARC
  5
220
102
{ACAD_REACTORS
330
293
102
}
330
1F
100
AcDbEntity
  8
LC-001-002-RND-0
 62
     7
370
    50
100
AcDbCircle
 10
99.329174
 20
409.709984
 30
0.0
 40
1.0
100
AcDbArc
 50
180.0
 51
270.0
  0
LINE
  5
221
102
{ACAD_REACTORS
330
293
102
}
330
1F
100
AcDbEntity
  8
LC-002-002-----0
 62
     7
370
    50
100
AcDbLine
 10
116.129174
 20
417.917506
 30
0.0
 11
116.129174
 21
413.709984
 31
0.0
  0
LINE
  5
222
102
{ACAD_REACTORS
330
293
102
}
330
1F
100
AcDbEntity
  8
LC-002-002-----0
 62
     7
370
    50
100
AcDbLine
 10
114.603429
 20
413.727374
 30
0.0
 11
114.603429
 21
416.282147
 31
0.0
  0
LINE
  5
223
102
{ACAD_REACTORS
330
293
102
}
330
1F
100
AcDbEntity
  8
LC-002-002-----0
 62
     7
370
    50
100
AcDbLine
 10
98.329174
 20
413.709984
 30
0.0
 11
98.329174
 21
415.87475
 31
0.0
  0
LINE
  5
224
102
{ACAD_REACTORS
330
293
102
}
330
1F
100
AcDbEntity
  8
LC-002-002-----0
 62
     7
370
    50
100
AcDbLine
 10
95.329174
 20
415.709984
 30
0.0
 11
93.329174
 21
413.709984
 31
0.0
  0
LINE
  5
225
102
{ACAD_REACTORS
330
293
102
}
330
1F
100
AcDbEntity
  8
LC-002-002-----0
 62
     7
370
    50
100
AcDbLine
 10
116.129174
 20
436.517506
 30
0.0
 11
116.129174
 21
440.709984
 31
0.0
  0
LINE
  5
226
102
{ACAD_REACTORS
330
293
102
}
330
1F
100
AcDbEntity
  8
LC-002-002-----0
 62
     7
370
    50
100
AcDbLine
 10
114.629174
 20
440.709984
 30
0.0
 11
114.629174
 21
438.137822
 31
0.0
  0
LINE
  5
227
102
{ACAD_REACTORS
330
293
102
}
330
1F
100
AcDbEntity
  8
LC-002-002-----0
 62
     7
370
    50
100
AcDbLine
 10
98.329174
 20
438.709984
 30
0.0
 11
98.329174
 21
440.709984
 31
0.0
  0
LINE
  5
228
102
{ACAD_REACTORS
330
293
102
}
330
1F
100
AcDbEntity
  8
LC-002-002-----0
 62
     7
370
    50
100
AcDbLine
 10
95.329174
 20
438.709984
 30
0.0
 11
93.329174
 21
440.709984
 31
0.0
  0
LINE
  5
229
102
{ACAD_REACTORS
330
293
102
}
330
1F
100
AcDbEntity
  8
LC-002-002-----0
 62
     7
370
    50
100
AcDbLine
 10
70.329174
 20
436.517506
 30
0.0
 11
70.329174
 21
443.709984
 31
0.0
  0
LINE
  5
22A
330
1F
100
AcDbEntity
  8
LC-002-002-----0
 62
     7
370
    50
100
AcDbLine
 10
133.670183
 20
432.209984
 30
0.0
 11
133.670183
 21
422.209984
 31
0.0
  0
LINE
  5
22B
330
1F
100
AcDbEntity
  8
LC-002-002-----0
 62
     7
370
    50
100
AcDbLine
 10
134.170183
 20
432.709984
 30
0.0
 11
134.670183
 21
432.709984
 31
0.0
  0
LINE
  5
22C
330
1F
100
AcDbEntity
  8
LC-002-002-----0
 62
     7
370
    50
100
AcDbLine
 10
134.170183
 20
421.709984
 30
0.0
 11
134.670183
 21
421.709984
 31
0.0
  0
ARC
  5
22D
330
1F
100
AcDbEntity
  8
LC-001-002-RND-0
 62
     7
370
    50
100
AcDbCircle
 10
134.170183
 20
422.209984
 30
0.0
 40
0.5
100
AcDbArc
 50
180.0
 51
270.0
  0
LINE
  5
22E
330
1F
100
AcDbEntity
  8
LC-002-002-----0
 62
     7
370
    50
100
AcDbLine
 10
148.170183
 20
429.309984
 30
0.0
 11
156.170183
 21
429.309984
 31
0.0
  0
LINE
  5
22F
330
1F
100
AcDbEntity
  8
LC-002-002-----0
 62
     7
370
    50
100
AcDbLine
 10
148.170183
 20
425.109984
 30
0.0
 11
156.170183
 21
425.109984
 31
0.0
  0
ARC
  5
230
330
1F
100
AcDbEntity
  8
LC-001-002-RND-0
 62
     7
370
    50
100
AcDbCircle
 10
134.670183
 20
422.209984
 30
0.0
 40
0.5
100
AcDbArc
 50
270.0
 51
0.0
  0
ARC
  5
231
330
1F
100
AcDbEntity
  8
LC-002-002-----0
 62
     7
370
    50
100
AcDbCircle
 10
143.295183
 20
427.209984
 30
0.0
 40
10.625
100
AcDbArc
 50
154.942385
 51
205.057615
  0
ARC
  5
232
330
1F
100
AcDbEntity
  8
LC-001-002-RND-0
 62
     7
370
    50
100
AcDbCircle
 10
134.670183
 20
432.209984
 30
0.0
 40
0.5
100
AcDbArc
 50
0.0
 51
90.0
  0
ARC
  5
233
330
1F
100
AcDbEntity
  8
LC-001-002-RND-0
 62
     7
370
    50
100
AcDbCircle
 10
134.170183
 20
432.209984
 30
0.0
 40
0.5
100
AcDbArc
 50
90.0
 51
180.0
  0
LINE
  5
234
330
1F
100
AcDbEntity
  8
LC-002-002-----0
 62
     7
370
    25
100
AcDbLine
 10
42.327975
 20
430.209334
 30
0.0
 11
42.327975
 21
424.209334
 31
0.0
  0
LINE
  5
235
330
1F
100
AcDbEntity
  8
LC-002-002-----0
 62
     7
370
    50
100
AcDbLine
 10
57.329376
 20
407.209762
 30
0.0
 11
57.3292
 21
447.209111
 31
0.0
  0
LINE
  5
236
330
1F
100
AcDbEntity
  8
LC-002-002-----0
 62
     7
370
    25
100
AcDbLine
 10
42.327975
 20
419.332958
 30
0.0
 11
42.327975
 21
413.332958
 31
0.0
  0
LINE
  5
237
330
1F
100
AcDbEntity
  8
LC-002-002-----0
 62
     7
370
    50
100
AcDbLine
 10
169.670183
 20
444.709984
 30
0.0
 11
169.670183
 21
434.709984
 31
0.0
  0
LINE
  5
238
330
1F
100
AcDbEntity
  8
LC-002-002-----0
 62
     7
370
    50
100
AcDbLine
 10
169.170183
 20
445.209984
 30
0.0
 11
168.670183
 21
445.209984
 31
0.0
  0
LINE
  5
239
330
1F
100
AcDbEntity
  8
LC-002-002-----0
 62
     7
370
    50
100
AcDbLine
 10
169.170183
 20
434.209984
 30
0.0
 11
168.670183
 21
434.209984
 31
0.0
  0
ARC
  5
23A
330
1F
100
AcDbEntity
  8
LC-001-002-RND-0
 62
     7
370
    50
100
AcDbCircle
 10
169.170183
 20
434.709984
 30
0.0
 40
0.5
100
AcDbArc
 50
270.0
 51
0.0
  0
ARC
  5
23B
330
1F
100
AcDbEntity
  8
LC-001-002-RND-0
 62
     7
370
    50
100
AcDbCircle
 10
168.670183
 20
434.709984
 30
0.0
 40
0.5
100
AcDbArc
 50
180.0
 51
270.0
  0
ARC
  5
23C
330
1F
100
AcDbEntity
  8
LC-002-002-----0
 62
     7
370
    50
100
AcDbCircle
 10
160.045183
 20
439.709984
 30
0.0
 40
10.625
100
AcDbArc
 50
334.942385
 51
25.057615
  0
CIRCLE
  5
23D
330
1F
100
AcDbEntity
  8
LC-002-002-----0
 62
     7
370
    50
100
AcDbCircle
 10
317.070789
 20
439.867992
 30
0.0
 40
4.249999999998619
  0
CIRCLE
  5
23E
330
1F
100
AcDbEntity
  8
LC-002-002-----0
 62
     7
370
    50
100
AcDbCircle
 10
307.070789
 20
427.367992
 30
0.0
 40
4.249999999999909
  0
CIRCLE
  5
23F
330
1F
100
AcDbEntity
  8
LC-002-002-----0
 62
     7
370
    50
100
AcDbCircle
 10
317.070789
 20
414.867992
 30
0.0
 40
4.249999999998491
  0
CIRCLE
  5
240
330
1F
100
AcDbEntity
  8
LC-002-002-----0
 62
     7
370
    50
100
AcDbCircle
 10
277.070789
 20
439.867992
 30
0.0
 40
4.249999999998619
  0
ARC
  5
241
330
1F
100
AcDbEntity
  8
LC-001-002-RND-0
 62
     7
370
    50
100
AcDbCircle
 10
168.670183
 20
444.709984
 30
0.0
 40
0.5
100
AcDbArc
 50
90.0
 51
180.0
  0
ARC
  5
242
330
1F
100
AcDbEntity
  8
LC-001-002-RND-0
 62
     7
370
    50
100
AcDbCircle
 10
169.170183
 20
444.709984
 30
0.0
 40
0.5
100
AcDbArc
 50
0.0
 51
90.0
  0
CIRCLE
  5
243
330
1F
100
AcDbEntity
  8
LC-002-002-----0
 62
     7
370
    50
100
AcDbCircle
 10
277.070789
 20
414.867992
 30
0.0
 40
4.249999999998491
  0
ARC
  5
244
330
1F
100
AcDbEntity
  8
LC-002-002-----0
 62
     7
370
    50
100
AcDbCircle
 10
322.820789
 20
427.367992
 30
0.0
 40
4.25
100
AcDbArc
 50
90.0
 51
270.0
  0
LINE
  5
245
330
1F
100
AcDbEntity
  8
LC-002-002-----0
  6
DASHDOT
 62
     7
370
    25
100
AcDbLine
 10
232.070789
 20
427.367992
 30
0.0
 11
632.070789
 21
427.367992
 31
0.0
  0
LINE
  5
246
330
1F
100
AcDbEntity
  8
LC-002-002-----0
 62
     7
370
    50
100
AcDbLine
 10
282.820789
 20
423.117992
 30
0.0
 11
291.320789
 21
423.117992
 31
0.0
  0
LINE
  5
247
330
1F
100
AcDbEntity
  8
LC-002-002-----0
 62
     7
370
    50
100
AcDbLine
 10
282.820789
 20
431.617992
 30
0.0
 11
291.320789
 21
431.617992
 31
0.0
  0
ARC
  5
248
330
1F
100
AcDbEntity
  8
LC-002-002-----0
 62
     7
370
    50
100
AcDbCircle
 10
282.820789
 20
427.367992
 30
0.0
 40
4.25
100
AcDbArc
 50
90.0
 51
270.0
  0
ARC
  5
249
330
1F
100
AcDbEntity
  8
LC-002-002-----0
 62
     7
370
    50
100
AcDbCircle
 10
291.320789
 20
427.367992
 30
0.0
 40
4.25
100
AcDbArc
 50
270.0
 51
90.0
  0
ARC
  5
24A
330
1F
100
AcDbEntity
  8
LC-002-002-----0
 62
     7
370
    50
100
AcDbCircle
 10
302.930789
 20
413.227992
 30
0.0
 40
3.100000000000023
100
AcDbArc
 50
270.0
 51
90.0
  0
ARC
  5
24B
330
1F
100
AcDbEntity
  8
LC-002-002-----0
 62
     7
370
    50
100
AcDbCircle
 10
291.210789
 20
413.227992
 30
0.0
 40
3.099999999999909
100
AcDbArc
 50
90.0
 51
270.0
  0
LINE
  5
24C
330
1F
100
AcDbEntity
  8
LC-002-002-----0
 62
     7
370
    50
100
AcDbLine
 10
302.930789
 20
410.127992
 30
0.0
 11
291.210789
 21
410.127992
 31
0.0
  0
LINE
  5
24D
330
1F
100
AcDbEntity
  8
LC-002-002-----0
 62
     7
370
    50
100
AcDbLine
 10
302.930789
 20
416.327992
 30
0.0
 11
301.299725
 21
416.327992
 31
0.0
  0
LINE
  5
24E
330
1F
100
AcDbEntity
  8
LC-002-002-----0
 62
     7
370
    50
100
AcDbLine
 10
291.210789
 20
416.327992
 30
0.0
 11
292.841853
 21
416.327992
 31
0.0
  0
ARC
  5
24F
330
1F
100
AcDbEntity
  8
LC-002-002-----0
 62
     7
370
    50
100
AcDbCircle
 10
297.070789
 20
416.017992
 30
0.0
 40
3.09999999999997
100
AcDbArc
 50
23.171101
 51
156.828899
  0
ARC
  5
250
330
1F
100
AcDbEntity
  8
LC-002-002-----0
 62
     7
370
    50
100
AcDbCircle
 10
292.841853
 20
417.827992
 30
0.0
 40
1.5
100
AcDbArc
 50
270.0
 51
336.828899
  0
ARC
  5
251
330
1F
100
AcDbEntity
  8
LC-002-002-----0
 62
     7
370
    50
100
AcDbCircle
 10
301.299725
 20
417.827992
 30
0.0
 40
1.500000000000014
100
AcDbArc
 50
203.171101
 51
270.0
  0
ARC
  5
252
330
1F
100
AcDbEntity
  8
LC-002-002-----0
 62
     7
370
    50
100
AcDbCircle
 10
302.930789
 20
441.507992
 30
0.0
 40
3.099999999999909
100
AcDbArc
 50
270.0
 51
90.0
  0
ARC
  5
253
330
1F
100
AcDbEntity
  8
LC-002-002-----0
 62
     7
370
    50
100
AcDbCircle
 10
291.210789
 20
441.507992
 30
0.0
 40
3.099999999999909
100
AcDbArc
 50
90.0
 51
270.0
  0
LINE
  5
254
330
1F
100
AcDbEntity
  8
LC-002-002-----0
 62
     7
370
    50
100
AcDbLine
 10
302.930789
 20
444.607992
 30
0.0
 11
291.210789
 21
444.607992
 31
0.0
  0
LINE
  5
255
330
1F
100
AcDbEntity
  8
LC-002-002-----0
 62
     7
370
    50
100
AcDbLine
 10
302.930789
 20
438.407992
 30
0.0
 11
301.299725
 21
438.407992
 31
0.0
  0
LINE
  5
256
330
1F
100
AcDbEntity
  8
LC-002-002-----0
 62
     7
370
    50
100
AcDbLine
 10
291.210789
 20
438.407992
 30
0.0
 11
292.841853
 21
438.407992
 31
0.0
  0
ARC
  5
257
330
1F
100
AcDbEntity
  8
LC-002-002-----0
 62
     7
370
    50
100
AcDbCircle
 10
297.070789
 20
438.717992
 30
0.0
 40
3.100000000000014
100
AcDbArc
 50
203.171101
 51
336.828899
  0
ARC
  5
258
330
1F
100
AcDbEntity
  8
LC-002-002-----0
 62
     7
370
    50
100
AcDbCircle
 10
292.841853
 20
436.907992
 30
0.0
 40
1.500000000000014
100
AcDbArc
 50
23.171101
 51
90.0
  0
ARC
  5
259
330
1F
100
AcDbEntity
  8
LC-002-002-----0
 62
     7
370
    50
100
AcDbCircle
 10
301.299725
 20
436.907992
 30
0.0
 40
1.5
100
AcDbArc
 50
90.0
 51
156.828899
  0
LINE
  5
25A
102
{ACAD_REACTORS
330
2A1
102
}
330
1F
100
AcDbEntity
  8
LC-002-002-----0
  6
DASHDOT
 62
     7
370
    25
100
AcDbLine
 10
451.210789
 20
465.845895
 30
0.0
 11
451.210789
 21
448.473349
 31
0.0
  0
LINE
  5
25B
330
1F
100
AcDbEntity
  8
LC-002-002-----0
 62
     7
370
    50
100
AcDbLine
 10
595.767789
 20
471.174992
 30
0.0
 11
595.767789
 21
383.560992
 31
0.0
  0
LINE
  5
25C
330
1F
100
AcDbEntity
  8
LC-002-002-----0
 62
     7
370
    50
100
AcDbLine
 10
595.767789
 20
471.174992
 30
0.0
 11
595.767789
 21
383.560992
 31
0.0
  0
ARC
  5
25D
330
1F
100
AcDbEntity
  8
LC-001-002-RND-0
 62
     7
370
    50
100
AcDbCircle
 10
594.767789
 20
471.174992
 30
0.0
 40
1.0
100
AcDbArc
 50
0.0
 51
90.0
  0
LINE
  5
25E
330
1F
100
AcDbEntity
  8
LC-002-002-----0
 62
     7
370
    50
100
AcDbLine
 10
407.153789
 20
472.174992
 30
0.0
 11
594.767789
 21
472.174992
 31
0.0
  0
LINE
  5
25F
330
1F
100
AcDbEntity
  8
LC-005-003-----0
 62
     7
370
    25
100
AcDbLine
 10
598.948997
 20
475.356201
 30
0.0
 11
596.12057
 21
472.527774
 31
0.0
  0
LINE
  5
260
330
1F
100
AcDbEntity
  8
LC-005-003-----0
 62
     7
370
    25
100
AcDbLine
 10
598.948997
 20
379.379784
 30
0.0
 11
596.12057
 21
382.208211
 31
0.0
  0
LINE
  5
261
330
1F
100
AcDbEntity
  8
LC-002-002-----0
 62
     7
370
    50
100
AcDbLine
 10
595.767789
 20
471.174992
 30
0.0
 11
595.767789
 21
383.560992
 31
0.0
  0
ARC
  5
262
330
1F
100
AcDbEntity
  8
LC-001-002-RND-0
 62
     7
370
    50
100
AcDbCircle
 10
594.767789
 20
383.560992
 30
0.0
 40
1.0
100
AcDbArc
 50
270.0
 51
0.0
  0
LINE
  5
263
330
1F
100
AcDbEntity
  8
LC-002-002-----0
 62
     7
370
    50
100
AcDbLine
 10
594.767789
 20
382.560992
 30
0.0
 11
460.095503
 21
382.560992
 31
0.0
  0
LINE
  5
264
330
1F
100
AcDbEntity
  8
LC-002-002-----0
 62
     7
370
    50
100
AcDbLine
 10
598.710789
 20
377.367992
 30
0.0
 11
459.755432
 21
377.367992
 31
0.0
  0
LINE
  5
265
330
1F
100
AcDbEntity
  8
LC-002-002-----0
 62
     7
370
    50
100
AcDbLine
 10
598.710789
 20
378.367992
 30
0.0
 11
459.862574
 21
378.367992
 31
0.0
  0
LINE
  5
266
330
1F
100
AcDbEntity
  8
LC-002-002-----0
 62
     7
370
    50
100
AcDbLine
 10
459.755432
 20
377.367992
 30
0.0
 11
403.210789
 21
377.367992
 31
0.0
  0
LINE
  5
267
330
1F
100
AcDbEntity
  8
LC-002-002-----0
 62
     7
370
    50
100
AcDbLine
 10
442.559003
 20
378.367992
 30
0.0
 11
403.210789
 21
378.367992
 31
0.0
  0
ARC
  5
268
330
1F
100
AcDbEntity
  8
LC-001-002-RND-0
 62
     7
370
    50
100
AcDbCircle
 10
403.210789
 20
379.617992
 30
0.0
 40
2.25
100
AcDbArc
 50
180.0
 51
270.0
  0
ARC
  5
269
330
1F
100
AcDbEntity
  8
LC-002-002-----0
 62
     7
370
    50
100
AcDbCircle
 10
403.210789
 20
379.617992
 30
0.0
 40
1.25
100
AcDbArc
 50
180.0
 51
270.0
  0
LINE
  5
26A
330
1F
100
AcDbEntity
  8
LC-005-003-----0
 62
     7
370
    25
100
AcDbLine
 10
402.97258
 20
379.379784
 30
0.0
 11
405.801007
 21
382.208211
 31
0.0
  0
LINE
  5
26B
330
1F
100
AcDbEntity
  8
LC-002-002-----0
 62
     7
370
    50
100
AcDbLine
 10
400.960789
 20
379.617992
 30
0.0
 11
400.960789
 21
475.117992
 31
0.0
  0
LINE
  5
26C
330
1F
100
AcDbEntity
  8
LC-002-002-----0
 62
     7
370
    50
100
AcDbLine
 10
401.960789
 20
379.617992
 30
0.0
 11
401.960789
 21
475.117992
 31
0.0
  0
LINE
  5
26D
330
1F
100
AcDbEntity
  8
LC-005-003-----0
 62
     7
370
    25
100
AcDbLine
 10
402.97258
 20
475.356201
 30
0.0
 11
405.801007
 21
472.527774
 31
0.0
  0
ARC
  5
26E
102
{ACAD_REACTORS
330
29F
102
}
330
1F
100
AcDbEntity
  8
LC-001-002-RND-0
 62
     7
370
    50
100
AcDbCircle
 10
407.153789
 20
471.174992
 30
0.0
 40
1.0
100
AcDbArc
 50
90.0
 51
180.0
  0
LINE
  5
26F
102
{ACAD_REACTORS
330
29F
102
}
330
1F
100
AcDbEntity
  8
LC-002-002-----0
 62
     7
370
    50
100
AcDbLine
 10
406.153789
 20
383.560992
 30
0.0
 11
406.153789
 21
471.174992
 31
0.0
  0
LINE
  5
270
330
1F
100
AcDbEntity
  8
LC-002-002-----0
 62
     7
370
    50
100
AcDbLine
 10
442.326074
 20
382.560992
 30
0.0
 11
407.153789
 21
382.560992
 31
0.0
  0
ARC
  5
271
102
{ACAD_REACTORS
330
29E
102
}
330
1F
100
AcDbEntity
  8
LC-001-002-RND-0
 62
     7
370
    50
100
AcDbCircle
 10
407.153789
 20
383.560992
 30
0.0
 40
1.0
100
AcDbArc
 50
180.0
 51
270.0
  0
ARC
  5
272
102
{ACAD_REACTORS
330
29D
102
}
330
1F
100
AcDbEntity
  8
LC-001-002-RND-0
 62
     7
370
    50
100
AcDbCircle
 10
403.210789
 20
475.117992
 30
0.0
 40
2.25
100
AcDbArc
 50
90.0
 51
180.0
  0
ARC
  5
273
102
{ACAD_REACTORS
330
29D
102
}
330
1F
100
AcDbEntity
  8
LC-002-002-----0
 62
     7
370
    50
100
AcDbCircle
 10
403.210789
 20
475.117992
 30
0.0
 40
1.25
100
AcDbArc
 50
90.0
 51
180.0
  0
LINE
  5
274
330
1F
100
AcDbEntity
  8
LC-002-002-----0
 62
     7
370
    50
100
AcDbLine
 10
322.820789
 20
431.617992
 30
0.0
 11
331.320789
 21
431.617992
 31
0.0
  0
ARC
  5
275
330
1F
100
AcDbEntity
  8
LC-002-002-----0
 62
     7
370
    50
100
AcDbCircle
 10
331.320789
 20
427.367992
 30
0.0
 40
4.25
100
AcDbArc
 50
270.0
 51
90.0
  0
LINE
  5
276
330
1F
100
AcDbEntity
  8
LC-002-002-----0
 62
     7
370
    50
100
AcDbLine
 10
322.820789
 20
423.117992
 30
0.0
 11
331.320789
 21
423.117992
 31
0.0
  0
ARC
  5
277
330
1F
100
AcDbEntity
  8
LC-002-002-----0
 62
     7
370
    50
100
AcDbCircle
 10
331.210789
 20
441.507992
 30
0.0
 40
3.099999999999909
100
AcDbArc
 50
90.0
 51
270.0
  0
LINE
  5
278
330
1F
100
AcDbEntity
  8
LC-002-002-----0
 62
     7
370
    50
100
AcDbLine
 10
342.930789
 20
444.607992
 30
0.0
 11
331.210789
 21
444.607992
 31
0.0
  0
LINE
  5
279
330
1F
100
AcDbEntity
  8
LC-002-002-----0
 62
     7
370
    50
100
AcDbLine
 10
342.930789
 20
438.407992
 30
0.0
 11
341.299725
 21
438.407992
 31
0.0
  0
LINE
  5
27A
330
1F
100
AcDbEntity
  8
LC-002-002-----0
 62
     7
370
    50
100
AcDbLine
 10
331.210789
 20
438.407992
 30
0.0
 11
332.841853
 21
438.407992
 31
0.0
  0
ARC
  5
27B
330
1F
100
AcDbEntity
  8
LC-002-002-----0
 62
     7
370
    50
100
AcDbCircle
 10
337.070789
 20
438.717992
 30
0.0
 40
3.100000000000014
100
AcDbArc
 50
203.171101
 51
336.828899
  0
ARC
  5
27C
330
1F
100
AcDbEntity
  8
LC-002-002-----0
 62
     7
370
    50
100
AcDbCircle
 10
332.841853
 20
436.907992
 30
0.0
 40
1.500000000000014
100
AcDbArc
 50
23.171101
 51
90.0
  0
ARC
  5
27D
330
1F
100
AcDbEntity
  8
LC-002-002-----0
 62
     7
370
    50
100
AcDbCircle
 10
341.299725
 20
436.907992
 30
0.0
 40
1.5
100
AcDbArc
 50
90.0
 51
156.828899
  0
ARC
  5
27E
330
1F
100
AcDbEntity
  8
LC-002-002-----0
 62
     7
370
    50
100
AcDbCircle
 10
331.210789
 20
413.227992
 30
0.0
 40
3.099999999999909
100
AcDbArc
 50
90.0
 51
270.0
  0
LINE
  5
27F
330
1F
100
AcDbEntity
  8
LC-002-002-----0
 62
     7
370
    50
100
AcDbLine
 10
342.930789
 20
410.127992
 30
0.0
 11
331.210789
 21
410.127992
 31
0.0
  0
LINE
  5
280
330
1F
100
AcDbEntity
  8
LC-002-002-----0
 62
     7
370
    50
100
AcDbLine
 10
342.930789
 20
416.327992
 30
0.0
 11
341.299725
 21
416.327992
 31
0.0
  0
LINE
  5
281
330
1F
100
AcDbEntity
  8
LC-002-002-----0
 62
     7
370
    50
100
AcDbLine
 10
331.210789
 20
416.327992
 30
0.0
 11
332.841853
 21
416.327992
 31
0.0
  0
ARC
  5
282
330
1F
100
AcDbEntity
  8
LC-002-002-----0
 62
     7
370
    50
100
AcDbCircle
 10
337.070789
 20
416.017992
 30
0.0
 40
3.09999999999997
100
AcDbArc
 50
23.171101
 51
156.828899
  0
ARC
  5
283
330
1F
100
AcDbEntity
  8
LC-002-002-----0
 62
     7
370
    50
100
AcDbCircle
 10
332.841853
 20
417.827992
 30
0.0
 40
1.5
100
AcDbArc
 50
270.0
 51
336.828899
  0
ARC
  5
284
330
1F
100
AcDbEntity
  8
LC-002-002-----0
 62
     7
370
    50
100
AcDbCircle
 10
341.299725
 20
417.827992
 30
0.0
 40
1.500000000000014
100
AcDbArc
 50
203.171101
 51
270.0
  0
DIMENSION
  5
285
330
1F
100
AcDbEntity
  8
LC-005-003-----0
 62
     7
370
    25
100
AcDbDimension
  2
*D8
 10
601.210789
 20
558.79113
 30
0.0
 11
498.903985
 21
589.59113
 31
0.0
 70
   160
  1
200
 71
     5
 42
200.25
  3
LC-DIM-L-0140-02-02
100
AcDbAlignedDimension
 13
400.960789
 23
475.117992
 33
0.0
 14
601.210789
 24
474.867992
 34
0.0
100
AcDbRotatedDimension
  0
ENDSEC
  0
SECTION
  2
OBJECTS
  0
DICTIONARY
  5
C
330
0
100
AcDbDictionary
281
     1
  3
ACAD_GROUP
350
D
  3
ACAD_LAYOUT
350
1A
  3
ACAD_MLINESTYLE
350
17
  3
ACAD_PLOTSETTINGS
350
19
  3
ACAD_PLOTSTYLENAME
350
E
  0
DICTIONARY
  5
D
102
{ACAD_REACTORS
330
C
102
}
330
C
100
AcDbDictionary
281
     1
  3
LCGROUP1125
350
29A
  3
LCGROUP1126
350
299
  3
LCGROUP1127
350
298
  3
LCGROUP1128
350
297
  3
LCGROUP1129
350
296
  3
LCGROUP1130
350
295
  3
LCGROUP1131
350
294
  3
LCGROUP1144
350
29B
  3
LCGROUP1403
350
293
  3
LCGROUP219
350
2A1
  3
LCGROUP2375
350
29F
  3
LCGROUP2379
350
29E
  3
LCGROUP2381
350
29D
  3
LCGROUP271
350
2A2
  3
LCGROUP572
350
292
  3
LCGROUP661
350
29C
  3
LCGROUP737
350
2A0
  0
DICTIONARY
  5
1A
102
{ACAD_REACTORS
330
C
102
}
330
C
100
AcDbDictionary
281
     1
  3
Layout1
350
1E
  3
Layout2
350
26
  3
Model
350
22
  0
DICTIONARY
  5
17
102
{ACAD_REACTORS
330
C
102
}
330
C
100
AcDbDictionary
281
     1
  3
Standard
350
18
  0
DICTIONARY
  5
19
102
{ACAD_REACTORS
330
C
102
}
330
C
100
AcDbDictionary
281
     1
  0
ACDBDICTIONARYWDFLT
  5
E
102
{ACAD_REACTORS
330
C
102
}
330
C
100
AcDbDictionary
281
     1
  3
Normal
350
F
100
AcDbDictionaryWithDefault
340
F
  0
GROUP
  5
29A
102
{ACAD_REACTORS
330
D
102
}
330
D
100
AcDbGroup
300
GRP1125
 70
     1
 71
     1
340
B8
  0
GROUP
  5
299
102
{ACAD_REACTORS
330
D
102
}
330
D
100
AcDbGroup
300
GRP1126
 70
     1
 71
     1
340
1C0
  0
GROUP
  5
298
102
{ACAD_REACTORS
330
D
102
}
330
D
100
AcDbGroup
300
GRP1127
 70
     1
 71
     1
340
1C1
  0
GROUP
  5
297
102
{ACAD_REACTORS
330
D
102
}
330
D
100
AcDbGroup
300
GRP1128
 70
     1
 71
     1
340
1C2
  0
GROUP
  5
296
102
{ACAD_REACTORS
330
D
102
}
330
D
100
AcDbGroup
300
GRP1129
 70
     1
 71
     1
340
1CC
  0
GROUP
  5
295
102
{ACAD_REACTORS
330
D
102
}
330
D
100
AcDbGroup
300
GRP1130
 70
     1
 71
     1
340
1CD
  0
GROUP
  5
294
102
{ACAD_REACTORS
330
D
102
}
330
D
100
AcDbGroup
300
GRP1131
 70
     1
 71
     1
340
1CE
  0
GROUP
  5
29B
102
{ACAD_REACTORS
330
D
102
}
330
D
100
AcDbGroup
300
GRP1144
 70
     1
 71
     1
340
42
340
43
340
45
340
53
340
54
340
55
340
56
340
57
340
58
340
59
340
5A
340
5B
340
5C
340
5D
340
5E
340
5F
340
60
340
61
340
62
340
63
340
64
340
65
340
66
340
67
340
68
340
69
340
75
340
76
340
86
340
87
340
88
340
89
340
8A
340
8B
340
8C
340
8D
340
8E
340
8F
340
90
340
92
340
B9
340
BA
340
BB
340
BC
340
BE
340
BF
340
C0
340
C1
340
C2
340
C3
340
C4
340
C5
340
C6
340
C7
340
C8
340
C9
340
CA
340
11B
340
11C
340
186
340
18D
340
193
340
1B9
340
1BA
340
1BB
340
1BC
340
1BD
340
1BE
340
1BF
  0
GROUP
  5
293
102
{ACAD_REACTORS
330
D
102
}
330
D
100
AcDbGroup
300
GRP1403
 70
     1
 71
     1
340
1F5
340
1F6
340
1F7
340
1F8
340
1F9
340
1FA
340
1FB
340
1FC
340
1FD
340
1FE
340
1FF
340
200
340
201
340
202
340
203
340
204
340
205
340
206
340
207
340
208
340
209
340
20A
340
20B
340
20C
340
20D
340
20E
340
20F
340
210
340
211
340
212
340
213
340
214
340
215
340
216
340
217
340
218
340
219
340
21A
340
21B
340
21C
340
21D
340
21E
340
21F
340
220
340
221
340
222
340
223
340
224
340
225
340
226
340
227
340
228
340
229
  0
GROUP
  5
2A1
102
{ACAD_REACTORS
330
D
102
}
330
D
100
AcDbGroup
300
GRP219
 70
     1
 71
     1
340
4E
340
4F
340
19A
340
19C
340
1A0
340
1C3
340
1C4
340
1C5
340
1C6
340
1C7
340
1C8
340
1C9
340
1CA
340
1CB
340
25A
  0
GROUP
  5
29F
102
{ACAD_REACTORS
330
D
102
}
330
D
100
AcDbGroup
300
Gruppe 2375
 70
     1
 71
     1
340
26E
340
26F
  0
GROUP
  5
29E
102
{ACAD_REACTORS
330
D
102
}
330
D
100
AcDbGroup
300
Gruppe 2379
 70
     1
 71
     1
340
271
  0
GROUP
  5
29D
102
{ACAD_REACTORS
330
D
102
}
330
D
100
AcDbGroup
300
Gruppe 2381
 70
     1
 71
     1
340
272
340
273
  0
GROUP
  5
2A2
102
{ACAD_REACTORS
330
D
102
}
330
D
100
AcDbGroup
300
Flansch1
 70
     1
 71
     1
340
7A
  0
GROUP
  5
292
102
{ACAD_REACTORS
330
D
102
}
330
D
100
AcDbGroup
300
GRP572
 70
     1
 71
     1
340
17D
340
17E
340
17F
340
180
340
181
340
182
340
183
340
184
  0
GROUP
  5
29C
102
{ACAD_REACTORS
330
D
102
}
330
D
100
AcDbGroup
300
GRP661
 70
     1
 71
     1
340
32
340
44
340
7E
340
7F
340
81
340
82
340
84
340
85
340
93
340
95
340
96
340
A3
340
A4
340
A5
340
A7
340
AB
340
18A
340
18B
340
18C
340
18E
340
18F
340
190
340
191
340
192
340
19B
340
19D
340
19E
340
19F
340
1A1
  0
GROUP
  5
2A0
102
{ACAD_REACTORS
330
D
102
}
330
D
100
AcDbGroup
300
GRP737
 70
     1
 71
     1
340
1A2
340
1A3
340
1A4
340
1A5
340
1A6
340
1A7
340
1A8
340
1A9
340
1AA
340
1AB
340
1AC
340
1AD
340
1AE
340
1AF
340
1B0
340
1B1
340
1B2
340
1B3
340
1B4
340
1B5
340
1B6
340
1B7
340
1B8
  0
LAYOUT
  5
1E
102
{ACAD_REACTORS
330
1A
102
}
330
1A
100
AcDbPlotSettings
  1

  2

  4

  6

 40
0.0
 41
0.0
 42
0.0
 43
0.0
 44
0.0
 45
0.0
 46
0.0
 47
0.0
 48
0.0
 49
0.0
140
0.0
141
0.0
142
1.0
143
1.0
 70
   688
 72
     0
 73
     0
 74
     5
  7

 75
    16
147
1.0
148
0.0
149
0.0
100
AcDbLayout
  1
Layout1
 70
     1
 71
     1
 10
-231.687089
 20
-82.014
 11
956.312911
 21
757.986
 12
0.0
 22
0.0
 32
0.0
 14
-231.687089
 24
-82.014
 34
0.0
 15
956.312911
 25
757.986
 35
0.0
146
0.0
 13
0.0
 23
0.0
 33
0.0
 16
1.0
 26
0.0
 36
0.0
 17
0.0
 27
1.0
 37
0.0
 76
     0
330
1B
  0
LAYOUT
  5
26
102
{ACAD_REACTORS
330
1A
102
}
330
1A
100
AcDbPlotSettings
  1

  2

  4

  6

 40
0.0
 41
0.0
 42
0.0
 43
0.0
 44
0.0
 45
0.0
 46
0.0
 47
0.0
 48
0.0
 49
0.0
140
0.0
141
0.0
142
1.0
143
1.0
 70
   688
 72
     0
 73
     0
 74
     5
  7

 75
    16
147
1.0
148
0.0
149
0.0
100
AcDbLayout
  1
Layout2
 70
     1
 71
     2
 10
0.0
 20
0.0
 11
0.0
 21
0.0
 12
0.0
 22
0.0
 32
0.0
 14
0.0
 24
0.0
 34
0.0
 15
0.0
 25
0.0
 35
0.0
146
0.0
 13
0.0
 23
0.0
 33
0.0
 16
1.0
 26
0.0
 36
0.0
 17
0.0
 27
1.0
 37
0.0
 76
     0
330
23
  0
LAYOUT
  5
22
102
{ACAD_REACTORS
330
1A
102
}
330
1A
100
AcDbPlotSettings
  1

  2

  4

  6

 40
0.0
 41
0.0
 42
0.0
 43
0.0
 44
0.0
 45
0.0
 46
0.0
 47
0.0
 48
0.0
 49
0.0
140
0.0
141
0.0
142
1.0
143
1.0
 70
  1776
 72
     0
 73
     0
 74
     0
  7

 75
     0
147
1.0
148
0.0
149
0.0
100
AcDbLayout
  1
Model
 70
     1
 71
     0
 10
-231.687089
 20
-82.014
 11
956.312911
 21
757.986
 12
0.0
 22
0.0
 32
0.0
 14
-231.687089
 24
-82.014
 34
0.0
 15
956.312911
 25
757.986
 35
0.0
146
0.0
 13
0.0
 23
0.0
 33
0.0
 16
1.0
 26
0.0
 36
0.0
 17
0.0
 27
1.0
 37
0.0
 76
     0
330
1F
  0
MLINESTYLE
  5
18
102
{ACAD_REACTORS
330
17
102
}
330
17
100
AcDbMlineStyle
  2
Standard
 70
     0
  3

 62
   256
 51
90.0
 52
90.0
 71
     2
 49
0.5
 62
   256
  6
BYLAYER
 49
-0.5
 62
   256
  6
BYLAYER
  0
ACDBPLACEHOLDER
  5
F
102
{ACAD_REACTORS
330
E
102
}
330
E
  0
ENDSEC
  0
EOF
