  0
SECTION
  2
HEADER
  9
$ACADVER
  1
AC1009
  9
$INSBASE
 10
0.0
 20
0.0
 30
0.0
  9
$EXTMIN
 10
0.0
 20
0.0
 30
0.0
  9
$EXTMAX
 10
840.0
 20
594.0
 30
0.0
  9
$LIMMIN
 10
0.0
 20
0.0
  9
$LIMMAX
 10
840.0
 20
594.0
  9
$ORTHOMODE
 70
     0
  9
$REGENMODE
 70
     1
  9
$FILLMODE
 70
     1
  9
$QTEXTMODE
 70
     0
  9
$MIRRTEXT
 70
     1
  9
$DRAGMODE
 70
     2
  9
$LTSCALE
 40
2.0
  9
$OSMODE
 70
     0
  9
$ATTMODE
 70
     1
  9
$TEXTSIZE
 40
0.2
  9
$TRACEWID
 40
0.05
  9
$TEXTSTYLE
  7
STANDARD
  9
$CLAYER
  8
0
  9
$CELTYPE
  6
BYLAYER
  9
$CECOLOR
 62
     7
  9
$DIMSCALE
 40
2.0
  9
$DIMASZ
 40
3.5
  9
$DIMEXO
 40
0.0625
  9
$DIMDLI
 40
0.38
  9
$DIMRND
 40
0.0
  9
$DIMDLE
 40
0.0
  9
$DIMEXE
 40
0.18
  9
$DIMTP
 40
0.0
  9
$DIMTM
 40
0.0
  9
$DIMTXT
 40
3.5
  9
$DIMCEN
 40
0.09
  9
$DIMTSZ
 40
0.0
  9
$DIMTOL
 70
     0
  9
$DIMLIM
 70
     0
  9
$DIMTIH
 70
     1
  9
$DIMTOH
 70
     1
  9
$DIMSE1
 70
     0
  9
$DIMSE2
 70
     0
  9
$DIMTAD
 70
     1
  9
$DIMZIN
 70
     0
  9
$DIMBLK
  1

  9
$DIMASO
 70
     1
  9
$DIMSHO
 70
     1
  9
$DIMPOST
  1

  9
$DIMAPOST
  1

  9
$DIMALT
 70
     0
  9
$DIMALTD
 70
     2
  9
$DIMALTF
 40
25.4
  9
$DIMLFAC
 40
1.0
  9
$DIMTOFL
 70
     0
  9
$DIMTVP
 40
0.0
  9
$DIMTIX
 70
     0
  9
$DIMSOXD
 70
     0
  9
$DIMSAH
 70
     0
  9
$DIMBLK1
  1

  9
$DIMBLK2
  1

  9
$DIMSTYLE
  2
STANDARD
  9
$DIMCLRD
 70
     0
  9
$DIMCLRE
 70
     0
  9
$DIMCLRT
 70
     0
  9
$DIMTFAC
 40
1.0
  9
$DIMGAP
 40
0.09
  9
$LUNITS
 70
     2
  9
$LUPREC
 70
     2
  9
$AXISMODE
 70
     0
  9
$AXISUNIT
 10
0.0
 20
0.0
  9
$SKETCHINC
 40
0.1
  9
$FILLETRAD
 40
0.0
  9
$AUNITS
 70
     0
  9
$AUPREC
 70
     0
  9
$MENU
  1
acad
  9
$ELEVATION
 40
0.0
  9
$PELEVATION
 40
0.0
  9
$THICKNESS
 40
0.0
  9
$LIMCHECK
 70
     0
  9
$BLIPMODE
 70
     1
  9
$CHAMFERA
 40
0.0
  9
$CHAMFERB
 40
0.0
  9
$SKPOLY
 70
     0
  9
$TDCREATE
 40
0.000000000
  9
$TDUPDATE
 40
0.000000000
  9
$TDINDWG
 40
0.0000000000
  9
$TDUSRTIMER
 40
0.0000000000
  9
$USRTIMER
 70
     1
  9
$ANGBASE
 50
0.0
  9
$ANGDIR
 70
     0
  9
$PDMODE
 70
     0
  9
$PDSIZE
 40
0.0
  9
$PLINEWID
 40
0.0
  9
$COORDS
 70
     0
  9
$SPLFRAME
 70
     0
  9
$SPLINETYPE
 70
     6
  9
$SPLINESEGS
 70
     8
  9
$ATTDIA
 70
     0
  9
$ATTREQ
 70
     1
  9
$HANDLING
 70
     1
  9
$HANDSEED
  5
A7
  9
$SURFTAB1
 70
     6
  9
$SURFTAB2
 70
     6
  9
$SURFTYPE
 70
     6
  9
$SURFU
 70
     6
  9
$SURFV
 70
     6
  9
$UCSNAME
  2

  9
$UCSORG
 10
0.0
 20
0.0
 30
0.0
  9
$UCSXDIR
 10
1.0
 20
0.0
 30
0.0
  9
$UCSYDIR
 10
0.0
 20
1.0
 30
0.0
  9
$PUCSNAME
  2

  9
$PUCSORG
 10
0.0
 20
0.0
 30
0.0
  9
$PUCSXDIR
 10
1.0
 20
0.0
 30
0.0
  9
$PUCSYDIR
 10
0.0
 20
1.0
 30
0.0
  9
$USERI1
 70
     0
  9
$USERI2
 70
     0
  9
$USERI3
 70
     0
  9
$USERI4
 70
     0
  9
$USERI5
 70
     0
  9
$USERR1
 40
0.0
  9
$USERR2
 40
0.0
  9
$USERR3
 40
0.0
  9
$USERR4
 40
0.0
  9
$USERR5
 40
0.0
  9
$WORLDVIEW
 70
     1
  9
$SHADEDGE
 70
     3
  9
$SHADEDIF
 70
    70
  9
$TILEMODE
 70
     1
  9
$MAXACTVP
 70
    16
  9
$PINSBASE
 10
0.0
 20
0.0
 30
0.0
  9
$PLIMCHECK
 70
     0
  9
$PEXTMIN
 10
1.000000E+20
 20
1.000000E+20
 30
1.000000E+20
  9
$PEXTMAX
 10
-1.000000E+20
 20
-1.000000E+20
 30
-1.000000E+20
  9
$PLIMMIN
 10
0.0
 20
0.0
  9
$PLIMMAX
 10
840.0
 20
594.0
  9
$UNITMODE
 70
     0
  9
$VISRETAIN
 70
     0
  9
$PLINEGEN
 70
     1
  9
$PSLTSCALE
 70
     0
  9
$TREEDEPTH
 70
  3020
  9
$DWGCODEPAGE
  3
dos850
  0
ENDSEC
  0
SECTION
  2
TABLES
  0
TABLE
  2
VPORT
 70
     1
  0
VPORT
  2
*ACTIVE
 70
     0
 10
0.0
 20
0.0
 11
1.0
 21
1.0
 12
420.0
 22
297.0
 13
0.0
 23
0.0
 14
1.0
 24
1.0
 15
0.0
 25
0.0
 16
0.0
 26
0.0
 36
1.0
 17
0.0
 27
0.0
 37
0.0
 40
594.0
 41
1.604229
 42
50.0
 43
0.0
 44
0.0
 50
0.0
 51
0.0
 71
     0
 72
   100
 73
     1
 74
     1
 75
     0
 76
     0
 77
     0
 78
     0
  0
ENDTAB
  0
TABLE
  2
LTYPE
 70
     2
  0
LTYPE
  2
CONTINUOUS
 70
    64
  3
Solid line
 72
    65
 73
     0
 40
0.0
  0
LTYPE
  2
DASHDOT
 70
    64
  3
__ . __ . __ . __ . __
 72
    65
 73
     4
 40
7.5
 49
5.0
 49
-1.25
 49
0.0
 49
-1.25
  0
ENDTAB
  0
TABLE
  2
LAYER
 70
     8
  0
LAYER
  2
0
 70
     0
 62
     7
  6
CONTINUOUS
  0
LAYER
  2
LC-INFO-1-2-MM-A3-0
 70
     1
 62
    -1
  6
CONTINUOUS
  0
LAYER
  2
LC-004-003-MTH-0
 70
     0
 62
     2
  6
CONTINUOUS
  0
LAYER
  2
LC-005-003-MTG-0
 70
     0
 62
     2
  6
CONTINUOUS
  0
LAYER
  2
LC-003-003-----0
 70
     0
 62
     2
  6
CONTINUOUS
  0
LAYER
  2
LC-002-000-----0
 70
     0
 62
     7
  6
CONTINUOUS
  0
LAYER
  2
LC-001-002-----0
 70
     0
 62
     2
  6
DASHDOT
  0
LAYER
  2
LC-000
 70
     0
 62
     7
  6
CONTINUOUS
  0
ENDTAB
  0
TABLE
  2
STYLE
 70
     4
  0
STYLE
  2
STANDARD
 70
     0
 40
0.0
 41
1.0
 50
0.0
 71
     0
 42
0.0
  3
txt
  4

  0
STYLE
  2
LC-STANDARD
 70
    64
 40
0.0
 41
1.0
 50
0.0
 71
     0
 42
3.5
  3
MONOTXT
  4

  0
STYLE
  2
LC-TXTSTYLE-150-400-0-0-D2
 70
    64
 40
0.0
 41
1.0
 50
15.0
 71
     0
 42
3.5
  3
MONOTXT
  4

  0
STYLE
  2
LC-TXTSTYLE-150-400-0-0-D3
 70
    64
 40
0.0
 41
1.0
 50
15.0
 71
     0
 42
3.5
  3
LC-STANDARD
  4

  0
ENDTAB
  0
TABLE
  2
VIEW
 70
     0
  0
ENDTAB
  0
TABLE
  2
UCS
 70
     0
  0
ENDTAB
  0
TABLE
  2
APPID
 70
     1
  0
APPID
  2
ACAD
 70
     0
  0
ENDTAB
  0
TABLE
  2
DIMSTYLE
 70
     3
  0
DIMSTYLE
  2
STANDARD
 70
     0
  3

  4

  5

  6

  7

 40
1.0
 41
0.18
 42
0.0625
 43
0.38
 44
0.18
 45
0.0
 46
0.0
 47
0.0
 48
0.0
 71
     0
 72
     0
 73
     1
 74
     1
 75
     0
 76
     0
 77
     0
 78
     0
140
0.18
141
0.09
142
0.0
143
25.4
144
1.0
145
0.0
146
1.0
147
0.09
170
     0
171
     2
172
     0
173
     0
174
     0
175
     0
176
     0
177
     0
178
     0
  0
DIMSTYLE
  2
LC-STANDARD
 70
     0
  3

  4

  5

  6

  7

 40
1.0
 41
3.5
 42
0.0
 43
7.5
 44
1.8
 45
0.0
 46
0.0
 47
0.0
 48
0.0
 71
     0
 72
     0
 73
     0
 74
     0
 75
     0
 76
     0
 77
     1
 78
     8
140
3.5
141
0.0
142
0.0
143
25.4
144
1.0
145
0.0
146
0.71
147
1.5
170
     0
171
     2
172
     1
173
     0
174
     0
175
     0
176
     0
177
     0
178
     3
  0
DIMSTYLE
  2
LC-DIM-L-0090-02-02
 70
     0
  3

  4

  5

  6

  7

 40
2.0
 41
3.5
 42
0.0
 43
7.5
 44
1.8
 45
0.0
 46
0.0
 47
0.0
 48
0.0
 71
     0
 72
     0
 73
     0
 74
     0
 75
     0
 76
     0
 77
     1
 78
     8
140
9.0
141
0.0
142
0.0
143
25.4
144
1.0
145
0.0
146
0.71
147
1.5
170
     0
171
     2
172
     0
173
     0
174
     0
175
     0
176
     2
177
     2
178
     6
  0
ENDTAB
  0
ENDSEC
  0
SECTION
  2
BLOCKS
  0
BLOCK
  8
0
  5
23
  2
BLK1
 70
    64
 10
0.0
 20
0.0
 30
0.0
  3
BLK1
  0
ENDBLK
  8
0
  5
24
  0
BLOCK
  8
0
  5
26
  2
*D1
 70
    65
 10
0.0
 20
0.0
 30
0.0
  3
*D1
  0
LINE
  8
LC-004-003-MTH-0
  6
CONTINUOUS
  5
28
 10
383.293333
 20
395.442068
 30
0.0
 11
383.293333
 21
442.8
 31
0.0
  0
LINE
  8
LC-004-003-MTH-0
  6
CONTINUOUS
  5
29
 10
493.293333
 20
395.442068
 30
0.0
 11
493.293333
 21
442.8
 31
0.0
  0
LINE
  8
LC-005-003-MTG-0
  6
CONTINUOUS
  5
2B
 10
383.293333
 20
432.0
 30
0.0
 11
493.293333
 21
432.0
 31
0.0
  0
LINE
  8
LC-003-003-----0
  6
CONTINUOUS
  5
2D
 10
401.139341
 20
434.349471
 30
0.0
 11
383.293333
 21
432.0
 31
0.0
  0
LINE
  8
LC-003-003-----0
  6
CONTINUOUS
  5
2E
 10
383.293333
 20
432.0
 30
0.0
 11
401.139341
 21
429.650529
 31
0.0
  0
LINE
  8
LC-003-003-----0
  6
CONTINUOUS
  5
2F
 10
401.139341
 20
429.650529
 30
0.0
 11
401.139341
 21
434.349471
 31
0.0
  0
LINE
  8
LC-003-003-----0
  6
CONTINUOUS
  5
30
 10
401.179379
 20
433.738609
 30
0.0
 11
387.973333
 21
432.0
 31
0.0
  0
LINE
  8
LC-003-003-----0
  6
CONTINUOUS
  5
31
 10
387.973333
 20
432.0
 30
0.0
 11
401.179379
 21
430.261391
 31
0.0
  0
LINE
  8
LC-003-003-----0
  6
CONTINUOUS
  5
32
 10
401.219417
 20
433.127746
 30
0.0
 11
392.653333
 21
432.0
 31
0.0
  0
LINE
  8
LC-003-003-----0
  6
CONTINUOUS
  5
33
 10
392.653333
 20
432.0
 30
0.0
 11
401.219417
 21
430.872254
 31
0.0
  0
LINE
  8
LC-003-003-----0
  6
CONTINUOUS
  5
34
 10
401.259455
 20
432.516884
 30
0.0
 11
397.333333
 21
432.0
 31
0.0
  0
LINE
  8
LC-003-003-----0
  6
CONTINUOUS
  5
35
 10
397.333333
 20
432.0
 30
0.0
 11
401.259455
 21
431.483116
 31
0.0
  0
LINE
  8
LC-003-003-----0
  6
CONTINUOUS
  5
36
 10
475.447326
 20
429.650529
 30
0.0
 11
493.293333
 21
432.0
 31
0.0
  0
LINE
  8
LC-003-003-----0
  6
CONTINUOUS
  5
37
 10
493.293333
 20
432.0
 30
0.0
 11
475.447326
 21
434.349471
 31
0.0
  0
LINE
  8
LC-003-003-----0
  6
CONTINUOUS
  5
38
 10
475.447326
 20
434.349471
 30
0.0
 11
475.447326
 21
429.650529
 31
0.0
  0
LINE
  8
LC-003-003-----0
  6
CONTINUOUS
  5
39
 10
475.407288
 20
430.261391
 30
0.0
 11
488.613333
 21
432.0
 31
0.0
  0
LINE
  8
LC-003-003-----0
  6
CONTINUOUS
  5
3A
 10
488.613333
 20
432.0
 30
0.0
 11
475.407288
 21
433.738609
 31
0.0
  0
LINE
  8
LC-003-003-----0
  6
CONTINUOUS
  5
3B
 10
475.36725
 20
430.872254
 30
0.0
 11
483.933333
 21
432.0
 31
0.0
  0
LINE
  8
LC-003-003-----0
  6
CONTINUOUS
  5
3C
 10
483.933333
 20
432.0
 30
0.0
 11
475.36725
 21
433.127746
 31
0.0
  0
LINE
  8
LC-003-003-----0
  6
CONTINUOUS
  5
3D
 10
475.327212
 20
431.483116
 30
0.0
 11
479.253333
 21
432.0
 31
0.0
  0
LINE
  8
LC-003-003-----0
  6
CONTINUOUS
  5
3E
 10
479.253333
 20
432.0
 30
0.0
 11
475.327212
 21
432.516884
 31
0.0
  0
TEXT
  8
LC-003-003-----0
  6
CONTINUOUS
 62
     6
  5
40
 10
443.070873
 20
442.431999
 30
0.0
 40
18.0
  1
Ø110
 41
0.9
 51
15.0
  7
LC-TXTSTYLE-150-400-0-0-D0
  0
ENDBLK
  8
0
  5
41
  0
BLOCK
  8
0
  5
43
  2
*D2
 70
    65
 10
0.0
 20
0.0
 30
0.0
  3
*D2
  0
LINE
  8
LC-004-003-MTH-0
  6
CONTINUOUS
  5
44
 10
358.293333
 20
295.442068
 30
0.0
 11
358.293333
 21
241.2
 31
0.0
  0
LINE
  8
LC-004-003-MTH-0
  6
CONTINUOUS
  5
45
 10
518.293333
 20
295.442068
 30
0.0
 11
518.293333
 21
241.2
 31
0.0
  0
LINE
  8
LC-005-003-MTG-0
  6
CONTINUOUS
  5
46
 10
358.293333
 20
252.0
 30
0.0
 11
518.293333
 21
252.0
 31
0.0
  0
LINE
  8
LC-003-003-----0
  6
CONTINUOUS
  5
47
 10
376.139341
 20
254.349471
 30
0.0
 11
358.293333
 21
252.0
 31
0.0
  0
LINE
  8
LC-003-003-----0
  6
CONTINUOUS
  5
48
 10
358.293333
 20
252.0
 30
0.0
 11
376.139341
 21
249.650529
 31
0.0
  0
LINE
  8
LC-003-003-----0
  6
CONTINUOUS
  5
49
 10
376.139341
 20
249.650529
 30
0.0
 11
376.139341
 21
254.349471
 31
0.0
  0
LINE
  8
LC-003-003-----0
  6
CONTINUOUS
  5
4A
 10
376.179379
 20
253.738609
 30
0.0
 11
362.973333
 21
252.0
 31
0.0
  0
LINE
  8
LC-003-003-----0
  6
CONTINUOUS
  5
4B
 10
362.973333
 20
252.0
 30
0.0
 11
376.179379
 21
250.261391
 31
0.0
  0
LINE
  8
LC-003-003-----0
  6
CONTINUOUS
  5
4C
 10
376.219417
 20
253.127746
 30
0.0
 11
367.653333
 21
252.0
 31
0.0
  0
LINE
  8
LC-003-003-----0
  6
CONTINUOUS
  5
4D
 10
367.653333
 20
252.0
 30
0.0
 11
376.219417
 21
250.872254
 31
0.0
  0
LINE
  8
LC-003-003-----0
  6
CONTINUOUS
  5
4E
 10
376.259455
 20
252.516884
 30
0.0
 11
372.333333
 21
252.0
 31
0.0
  0
LINE
  8
LC-003-003-----0
  6
CONTINUOUS
  5
4F
 10
372.333333
 20
252.0
 30
0.0
 11
376.259455
 21
251.483116
 31
0.0
  0
LINE
  8
LC-003-003-----0
  6
CONTINUOUS
  5
50
 10
500.447326
 20
249.650529
 30
0.0
 11
518.293333
 21
252.0
 31
0.0
  0
LINE
  8
LC-003-003-----0
  6
CONTINUOUS
  5
51
 10
518.293333
 20
252.0
 30
0.0
 11
500.447326
 21
254.349471
 31
0.0
  0
LINE
  8
LC-003-003-----0
  6
CONTINUOUS
  5
52
 10
500.447326
 20
254.349471
 30
0.0
 11
500.447326
 21
249.650529
 31
0.0
  0
LINE
  8
LC-003-003-----0
  6
CONTINUOUS
  5
53
 10
500.407288
 20
250.261391
 30
0.0
 11
513.613333
 21
252.0
 31
0.0
  0
LINE
  8
LC-003-003-----0
  6
CONTINUOUS
  5
54
 10
513.613333
 20
252.0
 30
0.0
 11
500.407288
 21
253.738609
 31
0.0
  0
LINE
  8
LC-003-003-----0
  6
CONTINUOUS
  5
55
 10
500.36725
 20
250.872254
 30
0.0
 11
508.933333
 21
252.0
 31
0.0
  0
LINE
  8
LC-003-003-----0
  6
CONTINUOUS
  5
56
 10
508.933333
 20
252.0
 30
0.0
 11
500.36725
 21
253.127746
 31
0.0
  0
LINE
  8
LC-003-003-----0
  6
CONTINUOUS
  5
57
 10
500.327212
 20
251.483116
 30
0.0
 11
504.253333
 21
252.0
 31
0.0
  0
LINE
  8
LC-003-003-----0
  6
CONTINUOUS
  5
58
 10
504.253333
 20
252.0
 30
0.0
 11
500.327212
 21
252.516884
 31
0.0
  0
TEXT
  8
LC-003-003-----0
  6
CONTINUOUS
 62
     6
  5
59
 10
412.099534
 20
262.431999
 30
0.0
 40
18.0
  1
Ø160
 51
15.0
  7
LC-TXTSTYLE-150-400-0-0-D0
 72
     1
 11
436.590873
 21
262.431999
 31
0.0
  0
ENDBLK
  8
0
  5
5A
  0
BLOCK
  8
0
  5
5C
  2
*D3
 70
    65
 10
0.0
 20
0.0
 30
0.0
  3
*D3
  0
LINE
  8
LC-004-003-MTH-0
  6
CONTINUOUS
  5
5D
 10
518.293333
 20
295.442068
 30
0.0
 11
586.8
 21
295.442068
 31
0.0
  0
LINE
  8
LC-004-003-MTH-0
  6
CONTINUOUS
  5
5E
 10
498.293333
 20
395.442068
 30
0.0
 11
586.8
 21
395.442068
 31
0.0
  0
LINE
  8
LC-005-003-MTG-0
  6
CONTINUOUS
  5
5F
 10
576.0
 20
295.442068
 30
0.0
 11
576.0
 21
395.442068
 31
0.0
  0
LINE
  8
LC-003-003-----0
  6
CONTINUOUS
  5
60
 10
573.650529
 20
313.288075
 30
0.0
 11
576.0
 21
295.442068
 31
0.0
  0
LINE
  8
LC-003-003-----0
  6
CONTINUOUS
  5
61
 10
576.0
 20
295.442068
 30
0.0
 11
578.349471
 21
313.288075
 31
0.0
  0
LINE
  8
LC-003-003-----0
  6
CONTINUOUS
  5
62
 10
578.349471
 20
313.288075
 30
0.0
 11
573.650529
 21
313.288075
 31
0.0
  0
LINE
  8
LC-003-003-----0
  6
CONTINUOUS
  5
63
 10
574.261391
 20
313.328113
 30
0.0
 11
576.0
 21
300.122068
 31
0.0
  0
LINE
  8
LC-003-003-----0
  6
CONTINUOUS
  5
64
 10
576.0
 20
300.122068
 30
0.0
 11
577.738609
 21
313.328113
 31
0.0
  0
LINE
  8
LC-003-003-----0
  6
CONTINUOUS
  5
65
 10
574.872254
 20
313.368152
 30
0.0
 11
576.0
 21
304.802068
 31
0.0
  0
LINE
  8
LC-003-003-----0
  6
CONTINUOUS
  5
66
 10
576.0
 20
304.802068
 30
0.0
 11
577.127746
 21
313.368152
 31
0.0
  0
LINE
  8
LC-003-003-----0
  6
CONTINUOUS
  5
67
 10
575.483116
 20
313.40819
 30
0.0
 11
576.0
 21
309.482068
 31
0.0
  0
LINE
  8
LC-003-003-----0
  6
CONTINUOUS
  5
68
 10
576.0
 20
309.482068
 30
0.0
 11
576.516884
 21
313.40819
 31
0.0
  0
LINE
  8
LC-003-003-----0
  6
CONTINUOUS
  5
69
 10
578.349471
 20
377.59606
 30
0.0
 11
576.0
 21
395.442068
 31
0.0
  0
LINE
  8
LC-003-003-----0
  6
CONTINUOUS
  5
6A
 10
576.0
 20
395.442068
 30
0.0
 11
573.650529
 21
377.59606
 31
0.0
  0
LINE
  8
LC-003-003-----0
  6
CONTINUOUS
  5
6B
 10
573.650529
 20
377.59606
 30
0.0
 11
578.349471
 21
377.59606
 31
0.0
  0
LINE
  8
LC-003-003-----0
  6
CONTINUOUS
  5
6C
 10
577.738609
 20
377.556022
 30
0.0
 11
576.0
 21
390.762068
 31
0.0
  0
LINE
  8
LC-003-003-----0
  6
CONTINUOUS
  5
6D
 10
576.0
 20
390.762068
 30
0.0
 11
574.261391
 21
377.556022
 31
0.0
  0
LINE
  8
LC-003-003-----0
  6
CONTINUOUS
  5
6E
 10
577.127746
 20
377.515984
 30
0.0
 11
576.0
 21
386.082068
 31
0.0
  0
LINE
  8
LC-003-003-----0
  6
CONTINUOUS
  5
6F
 10
576.0
 20
386.082068
 30
0.0
 11
574.872254
 21
377.515984
 31
0.0
  0
LINE
  8
LC-003-003-----0
  6
CONTINUOUS
  5
70
 10
576.516884
 20
377.475946
 30
0.0
 11
576.0
 21
381.402068
 31
0.0
  0
LINE
  8
LC-003-003-----0
  6
CONTINUOUS
  5
71
 10
576.0
 20
381.402068
 30
0.0
 11
575.483116
 21
377.475946
 31
0.0
  0
TEXT
  8
LC-003-003-----0
  6
CONTINUOUS
 62
     6
  5
72
 10
565.568001
 20
322.907246
 30
0.0
 40
18.0
  1
100
 50
90.0
 51
15.0
  7
LC-TXTSTYLE-150-400-0-0-D0
  0
ENDBLK
  8
0
  5
73
  0
ENDSEC
  0
SECTION
  2
ENTITIES
  0
VIEWPORT
  8
LC-000
  5
A2
 67
     1
 68
     1
 10
420.0
 20
297.0
 30
0.0
 40
840.0
 41
594.0
 69
     1
1001
ACAD
1000
MVIEW
1002
{
1070
    16
1010
0.0
1020
0.0
1030
0.0
1010
0.0
1020
0.0
1030
1.0
1040
0.0
1040
594.0
1040
420.0
1040
297.0
1040
50.0
1040
0.0
1040
0.0
1070
     0
1070
   100
1070
     1
1070
     1
1070
     0
1070
     0
1070
     0
1070
     0
1040
0.0
1040
0.0
1040
0.0
1040
1.0
1040
1.0
1040
0.0
1040
0.0
1070
     0
1002
{
1002
}
1002
}
  0
VIEWPORT
  8
0
  5
A3
 67
     1
 68
     1
 10
0.0
 20
0.0
 30
0.0
 40
0.0
 41
0.0
 69
     1
1001
ACAD
1000
MVIEW
1002
{
1070
    16
1010
0.0
1020
0.0
1030
0.0
1010
0.0
1020
0.0
1030
1.0
1040
0.0
1040
594.0
1040
0.0
1040
0.0
1040
50.0
1040
0.0
1040
0.0
1070
     0
1070
   100
1070
     0
1070
     1
1070
     0
1070
     0
1070
     0
1070
     0
1040
0.0
1040
0.0
1040
0.0
1040
0.5
1040
0.5
1040
0.5
1040
0.5
1070
     0
1002
{
1002
}
1002
}
  0
INSERT
  8
0
  5
75
  2
BLK1
 10
0.0
 20
0.0
 30
0.0
  0
DIMENSION
  8
0
  5
76
  2
*D1
 10
433.795627
 20
432.0
 30
0.0
 11
433.795627
 21
432.0
 31
0.0
  1
%%c110
 13
383.293333
 23
395.442068
 33
0.0
 14
493.293333
 24
395.442068
 34
0.0
  3
LC-DIM-L-0090-02-02
  0
DIMENSION
  8
0
  5
77
  2
*D2
 10
433.795627
 20
252.0
 30
0.0
 11
433.795627
 21
252.0
 31
0.0
  1
%%c160
 13
358.293333
 23
295.442068
 33
0.0
 14
518.293333
 24
295.442068
 34
0.0
  3
LC-DIM-L-0090-02-02
  0
DIMENSION
  8
0
  5
78
  2
*D3
 10
576.0
 20
313.632
 30
0.0
 11
576.0
 21
313.632
 31
0.0
 13
518.293333
 23
295.442068
 33
0.0
 14
498.293333
 24
395.442068
 34
0.0
 50
90.0
  3
LC-DIM-L-0090-02-02
  0
LINE
  8
LC-001-002-----0
  5
7B
 10
438.293333
 20
395.442068
 30
0.0
 11
438.293333
 21
295.442068
 31
0.0
  0
LINE
  8
LC-001-002-----0
  6
CONTINUOUS
 62
     1
  5
7C
 10
493.293333
 20
395.442068
 30
0.0
 11
493.293333
 21
392.442068
 31
0.0
  0
LINE
  8
LC-001-002-----0
  6
CONTINUOUS
 62
     1
  5
7D
 10
472.293333
 20
392.442068
 30
0.0
 11
458.293333
 21
392.442068
 31
0.0
  0
LINE
  8
LC-001-002-----0
  6
CONTINUOUS
 62
     1
  5
7E
 10
383.293333
 20
392.442068
 30
0.0
 11
383.293333
 21
395.442068
 31
0.0
  0
LINE
  8
LC-001-002-----0
  6
CONTINUOUS
 62
     1
  5
7F
 10
383.293333
 20
395.442068
 30
0.0
 11
493.293333
 21
395.442068
 31
0.0
  0
LINE
  8
LC-001-002-----0
  6
CONTINUOUS
 62
     1
  5
80
 10
518.293333
 20
295.442068
 30
0.0
 11
358.293333
 21
295.442068
 31
0.0
  0
LINE
  8
LC-001-002-----0
  6
CONTINUOUS
 62
     1
  5
81
 10
378.293333
 20
395.442068
 30
0.0
 11
383.293333
 21
395.442068
 31
0.0
  0
ARC
  8
LC-001-002-----0
  6
CONTINUOUS
 62
     1
  5
82
 10
378.293333
 20
375.442068
 30
0.0
 40
20.0
 50
90.0
 51
179.999848
  0
LINE
  8
LC-001-002-----0
  6
CONTINUOUS
 62
     1
  5
83
 10
358.293333
 20
295.442068
 30
0.0
 11
358.293333
 21
375.442068
 31
0.0
  0
LINE
  8
LC-001-002-----0
  6
CONTINUOUS
 62
     1
  5
84
 10
493.293333
 20
395.442068
 30
0.0
 11
498.293333
 21
395.442068
 31
0.0
  0
ARC
  8
LC-001-002-----0
  6
CONTINUOUS
 62
     1
  5
85
 10
498.293333
 20
375.442068
 30
0.0
 40
20.0
 50
0.0
 51
90.0
  0
LINE
  8
LC-001-002-----0
  6
CONTINUOUS
 62
     1
  5
86
 10
518.293333
 20
375.442068
 30
0.0
 11
518.293333
 21
295.442068
 31
0.0
  0
LINE
  8
LC-001-002-----0
  6
CONTINUOUS
 62
     1
  5
87
 10
360.793333
 20
295.442068
 30
0.0
 11
360.793333
 21
375.442068
 31
0.0
  0
LINE
  8
LC-001-002-----0
  6
CONTINUOUS
 62
     1
  5
88
 10
360.793333
 20
375.442068
 30
0.0
 11
362.793333
 21
375.442068
 31
0.0
  0
LINE
  8
LC-001-002-----0
  6
CONTINUOUS
 62
     1
  5
89
 10
362.793333
 20
375.442068
 30
0.0
 11
362.793333
 21
295.442068
 31
0.0
  0
LINE
  8
LC-001-002-----0
  6
CONTINUOUS
 62
     1
  5
8A
 10
365.793333
 20
295.442068
 30
0.0
 11
365.793333
 21
376.942068
 31
0.0
  0
LINE
  8
LC-001-002-----0
  6
CONTINUOUS
 62
     1
  5
8B
 10
383.293333
 20
392.442068
 30
0.0
 11
365.793333
 21
375.442068
 31
0.0
  0
LINE
  8
LC-001-002-----0
  6
CONTINUOUS
 62
     1
  5
8C
 10
383.293333
 20
392.442068
 30
0.0
 11
381.293333
 21
392.442068
 31
0.0
  0
LINE
  8
LC-001-002-----0
  6
CONTINUOUS
 62
     1
  5
8D
 10
381.293333
 20
392.442068
 30
0.0
 11
365.793333
 21
376.942068
 31
0.0
  0
LINE
  8
LC-001-002-----0
  6
CONTINUOUS
 62
     1
  5
8E
 10
515.293333
 20
295.442068
 30
0.0
 11
515.293333
 21
375.442068
 31
0.0
  0
LINE
  8
LC-001-002-----0
  6
CONTINUOUS
 62
     1
  5
8F
 10
515.293333
 20
375.442068
 30
0.0
 11
512.293333
 21
375.442068
 31
0.0
  0
LINE
  8
LC-001-002-----0
  6
CONTINUOUS
 62
     1
  5
90
 10
512.293333
 20
375.442068
 30
0.0
 11
512.293333
 21
295.442068
 31
0.0
  0
LINE
  8
LC-001-002-----0
  6
CONTINUOUS
 62
     1
  5
91
 10
513.793333
 20
295.442068
 30
0.0
 11
513.793333
 21
375.442068
 31
0.0
  0
LINE
  8
LC-001-002-----0
  6
CONTINUOUS
 62
     1
  5
92
 10
493.293333
 20
392.442068
 30
0.0
 11
495.293333
 21
392.442068
 31
0.0
  0
LINE
  8
LC-001-002-----0
  6
CONTINUOUS
 62
     1
  5
93
 10
495.293333
 20
392.442068
 30
0.0
 11
510.793333
 21
376.942068
 31
0.0
  0
LINE
  8
LC-001-002-----0
  6
CONTINUOUS
 62
     1
  5
94
 10
365.793333
 20
376.942068
 30
0.0
 11
398.293543
 21
376.942068
 31
0.0
  0
LINE
  8
LC-001-002-----0
  6
CONTINUOUS
 62
     1
  5
95
 10
512.293333
 20
375.442068
 30
0.0
 11
512.293333
 21
376.942068
 31
0.0
  0
LINE
  8
LC-001-002-----0
  6
CONTINUOUS
 62
     1
  5
96
 10
418.293333
 20
392.442068
 30
0.0
 11
423.293333
 21
376.942068
 31
0.0
  0
LINE
  8
LC-001-002-----0
  6
CONTINUOUS
 62
     1
  5
97
 10
458.293333
 20
392.442068
 30
0.0
 11
453.293333
 21
376.942068
 31
0.0
  0
LINE
  8
LC-001-002-----0
  6
CONTINUOUS
 62
     1
  5
98
 10
418.293333
 20
392.442068
 30
0.0
 11
404.293475
 21
392.442068
 31
0.0
  0
LINE
  8
LC-001-002-----0
  6
CONTINUOUS
 62
     1
  5
99
 10
472.293333
 20
392.442068
 30
0.0
 11
478.293333
 21
376.942068
 31
0.0
  0
LINE
  8
LC-001-002-----0
  6
CONTINUOUS
 62
     1
  5
9A
 10
495.293333
 20
392.442068
 30
0.0
 11
495.293333
 21
376.942068
 31
0.0
  0
LINE
  8
LC-001-002-----0
  6
CONTINUOUS
 62
     1
  5
9B
 10
493.293333
 20
392.442068
 30
0.0
 11
493.293333
 21
376.942068
 31
0.0
  0
LINE
  8
LC-001-002-----0
  6
CONTINUOUS
 62
     1
  5
9C
 10
478.293333
 20
376.942068
 30
0.0
 11
512.293333
 21
376.942068
 31
0.0
  0
LINE
  8
LC-001-002-----0
  6
CONTINUOUS
 62
     1
  5
9D
 10
404.293553
 20
392.442269
 30
0.0
 11
398.293543
 21
376.942273
 31
0.0
  0
LINE
  8
LC-001-002-----0
  6
CONTINUOUS
 62
     1
  5
9E
 10
381.293553
 20
392.442284
 30
0.0
 11
381.293543
 21
376.942284
 31
0.0
  0
LINE
  8
LC-001-002-----0
  6
CONTINUOUS
 62
     1
  5
9F
 10
383.293553
 20
392.442283
 30
0.0
 11
383.293543
 21
376.942283
 31
0.0
  0
LINE
  8
LC-001-002-----0
  6
CONTINUOUS
 62
     1
  5
A0
 10
423.293333
 20
376.942068
 30
0.0
 11
453.293333
 21
376.942068
 31
0.0
  0
ENDSEC
  0
EOF
