  0
SECTION
  2
HEADER
  9
$ACADVER
  1
AC1009
  9
$INSBASE
 10
0.0
 20
0.0
 30
0.0
  9
$EXTMIN
 10
0.0
 20
0.0
 30
0.0
  9
$EXTMAX
 10
840.0
 20
594.0
 30
0.0
  9
$LIMMIN
 10
0.0
 20
0.0
  9
$LIMMAX
 10
840.0
 20
594.0
  9
$ORTHOMODE
 70
     0
  9
$REGENMODE
 70
     1
  9
$FILLMODE
 70
     1
  9
$QTEXTMODE
 70
     0
  9
$MIRRTEXT
 70
     1
  9
$DRAGMODE
 70
     2
  9
$LTSCALE
 40
2.0
  9
$OSMODE
 70
     0
  9
$ATTMODE
 70
     1
  9
$TEXTSIZE
 40
0.2
  9
$TRACEWID
 40
0.05
  9
$TEXTSTYLE
  7
STANDARD
  9
$CLAYER
  8
0
  9
$CELTYPE
  6
BYLAYER
  9
$CECOLOR
 62
     7
  9
$DIMSCALE
 40
2.0
  9
$DIMASZ
 40
3.5
  9
$DIMEXO
 40
0.0625
  9
$DIMDLI
 40
0.38
  9
$DIMRND
 40
0.0
  9
$DIMDLE
 40
0.0
  9
$DIMEXE
 40
0.18
  9
$DIMTP
 40
0.0
  9
$DIMTM
 40
0.0
  9
$DIMTXT
 40
3.5
  9
$DIMCEN
 40
0.09
  9
$DIMTSZ
 40
0.0
  9
$DIMTOL
 70
     0
  9
$DIMLIM
 70
     0
  9
$DIMTIH
 70
     1
  9
$DIMTOH
 70
     1
  9
$DIMSE1
 70
     0
  9
$DIMSE2
 70
     0
  9
$DIMTAD
 70
     1
  9
$DIMZIN
 70
     0
  9
$DIMBLK
  1

  9
$DIMASO
 70
     1
  9
$DIMSHO
 70
     1
  9
$DIMPOST
  1

  9
$DIMAPOST
  1

  9
$DIMALT
 70
     0
  9
$DIMALTD
 70
     2
  9
$DIMALTF
 40
25.4
  9
$DIMLFAC
 40
1.0
  9
$DIMTOFL
 70
     0
  9
$DIMTVP
 40
0.0
  9
$DIMTIX
 70
     0
  9
$DIMSOXD
 70
     0
  9
$DIMSAH
 70
     0
  9
$DIMBLK1
  1

  9
$DIMBLK2
  1

  9
$DIMSTYLE
  2
STANDARD
  9
$DIMCLRD
 70
     0
  9
$DIMCLRE
 70
     0
  9
$DIMCLRT
 70
     0
  9
$DIMTFAC
 40
1.0
  9
$DIMGAP
 40
0.09
  9
$LUNITS
 70
     2
  9
$LUPREC
 70
     2
  9
$AXISMODE
 70
     0
  9
$AXISUNIT
 10
0.0
 20
0.0
  9
$SKETCHINC
 40
0.1
  9
$FILLETRAD
 40
0.0
  9
$AUNITS
 70
     0
  9
$AUPREC
 70
     0
  9
$MENU
  1
acad
  9
$ELEVATION
 40
0.0
  9
$PELEVATION
 40
0.0
  9
$THICKNESS
 40
0.0
  9
$LIMCHECK
 70
     0
  9
$BLIPMODE
 70
     1
  9
$CHAMFERA
 40
0.0
  9
$CHAMFERB
 40
0.0
  9
$SKPOLY
 70
     0
  9
$TDCREATE
 40
0.000000000
  9
$TDUPDATE
 40
0.000000000
  9
$TDINDWG
 40
0.0000000000
  9
$TDUSRTIMER
 40
0.0000000000
  9
$USRTIMER
 70
     1
  9
$ANGBASE
 50
0.0
  9
$ANGDIR
 70
     0
  9
$PDMODE
 70
     0
  9
$PDSIZE
 40
0.0
  9
$PLINEWID
 40
0.0
  9
$COORDS
 70
     0
  9
$SPLFRAME
 70
     0
  9
$SPLINETYPE
 70
     6
  9
$SPLINESEGS
 70
     8
  9
$ATTDIA
 70
     0
  9
$ATTREQ
 70
     1
  9
$HANDLING
 70
     1
  9
$HANDSEED
  5
292
  9
$SURFTAB1
 70
     6
  9
$SURFTAB2
 70
     6
  9
$SURFTYPE
 70
     6
  9
$SURFU
 70
     6
  9
$SURFV
 70
     6
  9
$UCSNAME
  2

  9
$UCSORG
 10
0.0
 20
0.0
 30
0.0
  9
$UCSXDIR
 10
1.0
 20
0.0
 30
0.0
  9
$UCSYDIR
 10
0.0
 20
1.0
 30
0.0
  9
$PUCSNAME
  2

  9
$PUCSORG
 10
0.0
 20
0.0
 30
0.0
  9
$PUCSXDIR
 10
1.0
 20
0.0
 30
0.0
  9
$PUCSYDIR
 10
0.0
 20
1.0
 30
0.0
  9
$USERI1
 70
     0
  9
$USERI2
 70
     0
  9
$USERI3
 70
     0
  9
$USERI4
 70
     0
  9
$USERI5
 70
     0
  9
$USERR1
 40
0.0
  9
$USERR2
 40
0.0
  9
$USERR3
 40
0.0
  9
$USERR4
 40
0.0
  9
$USERR5
 40
0.0
  9
$WORLDVIEW
 70
     1
  9
$SHADEDGE
 70
     3
  9
$SHADEDIF
 70
    70
  9
$TILEMODE
 70
     1
  9
$MAXACTVP
 70
    16
  9
$PINSBASE
 10
0.0
 20
0.0
 30
0.0
  9
$PLIMCHECK
 70
     0
  9
$PEXTMIN
 10
1.000000E+20
 20
1.000000E+20
 30
1.000000E+20
  9
$PEXTMAX
 10
-1.000000E+20
 20
-1.000000E+20
 30
-1.000000E+20
  9
$PLIMMIN
 10
0.0
 20
0.0
  9
$PLIMMAX
 10
840.0
 20
594.0
  9
$UNITMODE
 70
     0
  9
$VISRETAIN
 70
     0
  9
$PLINEGEN
 70
     1
  9
$PSLTSCALE
 70
     0
  9
$TREEDEPTH
 70
  3020
  9
$DWGCODEPAGE
  3
dos850
  0
ENDSEC
  0
SECTION
  2
TABLES
  0
TABLE
  2
VPORT
 70
     1
  0
VPORT
  2
*ACTIVE
 70
     0
 10
0.0
 20
0.0
 11
1.0
 21
1.0
 12
420.0
 22
297.0
 13
0.0
 23
0.0
 14
1.0
 24
1.0
 15
0.0
 25
0.0
 16
0.0
 26
0.0
 36
1.0
 17
0.0
 27
0.0
 37
0.0
 40
594.0
 41
1.604229
 42
50.0
 43
0.0
 44
0.0
 50
0.0
 51
0.0
 71
     0
 72
   100
 73
     1
 74
     1
 75
     0
 76
     0
 77
     0
 78
     0
  0
ENDTAB
  0
TABLE
  2
LTYPE
 70
     2
  0
LTYPE
  2
CONTINUOUS
 70
    64
  3
Solid line
 72
    65
 73
     0
 40
0.0
  0
LTYPE
  2
DASHDOT
 70
    64
  3
__ . __ . __ . __ . __
 72
    65
 73
     4
 40
7.5
 49
5.0
 49
-1.25
 49
0.0
 49
-1.25
  0
ENDTAB
  0
TABLE
  2
LAYER
 70
    12
  0
LAYER
  2
0
 70
     0
 62
     7
  6
CONTINUOUS
  0
LAYER
  2
LC-INFO-1-2-MM-A3-0
 70
     1
 62
    -1
  6
CONTINUOUS
  0
LAYER
  2
LC-003-005-----0
 70
     0
 62
     2
  6
CONTINUOUS
  0
LAYER
  2
LC-005-003-MTH-0
 70
     0
 62
     2
  6
CONTINUOUS
  0
LAYER
  2
LC-006-003-MTG-0
 70
     0
 62
     2
  6
CONTINUOUS
  0
LAYER
  2
LC-004-003-----0
 70
     0
 62
     2
  6
CONTINUOUS
  0
LAYER
  2
LC-007-000-----0
 70
     0
 62
     7
  6
CONTINUOUS
  0
LAYER
  2
LC-009-000-----0
 70
     0
 62
     7
  6
CONTINUOUS
  0
LAYER
  2
LC-001-002-----0
 70
     0
 62
     2
  6
DASHDOT
  0
LAYER
  2
LC-002-001-----0
 70
     0
 62
     1
  6
CONTINUOUS
  0
LAYER
  2
LC-008-002-RND-0
 70
     0
 62
     1
  6
CONTINUOUS
  0
LAYER
  2
LC-000
 70
     0
 62
     7
  6
CONTINUOUS
  0
ENDTAB
  0
TABLE
  2
STYLE
 70
     4
  0
STYLE
  2
STANDARD
 70
     0
 40
0.0
 41
1.0
 50
0.0
 71
     0
 42
0.0
  3
txt
  4

  0
STYLE
  2
LC-STANDARD
 70
    64
 40
0.0
 41
1.0
 50
0.0
 71
     0
 42
3.5
  3
MONOTXT
  4

  0
STYLE
  2
LC-TXTSTYLE-150-400-0-0-A2
 70
    64
 40
0.0
 41
1.0
 50
15.0
 71
     0
 42
3.5
  3
MONOTXT
  4

  0
STYLE
  2
LC-TXTSTYLE-150-400-0-0-D3
 70
    64
 40
0.0
 41
1.0
 50
15.0
 71
     0
 42
3.5
  3
LC-STANDARD
  4

  0
ENDTAB
  0
TABLE
  2
VIEW
 70
     0
  0
ENDTAB
  0
TABLE
  2
UCS
 70
     0
  0
ENDTAB
  0
TABLE
  2
APPID
 70
     1
  0
APPID
  2
ACAD
 70
     0
  0
ENDTAB
  0
TABLE
  2
DIMSTYLE
 70
     3
  0
DIMSTYLE
  2
STANDARD
 70
     0
  3

  4

  5

  6

  7

 40
1.0
 41
0.18
 42
0.0625
 43
0.38
 44
0.18
 45
0.0
 46
0.0
 47
0.0
 48
0.0
 71
     0
 72
     0
 73
     1
 74
     1
 75
     0
 76
     0
 77
     0
 78
     0
140
0.18
141
0.09
142
0.0
143
25.4
144
1.0
145
0.0
146
1.0
147
0.09
170
     0
171
     2
172
     0
173
     0
174
     0
175
     0
176
     0
177
     0
178
     0
  0
DIMSTYLE
  2
LC-STANDARD
 70
     0
  3

  4

  5

  6

  7

 40
1.0
 41
3.5
 42
0.0
 43
7.5
 44
1.8
 45
0.0
 46
0.0
 47
0.0
 48
0.0
 71
     0
 72
     0
 73
     0
 74
     0
 75
     0
 76
     0
 77
     1
 78
     8
140
3.5
141
0.0
142
0.0
143
25.4
144
1.0
145
0.0
146
0.71
147
1.5
170
     0
171
     2
172
     1
173
     0
174
     0
175
     0
176
     0
177
     0
178
     3
  0
DIMSTYLE
  2
LC-DIM-L-0140-02-02
 70
     0
  3

  4

  5

  6

  7

 40
2.0
 41
3.5
 42
0.0
 43
7.5
 44
1.8
 45
0.0
 46
0.0
 47
0.0
 48
0.0
 71
     0
 72
     0
 73
     0
 74
     0
 75
     0
 76
     0
 77
     1
 78
     8
140
14.0
141
0.0
142
0.0
143
25.4
144
1.0
145
0.0
146
0.71
147
1.5
170
     0
171
     2
172
     0
173
     0
174
     0
175
     0
176
     2
177
     2
178
     8
  0
ENDTAB
  0
ENDSEC
  0
SECTION
  2
BLOCKS
  0
BLOCK
  8
0
  5
23
  2
*X0
 70
    65
 10
208.264465
 20
292.530462
 30
0.0
  3
*X0
  0
LINE
  8
LC-003-005-----0
  6
CONTINUOUS
  5
25
 10
233.764521
 20
382.832592
 30
0.0
 11
231.566444
 21
385.030669
 31
0.0
  0
LINE
  8
LC-003-005-----0
  6
CONTINUOUS
  5
26
 10
235.264518
 20
378.504168
 30
0.0
 11
234.738019
 21
379.030667
 31
0.0
  0
LINE
  8
LC-003-005-----0
  6
CONTINUOUS
  5
27
 10
233.764519
 20
380.004167
 30
0.0
 11
230.264522
 21
383.504164
 31
0.0
  0
LINE
  8
LC-003-005-----0
  6
CONTINUOUS
  5
28
 10
235.264517
 20
375.675742
 30
0.0
 11
230.26452
 21
380.675739
 31
0.0
  0
LINE
  8
LC-003-005-----0
  6
CONTINUOUS
  5
29
 10
235.264515
 20
372.847317
 30
0.0
 11
232.264517
 21
375.847315
 31
0.0
  0
LINE
  8
LC-003-005-----0
  6
CONTINUOUS
  5
2A
 10
232.081163
 20
376.030669
 30
0.0
 11
230.264518
 21
377.847314
 31
0.0
  0
LINE
  8
LC-003-005-----0
  6
CONTINUOUS
  5
2B
 10
235.264513
 20
370.018892
 30
0.0
 11
232.264515
 21
373.01889
 31
0.0
  0
LINE
  8
LC-003-005-----0
  6
CONTINUOUS
  5
2C
 10
235.264511
 20
367.190467
 30
0.0
 11
232.264513
 21
370.190465
 31
0.0
  0
LINE
  8
LC-003-005-----0
  6
CONTINUOUS
  5
2D
 10
232.595882
 20
367.030668
 30
0.0
 11
229.59588
 21
370.03067
 31
0.0
  0
LINE
  8
LC-003-005-----0
  6
CONTINUOUS
  5
2E
 10
229.767453
 20
367.03067
 30
0.0
 11
226.767451
 21
370.030672
 31
0.0
  0
LINE
  8
LC-003-005-----0
  6
CONTINUOUS
  5
2F
 10
226.939024
 20
367.030672
 30
0.0
 11
223.939022
 21
370.030674
 31
0.0
  0
LINE
  8
LC-003-005-----0
  6
CONTINUOUS
  5
30
 10
224.110595
 20
367.030674
 30
0.0
 11
221.110593
 21
370.030676
 31
0.0
  0
LINE
  8
LC-003-005-----0
  6
CONTINUOUS
  5
31
 10
221.282166
 20
367.030676
 30
0.0
 11
218.282164
 21
370.030678
 31
0.0
  0
LINE
  8
LC-003-005-----0
  6
CONTINUOUS
  5
32
 10
218.453737
 20
367.030678
 30
0.0
 11
215.76989
 21
369.714525
 31
0.0
  0
LINE
  8
LC-003-005-----0
  6
CONTINUOUS
  5
33
 10
216.001278
 20
366.65471
 30
0.0
 11
213.718405
 21
368.937583
 31
0.0
  0
LINE
  8
LC-003-005-----0
  6
CONTINUOUS
  5
34
 10
214.140607
 20
365.686953
 30
0.0
 11
212.00126
 21
367.826301
 31
0.0
  0
LINE
  8
LC-003-005-----0
  6
CONTINUOUS
  5
35
 10
212.709337
 20
364.289797
 30
0.0
 11
210.57517
 21
366.423964
 31
0.0
  0
LINE
  8
LC-003-005-----0
  6
CONTINUOUS
  5
36
 10
211.702582
 20
362.468125
 30
0.0
 11
209.438602
 21
364.732104
 31
0.0
  0
LINE
  8
LC-003-005-----0
  6
CONTINUOUS
  5
37
 10
211.264664
 20
360.077616
 30
0.0
 11
208.630597
 21
362.711682
 31
0.0
  0
LINE
  8
LC-003-005-----0
  6
CONTINUOUS
  5
38
 10
211.264504
 20
357.249348
 30
0.0
 11
208.266846
 21
360.247006
 31
0.0
  0
LINE
  8
LC-003-005-----0
  6
CONTINUOUS
  5
39
 10
211.264503
 20
354.420922
 30
0.0
 11
208.264505
 21
357.42092
 31
0.0
  0
LINE
  8
LC-003-005-----0
  6
CONTINUOUS
  5
3A
 10
211.264501
 20
351.592497
 30
0.0
 11
208.264503
 21
354.592495
 31
0.0
  0
LINE
  8
LC-003-005-----0
  6
CONTINUOUS
  5
3B
 10
211.264499
 20
348.764072
 30
0.0
 11
208.264501
 21
351.76407
 31
0.0
  0
LINE
  8
LC-003-005-----0
  6
CONTINUOUS
  5
3C
 10
211.264497
 20
345.935646
 30
0.0
 11
208.264499
 21
348.935645
 31
0.0
  0
LINE
  8
LC-003-005-----0
  6
CONTINUOUS
  5
3D
 10
211.264495
 20
343.107221
 30
0.0
 11
208.264497
 21
346.107219
 31
0.0
  0
LINE
  8
LC-003-005-----0
  6
CONTINUOUS
  5
3E
 10
211.264493
 20
340.278796
 30
0.0
 11
208.264495
 21
343.278794
 31
0.0
  0
LINE
  8
LC-003-005-----0
  6
CONTINUOUS
  5
3F
 10
211.264492
 20
337.450371
 30
0.0
 11
208.264494
 21
340.450369
 31
0.0
  0
LINE
  8
LC-003-005-----0
  6
CONTINUOUS
  5
40
 10
211.26449
 20
334.621945
 30
0.0
 11
208.264492
 21
337.621943
 31
0.0
  0
LINE
  8
LC-003-005-----0
  6
CONTINUOUS
  5
41
 10
211.264488
 20
331.79352
 30
0.0
 11
208.26449
 21
334.793518
 31
0.0
  0
LINE
  8
LC-003-005-----0
  6
CONTINUOUS
  5
42
 10
211.264486
 20
328.965095
 30
0.0
 11
208.264488
 21
331.965093
 31
0.0
  0
LINE
  8
LC-003-005-----0
  6
CONTINUOUS
  5
43
 10
211.264484
 20
326.13667
 30
0.0
 11
208.264486
 21
329.136668
 31
0.0
  0
LINE
  8
LC-003-005-----0
  6
CONTINUOUS
  5
44
 10
211.264482
 20
323.308244
 30
0.0
 11
208.264484
 21
326.308242
 31
0.0
  0
LINE
  8
LC-003-005-----0
  6
CONTINUOUS
  5
45
 10
211.26448
 20
320.479819
 30
0.0
 11
208.264482
 21
323.479817
 31
0.0
  0
LINE
  8
LC-003-005-----0
  6
CONTINUOUS
  5
46
 10
211.264479
 20
317.651394
 30
0.0
 11
208.264481
 21
320.651392
 31
0.0
  0
LINE
  8
LC-003-005-----0
  6
CONTINUOUS
  5
47
 10
211.264477
 20
314.822968
 30
0.0
 11
208.264479
 21
317.822966
 31
0.0
  0
LINE
  8
LC-003-005-----0
  6
CONTINUOUS
  5
48
 10
211.264475
 20
311.994543
 30
0.0
 11
208.264477
 21
314.994541
 31
0.0
  0
LINE
  8
LC-003-005-----0
  6
CONTINUOUS
  5
49
 10
211.264473
 20
309.166118
 30
0.0
 11
208.264475
 21
312.166116
 31
0.0
  0
LINE
  8
LC-003-005-----0
  6
CONTINUOUS
  5
4A
 10
211.264471
 20
306.337693
 30
0.0
 11
208.264473
 21
309.337691
 31
0.0
  0
LINE
  8
LC-003-005-----0
  6
CONTINUOUS
  5
4B
 10
211.264469
 20
303.509267
 30
0.0
 11
208.264471
 21
306.509265
 31
0.0
  0
LINE
  8
LC-003-005-----0
  6
CONTINUOUS
  5
4C
 10
211.264468
 20
300.680842
 30
0.0
 11
208.264469
 21
303.68084
 31
0.0
  0
LINE
  8
LC-003-005-----0
  6
CONTINUOUS
  5
4D
 10
211.264466
 20
297.852417
 30
0.0
 11
208.264468
 21
300.852415
 31
0.0
  0
LINE
  8
LC-003-005-----0
  6
CONTINUOUS
  5
4E
 10
211.264464
 20
295.023992
 30
0.0
 11
208.264466
 21
298.02399
 31
0.0
  0
LINE
  8
LC-003-005-----0
  6
CONTINUOUS
  5
4F
 10
210.929566
 20
292.530462
 30
0.0
 11
209.119098
 21
294.34093
 31
0.0
  0
ENDBLK
  8
0
  5
50
  0
BLOCK
  8
0
  5
52
  2
*X1
 70
    65
 10
325.26404
 20
292.530462
 30
0.0
  3
*X1
  0
LINE
  8
LC-003-005-----0
  6
CONTINUOUS
  5
53
 10
351.320049
 20
364.272014
 30
0.0
 11
346.505389
 21
369.086674
 31
0.0
  0
LINE
  8
LC-003-005-----0
  6
CONTINUOUS
  5
54
 10
352.252504
 20
360.511131
 30
0.0
 11
342.744506
 21
370.019129
 31
0.0
  0
LINE
  8
LC-003-005-----0
  6
CONTINUOUS
  5
55
 10
330.264038
 20
382.499597
 30
0.0
 11
327.732967
 21
385.030668
 31
0.0
  0
LINE
  8
LC-003-005-----0
  6
CONTINUOUS
  5
56
 10
352.264054
 20
357.671154
 30
0.0
 11
349.231636
 21
360.703573
 31
0.0
  0
LINE
  8
LC-003-005-----0
  6
CONTINUOUS
  5
57
 10
342.936948
 20
366.998261
 30
0.0
 11
339.904532
 21
370.030676
 31
0.0
  0
LINE
  8
LC-003-005-----0
  6
CONTINUOUS
  5
58
 10
330.26404
 20
379.671168
 30
0.0
 11
326.764038
 21
383.171171
 31
0.0
  0
LINE
  8
LC-003-005-----0
  6
CONTINUOUS
  5
59
 10
352.264056
 20
354.842725
 30
0.0
 11
349.264054
 21
357.842727
 31
0.0
  0
LINE
  8
LC-003-005-----0
  6
CONTINUOUS
  5
5A
 10
340.076105
 20
367.030676
 30
0.0
 11
337.076107
 21
370.030674
 31
0.0
  0
LINE
  8
LC-003-005-----0
  6
CONTINUOUS
  5
5B
 10
330.264042
 20
376.84274
 30
0.0
 11
326.764039
 21
380.342742
 31
0.0
  0
LINE
  8
LC-003-005-----0
  6
CONTINUOUS
  5
5C
 10
352.264058
 20
352.014296
 30
0.0
 11
349.264056
 21
355.014298
 31
0.0
  0
LINE
  8
LC-003-005-----0
  6
CONTINUOUS
  5
5D
 10
337.24768
 20
367.030674
 30
0.0
 11
334.247682
 21
370.030672
 31
0.0
  0
LINE
  8
LC-003-005-----0
  6
CONTINUOUS
  5
5E
 10
328.264042
 20
376.014312
 30
0.0
 11
325.26404
 21
379.014314
 31
0.0
  0
LINE
  8
LC-003-005-----0
  6
CONTINUOUS
  5
5F
 10
352.26406
 20
349.185867
 30
0.0
 11
349.264058
 21
352.185869
 31
0.0
  0
LINE
  8
LC-003-005-----0
  6
CONTINUOUS
  5
60
 10
334.419254
 20
367.030673
 30
0.0
 11
331.419256
 21
370.030671
 31
0.0
  0
LINE
  8
LC-003-005-----0
  6
CONTINUOUS
  5
61
 10
328.264044
 20
373.185883
 30
0.0
 11
325.264042
 21
376.185885
 31
0.0
  0
LINE
  8
LC-003-005-----0
  6
CONTINUOUS
  5
62
 10
352.264062
 20
346.357438
 30
0.0
 11
349.26406
 21
349.35744
 31
0.0
  0
LINE
  8
LC-003-005-----0
  6
CONTINUOUS
  5
63
 10
331.590829
 20
367.030671
 30
0.0
 11
328.590831
 21
370.030669
 31
0.0
  0
LINE
  8
LC-003-005-----0
  6
CONTINUOUS
  5
64
 10
328.264046
 20
370.357454
 30
0.0
 11
325.264044
 21
373.357456
 31
0.0
  0
LINE
  8
LC-003-005-----0
  6
CONTINUOUS
  5
65
 10
352.264063
 20
343.529009
 30
0.0
 11
349.264061
 21
346.529011
 31
0.0
  0
LINE
  8
LC-003-005-----0
  6
CONTINUOUS
  5
66
 10
328.762404
 20
367.030669
 30
0.0
 11
325.264046
 21
370.529027
 31
0.0
  0
LINE
  8
LC-003-005-----0
  6
CONTINUOUS
  5
67
 10
352.264065
 20
340.70058
 30
0.0
 11
349.264063
 21
343.700582
 31
0.0
  0
LINE
  8
LC-003-005-----0
  6
CONTINUOUS
  5
68
 10
325.933979
 20
367.030667
 30
0.0
 11
325.264048
 21
367.700598
 31
0.0
  0
LINE
  8
LC-003-005-----0
  6
CONTINUOUS
  5
69
 10
352.264067
 20
337.872151
 30
0.0
 11
349.264065
 21
340.872153
 31
0.0
  0
LINE
  8
LC-003-005-----0
  6
CONTINUOUS
  5
6A
 10
352.264069
 20
335.043722
 30
0.0
 11
349.264067
 21
338.043724
 31
0.0
  0
LINE
  8
LC-003-005-----0
  6
CONTINUOUS
  5
6B
 10
352.264071
 20
332.215293
 30
0.0
 11
349.264069
 21
335.215295
 31
0.0
  0
LINE
  8
LC-003-005-----0
  6
CONTINUOUS
  5
6C
 10
352.264073
 20
329.386864
 30
0.0
 11
349.264071
 21
332.386866
 31
0.0
  0
LINE
  8
LC-003-005-----0
  6
CONTINUOUS
  5
6D
 10
352.264075
 20
326.558435
 30
0.0
 11
349.264073
 21
329.558437
 31
0.0
  0
LINE
  8
LC-003-005-----0
  6
CONTINUOUS
  5
6E
 10
352.264076
 20
323.730006
 30
0.0
 11
349.264074
 21
326.730008
 31
0.0
  0
LINE
  8
LC-003-005-----0
  6
CONTINUOUS
  5
6F
 10
352.264078
 20
320.901577
 30
0.0
 11
349.264076
 21
323.901579
 31
0.0
  0
LINE
  8
LC-003-005-----0
  6
CONTINUOUS
  5
70
 10
352.26408
 20
318.073148
 30
0.0
 11
349.264078
 21
321.07315
 31
0.0
  0
LINE
  8
LC-003-005-----0
  6
CONTINUOUS
  5
71
 10
352.264082
 20
315.24472
 30
0.0
 11
349.26408
 21
318.244721
 31
0.0
  0
LINE
  8
LC-003-005-----0
  6
CONTINUOUS
  5
72
 10
352.264084
 20
312.416291
 30
0.0
 11
349.264082
 21
315.416293
 31
0.0
  0
LINE
  8
LC-003-005-----0
  6
CONTINUOUS
  5
73
 10
352.264086
 20
309.587862
 30
0.0
 11
349.264084
 21
312.587864
 31
0.0
  0
LINE
  8
LC-003-005-----0
  6
CONTINUOUS
  5
74
 10
352.264087
 20
306.759433
 30
0.0
 11
349.264086
 21
309.759435
 31
0.0
  0
LINE
  8
LC-003-005-----0
  6
CONTINUOUS
  5
75
 10
352.264089
 20
303.931004
 30
0.0
 11
349.264087
 21
306.931006
 31
0.0
  0
LINE
  8
LC-003-005-----0
  6
CONTINUOUS
  5
76
 10
352.264091
 20
301.102575
 30
0.0
 11
349.264089
 21
304.102577
 31
0.0
  0
LINE
  8
LC-003-005-----0
  6
CONTINUOUS
  5
77
 10
352.264093
 20
298.274146
 30
0.0
 11
349.264091
 21
301.274148
 31
0.0
  0
LINE
  8
LC-003-005-----0
  6
CONTINUOUS
  5
78
 10
351.823535
 20
295.886276
 30
0.0
 11
349.264093
 21
298.445719
 31
0.0
  0
LINE
  8
LC-003-005-----0
  6
CONTINUOUS
  5
79
 10
351.225818
 20
293.655566
 30
0.0
 11
349.264095
 21
295.61729
 31
0.0
  0
LINE
  8
LC-003-005-----0
  6
CONTINUOUS
  5
7A
 10
349.522496
 20
292.530462
 30
0.0
 11
349.264097
 21
292.788861
 31
0.0
  0
ENDBLK
  8
0
  5
7B
  0
BLOCK
  8
0
  5
7D
  2
*D2
 70
    65
 10
0.0
 20
0.0
 30
0.0
  3
*D2
  0
LINE
  8
LC-005-003-MTH-0
  6
CONTINUOUS
  5
7F
 10
208.264465
 20
297.530462
 30
0.0
 11
208.264465
 21
218.4
 31
0.0
  0
LINE
  8
LC-005-003-MTH-0
  6
CONTINUOUS
  5
80
 10
352.264094
 20
297.530462
 30
0.0
 11
352.264094
 21
218.4
 31
0.0
  0
LINE
  8
LC-006-003-MTG-0
  6
CONTINUOUS
  5
82
 10
208.264465
 20
235.2
 30
0.0
 11
352.264094
 21
235.2
 31
0.0
  0
LINE
  8
LC-004-003-----0
  6
CONTINUOUS
  5
84
 10
236.024922
 20
238.854733
 30
0.0
 11
208.264465
 21
235.2
 31
0.0
  0
LINE
  8
LC-004-003-----0
  6
CONTINUOUS
  5
85
 10
208.264465
 20
235.2
 30
0.0
 11
236.024922
 21
231.545267
 31
0.0
  0
LINE
  8
LC-004-003-----0
  6
CONTINUOUS
  5
86
 10
236.024922
 20
231.545267
 30
0.0
 11
236.024922
 21
238.854733
 31
0.0
  0
LINE
  8
LC-004-003-----0
  6
CONTINUOUS
  5
87
 10
236.087203
 20
237.904503
 30
0.0
 11
215.544465
 21
235.2
 31
0.0
  0
LINE
  8
LC-004-003-----0
  6
CONTINUOUS
  5
88
 10
215.544465
 20
235.2
 30
0.0
 11
236.087203
 21
232.495497
 31
0.0
  0
LINE
  8
LC-004-003-----0
  6
CONTINUOUS
  5
89
 10
236.149484
 20
236.954272
 30
0.0
 11
222.824465
 21
235.2
 31
0.0
  0
LINE
  8
LC-004-003-----0
  6
CONTINUOUS
  5
8A
 10
222.824465
 20
235.2
 30
0.0
 11
236.149484
 21
233.445728
 31
0.0
  0
LINE
  8
LC-004-003-----0
  6
CONTINUOUS
  5
8B
 10
236.211766
 20
236.004041
 30
0.0
 11
230.104465
 21
235.2
 31
0.0
  0
LINE
  8
LC-004-003-----0
  6
CONTINUOUS
  5
8C
 10
230.104465
 20
235.2
 30
0.0
 11
236.211766
 21
234.395959
 31
0.0
  0
LINE
  8
LC-004-003-----0
  6
CONTINUOUS
  5
8D
 10
324.503637
 20
231.545267
 30
0.0
 11
352.264094
 21
235.2
 31
0.0
  0
LINE
  8
LC-004-003-----0
  6
CONTINUOUS
  5
8E
 10
352.264094
 20
235.2
 30
0.0
 11
324.503637
 21
238.854733
 31
0.0
  0
LINE
  8
LC-004-003-----0
  6
CONTINUOUS
  5
8F
 10
324.503637
 20
238.854733
 30
0.0
 11
324.503637
 21
231.545267
 31
0.0
  0
LINE
  8
LC-004-003-----0
  6
CONTINUOUS
  5
90
 10
324.441356
 20
232.495497
 30
0.0
 11
344.984094
 21
235.2
 31
0.0
  0
LINE
  8
LC-004-003-----0
  6
CONTINUOUS
  5
91
 10
344.984094
 20
235.2
 30
0.0
 11
324.441356
 21
237.904503
 31
0.0
  0
LINE
  8
LC-004-003-----0
  6
CONTINUOUS
  5
92
 10
324.379075
 20
233.445728
 30
0.0
 11
337.704094
 21
235.2
 31
0.0
  0
LINE
  8
LC-004-003-----0
  6
CONTINUOUS
  5
93
 10
337.704094
 20
235.2
 30
0.0
 11
324.379075
 21
236.954272
 31
0.0
  0
LINE
  8
LC-004-003-----0
  6
CONTINUOUS
  5
94
 10
324.316793
 20
234.395959
 30
0.0
 11
330.424094
 21
235.2
 31
0.0
  0
LINE
  8
LC-004-003-----0
  6
CONTINUOUS
  5
95
 10
330.424094
 20
235.2
 30
0.0
 11
324.316793
 21
236.004041
 31
0.0
  0
TEXT
  8
LC-004-003-----0
  6
CONTINUOUS
 62
     8
  5
97
 10
246.514802
 20
243.027554
 30
0.0
 40
28.0
  1
Ø145
 41
0.9
 51
15.0
  7
LC-TXTSTYLE-150-400-0-0-D0
 72
     1
 11
284.612439
 21
243.027554
 31
0.0
  0
ENDBLK
  8
0
  5
98
  0
BLOCK
  8
0
  5
9A
  2
*D3
 70
    65
 10
0.0
 20
0.0
 30
0.0
  3
*D3
  0
LINE
  8
LC-005-003-MTH-0
  6
CONTINUOUS
  5
9B
 10
230.264279
 20
376.030462
 30
0.0
 11
179.2
 21
376.030462
 31
0.0
  0
LINE
  8
LC-005-003-MTH-0
  6
CONTINUOUS
  5
9C
 10
230.264279
 20
385.030462
 30
0.0
 11
179.2
 21
385.030462
 31
0.0
  0
LINE
  8
LC-004-003-----0
  6
CONTINUOUS
  5
9D
 10
199.654733
 20
348.270006
 30
0.0
 11
196.0
 21
376.030462
 31
0.0
  0
LINE
  8
LC-004-003-----0
  6
CONTINUOUS
  5
9E
 10
196.0
 20
376.030462
 30
0.0
 11
192.345267
 21
348.270006
 31
0.0
  0
LINE
  8
LC-004-003-----0
  6
CONTINUOUS
  5
9F
 10
192.345267
 20
348.270006
 30
0.0
 11
199.654733
 21
348.270006
 31
0.0
  0
LINE
  8
LC-004-003-----0
  6
CONTINUOUS
  5
A0
 10
198.704503
 20
348.207724
 30
0.0
 11
196.0
 21
368.750462
 31
0.0
  0
LINE
  8
LC-004-003-----0
  6
CONTINUOUS
  5
A1
 10
196.0
 20
368.750462
 30
0.0
 11
193.295497
 21
348.207724
 31
0.0
  0
LINE
  8
LC-004-003-----0
  6
CONTINUOUS
  5
A2
 10
197.754272
 20
348.145443
 30
0.0
 11
196.0
 21
361.470462
 31
0.0
  0
LINE
  8
LC-004-003-----0
  6
CONTINUOUS
  5
A3
 10
196.0
 20
361.470462
 30
0.0
 11
194.245728
 21
348.145443
 31
0.0
  0
LINE
  8
LC-004-003-----0
  6
CONTINUOUS
  5
A4
 10
196.804041
 20
348.083161
 30
0.0
 11
196.0
 21
354.190462
 31
0.0
  0
LINE
  8
LC-004-003-----0
  6
CONTINUOUS
  5
A5
 10
196.0
 20
354.190462
 30
0.0
 11
195.195959
 21
348.083161
 31
0.0
  0
LINE
  8
LC-004-003-----0
  6
CONTINUOUS
  5
A6
 10
192.345267
 20
412.790918
 30
0.0
 11
196.0
 21
385.030462
 31
0.0
  0
LINE
  8
LC-004-003-----0
  6
CONTINUOUS
  5
A7
 10
196.0
 20
385.030462
 30
0.0
 11
199.654733
 21
412.790918
 31
0.0
  0
LINE
  8
LC-004-003-----0
  6
CONTINUOUS
  5
A8
 10
199.654733
 20
412.790918
 30
0.0
 11
192.345267
 21
412.790918
 31
0.0
  0
LINE
  8
LC-004-003-----0
  6
CONTINUOUS
  5
A9
 10
193.295497
 20
412.853199
 30
0.0
 11
196.0
 21
392.310462
 31
0.0
  0
LINE
  8
LC-004-003-----0
  6
CONTINUOUS
  5
AA
 10
196.0
 20
392.310462
 30
0.0
 11
198.704503
 21
412.853199
 31
0.0
  0
LINE
  8
LC-004-003-----0
  6
CONTINUOUS
  5
AB
 10
194.245728
 20
412.915481
 30
0.0
 11
196.0
 21
399.590462
 31
0.0
  0
LINE
  8
LC-004-003-----0
  6
CONTINUOUS
  5
AC
 10
196.0
 20
399.590462
 30
0.0
 11
197.754272
 21
412.915481
 31
0.0
  0
LINE
  8
LC-004-003-----0
  6
CONTINUOUS
  5
AD
 10
195.195959
 20
412.977762
 30
0.0
 11
196.0
 21
406.870462
 31
0.0
  0
LINE
  8
LC-004-003-----0
  6
CONTINUOUS
  5
AE
 10
196.0
 20
406.870462
 30
0.0
 11
196.804041
 21
412.977762
 31
0.0
  0
LINE
  8
LC-006-003-MTG-0
  6
CONTINUOUS
  5
AF
 10
196.0
 20
336.830462
 30
0.0
 11
196.0
 21
450.792662
 31
0.0
  0
TEXT
  8
LC-004-003-----0
  6
CONTINUOUS
 62
     8
  5
B0
 10
188.172446
 20
427.458622
 30
0.0
 40
28.0
  1
9
 50
90.0
 51
15.0
  7
LC-TXTSTYLE-150-400-0-0-D0
  0
ENDBLK
  8
0
  5
B1
  0
BLOCK
  8
0
  5
B3
  2
*X4
 70
    65
 10
280.264279
 20
379.030462
 30
0.0
  3
*X4
  0
LINE
  8
LC-003-005-----0
  6
CONTINUOUS
  5
B4
 10
281.064126
 20
385.030462
 30
0.0
 11
282.064126
 21
384.030462
 31
0.0
  0
LINE
  8
LC-003-005-----0
  6
CONTINUOUS
  5
B5
 10
285.306767
 20
385.030462
 30
0.0
 11
286.306767
 21
384.030462
 31
0.0
  0
LINE
  8
LC-003-005-----0
  6
CONTINUOUS
  5
B6
 10
288.264279
 20
382.072949
 30
0.0
 11
289.264279
 21
381.072949
 31
0.0
  0
LINE
  8
LC-003-005-----0
  6
CONTINUOUS
  5
B7
 10
295.320632
 20
383.501878
 30
0.0
 11
296.264279
 21
382.55823
 31
0.0
  0
LINE
  8
LC-003-005-----0
  6
CONTINUOUS
  5
B8
 10
298.034689
 20
385.030462
 30
0.0
 11
299.034689
 21
384.030462
 31
0.0
  0
LINE
  8
LC-003-005-----0
  6
CONTINUOUS
  5
B9
 10
300.264279
 20
382.800871
 30
0.0
 11
301.264279
 21
381.800871
 31
0.0
  0
LINE
  8
LC-003-005-----0
  6
CONTINUOUS
  5
BA
 10
307.264279
 20
380.043512
 30
0.0
 11
307.27733
 21
380.030462
 31
0.0
  0
LINE
  8
LC-003-005-----0
  6
CONTINUOUS
  5
BB
 10
307.527757
 20
384.022675
 30
0.0
 11
308.290875
 21
383.259557
 31
0.0
  0
LINE
  8
LC-003-005-----0
  6
CONTINUOUS
  5
BC
 10
310.762611
 20
385.030462
 30
0.0
 11
313.264279
 21
382.528793
 31
0.0
  0
LINE
  8
LC-003-005-----0
  6
CONTINUOUS
  5
BD
 10
319.264279
 20
380.771434
 30
0.0
 11
320.005252
 21
380.030462
 31
0.0
  0
LINE
  8
LC-003-005-----0
  6
CONTINUOUS
  5
BE
 10
319.841896
 20
384.436458
 30
0.0
 11
320.549027
 21
383.729327
 31
0.0
  0
LINE
  8
LC-003-005-----0
  6
CONTINUOUS
  5
BF
 10
324.264279
 20
380.014075
 30
0.0
 11
325.247892
 21
379.030462
 31
0.0
  0
LINE
  8
LC-003-005-----0
  6
CONTINUOUS
  5
C0
 10
323.505082
 20
385.015912
 30
0.0
 11
325.24973
 21
383.271265
 31
0.0
  0
ENDBLK
  8
0
  5
C1
  0
BLOCK
  8
0
  5
C3
  2
BLK1
 70
    64
 10
0.0
 20
0.0
 30
0.0
  3
BLK1
  0
ENDBLK
  8
0
  5
C4
  0
BLOCK
  8
0
  5
C6
  2
*X6
 70
    65
 10
235.264519
 20
379.030666
 30
0.0
  3
*X6
  0
LINE
  8
LC-003-005-----0
  6
CONTINUOUS
  5
C7
 10
235.264519
 20
379.91838
 30
0.0
 11
236.152234
 21
379.030666
 31
0.0
  0
LINE
  8
LC-003-005-----0
  6
CONTINUOUS
  5
C8
 10
235.483991
 20
383.94155
 30
0.0
 11
236.272088
 21
383.153452
 31
0.0
  0
LINE
  8
LC-003-005-----0
  6
CONTINUOUS
  5
C9
 10
238.637517
 20
385.030664
 30
0.0
 11
239.781547
 21
383.886634
 31
0.0
  0
LINE
  8
LC-003-005-----0
  6
CONTINUOUS
  5
CA
 10
240.120491
 20
383.54769
 30
0.0
 11
241.264521
 21
382.40366
 31
0.0
  0
LINE
  8
LC-003-005-----0
  6
CONTINUOUS
  5
CB
 10
247.26452
 20
380.646302
 30
0.0
 11
247.880163
 21
380.030658
 31
0.0
  0
LINE
  8
LC-003-005-----0
  6
CONTINUOUS
  5
CC
 10
247.781226
 20
384.372237
 30
0.0
 11
248.490116
 21
383.663347
 31
0.0
  0
LINE
  8
LC-003-005-----0
  6
CONTINUOUS
  5
CD
 10
251.368133
 20
385.02797
 30
0.0
 11
253.261836
 21
383.134267
 31
0.0
  0
LINE
  8
LC-003-005-----0
  6
CONTINUOUS
  5
CE
 10
259.26452
 20
381.374224
 30
0.0
 11
260.26452
 21
380.374224
 31
0.0
  0
LINE
  8
LC-003-005-----0
  6
CONTINUOUS
  5
CF
 10
260.174122
 20
384.707262
 30
0.0
 11
260.914131
 21
383.967253
 31
0.0
  0
LINE
  8
LC-003-005-----0
  6
CONTINUOUS
  5
D0
 10
264.26452
 20
380.616865
 30
0.0
 11
264.850737
 21
380.030647
 31
0.0
  0
LINE
  8
LC-003-005-----0
  6
CONTINUOUS
  5
D1
 10
271.264521
 20
382.102145
 30
0.0
 11
272.26452
 21
381.102146
 31
0.0
  0
LINE
  8
LC-003-005-----0
  6
CONTINUOUS
  5
D2
 10
272.669292
 20
384.940014
 30
0.0
 11
273.578665
 21
384.030642
 31
0.0
  0
LINE
  8
LC-003-005-----0
  6
CONTINUOUS
  5
D3
 10
276.821308
 20
385.030639
 30
0.0
 11
277.821308
 21
384.030639
 31
0.0
  0
ENDBLK
  8
0
  5
D4
  0
BLOCK
  8
0
  5
D6
  2
*D7
 70
    65
 10
0.0
 20
0.0
 30
0.0
  3
*D7
  0
LINE
  8
LC-005-003-MTH-0
  6
CONTINUOUS
  5
D7
 10
230.264523
 20
385.03067
 30
0.0
 11
230.264523
 21
408.8
 31
0.0
  0
LINE
  8
LC-005-003-MTH-0
  6
CONTINUOUS
  5
D8
 10
330.264279
 20
385.030462
 30
0.0
 11
330.264279
 21
408.8
 31
0.0
  0
LINE
  8
LC-006-003-MTG-0
  6
CONTINUOUS
  5
D9
 10
230.264523
 20
392.0
 30
0.0
 11
330.264279
 21
392.0
 31
0.0
  0
LINE
  8
LC-004-003-----0
  6
CONTINUOUS
  5
DA
 10
258.024979
 20
395.654733
 30
0.0
 11
230.264523
 21
392.0
 31
0.0
  0
LINE
  8
LC-004-003-----0
  6
CONTINUOUS
  5
DB
 10
230.264523
 20
392.0
 30
0.0
 11
258.024979
 21
388.345267
 31
0.0
  0
LINE
  8
LC-004-003-----0
  6
CONTINUOUS
  5
DC
 10
258.024979
 20
388.345267
 30
0.0
 11
258.024979
 21
395.654733
 31
0.0
  0
LINE
  8
LC-004-003-----0
  6
CONTINUOUS
  5
DD
 10
258.08726
 20
394.704503
 30
0.0
 11
237.544523
 21
392.0
 31
0.0
  0
LINE
  8
LC-004-003-----0
  6
CONTINUOUS
  5
DE
 10
237.544523
 20
392.0
 30
0.0
 11
258.08726
 21
389.295497
 31
0.0
  0
LINE
  8
LC-004-003-----0
  6
CONTINUOUS
  5
DF
 10
258.149542
 20
393.754272
 30
0.0
 11
244.824523
 21
392.0
 31
0.0
  0
LINE
  8
LC-004-003-----0
  6
CONTINUOUS
  5
E0
 10
244.824523
 20
392.0
 30
0.0
 11
258.149542
 21
390.245728
 31
0.0
  0
LINE
  8
LC-004-003-----0
  6
CONTINUOUS
  5
E1
 10
258.211823
 20
392.804041
 30
0.0
 11
252.104523
 21
392.0
 31
0.0
  0
LINE
  8
LC-004-003-----0
  6
CONTINUOUS
  5
E2
 10
252.104523
 20
392.0
 30
0.0
 11
258.211823
 21
391.195959
 31
0.0
  0
LINE
  8
LC-004-003-----0
  6
CONTINUOUS
  5
E3
 10
302.503823
 20
388.345267
 30
0.0
 11
330.264279
 21
392.0
 31
0.0
  0
LINE
  8
LC-004-003-----0
  6
CONTINUOUS
  5
E4
 10
330.264279
 20
392.0
 30
0.0
 11
302.503823
 21
395.654733
 31
0.0
  0
LINE
  8
LC-004-003-----0
  6
CONTINUOUS
  5
E5
 10
302.503823
 20
395.654733
 30
0.0
 11
302.503823
 21
388.345267
 31
0.0
  0
LINE
  8
LC-004-003-----0
  6
CONTINUOUS
  5
E6
 10
302.441542
 20
389.295497
 30
0.0
 11
322.984279
 21
392.0
 31
0.0
  0
LINE
  8
LC-004-003-----0
  6
CONTINUOUS
  5
E7
 10
322.984279
 20
392.0
 30
0.0
 11
302.441542
 21
394.704503
 31
0.0
  0
LINE
  8
LC-004-003-----0
  6
CONTINUOUS
  5
E8
 10
302.379261
 20
390.245728
 30
0.0
 11
315.704279
 21
392.0
 31
0.0
  0
LINE
  8
LC-004-003-----0
  6
CONTINUOUS
  5
E9
 10
315.704279
 20
392.0
 30
0.0
 11
302.379261
 21
393.754272
 31
0.0
  0
LINE
  8
LC-004-003-----0
  6
CONTINUOUS
  5
EA
 10
302.316979
 20
391.195959
 30
0.0
 11
308.424279
 21
392.0
 31
0.0
  0
LINE
  8
LC-004-003-----0
  6
CONTINUOUS
  5
EB
 10
308.424279
 20
392.0
 30
0.0
 11
302.316979
 21
392.804041
 31
0.0
  0
TEXT
  8
LC-004-003-----0
  6
CONTINUOUS
 62
     8
  5
EC
 10
254.848781
 20
399.827554
 30
0.0
 40
28.0
  1
100
 51
15.0
  7
LC-TXTSTYLE-150-400-0-0-D0
 72
     1
 11
284.612561
 21
399.827554
 31
0.0
  0
ENDBLK
  8
0
  5
ED
  0
BLOCK
  8
0
  5
EF
  2
BLK2
 70
    64
 10
0.0
 20
0.0
 30
0.0
  3
BLK2
  0
ENDBLK
  8
0
  5
F0
  0
BLOCK
  8
0
  5
F2
  2
BLK3
 70
    64
 10
0.0
 20
0.0
 30
0.0
  3
BLK3
  0
ENDBLK
  8
0
  5
F3
  0
BLOCK
  8
0
  5
F5
  2
BLK4
 70
    64
 10
0.0
 20
0.0
 30
0.0
  3
BLK4
  0
ENDBLK
  8
0
  5
F6
  0
BLOCK
  8
0
  5
F8
  2
BLK5
 70
    64
 10
0.0
 20
0.0
 30
0.0
  3
BLK5
  0
ENDBLK
  8
0
  5
F9
  0
BLOCK
  8
0
  5
FB
  2
BLK6
 70
    64
 10
0.0
 20
0.0
 30
0.0
  3
BLK6
  0
ENDBLK
  8
0
  5
FC
  0
BLOCK
  8
0
  5
FE
  2
BLK7
 70
    64
 10
0.0
 20
0.0
 30
0.0
  3
BLK7
  0
ENDBLK
  8
0
  5
FF
  0
BLOCK
  8
0
  5
101
  2
BLK8
 70
    64
 10
0.0
 20
0.0
 30
0.0
  3
BLK8
  0
ENDBLK
  8
0
  5
102
  0
BLOCK
  8
0
  5
104
  2
BLK9
 70
    64
 10
0.0
 20
0.0
 30
0.0
  3
BLK9
  0
ENDBLK
  8
0
  5
105
  0
BLOCK
  8
0
  5
107
  2
BLK10
 70
    64
 10
0.0
 20
0.0
 30
0.0
  3
BLK10
  0
ENDBLK
  8
0
  5
108
  0
BLOCK
  8
0
  5
10A
  2
*X17
 70
    65
 10
211.264462
 20
292.530462
 30
0.0
  3
*X17
  0
LINE
  8
LC-003-005-----0
  6
CONTINUOUS
  5
10B
 10
275.559899
 20
292.530462
 30
0.0
 11
280.264279
 21
297.234842
 31
0.0
  0
LINE
  8
LC-003-005-----0
  6
CONTINUOUS
  5
10C
 10
269.903045
 20
292.530462
 30
0.0
 11
280.264279
 21
302.891696
 31
0.0
  0
LINE
  8
LC-003-005-----0
  6
CONTINUOUS
  5
10D
 10
264.246191
 20
292.530462
 30
0.0
 11
280.264279
 21
308.548551
 31
0.0
  0
LINE
  8
LC-003-005-----0
  6
CONTINUOUS
  5
10E
 10
258.589336
 20
292.530462
 30
0.0
 11
280.264279
 21
314.205405
 31
0.0
  0
LINE
  8
LC-003-005-----0
  6
CONTINUOUS
  5
10F
 10
252.932482
 20
292.530462
 30
0.0
 11
275.932482
 21
315.530462
 31
0.0
  0
LINE
  8
LC-003-005-----0
  6
CONTINUOUS
  5
110
 10
247.275628
 20
292.530462
 30
0.0
 11
270.275628
 21
315.530462
 31
0.0
  0
LINE
  8
LC-003-005-----0
  6
CONTINUOUS
  5
111
 10
241.618774
 20
292.530462
 30
0.0
 11
264.618774
 21
315.530462
 31
0.0
  0
LINE
  8
LC-003-005-----0
  6
CONTINUOUS
  5
112
 10
235.961919
 20
292.530462
 30
0.0
 11
258.961919
 21
315.530462
 31
0.0
  0
LINE
  8
LC-003-005-----0
  6
CONTINUOUS
  5
113
 10
230.305065
 20
292.530462
 30
0.0
 11
253.305065
 21
315.530462
 31
0.0
  0
LINE
  8
LC-003-005-----0
  6
CONTINUOUS
  5
114
 10
224.648211
 20
292.530462
 30
0.0
 11
247.648211
 21
315.530462
 31
0.0
  0
LINE
  8
LC-003-005-----0
  6
CONTINUOUS
  5
115
 10
218.991357
 20
292.530462
 30
0.0
 11
241.991357
 21
315.530462
 31
0.0
  0
LINE
  8
LC-003-005-----0
  6
CONTINUOUS
  5
116
 10
213.334502
 20
292.530462
 30
0.0
 11
236.334502
 21
315.530462
 31
0.0
  0
LINE
  8
LC-003-005-----0
  6
CONTINUOUS
  5
117
 10
211.264465
 20
296.117278
 30
0.0
 11
230.677648
 21
315.530462
 31
0.0
  0
LINE
  8
LC-003-005-----0
  6
CONTINUOUS
  5
118
 10
211.264468
 20
301.774136
 30
0.0
 11
225.020794
 21
315.530462
 31
0.0
  0
LINE
  8
LC-003-005-----0
  6
CONTINUOUS
  5
119
 10
211.264472
 20
307.430994
 30
0.0
 11
219.36394
 21
315.530462
 31
0.0
  0
LINE
  8
LC-003-005-----0
  6
CONTINUOUS
  5
11A
 10
211.264476
 20
313.087852
 30
0.0
 11
213.707085
 21
315.530462
 31
0.0
  0
LINE
  8
LC-003-005-----0
  6
CONTINUOUS
  5
11B
 10
280.264279
 20
313.705417
 30
0.0
 11
278.439234
 21
315.530462
 31
0.0
  0
LINE
  8
LC-003-005-----0
  6
CONTINUOUS
  5
11C
 10
280.264279
 20
308.048562
 30
0.0
 11
272.78238
 21
315.530462
 31
0.0
  0
LINE
  8
LC-003-005-----0
  6
CONTINUOUS
  5
11D
 10
280.264279
 20
302.391708
 30
0.0
 11
267.125526
 21
315.530462
 31
0.0
  0
LINE
  8
LC-003-005-----0
  6
CONTINUOUS
  5
11E
 10
280.264279
 20
296.734854
 30
0.0
 11
261.468672
 21
315.530462
 31
0.0
  0
LINE
  8
LC-003-005-----0
  6
CONTINUOUS
  5
11F
 10
278.811817
 20
292.530462
 30
0.0
 11
255.811817
 21
315.530462
 31
0.0
  0
LINE
  8
LC-003-005-----0
  6
CONTINUOUS
  5
120
 10
273.154963
 20
292.530462
 30
0.0
 11
250.154963
 21
315.530462
 31
0.0
  0
LINE
  8
LC-003-005-----0
  6
CONTINUOUS
  5
121
 10
267.498109
 20
292.530462
 30
0.0
 11
244.498109
 21
315.530462
 31
0.0
  0
LINE
  8
LC-003-005-----0
  6
CONTINUOUS
  5
122
 10
261.841255
 20
292.530462
 30
0.0
 11
238.841255
 21
315.530462
 31
0.0
  0
LINE
  8
LC-003-005-----0
  6
CONTINUOUS
  5
123
 10
256.1844
 20
292.530462
 30
0.0
 11
233.1844
 21
315.530462
 31
0.0
  0
LINE
  8
LC-003-005-----0
  6
CONTINUOUS
  5
124
 10
250.527546
 20
292.530462
 30
0.0
 11
227.527546
 21
315.530462
 31
0.0
  0
LINE
  8
LC-003-005-----0
  6
CONTINUOUS
  5
125
 10
244.870692
 20
292.530462
 30
0.0
 11
221.870692
 21
315.530462
 31
0.0
  0
LINE
  8
LC-003-005-----0
  6
CONTINUOUS
  5
126
 10
239.213838
 20
292.530462
 30
0.0
 11
216.213838
 21
315.530462
 31
0.0
  0
LINE
  8
LC-003-005-----0
  6
CONTINUOUS
  5
127
 10
233.556983
 20
292.530462
 30
0.0
 11
211.264477
 21
314.822968
 31
0.0
  0
LINE
  8
LC-003-005-----0
  6
CONTINUOUS
  5
128
 10
227.900129
 20
292.530462
 30
0.0
 11
211.264473
 21
309.166118
 31
0.0
  0
LINE
  8
LC-003-005-----0
  6
CONTINUOUS
  5
129
 10
222.243275
 20
292.530462
 30
0.0
 11
211.264469
 21
303.509267
 31
0.0
  0
LINE
  8
LC-003-005-----0
  6
CONTINUOUS
  5
12A
 10
216.586421
 20
292.530462
 30
0.0
 11
211.264466
 21
297.852417
 31
0.0
  0
ENDBLK
  8
0
  5
12B
  0
BLOCK
  8
0
  5
12D
  2
*X18
 70
    65
 10
280.264279
 20
292.530462
 30
0.0
  3
*X18
  0
LINE
  8
LC-003-005-----0
  6
CONTINUOUS
  5
12E
 10
349.099004
 20
292.530462
 30
0.0
 11
349.264279
 21
292.695737
 31
0.0
  0
LINE
  8
LC-003-005-----0
  6
CONTINUOUS
  5
12F
 10
343.44215
 20
292.530462
 30
0.0
 11
349.264279
 21
298.352591
 31
0.0
  0
LINE
  8
LC-003-005-----0
  6
CONTINUOUS
  5
130
 10
337.785296
 20
292.530462
 30
0.0
 11
349.264279
 21
304.009445
 31
0.0
  0
LINE
  8
LC-003-005-----0
  6
CONTINUOUS
  5
131
 10
332.128442
 20
292.530462
 30
0.0
 11
349.264279
 21
309.6663
 31
0.0
  0
LINE
  8
LC-003-005-----0
  6
CONTINUOUS
  5
132
 10
326.471587
 20
292.530462
 30
0.0
 11
349.264279
 21
315.323154
 31
0.0
  0
LINE
  8
LC-003-005-----0
  6
CONTINUOUS
  5
133
 10
320.814733
 20
292.530462
 30
0.0
 11
343.814733
 21
315.530462
 31
0.0
  0
LINE
  8
LC-003-005-----0
  6
CONTINUOUS
  5
134
 10
315.157879
 20
292.530462
 30
0.0
 11
338.157879
 21
315.530462
 31
0.0
  0
LINE
  8
LC-003-005-----0
  6
CONTINUOUS
  5
135
 10
309.501025
 20
292.530462
 30
0.0
 11
332.501025
 21
315.530462
 31
0.0
  0
LINE
  8
LC-003-005-----0
  6
CONTINUOUS
  5
136
 10
303.84417
 20
292.530462
 30
0.0
 11
326.84417
 21
315.530462
 31
0.0
  0
LINE
  8
LC-003-005-----0
  6
CONTINUOUS
  5
137
 10
298.187316
 20
292.530462
 30
0.0
 11
321.187316
 21
315.530462
 31
0.0
  0
LINE
  8
LC-003-005-----0
  6
CONTINUOUS
  5
138
 10
292.530462
 20
292.530462
 30
0.0
 11
315.530462
 21
315.530462
 31
0.0
  0
LINE
  8
LC-003-005-----0
  6
CONTINUOUS
  5
139
 10
286.873608
 20
292.530462
 30
0.0
 11
309.873608
 21
315.530462
 31
0.0
  0
LINE
  8
LC-003-005-----0
  6
CONTINUOUS
  5
13A
 10
281.216753
 20
292.530462
 30
0.0
 11
304.216753
 21
315.530462
 31
0.0
  0
LINE
  8
LC-003-005-----0
  6
CONTINUOUS
  5
13B
 10
280.264279
 20
297.234842
 30
0.0
 11
298.559899
 21
315.530462
 31
0.0
  0
LINE
  8
LC-003-005-----0
  6
CONTINUOUS
  5
13C
 10
280.264279
 20
302.891696
 30
0.0
 11
292.903045
 21
315.530462
 31
0.0
  0
LINE
  8
LC-003-005-----0
  6
CONTINUOUS
  5
13D
 10
280.264279
 20
308.548551
 30
0.0
 11
287.246191
 21
315.530462
 31
0.0
  0
LINE
  8
LC-003-005-----0
  6
CONTINUOUS
  5
13E
 10
280.264279
 20
314.205405
 30
0.0
 11
281.589336
 21
315.530462
 31
0.0
  0
LINE
  8
LC-003-005-----0
  6
CONTINUOUS
  5
13F
 10
349.264279
 20
312.587668
 30
0.0
 11
346.321485
 21
315.530462
 31
0.0
  0
LINE
  8
LC-003-005-----0
  6
CONTINUOUS
  5
140
 10
349.264279
 20
306.930813
 30
0.0
 11
340.664631
 21
315.530462
 31
0.0
  0
LINE
  8
LC-003-005-----0
  6
CONTINUOUS
  5
141
 10
349.264279
 20
301.273959
 30
0.0
 11
335.007777
 21
315.530462
 31
0.0
  0
LINE
  8
LC-003-005-----0
  6
CONTINUOUS
  5
142
 10
349.264279
 20
295.617105
 30
0.0
 11
329.350923
 21
315.530462
 31
0.0
  0
LINE
  8
LC-003-005-----0
  6
CONTINUOUS
  5
143
 10
346.694068
 20
292.530462
 30
0.0
 11
323.694068
 21
315.530462
 31
0.0
  0
LINE
  8
LC-003-005-----0
  6
CONTINUOUS
  5
144
 10
341.037214
 20
292.530462
 30
0.0
 11
318.037214
 21
315.530462
 31
0.0
  0
LINE
  8
LC-003-005-----0
  6
CONTINUOUS
  5
145
 10
335.38036
 20
292.530462
 30
0.0
 11
312.38036
 21
315.530462
 31
0.0
  0
LINE
  8
LC-003-005-----0
  6
CONTINUOUS
  5
146
 10
329.723506
 20
292.530462
 30
0.0
 11
306.723506
 21
315.530462
 31
0.0
  0
LINE
  8
LC-003-005-----0
  6
CONTINUOUS
  5
147
 10
324.066651
 20
292.530462
 30
0.0
 11
301.066651
 21
315.530462
 31
0.0
  0
LINE
  8
LC-003-005-----0
  6
CONTINUOUS
  5
148
 10
318.409797
 20
292.530462
 30
0.0
 11
295.409797
 21
315.530462
 31
0.0
  0
LINE
  8
LC-003-005-----0
  6
CONTINUOUS
  5
149
 10
312.752943
 20
292.530462
 30
0.0
 11
289.752943
 21
315.530462
 31
0.0
  0
LINE
  8
LC-003-005-----0
  6
CONTINUOUS
  5
14A
 10
307.096089
 20
292.530462
 30
0.0
 11
284.096089
 21
315.530462
 31
0.0
  0
LINE
  8
LC-003-005-----0
  6
CONTINUOUS
  5
14B
 10
301.439234
 20
292.530462
 30
0.0
 11
280.264279
 21
313.705417
 31
0.0
  0
LINE
  8
LC-003-005-----0
  6
CONTINUOUS
  5
14C
 10
295.78238
 20
292.530462
 30
0.0
 11
280.264279
 21
308.048562
 31
0.0
  0
LINE
  8
LC-003-005-----0
  6
CONTINUOUS
  5
14D
 10
290.125526
 20
292.530462
 30
0.0
 11
280.264279
 21
302.391708
 31
0.0
  0
LINE
  8
LC-003-005-----0
  6
CONTINUOUS
  5
14E
 10
284.468672
 20
292.530462
 30
0.0
 11
280.264279
 21
296.734854
 31
0.0
  0
ENDBLK
  8
0
  5
14F
  0
BLOCK
  8
0
  5
151
  2
*D19
 70
    65
 10
0.0
 20
0.0
 30
0.0
  3
*D19
  0
LINE
  8
LC-005-003-MTH-0
  6
CONTINUOUS
  5
152
 10
350.924348
 20
292.530462
 30
0.0
 11
408.8
 21
292.530462
 31
0.0
  0
LINE
  8
LC-005-003-MTH-0
  6
CONTINUOUS
  5
153
 10
349.264082
 20
315.530462
 30
0.0
 11
408.8
 21
315.530462
 31
0.0
  0
LINE
  8
LC-004-003-----0
  6
CONTINUOUS
  5
154
 10
395.654733
 20
264.770006
 30
0.0
 11
392.0
 21
292.530462
 31
0.0
  0
LINE
  8
LC-004-003-----0
  6
CONTINUOUS
  5
155
 10
392.0
 20
292.530462
 30
0.0
 11
388.345267
 21
264.770006
 31
0.0
  0
LINE
  8
LC-004-003-----0
  6
CONTINUOUS
  5
156
 10
388.345267
 20
264.770006
 30
0.0
 11
395.654733
 21
264.770006
 31
0.0
  0
LINE
  8
LC-004-003-----0
  6
CONTINUOUS
  5
157
 10
394.704503
 20
264.707724
 30
0.0
 11
392.0
 21
285.250462
 31
0.0
  0
LINE
  8
LC-004-003-----0
  6
CONTINUOUS
  5
158
 10
392.0
 20
285.250462
 30
0.0
 11
389.295497
 21
264.707724
 31
0.0
  0
LINE
  8
LC-004-003-----0
  6
CONTINUOUS
  5
159
 10
393.754272
 20
264.645443
 30
0.0
 11
392.0
 21
277.970462
 31
0.0
  0
LINE
  8
LC-004-003-----0
  6
CONTINUOUS
  5
15A
 10
392.0
 20
277.970462
 30
0.0
 11
390.245728
 21
264.645443
 31
0.0
  0
LINE
  8
LC-004-003-----0
  6
CONTINUOUS
  5
15B
 10
392.804041
 20
264.583161
 30
0.0
 11
392.0
 21
270.690462
 31
0.0
  0
LINE
  8
LC-004-003-----0
  6
CONTINUOUS
  5
15C
 10
392.0
 20
270.690462
 30
0.0
 11
391.195959
 21
264.583161
 31
0.0
  0
LINE
  8
LC-004-003-----0
  6
CONTINUOUS
  5
15D
 10
388.345267
 20
343.290918
 30
0.0
 11
392.0
 21
315.530462
 31
0.0
  0
LINE
  8
LC-004-003-----0
  6
CONTINUOUS
  5
15E
 10
392.0
 20
315.530462
 30
0.0
 11
395.654733
 21
343.290918
 31
0.0
  0
LINE
  8
LC-004-003-----0
  6
CONTINUOUS
  5
15F
 10
395.654733
 20
343.290918
 30
0.0
 11
388.345267
 21
343.290918
 31
0.0
  0
LINE
  8
LC-004-003-----0
  6
CONTINUOUS
  5
160
 10
389.295497
 20
343.353199
 30
0.0
 11
392.0
 21
322.810462
 31
0.0
  0
LINE
  8
LC-004-003-----0
  6
CONTINUOUS
  5
161
 10
392.0
 20
322.810462
 30
0.0
 11
394.704503
 21
343.353199
 31
0.0
  0
LINE
  8
LC-004-003-----0
  6
CONTINUOUS
  5
162
 10
390.245728
 20
343.415481
 30
0.0
 11
392.0
 21
330.090462
 31
0.0
  0
LINE
  8
LC-004-003-----0
  6
CONTINUOUS
  5
163
 10
392.0
 20
330.090462
 30
0.0
 11
393.754272
 21
343.415481
 31
0.0
  0
LINE
  8
LC-004-003-----0
  6
CONTINUOUS
  5
164
 10
391.195959
 20
343.477762
 30
0.0
 11
392.0
 21
337.370462
 31
0.0
  0
LINE
  8
LC-004-003-----0
  6
CONTINUOUS
  5
165
 10
392.0
 20
337.370462
 30
0.0
 11
392.804041
 21
343.477762
 31
0.0
  0
LINE
  8
LC-006-003-MTG-0
  6
CONTINUOUS
  5
166
 10
392.0
 20
253.330462
 30
0.0
 11
392.0
 21
389.667462
 31
0.0
  0
TEXT
  8
LC-004-003-----0
  6
CONTINUOUS
 62
     8
  5
167
 10
384.172446
 20
356.278622
 30
0.0
 40
28.0
  1
23
 50
90.0
 51
15.0
  7
LC-TXTSTYLE-150-400-0-0-D0
  0
ENDBLK
  8
0
  5
168
  0
BLOCK
  8
0
  5
16A
  2
*D20
 70
    65
 10
0.0
 20
0.0
 30
0.0
  3
*D20
  0
LINE
  8
LC-005-003-MTH-0
  6
CONTINUOUS
  5
16B
 10
349.264279
 20
315.530462
 30
0.0
 11
448.0
 21
315.530462
 31
0.0
  0
LINE
  8
LC-005-003-MTH-0
  6
CONTINUOUS
  5
16C
 10
330.264279
 20
385.030462
 30
0.0
 11
448.0
 21
385.030462
 31
0.0
  0
LINE
  8
LC-006-003-MTG-0
  6
CONTINUOUS
  5
16D
 10
431.2
 20
315.530462
 30
0.0
 11
431.2
 21
385.030462
 31
0.0
  0
LINE
  8
LC-004-003-----0
  6
CONTINUOUS
  5
16E
 10
427.545267
 20
343.290918
 30
0.0
 11
431.2
 21
315.530462
 31
0.0
  0
LINE
  8
LC-004-003-----0
  6
CONTINUOUS
  5
16F
 10
431.2
 20
315.530462
 30
0.0
 11
434.854733
 21
343.290918
 31
0.0
  0
LINE
  8
LC-004-003-----0
  6
CONTINUOUS
  5
170
 10
434.854733
 20
343.290918
 30
0.0
 11
427.545267
 21
343.290918
 31
0.0
  0
LINE
  8
LC-004-003-----0
  6
CONTINUOUS
  5
171
 10
428.495497
 20
343.353199
 30
0.0
 11
431.2
 21
322.810462
 31
0.0
  0
LINE
  8
LC-004-003-----0
  6
CONTINUOUS
  5
172
 10
431.2
 20
322.810462
 30
0.0
 11
433.904503
 21
343.353199
 31
0.0
  0
LINE
  8
LC-004-003-----0
  6
CONTINUOUS
  5
173
 10
429.445728
 20
343.415481
 30
0.0
 11
431.2
 21
330.090462
 31
0.0
  0
LINE
  8
LC-004-003-----0
  6
CONTINUOUS
  5
174
 10
431.2
 20
330.090462
 30
0.0
 11
432.954272
 21
343.415481
 31
0.0
  0
LINE
  8
LC-004-003-----0
  6
CONTINUOUS
  5
175
 10
430.395959
 20
343.477762
 30
0.0
 11
431.2
 21
337.370462
 31
0.0
  0
LINE
  8
LC-004-003-----0
  6
CONTINUOUS
  5
176
 10
431.2
 20
337.370462
 30
0.0
 11
432.004041
 21
343.477762
 31
0.0
  0
LINE
  8
LC-004-003-----0
  6
CONTINUOUS
  5
177
 10
434.854733
 20
357.270006
 30
0.0
 11
431.2
 21
385.030462
 31
0.0
  0
LINE
  8
LC-004-003-----0
  6
CONTINUOUS
  5
178
 10
431.2
 20
385.030462
 30
0.0
 11
427.545267
 21
357.270006
 31
0.0
  0
LINE
  8
LC-004-003-----0
  6
CONTINUOUS
  5
179
 10
427.545267
 20
357.270006
 30
0.0
 11
434.854733
 21
357.270006
 31
0.0
  0
LINE
  8
LC-004-003-----0
  6
CONTINUOUS
  5
17A
 10
433.904503
 20
357.207724
 30
0.0
 11
431.2
 21
377.750462
 31
0.0
  0
LINE
  8
LC-004-003-----0
  6
CONTINUOUS
  5
17B
 10
431.2
 20
377.750462
 30
0.0
 11
428.495497
 21
357.207724
 31
0.0
  0
LINE
  8
LC-004-003-----0
  6
CONTINUOUS
  5
17C
 10
432.954272
 20
357.145443
 30
0.0
 11
431.2
 21
370.470462
 31
0.0
  0
LINE
  8
LC-004-003-----0
  6
CONTINUOUS
  5
17D
 10
431.2
 20
370.470462
 30
0.0
 11
429.445728
 21
357.145443
 31
0.0
  0
LINE
  8
LC-004-003-----0
  6
CONTINUOUS
  5
17E
 10
432.004041
 20
357.083161
 30
0.0
 11
431.2
 21
363.190462
 31
0.0
  0
LINE
  8
LC-004-003-----0
  6
CONTINUOUS
  5
17F
 10
431.2
 20
363.190462
 30
0.0
 11
430.395959
 21
357.083161
 31
0.0
  0
TEXT
  8
LC-004-003-----0
  6
CONTINUOUS
 62
     8
  5
180
 10
423.372446
 20
321.679015
 30
0.0
 40
28.0
  1
8-69
 50
90.0
 51
15.0
  7
LC-TXTSTYLE-150-400-0-0-D0
 72
     1
 11
423.372446
 21
354.628622
 31
0.0
  0
ENDBLK
  8
0
  5
181
  0
ENDSEC
  0
SECTION
  2
ENTITIES
  0
VIEWPORT
  8
LC-000
  5
284
 67
     1
 68
     1
 10
420.0
 20
297.0
 30
0.0
 40
840.0
 41
594.0
 69
     1
1001
ACAD
1000
MVIEW
1002
{
1070
    16
1010
0.0
1020
0.0
1030
0.0
1010
0.0
1020
0.0
1030
1.0
1040
0.0
1040
594.0
1040
420.0
1040
297.0
1040
50.0
1040
0.0
1040
0.0
1070
     0
1070
   100
1070
     1
1070
     1
1070
     0
1070
     0
1070
     0
1070
     0
1040
0.0
1040
0.0
1040
0.0
1040
1.0
1040
1.0
1040
0.0
1040
0.0
1070
     0
1002
{
1002
}
1002
}
  0
VIEWPORT
  8
0
  5
285
 67
     1
 68
     1
 10
0.0
 20
0.0
 30
0.0
 40
0.0
 41
0.0
 69
     1
1001
ACAD
1000
MVIEW
1002
{
1070
    16
1010
0.0
1020
0.0
1030
0.0
1010
0.0
1020
0.0
1030
1.0
1040
0.0
1040
594.0
1040
0.0
1040
0.0
1040
50.0
1040
0.0
1040
0.0
1070
     0
1070
   100
1070
     0
1070
     1
1070
     0
1070
     0
1070
     0
1070
     0
1040
0.0
1040
0.0
1040
0.0
1040
0.5
1040
0.5
1040
0.5
1040
0.5
1070
     0
1002
{
1002
}
1002
}
  0
INSERT
  8
0
  5
182
  2
*X0
 10
208.264465
 20
292.530462
 30
0.0
  0
INSERT
  8
0
  5
183
  2
*X1
 10
325.26404
 20
292.530462
 30
0.0
  0
DIMENSION
  8
0
  5
184
  2
*D2
 10
280.264279
 20
235.2
 30
0.0
 11
280.264279
 21
235.2
 31
0.0
  1
%%c145
 13
208.264465
 23
297.530462
 33
0.0
 14
352.264094
 24
297.530462
 34
0.0
  3
LC-DIM-L-0140-02-02
  0
DIMENSION
  8
0
  5
185
  2
*D3
 10
196.0
 20
380.530462
 30
0.0
 11
196.0
 21
380.530462
 31
0.0
 13
230.264279
 23
385.030462
 33
0.0
 14
230.264279
 24
376.030462
 34
0.0
 50
90.0
  3
LC-DIM-L-0140-02-02
  0
INSERT
  8
0
  5
186
  2
*X4
 10
280.264279
 20
379.030462
 30
0.0
  0
INSERT
  8
0
  5
188
  2
BLK1
 10
0.0
 20
0.0
 30
0.0
  0
INSERT
  8
0
  5
189
  2
*X6
 10
235.264519
 20
379.030666
 30
0.0
  0
DIMENSION
  8
0
  5
18A
  2
*D7
 10
280.264401
 20
392.0
 30
0.0
 11
280.264401
 21
392.0
 31
0.0
 13
230.264523
 23
385.03067
 33
0.0
 14
330.264279
 24
385.030462
 34
0.0
  3
LC-DIM-L-0140-02-02
  0
INSERT
  8
0
  5
18B
  2
BLK2
 10
0.0
 20
0.0
 30
0.0
  0
INSERT
  8
0
  5
18C
  2
BLK3
 10
0.0
 20
0.0
 30
0.0
  0
INSERT
  8
0
  5
18D
  2
BLK4
 10
0.0
 20
0.0
 30
0.0
  0
INSERT
  8
0
  5
18E
  2
BLK5
 10
0.0
 20
0.0
 30
0.0
  0
INSERT
  8
0
  5
18F
  2
BLK6
 10
0.0
 20
0.0
 30
0.0
  0
INSERT
  8
0
  5
190
  2
BLK7
 10
0.0
 20
0.0
 30
0.0
  0
INSERT
  8
0
  5
191
  2
BLK8
 10
0.0
 20
0.0
 30
0.0
  0
INSERT
  8
0
  5
193
  2
BLK9
 10
0.0
 20
0.0
 30
0.0
  0
INSERT
  8
0
  5
194
  2
BLK10
 10
0.0
 20
0.0
 30
0.0
  0
INSERT
  8
0
  5
195
  2
*X17
 10
211.264462
 20
292.530462
 30
0.0
  0
INSERT
  8
0
  5
196
  2
*X18
 10
280.264279
 20
292.530462
 30
0.0
  0
DIMENSION
  8
0
  5
197
  2
*D19
 10
392.0
 20
304.030462
 30
0.0
 11
392.0
 21
304.030462
 31
0.0
 13
350.924348
 23
292.530462
 33
0.0
 14
349.264082
 24
315.530462
 34
0.0
 50
90.0
  3
LC-DIM-L-0140-02-02
  0
DIMENSION
  8
0
  5
198
  2
*D20
 10
431.2
 20
350.280462
 30
0.0
 11
431.2
 21
350.280462
 31
0.0
  1
8-69
 13
349.264279
 23
315.530462
 33
0.0
 14
330.264279
 24
385.030462
 34
0.0
 50
90.0
  3
LC-DIM-L-0140-02-02
  0
LINE
  8
LC-001-002-----0
  5
19B
 10
280.264279
 20
385.030462
 30
0.0
 11
280.264279
 21
292.530462
 31
0.0
  0
LINE
  8
LC-001-002-----0
  6
CONTINUOUS
 62
     1
  5
19C
 10
330.264279
 20
385.030462
 30
0.0
 11
330.264279
 21
376.030462
 31
0.0
  0
LINE
  8
LC-001-002-----0
  6
CONTINUOUS
 62
     1
  5
19D
 10
330.264279
 20
376.030462
 30
0.0
 11
328.264279
 21
376.030462
 31
0.0
  0
LINE
  8
LC-001-002-----0
  6
CONTINUOUS
 62
     1
  5
19E
 10
328.264279
 20
376.030462
 30
0.0
 11
328.264279
 21
370.030462
 31
0.0
  0
LINE
  8
LC-001-002-----0
  6
CONTINUOUS
 62
     1
  5
19F
 10
326.764279
 20
385.030462
 30
0.0
 11
326.764279
 21
379.030462
 31
0.0
  0
LINE
  8
LC-001-002-----0
  6
CONTINUOUS
 62
     1
  5
1A0
 10
326.764279
 20
379.030462
 30
0.0
 11
280.264279
 21
379.030462
 31
0.0
  0
LINE
  8
LC-001-002-----0
  6
CONTINUOUS
 62
     1
  5
1A1
 10
325.264279
 20
379.030462
 30
0.0
 11
325.264279
 21
367.030462
 31
0.0
  0
LINE
  8
LC-001-002-----0
  6
CONTINUOUS
 62
     1
  5
1A2
 10
352.264094
 20
297.530462
 30
0.0
 11
350.924348
 21
292.530462
 31
0.0
  0
LINE
  8
LC-001-002-----0
  6
CONTINUOUS
 62
     1
  5
1A3
 10
328.264279
 20
370.030462
 30
0.0
 11
342.264279
 21
370.030462
 31
0.0
  0
ARC
  8
LC-001-002-----0
  6
CONTINUOUS
 62
     1
  5
1A4
 10
342.264279
 20
360.030462
 30
0.0
 40
10.0
 50
0.0
 51
90.0
  0
LINE
  8
LC-001-002-----0
  6
CONTINUOUS
 62
     1
  5
1A5
 10
352.264279
 20
360.030462
 30
0.0
 11
352.264279
 21
297.531156
 31
0.0
  0
LINE
  8
LC-002-001-----0
  6
CONTINUOUS
  5
1A7
 10
280.264279
 20
367.030462
 30
0.0
 11
342.264279
 21
367.030462
 31
0.0
  0
ARC
  8
LC-002-001-----0
  6
CONTINUOUS
  5
1A8
 10
342.264279
 20
360.030462
 30
0.0
 40
7.0
 50
0.0
 51
90.0
  0
LINE
  8
LC-001-002-----0
  6
CONTINUOUS
 62
     1
  5
1A9
 10
349.264279
 20
360.030462
 30
0.0
 11
349.264279
 21
292.530462
 31
0.0
  0
LINE
  8
LC-001-002-----0
  6
CONTINUOUS
 62
     1
  5
1AA
 10
209.604211
 20
292.530462
 30
0.0
 11
350.924348
 21
292.530462
 31
0.0
  0
LINE
  8
LC-001-002-----0
  6
CONTINUOUS
 62
     1
  5
1AB
 10
208.264465
 20
297.530462
 30
0.0
 11
209.604211
 21
292.530462
 31
0.0
  0
LINE
  8
LC-001-002-----0
  6
CONTINUOUS
  5
1AC
 10
255.490801
 20
417.732
 30
0.0
 11
240.490801
 21
417.732
 31
0.0
  0
LINE
  8
LC-001-002-----0
  6
CONTINUOUS
  5
1AD
 10
255.490801
 20
402.732
 30
0.0
 11
255.490801
 21
417.732
 31
0.0
  0
CIRCLE
  8
LC-001-002-----0
  6
CONTINUOUS
 62
     1
  5
1AE
 10
476.763978
 20
300.780736
 30
0.0
 40
4.5
  0
LINE
  8
LC-001-002-----0
  6
CONTINUOUS
 62
     1
  5
1AF
 10
474.263978
 20
300.280738
 30
0.0
 11
474.263979
 21
301.280738
 31
0.0
  0
LINE
  8
LC-001-002-----0
  6
CONTINUOUS
 62
     1
  5
1B0
 10
474.263979
 20
301.280738
 30
0.0
 11
476.263979
 21
301.280737
 31
0.0
  0
LINE
  8
LC-001-002-----0
  6
CONTINUOUS
 62
     1
  5
1B1
 10
479.263979
 20
301.280735
 30
0.0
 11
479.263978
 21
300.280735
 31
0.0
  0
LINE
  8
LC-001-002-----0
  6
CONTINUOUS
 62
     1
  5
1B2
 10
288.264279
 20
380.030462
 30
0.0
 11
295.264279
 21
380.030462
 31
0.0
  0
LINE
  8
LC-001-002-----0
  6
CONTINUOUS
 62
     1
  5
1B3
 10
295.264279
 20
380.030462
 30
0.0
 11
296.264279
 21
380.030462
 31
0.0
  0
LINE
  8
LC-001-002-----0
  6
CONTINUOUS
 62
     1
  5
1B4
 10
300.264279
 20
380.030462
 30
0.0
 11
307.264279
 21
380.030462
 31
0.0
  0
LINE
  8
LC-001-002-----0
  6
CONTINUOUS
 62
     1
  5
1B5
 10
307.264279
 20
380.030462
 30
0.0
 11
308.264279
 21
380.030462
 31
0.0
  0
LINE
  8
LC-001-002-----0
  6
CONTINUOUS
 62
     1
  5
1B6
 10
312.264279
 20
380.030462
 30
0.0
 11
319.264279
 21
380.030462
 31
0.0
  0
LINE
  8
LC-001-002-----0
  6
CONTINUOUS
 62
     1
  5
1B7
 10
319.264279
 20
380.030462
 30
0.0
 11
320.264279
 21
380.030462
 31
0.0
  0
LINE
  8
LC-001-002-----0
  6
CONTINUOUS
 62
     1
  5
1B8
 10
326.764279
 20
385.030462
 30
0.0
 11
330.264279
 21
385.030462
 31
0.0
  0
LINE
  8
LC-001-002-----0
  6
CONTINUOUS
 62
     1
  5
1B9
 10
280.264279
 20
385.030462
 30
0.0
 11
297.264279
 21
385.030462
 31
0.0
  0
ARC
  8
LC-001-002-----0
  6
CONTINUOUS
 62
     1
  5
1BA
 10
287.264279
 20
383.030462
 30
0.0
 40
2.0
 50
0.0
 51
90.0
  0
LINE
  8
LC-001-002-----0
  6
CONTINUOUS
 62
     1
  5
1BB
 10
289.264279
 20
380.030462
 30
0.0
 11
289.264279
 21
383.030462
 31
0.0
  0
ARC
  8
LC-001-002-----0
  6
CONTINUOUS
 62
     1
  5
1BC
 10
297.264279
 20
383.030462
 30
0.0
 40
2.0
 50
90.0
 51
179.999848
  0
LINE
  8
LC-001-002-----0
  6
CONTINUOUS
 62
     1
  5
1BD
 10
295.264279
 20
383.030462
 30
0.0
 11
295.264279
 21
380.030462
 31
0.0
  0
LINE
  8
LC-001-002-----0
  6
CONTINUOUS
 62
     1
  5
1BE
 10
301.264279
 20
380.030462
 30
0.0
 11
301.264279
 21
383.030462
 31
0.0
  0
ARC
  8
LC-001-002-----0
  6
CONTINUOUS
 62
     1
  5
1BF
 10
299.264279
 20
383.030462
 30
0.0
 40
2.0
 50
0.0
 51
89.999981
  0
LINE
  8
LC-001-002-----0
  6
CONTINUOUS
 62
     1
  5
1C0
 10
297.264279
 20
385.030462
 30
0.0
 11
309.264279
 21
385.030462
 31
0.0
  0
ARC
  8
LC-001-002-----0
  6
CONTINUOUS
 62
     1
  5
1C1
 10
309.264279
 20
383.030462
 30
0.0
 40
2.0
 50
90.0
 51
179.999848
  0
LINE
  8
LC-001-002-----0
  6
CONTINUOUS
 62
     1
  5
1C2
 10
307.264279
 20
383.030462
 30
0.0
 11
307.264279
 21
380.030462
 31
0.0
  0
LINE
  8
LC-001-002-----0
  6
CONTINUOUS
 62
     1
  5
1C3
 10
309.264279
 20
385.030462
 30
0.0
 11
321.264279
 21
385.030462
 31
0.0
  0
ARC
  8
LC-001-002-----0
  6
CONTINUOUS
 62
     1
  5
1C4
 10
311.264279
 20
383.030462
 30
0.0
 40
2.0
 50
0.0
 51
90.0
  0
LINE
  8
LC-001-002-----0
  6
CONTINUOUS
 62
     1
  5
1C5
 10
313.264279
 20
380.030462
 30
0.0
 11
313.264279
 21
383.030462
 31
0.0
  0
LINE
  8
LC-001-002-----0
  6
CONTINUOUS
 62
     1
  5
1C6
 10
319.264279
 20
383.030462
 30
0.0
 11
319.264279
 21
380.030462
 31
0.0
  0
ARC
  8
LC-001-002-----0
  6
CONTINUOUS
 62
     1
  5
1C7
 10
321.264279
 20
383.030462
 30
0.0
 40
2.0
 50
89.999981
 51
180.0
  0
LINE
  8
LC-001-002-----0
  6
CONTINUOUS
 62
     1
  5
1C8
 10
321.264279
 20
385.030462
 30
0.0
 11
323.264279
 21
385.030462
 31
0.0
  0
ARC
  8
LC-001-002-----0
  6
CONTINUOUS
 62
     1
  5
1C9
 10
323.264279
 20
383.030462
 30
0.0
 40
2.0
 50
0.0
 51
90.0
  0
LINE
  8
LC-001-002-----0
  6
CONTINUOUS
 62
     1
  5
1CA
 10
325.264279
 20
379.030462
 30
0.0
 11
325.264279
 21
383.030462
 31
0.0
  0
LINE
  8
LC-001-002-----0
  6
CONTINUOUS
 62
     1
  5
1CB
 10
280.264279
 20
384.030462
 30
0.0
 11
287.264279
 21
384.030462
 31
0.0
  0
ARC
  8
LC-001-002-----0
  6
CONTINUOUS
 62
     1
  5
1CC
 10
287.264279
 20
383.030462
 30
0.0
 40
1.0
 50
0.0
 51
90.0
  0
LINE
  8
LC-001-002-----0
  6
CONTINUOUS
 62
     1
  5
1CD
 10
288.264279
 20
383.030462
 30
0.0
 11
288.264279
 21
380.030462
 31
0.0
  0
ARC
  8
LC-001-002-----0
  6
CONTINUOUS
 62
     1
  5
1CE
 10
297.264279
 20
383.030462
 30
0.0
 40
1.0
 50
90.0
 51
179.999848
  0
LINE
  8
LC-001-002-----0
  6
CONTINUOUS
 62
     1
  5
1CF
 10
296.264279
 20
380.030462
 30
0.0
 11
296.264279
 21
383.030462
 31
0.0
  0
LINE
  8
LC-001-002-----0
  6
CONTINUOUS
 62
     1
  5
1D0
 10
300.264279
 20
383.030462
 30
0.0
 11
300.264279
 21
380.030462
 31
0.0
  0
ARC
  8
LC-001-002-----0
  6
CONTINUOUS
 62
     1
  5
1D1
 10
299.264279
 20
383.030462
 30
0.0
 40
1.0
 50
0.0
 51
89.999981
  0
LINE
  8
LC-001-002-----0
  6
CONTINUOUS
 62
     1
  5
1D2
 10
297.264279
 20
384.030462
 30
0.0
 11
299.264279
 21
384.030462
 31
0.0
  0
LINE
  8
LC-001-002-----0
  6
CONTINUOUS
 62
     1
  5
1D3
 10
308.264279
 20
380.030462
 30
0.0
 11
308.264279
 21
383.030462
 31
0.0
  0
ARC
  8
LC-001-002-----0
  6
CONTINUOUS
 62
     1
  5
1D4
 10
309.264279
 20
383.030462
 30
0.0
 40
1.0
 50
89.999981
 51
180.0
  0
LINE
  8
LC-001-002-----0
  6
CONTINUOUS
 62
     1
  5
1D5
 10
309.264279
 20
384.030462
 30
0.0
 11
311.264279
 21
384.030462
 31
0.0
  0
ARC
  8
LC-001-002-----0
  6
CONTINUOUS
 62
     1
  5
1D6
 10
311.264279
 20
383.030462
 30
0.0
 40
1.0
 50
0.0
 51
90.0
  0
LINE
  8
LC-001-002-----0
  6
CONTINUOUS
 62
     1
  5
1D7
 10
312.264279
 20
383.030462
 30
0.0
 11
312.264279
 21
380.030462
 31
0.0
  0
ARC
  8
LC-001-002-----0
  6
CONTINUOUS
 62
     1
  5
1D8
 10
321.264279
 20
383.030462
 30
0.0
 40
1.0
 50
90.0
 51
179.999848
  0
LINE
  8
LC-001-002-----0
  6
CONTINUOUS
 62
     1
  5
1D9
 10
320.264279
 20
380.030462
 30
0.0
 11
320.264279
 21
383.030462
 31
0.0
  0
LINE
  8
LC-001-002-----0
  6
CONTINUOUS
 62
     1
  5
1DA
 10
324.264279
 20
383.030462
 30
0.0
 11
324.264279
 21
379.030462
 31
0.0
  0
ARC
  8
LC-001-002-----0
  6
CONTINUOUS
 62
     1
  5
1DB
 10
323.264279
 20
383.030462
 30
0.0
 40
1.0
 50
0.0
 51
89.999981
  0
LINE
  8
LC-001-002-----0
  6
CONTINUOUS
 62
     1
  5
1DC
 10
321.264279
 20
384.030462
 30
0.0
 11
323.264279
 21
384.030462
 31
0.0
  0
LINE
  8
LC-001-002-----0
  6
CONTINUOUS
 62
     1
  5
1DD
 10
230.264523
 20
385.03067
 30
0.0
 11
230.264517
 21
376.03067
 31
0.0
  0
LINE
  8
LC-001-002-----0
  6
CONTINUOUS
 62
     1
  5
1DE
 10
230.264517
 20
376.03067
 30
0.0
 11
232.264517
 21
376.030669
 31
0.0
  0
LINE
  8
LC-001-002-----0
  6
CONTINUOUS
 62
     1
  5
1DF
 10
232.264517
 20
376.030669
 30
0.0
 11
232.264513
 21
370.030669
 31
0.0
  0
LINE
  8
LC-001-002-----0
  6
CONTINUOUS
 62
     1
  5
1E0
 10
233.764523
 20
385.030668
 30
0.0
 11
233.764519
 21
379.030668
 31
0.0
  0
LINE
  8
LC-001-002-----0
  6
CONTINUOUS
 62
     1
  5
1E1
 10
233.764519
 20
379.030668
 30
0.0
 11
280.264519
 21
379.030637
 31
0.0
  0
LINE
  8
LC-001-002-----0
  6
CONTINUOUS
 62
     1
  5
1E2
 10
235.264519
 20
379.030667
 30
0.0
 11
235.264511
 21
367.030667
 31
0.0
  0
LINE
  8
LC-001-002-----0
  6
CONTINUOUS
 62
     1
  5
1E3
 10
232.264513
 20
370.030669
 30
0.0
 11
218.264513
 21
370.030678
 31
0.0
  0
ARC
  8
LC-001-002-----0
  6
CONTINUOUS
 62
     1
  5
1E4
 10
218.264506
 20
360.030678
 30
0.0
 40
10.0
 50
89.999963
 51
179.999944
  0
LINE
  8
LC-001-002-----0
  6
CONTINUOUS
 62
     1
  5
1E5
 10
208.264506
 20
360.030684
 30
0.0
 11
208.264465
 21
297.530462
 31
0.0
  0
LINE
  8
LC-002-001-----0
  6
CONTINUOUS
  5
1E6
 10
280.264511
 20
367.030637
 30
0.0
 11
218.264511
 21
367.030678
 31
0.0
  0
ARC
  8
LC-002-001-----0
  6
CONTINUOUS
  5
1E7
 10
218.264506
 20
360.030678
 30
0.0
 40
7.0
 50
89.999963
 51
179.999944
  0
LINE
  8
LC-001-002-----0
  6
CONTINUOUS
 62
     1
  5
1E8
 10
211.264506
 20
360.030682
 30
0.0
 11
211.264462
 21
292.530462
 31
0.0
  0
LINE
  8
LC-001-002-----0
  6
CONTINUOUS
 62
     1
  5
1E9
 10
479.263978
 20
300.280735
 30
0.0
 11
477.263978
 21
300.280736
 31
0.0
  0
LINE
  8
LC-001-002-----0
  6
CONTINUOUS
 62
     1
  5
1EA
 10
476.263977
 20
298.280737
 30
0.0
 11
477.263977
 21
298.280736
 31
0.0
  0
LINE
  8
LC-001-002-----0
  6
CONTINUOUS
 62
     1
  5
1EB
 10
272.264519
 20
380.030642
 30
0.0
 11
265.264519
 21
380.030647
 31
0.0
  0
LINE
  8
LC-001-002-----0
  6
CONTINUOUS
 62
     1
  5
1EC
 10
265.264519
 20
380.030647
 30
0.0
 11
264.264519
 21
380.030648
 31
0.0
  0
LINE
  8
LC-001-002-----0
  6
CONTINUOUS
 62
     1
  5
1ED
 10
260.264519
 20
380.03065
 30
0.0
 11
253.264519
 21
380.030655
 31
0.0
  0
LINE
  8
LC-001-002-----0
  6
CONTINUOUS
 62
     1
  5
1EE
 10
253.264519
 20
380.030655
 30
0.0
 11
252.264519
 21
380.030655
 31
0.0
  0
LINE
  8
LC-001-002-----0
  6
CONTINUOUS
 62
     1
  5
1EF
 10
248.264519
 20
380.030658
 30
0.0
 11
241.264519
 21
380.030663
 31
0.0
  0
LINE
  8
LC-001-002-----0
  6
CONTINUOUS
 62
     1
  5
1F0
 10
241.264519
 20
380.030663
 30
0.0
 11
240.264519
 21
380.030663
 31
0.0
  0
LINE
  8
LC-001-002-----0
  6
CONTINUOUS
 62
     1
  5
1F1
 10
233.764523
 20
385.030668
 30
0.0
 11
230.264523
 21
385.03067
 31
0.0
  0
LINE
  8
LC-001-002-----0
  6
CONTINUOUS
 62
     1
  5
1F2
 10
280.264523
 20
385.030637
 30
0.0
 11
263.264523
 21
385.030648
 31
0.0
  0
ARC
  8
LC-001-002-----0
  6
CONTINUOUS
 62
     1
  5
1F3
 10
273.264521
 20
383.030642
 30
0.0
 40
2.0
 50
89.999963
 51
179.999944
  0
LINE
  8
LC-001-002-----0
  6
CONTINUOUS
 62
     1
  5
1F4
 10
271.264519
 20
380.030643
 30
0.0
 11
271.264521
 21
383.030643
 31
0.0
  0
ARC
  8
LC-001-002-----0
  6
CONTINUOUS
 62
     1
  5
1F5
 10
263.264521
 20
383.030648
 30
0.0
 40
2.0
 50
0.000096
 51
89.999963
  0
LINE
  8
LC-001-002-----0
  6
CONTINUOUS
 62
     1
  5
1F6
 10
265.264521
 20
383.030647
 30
0.0
 11
265.264519
 21
380.030647
 31
0.0
  0
LINE
  8
LC-001-002-----0
  6
CONTINUOUS
 62
     1
  5
1F7
 10
259.264519
 20
380.030651
 30
0.0
 11
259.264521
 21
383.030651
 31
0.0
  0
ARC
  8
LC-001-002-----0
  6
CONTINUOUS
 62
     1
  5
1F8
 10
261.264521
 20
383.03065
 30
0.0
 40
2.0
 50
89.999963
 51
179.999963
  0
LINE
  8
LC-001-002-----0
  6
CONTINUOUS
 62
     1
  5
1F9
 10
263.264523
 20
385.030648
 30
0.0
 11
251.264523
 21
385.030656
 31
0.0
  0
ARC
  8
LC-001-002-----0
  6
CONTINUOUS
 62
     1
  5
1FA
 10
251.264521
 20
383.030656
 30
0.0
 40
2.0
 50
0.000096
 51
89.999963
  0
LINE
  8
LC-001-002-----0
  6
CONTINUOUS
 62
     1
  5
1FB
 10
253.264521
 20
383.030655
 30
0.0
 11
253.264519
 21
380.030655
 31
0.0
  0
LINE
  8
LC-001-002-----0
  6
CONTINUOUS
 62
     1
  5
1FC
 10
251.264523
 20
385.030656
 30
0.0
 11
239.264523
 21
385.030664
 31
0.0
  0
ARC
  8
LC-001-002-----0
  6
CONTINUOUS
 62
     1
  5
1FD
 10
249.264521
 20
383.030657
 30
0.0
 40
2.0
 50
89.999963
 51
179.999944
  0
LINE
  8
LC-001-002-----0
  6
CONTINUOUS
 62
     1
  5
1FE
 10
247.264519
 20
380.030659
 30
0.0
 11
247.264521
 21
383.030659
 31
0.0
  0
LINE
  8
LC-001-002-----0
  6
CONTINUOUS
 62
     1
  5
1FF
 10
241.264521
 20
383.030663
 30
0.0
 11
241.264519
 21
380.030663
 31
0.0
  0
ARC
  8
LC-001-002-----0
  6
CONTINUOUS
 62
     1
  5
200
 10
239.264521
 20
383.030664
 30
0.0
 40
2.0
 50
359.999963
 51
89.999888
  0
LINE
  8
LC-001-002-----0
  6
CONTINUOUS
 62
     1
  5
201
 10
239.264523
 20
385.030664
 30
0.0
 11
237.264523
 21
385.030665
 31
0.0
  0
ARC
  8
LC-001-002-----0
  6
CONTINUOUS
 62
     1
  5
202
 10
237.264521
 20
383.030665
 30
0.0
 40
2.0
 50
89.999963
 51
179.999944
  0
LINE
  8
LC-001-002-----0
  6
CONTINUOUS
 62
     1
  5
203
 10
235.264519
 20
379.030667
 30
0.0
 11
235.264521
 21
383.030667
 31
0.0
  0
LINE
  8
LC-001-002-----0
  6
CONTINUOUS
 62
     1
  5
204
 10
280.264522
 20
384.030637
 30
0.0
 11
273.264522
 21
384.030642
 31
0.0
  0
ARC
  8
LC-001-002-----0
  6
CONTINUOUS
 62
     1
  5
205
 10
273.264521
 20
383.030642
 30
0.0
 40
1.0
 50
89.999963
 51
179.999944
  0
LINE
  8
LC-001-002-----0
  6
CONTINUOUS
 62
     1
  5
206
 10
272.264521
 20
383.030642
 30
0.0
 11
272.264519
 21
380.030642
 31
0.0
  0
ARC
  8
LC-001-002-----0
  6
CONTINUOUS
 62
     1
  5
207
 10
263.264521
 20
383.030648
 30
0.0
 40
1.0
 50
0.000096
 51
89.999963
  0
LINE
  8
LC-001-002-----0
  6
CONTINUOUS
 62
     1
  5
208
 10
264.264519
 20
380.030648
 30
0.0
 11
264.264521
 21
383.030648
 31
0.0
  0
LINE
  8
LC-001-002-----0
  6
CONTINUOUS
 62
     1
  5
209
 10
260.264521
 20
383.03065
 30
0.0
 11
260.264519
 21
380.03065
 31
0.0
  0
ARC
  8
LC-001-002-----0
  6
CONTINUOUS
 62
     1
  5
20A
 10
261.264521
 20
383.03065
 30
0.0
 40
1.0
 50
89.999963
 51
179.999963
  0
LINE
  8
LC-001-002-----0
  6
CONTINUOUS
 62
     1
  5
20B
 10
263.264522
 20
384.030648
 30
0.0
 11
261.264522
 21
384.03065
 31
0.0
  0
LINE
  8
LC-001-002-----0
  6
CONTINUOUS
 62
     1
  5
20C
 10
252.264519
 20
380.030655
 30
0.0
 11
252.264521
 21
383.030655
 31
0.0
  0
ARC
  8
LC-001-002-----0
  6
CONTINUOUS
 62
     1
  5
20D
 10
251.264521
 20
383.030656
 30
0.0
 40
1.0
 50
359.999963
 51
89.999888
  0
LINE
  8
LC-001-002-----0
  6
CONTINUOUS
 62
     1
  5
20E
 10
251.264522
 20
384.030656
 30
0.0
 11
249.264522
 21
384.030657
 31
0.0
  0
ARC
  8
LC-001-002-----0
  6
CONTINUOUS
 62
     1
  5
20F
 10
249.264521
 20
383.030657
 30
0.0
 40
1.0
 50
89.999963
 51
179.999944
  0
LINE
  8
LC-001-002-----0
  6
CONTINUOUS
 62
     1
  5
210
 10
248.264521
 20
383.030658
 30
0.0
 11
248.264519
 21
380.030658
 31
0.0
  0
ARC
  8
LC-001-002-----0
  6
CONTINUOUS
 62
     1
  5
211
 10
239.264521
 20
383.030664
 30
0.0
 40
1.0
 50
0.000096
 51
89.999963
  0
LINE
  8
LC-001-002-----0
  6
CONTINUOUS
 62
     1
  5
212
 10
240.264519
 20
380.030663
 30
0.0
 11
240.264521
 21
383.030663
 31
0.0
  0
LINE
  8
LC-001-002-----0
  6
CONTINUOUS
 62
     1
  5
213
 10
236.264521
 20
383.030666
 30
0.0
 11
236.264519
 21
379.030666
 31
0.0
  0
ARC
  8
LC-001-002-----0
  6
CONTINUOUS
 62
     1
  5
214
 10
237.264521
 20
383.030665
 30
0.0
 40
1.0
 50
89.999963
 51
179.999963
  0
LINE
  8
LC-001-002-----0
  6
CONTINUOUS
 62
     1
  5
215
 10
239.264522
 20
384.030664
 30
0.0
 11
237.264522
 21
384.030665
 31
0.0
  0
LINE
  8
LC-001-002-----0
  6
CONTINUOUS
  5
216
 10
240.490801
 20
402.732
 30
0.0
 11
240.490801
 21
417.732
 31
0.0
  0
LINE
  8
LC-001-002-----0
  6
CONTINUOUS
  5
217
 10
255.490801
 20
402.732
 30
0.0
 11
240.490801
 21
402.732
 31
0.0
  0
CIRCLE
  8
LC-001-002-----0
  6
CONTINUOUS
 62
     1
  5
218
 10
514.764279
 20
338.780549
 30
0.0
 40
72.5
  0
LINE
  8
LC-001-002-----0
  6
CONTINUOUS
 62
     1
  5
219
 10
564.764279
 20
388.780549
 30
0.0
 11
464.764279
 21
388.780549
 31
0.0
  0
LINE
  8
LC-001-002-----0
  6
CONTINUOUS
 62
     1
  5
21A
 10
464.764279
 20
388.780549
 30
0.0
 11
464.764279
 21
288.780549
 31
0.0
  0
LINE
  8
LC-001-002-----0
  6
CONTINUOUS
 62
     1
  5
21B
 10
464.764279
 20
288.780549
 30
0.0
 11
564.764279
 21
288.780549
 31
0.0
  0
LINE
  8
LC-001-002-----0
  6
CONTINUOUS
 62
     1
  5
21C
 10
564.764279
 20
288.780549
 30
0.0
 11
564.764279
 21
388.780549
 31
0.0
  0
LINE
  8
LC-001-002-----0
  6
CONTINUOUS
 62
     1
  5
21D
 10
561.764279
 20
385.780549
 30
0.0
 11
467.764279
 21
385.780549
 31
0.0
  0
LINE
  8
LC-001-002-----0
  6
CONTINUOUS
 62
     1
  5
21E
 10
561.764279
 20
291.780549
 30
0.0
 11
561.764279
 21
385.780549
 31
0.0
  0
LINE
  8
LC-001-002-----0
  6
CONTINUOUS
 62
     1
  5
21F
 10
467.764279
 20
291.780549
 30
0.0
 11
561.764279
 21
291.780549
 31
0.0
  0
LINE
  8
LC-001-002-----0
  6
CONTINUOUS
 62
     1
  5
220
 10
467.764279
 20
385.780549
 30
0.0
 11
467.764279
 21
291.780549
 31
0.0
  0
ARC
  8
LC-001-002-----0
  6
CONTINUOUS
 62
     1
  5
221
 10
540.764279
 20
374.780549
 30
0.0
 40
3.0
 50
270.000117
 51
90.00004
  0
ARC
  8
LC-001-002-----0
  6
CONTINUOUS
 62
     1
  5
222
 10
529.764279
 20
362.780549
 30
0.0
 40
3.0
 50
270.000117
 51
90.00004
  0
LINE
  8
LC-001-002-----0
  6
CONTINUOUS
 62
     1
  5
223
 10
529.764279
 20
365.780549
 30
0.0
 11
514.764279
 21
365.780549
 31
0.0
  0
LINE
  8
LC-001-002-----0
  6
CONTINUOUS
 62
     1
  5
224
 10
529.764279
 20
359.780549
 30
0.0
 11
514.764279
 21
359.780549
 31
0.0
  0
LINE
  8
LC-001-002-----0
  6
CONTINUOUS
 62
     1
  5
225
 10
540.764279
 20
377.780549
 30
0.0
 11
514.764279
 21
377.780549
 31
0.0
  0
LINE
  8
LC-001-002-----0
  6
CONTINUOUS
 62
     1
  5
226
 10
540.764279
 20
371.780549
 30
0.0
 11
514.764279
 21
371.780549
 31
0.0
  0
ARC
  8
LC-001-002-----0
  6
CONTINUOUS
 62
     1
  5
227
 10
488.764465
 20
374.780876
 30
0.0
 40
3.0
 50
89.999829
 51
269.999846
  0
ARC
  8
LC-001-002-----0
  6
CONTINUOUS
 62
     1
  5
228
 10
499.764457
 20
362.780868
 30
0.0
 40
3.0
 50
89.999829
 51
269.999846
  0
LINE
  8
LC-001-002-----0
  6
CONTINUOUS
 62
     1
  5
229
 10
499.764459
 20
365.780868
 30
0.0
 11
514.764459
 21
365.780859
 31
0.0
  0
LINE
  8
LC-001-002-----0
  6
CONTINUOUS
 62
     1
  5
22A
 10
499.764455
 20
359.780868
 30
0.0
 11
514.764455
 21
359.780859
 31
0.0
  0
LINE
  8
LC-001-002-----0
  6
CONTINUOUS
 62
     1
  5
22B
 10
488.764467
 20
377.780876
 30
0.0
 11
514.764467
 21
377.780859
 31
0.0
  0
LINE
  8
LC-001-002-----0
  6
CONTINUOUS
 62
     1
  5
22C
 10
488.764463
 20
371.780876
 30
0.0
 11
514.764463
 21
371.780859
 31
0.0
  0
ARC
  8
LC-001-002-----0
  6
CONTINUOUS
 62
     1
  5
22D
 10
478.764314
 20
364.780597
 30
0.0
 40
3.0
 50
0.000041
 51
179.999905
  0
ARC
  8
LC-001-002-----0
  6
CONTINUOUS
 62
     1
  5
22E
 10
490.764299
 20
353.780581
 30
0.0
 40
3.0
 50
0.000041
 51
179.999905
  0
ARC
  8
LC-001-002-----0
  6
CONTINUOUS
 62
     1
  5
22F
 10
502.764284
 20
342.280565
 30
0.0
 40
3.0
 50
0.000041
 51
179.999905
  0
LINE
  8
LC-001-002-----0
  6
CONTINUOUS
 62
     1
  5
230
 10
505.764284
 20
342.280561
 30
0.0
 11
505.764279
 21
338.780561
 31
0.0
  0
LINE
  8
LC-001-002-----0
  6
CONTINUOUS
 62
     1
  5
231
 10
499.764284
 20
342.280569
 30
0.0
 11
499.764279
 21
338.780569
 31
0.0
  0
LINE
  8
LC-001-002-----0
  6
CONTINUOUS
 62
     1
  5
232
 10
487.764299
 20
353.780585
 30
0.0
 11
487.764279
 21
338.780585
 31
0.0
  0
LINE
  8
LC-001-002-----0
  6
CONTINUOUS
 62
     1
  5
233
 10
493.764299
 20
353.780577
 30
0.0
 11
493.764279
 21
338.780577
 31
0.0
  0
LINE
  8
LC-001-002-----0
  6
CONTINUOUS
 62
     1
  5
234
 10
475.764314
 20
364.780601
 30
0.0
 11
475.764279
 21
338.780601
 31
0.0
  0
LINE
  8
LC-001-002-----0
  6
CONTINUOUS
 62
     1
  5
235
 10
481.764314
 20
364.780593
 30
0.0
 11
481.764279
 21
338.780593
 31
0.0
  0
ARC
  8
LC-001-002-----0
  6
CONTINUOUS
 62
     1
  5
236
 10
478.763919
 20
312.780783
 30
0.0
 40
3.0
 50
179.999964
 51
359.99977
  0
ARC
  8
LC-001-002-----0
  6
CONTINUOUS
 62
     1
  5
237
 10
490.763941
 20
323.780759
 30
0.0
 40
3.0
 50
179.999964
 51
359.99977
  0
ARC
  8
LC-001-002-----0
  6
CONTINUOUS
 62
     1
  5
238
 10
502.763964
 20
335.280735
 30
0.0
 40
3.0
 50
179.999964
 51
359.99977
  0
LINE
  8
LC-001-002-----0
  6
CONTINUOUS
 62
     1
  5
239
 10
505.763964
 20
335.280729
 30
0.0
 11
505.76397
 21
338.780729
 31
0.0
  0
LINE
  8
LC-001-002-----0
  6
CONTINUOUS
 62
     1
  5
23A
 10
499.763964
 20
335.280741
 30
0.0
 11
499.76397
 21
338.780741
 31
0.0
  0
LINE
  8
LC-001-002-----0
  6
CONTINUOUS
 62
     1
  5
23B
 10
487.763941
 20
323.780765
 30
0.0
 11
487.76397
 21
338.780765
 31
0.0
  0
LINE
  8
LC-001-002-----0
  6
CONTINUOUS
 62
     1
  5
23C
 10
493.763941
 20
323.780753
 30
0.0
 11
493.76397
 21
338.780753
 31
0.0
  0
LINE
  8
LC-001-002-----0
  6
CONTINUOUS
 62
     1
  5
23D
 10
475.763919
 20
312.780789
 30
0.0
 11
475.76397
 21
338.780789
 31
0.0
  0
LINE
  8
LC-001-002-----0
  6
CONTINUOUS
 62
     1
  5
23E
 10
481.763919
 20
312.780777
 30
0.0
 11
481.76397
 21
338.780777
 31
0.0
  0
ARC
  8
LC-001-002-----0
  6
CONTINUOUS
 62
     1
  5
23F
 10
540.763998
 20
302.780154
 30
0.0
 40
3.0
 50
269.999829
 51
89.999694
  0
ARC
  8
LC-001-002-----0
  6
CONTINUOUS
 62
     1
  5
240
 10
529.764038
 20
314.780191
 30
0.0
 40
3.0
 50
269.999829
 51
89.999694
  0
LINE
  8
LC-001-002-----0
  6
CONTINUOUS
 62
     1
  5
241
 10
529.764028
 20
311.780191
 30
0.0
 11
514.764028
 21
311.78024
 31
0.0
  0
LINE
  8
LC-001-002-----0
  6
CONTINUOUS
 62
     1
  5
242
 10
529.764048
 20
317.780191
 30
0.0
 11
514.764048
 21
317.78024
 31
0.0
  0
LINE
  8
LC-001-002-----0
  6
CONTINUOUS
 62
     1
  5
243
 10
540.763988
 20
299.780154
 30
0.0
 11
514.763988
 21
299.78024
 31
0.0
  0
LINE
  8
LC-001-002-----0
  6
CONTINUOUS
 62
     1
  5
244
 10
540.764008
 20
305.780154
 30
0.0
 11
514.764008
 21
305.78024
 31
0.0
  0
ARC
  8
LC-001-002-----0
  6
CONTINUOUS
 62
     1
  5
245
 10
488.764184
 20
302.780618
 30
0.0
 40
3.0
 50
89.999965
 51
269.999829
  0
ARC
  8
LC-001-002-----0
  6
CONTINUOUS
 62
     1
  5
246
 10
499.764216
 20
314.780589
 30
0.0
 40
3.0
 50
89.999965
 51
269.999829
  0
LINE
  8
LC-001-002-----0
  6
CONTINUOUS
 62
     1
  5
247
 10
499.764208
 20
311.780589
 30
0.0
 11
514.764208
 21
311.780549
 31
0.0
  0
LINE
  8
LC-001-002-----0
  6
CONTINUOUS
 62
     1
  5
248
 10
499.764224
 20
317.780589
 30
0.0
 11
514.764224
 21
317.780549
 31
0.0
  0
LINE
  8
LC-001-002-----0
  6
CONTINUOUS
 62
     1
  5
249
 10
488.764176
 20
299.780618
 30
0.0
 11
514.764176
 21
299.780549
 31
0.0
  0
LINE
  8
LC-001-002-----0
  6
CONTINUOUS
 62
     1
  5
24A
 10
488.764192
 20
305.780618
 30
0.0
 11
514.764192
 21
305.780549
 31
0.0
  0
ARC
  8
LC-001-002-----0
  6
CONTINUOUS
 62
     1
  5
24B
 10
550.764709
 20
364.78022
 30
0.0
 40
3.0
 50
359.999734
 51
179.999618
  0
ARC
  8
LC-001-002-----0
  6
CONTINUOUS
 62
     1
  5
24C
 10
538.764658
 20
353.780276
 30
0.0
 40
3.0
 50
359.999734
 51
179.999618
  0
ARC
  8
LC-001-002-----0
  6
CONTINUOUS
 62
     1
  5
24D
 10
526.764605
 20
342.280332
 30
0.0
 40
3.0
 50
359.999734
 51
179.999618
  0
LINE
  8
LC-001-002-----0
  6
CONTINUOUS
 62
     1
  5
24E
 10
523.764605
 20
342.280346
 30
0.0
 11
523.764589
 21
338.780346
 31
0.0
  0
LINE
  8
LC-001-002-----0
  6
CONTINUOUS
 62
     1
  5
24F
 10
529.764605
 20
342.280318
 30
0.0
 11
529.764589
 21
338.780318
 31
0.0
  0
LINE
  8
LC-001-002-----0
  6
CONTINUOUS
 62
     1
  5
250
 10
541.764658
 20
353.780262
 30
0.0
 11
541.764589
 21
338.780262
 31
0.0
  0
LINE
  8
LC-001-002-----0
  6
CONTINUOUS
 62
     1
  5
251
 10
535.764658
 20
353.78029
 30
0.0
 11
535.764589
 21
338.78029
 31
0.0
  0
LINE
  8
LC-001-002-----0
  6
CONTINUOUS
 62
     1
  5
252
 10
553.764709
 20
364.780207
 30
0.0
 11
553.764589
 21
338.780207
 31
0.0
  0
LINE
  8
LC-001-002-----0
  6
CONTINUOUS
 62
     1
  5
253
 10
547.764709
 20
364.780234
 30
0.0
 11
547.764589
 21
338.780234
 31
0.0
  0
LINE
  8
LC-001-002-----0
  6
CONTINUOUS
 62
     1
  5
254
 10
523.764266
 20
335.280514
 30
0.0
 11
523.764279
 21
338.780514
 31
0.0
  0
ARC
  8
LC-001-002-----0
  6
CONTINUOUS
 62
     1
  5
255
 10
526.764266
 20
335.280502
 30
0.0
 40
3.0
 50
179.999889
 51
359.999734
  0
LINE
  8
LC-001-002-----0
  6
CONTINUOUS
 62
     1
  5
256
 10
529.764266
 20
335.28049
 30
0.0
 11
529.764279
 21
338.78049
 31
0.0
  0
LINE
  8
LC-001-002-----0
  6
CONTINUOUS
 62
     1
  5
257
 10
535.76422
 20
323.780466
 30
0.0
 11
535.764279
 21
338.780466
 31
0.0
  0
ARC
  8
LC-001-002-----0
  6
CONTINUOUS
 62
     1
  5
258
 10
538.76422
 20
323.780454
 30
0.0
 40
3.0
 50
179.999889
 51
359.999734
  0
LINE
  8
LC-001-002-----0
  6
CONTINUOUS
 62
     1
  5
259
 10
541.76422
 20
323.780442
 30
0.0
 11
541.764279
 21
338.780442
 31
0.0
  0
LINE
  8
LC-001-002-----0
  6
CONTINUOUS
 62
     1
  5
25A
 10
547.764176
 20
312.780418
 30
0.0
 11
547.764279
 21
338.780418
 31
0.0
  0
ARC
  8
LC-001-002-----0
  6
CONTINUOUS
 62
     1
  5
25B
 10
550.764176
 20
312.780406
 30
0.0
 40
3.0
 50
179.999889
 51
359.999734
  0
LINE
  8
LC-001-002-----0
  6
CONTINUOUS
 62
     1
  5
25C
 10
553.764176
 20
312.780394
 30
0.0
 11
553.764279
 21
338.780394
 31
0.0
  0
LINE
  8
LC-002-001-----0
  6
CONTINUOUS
  5
25D
 10
468.764279
 20
384.780549
 30
0.0
 11
468.764279
 21
292.780549
 31
0.0
  0
LINE
  8
LC-002-001-----0
  6
CONTINUOUS
  5
25E
 10
560.764279
 20
384.780549
 30
0.0
 11
468.764279
 21
384.780549
 31
0.0
  0
LINE
  8
LC-002-001-----0
  6
CONTINUOUS
  5
25F
 10
560.764279
 20
292.780549
 30
0.0
 11
560.764279
 21
384.780549
 31
0.0
  0
LINE
  8
LC-002-001-----0
  6
CONTINUOUS
  5
260
 10
468.764279
 20
292.780549
 30
0.0
 11
560.764279
 21
292.780549
 31
0.0
  0
LINE
  8
LC-001-002-----0
  6
CONTINUOUS
 62
     1
  5
261
 10
477.263977
 20
298.280736
 30
0.0
 11
477.263978
 21
300.280736
 31
0.0
  0
LINE
  8
LC-001-002-----0
  6
CONTINUOUS
 62
     1
  5
262
 10
477.26398
 20
303.280736
 30
0.0
 11
476.26398
 21
303.280737
 31
0.0
  0
LINE
  8
LC-001-002-----0
  6
CONTINUOUS
 62
     1
  5
263
 10
476.26398
 20
303.280737
 30
0.0
 11
476.263979
 21
301.280737
 31
0.0
  0
LINE
  8
LC-001-002-----0
  6
CONTINUOUS
 62
     1
  5
264
 10
476.263978
 20
300.280737
 30
0.0
 11
476.263977
 21
298.280737
 31
0.0
  0
LINE
  8
LC-001-002-----0
  6
CONTINUOUS
 62
     1
  5
265
 10
476.263978
 20
300.280737
 30
0.0
 11
474.263978
 21
300.280738
 31
0.0
  0
LINE
  8
LC-001-002-----0
  6
CONTINUOUS
 62
     1
  5
266
 10
477.263979
 20
301.280736
 30
0.0
 11
479.263979
 21
301.280735
 31
0.0
  0
LINE
  8
LC-001-002-----0
  6
CONTINUOUS
 62
     1
  5
267
 10
477.263979
 20
301.280736
 30
0.0
 11
477.26398
 21
303.280736
 31
0.0
  0
CIRCLE
  8
LC-001-002-----0
  6
CONTINUOUS
 62
     1
  5
268
 10
552.764279
 20
376.780549
 30
0.0
 40
4.5
  0
LINE
  8
LC-001-002-----0
  6
CONTINUOUS
 62
     1
  5
269
 10
553.264279
 20
379.280549
 30
0.0
 11
552.264279
 21
379.280549
 31
0.0
  0
LINE
  8
LC-001-002-----0
  6
CONTINUOUS
 62
     1
  5
26A
 10
552.264279
 20
379.280549
 30
0.0
 11
552.264279
 21
377.280549
 31
0.0
  0
LINE
  8
LC-001-002-----0
  6
CONTINUOUS
 62
     1
  5
26B
 10
552.264279
 20
374.280549
 30
0.0
 11
553.264279
 21
374.280549
 31
0.0
  0
LINE
  8
LC-001-002-----0
  6
CONTINUOUS
 62
     1
  5
26C
 10
553.264279
 20
374.280549
 30
0.0
 11
553.264279
 21
376.280549
 31
0.0
  0
LINE
  8
LC-001-002-----0
  6
CONTINUOUS
 62
     1
  5
26D
 10
555.264279
 20
377.280549
 30
0.0
 11
555.264279
 21
376.280549
 31
0.0
  0
LINE
  8
LC-001-002-----0
  6
CONTINUOUS
 62
     1
  5
26E
 10
555.264279
 20
376.280549
 30
0.0
 11
553.264279
 21
376.280549
 31
0.0
  0
LINE
  8
LC-001-002-----0
  6
CONTINUOUS
 62
     1
  5
26F
 10
550.264279
 20
376.280549
 30
0.0
 11
550.264279
 21
377.280549
 31
0.0
  0
LINE
  8
LC-001-002-----0
  6
CONTINUOUS
 62
     1
  5
270
 10
550.264279
 20
377.280549
 30
0.0
 11
552.264279
 21
377.280549
 31
0.0
  0
LINE
  8
LC-001-002-----0
  6
CONTINUOUS
 62
     1
  5
271
 10
553.264279
 20
377.280549
 30
0.0
 11
555.264279
 21
377.280549
 31
0.0
  0
LINE
  8
LC-001-002-----0
  6
CONTINUOUS
 62
     1
  5
272
 10
553.264279
 20
377.280549
 30
0.0
 11
553.264279
 21
379.280549
 31
0.0
  0
LINE
  8
LC-001-002-----0
  6
CONTINUOUS
 62
     1
  5
273
 10
552.264279
 20
376.280549
 30
0.0
 11
552.264279
 21
374.280549
 31
0.0
  0
LINE
  8
LC-001-002-----0
  6
CONTINUOUS
 62
     1
  5
274
 10
552.264279
 20
376.280549
 30
0.0
 11
550.264279
 21
376.280549
 31
0.0
  0
LINE
  8
LC-001-002-----0
  6
CONTINUOUS
 62
     1
  5
275
 10
310.268971
 20
367.030637
 30
0.0
 11
328.336093
 21
354.030637
 31
0.0
  0
LINE
  8
LC-001-002-----0
  6
CONTINUOUS
 62
     1
  5
276
 10
325.264279
 20
367.030462
 30
0.0
 11
349.264279
 21
354.285539
 31
0.0
  0
LINE
  8
LC-001-002-----0
  6
CONTINUOUS
 62
     1
  5
277
 10
250.259588
 20
367.030637
 30
0.0
 11
232.192466
 21
354.030637
 31
0.0
  0
LINE
  8
LC-001-002-----0
  6
CONTINUOUS
 62
     1
  5
278
 10
230.071145
 20
354.030637
 30
0.0
 11
248.109006
 21
367.030637
 31
0.0
  0
LINE
  8
LC-001-002-----0
  6
CONTINUOUS
 62
     1
  5
279
 10
232.192466
 20
354.030637
 30
0.0
 11
230.071145
 21
354.030637
 31
0.0
  0
LINE
  8
LC-001-002-----0
  6
CONTINUOUS
 62
     1
  5
27A
 10
230.071145
 20
354.030637
 30
0.0
 11
230.071145
 21
360.030637
 31
0.0
  0
ARC
  8
LC-008-002-RND-0
  6
CONTINUOUS
  5
27C
 10
237.071145
 20
360.030637
 30
0.0
 40
7.0
 50
136.406436
 51
180.0
  0
LINE
  8
LC-001-002-----0
  6
CONTINUOUS
 62
     1
  5
27D
 10
330.457414
 20
354.030637
 30
0.0
 11
312.419553
 21
367.030637
 31
0.0
  0
LINE
  8
LC-001-002-----0
  6
CONTINUOUS
 62
     1
  5
27E
 10
328.336093
 20
354.030637
 30
0.0
 11
330.457414
 21
354.030637
 31
0.0
  0
LINE
  8
LC-001-002-----0
  6
CONTINUOUS
 62
     1
  5
27F
 10
330.457414
 20
354.030637
 30
0.0
 11
330.457414
 21
360.030637
 31
0.0
  0
ARC
  8
LC-008-002-RND-0
  6
CONTINUOUS
  5
280
 10
323.457414
 20
360.030637
 30
0.0
 40
7.0
 50
0.0
 51
55.00113
  0
LINE
  8
LC-001-002-----0
  6
CONTINUOUS
 62
     1
  5
281
 10
235.264511
 20
367.030667
 30
0.0
 11
211.264503
 21
354.285653
 31
0.0
  0
LINE
  8
LC-001-002-----0
  6
CONTINUOUS
  5
282
 10
211.264477
 20
315.530462
 30
0.0
 11
349.264279
 21
315.530462
 31
0.0
  0
ENDSEC
  0
EOF
