  0
SECTION
  2
HEADER
  9
$ACADVER
  1
AC1009
  9
$INSBASE
 10
0.0
 20
0.0
 30
0.0
  9
$EXTMIN
 10
0.0
 20
0.0
 30
0.0
  9
$EXTMAX
 10
840.0
 20
594.0
 30
0.0
  9
$LIMMIN
 10
0.0
 20
0.0
  9
$LIMMAX
 10
840.0
 20
594.0
  9
$ORTHOMODE
 70
     0
  9
$REGENMODE
 70
     1
  9
$FILLMODE
 70
     1
  9
$QTEXTMODE
 70
     0
  9
$MIRRTEXT
 70
     1
  9
$DRAGMODE
 70
     2
  9
$LTSCALE
 40
2.0
  9
$OSMODE
 70
     0
  9
$ATTMODE
 70
     1
  9
$TEXTSIZE
 40
0.2
  9
$TRACEWID
 40
0.05
  9
$TEXTSTYLE
  7
STANDARD
  9
$CLAYER
  8
0
  9
$CELTYPE
  6
BYLAYER
  9
$CECOLOR
 62
     7
  9
$DIMSCALE
 40
2.0
  9
$DIMASZ
 40
3.5
  9
$DIMEXO
 40
0.0625
  9
$DIMDLI
 40
0.38
  9
$DIMRND
 40
0.0
  9
$DIMDLE
 40
0.0
  9
$DIMEXE
 40
0.18
  9
$DIMTP
 40
0.0
  9
$DIMTM
 40
0.0
  9
$DIMTXT
 40
3.5
  9
$DIMCEN
 40
0.09
  9
$DIMTSZ
 40
0.0
  9
$DIMTOL
 70
     0
  9
$DIMLIM
 70
     0
  9
$DIMTIH
 70
     1
  9
$DIMTOH
 70
     1
  9
$DIMSE1
 70
     0
  9
$DIMSE2
 70
     0
  9
$DIMTAD
 70
     1
  9
$DIMZIN
 70
     0
  9
$DIMBLK
  1

  9
$DIMASO
 70
     1
  9
$DIMSHO
 70
     1
  9
$DIMPOST
  1

  9
$DIMAPOST
  1

  9
$DIMALT
 70
     0
  9
$DIMALTD
 70
     2
  9
$DIMALTF
 40
25.4
  9
$DIMLFAC
 40
1.0
  9
$DIMTOFL
 70
     0
  9
$DIMTVP
 40
0.0
  9
$DIMTIX
 70
     0
  9
$DIMSOXD
 70
     0
  9
$DIMSAH
 70
     0
  9
$DIMBLK1
  1

  9
$DIMBLK2
  1

  9
$DIMSTYLE
  2
STANDARD
  9
$DIMCLRD
 70
     0
  9
$DIMCLRE
 70
     0
  9
$DIMCLRT
 70
     0
  9
$DIMTFAC
 40
1.0
  9
$DIMGAP
 40
0.09
  9
$LUNITS
 70
     2
  9
$LUPREC
 70
     2
  9
$AXISMODE
 70
     0
  9
$AXISUNIT
 10
0.0
 20
0.0
  9
$SKETCHINC
 40
0.1
  9
$FILLETRAD
 40
0.0
  9
$AUNITS
 70
     0
  9
$AUPREC
 70
     0
  9
$MENU
  1
acad
  9
$ELEVATION
 40
0.0
  9
$PELEVATION
 40
0.0
  9
$THICKNESS
 40
0.0
  9
$LIMCHECK
 70
     0
  9
$BLIPMODE
 70
     1
  9
$CHAMFERA
 40
0.0
  9
$CHAMFERB
 40
0.0
  9
$SKPOLY
 70
     0
  9
$TDCREATE
 40
0.000000000
  9
$TDUPDATE
 40
0.000000000
  9
$TDINDWG
 40
0.0000000000
  9
$TDUSRTIMER
 40
0.0000000000
  9
$USRTIMER
 70
     1
  9
$ANGBASE
 50
0.0
  9
$ANGDIR
 70
     0
  9
$PDMODE
 70
     0
  9
$PDSIZE
 40
0.0
  9
$PLINEWID
 40
0.0
  9
$COORDS
 70
     0
  9
$SPLFRAME
 70
     0
  9
$SPLINETYPE
 70
     6
  9
$SPLINESEGS
 70
     8
  9
$ATTDIA
 70
     0
  9
$ATTREQ
 70
     1
  9
$HANDLING
 70
     1
  9
$HANDSEED
  5
387
  9
$SURFTAB1
 70
     6
  9
$SURFTAB2
 70
     6
  9
$SURFTYPE
 70
     6
  9
$SURFU
 70
     6
  9
$SURFV
 70
     6
  9
$UCSNAME
  2

  9
$UCSORG
 10
0.0
 20
0.0
 30
0.0
  9
$UCSXDIR
 10
1.0
 20
0.0
 30
0.0
  9
$UCSYDIR
 10
0.0
 20
1.0
 30
0.0
  9
$PUCSNAME
  2

  9
$PUCSORG
 10
0.0
 20
0.0
 30
0.0
  9
$PUCSXDIR
 10
1.0
 20
0.0
 30
0.0
  9
$PUCSYDIR
 10
0.0
 20
1.0
 30
0.0
  9
$USERI1
 70
     0
  9
$USERI2
 70
     0
  9
$USERI3
 70
     0
  9
$USERI4
 70
     0
  9
$USERI5
 70
     0
  9
$USERR1
 40
0.0
  9
$USERR2
 40
0.0
  9
$USERR3
 40
0.0
  9
$USERR4
 40
0.0
  9
$USERR5
 40
0.0
  9
$WORLDVIEW
 70
     1
  9
$SHADEDGE
 70
     3
  9
$SHADEDIF
 70
    70
  9
$TILEMODE
 70
     1
  9
$MAXACTVP
 70
    16
  9
$PINSBASE
 10
0.0
 20
0.0
 30
0.0
  9
$PLIMCHECK
 70
     0
  9
$PEXTMIN
 10
1.000000E+20
 20
1.000000E+20
 30
1.000000E+20
  9
$PEXTMAX
 10
-1.000000E+20
 20
-1.000000E+20
 30
-1.000000E+20
  9
$PLIMMIN
 10
0.0
 20
0.0
  9
$PLIMMAX
 10
840.0
 20
594.0
  9
$UNITMODE
 70
     0
  9
$VISRETAIN
 70
     0
  9
$PLINEGEN
 70
     1
  9
$PSLTSCALE
 70
     0
  9
$TREEDEPTH
 70
  3020
  9
$DWGCODEPAGE
  3
dos850
  0
ENDSEC
  0
SECTION
  2
TABLES
  0
TABLE
  2
VPORT
 70
     1
  0
VPORT
  2
*ACTIVE
 70
     0
 10
0.0
 20
0.0
 11
1.0
 21
1.0
 12
420.0
 22
297.0
 13
0.0
 23
0.0
 14
1.0
 24
1.0
 15
0.0
 25
0.0
 16
0.0
 26
0.0
 36
1.0
 17
0.0
 27
0.0
 37
0.0
 40
594.0
 41
1.604229
 42
50.0
 43
0.0
 44
0.0
 50
0.0
 51
0.0
 71
     0
 72
   100
 73
     1
 74
     1
 75
     0
 76
     0
 77
     0
 78
     0
  0
ENDTAB
  0
TABLE
  2
LTYPE
 70
     2
  0
LTYPE
  2
CONTINUOUS
 70
    64
  3
Solid line
 72
    65
 73
     0
 40
0.0
  0
LTYPE
  2
DASHDOT
 70
    64
  3
__ . __ . __ . __ . __
 72
    65
 73
     4
 40
7.5
 49
5.0
 49
-1.25
 49
0.0
 49
-1.25
  0
ENDTAB
  0
TABLE
  2
LAYER
 70
     9
  0
LAYER
  2
0
 70
     0
 62
     7
  6
CONTINUOUS
  0
LAYER
  2
LC-INFO-1-2-MM-A3-0
 70
     1
 62
    -1
  6
CONTINUOUS
  0
LAYER
  2
LC-002-005-----0
 70
     0
 62
     2
  6
CONTINUOUS
  0
LAYER
  2
LC-004-003-MTH-0
 70
     0
 62
     2
  6
CONTINUOUS
  0
LAYER
  2
LC-005-003-MTG-0
 70
     0
 62
     2
  6
CONTINUOUS
  0
LAYER
  2
LC-003-003-----0
 70
     0
 62
     2
  6
CONTINUOUS
  0
LAYER
  2
LC-006-000-----0
 70
     0
 62
     7
  6
CONTINUOUS
  0
LAYER
  2
LC-001-002-----0
 70
     0
 62
     1
  6
CONTINUOUS
  0
LAYER
  2
LC-000
 70
     0
 62
     7
  6
CONTINUOUS
  0
ENDTAB
  0
TABLE
  2
STYLE
 70
     4
  0
STYLE
  2
STANDARD
 70
     0
 40
0.0
 41
1.0
 50
0.0
 71
     0
 42
0.0
  3
txt
  4

  0
STYLE
  2
LC-STANDARD
 70
    64
 40
0.0
 41
1.0
 50
0.0
 71
     0
 42
3.5
  3
MONOTXT
  4

  0
STYLE
  2
LC-TXTSTYLE-150-400-0-0-A2
 70
    64
 40
0.0
 41
1.0
 50
15.0
 71
     0
 42
3.5
  3
MONOTXT
  4

  0
STYLE
  2
LC-TXTSTYLE-150-400-0-0-D3
 70
    64
 40
0.0
 41
1.0
 50
15.0
 71
     0
 42
3.5
  3
LC-STANDARD
  4

  0
ENDTAB
  0
TABLE
  2
VIEW
 70
     0
  0
ENDTAB
  0
TABLE
  2
UCS
 70
     0
  0
ENDTAB
  0
TABLE
  2
APPID
 70
     1
  0
APPID
  2
ACAD
 70
     0
  0
ENDTAB
  0
TABLE
  2
DIMSTYLE
 70
     3
  0
DIMSTYLE
  2
STANDARD
 70
     0
  3

  4

  5

  6

  7

 40
1.0
 41
0.18
 42
0.0625
 43
0.38
 44
0.18
 45
0.0
 46
0.0
 47
0.0
 48
0.0
 71
     0
 72
     0
 73
     1
 74
     1
 75
     0
 76
     0
 77
     0
 78
     0
140
0.18
141
0.09
142
0.0
143
25.4
144
1.0
145
0.0
146
1.0
147
0.09
170
     0
171
     2
172
     0
173
     0
174
     0
175
     0
176
     0
177
     0
178
     0
  0
DIMSTYLE
  2
LC-STANDARD
 70
     0
  3

  4

  5

  6

  7

 40
1.0
 41
3.5
 42
0.0
 43
7.5
 44
1.8
 45
0.0
 46
0.0
 47
0.0
 48
0.0
 71
     0
 72
     0
 73
     0
 74
     0
 75
     0
 76
     0
 77
     1
 78
     8
140
3.5
141
0.0
142
0.0
143
25.4
144
1.0
145
0.0
146
0.71
147
1.5
170
     0
171
     2
172
     1
173
     0
174
     0
175
     0
176
     0
177
     0
178
     3
  0
DIMSTYLE
  2
LC-DIM-L-0140-02-02
 70
     0
  3

  4

  5

  6

  7

 40
2.0
 41
3.5
 42
0.0
 43
7.5
 44
1.8
 45
0.0
 46
0.0
 47
0.0
 48
0.0
 71
     0
 72
     0
 73
     0
 74
     0
 75
     0
 76
     0
 77
     1
 78
     8
140
14.0
141
0.0
142
0.0
143
25.4
144
1.0
145
0.0
146
0.71
147
1.5
170
     0
171
     2
172
     0
173
     0
174
     0
175
     0
176
     2
177
     2
178
     8
  0
ENDTAB
  0
ENDSEC
  0
SECTION
  2
BLOCKS
  0
BLOCK
  8
0
  5
23
  2
*X0
 70
    65
 10
378.869926
 20
201.940968
 30
0.0
  3
*X0
  0
LINE
  8
LC-002-005-----0
  6
CONTINUOUS
  5
25
 10
409.169926
 20
405.417086
 30
0.0
 11
407.646044
 21
406.940968
 31
0.0
  0
LINE
  8
LC-002-005-----0
  6
CONTINUOUS
  5
26
 10
409.169926
 20
402.588658
 30
0.0
 11
404.817617
 21
406.940968
 31
0.0
  0
LINE
  8
LC-002-005-----0
  6
CONTINUOUS
  5
27
 10
409.169926
 20
399.760231
 30
0.0
 11
404.169926
 21
404.760231
 31
0.0
  0
LINE
  8
LC-002-005-----0
  6
CONTINUOUS
  5
28
 10
409.169926
 20
396.931804
 30
0.0
 11
404.160763
 21
401.940968
 31
0.0
  0
LINE
  8
LC-002-005-----0
  6
CONTINUOUS
  5
29
 10
409.169926
 20
394.103377
 30
0.0
 11
401.332336
 21
401.940968
 31
0.0
  0
LINE
  8
LC-002-005-----0
  6
CONTINUOUS
  5
2A
 10
407.003909
 20
393.440968
 30
0.0
 11
398.503909
 21
401.940968
 31
0.0
  0
LINE
  8
LC-002-005-----0
  6
CONTINUOUS
  5
2B
 10
404.175482
 20
393.440968
 30
0.0
 11
395.675482
 21
401.940968
 31
0.0
  0
LINE
  8
LC-002-005-----0
  6
CONTINUOUS
  5
2C
 10
401.347055
 20
393.440968
 30
0.0
 11
393.33126
 21
401.456762
 31
0.0
  0
LINE
  8
LC-002-005-----0
  6
CONTINUOUS
  5
2D
 10
398.518627
 20
393.440968
 30
0.0
 11
391.53811
 21
400.421485
 31
0.0
  0
LINE
  8
LC-002-005-----0
  6
CONTINUOUS
  5
2E
 10
395.6902
 20
393.440968
 30
0.0
 11
389.744961
 21
399.386207
 31
0.0
  0
LINE
  8
LC-002-005-----0
  6
CONTINUOUS
  5
2F
 10
392.861773
 20
393.440968
 30
0.0
 11
387.951811
 21
398.35093
 31
0.0
  0
LINE
  8
LC-002-005-----0
  6
CONTINUOUS
  5
30
 10
390.033346
 20
393.440968
 30
0.0
 11
386.158661
 21
397.315652
 31
0.0
  0
LINE
  8
LC-002-005-----0
  6
CONTINUOUS
  5
31
 10
387.204919
 20
393.440968
 30
0.0
 11
384.365512
 21
396.280375
 31
0.0
  0
LINE
  8
LC-002-005-----0
  6
CONTINUOUS
  5
32
 10
384.376492
 20
393.440968
 30
0.0
 11
381.876492
 21
395.940968
 31
0.0
  0
LINE
  8
LC-002-005-----0
  6
CONTINUOUS
  5
33
 10
384.169926
 20
390.819106
 30
0.0
 11
379.048065
 21
395.940968
 31
0.0
  0
LINE
  8
LC-002-005-----0
  6
CONTINUOUS
  5
34
 10
383.219638
 20
388.940968
 30
0.0
 11
378.869926
 21
393.290679
 31
0.0
  0
LINE
  8
LC-002-005-----0
  6
CONTINUOUS
  5
35
 10
381.669926
 20
387.662252
 30
0.0
 11
378.869926
 21
390.462252
 31
0.0
  0
LINE
  8
LC-002-005-----0
  6
CONTINUOUS
  5
36
 10
381.669926
 20
384.833824
 30
0.0
 11
378.869926
 21
387.633824
 31
0.0
  0
LINE
  8
LC-002-005-----0
  6
CONTINUOUS
  5
37
 10
381.669926
 20
382.005397
 30
0.0
 11
378.869926
 21
384.805397
 31
0.0
  0
LINE
  8
LC-002-005-----0
  6
CONTINUOUS
  5
38
 10
381.669926
 20
379.17697
 30
0.0
 11
378.869926
 21
381.97697
 31
0.0
  0
LINE
  8
LC-002-005-----0
  6
CONTINUOUS
  5
39
 10
381.669926
 20
376.348543
 30
0.0
 11
378.869926
 21
379.148543
 31
0.0
  0
LINE
  8
LC-002-005-----0
  6
CONTINUOUS
  5
3A
 10
381.669926
 20
373.520116
 30
0.0
 11
378.869926
 21
376.320116
 31
0.0
  0
LINE
  8
LC-002-005-----0
  6
CONTINUOUS
  5
3B
 10
381.669926
 20
370.691689
 30
0.0
 11
378.869926
 21
373.491689
 31
0.0
  0
LINE
  8
LC-002-005-----0
  6
CONTINUOUS
  5
3C
 10
381.669926
 20
367.863262
 30
0.0
 11
378.869926
 21
370.663262
 31
0.0
  0
LINE
  8
LC-002-005-----0
  6
CONTINUOUS
  5
3D
 10
381.669926
 20
365.034835
 30
0.0
 11
378.869926
 21
367.834835
 31
0.0
  0
LINE
  8
LC-002-005-----0
  6
CONTINUOUS
  5
3E
 10
381.669926
 20
362.206407
 30
0.0
 11
378.869926
 21
365.006407
 31
0.0
  0
LINE
  8
LC-002-005-----0
  6
CONTINUOUS
  5
3F
 10
381.669926
 20
359.37798
 30
0.0
 11
378.869926
 21
362.17798
 31
0.0
  0
LINE
  8
LC-002-005-----0
  6
CONTINUOUS
  5
40
 10
381.669926
 20
356.549553
 30
0.0
 11
378.869926
 21
359.349553
 31
0.0
  0
LINE
  8
LC-002-005-----0
  6
CONTINUOUS
  5
41
 10
381.669926
 20
353.721126
 30
0.0
 11
378.869926
 21
356.521126
 31
0.0
  0
LINE
  8
LC-002-005-----0
  6
CONTINUOUS
  5
42
 10
381.669926
 20
350.892699
 30
0.0
 11
378.869926
 21
353.692699
 31
0.0
  0
LINE
  8
LC-002-005-----0
  6
CONTINUOUS
  5
43
 10
381.669926
 20
348.064272
 30
0.0
 11
378.869926
 21
350.864272
 31
0.0
  0
LINE
  8
LC-002-005-----0
  6
CONTINUOUS
  5
44
 10
381.669926
 20
345.235845
 30
0.0
 11
378.869926
 21
348.035845
 31
0.0
  0
LINE
  8
LC-002-005-----0
  6
CONTINUOUS
  5
45
 10
381.669926
 20
342.407418
 30
0.0
 11
378.869926
 21
345.207418
 31
0.0
  0
LINE
  8
LC-002-005-----0
  6
CONTINUOUS
  5
46
 10
381.669926
 20
339.57899
 30
0.0
 11
378.869926
 21
342.37899
 31
0.0
  0
LINE
  8
LC-002-005-----0
  6
CONTINUOUS
  5
47
 10
381.669926
 20
336.750563
 30
0.0
 11
378.869926
 21
339.550563
 31
0.0
  0
LINE
  8
LC-002-005-----0
  6
CONTINUOUS
  5
48
 10
381.669926
 20
333.922136
 30
0.0
 11
378.869926
 21
336.722136
 31
0.0
  0
LINE
  8
LC-002-005-----0
  6
CONTINUOUS
  5
49
 10
381.669926
 20
331.093709
 30
0.0
 11
378.869926
 21
333.893709
 31
0.0
  0
LINE
  8
LC-002-005-----0
  6
CONTINUOUS
  5
4A
 10
381.669926
 20
328.265282
 30
0.0
 11
378.869926
 21
331.065282
 31
0.0
  0
LINE
  8
LC-002-005-----0
  6
CONTINUOUS
  5
4B
 10
381.669926
 20
325.436855
 30
0.0
 11
378.869926
 21
328.236855
 31
0.0
  0
LINE
  8
LC-002-005-----0
  6
CONTINUOUS
  5
4C
 10
381.669926
 20
322.608428
 30
0.0
 11
378.869926
 21
325.408428
 31
0.0
  0
LINE
  8
LC-002-005-----0
  6
CONTINUOUS
  5
4D
 10
381.669926
 20
319.780001
 30
0.0
 11
378.869926
 21
322.580001
 31
0.0
  0
LINE
  8
LC-002-005-----0
  6
CONTINUOUS
  5
4E
 10
381.669926
 20
316.951573
 30
0.0
 11
378.869926
 21
319.751573
 31
0.0
  0
LINE
  8
LC-002-005-----0
  6
CONTINUOUS
  5
4F
 10
381.669926
 20
314.123146
 30
0.0
 11
378.869926
 21
316.923146
 31
0.0
  0
LINE
  8
LC-002-005-----0
  6
CONTINUOUS
  5
50
 10
381.669926
 20
311.294719
 30
0.0
 11
378.869926
 21
314.094719
 31
0.0
  0
LINE
  8
LC-002-005-----0
  6
CONTINUOUS
  5
51
 10
381.669926
 20
308.466292
 30
0.0
 11
378.869926
 21
311.266292
 31
0.0
  0
LINE
  8
LC-002-005-----0
  6
CONTINUOUS
  5
52
 10
381.669926
 20
305.637865
 30
0.0
 11
378.869926
 21
308.437865
 31
0.0
  0
LINE
  8
LC-002-005-----0
  6
CONTINUOUS
  5
53
 10
381.669926
 20
302.809438
 30
0.0
 11
378.869926
 21
305.609438
 31
0.0
  0
LINE
  8
LC-002-005-----0
  6
CONTINUOUS
  5
54
 10
381.669926
 20
299.981011
 30
0.0
 11
378.869926
 21
302.781011
 31
0.0
  0
LINE
  8
LC-002-005-----0
  6
CONTINUOUS
  5
55
 10
381.669926
 20
297.152584
 30
0.0
 11
378.869926
 21
299.952584
 31
0.0
  0
LINE
  8
LC-002-005-----0
  6
CONTINUOUS
  5
56
 10
381.669926
 20
294.324156
 30
0.0
 11
378.869926
 21
297.124156
 31
0.0
  0
LINE
  8
LC-002-005-----0
  6
CONTINUOUS
  5
57
 10
381.669926
 20
291.495729
 30
0.0
 11
378.869926
 21
294.295729
 31
0.0
  0
LINE
  8
LC-002-005-----0
  6
CONTINUOUS
  5
58
 10
381.669926
 20
288.667302
 30
0.0
 11
378.869926
 21
291.467302
 31
0.0
  0
LINE
  8
LC-002-005-----0
  6
CONTINUOUS
  5
59
 10
381.669926
 20
285.838875
 30
0.0
 11
378.869926
 21
288.638875
 31
0.0
  0
LINE
  8
LC-002-005-----0
  6
CONTINUOUS
  5
5A
 10
381.669926
 20
283.010448
 30
0.0
 11
378.869926
 21
285.810448
 31
0.0
  0
LINE
  8
LC-002-005-----0
  6
CONTINUOUS
  5
5B
 10
381.669926
 20
280.182021
 30
0.0
 11
378.869926
 21
282.982021
 31
0.0
  0
LINE
  8
LC-002-005-----0
  6
CONTINUOUS
  5
5C
 10
381.669926
 20
277.353594
 30
0.0
 11
378.869926
 21
280.153594
 31
0.0
  0
LINE
  8
LC-002-005-----0
  6
CONTINUOUS
  5
5D
 10
381.669926
 20
274.525167
 30
0.0
 11
378.869926
 21
277.325167
 31
0.0
  0
LINE
  8
LC-002-005-----0
  6
CONTINUOUS
  5
5E
 10
381.669926
 20
271.696739
 30
0.0
 11
378.869926
 21
274.496739
 31
0.0
  0
LINE
  8
LC-002-005-----0
  6
CONTINUOUS
  5
5F
 10
381.669926
 20
268.868312
 30
0.0
 11
378.869926
 21
271.668312
 31
0.0
  0
LINE
  8
LC-002-005-----0
  6
CONTINUOUS
  5
60
 10
381.669926
 20
266.039885
 30
0.0
 11
378.869926
 21
268.839885
 31
0.0
  0
LINE
  8
LC-002-005-----0
  6
CONTINUOUS
  5
61
 10
381.669926
 20
263.211458
 30
0.0
 11
378.869926
 21
266.011458
 31
0.0
  0
LINE
  8
LC-002-005-----0
  6
CONTINUOUS
  5
62
 10
381.669926
 20
260.383031
 30
0.0
 11
378.869926
 21
263.183031
 31
0.0
  0
LINE
  8
LC-002-005-----0
  6
CONTINUOUS
  5
63
 10
381.669926
 20
257.554604
 30
0.0
 11
378.869926
 21
260.354604
 31
0.0
  0
LINE
  8
LC-002-005-----0
  6
CONTINUOUS
  5
64
 10
381.669926
 20
254.726177
 30
0.0
 11
378.869926
 21
257.526177
 31
0.0
  0
LINE
  8
LC-002-005-----0
  6
CONTINUOUS
  5
65
 10
381.669926
 20
251.89775
 30
0.0
 11
378.869926
 21
254.69775
 31
0.0
  0
LINE
  8
LC-002-005-----0
  6
CONTINUOUS
  5
66
 10
381.669926
 20
249.069322
 30
0.0
 11
378.869926
 21
251.869322
 31
0.0
  0
LINE
  8
LC-002-005-----0
  6
CONTINUOUS
  5
67
 10
381.669926
 20
246.240895
 30
0.0
 11
378.869926
 21
249.040895
 31
0.0
  0
LINE
  8
LC-002-005-----0
  6
CONTINUOUS
  5
68
 10
381.669926
 20
243.412468
 30
0.0
 11
378.869926
 21
246.212468
 31
0.0
  0
LINE
  8
LC-002-005-----0
  6
CONTINUOUS
  5
69
 10
381.669926
 20
240.584041
 30
0.0
 11
378.869926
 21
243.384041
 31
0.0
  0
LINE
  8
LC-002-005-----0
  6
CONTINUOUS
  5
6A
 10
381.669926
 20
237.755614
 30
0.0
 11
378.869926
 21
240.555614
 31
0.0
  0
LINE
  8
LC-002-005-----0
  6
CONTINUOUS
  5
6B
 10
381.669926
 20
234.927187
 30
0.0
 11
378.869926
 21
237.727187
 31
0.0
  0
LINE
  8
LC-002-005-----0
  6
CONTINUOUS
  5
6C
 10
381.669926
 20
232.09876
 30
0.0
 11
378.869926
 21
234.89876
 31
0.0
  0
LINE
  8
LC-002-005-----0
  6
CONTINUOUS
  5
6D
 10
381.669926
 20
229.270333
 30
0.0
 11
378.869926
 21
232.070333
 31
0.0
  0
LINE
  8
LC-002-005-----0
  6
CONTINUOUS
  5
6E
 10
381.669926
 20
226.441906
 30
0.0
 11
378.869926
 21
229.241906
 31
0.0
  0
LINE
  8
LC-002-005-----0
  6
CONTINUOUS
  5
6F
 10
381.669926
 20
223.613478
 30
0.0
 11
378.869926
 21
226.413478
 31
0.0
  0
LINE
  8
LC-002-005-----0
  6
CONTINUOUS
  5
70
 10
381.669926
 20
220.785051
 30
0.0
 11
378.869926
 21
223.585051
 31
0.0
  0
LINE
  8
LC-002-005-----0
  6
CONTINUOUS
  5
71
 10
381.669926
 20
217.956624
 30
0.0
 11
378.869926
 21
220.756624
 31
0.0
  0
LINE
  8
LC-002-005-----0
  6
CONTINUOUS
  5
72
 10
381.669926
 20
215.128197
 30
0.0
 11
378.869926
 21
217.928197
 31
0.0
  0
LINE
  8
LC-002-005-----0
  6
CONTINUOUS
  5
73
 10
381.669926
 20
212.29977
 30
0.0
 11
378.869926
 21
215.09977
 31
0.0
  0
LINE
  8
LC-002-005-----0
  6
CONTINUOUS
  5
74
 10
381.669926
 20
209.471343
 30
0.0
 11
378.869926
 21
212.271343
 31
0.0
  0
LINE
  8
LC-002-005-----0
  6
CONTINUOUS
  5
75
 10
381.501278
 20
206.811564
 30
0.0
 11
378.869926
 21
209.442916
 31
0.0
  0
LINE
  8
LC-002-005-----0
  6
CONTINUOUS
  5
76
 10
380.903561
 20
204.580854
 30
0.0
 11
378.869926
 21
206.614489
 31
0.0
  0
LINE
  8
LC-002-005-----0
  6
CONTINUOUS
  5
77
 10
380.305844
 20
202.350144
 30
0.0
 11
378.869926
 21
203.786061
 31
0.0
  0
ENDBLK
  8
0
  5
78
  0
BLOCK
  8
0
  5
7A
  2
*X1
 70
    65
 10
209.169926
 20
201.940968
 30
0.0
  3
*X1
  0
LINE
  8
LC-002-005-----0
  6
CONTINUOUS
  5
7B
 10
239.469926
 20
394.09775
 30
0.0
 11
237.626708
 21
395.940968
 31
0.0
  0
LINE
  8
LC-002-005-----0
  6
CONTINUOUS
  5
7C
 10
239.469926
 20
391.269322
 30
0.0
 11
234.798281
 21
395.940968
 31
0.0
  0
LINE
  8
LC-002-005-----0
  6
CONTINUOUS
  5
7D
 10
239.469926
 20
388.440895
 30
0.0
 11
228.428613
 21
399.482208
 31
0.0
  0
LINE
  8
LC-002-005-----0
  6
CONTINUOUS
  5
7E
 10
239.469926
 20
385.612468
 30
0.0
 11
236.669926
 21
388.412468
 31
0.0
  0
LINE
  8
LC-002-005-----0
  6
CONTINUOUS
  5
7F
 10
236.141427
 20
388.940968
 30
0.0
 11
234.169926
 21
390.912468
 31
0.0
  0
LINE
  8
LC-002-005-----0
  6
CONTINUOUS
  5
80
 10
231.641427
 20
393.440968
 30
0.0
 11
223.141427
 21
401.940968
 31
0.0
  0
LINE
  8
LC-002-005-----0
  6
CONTINUOUS
  5
81
 10
239.469926
 20
382.784041
 30
0.0
 11
236.669926
 21
385.584041
 31
0.0
  0
LINE
  8
LC-002-005-----0
  6
CONTINUOUS
  5
82
 10
228.813
 20
393.440968
 30
0.0
 11
220.313
 21
401.940968
 31
0.0
  0
LINE
  8
LC-002-005-----0
  6
CONTINUOUS
  5
83
 10
239.469926
 20
379.955614
 30
0.0
 11
236.669926
 21
382.755614
 31
0.0
  0
LINE
  8
LC-002-005-----0
  6
CONTINUOUS
  5
84
 10
225.984573
 20
393.440968
 30
0.0
 11
217.484573
 21
401.940968
 31
0.0
  0
LINE
  8
LC-002-005-----0
  6
CONTINUOUS
  5
85
 10
214.169926
 20
405.255614
 30
0.0
 11
212.484573
 21
406.940968
 31
0.0
  0
LINE
  8
LC-002-005-----0
  6
CONTINUOUS
  5
86
 10
239.469926
 20
377.127187
 30
0.0
 11
236.669926
 21
379.927187
 31
0.0
  0
LINE
  8
LC-002-005-----0
  6
CONTINUOUS
  5
87
 10
223.156146
 20
393.440968
 30
0.0
 11
214.656146
 21
401.940968
 31
0.0
  0
LINE
  8
LC-002-005-----0
  6
CONTINUOUS
  5
88
 10
214.169926
 20
402.427187
 30
0.0
 11
209.656146
 21
406.940968
 31
0.0
  0
LINE
  8
LC-002-005-----0
  6
CONTINUOUS
  5
89
 10
239.469926
 20
374.29876
 30
0.0
 11
236.669926
 21
377.09876
 31
0.0
  0
LINE
  8
LC-002-005-----0
  6
CONTINUOUS
  5
8A
 10
220.327719
 20
393.440968
 30
0.0
 11
209.169926
 21
404.59876
 31
0.0
  0
LINE
  8
LC-002-005-----0
  6
CONTINUOUS
  5
8B
 10
239.469926
 20
371.470333
 30
0.0
 11
236.669926
 21
374.270333
 31
0.0
  0
LINE
  8
LC-002-005-----0
  6
CONTINUOUS
  5
8C
 10
217.499291
 20
393.440968
 30
0.0
 11
209.169926
 21
401.770333
 31
0.0
  0
LINE
  8
LC-002-005-----0
  6
CONTINUOUS
  5
8D
 10
239.469926
 20
368.641906
 30
0.0
 11
236.669926
 21
371.441906
 31
0.0
  0
LINE
  8
LC-002-005-----0
  6
CONTINUOUS
  5
8E
 10
214.670864
 20
393.440968
 30
0.0
 11
209.169926
 21
398.941906
 31
0.0
  0
LINE
  8
LC-002-005-----0
  6
CONTINUOUS
  5
8F
 10
239.469926
 20
365.813478
 30
0.0
 11
236.669926
 21
368.613478
 31
0.0
  0
LINE
  8
LC-002-005-----0
  6
CONTINUOUS
  5
90
 10
211.842437
 20
393.440968
 30
0.0
 11
209.169926
 21
396.113478
 31
0.0
  0
LINE
  8
LC-002-005-----0
  6
CONTINUOUS
  5
91
 10
239.469926
 20
362.985051
 30
0.0
 11
236.669926
 21
365.785051
 31
0.0
  0
LINE
  8
LC-002-005-----0
  6
CONTINUOUS
  5
92
 10
239.469926
 20
360.156624
 30
0.0
 11
236.669926
 21
362.956624
 31
0.0
  0
LINE
  8
LC-002-005-----0
  6
CONTINUOUS
  5
93
 10
239.469926
 20
357.328197
 30
0.0
 11
236.669926
 21
360.128197
 31
0.0
  0
LINE
  8
LC-002-005-----0
  6
CONTINUOUS
  5
94
 10
239.469926
 20
354.49977
 30
0.0
 11
236.669926
 21
357.29977
 31
0.0
  0
LINE
  8
LC-002-005-----0
  6
CONTINUOUS
  5
95
 10
239.469926
 20
351.671343
 30
0.0
 11
236.669926
 21
354.471343
 31
0.0
  0
LINE
  8
LC-002-005-----0
  6
CONTINUOUS
  5
96
 10
239.469926
 20
348.842916
 30
0.0
 11
236.669926
 21
351.642916
 31
0.0
  0
LINE
  8
LC-002-005-----0
  6
CONTINUOUS
  5
97
 10
239.469926
 20
346.014489
 30
0.0
 11
236.669926
 21
348.814489
 31
0.0
  0
LINE
  8
LC-002-005-----0
  6
CONTINUOUS
  5
98
 10
239.469926
 20
343.186061
 30
0.0
 11
236.669926
 21
345.986061
 31
0.0
  0
LINE
  8
LC-002-005-----0
  6
CONTINUOUS
  5
99
 10
239.469926
 20
340.357634
 30
0.0
 11
236.669926
 21
343.157634
 31
0.0
  0
LINE
  8
LC-002-005-----0
  6
CONTINUOUS
  5
9A
 10
239.469926
 20
337.529207
 30
0.0
 11
236.669926
 21
340.329207
 31
0.0
  0
LINE
  8
LC-002-005-----0
  6
CONTINUOUS
  5
9B
 10
239.469926
 20
334.70078
 30
0.0
 11
236.669926
 21
337.50078
 31
0.0
  0
LINE
  8
LC-002-005-----0
  6
CONTINUOUS
  5
9C
 10
239.469926
 20
331.872353
 30
0.0
 11
236.669926
 21
334.672353
 31
0.0
  0
LINE
  8
LC-002-005-----0
  6
CONTINUOUS
  5
9D
 10
239.469926
 20
329.043926
 30
0.0
 11
236.669926
 21
331.843926
 31
0.0
  0
LINE
  8
LC-002-005-----0
  6
CONTINUOUS
  5
9E
 10
239.469926
 20
326.215499
 30
0.0
 11
236.669926
 21
329.015499
 31
0.0
  0
LINE
  8
LC-002-005-----0
  6
CONTINUOUS
  5
9F
 10
239.469926
 20
323.387072
 30
0.0
 11
236.669926
 21
326.187072
 31
0.0
  0
LINE
  8
LC-002-005-----0
  6
CONTINUOUS
  5
A0
 10
239.469926
 20
320.558644
 30
0.0
 11
236.669926
 21
323.358644
 31
0.0
  0
LINE
  8
LC-002-005-----0
  6
CONTINUOUS
  5
A1
 10
239.469926
 20
317.730217
 30
0.0
 11
236.669926
 21
320.530217
 31
0.0
  0
LINE
  8
LC-002-005-----0
  6
CONTINUOUS
  5
A2
 10
239.469926
 20
314.90179
 30
0.0
 11
236.669926
 21
317.70179
 31
0.0
  0
LINE
  8
LC-002-005-----0
  6
CONTINUOUS
  5
A3
 10
239.469926
 20
312.073363
 30
0.0
 11
236.669926
 21
314.873363
 31
0.0
  0
LINE
  8
LC-002-005-----0
  6
CONTINUOUS
  5
A4
 10
239.469926
 20
309.244936
 30
0.0
 11
236.669926
 21
312.044936
 31
0.0
  0
LINE
  8
LC-002-005-----0
  6
CONTINUOUS
  5
A5
 10
239.469926
 20
306.416509
 30
0.0
 11
236.669926
 21
309.216509
 31
0.0
  0
LINE
  8
LC-002-005-----0
  6
CONTINUOUS
  5
A6
 10
239.469926
 20
303.588082
 30
0.0
 11
236.669926
 21
306.388082
 31
0.0
  0
LINE
  8
LC-002-005-----0
  6
CONTINUOUS
  5
A7
 10
239.469926
 20
300.759655
 30
0.0
 11
236.669926
 21
303.559655
 31
0.0
  0
LINE
  8
LC-002-005-----0
  6
CONTINUOUS
  5
A8
 10
239.469926
 20
297.931227
 30
0.0
 11
236.669926
 21
300.731227
 31
0.0
  0
LINE
  8
LC-002-005-----0
  6
CONTINUOUS
  5
A9
 10
239.469926
 20
295.1028
 30
0.0
 11
236.669926
 21
297.9028
 31
0.0
  0
LINE
  8
LC-002-005-----0
  6
CONTINUOUS
  5
AA
 10
239.469926
 20
292.274373
 30
0.0
 11
236.669926
 21
295.074373
 31
0.0
  0
LINE
  8
LC-002-005-----0
  6
CONTINUOUS
  5
AB
 10
239.469926
 20
289.445946
 30
0.0
 11
236.669926
 21
292.245946
 31
0.0
  0
LINE
  8
LC-002-005-----0
  6
CONTINUOUS
  5
AC
 10
239.469926
 20
286.617519
 30
0.0
 11
236.669926
 21
289.417519
 31
0.0
  0
LINE
  8
LC-002-005-----0
  6
CONTINUOUS
  5
AD
 10
239.469926
 20
283.789092
 30
0.0
 11
236.669926
 21
286.589092
 31
0.0
  0
LINE
  8
LC-002-005-----0
  6
CONTINUOUS
  5
AE
 10
239.469926
 20
280.960665
 30
0.0
 11
236.669926
 21
283.760665
 31
0.0
  0
LINE
  8
LC-002-005-----0
  6
CONTINUOUS
  5
AF
 10
239.469926
 20
278.132238
 30
0.0
 11
236.669926
 21
280.932238
 31
0.0
  0
LINE
  8
LC-002-005-----0
  6
CONTINUOUS
  5
B0
 10
239.469926
 20
275.30381
 30
0.0
 11
236.669926
 21
278.10381
 31
0.0
  0
LINE
  8
LC-002-005-----0
  6
CONTINUOUS
  5
B1
 10
239.469926
 20
272.475383
 30
0.0
 11
236.669926
 21
275.275383
 31
0.0
  0
LINE
  8
LC-002-005-----0
  6
CONTINUOUS
  5
B2
 10
239.469926
 20
269.646956
 30
0.0
 11
236.669926
 21
272.446956
 31
0.0
  0
LINE
  8
LC-002-005-----0
  6
CONTINUOUS
  5
B3
 10
239.469926
 20
266.818529
 30
0.0
 11
236.669926
 21
269.618529
 31
0.0
  0
LINE
  8
LC-002-005-----0
  6
CONTINUOUS
  5
B4
 10
239.469926
 20
263.990102
 30
0.0
 11
236.669926
 21
266.790102
 31
0.0
  0
LINE
  8
LC-002-005-----0
  6
CONTINUOUS
  5
B5
 10
239.469926
 20
261.161675
 30
0.0
 11
236.669926
 21
263.961675
 31
0.0
  0
LINE
  8
LC-002-005-----0
  6
CONTINUOUS
  5
B6
 10
239.469926
 20
258.333248
 30
0.0
 11
236.669926
 21
261.133248
 31
0.0
  0
LINE
  8
LC-002-005-----0
  6
CONTINUOUS
  5
B7
 10
239.469926
 20
255.504821
 30
0.0
 11
236.669926
 21
258.304821
 31
0.0
  0
LINE
  8
LC-002-005-----0
  6
CONTINUOUS
  5
B8
 10
239.469926
 20
252.676393
 30
0.0
 11
236.669926
 21
255.476393
 31
0.0
  0
LINE
  8
LC-002-005-----0
  6
CONTINUOUS
  5
B9
 10
239.469926
 20
249.847966
 30
0.0
 11
236.669926
 21
252.647966
 31
0.0
  0
LINE
  8
LC-002-005-----0
  6
CONTINUOUS
  5
BA
 10
239.469926
 20
247.019539
 30
0.0
 11
236.669926
 21
249.819539
 31
0.0
  0
LINE
  8
LC-002-005-----0
  6
CONTINUOUS
  5
BB
 10
239.469926
 20
244.191112
 30
0.0
 11
236.669926
 21
246.991112
 31
0.0
  0
LINE
  8
LC-002-005-----0
  6
CONTINUOUS
  5
BC
 10
239.469926
 20
241.362685
 30
0.0
 11
236.669926
 21
244.162685
 31
0.0
  0
LINE
  8
LC-002-005-----0
  6
CONTINUOUS
  5
BD
 10
239.469926
 20
238.534258
 30
0.0
 11
236.669926
 21
241.334258
 31
0.0
  0
LINE
  8
LC-002-005-----0
  6
CONTINUOUS
  5
BE
 10
239.469926
 20
235.705831
 30
0.0
 11
236.669926
 21
238.505831
 31
0.0
  0
LINE
  8
LC-002-005-----0
  6
CONTINUOUS
  5
BF
 10
239.469926
 20
232.877404
 30
0.0
 11
236.669926
 21
235.677404
 31
0.0
  0
LINE
  8
LC-002-005-----0
  6
CONTINUOUS
  5
C0
 10
239.469926
 20
230.048976
 30
0.0
 11
236.669926
 21
232.848976
 31
0.0
  0
LINE
  8
LC-002-005-----0
  6
CONTINUOUS
  5
C1
 10
239.469926
 20
227.220549
 30
0.0
 11
236.669926
 21
230.020549
 31
0.0
  0
LINE
  8
LC-002-005-----0
  6
CONTINUOUS
  5
C2
 10
239.469926
 20
224.392122
 30
0.0
 11
236.669926
 21
227.192122
 31
0.0
  0
LINE
  8
LC-002-005-----0
  6
CONTINUOUS
  5
C3
 10
239.469926
 20
221.563695
 30
0.0
 11
236.669926
 21
224.363695
 31
0.0
  0
LINE
  8
LC-002-005-----0
  6
CONTINUOUS
  5
C4
 10
239.469926
 20
218.735268
 30
0.0
 11
236.669926
 21
221.535268
 31
0.0
  0
LINE
  8
LC-002-005-----0
  6
CONTINUOUS
  5
C5
 10
239.469926
 20
215.906841
 30
0.0
 11
236.669926
 21
218.706841
 31
0.0
  0
LINE
  8
LC-002-005-----0
  6
CONTINUOUS
  5
C6
 10
239.469926
 20
213.078414
 30
0.0
 11
236.669926
 21
215.878414
 31
0.0
  0
LINE
  8
LC-002-005-----0
  6
CONTINUOUS
  5
C7
 10
239.469926
 20
210.249987
 30
0.0
 11
236.669926
 21
213.049987
 31
0.0
  0
LINE
  8
LC-002-005-----0
  6
CONTINUOUS
  5
C8
 10
239.469926
 20
207.421559
 30
0.0
 11
236.669926
 21
210.221559
 31
0.0
  0
LINE
  8
LC-002-005-----0
  6
CONTINUOUS
  5
C9
 10
239.469926
 20
204.593132
 30
0.0
 11
236.687435
 21
207.375623
 31
0.0
  0
LINE
  8
LC-002-005-----0
  6
CONTINUOUS
  5
CA
 10
239.293664
 20
201.940968
 30
0.0
 11
237.722711
 21
203.51192
 31
0.0
  0
ENDBLK
  8
0
  5
CB
  0
BLOCK
  8
0
  5
CD
  2
*D2
 70
    65
 10
0.0
 20
0.0
 30
0.0
  3
*D2
  0
LINE
  8
LC-004-003-MTH-0
  6
CONTINUOUS
  5
CF
 10
236.669926
 20
207.440968
 30
0.0
 11
236.669926
 21
140.0
 31
0.0
  0
LINE
  8
LC-004-003-MTH-0
  6
CONTINUOUS
  5
D0
 10
381.669926
 20
207.440968
 30
0.0
 11
381.669926
 21
140.0
 31
0.0
  0
LINE
  8
LC-005-003-MTG-0
  6
CONTINUOUS
  5
D2
 10
236.669926
 20
156.8
 30
0.0
 11
381.669926
 21
156.8
 31
0.0
  0
LINE
  8
LC-003-003-----0
  6
CONTINUOUS
  5
D4
 10
264.430382
 20
160.454733
 30
0.0
 11
236.669926
 21
156.8
 31
0.0
  0
LINE
  8
LC-003-003-----0
  6
CONTINUOUS
  5
D5
 10
236.669926
 20
156.8
 30
0.0
 11
264.430382
 21
153.145267
 31
0.0
  0
LINE
  8
LC-003-003-----0
  6
CONTINUOUS
  5
D6
 10
264.430382
 20
153.145267
 30
0.0
 11
264.430382
 21
160.454733
 31
0.0
  0
LINE
  8
LC-003-003-----0
  6
CONTINUOUS
  5
D7
 10
264.492664
 20
159.504503
 30
0.0
 11
243.949926
 21
156.8
 31
0.0
  0
LINE
  8
LC-003-003-----0
  6
CONTINUOUS
  5
D8
 10
243.949926
 20
156.8
 30
0.0
 11
264.492664
 21
154.095497
 31
0.0
  0
LINE
  8
LC-003-003-----0
  6
CONTINUOUS
  5
D9
 10
264.554945
 20
158.554272
 30
0.0
 11
251.229926
 21
156.8
 31
0.0
  0
LINE
  8
LC-003-003-----0
  6
CONTINUOUS
  5
DA
 10
251.229926
 20
156.8
 30
0.0
 11
264.554945
 21
155.045728
 31
0.0
  0
LINE
  8
LC-003-003-----0
  6
CONTINUOUS
  5
DB
 10
264.617227
 20
157.604041
 30
0.0
 11
258.509926
 21
156.8
 31
0.0
  0
LINE
  8
LC-003-003-----0
  6
CONTINUOUS
  5
DC
 10
258.509926
 20
156.8
 30
0.0
 11
264.617227
 21
155.995959
 31
0.0
  0
LINE
  8
LC-003-003-----0
  6
CONTINUOUS
  5
DD
 10
353.90947
 20
153.145267
 30
0.0
 11
381.669926
 21
156.8
 31
0.0
  0
LINE
  8
LC-003-003-----0
  6
CONTINUOUS
  5
DE
 10
381.669926
 20
156.8
 30
0.0
 11
353.90947
 21
160.454733
 31
0.0
  0
LINE
  8
LC-003-003-----0
  6
CONTINUOUS
  5
DF
 10
353.90947
 20
160.454733
 30
0.0
 11
353.90947
 21
153.145267
 31
0.0
  0
LINE
  8
LC-003-003-----0
  6
CONTINUOUS
  5
E0
 10
353.847189
 20
154.095497
 30
0.0
 11
374.389926
 21
156.8
 31
0.0
  0
LINE
  8
LC-003-003-----0
  6
CONTINUOUS
  5
E1
 10
374.389926
 20
156.8
 30
0.0
 11
353.847189
 21
159.504503
 31
0.0
  0
LINE
  8
LC-003-003-----0
  6
CONTINUOUS
  5
E2
 10
353.784907
 20
155.045728
 30
0.0
 11
367.109926
 21
156.8
 31
0.0
  0
LINE
  8
LC-003-003-----0
  6
CONTINUOUS
  5
E3
 10
367.109926
 20
156.8
 30
0.0
 11
353.784907
 21
158.554272
 31
0.0
  0
LINE
  8
LC-003-003-----0
  6
CONTINUOUS
  5
E4
 10
353.722626
 20
155.995959
 30
0.0
 11
359.829926
 21
156.8
 31
0.0
  0
LINE
  8
LC-003-003-----0
  6
CONTINUOUS
  5
E5
 10
359.829926
 20
156.8
 30
0.0
 11
353.722626
 21
157.604041
 31
0.0
  0
TEXT
  8
LC-003-003-----0
  6
CONTINUOUS
 62
     8
  5
E7
 10
275.420448
 20
164.627554
 30
0.0
 40
28.0
  1
Ø145
 41
0.9
 51
15.0
  7
LC-TXTSTYLE-150-400-0-0-D0
 72
     1
 11
313.518086
 21
164.627554
 31
0.0
  0
ENDBLK
  8
0
  5
E8
  0
BLOCK
  8
0
  5
EA
  2
BLK1
 70
    64
 10
0.0
 20
0.0
 30
0.0
  3
BLK1
  0
ENDBLK
  8
0
  5
EB
  0
BLOCK
  8
0
  5
ED
  2
BLK2
 70
    64
 10
0.0
 20
0.0
 30
0.0
  3
BLK2
  0
ENDBLK
  8
0
  5
EE
  0
BLOCK
  8
0
  5
F0
  2
BLK3
 70
    64
 10
0.0
 20
0.0
 30
0.0
  3
BLK3
  0
ENDBLK
  8
0
  5
F1
  0
BLOCK
  8
0
  5
F3
  2
BLK4
 70
    64
 10
0.0
 20
0.0
 30
0.0
  3
BLK4
  0
ENDBLK
  8
0
  5
F4
  0
BLOCK
  8
0
  5
F6
  2
BLK5
 70
    64
 10
0.0
 20
0.0
 30
0.0
  3
BLK5
  0
ENDBLK
  8
0
  5
F7
  0
BLOCK
  8
0
  5
F9
  2
BLK6
 70
    64
 10
0.0
 20
0.0
 30
0.0
  3
BLK6
  0
ENDBLK
  8
0
  5
FA
  0
BLOCK
  8
0
  5
FC
  2
BLK7
 70
    64
 10
0.0
 20
0.0
 30
0.0
  3
BLK7
  0
ENDBLK
  8
0
  5
FD
  0
BLOCK
  8
0
  5
FF
  2
BLK8
 70
    64
 10
0.0
 20
0.0
 30
0.0
  3
BLK8
  0
ENDBLK
  8
0
  5
100
  0
BLOCK
  8
0
  5
102
  2
BLK9
 70
    64
 10
0.0
 20
0.0
 30
0.0
  3
BLK9
  0
ENDBLK
  8
0
  5
103
  0
BLOCK
  8
0
  5
105
  2
BLK10
 70
    64
 10
0.0
 20
0.0
 30
0.0
  3
BLK10
  0
ENDBLK
  8
0
  5
106
  0
BLOCK
  8
0
  5
108
  2
BLK11
 70
    64
 10
0.0
 20
0.0
 30
0.0
  3
BLK11
  0
ENDBLK
  8
0
  5
109
  0
BLOCK
  8
0
  5
10B
  2
BLK12
 70
    64
 10
0.0
 20
0.0
 30
0.0
  3
BLK12
  0
ENDBLK
  8
0
  5
10C
  0
BLOCK
  8
0
  5
10E
  2
BLK13
 70
    64
 10
0.0
 20
0.0
 30
0.0
  3
BLK13
  0
ENDBLK
  8
0
  5
10F
  0
BLOCK
  8
0
  5
111
  2
BLK14
 70
    64
 10
0.0
 20
0.0
 30
0.0
  3
BLK14
  0
ENDBLK
  8
0
  5
112
  0
BLOCK
  8
0
  5
114
  2
BLK15
 70
    64
 10
0.0
 20
0.0
 30
0.0
  3
BLK15
  0
ENDBLK
  8
0
  5
115
  0
BLOCK
  8
0
  5
117
  2
BLK16
 70
    64
 10
0.0
 20
0.0
 30
0.0
  3
BLK16
  0
ENDBLK
  8
0
  5
118
  0
BLOCK
  8
0
  5
11A
  2
BLK17
 70
    64
 10
0.0
 20
0.0
 30
0.0
  3
BLK17
  0
ENDBLK
  8
0
  5
11B
  0
BLOCK
  8
0
  5
11D
  2
BLK18
 70
    64
 10
0.0
 20
0.0
 30
0.0
  3
BLK18
  0
ENDBLK
  8
0
  5
11E
  0
BLOCK
  8
0
  5
120
  2
BLK19
 70
    64
 10
0.0
 20
0.0
 30
0.0
  3
BLK19
  0
ENDBLK
  8
0
  5
121
  0
BLOCK
  8
0
  5
123
  2
BLK20
 70
    64
 10
0.0
 20
0.0
 30
0.0
  3
BLK20
  0
ENDBLK
  8
0
  5
124
  0
BLOCK
  8
0
  5
126
  2
BLK21
 70
    64
 10
0.0
 20
0.0
 30
0.0
  3
BLK21
  0
ENDBLK
  8
0
  5
127
  0
BLOCK
  8
0
  5
129
  2
BLK22
 70
    64
 10
0.0
 20
0.0
 30
0.0
  3
BLK22
  0
ENDBLK
  8
0
  5
12A
  0
BLOCK
  8
0
  5
12C
  2
BLK23
 70
    64
 10
0.0
 20
0.0
 30
0.0
  3
BLK23
  0
ENDBLK
  8
0
  5
12D
  0
BLOCK
  8
0
  5
12F
  2
BLK24
 70
    64
 10
0.0
 20
0.0
 30
0.0
  3
BLK24
  0
ENDBLK
  8
0
  5
130
  0
BLOCK
  8
0
  5
132
  2
BLK25
 70
    64
 10
0.0
 20
0.0
 30
0.0
  3
BLK25
  0
ENDBLK
  8
0
  5
133
  0
BLOCK
  8
0
  5
135
  2
BLK26
 70
    64
 10
0.0
 20
0.0
 30
0.0
  3
BLK26
  0
ENDBLK
  8
0
  5
136
  0
BLOCK
  8
0
  5
138
  2
BLK27
 70
    64
 10
0.0
 20
0.0
 30
0.0
  3
BLK27
  0
ENDBLK
  8
0
  5
139
  0
BLOCK
  8
0
  5
13B
  2
BLK28
 70
    64
 10
0.0
 20
0.0
 30
0.0
  3
BLK28
  0
ENDBLK
  8
0
  5
13C
  0
BLOCK
  8
0
  5
13E
  2
BLK29
 70
    64
 10
0.0
 20
0.0
 30
0.0
  3
BLK29
  0
ENDBLK
  8
0
  5
13F
  0
BLOCK
  8
0
  5
141
  2
BLK30
 70
    64
 10
0.0
 20
0.0
 30
0.0
  3
BLK30
  0
ENDBLK
  8
0
  5
142
  0
BLOCK
  8
0
  5
144
  2
*X33
 70
    65
 10
293.170133
 20
401.940968
 30
0.0
  3
*X33
  0
LINE
  8
LC-002-005-----0
  6
CONTINUOUS
  5
145
 10
308.602872
 20
401.940968
 30
0.0
 11
309.169926
 21
402.508021
 31
0.0
  0
LINE
  8
LC-002-005-----0
  6
CONTINUOUS
  5
146
 10
305.774445
 20
401.940968
 30
0.0
 11
309.169926
 21
405.336449
 31
0.0
  0
LINE
  8
LC-002-005-----0
  6
CONTINUOUS
  5
147
 10
302.946018
 20
401.940968
 30
0.0
 11
307.946018
 21
406.940968
 31
0.0
  0
LINE
  8
LC-002-005-----0
  6
CONTINUOUS
  5
148
 10
300.117591
 20
401.940968
 30
0.0
 11
305.117591
 21
406.940968
 31
0.0
  0
LINE
  8
LC-002-005-----0
  6
CONTINUOUS
  5
149
 10
297.289164
 20
401.940968
 30
0.0
 11
302.289164
 21
406.940968
 31
0.0
  0
LINE
  8
LC-002-005-----0
  6
CONTINUOUS
  5
14A
 10
294.460737
 20
401.940968
 30
0.0
 11
299.460737
 21
406.940968
 31
0.0
  0
LINE
  8
LC-002-005-----0
  6
CONTINUOUS
  5
14B
 10
293.170133
 20
403.478791
 30
0.0
 11
296.63231
 21
406.940968
 31
0.0
  0
LINE
  8
LC-002-005-----0
  6
CONTINUOUS
  5
14C
 10
293.170133
 20
406.307218
 30
0.0
 11
293.803883
 21
406.940968
 31
0.0
  0
ENDBLK
  8
0
  5
14D
  0
BLOCK
  8
0
  5
14F
  2
*X34
 70
    65
 10
275.170143
 20
401.940968
 30
0.0
  3
*X34
  0
LINE
  8
LC-002-005-----0
  6
CONTINUOUS
  5
150
 10
283.147028
 20
401.940968
 30
0.0
 11
285.170133
 21
403.964072
 31
0.0
  0
LINE
  8
LC-002-005-----0
  6
CONTINUOUS
  5
151
 10
280.318601
 20
401.940968
 30
0.0
 11
285.170133
 21
406.792499
 31
0.0
  0
LINE
  8
LC-002-005-----0
  6
CONTINUOUS
  5
152
 10
277.490174
 20
401.940968
 30
0.0
 11
282.490174
 21
406.940968
 31
0.0
  0
LINE
  8
LC-002-005-----0
  6
CONTINUOUS
  5
153
 10
275.170143
 20
402.449364
 30
0.0
 11
279.661747
 21
406.940968
 31
0.0
  0
LINE
  8
LC-002-005-----0
  6
CONTINUOUS
  5
154
 10
275.170143
 20
405.277791
 30
0.0
 11
276.83332
 21
406.940968
 31
0.0
  0
ENDBLK
  8
0
  5
155
  0
BLOCK
  8
0
  5
157
  2
*X35
 70
    65
 10
257.170154
 20
401.940968
 30
0.0
  3
*X35
  0
LINE
  8
LC-002-005-----0
  6
CONTINUOUS
  5
158
 10
266.176466
 20
401.940968
 30
0.0
 11
267.170143
 21
402.934645
 31
0.0
  0
LINE
  8
LC-002-005-----0
  6
CONTINUOUS
  5
159
 10
263.348038
 20
401.940968
 30
0.0
 11
267.170143
 21
405.763072
 31
0.0
  0
LINE
  8
LC-002-005-----0
  6
CONTINUOUS
  5
15A
 10
260.519611
 20
401.940968
 30
0.0
 11
265.519611
 21
406.940968
 31
0.0
  0
LINE
  8
LC-002-005-----0
  6
CONTINUOUS
  5
15B
 10
257.691184
 20
401.940968
 30
0.0
 11
262.691184
 21
406.940968
 31
0.0
  0
LINE
  8
LC-002-005-----0
  6
CONTINUOUS
  5
15C
 10
257.170154
 20
404.248364
 30
0.0
 11
259.862757
 21
406.940968
 31
0.0
  0
ENDBLK
  8
0
  5
15D
  0
BLOCK
  8
0
  5
15F
  2
*X36
 70
    65
 10
238.170164
 20
401.940968
 30
0.0
  3
*X36
  0
LINE
  8
LC-002-005-----0
  6
CONTINUOUS
  5
160
 10
246.377476
 20
401.940968
 30
0.0
 11
249.170154
 21
404.733645
 31
0.0
  0
LINE
  8
LC-002-005-----0
  6
CONTINUOUS
  5
161
 10
243.549049
 20
401.940968
 30
0.0
 11
248.549049
 21
406.940968
 31
0.0
  0
LINE
  8
LC-002-005-----0
  6
CONTINUOUS
  5
162
 10
240.720621
 20
401.940968
 30
0.0
 11
245.720621
 21
406.940968
 31
0.0
  0
LINE
  8
LC-002-005-----0
  6
CONTINUOUS
  5
163
 10
238.170164
 20
402.218937
 30
0.0
 11
242.892194
 21
406.940968
 31
0.0
  0
LINE
  8
LC-002-005-----0
  6
CONTINUOUS
  5
164
 10
238.170164
 20
405.047364
 30
0.0
 11
240.063767
 21
406.940968
 31
0.0
  0
ENDBLK
  8
0
  5
165
  0
BLOCK
  8
0
  5
167
  2
*X37
 70
    65
 10
214.169926
 20
401.940968
 30
0.0
  3
*X37
  0
LINE
  8
LC-002-005-----0
  6
CONTINUOUS
  5
168
 10
229.406913
 20
401.940968
 30
0.0
 11
230.170164
 21
402.704219
 31
0.0
  0
LINE
  8
LC-002-005-----0
  6
CONTINUOUS
  5
169
 10
226.578486
 20
401.940968
 30
0.0
 11
230.170164
 21
405.532646
 31
0.0
  0
LINE
  8
LC-002-005-----0
  6
CONTINUOUS
  5
16A
 10
223.750059
 20
401.940968
 30
0.0
 11
228.750059
 21
406.940968
 31
0.0
  0
LINE
  8
LC-002-005-----0
  6
CONTINUOUS
  5
16B
 10
220.921632
 20
401.940968
 30
0.0
 11
225.921632
 21
406.940968
 31
0.0
  0
LINE
  8
LC-002-005-----0
  6
CONTINUOUS
  5
16C
 10
218.093204
 20
401.940968
 30
0.0
 11
223.093204
 21
406.940968
 31
0.0
  0
LINE
  8
LC-002-005-----0
  6
CONTINUOUS
  5
16D
 10
215.264777
 20
401.940968
 30
0.0
 11
220.264777
 21
406.940968
 31
0.0
  0
LINE
  8
LC-002-005-----0
  6
CONTINUOUS
  5
16E
 10
214.169926
 20
403.674544
 30
0.0
 11
217.43635
 21
406.940968
 31
0.0
  0
LINE
  8
LC-002-005-----0
  6
CONTINUOUS
  5
16F
 10
214.169926
 20
406.502971
 30
0.0
 11
214.607923
 21
406.940968
 31
0.0
  0
ENDBLK
  8
0
  5
170
  0
BLOCK
  8
0
  5
172
  2
*X38
 70
    65
 10
309.169926
 20
401.940968
 30
0.0
  3
*X38
  0
LINE
  8
LC-002-005-----0
  6
CONTINUOUS
  5
173
 10
322.745008
 20
401.940968
 30
0.0
 11
325.16972
 21
404.365679
 31
0.0
  0
LINE
  8
LC-002-005-----0
  6
CONTINUOUS
  5
174
 10
319.916581
 20
401.940968
 30
0.0
 11
324.916581
 21
406.940968
 31
0.0
  0
LINE
  8
LC-002-005-----0
  6
CONTINUOUS
  5
175
 10
317.088154
 20
401.940968
 30
0.0
 11
322.088154
 21
406.940968
 31
0.0
  0
LINE
  8
LC-002-005-----0
  6
CONTINUOUS
  5
176
 10
314.259727
 20
401.940968
 30
0.0
 11
319.259727
 21
406.940968
 31
0.0
  0
LINE
  8
LC-002-005-----0
  6
CONTINUOUS
  5
177
 10
311.4313
 20
401.940968
 30
0.0
 11
316.4313
 21
406.940968
 31
0.0
  0
LINE
  8
LC-002-005-----0
  6
CONTINUOUS
  5
178
 10
309.169926
 20
402.508021
 30
0.0
 11
313.602872
 21
406.940968
 31
0.0
  0
LINE
  8
LC-002-005-----0
  6
CONTINUOUS
  5
179
 10
309.169926
 20
405.336449
 30
0.0
 11
310.774445
 21
406.940968
 31
0.0
  0
ENDBLK
  8
0
  5
17A
  0
BLOCK
  8
0
  5
17C
  2
*X39
 70
    65
 10
333.16972
 20
401.940968
 30
0.0
  3
*X39
  0
LINE
  8
LC-002-005-----0
  6
CONTINUOUS
  5
17D
 10
342.543998
 20
401.940968
 30
0.0
 11
343.169709
 21
402.566679
 31
0.0
  0
LINE
  8
LC-002-005-----0
  6
CONTINUOUS
  5
17E
 10
339.715571
 20
401.940968
 30
0.0
 11
343.169709
 21
405.395106
 31
0.0
  0
LINE
  8
LC-002-005-----0
  6
CONTINUOUS
  5
17F
 10
336.887144
 20
401.940968
 30
0.0
 11
341.887144
 21
406.940968
 31
0.0
  0
LINE
  8
LC-002-005-----0
  6
CONTINUOUS
  5
180
 10
334.058717
 20
401.940968
 30
0.0
 11
339.058717
 21
406.940968
 31
0.0
  0
LINE
  8
LC-002-005-----0
  6
CONTINUOUS
  5
181
 10
333.16972
 20
403.880398
 30
0.0
 11
336.230289
 21
406.940968
 31
0.0
  0
LINE
  8
LC-002-005-----0
  6
CONTINUOUS
  5
182
 10
333.16972
 20
406.708825
 30
0.0
 11
333.401862
 21
406.940968
 31
0.0
  0
ENDBLK
  8
0
  5
183
  0
BLOCK
  8
0
  5
185
  2
*X40
 70
    65
 10
351.169709
 20
401.940968
 30
0.0
  3
*X40
  0
LINE
  8
LC-002-005-----0
  6
CONTINUOUS
  5
186
 10
359.514561
 20
401.940968
 30
0.0
 11
361.169699
 21
403.596106
 31
0.0
  0
LINE
  8
LC-002-005-----0
  6
CONTINUOUS
  5
187
 10
356.686134
 20
401.940968
 30
0.0
 11
361.169699
 21
406.424533
 31
0.0
  0
LINE
  8
LC-002-005-----0
  6
CONTINUOUS
  5
188
 10
353.857706
 20
401.940968
 30
0.0
 11
358.857706
 21
406.940968
 31
0.0
  0
LINE
  8
LC-002-005-----0
  6
CONTINUOUS
  5
189
 10
351.169709
 20
402.081398
 30
0.0
 11
356.029279
 21
406.940968
 31
0.0
  0
LINE
  8
LC-002-005-----0
  6
CONTINUOUS
  5
18A
 10
351.169709
 20
404.909825
 30
0.0
 11
353.200852
 21
406.940968
 31
0.0
  0
ENDBLK
  8
0
  5
18B
  0
BLOCK
  8
0
  5
18D
  2
*X41
 70
    65
 10
369.169699
 20
401.940968
 30
0.0
  3
*X41
  0
LINE
  8
LC-002-005-----0
  6
CONTINUOUS
  5
18E
 10
379.313551
 20
401.940968
 30
0.0
 11
380.169689
 21
402.797106
 31
0.0
  0
LINE
  8
LC-002-005-----0
  6
CONTINUOUS
  5
18F
 10
376.485123
 20
401.940968
 30
0.0
 11
380.169689
 21
405.625533
 31
0.0
  0
LINE
  8
LC-002-005-----0
  6
CONTINUOUS
  5
190
 10
373.656696
 20
401.940968
 30
0.0
 11
378.656696
 21
406.940968
 31
0.0
  0
LINE
  8
LC-002-005-----0
  6
CONTINUOUS
  5
191
 10
370.828269
 20
401.940968
 30
0.0
 11
375.828269
 21
406.940968
 31
0.0
  0
LINE
  8
LC-002-005-----0
  6
CONTINUOUS
  5
192
 10
369.169699
 20
403.110825
 30
0.0
 11
372.999842
 21
406.940968
 31
0.0
  0
LINE
  8
LC-002-005-----0
  6
CONTINUOUS
  5
193
 10
369.169699
 20
405.939252
 30
0.0
 11
370.171415
 21
406.940968
 31
0.0
  0
ENDBLK
  8
0
  5
194
  0
BLOCK
  8
0
  5
196
  2
*X42
 70
    65
 10
388.169689
 20
401.940968
 30
0.0
  3
*X42
  0
LINE
  8
LC-002-005-----0
  6
CONTINUOUS
  5
197
 10
401.940968
 20
401.940968
 30
0.0
 11
404.169926
 21
404.169926
 31
0.0
  0
LINE
  8
LC-002-005-----0
  6
CONTINUOUS
  5
198
 10
399.11254
 20
401.940968
 30
0.0
 11
404.11254
 21
406.940968
 31
0.0
  0
LINE
  8
LC-002-005-----0
  6
CONTINUOUS
  5
199
 10
396.284113
 20
401.940968
 30
0.0
 11
401.284113
 21
406.940968
 31
0.0
  0
LINE
  8
LC-002-005-----0
  6
CONTINUOUS
  5
19A
 10
393.455686
 20
401.940968
 30
0.0
 11
398.455686
 21
406.940968
 31
0.0
  0
LINE
  8
LC-002-005-----0
  6
CONTINUOUS
  5
19B
 10
390.627259
 20
401.940968
 30
0.0
 11
395.627259
 21
406.940968
 31
0.0
  0
LINE
  8
LC-002-005-----0
  6
CONTINUOUS
  5
19C
 10
388.169689
 20
402.311824
 30
0.0
 11
392.798832
 21
406.940968
 31
0.0
  0
LINE
  8
LC-002-005-----0
  6
CONTINUOUS
  5
19D
 10
388.169689
 20
405.140251
 30
0.0
 11
389.970405
 21
406.940968
 31
0.0
  0
ENDBLK
  8
0
  5
19E
  0
BLOCK
  8
0
  5
1A0
  2
*D43
 70
    65
 10
0.0
 20
0.0
 30
0.0
  3
*D43
  0
LINE
  8
LC-004-003-MTH-0
  6
CONTINUOUS
  5
1A1
 10
209.169926
 20
406.940968
 30
0.0
 11
209.169926
 21
448.0
 31
0.0
  0
LINE
  8
LC-004-003-MTH-0
  6
CONTINUOUS
  5
1A2
 10
409.169926
 20
406.940968
 30
0.0
 11
409.169926
 21
448.0
 31
0.0
  0
LINE
  8
LC-005-003-MTG-0
  6
CONTINUOUS
  5
1A3
 10
209.169926
 20
431.2
 30
0.0
 11
409.169926
 21
431.2
 31
0.0
  0
LINE
  8
LC-003-003-----0
  6
CONTINUOUS
  5
1A4
 10
236.930382
 20
434.854733
 30
0.0
 11
209.169926
 21
431.2
 31
0.0
  0
LINE
  8
LC-003-003-----0
  6
CONTINUOUS
  5
1A5
 10
209.169926
 20
431.2
 30
0.0
 11
236.930382
 21
427.545267
 31
0.0
  0
LINE
  8
LC-003-003-----0
  6
CONTINUOUS
  5
1A6
 10
236.930382
 20
427.545267
 30
0.0
 11
236.930382
 21
434.854733
 31
0.0
  0
LINE
  8
LC-003-003-----0
  6
CONTINUOUS
  5
1A7
 10
236.992664
 20
433.904503
 30
0.0
 11
216.449926
 21
431.2
 31
0.0
  0
LINE
  8
LC-003-003-----0
  6
CONTINUOUS
  5
1A8
 10
216.449926
 20
431.2
 30
0.0
 11
236.992664
 21
428.495497
 31
0.0
  0
LINE
  8
LC-003-003-----0
  6
CONTINUOUS
  5
1A9
 10
237.054945
 20
432.954272
 30
0.0
 11
223.729926
 21
431.2
 31
0.0
  0
LINE
  8
LC-003-003-----0
  6
CONTINUOUS
  5
1AA
 10
223.729926
 20
431.2
 30
0.0
 11
237.054945
 21
429.445728
 31
0.0
  0
LINE
  8
LC-003-003-----0
  6
CONTINUOUS
  5
1AB
 10
237.117227
 20
432.004041
 30
0.0
 11
231.009926
 21
431.2
 31
0.0
  0
LINE
  8
LC-003-003-----0
  6
CONTINUOUS
  5
1AC
 10
231.009926
 20
431.2
 30
0.0
 11
237.117227
 21
430.395959
 31
0.0
  0
LINE
  8
LC-003-003-----0
  6
CONTINUOUS
  5
1AD
 10
381.40947
 20
427.545267
 30
0.0
 11
409.169926
 21
431.2
 31
0.0
  0
LINE
  8
LC-003-003-----0
  6
CONTINUOUS
  5
1AE
 10
409.169926
 20
431.2
 30
0.0
 11
381.40947
 21
434.854733
 31
0.0
  0
LINE
  8
LC-003-003-----0
  6
CONTINUOUS
  5
1AF
 10
381.40947
 20
434.854733
 30
0.0
 11
381.40947
 21
427.545267
 31
0.0
  0
LINE
  8
LC-003-003-----0
  6
CONTINUOUS
  5
1B0
 10
381.347189
 20
428.495497
 30
0.0
 11
401.889926
 21
431.2
 31
0.0
  0
LINE
  8
LC-003-003-----0
  6
CONTINUOUS
  5
1B1
 10
401.889926
 20
431.2
 30
0.0
 11
381.347189
 21
433.904503
 31
0.0
  0
LINE
  8
LC-003-003-----0
  6
CONTINUOUS
  5
1B2
 10
381.284907
 20
429.445728
 30
0.0
 11
394.609926
 21
431.2
 31
0.0
  0
LINE
  8
LC-003-003-----0
  6
CONTINUOUS
  5
1B3
 10
394.609926
 20
431.2
 30
0.0
 11
381.284907
 21
432.954272
 31
0.0
  0
LINE
  8
LC-003-003-----0
  6
CONTINUOUS
  5
1B4
 10
381.222626
 20
430.395959
 30
0.0
 11
387.329926
 21
431.2
 31
0.0
  0
LINE
  8
LC-003-003-----0
  6
CONTINUOUS
  5
1B5
 10
387.329926
 20
431.2
 30
0.0
 11
381.222626
 21
432.004041
 31
0.0
  0
TEXT
  8
LC-003-003-----0
  6
CONTINUOUS
 62
     8
  5
1B6
 10
283.754307
 20
439.027554
 30
0.0
 40
28.0
  1
200
 51
15.0
  7
LC-TXTSTYLE-150-400-0-0-D0
 72
     1
 11
313.518086
 21
439.027554
 31
0.0
  0
ENDBLK
  8
0
  5
1B7
  0
BLOCK
  8
0
  5
1B9
  2
BLK31
 70
    64
 10
0.0
 20
0.0
 30
0.0
  3
BLK31
  0
ENDBLK
  8
0
  5
1BA
  0
BLOCK
  8
0
  5
1BC
  2
BLK32
 70
    64
 10
0.0
 20
0.0
 30
0.0
  3
BLK32
  0
ENDBLK
  8
0
  5
1BD
  0
BLOCK
  8
0
  5
1BF
  2
BLK33
 70
    64
 10
0.0
 20
0.0
 30
0.0
  3
BLK33
  0
ENDBLK
  8
0
  5
1C0
  0
BLOCK
  8
0
  5
1C2
  2
BLK34
 70
    64
 10
0.0
 20
0.0
 30
0.0
  3
BLK34
  0
ENDBLK
  8
0
  5
1C3
  0
BLOCK
  8
0
  5
1C5
  2
*D48
 70
    65
 10
0.0
 20
0.0
 30
0.0
  3
*D48
  0
LINE
  8
LC-004-003-MTH-0
  6
CONTINUOUS
  5
1C6
 10
209.169926
 20
393.440968
 30
0.0
 11
179.2
 21
393.440968
 31
0.0
  0
LINE
  8
LC-004-003-MTH-0
  6
CONTINUOUS
  5
1C7
 10
209.169926
 20
406.940968
 30
0.0
 11
179.2
 21
406.940968
 31
0.0
  0
LINE
  8
LC-003-003-----0
  6
CONTINUOUS
  5
1C8
 10
199.654733
 20
365.680511
 30
0.0
 11
196.0
 21
393.440968
 31
0.0
  0
LINE
  8
LC-003-003-----0
  6
CONTINUOUS
  5
1C9
 10
196.0
 20
393.440968
 30
0.0
 11
192.345267
 21
365.680511
 31
0.0
  0
LINE
  8
LC-003-003-----0
  6
CONTINUOUS
  5
1CA
 10
192.345267
 20
365.680511
 30
0.0
 11
199.654733
 21
365.680511
 31
0.0
  0
LINE
  8
LC-003-003-----0
  6
CONTINUOUS
  5
1CB
 10
198.704503
 20
365.61823
 30
0.0
 11
196.0
 21
386.160968
 31
0.0
  0
LINE
  8
LC-003-003-----0
  6
CONTINUOUS
  5
1CC
 10
196.0
 20
386.160968
 30
0.0
 11
193.295497
 21
365.61823
 31
0.0
  0
LINE
  8
LC-003-003-----0
  6
CONTINUOUS
  5
1CD
 10
197.754272
 20
365.555949
 30
0.0
 11
196.0
 21
378.880968
 31
0.0
  0
LINE
  8
LC-003-003-----0
  6
CONTINUOUS
  5
1CE
 10
196.0
 20
378.880968
 30
0.0
 11
194.245728
 21
365.555949
 31
0.0
  0
LINE
  8
LC-003-003-----0
  6
CONTINUOUS
  5
1CF
 10
196.804041
 20
365.493667
 30
0.0
 11
196.0
 21
371.600968
 31
0.0
  0
LINE
  8
LC-003-003-----0
  6
CONTINUOUS
  5
1D0
 10
196.0
 20
371.600968
 30
0.0
 11
195.195959
 21
365.493667
 31
0.0
  0
LINE
  8
LC-003-003-----0
  6
CONTINUOUS
  5
1D1
 10
192.345267
 20
434.701424
 30
0.0
 11
196.0
 21
406.940968
 31
0.0
  0
LINE
  8
LC-003-003-----0
  6
CONTINUOUS
  5
1D2
 10
196.0
 20
406.940968
 30
0.0
 11
199.654733
 21
434.701424
 31
0.0
  0
LINE
  8
LC-003-003-----0
  6
CONTINUOUS
  5
1D3
 10
199.654733
 20
434.701424
 30
0.0
 11
192.345267
 21
434.701424
 31
0.0
  0
LINE
  8
LC-003-003-----0
  6
CONTINUOUS
  5
1D4
 10
193.295497
 20
434.763705
 30
0.0
 11
196.0
 21
414.220968
 31
0.0
  0
LINE
  8
LC-003-003-----0
  6
CONTINUOUS
  5
1D5
 10
196.0
 20
414.220968
 30
0.0
 11
198.704503
 21
434.763705
 31
0.0
  0
LINE
  8
LC-003-003-----0
  6
CONTINUOUS
  5
1D6
 10
194.245728
 20
434.825986
 30
0.0
 11
196.0
 21
421.500968
 31
0.0
  0
LINE
  8
LC-003-003-----0
  6
CONTINUOUS
  5
1D7
 10
196.0
 20
421.500968
 30
0.0
 11
197.754272
 21
434.825986
 31
0.0
  0
LINE
  8
LC-003-003-----0
  6
CONTINUOUS
  5
1D8
 10
195.195959
 20
434.888268
 30
0.0
 11
196.0
 21
428.780968
 31
0.0
  0
LINE
  8
LC-003-003-----0
  6
CONTINUOUS
  5
1D9
 10
196.0
 20
428.780968
 30
0.0
 11
196.804041
 21
434.888268
 31
0.0
  0
LINE
  8
LC-005-003-MTG-0
  6
CONTINUOUS
  5
1DA
 10
196.0
 20
354.240968
 30
0.0
 11
196.0
 21
490.305368
 31
0.0
  0
TEXT
  8
LC-003-003-----0
  6
CONTINUOUS
 62
     8
  5
1DB
 10
188.172446
 20
449.369127
 30
0.0
 40
28.0
  1
14
 50
90.0
 51
15.0
  7
LC-TXTSTYLE-150-400-0-0-D0
  0
ENDBLK
  8
0
  5
1DC
  0
BLOCK
  8
0
  5
1DE
  2
*X49
 70
    65
 10
239.469926
 20
201.940968
 30
0.0
  3
*X49
  0
LINE
  8
LC-002-005-----0
  6
CONTINUOUS
  5
1DF
 10
303.764344
 20
201.940968
 30
0.0
 11
309.169926
 21
207.34655
 31
0.0
  0
LINE
  8
LC-002-005-----0
  6
CONTINUOUS
  5
1E0
 10
298.10749
 20
201.940968
 30
0.0
 11
309.169926
 21
213.003404
 31
0.0
  0
LINE
  8
LC-002-005-----0
  6
CONTINUOUS
  5
1E1
 10
292.450636
 20
201.940968
 30
0.0
 11
309.169926
 21
218.660258
 31
0.0
  0
LINE
  8
LC-002-005-----0
  6
CONTINUOUS
  5
1E2
 10
286.793781
 20
201.940968
 30
0.0
 11
309.169926
 21
224.317113
 31
0.0
  0
LINE
  8
LC-002-005-----0
  6
CONTINUOUS
  5
1E3
 10
281.136927
 20
201.940968
 30
0.0
 11
304.136927
 21
224.940968
 31
0.0
  0
LINE
  8
LC-002-005-----0
  6
CONTINUOUS
  5
1E4
 10
275.480073
 20
201.940968
 30
0.0
 11
298.480073
 21
224.940968
 31
0.0
  0
LINE
  8
LC-002-005-----0
  6
CONTINUOUS
  5
1E5
 10
269.823219
 20
201.940968
 30
0.0
 11
292.823219
 21
224.940968
 31
0.0
  0
LINE
  8
LC-002-005-----0
  6
CONTINUOUS
  5
1E6
 10
264.166364
 20
201.940968
 30
0.0
 11
287.166364
 21
224.940968
 31
0.0
  0
LINE
  8
LC-002-005-----0
  6
CONTINUOUS
  5
1E7
 10
258.50951
 20
201.940968
 30
0.0
 11
281.50951
 21
224.940968
 31
0.0
  0
LINE
  8
LC-002-005-----0
  6
CONTINUOUS
  5
1E8
 10
252.852656
 20
201.940968
 30
0.0
 11
275.852656
 21
224.940968
 31
0.0
  0
LINE
  8
LC-002-005-----0
  6
CONTINUOUS
  5
1E9
 10
247.195802
 20
201.940968
 30
0.0
 11
270.195802
 21
224.940968
 31
0.0
  0
LINE
  8
LC-002-005-----0
  6
CONTINUOUS
  5
1EA
 10
241.538947
 20
201.940968
 30
0.0
 11
264.538947
 21
224.940968
 31
0.0
  0
LINE
  8
LC-002-005-----0
  6
CONTINUOUS
  5
1EB
 10
239.469926
 20
205.528801
 30
0.0
 11
258.882093
 21
224.940968
 31
0.0
  0
LINE
  8
LC-002-005-----0
  6
CONTINUOUS
  5
1EC
 10
239.469926
 20
211.185655
 30
0.0
 11
253.225239
 21
224.940968
 31
0.0
  0
LINE
  8
LC-002-005-----0
  6
CONTINUOUS
  5
1ED
 10
239.469926
 20
216.842509
 30
0.0
 11
247.568385
 21
224.940968
 31
0.0
  0
LINE
  8
LC-002-005-----0
  6
CONTINUOUS
  5
1EE
 10
239.469926
 20
222.499364
 30
0.0
 11
241.91153
 21
224.940968
 31
0.0
  0
LINE
  8
LC-002-005-----0
  6
CONTINUOUS
  5
1EF
 10
309.169926
 20
222.574373
 30
0.0
 11
306.803332
 21
224.940968
 31
0.0
  0
LINE
  8
LC-002-005-----0
  6
CONTINUOUS
  5
1F0
 10
309.169926
 20
216.917519
 30
0.0
 11
301.146478
 21
224.940968
 31
0.0
  0
LINE
  8
LC-002-005-----0
  6
CONTINUOUS
  5
1F1
 10
309.169926
 20
211.260665
 30
0.0
 11
295.489623
 21
224.940968
 31
0.0
  0
LINE
  8
LC-002-005-----0
  6
CONTINUOUS
  5
1F2
 10
309.169926
 20
205.60381
 30
0.0
 11
289.832769
 21
224.940968
 31
0.0
  0
LINE
  8
LC-002-005-----0
  6
CONTINUOUS
  5
1F3
 10
307.175915
 20
201.940968
 30
0.0
 11
284.175915
 21
224.940968
 31
0.0
  0
LINE
  8
LC-002-005-----0
  6
CONTINUOUS
  5
1F4
 10
301.519061
 20
201.940968
 30
0.0
 11
278.519061
 21
224.940968
 31
0.0
  0
LINE
  8
LC-002-005-----0
  6
CONTINUOUS
  5
1F5
 10
295.862206
 20
201.940968
 30
0.0
 11
272.862206
 21
224.940968
 31
0.0
  0
LINE
  8
LC-002-005-----0
  6
CONTINUOUS
  5
1F6
 10
290.205352
 20
201.940968
 30
0.0
 11
267.205352
 21
224.940968
 31
0.0
  0
LINE
  8
LC-002-005-----0
  6
CONTINUOUS
  5
1F7
 10
284.548498
 20
201.940968
 30
0.0
 11
261.548498
 21
224.940968
 31
0.0
  0
LINE
  8
LC-002-005-----0
  6
CONTINUOUS
  5
1F8
 10
278.891644
 20
201.940968
 30
0.0
 11
255.891644
 21
224.940968
 31
0.0
  0
LINE
  8
LC-002-005-----0
  6
CONTINUOUS
  5
1F9
 10
273.234789
 20
201.940968
 30
0.0
 11
250.234789
 21
224.940968
 31
0.0
  0
LINE
  8
LC-002-005-----0
  6
CONTINUOUS
  5
1FA
 10
267.577935
 20
201.940968
 30
0.0
 11
244.577935
 21
224.940968
 31
0.0
  0
LINE
  8
LC-002-005-----0
  6
CONTINUOUS
  5
1FB
 10
261.921081
 20
201.940968
 30
0.0
 11
239.469926
 21
224.392122
 31
0.0
  0
LINE
  8
LC-002-005-----0
  6
CONTINUOUS
  5
1FC
 10
256.264227
 20
201.940968
 30
0.0
 11
239.469926
 21
218.735268
 31
0.0
  0
LINE
  8
LC-002-005-----0
  6
CONTINUOUS
  5
1FD
 10
250.607372
 20
201.940968
 30
0.0
 11
239.469926
 21
213.078414
 31
0.0
  0
LINE
  8
LC-002-005-----0
  6
CONTINUOUS
  5
1FE
 10
244.950518
 20
201.940968
 30
0.0
 11
239.469926
 21
207.421559
 31
0.0
  0
ENDBLK
  8
0
  5
1FF
  0
BLOCK
  8
0
  5
201
  2
*X50
 70
    65
 10
309.169926
 20
201.940968
 30
0.0
  3
*X50
  0
LINE
  8
LC-002-005-----0
  6
CONTINUOUS
  5
202
 10
377.303449
 20
201.940968
 30
0.0
 11
378.869926
 21
203.507445
 31
0.0
  0
LINE
  8
LC-002-005-----0
  6
CONTINUOUS
  5
203
 10
371.646595
 20
201.940968
 30
0.0
 11
378.869926
 21
209.164299
 31
0.0
  0
LINE
  8
LC-002-005-----0
  6
CONTINUOUS
  5
204
 10
365.989741
 20
201.940968
 30
0.0
 11
378.869926
 21
214.821153
 31
0.0
  0
LINE
  8
LC-002-005-----0
  6
CONTINUOUS
  5
205
 10
360.332887
 20
201.940968
 30
0.0
 11
378.869926
 21
220.478007
 31
0.0
  0
LINE
  8
LC-002-005-----0
  6
CONTINUOUS
  5
206
 10
354.676032
 20
201.940968
 30
0.0
 11
377.676032
 21
224.940968
 31
0.0
  0
LINE
  8
LC-002-005-----0
  6
CONTINUOUS
  5
207
 10
349.019178
 20
201.940968
 30
0.0
 11
372.019178
 21
224.940968
 31
0.0
  0
LINE
  8
LC-002-005-----0
  6
CONTINUOUS
  5
208
 10
343.362324
 20
201.940968
 30
0.0
 11
366.362324
 21
224.940968
 31
0.0
  0
LINE
  8
LC-002-005-----0
  6
CONTINUOUS
  5
209
 10
337.70547
 20
201.940968
 30
0.0
 11
360.70547
 21
224.940968
 31
0.0
  0
LINE
  8
LC-002-005-----0
  6
CONTINUOUS
  5
20A
 10
332.048615
 20
201.940968
 30
0.0
 11
355.048615
 21
224.940968
 31
0.0
  0
LINE
  8
LC-002-005-----0
  6
CONTINUOUS
  5
20B
 10
326.391761
 20
201.940968
 30
0.0
 11
349.391761
 21
224.940968
 31
0.0
  0
LINE
  8
LC-002-005-----0
  6
CONTINUOUS
  5
20C
 10
320.734907
 20
201.940968
 30
0.0
 11
343.734907
 21
224.940968
 31
0.0
  0
LINE
  8
LC-002-005-----0
  6
CONTINUOUS
  5
20D
 10
315.078053
 20
201.940968
 30
0.0
 11
338.078053
 21
224.940968
 31
0.0
  0
LINE
  8
LC-002-005-----0
  6
CONTINUOUS
  5
20E
 10
309.421198
 20
201.940968
 30
0.0
 11
332.421198
 21
224.940968
 31
0.0
  0
LINE
  8
LC-002-005-----0
  6
CONTINUOUS
  5
20F
 10
309.169926
 20
207.34655
 30
0.0
 11
326.764344
 21
224.940968
 31
0.0
  0
LINE
  8
LC-002-005-----0
  6
CONTINUOUS
  5
210
 10
309.169926
 20
213.003404
 30
0.0
 11
321.10749
 21
224.940968
 31
0.0
  0
LINE
  8
LC-002-005-----0
  6
CONTINUOUS
  5
211
 10
309.169926
 20
218.660258
 30
0.0
 11
315.450636
 21
224.940968
 31
0.0
  0
LINE
  8
LC-002-005-----0
  6
CONTINUOUS
  5
212
 10
309.169926
 20
224.317113
 30
0.0
 11
309.793781
 21
224.940968
 31
0.0
  0
LINE
  8
LC-002-005-----0
  6
CONTINUOUS
  5
213
 10
378.869926
 20
220.756624
 30
0.0
 11
374.685583
 21
224.940968
 31
0.0
  0
LINE
  8
LC-002-005-----0
  6
CONTINUOUS
  5
214
 10
378.869926
 20
215.09977
 30
0.0
 11
369.028729
 21
224.940968
 31
0.0
  0
LINE
  8
LC-002-005-----0
  6
CONTINUOUS
  5
215
 10
378.869926
 20
209.442916
 30
0.0
 11
363.371874
 21
224.940968
 31
0.0
  0
LINE
  8
LC-002-005-----0
  6
CONTINUOUS
  5
216
 10
378.869926
 20
203.786061
 30
0.0
 11
357.71502
 21
224.940968
 31
0.0
  0
LINE
  8
LC-002-005-----0
  6
CONTINUOUS
  5
217
 10
375.058166
 20
201.940968
 30
0.0
 11
352.058166
 21
224.940968
 31
0.0
  0
LINE
  8
LC-002-005-----0
  6
CONTINUOUS
  5
218
 10
369.401312
 20
201.940968
 30
0.0
 11
346.401312
 21
224.940968
 31
0.0
  0
LINE
  8
LC-002-005-----0
  6
CONTINUOUS
  5
219
 10
363.744457
 20
201.940968
 30
0.0
 11
340.744457
 21
224.940968
 31
0.0
  0
LINE
  8
LC-002-005-----0
  6
CONTINUOUS
  5
21A
 10
358.087603
 20
201.940968
 30
0.0
 11
335.087603
 21
224.940968
 31
0.0
  0
LINE
  8
LC-002-005-----0
  6
CONTINUOUS
  5
21B
 10
352.430749
 20
201.940968
 30
0.0
 11
329.430749
 21
224.940968
 31
0.0
  0
LINE
  8
LC-002-005-----0
  6
CONTINUOUS
  5
21C
 10
346.773895
 20
201.940968
 30
0.0
 11
323.773895
 21
224.940968
 31
0.0
  0
LINE
  8
LC-002-005-----0
  6
CONTINUOUS
  5
21D
 10
341.11704
 20
201.940968
 30
0.0
 11
318.11704
 21
224.940968
 31
0.0
  0
LINE
  8
LC-002-005-----0
  6
CONTINUOUS
  5
21E
 10
335.460186
 20
201.940968
 30
0.0
 11
312.460186
 21
224.940968
 31
0.0
  0
LINE
  8
LC-002-005-----0
  6
CONTINUOUS
  5
21F
 10
329.803332
 20
201.940968
 30
0.0
 11
309.169926
 21
222.574373
 31
0.0
  0
LINE
  8
LC-002-005-----0
  6
CONTINUOUS
  5
220
 10
324.146478
 20
201.940968
 30
0.0
 11
309.169926
 21
216.917519
 31
0.0
  0
LINE
  8
LC-002-005-----0
  6
CONTINUOUS
  5
221
 10
318.489623
 20
201.940968
 30
0.0
 11
309.169926
 21
211.260665
 31
0.0
  0
LINE
  8
LC-002-005-----0
  6
CONTINUOUS
  5
222
 10
312.832769
 20
201.940968
 30
0.0
 11
309.169926
 21
205.60381
 31
0.0
  0
ENDBLK
  8
0
  5
223
  0
BLOCK
  8
0
  5
225
  2
*D51
 70
    65
 10
0.0
 20
0.0
 30
0.0
  3
*D51
  0
LINE
  8
LC-004-003-MTH-0
  6
CONTINUOUS
  5
226
 10
378.869926
 20
201.940968
 30
0.0
 11
448.0
 21
201.940968
 31
0.0
  0
LINE
  8
LC-004-003-MTH-0
  6
CONTINUOUS
  5
227
 10
378.869926
 20
224.940968
 30
0.0
 11
448.0
 21
224.940968
 31
0.0
  0
LINE
  8
LC-003-003-----0
  6
CONTINUOUS
  5
228
 10
434.854733
 20
174.180511
 30
0.0
 11
431.2
 21
201.940968
 31
0.0
  0
LINE
  8
LC-003-003-----0
  6
CONTINUOUS
  5
229
 10
431.2
 20
201.940968
 30
0.0
 11
427.545267
 21
174.180511
 31
0.0
  0
LINE
  8
LC-003-003-----0
  6
CONTINUOUS
  5
22A
 10
427.545267
 20
174.180511
 30
0.0
 11
434.854733
 21
174.180511
 31
0.0
  0
LINE
  8
LC-003-003-----0
  6
CONTINUOUS
  5
22B
 10
433.904503
 20
174.11823
 30
0.0
 11
431.2
 21
194.660968
 31
0.0
  0
LINE
  8
LC-003-003-----0
  6
CONTINUOUS
  5
22C
 10
431.2
 20
194.660968
 30
0.0
 11
428.495497
 21
174.11823
 31
0.0
  0
LINE
  8
LC-003-003-----0
  6
CONTINUOUS
  5
22D
 10
432.954272
 20
174.055949
 30
0.0
 11
431.2
 21
187.380968
 31
0.0
  0
LINE
  8
LC-003-003-----0
  6
CONTINUOUS
  5
22E
 10
431.2
 20
187.380968
 30
0.0
 11
429.445728
 21
174.055949
 31
0.0
  0
LINE
  8
LC-003-003-----0
  6
CONTINUOUS
  5
22F
 10
432.004041
 20
173.993667
 30
0.0
 11
431.2
 21
180.100968
 31
0.0
  0
LINE
  8
LC-003-003-----0
  6
CONTINUOUS
  5
230
 10
431.2
 20
180.100968
 30
0.0
 11
430.395959
 21
173.993667
 31
0.0
  0
LINE
  8
LC-003-003-----0
  6
CONTINUOUS
  5
231
 10
427.545267
 20
252.701424
 30
0.0
 11
431.2
 21
224.940968
 31
0.0
  0
LINE
  8
LC-003-003-----0
  6
CONTINUOUS
  5
232
 10
431.2
 20
224.940968
 30
0.0
 11
434.854733
 21
252.701424
 31
0.0
  0
LINE
  8
LC-003-003-----0
  6
CONTINUOUS
  5
233
 10
434.854733
 20
252.701424
 30
0.0
 11
427.545267
 21
252.701424
 31
0.0
  0
LINE
  8
LC-003-003-----0
  6
CONTINUOUS
  5
234
 10
428.495497
 20
252.763705
 30
0.0
 11
431.2
 21
232.220968
 31
0.0
  0
LINE
  8
LC-003-003-----0
  6
CONTINUOUS
  5
235
 10
431.2
 20
232.220968
 30
0.0
 11
433.904503
 21
252.763705
 31
0.0
  0
LINE
  8
LC-003-003-----0
  6
CONTINUOUS
  5
236
 10
429.445728
 20
252.825986
 30
0.0
 11
431.2
 21
239.500968
 31
0.0
  0
LINE
  8
LC-003-003-----0
  6
CONTINUOUS
  5
237
 10
431.2
 20
239.500968
 30
0.0
 11
432.954272
 21
252.825986
 31
0.0
  0
LINE
  8
LC-003-003-----0
  6
CONTINUOUS
  5
238
 10
430.395959
 20
252.888268
 30
0.0
 11
431.2
 21
246.780968
 31
0.0
  0
LINE
  8
LC-003-003-----0
  6
CONTINUOUS
  5
239
 10
431.2
 20
246.780968
 30
0.0
 11
432.004041
 21
252.888268
 31
0.0
  0
LINE
  8
LC-005-003-MTG-0
  6
CONTINUOUS
  5
23A
 10
431.2
 20
162.740968
 30
0.0
 11
431.2
 21
308.305368
 31
0.0
  0
TEXT
  8
LC-003-003-----0
  6
CONTINUOUS
 62
     8
  5
23B
 10
423.372446
 20
267.369127
 30
0.0
 40
28.0
  1
23
 50
90.0
 51
15.0
  7
LC-TXTSTYLE-150-400-0-0-D0
  0
ENDBLK
  8
0
  5
23C
  0
BLOCK
  8
0
  5
23E
  2
*D52
 70
    65
 10
0.0
 20
0.0
 30
0.0
  3
*D52
  0
LINE
  8
LC-004-003-MTH-0
  6
CONTINUOUS
  5
23F
 10
378.869926
 20
224.940968
 30
0.0
 11
487.2
 21
224.940968
 31
0.0
  0
LINE
  8
LC-004-003-MTH-0
  6
CONTINUOUS
  5
240
 10
409.169926
 20
406.940968
 30
0.0
 11
487.2
 21
406.940968
 31
0.0
  0
LINE
  8
LC-005-003-MTG-0
  6
CONTINUOUS
  5
241
 10
470.4
 20
224.940968
 30
0.0
 11
470.4
 21
406.940968
 31
0.0
  0
LINE
  8
LC-003-003-----0
  6
CONTINUOUS
  5
242
 10
466.745267
 20
252.701424
 30
0.0
 11
470.4
 21
224.940968
 31
0.0
  0
LINE
  8
LC-003-003-----0
  6
CONTINUOUS
  5
243
 10
470.4
 20
224.940968
 30
0.0
 11
474.054733
 21
252.701424
 31
0.0
  0
LINE
  8
LC-003-003-----0
  6
CONTINUOUS
  5
244
 10
474.054733
 20
252.701424
 30
0.0
 11
466.745267
 21
252.701424
 31
0.0
  0
LINE
  8
LC-003-003-----0
  6
CONTINUOUS
  5
245
 10
467.695497
 20
252.763705
 30
0.0
 11
470.4
 21
232.220968
 31
0.0
  0
LINE
  8
LC-003-003-----0
  6
CONTINUOUS
  5
246
 10
470.4
 20
232.220968
 30
0.0
 11
473.104503
 21
252.763705
 31
0.0
  0
LINE
  8
LC-003-003-----0
  6
CONTINUOUS
  5
247
 10
468.645728
 20
252.825986
 30
0.0
 11
470.4
 21
239.500968
 31
0.0
  0
LINE
  8
LC-003-003-----0
  6
CONTINUOUS
  5
248
 10
470.4
 20
239.500968
 30
0.0
 11
472.154272
 21
252.825986
 31
0.0
  0
LINE
  8
LC-003-003-----0
  6
CONTINUOUS
  5
249
 10
469.595959
 20
252.888268
 30
0.0
 11
470.4
 21
246.780968
 31
0.0
  0
LINE
  8
LC-003-003-----0
  6
CONTINUOUS
  5
24A
 10
470.4
 20
246.780968
 30
0.0
 11
471.204041
 21
252.888268
 31
0.0
  0
LINE
  8
LC-003-003-----0
  6
CONTINUOUS
  5
24B
 10
474.054733
 20
379.180511
 30
0.0
 11
470.4
 21
406.940968
 31
0.0
  0
LINE
  8
LC-003-003-----0
  6
CONTINUOUS
  5
24C
 10
470.4
 20
406.940968
 30
0.0
 11
466.745267
 21
379.180511
 31
0.0
  0
LINE
  8
LC-003-003-----0
  6
CONTINUOUS
  5
24D
 10
466.745267
 20
379.180511
 30
0.0
 11
474.054733
 21
379.180511
 31
0.0
  0
LINE
  8
LC-003-003-----0
  6
CONTINUOUS
  5
24E
 10
473.104503
 20
379.11823
 30
0.0
 11
470.4
 21
399.660968
 31
0.0
  0
LINE
  8
LC-003-003-----0
  6
CONTINUOUS
  5
24F
 10
470.4
 20
399.660968
 30
0.0
 11
467.695497
 21
379.11823
 31
0.0
  0
LINE
  8
LC-003-003-----0
  6
CONTINUOUS
  5
250
 10
472.154272
 20
379.055949
 30
0.0
 11
470.4
 21
392.380968
 31
0.0
  0
LINE
  8
LC-003-003-----0
  6
CONTINUOUS
  5
251
 10
470.4
 20
392.380968
 30
0.0
 11
468.645728
 21
379.055949
 31
0.0
  0
LINE
  8
LC-003-003-----0
  6
CONTINUOUS
  5
252
 10
471.204041
 20
378.993667
 30
0.0
 11
470.4
 21
385.100968
 31
0.0
  0
LINE
  8
LC-003-003-----0
  6
CONTINUOUS
  5
253
 10
470.4
 20
385.100968
 30
0.0
 11
469.595959
 21
378.993667
 31
0.0
  0
TEXT
  8
LC-003-003-----0
  6
CONTINUOUS
 62
     8
  5
254
 10
462.572446
 20
255.304876
 30
0.0
 40
28.0
  1
13-182
 50
90.0
 51
15.0
  7
LC-TXTSTYLE-150-400-0-0-D0
 72
     1
 11
462.572446
 21
320.289127
 31
0.0
  0
ENDBLK
  8
0
  5
255
  0
ENDSEC
  0
SECTION
  2
ENTITIES
  0
VIEWPORT
  8
LC-000
  5
361
 67
     1
 68
     1
 10
420.0
 20
297.0
 30
0.0
 40
840.0
 41
594.0
 69
     1
1001
ACAD
1000
MVIEW
1002
{
1070
    16
1010
0.0
1020
0.0
1030
0.0
1010
0.0
1020
0.0
1030
1.0
1040
0.0
1040
594.0
1040
420.0
1040
297.0
1040
50.0
1040
0.0
1040
0.0
1070
     0
1070
   100
1070
     1
1070
     1
1070
     0
1070
     0
1070
     0
1070
     0
1040
0.0
1040
0.0
1040
0.0
1040
1.0
1040
1.0
1040
0.0
1040
0.0
1070
     0
1002
{
1002
}
1002
}
  0
VIEWPORT
  8
0
  5
362
 67
     1
 68
     1
 10
0.0
 20
0.0
 30
0.0
 40
0.0
 41
0.0
 69
     1
1001
ACAD
1000
MVIEW
1002
{
1070
    16
1010
0.0
1020
0.0
1030
0.0
1010
0.0
1020
0.0
1030
1.0
1040
0.0
1040
594.0
1040
0.0
1040
0.0
1040
50.0
1040
0.0
1040
0.0
1070
     0
1070
   100
1070
     0
1070
     1
1070
     0
1070
     0
1070
     0
1070
     0
1040
0.0
1040
0.0
1040
0.0
1040
0.5
1040
0.5
1040
0.5
1040
0.5
1070
     0
1002
{
1002
}
1002
}
  0
INSERT
  8
0
  5
256
  2
*X0
 10
378.869926
 20
201.940968
 30
0.0
  0
INSERT
  8
0
  5
257
  2
*X1
 10
209.169926
 20
201.940968
 30
0.0
  0
DIMENSION
  8
0
  5
258
  2
*D2
 10
309.169926
 20
156.8
 30
0.0
 11
309.169926
 21
156.8
 31
0.0
  1
%%c<>
 13
236.669926
 23
207.440968
 33
0.0
 14
381.669926
 24
207.440968
 34
0.0
  3
LC-DIM-L-0140-02-02
  0
INSERT
  8
0
  5
25A
  2
BLK1
 10
0.0
 20
0.0
 30
0.0
  0
INSERT
  8
0
  5
25B
  2
BLK2
 10
0.0
 20
0.0
 30
0.0
  0
INSERT
  8
0
  5
25C
  2
BLK3
 10
0.0
 20
0.0
 30
0.0
  0
INSERT
  8
0
  5
25D
  2
BLK4
 10
0.0
 20
0.0
 30
0.0
  0
INSERT
  8
0
  5
25E
  2
BLK5
 10
0.0
 20
0.0
 30
0.0
  0
INSERT
  8
0
  5
25F
  2
BLK6
 10
0.0
 20
0.0
 30
0.0
  0
INSERT
  8
0
  5
260
  2
BLK7
 10
0.0
 20
0.0
 30
0.0
  0
INSERT
  8
0
  5
261
  2
BLK8
 10
0.0
 20
0.0
 30
0.0
  0
INSERT
  8
0
  5
262
  2
BLK9
 10
0.0
 20
0.0
 30
0.0
  0
INSERT
  8
0
  5
263
  2
BLK10
 10
0.0
 20
0.0
 30
0.0
  0
INSERT
  8
0
  5
264
  2
BLK11
 10
0.0
 20
0.0
 30
0.0
  0
INSERT
  8
0
  5
265
  2
BLK12
 10
0.0
 20
0.0
 30
0.0
  0
INSERT
  8
0
  5
266
  2
BLK13
 10
0.0
 20
0.0
 30
0.0
  0
INSERT
  8
0
  5
267
  2
BLK14
 10
0.0
 20
0.0
 30
0.0
  0
INSERT
  8
0
  5
268
  2
BLK15
 10
0.0
 20
0.0
 30
0.0
  0
INSERT
  8
0
  5
269
  2
BLK16
 10
0.0
 20
0.0
 30
0.0
  0
INSERT
  8
0
  5
26A
  2
BLK17
 10
0.0
 20
0.0
 30
0.0
  0
INSERT
  8
0
  5
26B
  2
BLK18
 10
0.0
 20
0.0
 30
0.0
  0
INSERT
  8
0
  5
26C
  2
BLK19
 10
0.0
 20
0.0
 30
0.0
  0
INSERT
  8
0
  5
26D
  2
BLK20
 10
0.0
 20
0.0
 30
0.0
  0
INSERT
  8
0
  5
26E
  2
BLK21
 10
0.0
 20
0.0
 30
0.0
  0
INSERT
  8
0
  5
26F
  2
BLK22
 10
0.0
 20
0.0
 30
0.0
  0
INSERT
  8
0
  5
270
  2
BLK23
 10
0.0
 20
0.0
 30
0.0
  0
INSERT
  8
0
  5
271
  2
BLK24
 10
0.0
 20
0.0
 30
0.0
  0
INSERT
  8
0
  5
272
  2
BLK25
 10
0.0
 20
0.0
 30
0.0
  0
INSERT
  8
0
  5
273
  2
BLK26
 10
0.0
 20
0.0
 30
0.0
  0
INSERT
  8
0
  5
274
  2
BLK27
 10
0.0
 20
0.0
 30
0.0
  0
INSERT
  8
0
  5
275
  2
BLK28
 10
0.0
 20
0.0
 30
0.0
  0
INSERT
  8
0
  5
276
  2
BLK29
 10
0.0
 20
0.0
 30
0.0
  0
INSERT
  8
0
  5
277
  2
BLK30
 10
0.0
 20
0.0
 30
0.0
  0
INSERT
  8
0
  5
278
  2
*X33
 10
293.170133
 20
401.940968
 30
0.0
  0
INSERT
  8
0
  5
279
  2
*X34
 10
275.170143
 20
401.940968
 30
0.0
  0
INSERT
  8
0
  5
27A
  2
*X35
 10
257.170154
 20
401.940968
 30
0.0
  0
INSERT
  8
0
  5
27B
  2
*X36
 10
238.170164
 20
401.940968
 30
0.0
  0
INSERT
  8
0
  5
27C
  2
*X37
 10
214.169926
 20
401.940968
 30
0.0
  0
INSERT
  8
0
  5
27D
  2
*X38
 10
309.169926
 20
401.940968
 30
0.0
  0
INSERT
  8
0
  5
27E
  2
*X39
 10
333.16972
 20
401.940968
 30
0.0
  0
INSERT
  8
0
  5
27F
  2
*X40
 10
351.169709
 20
401.940968
 30
0.0
  0
INSERT
  8
0
  5
280
  2
*X41
 10
369.169699
 20
401.940968
 30
0.0
  0
INSERT
  8
0
  5
281
  2
*X42
 10
388.169689
 20
401.940968
 30
0.0
  0
DIMENSION
  8
0
  5
282
  2
*D43
 10
309.169926
 20
431.2
 30
0.0
 11
309.169926
 21
431.2
 31
0.0
 13
209.169926
 23
406.940968
 33
0.0
 14
409.169926
 24
406.940968
 34
0.0
  3
LC-DIM-L-0140-02-02
  0
INSERT
  8
0
  5
283
  2
BLK31
 10
0.0
 20
0.0
 30
0.0
  0
INSERT
  8
0
  5
284
  2
BLK32
 10
0.0
 20
0.0
 30
0.0
  0
INSERT
  8
0
  5
285
  2
BLK33
 10
0.0
 20
0.0
 30
0.0
  0
INSERT
  8
0
  5
286
  2
BLK34
 10
0.0
 20
0.0
 30
0.0
  0
DIMENSION
  8
0
  5
287
  2
*D48
 10
196.0
 20
400.190968
 30
0.0
 11
196.0
 21
400.190968
 31
0.0
  1
14
 13
209.169926
 23
406.940968
 33
0.0
 14
209.169926
 24
393.440968
 34
0.0
 50
90.0
  3
LC-DIM-L-0140-02-02
  0
INSERT
  8
0
  5
288
  2
*X49
 10
239.469926
 20
201.940968
 30
0.0
  0
INSERT
  8
0
  5
289
  2
*X50
 10
309.169926
 20
201.940968
 30
0.0
  0
DIMENSION
  8
0
  5
28A
  2
*D51
 10
431.2
 20
213.440968
 30
0.0
 11
431.2
 21
213.440968
 31
0.0
 13
378.869926
 23
201.940968
 33
0.0
 14
378.869926
 24
224.940968
 34
0.0
 50
90.0
  3
LC-DIM-L-0140-02-02
  0
DIMENSION
  8
0
  5
28B
  2
*D52
 10
470.4
 20
315.940968
 30
0.0
 11
470.4
 21
315.940968
 31
0.0
  1
13-182
 13
378.869926
 23
224.940968
 33
0.0
 14
409.169926
 24
406.940968
 34
0.0
 50
90.0
  3
LC-DIM-L-0140-02-02
  0
LINE
  8
LC-001-002-----0
  6
CONTINUOUS
  5
28D
 10
378.869926
 20
395.940968
 30
0.0
 11
378.869926
 21
201.940968
 31
0.0
  0
LINE
  8
LC-001-002-----0
  6
CONTINUOUS
  5
28E
 10
236.669926
 20
388.940968
 30
0.0
 11
236.669926
 21
207.440968
 31
0.0
  0
LINE
  8
LC-001-002-----0
  6
CONTINUOUS
  5
28F
 10
236.669926
 20
207.440968
 30
0.0
 11
238.143647
 21
201.940968
 31
0.0
  0
LINE
  8
LC-001-002-----0
  6
CONTINUOUS
  5
290
 10
239.469926
 20
395.940968
 30
0.0
 11
239.469926
 21
201.940968
 31
0.0
  0
LINE
  8
LC-001-002-----0
  6
CONTINUOUS
  5
291
 10
381.669926
 20
388.940968
 30
0.0
 11
381.669926
 21
207.440968
 31
0.0
  0
LINE
  8
LC-001-002-----0
  6
CONTINUOUS
  5
292
 10
214.169926
 20
406.940968
 30
0.0
 11
404.170173
 21
406.940968
 31
0.0
  0
LINE
  8
LC-001-002-----0
  6
CONTINUOUS
  5
293
 10
381.669926
 20
207.440968
 30
0.0
 11
380.196206
 21
201.940968
 31
0.0
  0
LINE
  8
LC-001-002-----0
  6
CONTINUOUS
  5
294
 10
404.169926
 20
401.940968
 30
0.0
 11
404.169926
 21
404.940968
 31
0.0
  0
LINE
  8
LC-001-002-----0
  6
DASHDOT
 62
     2
  5
296
 10
309.169926
 20
201.940968
 30
0.0
 11
309.169926
 21
406.940968
 31
0.0
  0
LINE
  8
LC-001-002-----0
  6
CONTINUOUS
  5
297
 10
409.169926
 20
404.940968
 30
0.0
 11
409.169926
 21
393.440968
 31
0.0
  0
LINE
  8
LC-001-002-----0
  6
CONTINUOUS
  5
298
 10
409.169926
 20
393.440968
 30
0.0
 11
384.169926
 21
393.440968
 31
0.0
  0
LINE
  8
LC-001-002-----0
  6
CONTINUOUS
  5
299
 10
384.169926
 20
393.440968
 30
0.0
 11
384.169926
 21
388.940968
 31
0.0
  0
LINE
  8
LC-001-002-----0
  6
CONTINUOUS
  5
29A
 10
384.169926
 20
388.940968
 30
0.0
 11
381.669926
 21
388.940968
 31
0.0
  0
LINE
  8
LC-001-002-----0
  6
CONTINUOUS
  5
29B
 10
383.777643
 20
395.940968
 30
0.0
 11
378.869926
 21
395.940968
 31
0.0
  0
LINE
  8
LC-001-002-----0
  6
CONTINUOUS
  5
29C
 10
394.169926
 20
401.940968
 30
0.0
 11
383.777643
 21
395.940968
 31
0.0
  0
LINE
  8
LC-001-002-----0
  6
CONTINUOUS
  5
29D
 10
481.669926
 20
301.940968
 30
0.0
 11
481.669926
 21
401.940968
 31
0.0
  0
LINE
  8
LC-001-002-----0
  6
CONTINUOUS
  5
29E
 10
409.169926
 20
404.940968
 30
0.0
 11
409.169926
 21
406.940968
 31
0.0
  0
LINE
  8
LC-001-002-----0
  6
CONTINUOUS
  5
29F
 10
404.169926
 20
406.940968
 30
0.0
 11
404.169926
 21
404.940968
 31
0.0
  0
LINE
  8
LC-001-002-----0
  6
CONTINUOUS
  5
2A0
 10
409.169926
 20
406.940968
 30
0.0
 11
404.169926
 21
406.940968
 31
0.0
  0
LINE
  8
LC-001-002-----0
  6
CONTINUOUS
  5
2A1
 10
481.669926
 20
401.940968
 30
0.0
 11
681.669926
 21
401.940968
 31
0.0
  0
LINE
  8
LC-001-002-----0
  6
CONTINUOUS
  5
2A2
 10
681.669926
 20
401.940968
 30
0.0
 11
681.669926
 21
201.940968
 31
0.0
  0
LINE
  8
LC-001-002-----0
  6
CONTINUOUS
  5
2A3
 10
681.669926
 20
201.940968
 30
0.0
 11
481.669926
 21
201.940968
 31
0.0
  0
LINE
  8
LC-001-002-----0
  6
CONTINUOUS
  5
2A4
 10
481.669926
 20
201.940968
 30
0.0
 11
481.669926
 21
301.940968
 31
0.0
  0
LINE
  8
LC-001-002-----0
  6
CONTINUOUS
  5
2A5
 10
486.669926
 20
301.940968
 30
0.0
 11
486.669926
 21
396.940968
 31
0.0
  0
LINE
  8
LC-001-002-----0
  6
CONTINUOUS
  5
2A6
 10
486.669926
 20
396.940968
 30
0.0
 11
676.669926
 21
396.940968
 31
0.0
  0
LINE
  8
LC-001-002-----0
  6
CONTINUOUS
  5
2A7
 10
676.669926
 20
396.940968
 30
0.0
 11
676.669926
 21
206.940968
 31
0.0
  0
LINE
  8
LC-001-002-----0
  6
CONTINUOUS
  5
2A8
 10
676.669926
 20
206.940968
 30
0.0
 11
486.669926
 21
206.940968
 31
0.0
  0
LINE
  8
LC-001-002-----0
  6
CONTINUOUS
  5
2A9
 10
486.669926
 20
206.940968
 30
0.0
 11
486.669926
 21
301.940968
 31
0.0
  0
ARC
  8
LC-001-002-----0
  6
CONTINUOUS
  5
2AA
 10
637.669926
 20
341.940968
 30
0.0
 40
4.0
 50
0.0
 51
179.999829
  0
ARC
  8
LC-001-002-----0
  6
CONTINUOUS
  5
2AB
 10
656.669926
 20
357.940968
 30
0.0
 40
4.0
 50
0.0
 51
179.999829
  0
ARC
  8
LC-001-002-----0
  6
CONTINUOUS
  5
2AC
 10
601.669926
 20
309.940968
 30
0.0
 40
4.0
 50
0.0
 51
179.999829
  0
ARC
  8
LC-001-002-----0
  6
CONTINUOUS
  5
2AD
 10
619.669926
 20
325.940968
 30
0.0
 40
4.0
 50
0.0
 51
179.999829
  0
LINE
  8
LC-001-002-----0
  6
CONTINUOUS
  5
2AE
 10
652.669926
 20
357.940968
 30
0.0
 11
652.669926
 21
301.940968
 31
0.0
  0
LINE
  8
LC-001-002-----0
  6
CONTINUOUS
  5
2AF
 10
660.669926
 20
357.940968
 30
0.0
 11
660.669926
 21
301.940968
 31
0.0
  0
LINE
  8
LC-001-002-----0
  6
CONTINUOUS
  5
2B0
 10
633.669926
 20
341.940968
 30
0.0
 11
633.669926
 21
301.940968
 31
0.0
  0
LINE
  8
LC-001-002-----0
  6
CONTINUOUS
  5
2B1
 10
238.163802
 20
201.940968
 30
0.0
 11
380.196206
 21
201.940968
 31
0.0
  0
LINE
  8
LC-001-002-----0
  6
CONTINUOUS
  5
2B2
 10
378.869926
 20
395.940968
 30
0.0
 11
239.469926
 21
395.940968
 31
0.0
  0
LINE
  8
LC-001-002-----0
  6
CONTINUOUS
  5
2B3
 10
214.169926
 20
401.940968
 30
0.0
 11
214.169926
 21
404.940968
 31
0.0
  0
LINE
  8
LC-001-002-----0
  6
CONTINUOUS
  5
2B4
 10
209.169926
 20
404.940968
 30
0.0
 11
209.169926
 21
393.440968
 31
0.0
  0
LINE
  8
LC-001-002-----0
  6
CONTINUOUS
  5
2B5
 10
209.169926
 20
393.440968
 30
0.0
 11
234.169926
 21
393.440968
 31
0.0
  0
LINE
  8
LC-001-002-----0
  6
CONTINUOUS
  5
2B6
 10
234.169926
 20
393.440968
 30
0.0
 11
234.169926
 21
388.940968
 31
0.0
  0
LINE
  8
LC-001-002-----0
  6
CONTINUOUS
  5
2B7
 10
234.169926
 20
388.940968
 30
0.0
 11
236.669926
 21
388.940968
 31
0.0
  0
LINE
  8
LC-001-002-----0
  6
CONTINUOUS
  5
2B8
 10
234.56221
 20
395.940968
 30
0.0
 11
239.469926
 21
395.940968
 31
0.0
  0
LINE
  8
LC-001-002-----0
  6
CONTINUOUS
  5
2B9
 10
214.169926
 20
401.940968
 30
0.0
 11
404.169926
 21
401.940968
 31
0.0
  0
LINE
  8
LC-001-002-----0
  6
CONTINUOUS
  5
2BA
 10
224.169926
 20
401.940968
 30
0.0
 11
234.56221
 21
395.940968
 31
0.0
  0
LINE
  8
LC-001-002-----0
  6
CONTINUOUS
  5
2BB
 10
209.169926
 20
404.940968
 30
0.0
 11
209.169926
 21
406.940968
 31
0.0
  0
LINE
  8
LC-001-002-----0
  6
CONTINUOUS
  5
2BC
 10
214.169926
 20
406.940968
 30
0.0
 11
214.169926
 21
404.940968
 31
0.0
  0
LINE
  8
LC-001-002-----0
  6
CONTINUOUS
  5
2BD
 10
209.169926
 20
406.940968
 30
0.0
 11
214.169926
 21
406.940968
 31
0.0
  0
LINE
  8
LC-001-002-----0
  6
CONTINUOUS
 62
     2
  5
2BE
 10
264.930755
 20
456.342
 30
0.0
 11
279.930755
 21
456.342
 31
0.0
  0
LINE
  8
LC-001-002-----0
  6
CONTINUOUS
  5
2BF
 10
641.669926
 20
341.940968
 30
0.0
 11
641.669926
 21
301.940968
 31
0.0
  0
LINE
  8
LC-001-002-----0
  6
CONTINUOUS
  5
2C0
 10
230.170164
 20
401.940968
 30
0.0
 11
230.170164
 21
406.940968
 31
0.0
  0
LINE
  8
LC-001-002-----0
  6
CONTINUOUS
  5
2C1
 10
615.669926
 20
325.940968
 30
0.0
 11
615.669926
 21
301.940968
 31
0.0
  0
LINE
  8
LC-001-002-----0
  6
CONTINUOUS
  5
2C2
 10
623.669926
 20
325.940968
 30
0.0
 11
623.669926
 21
301.940968
 31
0.0
  0
LINE
  8
LC-001-002-----0
  6
CONTINUOUS
  5
2C3
 10
597.669926
 20
309.940968
 30
0.0
 11
597.669926
 21
301.940968
 31
0.0
  0
LINE
  8
LC-001-002-----0
  6
CONTINUOUS
  5
2C4
 10
605.669926
 20
309.940968
 30
0.0
 11
605.669926
 21
301.940968
 31
0.0
  0
ARC
  8
LC-001-002-----0
  6
CONTINUOUS
  5
2C5
 10
637.668081
 20
261.937674
 30
0.0
 40
4.0
 50
179.999925
 51
359.999696
  0
ARC
  8
LC-001-002-----0
  6
CONTINUOUS
  5
2C6
 10
656.667996
 20
245.937573
 30
0.0
 40
4.0
 50
179.999925
 51
359.999696
  0
ARC
  8
LC-001-002-----0
  6
CONTINUOUS
  5
2C7
 10
601.66825
 20
293.937865
 30
0.0
 40
4.0
 50
179.999925
 51
359.999696
  0
ARC
  8
LC-001-002-----0
  6
CONTINUOUS
  5
2C8
 10
619.668165
 20
277.93777
 30
0.0
 40
4.0
 50
179.999925
 51
359.999696
  0
LINE
  8
LC-001-002-----0
  6
CONTINUOUS
  5
2C9
 10
652.667996
 20
245.937595
 30
0.0
 11
652.668293
 21
301.937595
 31
0.0
  0
LINE
  8
LC-001-002-----0
  6
CONTINUOUS
  5
2CA
 10
660.667996
 20
245.937552
 30
0.0
 11
660.668293
 21
301.937552
 31
0.0
  0
LINE
  8
LC-001-002-----0
  6
CONTINUOUS
  5
2CB
 10
633.668081
 20
261.937695
 30
0.0
 11
633.668293
 21
301.937695
 31
0.0
  0
LINE
  8
LC-001-002-----0
  6
CONTINUOUS
  5
2CC
 10
641.668081
 20
261.937653
 30
0.0
 11
641.668293
 21
301.937653
 31
0.0
  0
LINE
  8
LC-001-002-----0
  6
CONTINUOUS
  5
2CD
 10
615.668165
 20
277.937791
 30
0.0
 11
615.668293
 21
301.937791
 31
0.0
  0
LINE
  8
LC-001-002-----0
  6
CONTINUOUS
  5
2CE
 10
623.668165
 20
277.937748
 30
0.0
 11
623.668293
 21
301.937748
 31
0.0
  0
LINE
  8
LC-001-002-----0
  6
CONTINUOUS
  5
2CF
 10
597.66825
 20
293.937886
 30
0.0
 11
597.668293
 21
301.937886
 31
0.0
  0
LINE
  8
LC-001-002-----0
  6
CONTINUOUS
  5
2D0
 10
605.66825
 20
293.937844
 30
0.0
 11
605.668293
 21
301.937844
 31
0.0
  0
ARC
  8
LC-001-002-----0
  6
CONTINUOUS
  5
2D1
 10
525.670154
 20
341.941373
 30
0.0
 40
4.0
 50
0.000115
 51
179.999963
  0
ARC
  8
LC-001-002-----0
  6
CONTINUOUS
  5
2D2
 10
506.670164
 20
357.941386
 30
0.0
 40
4.0
 50
0.000115
 51
179.999963
  0
ARC
  8
LC-001-002-----0
  6
CONTINUOUS
  5
2D3
 10
561.670133
 20
309.94135
 30
0.0
 40
4.0
 50
0.000115
 51
179.999963
  0
ARC
  8
LC-001-002-----0
  6
CONTINUOUS
  5
2D4
 10
543.670143
 20
325.941361
 30
0.0
 40
4.0
 50
0.000115
 51
179.999963
  0
LINE
  8
LC-001-002-----0
  6
CONTINUOUS
  5
2D5
 10
510.670164
 20
357.941383
 30
0.0
 11
510.670127
 21
301.941383
 31
0.0
  0
LINE
  8
LC-001-002-----0
  6
CONTINUOUS
  5
2D6
 10
502.670164
 20
357.941388
 30
0.0
 11
502.670127
 21
301.941388
 31
0.0
  0
LINE
  8
LC-001-002-----0
  6
CONTINUOUS
  5
2D7
 10
529.670154
 20
341.941371
 30
0.0
 11
529.670127
 21
301.941371
 31
0.0
  0
LINE
  8
LC-001-002-----0
  6
CONTINUOUS
  5
2D8
 10
521.670154
 20
341.941376
 30
0.0
 11
521.670127
 21
301.941376
 31
0.0
  0
LINE
  8
LC-001-002-----0
  6
CONTINUOUS
  5
2D9
 10
547.670143
 20
325.941359
 30
0.0
 11
547.670127
 21
301.941359
 31
0.0
  0
LINE
  8
LC-001-002-----0
  6
CONTINUOUS
  5
2DA
 10
539.670143
 20
325.941364
 30
0.0
 11
539.670127
 21
301.941364
 31
0.0
  0
LINE
  8
LC-001-002-----0
  6
CONTINUOUS
  5
2DB
 10
565.670133
 20
309.941347
 30
0.0
 11
565.670127
 21
301.941347
 31
0.0
  0
LINE
  8
LC-001-002-----0
  6
CONTINUOUS
  5
2DC
 10
557.670133
 20
309.941352
 30
0.0
 11
557.670127
 21
301.941352
 31
0.0
  0
ARC
  8
LC-001-002-----0
  6
CONTINUOUS
  5
2DD
 10
525.671947
 20
261.93808
 30
0.0
 40
4.0
 50
180.000267
 51
359.999944
  0
ARC
  8
LC-001-002-----0
  6
CONTINUOUS
  5
2DE
 10
506.672022
 20
245.937991
 30
0.0
 40
4.0
 50
180.000267
 51
359.999944
  0
ARC
  8
LC-001-002-----0
  6
CONTINUOUS
  5
2DF
 10
561.671798
 20
293.938247
 30
0.0
 40
4.0
 50
180.000267
 51
359.999944
  0
ARC
  8
LC-001-002-----0
  6
CONTINUOUS
  5
2E0
 10
543.671873
 20
277.938164
 30
0.0
 40
4.0
 50
180.000267
 51
359.999944
  0
LINE
  8
LC-001-002-----0
  6
CONTINUOUS
  5
2E1
 10
510.672022
 20
245.93801
 30
0.0
 11
510.671761
 21
301.93801
 31
0.0
  0
LINE
  8
LC-001-002-----0
  6
CONTINUOUS
  5
2E2
 10
502.672022
 20
245.937973
 30
0.0
 11
502.671761
 21
301.937973
 31
0.0
  0
LINE
  8
LC-001-002-----0
  6
CONTINUOUS
  5
2E3
 10
529.671947
 20
261.938098
 30
0.0
 11
529.671761
 21
301.938098
 31
0.0
  0
LINE
  8
LC-001-002-----0
  6
CONTINUOUS
  5
2E4
 10
521.671947
 20
261.938061
 30
0.0
 11
521.671761
 21
301.938061
 31
0.0
  0
LINE
  8
LC-001-002-----0
  6
CONTINUOUS
  5
2E5
 10
547.671873
 20
277.938182
 30
0.0
 11
547.671761
 21
301.938182
 31
0.0
  0
LINE
  8
LC-001-002-----0
  6
CONTINUOUS
  5
2E6
 10
539.671873
 20
277.938145
 30
0.0
 11
539.671761
 21
301.938145
 31
0.0
  0
LINE
  8
LC-001-002-----0
  6
CONTINUOUS
  5
2E7
 10
565.671798
 20
293.938266
 30
0.0
 11
565.671761
 21
301.938266
 31
0.0
  0
LINE
  8
LC-001-002-----0
  6
CONTINUOUS
  5
2E8
 10
557.671798
 20
293.938229
 30
0.0
 11
557.671761
 21
301.938229
 31
0.0
  0
ARC
  8
LC-001-002-----0
  6
CONTINUOUS
  5
2E9
 10
541.670001
 20
357.941021
 30
0.0
 40
4.0
 50
89.999924
 51
269.999753
  0
ARC
  8
LC-001-002-----0
  6
CONTINUOUS
  5
2EA
 10
525.670026
 20
376.941042
 30
0.0
 40
4.0
 50
89.999924
 51
269.999753
  0
ARC
  8
LC-001-002-----0
  6
CONTINUOUS
  5
2EB
 10
573.669953
 20
321.940978
 30
0.0
 40
4.0
 50
89.999924
 51
269.999753
  0
ARC
  8
LC-001-002-----0
  6
CONTINUOUS
  5
2EC
 10
557.669977
 20
339.940999
 30
0.0
 40
4.0
 50
89.999924
 51
269.999753
  0
LINE
  8
LC-001-002-----0
  6
CONTINUOUS
  5
2ED
 10
525.670021
 20
372.941042
 30
0.0
 11
581.670021
 21
372.940968
 31
0.0
  0
LINE
  8
LC-001-002-----0
  6
CONTINUOUS
  5
2EE
 10
525.670031
 20
380.941042
 30
0.0
 11
581.670031
 21
380.940968
 31
0.0
  0
LINE
  8
LC-001-002-----0
  6
CONTINUOUS
  5
2EF
 10
541.669995
 20
353.941021
 30
0.0
 11
581.669995
 21
353.940968
 31
0.0
  0
LINE
  8
LC-001-002-----0
  6
CONTINUOUS
  5
2F0
 10
541.670006
 20
361.941021
 30
0.0
 11
581.670006
 21
361.940968
 31
0.0
  0
LINE
  8
LC-001-002-----0
  6
CONTINUOUS
  5
2F1
 10
557.669971
 20
335.940999
 30
0.0
 11
581.669971
 21
335.940968
 31
0.0
  0
LINE
  8
LC-001-002-----0
  6
CONTINUOUS
  5
2F2
 10
557.669982
 20
343.940999
 30
0.0
 11
581.669982
 21
343.940968
 31
0.0
  0
LINE
  8
LC-001-002-----0
  6
CONTINUOUS
  5
2F3
 10
573.669948
 20
317.940978
 30
0.0
 11
581.669948
 21
317.940968
 31
0.0
  0
LINE
  8
LC-001-002-----0
  6
CONTINUOUS
  5
2F4
 10
573.669958
 20
325.940978
 30
0.0
 11
581.669958
 21
325.940968
 31
0.0
  0
ARC
  8
LC-001-002-----0
  6
CONTINUOUS
  5
2F5
 10
621.673294
 20
357.939069
 30
0.0
 40
4.0
 50
269.999791
 51
89.99962
  0
ARC
  8
LC-001-002-----0
  6
CONTINUOUS
  5
2F6
 10
637.67342
 20
376.938963
 30
0.0
 40
4.0
 50
269.999791
 51
89.99962
  0
ARC
  8
LC-001-002-----0
  6
CONTINUOUS
  5
2F7
 10
589.673055
 20
321.939281
 30
0.0
 40
4.0
 50
269.999791
 51
89.99962
  0
ARC
  8
LC-001-002-----0
  6
CONTINUOUS
  5
2F8
 10
605.673175
 20
339.939175
 30
0.0
 40
4.0
 50
269.999791
 51
89.99962
  0
LINE
  8
LC-001-002-----0
  6
CONTINUOUS
  5
2F9
 10
637.673393
 20
372.938963
 30
0.0
 11
581.673393
 21
372.939334
 31
0.0
  0
LINE
  8
LC-001-002-----0
  6
CONTINUOUS
  5
2FA
 10
637.673447
 20
380.938963
 30
0.0
 11
581.673447
 21
380.939334
 31
0.0
  0
LINE
  8
LC-001-002-----0
  6
CONTINUOUS
  5
2FB
 10
621.673267
 20
353.939069
 30
0.0
 11
581.673267
 21
353.939334
 31
0.0
  0
LINE
  8
LC-001-002-----0
  6
CONTINUOUS
  5
2FC
 10
621.673321
 20
361.939069
 30
0.0
 11
581.673321
 21
361.939334
 31
0.0
  0
LINE
  8
LC-001-002-----0
  6
CONTINUOUS
  5
2FD
 10
605.673148
 20
335.939175
 30
0.0
 11
581.673148
 21
335.939334
 31
0.0
  0
LINE
  8
LC-001-002-----0
  6
CONTINUOUS
  5
2FE
 10
605.673201
 20
343.939175
 30
0.0
 11
581.673201
 21
343.939334
 31
0.0
  0
LINE
  8
LC-001-002-----0
  6
CONTINUOUS
  5
2FF
 10
589.673029
 20
317.939281
 30
0.0
 11
581.673029
 21
317.939334
 31
0.0
  0
LINE
  8
LC-001-002-----0
  6
CONTINUOUS
  5
300
 10
589.673082
 20
325.939281
 30
0.0
 11
581.673082
 21
325.939334
 31
0.0
  0
ARC
  8
LC-001-002-----0
  6
CONTINUOUS
  5
301
 10
621.67274
 20
245.942935
 30
0.0
 40
4.0
 50
270.000191
 51
90.000078
  0
ARC
  8
LC-001-002-----0
  6
CONTINUOUS
  5
302
 10
637.672803
 20
226.942988
 30
0.0
 40
4.0
 50
270.000191
 51
90.000078
  0
ARC
  8
LC-001-002-----0
  6
CONTINUOUS
  5
303
 10
589.67262
 20
281.942829
 30
0.0
 40
4.0
 50
270.000191
 51
90.000078
  0
ARC
  8
LC-001-002-----0
  6
CONTINUOUS
  5
304
 10
605.67268
 20
263.942882
 30
0.0
 40
4.0
 50
270.000191
 51
90.000078
  0
LINE
  8
LC-001-002-----0
  6
CONTINUOUS
  5
305
 10
637.67279
 20
230.942988
 30
0.0
 11
581.67279
 21
230.942802
 31
0.0
  0
LINE
  8
LC-001-002-----0
  6
CONTINUOUS
  5
306
 10
637.672816
 20
222.942988
 30
0.0
 11
581.672816
 21
222.942802
 31
0.0
  0
LINE
  8
LC-001-002-----0
  6
CONTINUOUS
  5
307
 10
621.672726
 20
249.942935
 30
0.0
 11
581.672726
 21
249.942802
 31
0.0
  0
LINE
  8
LC-001-002-----0
  6
CONTINUOUS
  5
308
 10
621.672753
 20
241.942935
 30
0.0
 11
581.672753
 21
241.942802
 31
0.0
  0
LINE
  8
LC-001-002-----0
  6
CONTINUOUS
  5
309
 10
605.672667
 20
267.942882
 30
0.0
 11
581.672667
 21
267.942802
 31
0.0
  0
LINE
  8
LC-001-002-----0
  6
CONTINUOUS
  5
30A
 10
605.672693
 20
259.942882
 30
0.0
 11
581.672693
 21
259.942802
 31
0.0
  0
LINE
  8
LC-001-002-----0
  6
CONTINUOUS
  5
30B
 10
589.672607
 20
285.942829
 30
0.0
 11
581.672607
 21
285.942802
 31
0.0
  0
LINE
  8
LC-001-002-----0
  6
CONTINUOUS
  5
30C
 10
589.672633
 20
277.942829
 30
0.0
 11
581.672633
 21
277.942802
 31
0.0
  0
ARC
  8
LC-001-002-----0
  6
CONTINUOUS
  5
30D
 10
541.669446
 20
245.941248
 30
0.0
 40
4.0
 50
89.999905
 51
269.999887
  0
ARC
  8
LC-001-002-----0
  6
CONTINUOUS
  5
30E
 10
557.669482
 20
263.941216
 30
0.0
 40
4.0
 50
89.999905
 51
269.999887
  0
LINE
  8
LC-001-002-----0
  6
CONTINUOUS
  5
30F
 10
525.669417
 20
230.94128
 30
0.0
 11
581.669417
 21
230.941169
 31
0.0
  0
LINE
  8
LC-001-002-----0
  6
CONTINUOUS
  5
310
 10
525.669401
 20
222.94128
 30
0.0
 11
581.669401
 21
222.941169
 31
0.0
  0
LINE
  8
LC-001-002-----0
  6
CONTINUOUS
  5
311
 10
541.669454
 20
249.941248
 30
0.0
 11
581.669454
 21
249.941169
 31
0.0
  0
LINE
  8
LC-001-002-----0
  6
CONTINUOUS
  5
312
 10
541.669439
 20
241.941248
 30
0.0
 11
581.669439
 21
241.941169
 31
0.0
  0
LINE
  8
LC-001-002-----0
  6
CONTINUOUS
  5
313
 10
557.66949
 20
267.941216
 30
0.0
 11
581.66949
 21
267.941169
 31
0.0
  0
LINE
  8
LC-001-002-----0
  6
CONTINUOUS
  5
314
 10
557.669474
 20
259.941216
 30
0.0
 11
581.669474
 21
259.941169
 31
0.0
  0
ARC
  8
LC-001-002-----0
  6
CONTINUOUS
  5
315
 10
573.669518
 20
281.941185
 30
0.0
 40
4.0
 50
89.999905
 51
269.999887
  0
LINE
  8
LC-001-002-----0
  6
CONTINUOUS
  5
316
 10
573.669526
 20
285.941185
 30
0.0
 11
581.669526
 21
285.941169
 31
0.0
  0
LINE
  8
LC-001-002-----0
  6
CONTINUOUS
  5
317
 10
573.66951
 20
277.941185
 30
0.0
 11
581.66951
 21
277.941169
 31
0.0
  0
ARC
  8
LC-001-002-----0
  6
CONTINUOUS
  5
318
 10
525.669409
 20
226.94128
 30
0.0
 40
4.0
 50
89.999905
 51
269.999887
  0
CIRCLE
  8
LC-001-002-----0
  6
CONTINUOUS
  5
319
 10
662.6694
 20
382.960806
 30
0.0
 40
4.5
  0
LINE
  8
LC-001-002-----0
  6
CONTINUOUS
  5
31A
 10
665.16952
 20
382.461407
 30
0.0
 11
665.16928
 21
383.461407
 31
0.0
  0
LINE
  8
LC-001-002-----0
  6
CONTINUOUS
  5
31B
 10
665.16928
 20
383.461407
 30
0.0
 11
663.16928
 21
383.460926
 31
0.0
  0
LINE
  8
LC-001-002-----0
  6
CONTINUOUS
  5
31C
 10
660.16928
 20
383.460205
 30
0.0
 11
660.16952
 21
382.460205
 31
0.0
  0
LINE
  8
LC-001-002-----0
  6
CONTINUOUS
  5
31D
 10
660.16952
 20
382.460205
 30
0.0
 11
662.16952
 21
382.460686
 31
0.0
  0
LINE
  8
LC-001-002-----0
  6
CONTINUOUS
  5
31E
 10
663.170001
 20
380.460926
 30
0.0
 11
662.170001
 21
380.460686
 31
0.0
  0
CIRCLE
  8
LC-001-002-----0
  6
CONTINUOUS
  5
31F
 10
500.66464
 20
220.939588
 30
0.0
 40
4.5
  0
LINE
  8
LC-001-002-----0
  6
CONTINUOUS
  5
320
 10
498.164674
 20
221.439758
 30
0.0
 11
498.164607
 21
220.439758
 31
0.0
  0
LINE
  8
LC-001-002-----0
  6
CONTINUOUS
  5
321
 10
498.164607
 20
220.439758
 30
0.0
 11
500.164607
 21
220.439622
 31
0.0
  0
LINE
  8
LC-001-002-----0
  6
CONTINUOUS
  5
322
 10
503.164607
 20
220.439419
 30
0.0
 11
503.164674
 21
221.439419
 31
0.0
  0
LINE
  8
LC-001-002-----0
  6
CONTINUOUS
  5
323
 10
503.164674
 20
221.439419
 30
0.0
 11
501.164674
 21
221.439554
 31
0.0
  0
LINE
  8
LC-001-002-----0
  6
CONTINUOUS
  5
324
 10
500.16481
 20
223.439622
 30
0.0
 11
501.16481
 21
223.439554
 31
0.0
  0
LINE
  8
LC-001-002-----0
  6
CONTINUOUS
  5
325
 10
662.170001
 20
380.460686
 30
0.0
 11
662.16952
 21
382.460686
 31
0.0
  0
LINE
  8
LC-001-002-----0
  6
CONTINUOUS
  5
326
 10
501.16481
 20
223.439554
 30
0.0
 11
501.164674
 21
221.439554
 31
0.0
  0
LINE
  8
LC-001-002-----0
  6
CONTINUOUS
  5
327
 10
501.164471
 20
218.439554
 30
0.0
 11
500.164471
 21
218.439622
 31
0.0
  0
LINE
  8
LC-001-002-----0
  6
CONTINUOUS
 62
     2
  5
328
 10
279.930755
 20
456.342
 30
0.0
 11
279.930755
 21
441.342
 31
0.0
  0
LINE
  8
LC-001-002-----0
  6
CONTINUOUS
  5
329
 10
238.170164
 20
401.940968
 30
0.0
 11
238.170164
 21
406.940968
 31
0.0
  0
LINE
  8
LC-001-002-----0
  6
CONTINUOUS
  5
32A
 10
662.168799
 20
385.460686
 30
0.0
 11
663.168799
 21
385.460926
 31
0.0
  0
LINE
  8
LC-001-002-----0
  6
CONTINUOUS
  5
32B
 10
249.170154
 20
401.940968
 30
0.0
 11
249.170154
 21
406.940968
 31
0.0
  0
LINE
  8
LC-001-002-----0
  6
CONTINUOUS
  5
32C
 10
257.170154
 20
401.940968
 30
0.0
 11
257.170154
 21
406.940968
 31
0.0
  0
LINE
  8
LC-001-002-----0
  6
CONTINUOUS
  5
32D
 10
267.170143
 20
401.940968
 30
0.0
 11
267.170143
 21
406.940968
 31
0.0
  0
LINE
  8
LC-001-002-----0
  6
CONTINUOUS
  5
32E
 10
275.170143
 20
401.940968
 30
0.0
 11
275.170143
 21
406.940968
 31
0.0
  0
LINE
  8
LC-001-002-----0
  6
CONTINUOUS
  5
32F
 10
285.170133
 20
401.940968
 30
0.0
 11
285.170133
 21
406.940968
 31
0.0
  0
LINE
  8
LC-001-002-----0
  6
CONTINUOUS
  5
330
 10
293.170133
 20
401.940968
 30
0.0
 11
293.170133
 21
406.940968
 31
0.0
  0
LINE
  8
LC-001-002-----0
  6
CONTINUOUS
  5
331
 10
325.16972
 20
401.940968
 30
0.0
 11
325.16972
 21
406.940968
 31
0.0
  0
LINE
  8
LC-001-002-----0
  6
CONTINUOUS
  5
332
 10
333.16972
 20
401.940968
 30
0.0
 11
333.16972
 21
406.940968
 31
0.0
  0
LINE
  8
LC-001-002-----0
  6
CONTINUOUS
  5
333
 10
343.169709
 20
401.940968
 30
0.0
 11
343.169709
 21
406.940968
 31
0.0
  0
LINE
  8
LC-001-002-----0
  6
CONTINUOUS
  5
334
 10
351.169709
 20
401.940968
 30
0.0
 11
351.169709
 21
406.940968
 31
0.0
  0
LINE
  8
LC-001-002-----0
  6
CONTINUOUS
  5
335
 10
361.169699
 20
401.940968
 30
0.0
 11
361.169699
 21
406.940968
 31
0.0
  0
LINE
  8
LC-001-002-----0
  6
CONTINUOUS
  5
336
 10
369.169699
 20
401.940968
 30
0.0
 11
369.169699
 21
406.940968
 31
0.0
  0
LINE
  8
LC-001-002-----0
  6
CONTINUOUS
  5
337
 10
380.169689
 20
401.940968
 30
0.0
 11
380.169689
 21
406.940968
 31
0.0
  0
LINE
  8
LC-001-002-----0
  6
CONTINUOUS
  5
338
 10
388.169689
 20
401.940968
 30
0.0
 11
388.169689
 21
406.940968
 31
0.0
  0
LINE
  8
LC-001-002-----0
  6
CONTINUOUS
  5
339
 10
663.168799
 20
385.460926
 30
0.0
 11
663.16928
 21
383.460926
 31
0.0
  0
LINE
  8
LC-001-002-----0
  6
CONTINUOUS
 62
     2
  5
33A
 10
264.930755
 20
441.342
 30
0.0
 11
279.930755
 21
441.342
 31
0.0
  0
LINE
  8
LC-001-002-----0
  6
CONTINUOUS
  5
33B
 10
663.16952
 20
382.460926
 30
0.0
 11
663.170001
 21
380.460926
 31
0.0
  0
LINE
  8
LC-001-002-----0
  6
CONTINUOUS
  5
33C
 10
663.16952
 20
382.460926
 30
0.0
 11
665.16952
 21
382.461407
 31
0.0
  0
LINE
  8
LC-001-002-----0
  6
CONTINUOUS
 62
     2
  5
33D
 10
264.930755
 20
456.342
 30
0.0
 11
264.930755
 21
441.342
 31
0.0
  0
LINE
  8
LC-001-002-----0
  6
CONTINUOUS
  5
33E
 10
662.16928
 20
383.460686
 30
0.0
 11
660.16928
 21
383.460205
 31
0.0
  0
LINE
  8
LC-001-002-----0
  6
CONTINUOUS
  5
33F
 10
662.16928
 20
383.460686
 30
0.0
 11
662.168799
 21
385.460686
 31
0.0
  0
LINE
  8
LC-001-002-----0
  6
CONTINUOUS
  5
340
 10
500.164471
 20
218.439622
 30
0.0
 11
500.164607
 21
220.439622
 31
0.0
  0
LINE
  8
LC-001-002-----0
  6
CONTINUOUS
  5
341
 10
500.164674
 20
221.439622
 30
0.0
 11
500.16481
 21
223.439622
 31
0.0
  0
LINE
  8
LC-001-002-----0
  6
CONTINUOUS
  5
342
 10
500.164674
 20
221.439622
 30
0.0
 11
498.164674
 21
221.439758
 31
0.0
  0
LINE
  8
LC-001-002-----0
  6
CONTINUOUS
  5
343
 10
501.164607
 20
220.439554
 30
0.0
 11
503.164607
 21
220.439419
 31
0.0
  0
LINE
  8
LC-001-002-----0
  6
CONTINUOUS
  5
344
 10
501.164607
 20
220.439554
 30
0.0
 11
501.164471
 21
218.439554
 31
0.0
  0
CIRCLE
  8
LC-001-002-----0
  6
CONTINUOUS
  5
345
 10
662.663858
 20
220.909092
 30
0.0
 40
4.5
  0
LINE
  8
LC-001-002-----0
  6
CONTINUOUS
  5
346
 10
665.164013
 20
221.40832
 30
0.0
 11
665.163704
 21
220.40832
 31
0.0
  0
CIRCLE
  8
LC-001-002-----0
  6
CONTINUOUS
  5
347
 10
500.67018
 20
382.941389
 30
0.0
 40
4.5
  0
LINE
  8
LC-001-002-----0
  6
CONTINUOUS
  5
348
 10
498.17018
 20
382.441391
 30
0.0
 11
498.170181
 21
383.441391
 31
0.0
  0
LINE
  8
LC-001-002-----0
  6
CONTINUOUS
  5
349
 10
498.170181
 20
383.441391
 30
0.0
 11
500.170181
 21
383.44139
 31
0.0
  0
LINE
  8
LC-001-002-----0
  6
CONTINUOUS
  5
34A
 10
503.170181
 20
383.441388
 30
0.0
 11
503.17018
 21
382.441388
 31
0.0
  0
LINE
  8
LC-001-002-----0
  6
CONTINUOUS
  5
34B
 10
503.17018
 20
382.441388
 30
0.0
 11
501.17018
 21
382.441389
 31
0.0
  0
LINE
  8
LC-001-002-----0
  6
CONTINUOUS
  5
34C
 10
500.170179
 20
380.44139
 30
0.0
 11
501.170179
 21
380.441389
 31
0.0
  0
LINE
  8
LC-001-002-----0
  6
CONTINUOUS
  5
34D
 10
501.170179
 20
380.441389
 30
0.0
 11
501.17018
 21
382.441389
 31
0.0
  0
LINE
  8
LC-001-002-----0
  6
CONTINUOUS
  5
34E
 10
501.170182
 20
385.441389
 30
0.0
 11
500.170182
 21
385.44139
 31
0.0
  0
LINE
  8
LC-001-002-----0
  6
CONTINUOUS
  5
34F
 10
500.170182
 20
385.44139
 30
0.0
 11
500.170181
 21
383.44139
 31
0.0
  0
LINE
  8
LC-001-002-----0
  6
CONTINUOUS
  5
350
 10
500.17018
 20
382.44139
 30
0.0
 11
500.170179
 21
380.44139
 31
0.0
  0
LINE
  8
LC-001-002-----0
  6
CONTINUOUS
  5
351
 10
500.17018
 20
382.44139
 30
0.0
 11
498.17018
 21
382.441391
 31
0.0
  0
LINE
  8
LC-001-002-----0
  6
CONTINUOUS
  5
352
 10
501.170181
 20
383.441389
 30
0.0
 11
503.170181
 21
383.441388
 31
0.0
  0
LINE
  8
LC-001-002-----0
  6
CONTINUOUS
  5
353
 10
501.170181
 20
383.441389
 30
0.0
 11
501.170182
 21
385.441389
 31
0.0
  0
LINE
  8
LC-001-002-----0
  6
CONTINUOUS
  5
354
 10
665.163704
 20
220.40832
 30
0.0
 11
663.163704
 21
220.408938
 31
0.0
  0
LINE
  8
LC-001-002-----0
  6
CONTINUOUS
  5
355
 10
660.163704
 20
220.409864
 30
0.0
 11
660.164013
 21
221.409864
 31
0.0
  0
LINE
  8
LC-001-002-----0
  6
CONTINUOUS
  5
356
 10
660.164013
 20
221.409864
 30
0.0
 11
662.164013
 21
221.409246
 31
0.0
  0
LINE
  8
LC-001-002-----0
  6
CONTINUOUS
  5
357
 10
663.16463
 20
223.408937
 30
0.0
 11
662.16463
 21
223.409246
 31
0.0
  0
LINE
  8
LC-001-002-----0
  6
CONTINUOUS
  5
358
 10
662.16463
 20
223.409246
 30
0.0
 11
662.164013
 21
221.409246
 31
0.0
  0
LINE
  8
LC-001-002-----0
  6
CONTINUOUS
  5
359
 10
662.163086
 20
218.409246
 30
0.0
 11
663.163086
 21
218.408938
 31
0.0
  0
LINE
  8
LC-001-002-----0
  6
CONTINUOUS
  5
35A
 10
663.163086
 20
218.408938
 30
0.0
 11
663.163704
 21
220.408938
 31
0.0
  0
LINE
  8
LC-001-002-----0
  6
CONTINUOUS
  5
35B
 10
663.164013
 20
221.408938
 30
0.0
 11
663.16463
 21
223.408937
 31
0.0
  0
LINE
  8
LC-001-002-----0
  6
CONTINUOUS
  5
35C
 10
663.164013
 20
221.408938
 30
0.0
 11
665.164013
 21
221.40832
 31
0.0
  0
LINE
  8
LC-001-002-----0
  6
CONTINUOUS
  5
35D
 10
662.163704
 20
220.409246
 30
0.0
 11
660.163704
 21
220.409864
 31
0.0
  0
LINE
  8
LC-001-002-----0
  6
CONTINUOUS
  5
35E
 10
662.163704
 20
220.409246
 30
0.0
 11
662.163086
 21
218.409246
 31
0.0
  0
LINE
  8
LC-001-002-----0
  6
CONTINUOUS
 62
     2
  5
35F
 10
239.469926
 20
224.940968
 30
0.0
 11
378.869926
 21
224.940968
 31
0.0
  0
ENDSEC
  0
EOF
