  0
SECTION
  2
HEADER
  9
$ACADVER
  1
AC1015
  9
$ACADMAINTVER
 70
     6
  9
$DWGCODEPAGE
  3
DOS850
  9
$INSBASE
 10
0.0
 20
0.0
 30
0.0
  9
$EXTMIN
 10
-210.0
 20
-148.5
 30
0.0
  9
$EXTMAX
 10
630.0
 20
445.5
 30
0.0
  9
$LIMMIN
 10
-210.0
 20
-148.5
  9
$LIMMAX
 10
630.0
 20
445.5
  9
$ORTHOMODE
 70
     0
  9
$REGENMODE
 70
     1
  9
$FILLMODE
 70
     1
  9
$QTEXTMODE
 70
     0
  9
$MIRRTEXT
 70
     1
  9
$LTSCALE
 40
2.0
  9
$ATTMODE
 70
     1
  9
$TEXTSIZE
 40
2.5
  9
$TRACEWID
 40
1.0
  9
$TEXTSTYLE
  7
Standard
  9
$CLAYER
  8
0
  9
$CELTYPE
  6
ByLayer
  9
$CECOLOR
 62
     7
  9
$CELTSCALE
 40
1.0
  9
$DISPSILH
 70
     0
  9
$DIMSCALE
 40
2.0
  9
$DIMASZ
 40
3.5
  9
$DIMEXO
 40
0.625
  9
$DIMDLI
 40
3.75
  9
$DIMRND
 40
0.0
  9
$DIMDLE
 40
0.0
  9
$DIMEXE
 40
1.25
  9
$DIMTP
 40
0.0
  9
$DIMTM
 40
0.0
  9
$DIMTXT
 40
3.5
  9
$DIMCEN
 40
2.5
  9
$DIMTSZ
 40
0.0
  9
$DIMTOL
 70
     0
  9
$DIMLIM
 70
     0
  9
$DIMTIH
 70
     0
  9
$DIMTOH
 70
     0
  9
$DIMSE1
 70
     0
  9
$DIMSE2
 70
     0
  9
$DIMTAD
 70
     1
  9
$DIMZIN
 70
     8
  9
$DIMBLK
  1

  9
$DIMASO
 70
     1
  9
$DIMSHO
 70
     1
  9
$DIMPOST
  1

  9
$DIMAPOST
  1

  9
$DIMALT
 70
     0
  9
$DIMALTD
 70
     3
  9
$DIMALTF
 40
0.03937
  9
$DIMLFAC
 40
1.0
  9
$DIMTOFL
 70
     1
  9
$DIMTVP
 40
0.0
  9
$DIMTIX
 70
     0
  9
$DIMSOXD
 70
     0
  9
$DIMSAH
 70
     0
  9
$DIMBLK1
  1

  9
$DIMBLK2
  1

  9
$DIMSTYLE
  2
ISO-25
  9
$DIMCLRD
 70
     0
  9
$DIMCLRE
 70
     0
  9
$DIMCLRT
 70
     0
  9
$DIMTFAC
 40
1.0
  9
$DIMGAP
 40
0.625
  9
$DIMJUST
 70
     0
  9
$DIMSD1
 70
     0
  9
$DIMSD2
 70
     0
  9
$DIMTOLJ
 70
     0
  9
$DIMTZIN
 70
     8
  9
$DIMALTZ
 70
     0
  9
$DIMALTTZ
 70
     0
  9
$DIMUPT
 70
     0
  9
$DIMDEC
 70
     2
  9
$DIMTDEC
 70
     2
  9
$DIMALTU
 70
     2
  9
$DIMALTTD
 70
     3
  9
$DIMTXSTY
  7
Standard
  9
$DIMAUNIT
 70
     0
  9
$DIMADEC
 70
     0
  9
$DIMALTRND
 40
0.0
  9
$DIMAZIN
 70
     0
  9
$DIMDSEP
 70
    44
  9
$DIMATFIT
 70
     3
  9
$DIMFRAC
 70
     0
  9
$DIMLDRBLK
  1

  9
$DIMLUNIT
 70
     2
  9
$DIMLWD
 70
    -2
  9
$DIMLWE
 70
    -2
  9
$DIMTMOVE
 70
     0
  9
$LUNITS
 70
     2
  9
$LUPREC
 70
     4
  9
$SKETCHINC
 40
1.0
  9
$FILLETRAD
 40
10.0
  9
$AUNITS
 70
     0
  9
$AUPREC
 70
     0
  9
$MENU
  1
.
  9
$ELEVATION
 40
0.0
  9
$PELEVATION
 40
0.0
  9
$THICKNESS
 40
0.0
  9
$LIMCHECK
 70
     0
  9
$CHAMFERA
 40
10.0
  9
$CHAMFERB
 40
10.0
  9
$CHAMFERC
 40
20.0
  9
$CHAMFERD
 40
0.0
  9
$SKPOLY
 70
     0
  9
$TDCREATE
 40
2453896.244220486
  9
$TDUCREATE
 40
2453896.160887153
  9
$TDUPDATE
 40
2453896.244220498
  9
$TDUUPDATE
 40
2453896.160887165
  9
$TDINDWG
 40
0.0000000116
  9
$TDUSRTIMER
 40
0.0000000116
  9
$USRTIMER
 70
     1
  9
$ANGBASE
 50
0.0
  9
$ANGDIR
 70
     0
  9
$PDMODE
 70
     0
  9
$PDSIZE
 40
0.0
  9
$PLINEWID
 40
0.0
  9
$SPLFRAME
 70
     0
  9
$SPLINETYPE
 70
     6
  9
$SPLINESEGS
 70
     8
  9
$HANDSEED
  5
2EB
  9
$SURFTAB1
 70
     6
  9
$SURFTAB2
 70
     6
  9
$SURFTYPE
 70
     6
  9
$SURFU
 70
     6
  9
$SURFV
 70
     6
  9
$UCSBASE
  2

  9
$UCSNAME
  2

  9
$UCSORG
 10
0.0
 20
0.0
 30
0.0
  9
$UCSXDIR
 10
1.0
 20
0.0
 30
0.0
  9
$UCSYDIR
 10
0.0
 20
1.0
 30
0.0
  9
$UCSORTHOREF
  2

  9
$UCSORTHOVIEW
 70
     0
  9
$UCSORGTOP
 10
0.0
 20
0.0
 30
0.0
  9
$UCSORGBOTTOM
 10
0.0
 20
0.0
 30
0.0
  9
$UCSORGLEFT
 10
0.0
 20
0.0
 30
0.0
  9
$UCSORGRIGHT
 10
0.0
 20
0.0
 30
0.0
  9
$UCSORGFRONT
 10
0.0
 20
0.0
 30
0.0
  9
$UCSORGBACK
 10
0.0
 20
0.0
 30
0.0
  9
$PUCSBASE
  2

  9
$PUCSNAME
  2

  9
$PUCSORG
 10
0.0
 20
0.0
 30
0.0
  9
$PUCSXDIR
 10
1.0
 20
0.0
 30
0.0
  9
$PUCSYDIR
 10
0.0
 20
1.0
 30
0.0
  9
$PUCSORTHOREF
  2

  9
$PUCSORTHOVIEW
 70
     0
  9
$PUCSORGTOP
 10
0.0
 20
0.0
 30
0.0
  9
$PUCSORGBOTTOM
 10
0.0
 20
0.0
 30
0.0
  9
$PUCSORGLEFT
 10
0.0
 20
0.0
 30
0.0
  9
$PUCSORGRIGHT
 10
0.0
 20
0.0
 30
0.0
  9
$PUCSORGFRONT
 10
0.0
 20
0.0
 30
0.0
  9
$PUCSORGBACK
 10
0.0
 20
0.0
 30
0.0
  9
$USERI1
 70
     0
  9
$USERI2
 70
     0
  9
$USERI3
 70
     0
  9
$USERI4
 70
     0
  9
$USERI5
 70
     0
  9
$USERR1
 40
0.0
  9
$USERR2
 40
0.0
  9
$USERR3
 40
0.0
  9
$USERR4
 40
0.0
  9
$USERR5
 40
0.0
  9
$WORLDVIEW
 70
     1
  9
$SHADEDGE
 70
     3
  9
$SHADEDIF
 70
    70
  9
$TILEMODE
 70
     1
  9
$MAXACTVP
 70
    64
  9
$PINSBASE
 10
0.0
 20
0.0
 30
0.0
  9
$PLIMCHECK
 70
     0
  9
$PEXTMIN
 10
-210.0
 20
-148.5
 30
0.0
  9
$PEXTMAX
 10
630.0
 20
445.5
 30
0.0
  9
$PLIMMIN
 10
-210.0
 20
-148.5
  9
$PLIMMAX
 10
630.0
 20
445.5
  9
$UNITMODE
 70
     0
  9
$VISRETAIN
 70
     1
  9
$PLINEGEN
 70
     0
  9
$PSLTSCALE
 70
     1
  9
$TREEDEPTH
 70
  3020
  9
$CMLSTYLE
  2
Standard
  9
$CMLJUST
 70
     0
  9
$CMLSCALE
 40
20.0
  9
$PROXYGRAPHICS
 70
     1
  9
$MEASUREMENT
 70
     1
  9
$CELWEIGHT
370
    -1
  9
$ENDCAPS
280
     0
  9
$JOINSTYLE
280
     0
  9
$LWDISPLAY
290
     0
  9
$INSUNITS
 70
     4
  9
$HYPERLINKBASE
  1

  9
$STYLESHEET
  1

  9
$XEDIT
290
     1
  9
$CEPSNTYPE
380
     0
  9
$PSTYLEMODE
290
     1
  9
$FINGERPRINTGUID
  2
{FAEB1C30-E019-11D5-929B-00C0DF256EC4}
  9
$VERSIONGUID
  2
{FAEB1C32-E019-11D5-929B-00C0DF256EC4}
  9
$EXTNAMES
290
     1
  9
$PSVPSCALE
 40
0.0
  9
$OLESTARTUP
290
     0
  0
ENDSEC
  0
SECTION
  2
CLASSES
  0
CLASS
  1
ACDBDICTIONARYWDFLT
  2
AcDbDictionaryWithDefault
  3
ObjectDBX Classes
 90
        0
280
     0
281
     0
  0
CLASS
  1
ACDBPLACEHOLDER
  2
AcDbPlaceHolder
  3
ObjectDBX Classes
 90
        0
280
     0
281
     0
  0
CLASS
  1
LAYOUT
  2
AcDbLayout
  3
ObjectDBX Classes
 90
        0
280
     0
281
     0
  0
ENDSEC
  0
SECTION
  2
TABLES
  0
TABLE
  2
VPORT
  5
8
330
0
100
AcDbSymbolTable
 70
     2
  0
VPORT
  5
29
330
8
100
AcDbSymbolTableRecord
100
AcDbViewportTableRecord
  2
*ACTIVE
 70
     0
 10
0.0
 20
0.0
 11
1.0
 21
1.0
 12
210.0
 22
148.5
 13
0.0
 23
0.0
 14
1.0
 24
1.0
 15
0.0
 25
0.0
 16
0.0
 26
0.0
 36
1.0
 17
0.0
 27
0.0
 37
0.0
 40
594.0
 41
1.414141
 42
50.0
 43
0.0
 44
0.0
 50
0.0
 51
0.0
 71
    16
 72
   100
 73
     1
 74
     0
 75
     0
 76
     0
 77
     0
 78
     0
281
     0
 65
     0
110
0.0
120
0.0
130
0.0
111
1.0
121
0.0
131
0.0
112
0.0
122
1.0
132
0.0
 79
     0
146
0.0
  0
ENDTAB
  0
TABLE
  2
LTYPE
  5
5
330
0
100
AcDbSymbolTable
 70
     3
  0
LTYPE
  5
14
330
5
100
AcDbSymbolTableRecord
100
AcDbLinetypeTableRecord
  2
ByBlock
 70
     0
  3

 72
    65
 73
     0
 40
0.0
  0
LTYPE
  5
15
330
5
100
AcDbSymbolTableRecord
100
AcDbLinetypeTableRecord
  2
ByLayer
 70
     0
  3

 72
    65
 73
     0
 40
0.0
  0
LTYPE
  5
16
330
5
100
AcDbSymbolTableRecord
100
AcDbLinetypeTableRecord
  2
Continuous
 70
     0
  3
Solid line
 72
    65
 73
     0
 40
0.0
  0
LTYPE
  5
2A
330
5
100
AcDbSymbolTableRecord
100
AcDbLinetypeTableRecord
  2
DASHED
 70
     0
  3
__ __ __ __ __
 72
    65
 73
     2
 40
6.25
 49
5.0
 74
     4
 75
     0
340
0
 46
1.0
 50
0.0
 44
0.0
 45
0.0
 49
-1.25
 74
     4
 75
     0
340
0
 46
1.0
 50
0.0
 44
0.0
 45
0.0
  0
LTYPE
  5
39
330
5
100
AcDbSymbolTableRecord
100
AcDbLinetypeTableRecord
  2
CENTER
 70
     0
  3
__ . __ . __ . __ . __
 72
    65
 73
     4
 40
7.5
 49
5.0
 74
     4
 75
     0
340
0
 46
1.0
 50
0.0
 44
0.0
 45
0.0
 49
-1.25
 74
     4
 75
     0
340
0
 46
1.0
 50
0.0
 44
0.0
 45
0.0
 49
0.0
 74
     4
 75
     0
340
0
 46
1.0
 50
0.0
 44
0.0
 45
0.0
 49
-1.25
 74
     4
 75
     0
340
0
 46
1.0
 50
0.0
 44
0.0
 45
0.0
  0
ENDTAB
  0
TABLE
  2
LAYER
  5
2
330
0
100
AcDbSymbolTable
 70
    13
  0
LAYER
  5
10
330
2
100
AcDbSymbolTableRecord
100
AcDbLayerTableRecord
  2
0
 70
     0
 62
     7
  6
Continuous
370
    -3
390
F
  0
LAYER
  5
2B
330
2
100
AcDbSymbolTableRecord
100
AcDbLayerTableRecord
  2
LC-INFO-1-2-mm-A3-0
 70
     1
 62
     7
  6
ByBlock
370
    -3
390
F
  0
LAYER
  5
2C
330
2
100
AcDbSymbolTableRecord
100
AcDbLayerTableRecord
  2
LC-CUT-HIDDEN
 70
     0
 62
     7
  6
DASHED
370
    -3
390
F
  0
LAYER
  5
2D
330
2
100
AcDbSymbolTableRecord
100
AcDbLayerTableRecord
  2
LC-VIEWPORT
 70
     0
 62
     7
  6
ByBlock
370
    -3
390
F
  0
LAYER
  5
2E
330
2
100
AcDbSymbolTableRecord
100
AcDbLayerTableRecord
  2
LC-3D-HIDDEN
 70
     0
 62
     9
  6
DASHED
370
    -3
390
F
  0
LAYER
  5
31
330
2
100
AcDbSymbolTableRecord
100
AcDbLayerTableRecord
  2
LC-001-002-----0
 70
     0
 62
     1
  6
ByBlock
370
    -3
390
F
  0
LAYER
  5
34
330
2
100
AcDbSymbolTableRecord
100
AcDbLayerTableRecord
  2
LC-002-001-----0
 70
     0
 62
     1
  6
ByBlock
370
    -3
390
F
  0
LAYER
  5
3A
330
2
100
AcDbSymbolTableRecord
100
AcDbLayerTableRecord
  2
LC-003-006-MLN-0
 70
     0
 62
     2
  6
CENTER
370
    -3
390
F
  0
LAYER
  5
4D
330
2
100
AcDbSymbolTableRecord
100
AcDbLayerTableRecord
  2
LC-004-005-----0
 70
     0
 62
     2
  6
ByBlock
370
    -3
390
F
  0
LAYER
  5
B9
330
2
100
AcDbSymbolTableRecord
100
AcDbLayerTableRecord
  2
LC-005-003-----0
 70
     0
 62
     2
  6
ByBlock
370
    -3
390
F
  0
LAYER
  5
BB
330
2
100
AcDbSymbolTableRecord
100
AcDbLayerTableRecord
  2
Defpoints
 70
     0
 62
     7
  6
Continuous
290
     0
370
    -3
390
F
  0
LAYER
  5
F5
330
2
100
AcDbSymbolTableRecord
100
AcDbLayerTableRecord
  2
LC-006-002-RND-0
 70
     0
 62
     1
  6
ByBlock
370
    -3
390
F
  0
LAYER
  5
163
330
2
100
AcDbSymbolTableRecord
100
AcDbLayerTableRecord
  2
LC-007-001-RND-0
 70
     0
 62
     1
  6
ByBlock
370
    -3
390
F
  0
ENDTAB
  0
TABLE
  2
STYLE
  5
3
330
0
100
AcDbSymbolTable
 70
     4
  0
STYLE
  5
11
330
3
100
AcDbSymbolTableRecord
100
AcDbTextStyleTableRecord
  2
Standard
 70
     0
 40
0.0
 41
1.0
 50
0.0
 71
     0
 42
2.5
  3
txt
  4

  0
STYLE
  5
2F
330
3
100
AcDbSymbolTableRecord
100
AcDbTextStyleTableRecord
  2
LCTX15-400-0-0-Arial
 70
     0
 40
0.0
 41
0.9
 50
0.0
 71
     0
 42
3.5
  3

  4

1001
ACAD
1000
Arial
1071
 16777218
  0
STYLE
  5
30
330
3
100
AcDbSymbolTableRecord
100
AcDbTextStyleTableRecord
  2
LCTX0-400-0-0-DIN-Schrift
 70
     0
 40
0.0
 41
0.8
 50
0.0
 71
     0
 42
3.5
  3
MONOTXT
  4

  0
STYLE
  5
B7
330
3
100
AcDbSymbolTableRecord
100
AcDbTextStyleTableRecord
  2
LCTX15-400-0-0pDIN-Schrift
 70
     0
 40
2.5
 41
0.8
 50
15.0
 71
     0
 42
3.5
  3
STANDARD
  4

  0
ENDTAB
  0
TABLE
  2
VIEW
  5
6
330
0
100
AcDbSymbolTable
 70
     0
  0
ENDTAB
  0
TABLE
  2
UCS
  5
7
330
0
100
AcDbSymbolTable
 70
     0
  0
ENDTAB
  0
TABLE
  2
APPID
  5
9
330
0
100
AcDbSymbolTable
 70
     1
  0
APPID
  5
12
330
9
100
AcDbSymbolTableRecord
100
AcDbRegAppTableRecord
  2
ACAD
 70
     0
  0
ENDTAB
  0
TABLE
  2
DIMSTYLE
  5
A
330
0
100
AcDbSymbolTable
 70
     2
100
AcDbDimStyleTable
  0
DIMSTYLE
105
27
330
A
100
AcDbSymbolTableRecord
100
AcDbDimStyleTableRecord
  2
ISO-25
 70
     0
 41
2.5
 42
0.625
 43
3.75
 44
1.25
 73
     0
 74
     0
 77
     1
 78
     8
140
2.5
141
2.5
143
0.03937
147
0.625
171
     3
172
     1
271
     2
272
     2
274
     3
278
    44
283
     0
284
     8
340
11
  0
DIMSTYLE
105
B8
102
{ACAD_REACTORS
330
BA
330
E7
330
126
330
2C3
330
2D1
102
}
330
A
100
AcDbSymbolTableRecord
100
AcDbDimStyleTableRecord
  2
LC-DIM-L-0140-02-02
 70
     0
 40
2.0
 41
14.0
 42
0.0
 43
7.5
 44
1.8
 73
     0
 74
     0
 77
     1
 78
     8
 79
     2
140
14.0
141
0.0
146
0.71
147
1.5
176
     2
177
     2
178
     2
179
     2
271
     2
278
    44
289
     1
340
B7
  0
ENDTAB
  0
TABLE
  2
BLOCK_RECORD
  5
1
330
0
100
AcDbSymbolTable
 70
    22
  0
BLOCK_RECORD
  5
1F
330
1
100
AcDbSymbolTableRecord
100
AcDbBlockTableRecord
  2
*Model_Space
340
22
  0
BLOCK_RECORD
  5
1B
330
1
100
AcDbSymbolTableRecord
100
AcDbBlockTableRecord
  2
*Paper_Space
340
1E
  0
BLOCK_RECORD
  5
23
330
1
100
AcDbSymbolTableRecord
100
AcDbBlockTableRecord
  2
*Paper_Space0
340
26
  0
BLOCK_RECORD
  5
4A
330
1
100
AcDbSymbolTableRecord
100
AcDbBlockTableRecord
  2
*X11
340
0
102
{BLKREFS
331
7B
102
}
  0
BLOCK_RECORD
  5
87
330
1
100
AcDbSymbolTableRecord
100
AcDbBlockTableRecord
  2
*X22
340
0
102
{BLKREFS
331
B3
102
}
  0
BLOCK_RECORD
  5
BC
330
1
100
AcDbSymbolTableRecord
100
AcDbBlockTableRecord
  2
*D3
340
0
  0
BLOCK_RECORD
  5
D8
330
1
100
AcDbSymbolTableRecord
100
AcDbBlockTableRecord
  2
*X34
340
0
102
{BLKREFS
331
E6
102
}
  0
BLOCK_RECORD
  5
E8
330
1
100
AcDbSymbolTableRecord
100
AcDbBlockTableRecord
  2
*D5
340
0
  0
BLOCK_RECORD
  5
111
330
1
100
AcDbSymbolTableRecord
100
AcDbBlockTableRecord
  2
*X46
340
0
102
{BLKREFS
331
117
102
}
  0
BLOCK_RECORD
  5
118
330
1
100
AcDbSymbolTableRecord
100
AcDbBlockTableRecord
  2
*X57
340
0
102
{BLKREFS
331
11D
102
}
  0
BLOCK_RECORD
  5
11E
330
1
100
AcDbSymbolTableRecord
100
AcDbBlockTableRecord
  2
*X68
340
0
102
{BLKREFS
331
123
102
}
  0
BLOCK_RECORD
  5
127
330
1
100
AcDbSymbolTableRecord
100
AcDbBlockTableRecord
  2
*D9
340
0
  0
BLOCK_RECORD
  5
134
330
1
100
AcDbSymbolTableRecord
100
AcDbBlockTableRecord
  2
*X710
340
0
102
{BLKREFS
331
13B
102
}
  0
BLOCK_RECORD
  5
1A8
330
1
100
AcDbSymbolTableRecord
100
AcDbBlockTableRecord
  2
*X811
340
0
102
{BLKREFS
331
1AE
102
}
  0
BLOCK_RECORD
  5
1AF
330
1
100
AcDbSymbolTableRecord
100
AcDbBlockTableRecord
  2
*X912
340
0
102
{BLKREFS
331
1B4
102
}
  0
BLOCK_RECORD
  5
1B5
330
1
100
AcDbSymbolTableRecord
100
AcDbBlockTableRecord
  2
*X1013
340
0
102
{BLKREFS
331
1BA
102
}
  0
BLOCK_RECORD
  5
1CC
330
1
100
AcDbSymbolTableRecord
100
AcDbBlockTableRecord
  2
*X1114
340
0
102
{BLKREFS
331
1D9
102
}
  0
BLOCK_RECORD
  5
252
330
1
100
AcDbSymbolTableRecord
100
AcDbBlockTableRecord
  2
*X1215
340
0
102
{BLKREFS
331
25E
102
}
  0
BLOCK_RECORD
  5
268
330
1
100
AcDbSymbolTableRecord
100
AcDbBlockTableRecord
  2
*X1316
340
0
102
{BLKREFS
331
274
102
}
  0
BLOCK_RECORD
  5
283
330
1
100
AcDbSymbolTableRecord
100
AcDbBlockTableRecord
  2
*X1417
340
0
102
{BLKREFS
331
28B
102
}
  0
BLOCK_RECORD
  5
28D
330
1
100
AcDbSymbolTableRecord
100
AcDbBlockTableRecord
  2
*X1518
340
0
102
{BLKREFS
331
2A7
102
}
  0
BLOCK_RECORD
  5
2A8
330
1
100
AcDbSymbolTableRecord
100
AcDbBlockTableRecord
  2
*X1619
340
0
102
{BLKREFS
331
2C2
102
}
  0
BLOCK_RECORD
  5
2C4
330
1
100
AcDbSymbolTableRecord
100
AcDbBlockTableRecord
  2
*D20
340
0
  0
BLOCK_RECORD
  5
2D2
330
1
100
AcDbSymbolTableRecord
100
AcDbBlockTableRecord
  2
*D21
340
0
  0
ENDTAB
  0
ENDSEC
  0
SECTION
  2
BLOCKS
  0
BLOCK
  5
20
330
1F
100
AcDbEntity
  8
0
100
AcDbBlockBegin
  2
*Model_Space
 70
     0
 71
     0
 10
0.0
 20
0.0
 30
0.0
  3
*Model_Space
  1

  0
ENDBLK
  5
21
330
1F
100
AcDbEntity
  8
0
100
AcDbBlockEnd
  0
BLOCK
  5
1C
330
1B
100
AcDbEntity
 67
     1
  8
0
100
AcDbBlockBegin
  2
*Paper_Space
 70
     0
 71
     0
 10
0.0
 20
0.0
 30
0.0
  3
*Paper_Space
  1

  0
ENDBLK
  5
1D
330
1B
100
AcDbEntity
 67
     1
  8
0
100
AcDbBlockEnd
  0
BLOCK
  5
24
330
23
100
AcDbEntity
  8
0
100
AcDbBlockBegin
  2
*Paper_Space0
 70
     0
 71
     0
 10
0.0
 20
0.0
 30
0.0
  3
*Paper_Space0
  1

  0
ENDBLK
  5
25
330
23
100
AcDbEntity
  8
0
100
AcDbBlockEnd
  0
BLOCK
  5
4B
330
4A
100
AcDbEntity
  8
0
100
AcDbBlockBegin
  2
*X11
 70
     1
 71
     0
 10
0.0
 20
0.0
 30
0.0
  3
*X11
  1

  4
*X1
  0
LINE
  5
4E
330
4A
100
AcDbEntity
  8
LC-004-005-----0
 62
     7
370
    25
100
AcDbLine
 10
58.613614
 20
218.572245
 30
0.0
 11
57.90895
 21
219.276908
 31
0.0
  0
LINE
  5
4F
330
4A
100
AcDbEntity
  8
LC-004-005-----0
 62
     7
370
    25
100
AcDbLine
 10
59.116808
 20
215.240624
 30
0.0
 11
55.080523
 21
219.276908
 31
0.0
  0
LINE
  5
50
330
4A
100
AcDbEntity
  8
LC-004-005-----0
 62
     7
370
    25
100
AcDbLine
 10
58.153092
 20
213.375912
 30
0.0
 11
53.202594
 21
218.32641
 31
0.0
  0
LINE
  5
51
330
4A
100
AcDbEntity
  8
LC-004-005-----0
 62
     7
370
    25
100
AcDbLine
 10
58.153092
 20
210.547484
 30
0.0
 11
56.153092
 21
212.547484
 31
0.0
  0
LINE
  5
52
330
4A
100
AcDbEntity
  8
LC-004-005-----0
 62
     7
370
    25
100
AcDbLine
 10
53.909701
 20
214.790876
 30
0.0
 11
51.78838
 21
216.912196
 31
0.0
  0
LINE
  5
53
330
4A
100
AcDbEntity
  8
LC-004-005-----0
 62
     7
370
    25
100
AcDbLine
 10
57.595241
 20
208.276908
 30
0.0
 11
56.153092
 21
209.719057
 31
0.0
  0
LINE
  5
54
330
4A
100
AcDbEntity
  8
LC-004-005-----0
 62
     7
370
    25
100
AcDbLine
 10
52.495487
 20
213.376662
 30
0.0
 11
50.374167
 21
215.497983
 31
0.0
  0
LINE
  5
55
330
4A
100
AcDbEntity
  8
LC-004-005-----0
 62
     7
370
    25
100
AcDbLine
 10
51.081274
 20
211.962449
 30
0.0
 11
48.959953
 21
214.083769
 31
0.0
  0
LINE
  5
56
330
4A
100
AcDbEntity
  8
LC-004-005-----0
 62
     7
370
    25
100
AcDbLine
 10
50.153092
 20
210.062203
 30
0.0
 11
47.54574
 21
212.669556
 31
0.0
  0
LINE
  5
57
330
4A
100
AcDbEntity
  8
LC-004-005-----0
 62
     7
370
    25
100
AcDbLine
 10
50.153092
 20
207.233776
 30
0.0
 11
47.153092
 21
210.233776
 31
0.0
  0
LINE
  5
58
330
4A
100
AcDbEntity
  8
LC-004-005-----0
 62
     7
370
    25
100
AcDbLine
 10
50.153092
 20
204.405349
 30
0.0
 11
47.153092
 21
207.405349
 31
0.0
  0
LINE
  5
59
330
4A
100
AcDbEntity
  8
LC-004-005-----0
 62
     7
370
    25
100
AcDbLine
 10
50.153092
 20
201.576922
 30
0.0
 11
47.153092
 21
204.576922
 31
0.0
  0
LINE
  5
5A
330
4A
100
AcDbEntity
  8
LC-004-005-----0
 62
     7
370
    25
100
AcDbLine
 10
50.153092
 20
198.748495
 30
0.0
 11
47.153092
 21
201.748495
 31
0.0
  0
LINE
  5
5B
330
4A
100
AcDbEntity
  8
LC-004-005-----0
 62
     7
370
    25
100
AcDbLine
 10
50.153092
 20
195.920067
 30
0.0
 11
47.153092
 21
198.920067
 31
0.0
  0
LINE
  5
5C
330
4A
100
AcDbEntity
  8
LC-004-005-----0
 62
     7
370
    25
100
AcDbLine
 10
50.153092
 20
193.09164
 30
0.0
 11
47.153092
 21
196.09164
 31
0.0
  0
LINE
  5
5D
330
4A
100
AcDbEntity
  8
LC-004-005-----0
 62
     7
370
    25
100
AcDbLine
 10
50.153092
 20
190.263213
 30
0.0
 11
47.153092
 21
193.263213
 31
0.0
  0
LINE
  5
5E
330
4A
100
AcDbEntity
  8
LC-004-005-----0
 62
     7
370
    25
100
AcDbLine
 10
50.153092
 20
187.434786
 30
0.0
 11
47.153092
 21
190.434786
 31
0.0
  0
LINE
  5
5F
330
4A
100
AcDbEntity
  8
LC-004-005-----0
 62
     7
370
    25
100
AcDbLine
 10
50.153092
 20
184.606359
 30
0.0
 11
47.153092
 21
187.606359
 31
0.0
  0
LINE
  5
60
330
4A
100
AcDbEntity
  8
LC-004-005-----0
 62
     7
370
    25
100
AcDbLine
 10
50.153092
 20
181.777932
 30
0.0
 11
47.153092
 21
184.777932
 31
0.0
  0
LINE
  5
61
330
4A
100
AcDbEntity
  8
LC-004-005-----0
 62
     7
370
    25
100
AcDbLine
 10
50.153092
 20
178.949505
 30
0.0
 11
47.153092
 21
181.949505
 31
0.0
  0
LINE
  5
62
330
4A
100
AcDbEntity
  8
LC-004-005-----0
 62
     7
370
    25
100
AcDbLine
 10
50.153092
 20
176.121078
 30
0.0
 11
47.153092
 21
179.121078
 31
0.0
  0
LINE
  5
63
330
4A
100
AcDbEntity
  8
LC-004-005-----0
 62
     7
370
    25
100
AcDbLine
 10
50.153092
 20
173.29265
 30
0.0
 11
47.153092
 21
176.29265
 31
0.0
  0
LINE
  5
64
330
4A
100
AcDbEntity
  8
LC-004-005-----0
 62
     7
370
    25
100
AcDbLine
 10
50.153092
 20
170.464223
 30
0.0
 11
47.153092
 21
173.464223
 31
0.0
  0
LINE
  5
65
330
4A
100
AcDbEntity
  8
LC-004-005-----0
 62
     7
370
    25
100
AcDbLine
 10
50.153092
 20
167.635796
 30
0.0
 11
47.153092
 21
170.635796
 31
0.0
  0
LINE
  5
66
330
4A
100
AcDbEntity
  8
LC-004-005-----0
 62
     7
370
    25
100
AcDbLine
 10
50.153092
 20
164.807369
 30
0.0
 11
47.153092
 21
167.807369
 31
0.0
  0
LINE
  5
67
330
4A
100
AcDbEntity
  8
LC-004-005-----0
 62
     7
370
    25
100
AcDbLine
 10
50.153092
 20
161.978942
 30
0.0
 11
47.153092
 21
164.978942
 31
0.0
  0
LINE
  5
68
330
4A
100
AcDbEntity
  8
LC-004-005-----0
 62
     7
370
    25
100
AcDbLine
 10
50.153092
 20
159.150515
 30
0.0
 11
47.153092
 21
162.150515
 31
0.0
  0
LINE
  5
69
330
4A
100
AcDbEntity
  8
LC-004-005-----0
 62
     7
370
    25
100
AcDbLine
 10
50.153092
 20
156.322088
 30
0.0
 11
47.153092
 21
159.322088
 31
0.0
  0
LINE
  5
6A
330
4A
100
AcDbEntity
  8
LC-004-005-----0
 62
     7
370
    25
100
AcDbLine
 10
50.153092
 20
153.493661
 30
0.0
 11
47.153092
 21
156.493661
 31
0.0
  0
LINE
  5
6B
330
4A
100
AcDbEntity
  8
LC-004-005-----0
 62
     7
370
    25
100
AcDbLine
 10
50.153092
 20
150.665233
 30
0.0
 11
47.153092
 21
153.665233
 31
0.0
  0
LINE
  5
6C
330
4A
100
AcDbEntity
  8
LC-004-005-----0
 62
     7
370
    25
100
AcDbLine
 10
50.153092
 20
147.836806
 30
0.0
 11
47.153092
 21
150.836806
 31
0.0
  0
LINE
  5
6D
330
4A
100
AcDbEntity
  8
LC-004-005-----0
 62
     7
370
    25
100
AcDbLine
 10
50.153092
 20
145.008379
 30
0.0
 11
47.153092
 21
148.008379
 31
0.0
  0
LINE
  5
6E
330
4A
100
AcDbEntity
  8
LC-004-005-----0
 62
     7
370
    25
100
AcDbLine
 10
50.153092
 20
142.179952
 30
0.0
 11
47.153092
 21
145.179952
 31
0.0
  0
LINE
  5
6F
330
4A
100
AcDbEntity
  8
LC-004-005-----0
 62
     7
370
    25
100
AcDbLine
 10
50.153092
 20
139.351525
 30
0.0
 11
47.153092
 21
142.351525
 31
0.0
  0
LINE
  5
70
330
4A
100
AcDbEntity
  8
LC-004-005-----0
 62
     7
370
    25
100
AcDbLine
 10
50.153092
 20
136.523098
 30
0.0
 11
47.153092
 21
139.523098
 31
0.0
  0
LINE
  5
71
330
4A
100
AcDbEntity
  8
LC-004-005-----0
 62
     7
370
    25
100
AcDbLine
 10
50.153092
 20
133.694671
 30
0.0
 11
47.153092
 21
136.694671
 31
0.0
  0
LINE
  5
72
330
4A
100
AcDbEntity
  8
LC-004-005-----0
 62
     7
370
    25
100
AcDbLine
 10
50.153092
 20
130.866244
 30
0.0
 11
47.153092
 21
133.866244
 31
0.0
  0
LINE
  5
73
330
4A
100
AcDbEntity
  8
LC-004-005-----0
 62
     7
370
    25
100
AcDbLine
 10
50.153092
 20
128.037816
 30
0.0
 11
47.153092
 21
131.037816
 31
0.0
  0
LINE
  5
74
330
4A
100
AcDbEntity
  8
LC-004-005-----0
 62
     7
370
    25
100
AcDbLine
 10
50.153092
 20
125.209389
 30
0.0
 11
47.153092
 21
128.209389
 31
0.0
  0
LINE
  5
75
330
4A
100
AcDbEntity
  8
LC-004-005-----0
 62
     7
370
    25
100
AcDbLine
 10
50.153092
 20
122.380962
 30
0.0
 11
47.153092
 21
125.380962
 31
0.0
  0
LINE
  5
76
330
4A
100
AcDbEntity
  8
LC-004-005-----0
 62
     7
370
    25
100
AcDbLine
 10
50.153092
 20
119.552535
 30
0.0
 11
47.153092
 21
122.552535
 31
0.0
  0
LINE
  5
77
330
4A
100
AcDbEntity
  8
LC-004-005-----0
 62
     7
370
    25
100
AcDbLine
 10
50.153092
 20
116.724108
 30
0.0
 11
47.153092
 21
119.724108
 31
0.0
  0
LINE
  5
78
330
4A
100
AcDbEntity
  8
LC-004-005-----0
 62
     7
370
    25
100
AcDbLine
 10
50.153092
 20
113.895681
 30
0.0
 11
47.153092
 21
116.895681
 31
0.0
  0
LINE
  5
79
330
4A
100
AcDbEntity
  8
LC-004-005-----0
 62
     7
370
    25
100
AcDbLine
 10
50.153092
 20
111.067254
 30
0.0
 11
47.153092
 21
114.067254
 31
0.0
  0
LINE
  5
7A
330
4A
100
AcDbEntity
  8
LC-004-005-----0
 62
     7
370
    25
100
AcDbLine
 10
48.615011
 20
109.776908
 30
0.0
 11
47.153092
 21
111.238827
 31
0.0
  0
ENDBLK
  5
4C
330
4A
100
AcDbEntity
  8
0
100
AcDbBlockEnd
  0
BLOCK
  5
88
330
87
100
AcDbEntity
  8
0
100
AcDbBlockBegin
  2
*X22
 70
     1
 71
     0
 10
0.0
 20
0.0
 30
0.0
  3
*X22
  1

  4
*X2
  0
LINE
  5
8A
330
87
100
AcDbEntity
  8
LC-004-005-----0
 62
     7
370
    25
100
AcDbLine
 10
156.764489
 20
210.931037
 30
0.0
 11
148.418618
 21
219.276908
 31
0.0
  0
LINE
  5
8B
330
87
100
AcDbEntity
  8
LC-004-005-----0
 62
     7
370
    25
100
AcDbLine
 10
156.7644
 20
208.102699
 30
0.0
 11
154.153092
 21
210.714007
 31
0.0
  0
LINE
  5
8C
330
87
100
AcDbEntity
  8
LC-004-005-----0
 62
     7
370
    25
100
AcDbLine
 10
149.251943
 20
215.615156
 30
0.0
 11
145.853288
 21
219.013811
 31
0.0
  0
LINE
  5
8D
330
87
100
AcDbEntity
  8
LC-004-005-----0
 62
     7
370
    25
100
AcDbLine
 10
156.764312
 20
205.27436
 30
0.0
 11
154.153092
 21
207.88558
 31
0.0
  0
LINE
  5
8E
330
87
100
AcDbEntity
  8
LC-004-005-----0
 62
     7
370
    25
100
AcDbLine
 10
148.153092
 20
213.88558
 30
0.0
 11
145.153092
 21
216.88558
 31
0.0
  0
LINE
  5
8F
330
87
100
AcDbEntity
  8
LC-004-005-----0
 62
     7
370
    25
100
AcDbLine
 10
156.764223
 20
202.446021
 30
0.0
 11
154.153092
 21
205.057152
 31
0.0
  0
LINE
  5
90
330
87
100
AcDbEntity
  8
LC-004-005-----0
 62
     7
370
    25
100
AcDbLine
 10
148.153092
 20
211.057152
 30
0.0
 11
146.153092
 21
213.057152
 31
0.0
  0
LINE
  5
91
330
87
100
AcDbEntity
  8
LC-004-005-----0
 62
     7
370
    25
100
AcDbLine
 10
156.764135
 20
199.617683
 30
0.0
 11
154.153092
 21
202.228725
 31
0.0
  0
LINE
  5
92
330
87
100
AcDbEntity
  8
LC-004-005-----0
 62
     7
370
    25
100
AcDbLine
 10
148.104909
 20
208.276908
 30
0.0
 11
146.153092
 21
210.228725
 31
0.0
  0
LINE
  5
93
330
87
100
AcDbEntity
  8
LC-004-005-----0
 62
     7
370
    25
100
AcDbLine
 10
156.764046
 20
196.789344
 30
0.0
 11
154.153092
 21
199.400298
 31
0.0
  0
LINE
  5
94
330
87
100
AcDbEntity
  8
LC-004-005-----0
 62
     7
370
    25
100
AcDbLine
 10
156.763958
 20
193.961006
 30
0.0
 11
154.153092
 21
196.571871
 31
0.0
  0
LINE
  5
95
330
87
100
AcDbEntity
  8
LC-004-005-----0
 62
     7
370
    25
100
AcDbLine
 10
156.763869
 20
191.132667
 30
0.0
 11
154.153092
 21
193.743444
 31
0.0
  0
LINE
  5
96
330
87
100
AcDbEntity
  8
LC-004-005-----0
 62
     7
370
    25
100
AcDbLine
 10
156.763781
 20
188.304328
 30
0.0
 11
154.153092
 21
190.915017
 31
0.0
  0
LINE
  5
97
330
87
100
AcDbEntity
  8
LC-004-005-----0
 62
     7
370
    25
100
AcDbLine
 10
156.763692
 20
185.47599
 30
0.0
 11
154.153092
 21
188.08659
 31
0.0
  0
LINE
  5
98
330
87
100
AcDbEntity
  8
LC-004-005-----0
 62
     7
370
    25
100
AcDbLine
 10
156.763604
 20
182.647651
 30
0.0
 11
154.153092
 21
185.258163
 31
0.0
  0
LINE
  5
99
330
87
100
AcDbEntity
  8
LC-004-005-----0
 62
     7
370
    25
100
AcDbLine
 10
156.763515
 20
179.819312
 30
0.0
 11
154.153092
 21
182.429735
 31
0.0
  0
LINE
  5
9A
330
87
100
AcDbEntity
  8
LC-004-005-----0
 62
     7
370
    25
100
AcDbLine
 10
156.763427
 20
176.990974
 30
0.0
 11
154.153092
 21
179.601308
 31
0.0
  0
LINE
  5
9B
330
87
100
AcDbEntity
  8
LC-004-005-----0
 62
     7
370
    25
100
AcDbLine
 10
156.763338
 20
174.162635
 30
0.0
 11
154.153092
 21
176.772881
 31
0.0
  0
LINE
  5
9C
330
87
100
AcDbEntity
  8
LC-004-005-----0
 62
     7
370
    25
100
AcDbLine
 10
156.76325
 20
171.334297
 30
0.0
 11
154.153092
 21
173.944454
 31
0.0
  0
LINE
  5
9D
330
87
100
AcDbEntity
  8
LC-004-005-----0
 62
     7
370
    25
100
AcDbLine
 10
156.763161
 20
168.505958
 30
0.0
 11
154.153092
 21
171.116027
 31
0.0
  0
LINE
  5
9E
330
87
100
AcDbEntity
  8
LC-004-005-----0
 62
     7
370
    25
100
AcDbLine
 10
156.763073
 20
165.677619
 30
0.0
 11
154.153092
 21
168.2876
 31
0.0
  0
LINE
  5
9F
330
87
100
AcDbEntity
  8
LC-004-005-----0
 62
     7
370
    25
100
AcDbLine
 10
156.762984
 20
162.849281
 30
0.0
 11
154.153092
 21
165.459173
 31
0.0
  0
LINE
  5
A0
330
87
100
AcDbEntity
  8
LC-004-005-----0
 62
     7
370
    25
100
AcDbLine
 10
156.762896
 20
160.020942
 30
0.0
 11
154.153092
 21
162.630746
 31
0.0
  0
LINE
  5
A1
330
87
100
AcDbEntity
  8
LC-004-005-----0
 62
     7
370
    25
100
AcDbLine
 10
156.762807
 20
157.192603
 30
0.0
 11
154.153092
 21
159.802318
 31
0.0
  0
LINE
  5
A2
330
87
100
AcDbEntity
  8
LC-004-005-----0
 62
     7
370
    25
100
AcDbLine
 10
157.153092
 20
153.973891
 30
0.0
 11
154.153092
 21
156.973891
 31
0.0
  0
LINE
  5
A3
330
87
100
AcDbEntity
  8
LC-004-005-----0
 62
     7
370
    25
100
AcDbLine
 10
157.153092
 20
151.145464
 30
0.0
 11
154.153092
 21
154.145464
 31
0.0
  0
LINE
  5
A4
330
87
100
AcDbEntity
  8
LC-004-005-----0
 62
     7
370
    25
100
AcDbLine
 10
157.153092
 20
148.317037
 30
0.0
 11
154.153092
 21
151.317037
 31
0.0
  0
LINE
  5
A5
330
87
100
AcDbEntity
  8
LC-004-005-----0
 62
     7
370
    25
100
AcDbLine
 10
157.153092
 20
145.48861
 30
0.0
 11
154.153092
 21
148.48861
 31
0.0
  0
LINE
  5
A6
330
87
100
AcDbEntity
  8
LC-004-005-----0
 62
     7
370
    25
100
AcDbLine
 10
157.153092
 20
142.660183
 30
0.0
 11
154.153092
 21
145.660183
 31
0.0
  0
LINE
  5
A7
330
87
100
AcDbEntity
  8
LC-004-005-----0
 62
     7
370
    25
100
AcDbLine
 10
157.153092
 20
139.831756
 30
0.0
 11
154.153092
 21
142.831756
 31
0.0
  0
LINE
  5
A8
330
87
100
AcDbEntity
  8
LC-004-005-----0
 62
     7
370
    25
100
AcDbLine
 10
157.153092
 20
137.003329
 30
0.0
 11
154.153092
 21
140.003329
 31
0.0
  0
LINE
  5
A9
330
87
100
AcDbEntity
  8
LC-004-005-----0
 62
     7
370
    25
100
AcDbLine
 10
157.153092
 20
134.174901
 30
0.0
 11
154.153092
 21
137.174901
 31
0.0
  0
LINE
  5
AA
330
87
100
AcDbEntity
  8
LC-004-005-----0
 62
     7
370
    25
100
AcDbLine
 10
157.153092
 20
131.346474
 30
0.0
 11
154.153092
 21
134.346474
 31
0.0
  0
LINE
  5
AB
330
87
100
AcDbEntity
  8
LC-004-005-----0
 62
     7
370
    25
100
AcDbLine
 10
157.153092
 20
128.518047
 30
0.0
 11
154.153092
 21
131.518047
 31
0.0
  0
LINE
  5
AC
330
87
100
AcDbEntity
  8
LC-004-005-----0
 62
     7
370
    25
100
AcDbLine
 10
157.153092
 20
125.68962
 30
0.0
 11
154.153092
 21
128.68962
 31
0.0
  0
LINE
  5
AD
330
87
100
AcDbEntity
  8
LC-004-005-----0
 62
     7
370
    25
100
AcDbLine
 10
157.153092
 20
122.861193
 30
0.0
 11
154.153092
 21
125.861193
 31
0.0
  0
LINE
  5
AE
330
87
100
AcDbEntity
  8
LC-004-005-----0
 62
     7
370
    25
100
AcDbLine
 10
157.153092
 20
120.032766
 30
0.0
 11
154.153092
 21
123.032766
 31
0.0
  0
LINE
  5
AF
330
87
100
AcDbEntity
  8
LC-004-005-----0
 62
     7
370
    25
100
AcDbLine
 10
157.153092
 20
117.204339
 30
0.0
 11
154.153092
 21
120.204339
 31
0.0
  0
LINE
  5
B0
330
87
100
AcDbEntity
  8
LC-004-005-----0
 62
     7
370
    25
100
AcDbLine
 10
157.153092
 20
114.375912
 30
0.0
 11
154.153092
 21
117.375912
 31
0.0
  0
LINE
  5
B1
330
87
100
AcDbEntity
  8
LC-004-005-----0
 62
     7
370
    25
100
AcDbLine
 10
157.153092
 20
111.547484
 30
0.0
 11
154.153092
 21
114.547484
 31
0.0
  0
LINE
  5
B2
330
87
100
AcDbEntity
  8
LC-004-005-----0
 62
     7
370
    25
100
AcDbLine
 10
156.095241
 20
109.776908
 30
0.0
 11
154.153092
 21
111.719057
 31
0.0
  0
ENDBLK
  5
89
330
87
100
AcDbEntity
  8
0
100
AcDbBlockEnd
  0
BLOCK
  5
C6
330
BC
100
AcDbEntity
  8
0
100
AcDbBlockBegin
  2
*D3
 70
     1
 71
     0
 10
0.0
 20
0.0
 30
0.0
  3
*D3
  1

  0
LINE
  5
BD
330
BC
100
AcDbEntity
  8
LC-005-003-----0
 62
     2
370
    -2
100
AcDbLine
 10
52.153092
 20
229.076908
 30
0.0
 11
52.153092
 21
256.912406
 31
0.0
  0
LINE
  5
BE
330
BC
100
AcDbEntity
  8
LC-005-003-----0
 62
     2
370
    -2
100
AcDbLine
 10
152.153092
 20
229.076908
 30
0.0
 11
152.153092
 21
256.912406
 31
0.0
  0
LINE
  5
BF
330
BC
100
AcDbEntity
  8
LC-005-003-----0
 62
     2
370
    -2
100
AcDbLine
 10
80.153092
 20
253.312406
 30
0.0
 11
124.153092
 21
253.312406
 31
0.0
  0
SOLID
  5
C0
330
BC
100
AcDbEntity
  8
LC-005-003-----0
 62
     2
100
AcDbTrace
 10
80.153092
 20
257.979072
 30
0.0
 11
80.153092
 21
248.645739
 31
0.0
 12
52.153092
 22
253.312406
 32
0.0
 13
52.153092
 23
253.312406
 33
0.0
  0
SOLID
  5
C1
330
BC
100
AcDbEntity
  8
LC-005-003-----0
 62
     2
100
AcDbTrace
 10
124.153092
 20
248.645739
 30
0.0
 11
124.153092
 21
257.979072
 31
0.0
 12
152.153092
 22
253.312406
 32
0.0
 13
152.153092
 23
253.312406
 33
0.0
  0
MTEXT
  5
C2
330
BC
100
AcDbEntity
  8
LC-005-003-----0
 62
     2
100
AcDbMText
 10
115.132452
 20
284.112406
 30
0.0
 40
28.0
 41
0.0
 71
     5
 72
     1
  1
\A1;100
  7
LCTX15-400-0-0pDIN-Schrift
 73
     1
 44
1.0
  0
POINT
  5
C3
330
BC
100
AcDbEntity
  8
Defpoints
 62
     0
100
AcDbPoint
 10
52.153092
 20
229.076908
 30
0.0
  0
POINT
  5
C4
330
BC
100
AcDbEntity
  8
Defpoints
 62
     0
100
AcDbPoint
 10
152.153092
 20
229.076908
 30
0.0
  0
POINT
  5
C5
330
BC
100
AcDbEntity
  8
Defpoints
 62
     0
100
AcDbPoint
 10
152.153092
 20
253.312406
 30
0.0
  0
ENDBLK
  5
C7
330
BC
100
AcDbEntity
  8
0
100
AcDbBlockEnd
  0
BLOCK
  5
D9
330
D8
100
AcDbEntity
  8
0
100
AcDbBlockBegin
  2
*X34
 70
     1
 71
     0
 10
0.0
 20
0.0
 30
0.0
  3
*X34
  1

  4
*X3
  0
LINE
  5
DB
330
D8
100
AcDbEntity
  8
LC-004-005-----0
 62
     7
370
    25
100
AcDbLine
 10
58.824578
 20
211.559643
 30
0.0
 11
59.370722
 21
212.105787
 31
0.0
  0
LINE
  5
DC
330
D8
100
AcDbEntity
  8
LC-004-005-----0
 62
     7
370
    25
100
AcDbLine
 10
58.254401
 20
213.817892
 30
0.0
 11
58.637108
 21
214.2006
 31
0.0
  0
LINE
  5
DD
330
D8
100
AcDbEntity
  8
LC-004-005-----0
 62
     7
370
    25
100
AcDbLine
 10
58.953092
 20
214.516584
 30
0.0
 11
59.653092
 21
215.216584
 31
0.0
  0
LINE
  5
DE
330
D8
100
AcDbEntity
  8
LC-004-005-----0
 62
     7
370
    25
100
AcDbLine
 10
58.953092
 20
217.345011
 30
0.0
 11
59.653092
 21
218.045011
 31
0.0
  0
LINE
  5
DF
330
D8
100
AcDbEntity
  8
LC-004-005-----0
 62
     7
370
    25
100
AcDbLine
 10
58.056562
 20
219.276908
 30
0.0
 11
58.725284
 21
219.945631
 31
0.0
  0
LINE
  5
E0
330
D8
100
AcDbEntity
  8
LC-004-005-----0
 62
     7
370
    25
100
AcDbLine
 10
55.790157
 20
219.83893
 30
0.0
 11
56.286273
 21
220.335046
 31
0.0
  0
LINE
  5
E1
330
D8
100
AcDbEntity
  8
LC-004-005-----0
 62
     7
370
    25
100
AcDbLine
 10
55.353092
 20
222.230293
 30
0.0
 11
56.053092
 21
222.930293
 31
0.0
  0
LINE
  5
E2
330
D8
100
AcDbEntity
  8
LC-004-005-----0
 62
     7
370
    25
100
AcDbLine
 10
55.353092
 20
225.05872
 30
0.0
 11
56.053092
 21
225.75872
 31
0.0
  0
LINE
  5
E3
330
D8
100
AcDbEntity
  8
LC-004-005-----0
 62
     7
370
    25
100
AcDbLine
 10
55.353092
 20
227.887147
 30
0.0
 11
56.053092
 21
228.587147
 31
0.0
  0
LINE
  5
E4
330
D8
100
AcDbEntity
  8
LC-004-005-----0
 62
     7
370
    25
100
AcDbLine
 10
52.153092
 20
227.515574
 30
0.0
 11
52.853092
 21
228.215574
 31
0.0
  0
LINE
  5
E5
330
D8
100
AcDbEntity
  8
LC-004-005-----0
 62
     7
370
    25
100
AcDbLine
 10
54.664653
 20
230.027135
 30
0.0
 11
55.19265
 21
230.555131
 31
0.0
  0
ENDBLK
  5
DA
330
D8
100
AcDbEntity
  8
0
100
AcDbBlockEnd
  0
BLOCK
  5
F2
330
E8
100
AcDbEntity
  8
0
100
AcDbBlockBegin
  2
*D5
 70
     1
 71
     0
 10
0.0
 20
0.0
 30
0.0
  3
*D5
  1

  0
LINE
  5
E9
330
E8
100
AcDbEntity
  8
LC-005-003-----0
 62
     2
370
    -2
100
AcDbLine
 10
47.153092
 20
110.776908
 30
0.0
 11
47.153092
 21
50.454
 31
0.0
  0
LINE
  5
EA
330
E8
100
AcDbEntity
  8
LC-005-003-----0
 62
     2
370
    -2
100
AcDbLine
 10
157.153092
 20
110.776908
 30
0.0
 11
157.153092
 21
50.454
 31
0.0
  0
LINE
  5
EB
330
E8
100
AcDbEntity
  8
LC-005-003-----0
 62
     2
370
    -2
100
AcDbLine
 10
75.153092
 20
54.054
 30
0.0
 11
129.153092
 21
54.054
 31
0.0
  0
SOLID
  5
EC
330
E8
100
AcDbEntity
  8
LC-005-003-----0
 62
     2
100
AcDbTrace
 10
75.153092
 20
58.720667
 30
0.0
 11
75.153092
 21
49.387333
 31
0.0
 12
47.153092
 22
54.054
 32
0.0
 13
47.153092
 23
54.054
 33
0.0
  0
SOLID
  5
ED
330
E8
100
AcDbEntity
  8
LC-005-003-----0
 62
     2
100
AcDbTrace
 10
129.153092
 20
49.387333
 30
0.0
 11
129.153092
 21
58.720667
 31
0.0
 12
157.153092
 22
54.054
 32
0.0
 13
157.153092
 23
54.054
 33
0.0
  0
MTEXT
  5
EE
330
E8
100
AcDbEntity
  8
LC-005-003-----0
 62
     2
100
AcDbMText
 10
99.255352
 20
84.854
 30
0.0
 40
28.0
 41
0.0
 71
     5
 72
     1
  1
\A1;%%c110
  7
LCTX15-400-0-0pDIN-Schrift
 73
     1
 44
1.0
  0
POINT
  5
EF
330
E8
100
AcDbEntity
  8
Defpoints
 62
     0
100
AcDbPoint
 10
47.153092
 20
110.776908
 30
0.0
  0
POINT
  5
F0
330
E8
100
AcDbEntity
  8
Defpoints
 62
     0
100
AcDbPoint
 10
157.153092
 20
110.776908
 30
0.0
  0
POINT
  5
F1
330
E8
100
AcDbEntity
  8
Defpoints
 62
     0
100
AcDbPoint
 10
157.153092
 20
54.054
 30
0.0
  0
ENDBLK
  5
F3
330
E8
100
AcDbEntity
  8
0
100
AcDbBlockEnd
  0
BLOCK
  5
112
330
111
100
AcDbEntity
  8
0
100
AcDbBlockBegin
  2
*X46
 70
     1
 71
     0
 10
0.0
 20
0.0
 30
0.0
  3
*X46
  1

  4
*X4
  0
LINE
  5
114
330
111
100
AcDbEntity
  8
LC-004-005-----0
 62
     7
370
    25
100
AcDbLine
 10
62.028135
 20
226.076908
 30
0.0
 11
63.153092
 21
227.201866
 31
0.0
  0
LINE
  5
115
330
111
100
AcDbEntity
  8
LC-004-005-----0
 62
     7
370
    25
100
AcDbLine
 10
56.653092
 20
226.35872
 30
0.0
 11
58.213456
 21
227.919084
 31
0.0
  0
LINE
  5
116
330
111
100
AcDbEntity
  8
LC-004-005-----0
 62
     7
370
    25
100
AcDbLine
 10
58.810917
 20
228.516544
 30
0.0
 11
60.371281
 21
230.076908
 31
0.0
  0
ENDBLK
  5
113
330
111
100
AcDbEntity
  8
0
100
AcDbBlockEnd
  0
BLOCK
  5
119
330
118
100
AcDbEntity
  8
0
100
AcDbBlockBegin
  2
*X57
 70
     1
 71
     0
 10
0.0
 20
0.0
 30
0.0
  3
*X57
  1

  4
*X5
  0
LINE
  5
11B
330
118
100
AcDbEntity
  8
LC-004-005-----0
 62
     7
370
    25
100
AcDbLine
 10
73.653092
 20
226.388157
 30
0.0
 11
75.135755
 21
227.87082
 31
0.0
  0
LINE
  5
11C
330
118
100
AcDbEntity
  8
LC-004-005-----0
 62
     7
370
    25
100
AcDbLine
 10
69.153092
 20
227.545011
 30
0.0
 11
71.684989
 21
230.076908
 31
0.0
  0
ENDBLK
  5
11A
330
118
100
AcDbEntity
  8
0
100
AcDbBlockEnd
  0
BLOCK
  5
11F
330
11E
100
AcDbEntity
  8
0
100
AcDbBlockBegin
  2
*X68
 70
     1
 71
     0
 10
0.0
 20
0.0
 30
0.0
  3
*X68
  1

  4
*X6
  0
LINE
  5
121
330
11E
100
AcDbEntity
  8
LC-004-005-----0
 62
     7
370
    25
100
AcDbLine
 10
85.653092
 20
227.074449
 30
0.0
 11
87.004527
 21
228.425883
 31
0.0
  0
LINE
  5
122
330
11E
100
AcDbEntity
  8
LC-004-005-----0
 62
     7
370
    25
100
AcDbLine
 10
81.277491
 20
228.355702
 30
0.0
 11
82.874299
 21
229.952509
 31
0.0
  0
ENDBLK
  5
120
330
11E
100
AcDbEntity
  8
0
100
AcDbBlockEnd
  0
BLOCK
  5
132
330
127
100
AcDbEntity
  8
0
100
AcDbBlockBegin
  2
*D9
 70
     1
 71
     0
 10
0.0
 20
0.0
 30
0.0
  3
*D9
  1

  0
LINE
  5
128
330
127
100
AcDbEntity
  8
LC-005-003-----0
 62
     2
370
    -2
100
AcDbLine
 10
53.853092
 20
230.776908
 30
0.0
 11
15.49732
 21
230.776908
 31
0.0
  0
LINE
  5
129
330
127
100
AcDbEntity
  8
LC-005-003-----0
 62
     2
370
    -2
100
AcDbLine
 10
51.653092
 20
224.376908
 30
0.0
 11
15.49732
 21
224.376908
 31
0.0
  0
LINE
  5
12A
330
127
100
AcDbEntity
  8
LC-005-003-----0
 62
     2
370
    -2
100
AcDbLine
 10
19.09732
 20
258.776908
 30
0.0
 11
19.09732
 21
286.776908
 31
0.0
  0
LINE
  5
12B
330
127
100
AcDbEntity
  8
LC-005-003-----0
 62
     2
370
    -2
100
AcDbLine
 10
19.09732
 20
196.376908
 30
0.0
 11
19.09732
 21
199.973378
 31
0.0
  0
SOLID
  5
12C
330
127
100
AcDbEntity
  8
LC-005-003-----0
 62
     2
100
AcDbTrace
 10
14.430654
 20
258.776908
 30
0.0
 11
23.763987
 21
258.776908
 31
0.0
 12
19.09732
 22
230.776908
 32
0.0
 13
19.09732
 23
230.776908
 33
0.0
  0
SOLID
  5
12D
330
127
100
AcDbEntity
  8
LC-005-003-----0
 62
     2
100
AcDbTrace
 10
23.763987
 20
196.376908
 30
0.0
 11
14.430654
 21
196.376908
 31
0.0
 12
19.09732
 22
224.376908
 32
0.0
 13
19.09732
 23
224.376908
 33
0.0
  0
MTEXT
  5
12E
330
127
100
AcDbEntity
  8
LC-005-003-----0
 62
     2
100
AcDbMText
 10
-11.70268
 20
212.058
 30
0.0
 40
28.0
 41
0.0
 71
     5
 72
     1
  1
\A1;7
  7
LCTX15-400-0-0pDIN-Schrift
 11
6.123031769111886E-17
 21
1.0
 31
0.0
 73
     1
 44
1.0
  0
POINT
  5
12F
330
127
100
AcDbEntity
  8
Defpoints
 62
     0
100
AcDbPoint
 10
53.853092
 20
230.776908
 30
0.0
  0
POINT
  5
130
330
127
100
AcDbEntity
  8
Defpoints
 62
     0
100
AcDbPoint
 10
51.653092
 20
224.376908
 30
0.0
  0
POINT
  5
131
330
127
100
AcDbEntity
  8
Defpoints
 62
     0
100
AcDbPoint
 10
19.09732
 20
224.376908
 30
0.0
  0
ENDBLK
  5
133
330
127
100
AcDbEntity
  8
0
100
AcDbBlockEnd
  0
BLOCK
  5
135
330
134
100
AcDbEntity
  8
0
100
AcDbBlockBegin
  2
*X710
 70
     1
 71
     0
 10
0.0
 20
0.0
 30
0.0
  3
*X710
  1

  4
*X7
  0
LINE
  5
137
330
134
100
AcDbEntity
  8
LC-004-005-----0
 62
     7
370
    25
100
AcDbLine
 10
101.297688
 20
228.576908
 30
0.0
 11
102.153092
 21
229.432313
 31
0.0
  0
LINE
  5
138
330
134
100
AcDbEntity
  8
LC-004-005-----0
 62
     7
370
    25
100
AcDbLine
 10
98.469261
 20
228.576908
 30
0.0
 11
99.969261
 21
230.076908
 31
0.0
  0
LINE
  5
139
330
134
100
AcDbEntity
  8
LC-004-005-----0
 62
     7
370
    25
100
AcDbLine
 10
93.153092
 20
226.089167
 30
0.0
 11
94.653168
 21
227.589243
 31
0.0
  0
LINE
  5
13A
330
134
100
AcDbEntity
  8
LC-004-005-----0
 62
     7
370
    25
100
AcDbLine
 10
95.640757
 20
228.576832
 30
0.0
 11
97.140833
 21
230.076908
 31
0.0
  0
ENDBLK
  5
136
330
134
100
AcDbEntity
  8
0
100
AcDbBlockEnd
  0
BLOCK
  5
1A9
330
1A8
100
AcDbEntity
  8
0
100
AcDbBlockBegin
  2
*X811
 70
     1
 71
     0
 10
0.0
 20
0.0
 30
0.0
  3
*X811
  1

  4
*X8
  0
LINE
  5
1AB
330
1A8
100
AcDbEntity
  8
LC-004-005-----0
 62
     7
370
    25
100
AcDbLine
 10
146.153092
 20
225.349052
 30
0.0
 11
147.653092
 21
226.849052
 31
0.0
  0
LINE
  5
1AC
330
1A8
100
AcDbEntity
  8
LC-004-005-----0
 62
     7
370
    25
100
AcDbLine
 10
141.224095
 20
226.076908
 30
0.0
 11
142.653092
 21
227.505906
 31
0.0
  0
LINE
  5
1AD
330
1A8
100
AcDbEntity
  8
LC-004-005-----0
 62
     7
370
    25
100
AcDbLine
 10
143.724095
 20
228.576908
 30
0.0
 11
145.223114
 21
230.075928
 31
0.0
  0
ENDBLK
  5
1AA
330
1A8
100
AcDbEntity
  8
0
100
AcDbBlockEnd
  0
BLOCK
  5
1B0
330
1AF
100
AcDbEntity
  8
0
100
AcDbBlockBegin
  2
*X912
 70
     1
 71
     0
 10
0.0
 20
0.0
 30
0.0
  3
*X912
  1

  4
*X9
  0
LINE
  5
1B2
330
1AF
100
AcDbEntity
  8
LC-004-005-----0
 62
     7
370
    25
100
AcDbLine
 10
129.910386
 20
226.076908
 30
0.0
 11
130.653092
 21
226.819615
 31
0.0
  0
LINE
  5
1B3
330
1AF
100
AcDbEntity
  8
LC-004-005-----0
 62
     7
370
    25
100
AcDbLine
 10
132.410386
 20
228.576908
 30
0.0
 11
133.686708
 21
229.85323
 31
0.0
  0
ENDBLK
  5
1B1
330
1AF
100
AcDbEntity
  8
0
100
AcDbBlockEnd
  0
BLOCK
  5
1B6
330
1B5
100
AcDbEntity
  8
0
100
AcDbBlockBegin
  2
*X1013
 70
     1
 71
     0
 10
0.0
 20
0.0
 30
0.0
  3
*X1013
  1

  4
*X10
  0
LINE
  5
1B8
330
1B5
100
AcDbEntity
  8
LC-004-005-----0
 62
     7
370
    25
100
AcDbLine
 10
118.596678
 20
226.076908
 30
0.0
 11
118.653092
 21
226.133323
 31
0.0
  0
LINE
  5
1B9
330
1B5
100
AcDbEntity
  8
LC-004-005-----0
 62
     7
370
    25
100
AcDbLine
 10
121.024962
 20
228.505193
 30
0.0
 11
122.120623
 21
229.600854
 31
0.0
  0
ENDBLK
  5
1B7
330
1B5
100
AcDbEntity
  8
0
100
AcDbBlockEnd
  0
BLOCK
  5
1CD
330
1CC
100
AcDbEntity
  8
0
100
AcDbBlockBegin
  2
*X1114
 70
     1
 71
     0
 10
0.0
 20
0.0
 30
0.0
  3
*X1114
  1

  4
*X11
  0
LINE
  5
1CF
330
1CC
100
AcDbEntity
  8
LC-004-005-----0
 62
     7
370
    25
100
AcDbLine
 10
145.342865
 20
213.225116
 30
0.0
 11
146.011135
 21
213.893386
 31
0.0
  0
LINE
  5
1D0
330
1CC
100
AcDbEntity
  8
LC-004-005-----0
 62
     7
370
    25
100
AcDbLine
 10
144.653092
 20
215.363771
 30
0.0
 11
145.353092
 21
216.063771
 31
0.0
  0
LINE
  5
1D1
330
1CC
100
AcDbEntity
  8
LC-004-005-----0
 62
     7
370
    25
100
AcDbLine
 10
144.653092
 20
218.192198
 30
0.0
 11
145.371222
 21
218.910327
 31
0.0
  0
LINE
  5
1D2
330
1CC
100
AcDbEntity
  8
LC-004-005-----0
 62
     7
370
    25
100
AcDbLine
 10
145.719674
 20
219.258779
 30
0.0
 11
146.437803
 21
219.976908
 31
0.0
  0
LINE
  5
1D3
330
1CC
100
AcDbEntity
  8
LC-004-005-----0
 62
     7
370
    25
100
AcDbLine
 10
148.253092
 20
221.792198
 30
0.0
 11
148.953092
 21
222.492198
 31
0.0
  0
LINE
  5
1D4
330
1CC
100
AcDbEntity
  8
LC-004-005-----0
 62
     7
370
    25
100
AcDbLine
 10
151.729601
 20
225.268707
 30
0.0
 11
152.254705
 21
225.79381
 31
0.0
  0
LINE
  5
1D5
330
1CC
100
AcDbEntity
  8
LC-004-005-----0
 62
     7
370
    25
100
AcDbLine
 10
148.253092
 20
224.620625
 30
0.0
 11
148.953092
 21
225.320625
 31
0.0
  0
LINE
  5
1D6
330
1CC
100
AcDbEntity
  8
LC-004-005-----0
 62
     7
370
    25
100
AcDbLine
 10
151.453092
 20
227.820625
 30
0.0
 11
152.153092
 21
228.520625
 31
0.0
  0
LINE
  5
1D7
330
1CC
100
AcDbEntity
  8
LC-004-005-----0
 62
     7
370
    25
100
AcDbLine
 10
148.253092
 20
227.449052
 30
0.0
 11
148.953092
 21
228.149052
 31
0.0
  0
LINE
  5
1D8
330
1CC
100
AcDbEntity
  8
LC-004-005-----0
 62
     7
370
    25
100
AcDbLine
 10
150.813676
 20
230.009635
 30
0.0
 11
151.334566
 21
230.530526
 31
0.0
  0
ENDBLK
  5
1CE
330
1CC
100
AcDbEntity
  8
0
100
AcDbBlockEnd
  0
BLOCK
  5
253
330
252
100
AcDbEntity
  8
0
100
AcDbBlockBegin
  2
*X1215
 70
     1
 71
     0
 10
0.0
 20
0.0
 30
0.0
  3
*X1215
  1

  4
*X12
  0
LINE
  5
255
330
252
100
AcDbEntity
  8
LC-004-005-----0
 62
     7
370
    25
100
AcDbLine
 10
47.379964
 20
106.776934
 30
0.0
 11
50.15353
 21
109.5505
 31
0.0
  0
LINE
  5
256
330
252
100
AcDbEntity
  8
LC-004-005-----0
 62
     7
370
    25
100
AcDbLine
 10
44.551537
 20
106.776934
 30
0.0
 11
47.551512
 21
109.776908
 31
0.0
  0
LINE
  5
257
330
252
100
AcDbEntity
  8
LC-004-005-----0
 62
     7
370
    25
100
AcDbLine
 10
42.153485
 20
107.207309
 30
0.0
 11
47.153563
 21
112.207387
 31
0.0
  0
LINE
  5
258
330
252
100
AcDbEntity
  8
LC-004-005-----0
 62
     7
370
    25
100
AcDbLine
 10
42.153485
 20
110.035736
 30
0.0
 11
47.153572
 21
115.035823
 31
0.0
  0
LINE
  5
259
330
252
100
AcDbEntity
  8
LC-004-005-----0
 62
     7
370
    25
100
AcDbLine
 10
42.153485
 20
112.864164
 30
0.0
 11
47.15358
 21
117.864258
 31
0.0
  0
LINE
  5
25A
330
252
100
AcDbEntity
  8
LC-004-005-----0
 62
     7
370
    25
100
AcDbLine
 10
42.153485
 20
115.692591
 30
0.0
 11
43.237744
 21
116.776849
 31
0.0
  0
LINE
  5
25B
330
252
100
AcDbEntity
  8
LC-004-005-----0
 62
     7
370
    25
100
AcDbLine
 10
45.153579
 20
118.692684
 30
0.0
 11
47.153589
 21
120.692694
 31
0.0
  0
LINE
  5
25C
330
252
100
AcDbEntity
  8
LC-004-005-----0
 62
     7
370
    25
100
AcDbLine
 10
45.153579
 20
121.521112
 30
0.0
 11
47.153598
 21
123.52113
 31
0.0
  0
LINE
  5
25D
330
252
100
AcDbEntity
  8
LC-004-005-----0
 62
     7
370
    25
100
AcDbLine
 10
45.153579
 20
124.349539
 30
0.0
 11
46.367192
 21
125.563152
 31
0.0
  0
ENDBLK
  5
254
330
252
100
AcDbEntity
  8
0
100
AcDbBlockEnd
  0
BLOCK
  5
269
330
268
100
AcDbEntity
  8
0
100
AcDbBlockBegin
  2
*X1316
 70
     1
 71
     0
 10
0.0
 20
0.0
 30
0.0
  3
*X1316
  1

  4
*X13
  0
LINE
  5
26B
330
268
100
AcDbEntity
  8
LC-004-005-----0
 62
     7
370
    25
100
AcDbLine
 10
160.517049
 20
106.776934
 30
0.0
 11
162.152699
 21
108.412584
 31
0.0
  0
LINE
  5
26C
330
268
100
AcDbEntity
  8
LC-004-005-----0
 62
     7
370
    25
100
AcDbLine
 10
157.688622
 20
106.776934
 30
0.0
 11
162.152699
 21
111.241011
 31
0.0
  0
LINE
  5
26D
330
268
100
AcDbEntity
  8
LC-004-005-----0
 62
     7
370
    25
100
AcDbLine
 10
154.860195
 20
106.776934
 30
0.0
 11
162.152699
 21
114.069438
 31
0.0
  0
LINE
  5
26E
330
268
100
AcDbEntity
  8
LC-004-005-----0
 62
     7
370
    25
100
AcDbLine
 10
154.152655
 20
108.897821
 30
0.0
 11
155.031742
 21
109.776908
 31
0.0
  0
LINE
  5
26F
330
268
100
AcDbEntity
  8
LC-004-005-----0
 62
     7
370
    25
100
AcDbLine
 10
157.152623
 20
111.897789
 30
0.0
 11
162.031683
 21
116.776849
 31
0.0
  0
LINE
  5
270
330
268
100
AcDbEntity
  8
LC-004-005-----0
 62
     7
370
    25
100
AcDbLine
 10
157.152614
 20
114.726207
 30
0.0
 11
159.203256
 21
116.776849
 31
0.0
  0
LINE
  5
271
330
268
100
AcDbEntity
  8
LC-004-005-----0
 62
     7
370
    25
100
AcDbLine
 10
157.152606
 20
117.554626
 30
0.0
 11
159.152606
 21
119.554626
 31
0.0
  0
LINE
  5
272
330
268
100
AcDbEntity
  8
LC-004-005-----0
 62
     7
370
    25
100
AcDbLine
 10
157.152597
 20
120.383044
 30
0.0
 11
159.152606
 21
122.383053
 31
0.0
  0
LINE
  5
273
330
268
100
AcDbEntity
  8
LC-004-005-----0
 62
     7
370
    25
100
AcDbLine
 10
157.152588
 20
123.211463
 30
0.0
 11
159.152606
 21
125.21148
 31
0.0
  0
ENDBLK
  5
26A
330
268
100
AcDbEntity
  8
0
100
AcDbBlockEnd
  0
BLOCK
  5
284
330
283
100
AcDbEntity
  8
0
100
AcDbBlockBegin
  2
*X1417
 70
     1
 71
     0
 10
0.0
 20
0.0
 30
0.0
  3
*X1417
  1

  4
*X14
  0
LINE
  5
286
330
283
100
AcDbEntity
  8
LC-004-005-----0
 62
     7
370
    25
100
AcDbLine
 10
110.111396
 20
226.076908
 30
0.0
 11
111.153092
 21
227.118605
 31
0.0
  0
LINE
  5
287
330
283
100
AcDbEntity
  8
LC-004-005-----0
 62
     7
370
    25
100
AcDbLine
 10
109.422149
 20
228.216089
 30
0.0
 11
110.484605
 21
229.278544
 31
0.0
  0
LINE
  5
288
330
283
100
AcDbEntity
  8
LC-004-005-----0
 62
     7
370
    25
100
AcDbLine
 10
106.954542
 20
228.576908
 30
0.0
 11
108.454542
 21
230.076908
 31
0.0
  0
LINE
  5
289
330
283
100
AcDbEntity
  8
LC-004-005-----0
 62
     7
370
    25
100
AcDbLine
 10
104.126115
 20
228.576908
 30
0.0
 11
105.626115
 21
230.076908
 31
0.0
  0
LINE
  5
28A
330
283
100
AcDbEntity
  8
LC-004-005-----0
 62
     7
370
    25
100
AcDbLine
 10
102.153092
 20
229.432313
 30
0.0
 11
102.797688
 21
230.076908
 31
0.0
  0
ENDBLK
  5
285
330
283
100
AcDbEntity
  8
0
100
AcDbBlockEnd
  0
BLOCK
  5
28E
330
28D
100
AcDbEntity
  8
0
100
AcDbBlockBegin
  2
*X1518
 70
     1
 71
     0
 10
0.0
 20
0.0
 30
0.0
  3
*X1518
  1

  4
*X15
  0
LINE
  5
290
330
28D
100
AcDbEntity
  8
LC-004-005-----0
 62
     7
370
    25
100
AcDbLine
 10
98.4632
 20
109.776908
 30
0.0
 11
102.153092
 21
113.466801
 31
0.0
  0
LINE
  5
291
330
28D
100
AcDbEntity
  8
LC-004-005-----0
 62
     7
370
    25
100
AcDbLine
 10
92.806346
 20
109.776908
 30
0.0
 11
102.153092
 21
119.123655
 31
0.0
  0
LINE
  5
292
330
28D
100
AcDbEntity
  8
LC-004-005-----0
 62
     7
370
    25
100
AcDbLine
 10
87.149491
 20
109.776908
 30
0.0
 11
101.149491
 21
123.776908
 31
0.0
  0
LINE
  5
293
330
28D
100
AcDbEntity
  8
LC-004-005-----0
 62
     7
370
    25
100
AcDbLine
 10
81.492637
 20
109.776908
 30
0.0
 11
95.492637
 21
123.776908
 31
0.0
  0
LINE
  5
294
330
28D
100
AcDbEntity
  8
LC-004-005-----0
 62
     7
370
    25
100
AcDbLine
 10
75.835783
 20
109.776908
 30
0.0
 11
89.835783
 21
123.776908
 31
0.0
  0
LINE
  5
295
330
28D
100
AcDbEntity
  8
LC-004-005-----0
 62
     7
370
    25
100
AcDbLine
 10
70.178929
 20
109.776908
 30
0.0
 11
84.178929
 21
123.776908
 31
0.0
  0
LINE
  5
296
330
28D
100
AcDbEntity
  8
LC-004-005-----0
 62
     7
370
    25
100
AcDbLine
 10
64.522074
 20
109.776908
 30
0.0
 11
78.522074
 21
123.776908
 31
0.0
  0
LINE
  5
297
330
28D
100
AcDbEntity
  8
LC-004-005-----0
 62
     7
370
    25
100
AcDbLine
 10
58.86522
 20
109.776908
 30
0.0
 11
72.86522
 21
123.776908
 31
0.0
  0
LINE
  5
298
330
28D
100
AcDbEntity
  8
LC-004-005-----0
 62
     7
370
    25
100
AcDbLine
 10
53.208366
 20
109.776908
 30
0.0
 11
67.208366
 21
123.776908
 31
0.0
  0
LINE
  5
299
330
28D
100
AcDbEntity
  8
LC-004-005-----0
 62
     7
370
    25
100
AcDbLine
 10
50.153092
 20
112.378489
 30
0.0
 11
61.551512
 21
123.776908
 31
0.0
  0
LINE
  5
29A
330
28D
100
AcDbEntity
  8
LC-004-005-----0
 62
     7
370
    25
100
AcDbLine
 10
50.153092
 20
118.035343
 30
0.0
 11
55.894657
 21
123.776908
 31
0.0
  0
LINE
  5
29B
330
28D
100
AcDbEntity
  8
LC-004-005-----0
 62
     7
370
    25
100
AcDbLine
 10
50.153092
 20
123.692198
 30
0.0
 11
50.237803
 21
123.776908
 31
0.0
  0
LINE
  5
29C
330
28D
100
AcDbEntity
  8
LC-004-005-----0
 62
     7
370
    25
100
AcDbLine
 10
102.153092
 20
118.464223
 30
0.0
 11
96.840407
 21
123.776908
 31
0.0
  0
LINE
  5
29D
330
28D
100
AcDbEntity
  8
LC-004-005-----0
 62
     7
370
    25
100
AcDbLine
 10
102.153092
 20
112.807369
 30
0.0
 11
91.183553
 21
123.776908
 31
0.0
  0
LINE
  5
29E
330
28D
100
AcDbEntity
  8
LC-004-005-----0
 62
     7
370
    25
100
AcDbLine
 10
99.526699
 20
109.776908
 30
0.0
 11
85.526699
 21
123.776908
 31
0.0
  0
LINE
  5
29F
330
28D
100
AcDbEntity
  8
LC-004-005-----0
 62
     7
370
    25
100
AcDbLine
 10
93.869845
 20
109.776908
 30
0.0
 11
79.869845
 21
123.776908
 31
0.0
  0
LINE
  5
2A0
330
28D
100
AcDbEntity
  8
LC-004-005-----0
 62
     7
370
    25
100
AcDbLine
 10
88.21299
 20
109.776908
 30
0.0
 11
74.21299
 21
123.776908
 31
0.0
  0
LINE
  5
2A1
330
28D
100
AcDbEntity
  8
LC-004-005-----0
 62
     7
370
    25
100
AcDbLine
 10
82.556136
 20
109.776908
 30
0.0
 11
68.556136
 21
123.776908
 31
0.0
  0
LINE
  5
2A2
330
28D
100
AcDbEntity
  8
LC-004-005-----0
 62
     7
370
    25
100
AcDbLine
 10
76.899282
 20
109.776908
 30
0.0
 11
62.899282
 21
123.776908
 31
0.0
  0
LINE
  5
2A3
330
28D
100
AcDbEntity
  8
LC-004-005-----0
 62
     7
370
    25
100
AcDbLine
 10
71.242428
 20
109.776908
 30
0.0
 11
57.242428
 21
123.776908
 31
0.0
  0
LINE
  5
2A4
330
28D
100
AcDbEntity
  8
LC-004-005-----0
 62
     7
370
    25
100
AcDbLine
 10
65.585573
 20
109.776908
 30
0.0
 11
51.585573
 21
123.776908
 31
0.0
  0
LINE
  5
2A5
330
28D
100
AcDbEntity
  8
LC-004-005-----0
 62
     7
370
    25
100
AcDbLine
 10
59.928719
 20
109.776908
 30
0.0
 11
50.153092
 21
119.552535
 31
0.0
  0
LINE
  5
2A6
330
28D
100
AcDbEntity
  8
LC-004-005-----0
 62
     7
370
    25
100
AcDbLine
 10
54.271865
 20
109.776908
 30
0.0
 11
50.153092
 21
113.895681
 31
0.0
  0
ENDBLK
  5
28F
330
28D
100
AcDbEntity
  8
0
100
AcDbBlockEnd
  0
BLOCK
  5
2A9
330
2A8
100
AcDbEntity
  8
0
100
AcDbBlockBegin
  2
*X1619
 70
     1
 71
     0
 10
0.0
 20
0.0
 30
0.0
  3
*X1619
  1

  4
*X16
  0
LINE
  5
2AB
330
2A8
100
AcDbEntity
  8
LC-004-005-----0
 62
     7
370
    25
100
AcDbLine
 10
149.374888
 20
109.776908
 30
0.0
 11
154.153092
 21
114.555113
 31
0.0
  0
LINE
  5
2AC
330
2A8
100
AcDbEntity
  8
LC-004-005-----0
 62
     7
370
    25
100
AcDbLine
 10
143.718034
 20
109.776908
 30
0.0
 11
154.153092
 21
120.211967
 31
0.0
  0
LINE
  5
2AD
330
2A8
100
AcDbEntity
  8
LC-004-005-----0
 62
     7
370
    25
100
AcDbLine
 10
138.06118
 20
109.776908
 30
0.0
 11
152.06118
 21
123.776908
 31
0.0
  0
LINE
  5
2AE
330
2A8
100
AcDbEntity
  8
LC-004-005-----0
 62
     7
370
    25
100
AcDbLine
 10
132.404325
 20
109.776908
 30
0.0
 11
146.404325
 21
123.776908
 31
0.0
  0
LINE
  5
2AF
330
2A8
100
AcDbEntity
  8
LC-004-005-----0
 62
     7
370
    25
100
AcDbLine
 10
126.747471
 20
109.776908
 30
0.0
 11
140.747471
 21
123.776908
 31
0.0
  0
LINE
  5
2B0
330
2A8
100
AcDbEntity
  8
LC-004-005-----0
 62
     7
370
    25
100
AcDbLine
 10
121.090617
 20
109.776908
 30
0.0
 11
135.090617
 21
123.776908
 31
0.0
  0
LINE
  5
2B1
330
2A8
100
AcDbEntity
  8
LC-004-005-----0
 62
     7
370
    25
100
AcDbLine
 10
115.433763
 20
109.776908
 30
0.0
 11
129.433763
 21
123.776908
 31
0.0
  0
LINE
  5
2B2
330
2A8
100
AcDbEntity
  8
LC-004-005-----0
 62
     7
370
    25
100
AcDbLine
 10
109.776908
 20
109.776908
 30
0.0
 11
123.776908
 21
123.776908
 31
0.0
  0
LINE
  5
2B3
330
2A8
100
AcDbEntity
  8
LC-004-005-----0
 62
     7
370
    25
100
AcDbLine
 10
104.120054
 20
109.776908
 30
0.0
 11
118.120054
 21
123.776908
 31
0.0
  0
LINE
  5
2B4
330
2A8
100
AcDbEntity
  8
LC-004-005-----0
 62
     7
370
    25
100
AcDbLine
 10
102.153092
 20
113.466801
 30
0.0
 11
112.4632
 21
123.776908
 31
0.0
  0
LINE
  5
2B5
330
2A8
100
AcDbEntity
  8
LC-004-005-----0
 62
     7
370
    25
100
AcDbLine
 10
102.153092
 20
119.123655
 30
0.0
 11
106.806346
 21
123.776908
 31
0.0
  0
LINE
  5
2B6
330
2A8
100
AcDbEntity
  8
LC-004-005-----0
 62
     7
370
    25
100
AcDbLine
 10
154.153092
 20
123.032766
 30
0.0
 11
153.40895
 21
123.776908
 31
0.0
  0
LINE
  5
2B7
330
2A8
100
AcDbEntity
  8
LC-004-005-----0
 62
     7
370
    25
100
AcDbLine
 10
154.153092
 20
117.375912
 30
0.0
 11
147.752096
 21
123.776908
 31
0.0
  0
LINE
  5
2B8
330
2A8
100
AcDbEntity
  8
LC-004-005-----0
 62
     7
370
    25
100
AcDbLine
 10
154.153092
 20
111.719057
 30
0.0
 11
142.095241
 21
123.776908
 31
0.0
  0
LINE
  5
2B9
330
2A8
100
AcDbEntity
  8
LC-004-005-----0
 62
     7
370
    25
100
AcDbLine
 10
150.438387
 20
109.776908
 30
0.0
 11
136.438387
 21
123.776908
 31
0.0
  0
LINE
  5
2BA
330
2A8
100
AcDbEntity
  8
LC-004-005-----0
 62
     7
370
    25
100
AcDbLine
 10
144.781533
 20
109.776908
 30
0.0
 11
130.781533
 21
123.776908
 31
0.0
  0
LINE
  5
2BB
330
2A8
100
AcDbEntity
  8
LC-004-005-----0
 62
     7
370
    25
100
AcDbLine
 10
139.124679
 20
109.776908
 30
0.0
 11
125.124679
 21
123.776908
 31
0.0
  0
LINE
  5
2BC
330
2A8
100
AcDbEntity
  8
LC-004-005-----0
 62
     7
370
    25
100
AcDbLine
 10
133.467824
 20
109.776908
 30
0.0
 11
119.467824
 21
123.776908
 31
0.0
  0
LINE
  5
2BD
330
2A8
100
AcDbEntity
  8
LC-004-005-----0
 62
     7
370
    25
100
AcDbLine
 10
127.81097
 20
109.776908
 30
0.0
 11
113.81097
 21
123.776908
 31
0.0
  0
LINE
  5
2BE
330
2A8
100
AcDbEntity
  8
LC-004-005-----0
 62
     7
370
    25
100
AcDbLine
 10
122.154116
 20
109.776908
 30
0.0
 11
108.154116
 21
123.776908
 31
0.0
  0
LINE
  5
2BF
330
2A8
100
AcDbEntity
  8
LC-004-005-----0
 62
     7
370
    25
100
AcDbLine
 10
116.497262
 20
109.776908
 30
0.0
 11
102.497262
 21
123.776908
 31
0.0
  0
LINE
  5
2C0
330
2A8
100
AcDbEntity
  8
LC-004-005-----0
 62
     7
370
    25
100
AcDbLine
 10
110.840407
 20
109.776908
 30
0.0
 11
102.153092
 21
118.464223
 31
0.0
  0
LINE
  5
2C1
330
2A8
100
AcDbEntity
  8
LC-004-005-----0
 62
     7
370
    25
100
AcDbLine
 10
105.183553
 20
109.776908
 30
0.0
 11
102.153092
 21
112.807369
 31
0.0
  0
ENDBLK
  5
2AA
330
2A8
100
AcDbEntity
  8
0
100
AcDbBlockEnd
  0
BLOCK
  5
2CF
330
2C4
100
AcDbEntity
  8
0
100
AcDbBlockBegin
  2
*D20
 70
     1
 71
     0
 10
0.0
 20
0.0
 30
0.0
  3
*D20
  1

  0
LINE
  5
2C5
330
2C4
100
AcDbEntity
  8
LC-005-003-----0
 62
     2
370
    -2
100
AcDbLine
 10
154.152655
 20
109.776908
 30
0.0
 11
205.161324
 21
109.775312
 31
0.0
  0
LINE
  5
2C6
330
2C4
100
AcDbEntity
  8
LC-005-003-----0
 62
     2
370
    -2
100
AcDbLine
 10
154.153092
 20
123.776908
 30
0.0
 11
205.161762
 21
123.775312
 31
0.0
  0
LINE
  5
2C7
330
2C4
100
AcDbEntity
  8
LC-005-003-----0
 62
     2
370
    -2
100
AcDbLine
 10
201.560448
 20
81.775425
 30
0.0
 11
201.559571
 21
53.775425
 31
0.0
  0
LINE
  5
2C8
330
2C4
100
AcDbEntity
  8
LC-005-003-----0
 62
     2
370
    -2
100
AcDbLine
 10
201.562638
 20
151.775425
 30
0.0
 11
201.562896
 21
160.02243
 31
0.0
  0
SOLID
  5
2C9
330
2C4
100
AcDbEntity
  8
LC-005-003-----0
 62
     2
100
AcDbTrace
 10
206.227114
 20
81.775279
 30
0.0
 11
196.893781
 21
81.775571
 31
0.0
 12
201.561324
 22
109.775425
 32
0.0
 13
201.561324
 23
109.775425
 33
0.0
  0
SOLID
  5
2CA
330
2C4
100
AcDbEntity
  8
LC-005-003-----0
 62
     2
100
AcDbTrace
 10
196.895971
 20
151.775571
 30
0.0
 11
206.229305
 21
151.775279
 31
0.0
 12
201.561762
 22
123.775425
 32
0.0
 13
201.561762
 23
123.775425
 33
0.0
  0
MTEXT
  5
2CB
330
2C4
100
AcDbEntity
  8
LC-005-003-----0
 62
     2
100
AcDbMText
 10
170.762313
 20
141.372964
 30
0.0
 40
28.0
 41
0.0
 71
     5
 72
     1
  1
\A1;14
  7
LCTX15-400-0-0pDIN-Schrift
 11
3.129214280345770E-5
 21
0.9999999995104009
 31
0.0
 73
     1
 44
1.0
  0
POINT
  5
2CC
330
2C4
100
AcDbEntity
  8
Defpoints
 62
     0
100
AcDbPoint
 10
154.152655
 20
109.776908
 30
0.0
  0
POINT
  5
2CD
330
2C4
100
AcDbEntity
  8
Defpoints
 62
     0
100
AcDbPoint
 10
154.153092
 20
123.776908
 30
0.0
  0
POINT
  5
2CE
330
2C4
100
AcDbEntity
  8
Defpoints
 62
     0
100
AcDbPoint
 10
201.561762
 20
123.775425
 30
0.0
  0
ENDBLK
  5
2D0
330
2C4
100
AcDbEntity
  8
0
100
AcDbBlockEnd
  0
BLOCK
  5
2DC
330
2D2
100
AcDbEntity
  8
0
100
AcDbBlockBegin
  2
*D21
 70
     1
 71
     0
 10
0.0
 20
0.0
 30
0.0
  3
*D21
  1

  0
LINE
  5
2D3
330
2D2
100
AcDbEntity
  8
LC-005-003-----0
 62
     2
370
    -2
100
AcDbLine
 10
154.153092
 20
123.776908
 30
0.0
 11
250.514883
 21
123.776908
 31
0.0
  0
LINE
  5
2D4
330
2D2
100
AcDbEntity
  8
LC-005-003-----0
 62
     2
370
    -2
100
AcDbLine
 10
150.453092
 20
230.776908
 30
0.0
 11
250.514883
 21
230.776908
 31
0.0
  0
LINE
  5
2D5
330
2D2
100
AcDbEntity
  8
LC-005-003-----0
 62
     2
370
    -2
100
AcDbLine
 10
246.914883
 20
151.776908
 30
0.0
 11
246.914883
 21
202.776908
 31
0.0
  0
SOLID
  5
2D6
330
2D2
100
AcDbEntity
  8
LC-005-003-----0
 62
     2
100
AcDbTrace
 10
242.248216
 20
151.776908
 30
0.0
 11
251.581549
 21
151.776908
 31
0.0
 12
246.914883
 22
123.776908
 32
0.0
 13
246.914883
 23
123.776908
 33
0.0
  0
SOLID
  5
2D7
330
2D2
100
AcDbEntity
  8
LC-005-003-----0
 62
     2
100
AcDbTrace
 10
251.581549
 20
202.776908
 30
0.0
 11
242.248216
 21
202.776908
 31
0.0
 12
246.914883
 22
230.776908
 32
0.0
 13
246.914883
 23
230.776908
 33
0.0
  0
MTEXT
  5
2D8
330
2D2
100
AcDbEntity
  8
LC-005-003-----0
 62
     2
100
AcDbMText
 10
216.114883
 20
170.478
 30
0.0
 40
28.0
 41
0.0
 71
     5
 72
     1
  1
\A1;15-107
  7
LCTX15-400-0-0pDIN-Schrift
 11
6.123031769111886E-17
 21
1.0
 31
0.0
 73
     1
 44
1.0
  0
POINT
  5
2D9
330
2D2
100
AcDbEntity
  8
Defpoints
 62
     0
100
AcDbPoint
 10
154.153092
 20
123.776908
 30
0.0
  0
POINT
  5
2DA
330
2D2
100
AcDbEntity
  8
Defpoints
 62
     0
100
AcDbPoint
 10
150.453092
 20
230.776908
 30
0.0
  0
POINT
  5
2DB
330
2D2
100
AcDbEntity
  8
Defpoints
 62
     0
100
AcDbPoint
 10
246.914883
 20
230.776908
 30
0.0
  0
ENDBLK
  5
2DD
330
2D2
100
AcDbEntity
  8
0
100
AcDbBlockEnd
  0
ENDSEC
  0
SECTION
  2
ENTITIES
  0
LINE
  5
32
330
1F
100
AcDbEntity
  8
LC-001-002-----0
 62
     7
370
    50
100
AcDbLine
 10
148.153092
 20
214.620054
 30
0.0
 11
148.153092
 21
208.276908
 31
0.0
  0
LINE
  5
33
330
1F
100
AcDbEntity
  8
LC-001-002-----0
 62
     7
370
    50
100
AcDbLine
 10
145.153092
 20
217.090039
 30
0.0
 11
145.949048
 21
219.276908
 31
0.0
  0
LINE
  5
35
102
{ACAD_REACTORS
330
2E3
102
}
330
1F
100
AcDbEntity
  8
LC-002-001-----0
 62
     7
370
    50
100
AcDbLine
 10
57.053092
 20
225.076908
 30
0.0
 11
102.153092
 21
225.076908
 31
0.0
  0
LINE
  5
36
330
1F
100
AcDbEntity
  8
LC-001-002-----0
 62
     7
370
    50
100
AcDbLine
 10
54.153092
 20
219.276908
 30
0.0
 11
58.357137
 21
219.276908
 31
0.0
  0
LINE
  5
37
102
{ACAD_REACTORS
330
2E3
102
}
330
1F
100
AcDbEntity
  8
LC-002-001-----0
 62
     7
370
    50
100
AcDbLine
 10
58.453092
 20
219.276908
 30
0.0
 11
57.053092
 21
219.276908
 31
0.0
  0
LINE
  5
38
102
{ACAD_REACTORS
330
2E3
102
}
330
1F
100
AcDbEntity
  8
LC-002-001-----0
 62
     7
370
    50
100
AcDbLine
 10
56.053092
 20
230.776908
 30
0.0
 11
102.153092
 21
230.776908
 31
0.0
  0
LINE
  5
3B
330
1F
100
AcDbEntity
  8
LC-003-006-MLN-0
 62
     7
370
    25
100
AcDbLine
 10
102.153092
 20
229.276908
 30
0.0
 11
102.153092
 21
107.683357
 31
0.0
  0
LINE
  5
3C
330
1F
100
AcDbEntity
  8
LC-001-002-----0
 62
     7
370
    50
100
AcDbLine
 10
146.153092
 20
208.276908
 30
0.0
 11
102.153092
 21
208.276908
 31
0.0
  0
LINE
  5
3D
330
1F
100
AcDbEntity
  8
LC-001-002-----0
 62
     7
370
    50
100
AcDbLine
 10
145.153092
 20
215.276908
 30
0.0
 11
145.153092
 21
217.090039
 31
0.0
  0
LINE
  5
3E
102
{ACAD_REACTORS
330
2E3
102
}
330
1F
100
AcDbEntity
  8
LC-002-001-----0
 62
     7
370
    50
100
AcDbLine
 10
58.453092
 20
219.976908
 30
0.0
 11
102.153092
 21
219.976908
 31
0.0
  0
LINE
  5
3F
102
{ACAD_REACTORS
330
2E3
102
}
330
1F
100
AcDbEntity
  8
LC-002-001-----0
 62
     7
370
    50
100
AcDbLine
 10
57.053092
 20
224.376908
 30
0.0
 11
102.153092
 21
224.376908
 31
0.0
  0
LINE
  5
40
330
1F
100
AcDbEntity
  8
LC-001-002-----0
 62
     7
370
    50
100
AcDbLine
 10
145.153092
 20
215.276908
 30
0.0
 11
146.153092
 21
214.276908
 31
0.0
  0
LINE
  5
41
330
1F
100
AcDbEntity
  8
LC-001-002-----0
 62
     7
370
    50
100
AcDbLine
 10
146.153092
 20
214.276908
 30
0.0
 11
146.153092
 21
208.276908
 31
0.0
  0
LINE
  5
42
102
{ACAD_REACTORS
330
2E3
102
}
330
1F
100
AcDbEntity
  8
LC-002-001-----0
 62
     7
370
    50
100
AcDbLine
 10
58.953092
 20
218.776908
 30
0.0
 11
58.953092
 21
214.276908
 31
0.0
  0
LINE
  5
43
330
1F
100
AcDbEntity
  8
LC-001-002-----0
 62
     7
370
    50
100
AcDbLine
 10
156.153092
 20
109.776908
 30
0.0
 11
157.153092
 21
110.776908
 31
0.0
  0
LINE
  5
44
330
1F
100
AcDbEntity
  8
LC-001-002-----0
 62
     7
370
    50
100
AcDbLine
 10
148.153092
 20
208.276908
 30
0.0
 11
146.153092
 21
208.276908
 31
0.0
  0
LINE
  5
45
102
{ACAD_REACTORS
330
2E3
102
}
330
1F
100
AcDbEntity
  8
LC-002-001-----0
 62
     7
370
    50
100
AcDbLine
 10
59.653092
 20
218.776908
 30
0.0
 11
59.653092
 21
213.576908
 31
0.0
  0
LINE
  5
46
102
{ACAD_REACTORS
330
2E3
102
}
330
1F
100
AcDbEntity
  8
LC-002-001-----0
 62
     7
370
    50
100
AcDbLine
 10
56.053092
 20
229.076908
 30
0.0
 11
56.053092
 21
226.076908
 31
0.0
  0
LINE
  5
47
102
{ACAD_REACTORS
330
2E3
102
}
330
1F
100
AcDbEntity
  8
LC-002-001-----0
 62
     7
370
    50
100
AcDbLine
 10
55.353092
 20
229.076908
 30
0.0
 11
55.353092
 21
222.576908
 31
0.0
  0
ARC
  5
48
102
{ACAD_REACTORS
330
2E3
102
}
330
1F
100
AcDbEntity
  8
LC-002-001-----0
 62
     7
370
    50
100
AcDbCircle
 10
58.453092
 20
218.776908
 30
0.0
 40
0.5
100
AcDbArc
 50
0.0
 51
90.0
  0
LINE
  5
49
330
1F
100
AcDbEntity
  8
LC-001-002-----0
 62
     7
370
    50
100
AcDbLine
 10
154.153092
 20
211.034268
 30
0.0
 11
154.153092
 21
109.776908
 31
0.0
  0
INSERT
  5
7B
330
1F
100
AcDbEntity
  8
LC-004-005-----0
 62
     7
370
    25
100
AcDbBlockReference
  2
*X11
 10
0.0
 20
0.0
 30
0.0
  0
LINE
  5
7C
102
{ACAD_REACTORS
330
2E3
102
}
330
1F
100
AcDbEntity
  8
LC-002-001-----0
 62
     7
370
    50
100
AcDbLine
 10
55.353092
 20
222.576908
 30
0.0
 11
55.353092
 21
220.976908
 31
0.0
  0
ARC
  5
7D
102
{ACAD_REACTORS
330
2E3
102
}
330
1F
100
AcDbEntity
  8
LC-002-001-----0
 62
     7
370
    50
100
AcDbCircle
 10
57.053092
 20
220.976908
 30
0.0
 40
1.0
100
AcDbArc
 50
180.0
 51
270.0
  0
LINE
  5
7E
102
{ACAD_REACTORS
330
2E3
102
}
330
1F
100
AcDbEntity
  8
LC-002-001-----0
 62
     7
370
    50
100
AcDbLine
 10
57.053092
 20
219.276908
 30
0.0
 11
58.453092
 21
219.276908
 31
0.0
  0
LINE
  5
7F
102
{ACAD_REACTORS
330
2E3
102
}
330
1F
100
AcDbEntity
  8
LC-002-001-----0
 62
     7
370
    50
100
AcDbLine
 10
57.053092
 20
219.976908
 30
0.0
 11
58.453092
 21
219.976908
 31
0.0
  0
LINE
  5
80
102
{ACAD_REACTORS
330
2E3
102
}
330
1F
100
AcDbEntity
  8
LC-002-001-----0
 62
     7
370
    50
100
AcDbLine
 10
56.053092
 20
226.076908
 30
0.0
 11
56.053092
 21
220.976908
 31
0.0
  0
ARC
  5
81
102
{ACAD_REACTORS
330
2E3
102
}
330
1F
100
AcDbEntity
  8
LC-002-001-----0
 62
     7
370
    50
100
AcDbCircle
 10
57.053092
 20
226.076908
 30
0.0
 40
1.700000000000024
100
AcDbArc
 50
233.968121
 51
270.0
  0
ARC
  5
82
102
{ACAD_REACTORS
330
2E3
102
}
330
1F
100
AcDbEntity
  8
LC-002-001-----0
 62
     7
370
    50
100
AcDbCircle
 10
57.053092
 20
226.076908
 30
0.0
 40
1.0
100
AcDbArc
 50
180.0
 51
270.0
  0
ARC
  5
83
102
{ACAD_REACTORS
330
2E3
102
}
330
1F
100
AcDbEntity
  8
LC-002-001-----0
 62
     7
370
    50
100
AcDbCircle
 10
58.453092
 20
218.776908
 30
0.0
 40
1.200000000000046
100
AcDbArc
 50
360.0
 51
90.0
  0
ARC
  5
84
102
{ACAD_REACTORS
330
2E3
102
}
330
1F
100
AcDbEntity
  8
LC-002-001-----0
 62
     7
370
    50
100
AcDbCircle
 10
57.053092
 20
220.976908
 30
0.0
 40
1.700000000000046
100
AcDbArc
 50
180.0
 51
270.0
  0
LINE
  5
85
102
{ACAD_REACTORS
330
2E3
102
}
330
1F
100
AcDbEntity
  8
LC-002-001-----0
 62
     7
370
    50
100
AcDbLine
 10
54.353092
 20
230.076908
 30
0.0
 11
53.853092
 21
230.076908
 31
0.0
  0
LINE
  5
86
330
1F
100
AcDbEntity
  8
LC-001-002-----0
 62
     7
370
    50
100
AcDbLine
 10
156.153092
 20
109.776908
 30
0.0
 11
154.153092
 21
109.776908
 31
0.0
  0
INSERT
  5
B3
330
1F
100
AcDbEntity
  8
LC-004-005-----0
 62
     7
370
    25
100
AcDbBlockReference
  2
*X22
 10
0.0
 20
0.0
 30
0.0
  0
LINE
  5
B4
330
1F
100
AcDbEntity
  8
LC-001-002-----0
 62
     7
370
    50
100
AcDbLine
 10
157.153092
 20
110.776908
 30
0.0
 11
157.153092
 21
155.400283
 31
0.0
  0
LINE
  5
B5
330
1F
100
AcDbEntity
  8
LC-001-002-----0
  6
DASHED
 62
     7
370
    25
100
AcDbLine
 10
157.153092
 20
155.400283
 30
0.0
 11
157.153092
 21
212.276908
 31
0.0
  0
LINE
  5
B6
102
{ACAD_REACTORS
330
2E3
102
}
330
1F
100
AcDbEntity
  8
LC-002-001-----0
 62
     7
370
    50
100
AcDbLine
 10
54.353092
 20
230.776908
 30
0.0
 11
53.853092
 21
230.776908
 31
0.0
  0
DIMENSION
  5
BA
330
1F
100
AcDbEntity
  8
LC-005-003-----0
 62
     7
370
    25
100
AcDbDimension
  2
*D3
 10
152.153092
 20
253.312406
 30
0.0
 11
115.132452
 21
284.112406
 31
0.0
 70
   160
 71
     5
 42
100.0
  3
LC-DIM-L-0140-02-02
100
AcDbAlignedDimension
 13
52.153092
 23
229.076908
 33
0.0
 14
152.153092
 24
229.076908
 34
0.0
100
AcDbRotatedDimension
  0
ARC
  5
C8
102
{ACAD_REACTORS
330
2E3
102
}
330
1F
100
AcDbEntity
  8
LC-002-001-----0
 62
     7
370
    50
100
AcDbCircle
 10
53.853092
 20
229.076908
 30
0.0
 40
1.0
100
AcDbArc
 50
90.0
 51
180.0
  0
ARC
  5
C9
102
{ACAD_REACTORS
330
2E3
102
}
330
1F
100
AcDbEntity
  8
LC-002-001-----0
 62
     7
370
    50
100
AcDbCircle
 10
53.853092
 20
229.076908
 30
0.0
 40
1.699999999999989
100
AcDbArc
 50
90.0
 51
180.0
  0
LINE
  5
CA
102
{ACAD_REACTORS
330
2E3
102
}
330
1F
100
AcDbEntity
  8
LC-002-001-----0
 62
     7
370
    50
100
AcDbLine
 10
52.153092
 20
229.076908
 30
0.0
 11
52.153092
 21
226.3365
 31
0.0
  0
LINE
  5
CB
102
{ACAD_REACTORS
330
2E3
102
}
330
1F
100
AcDbEntity
  8
LC-002-001-----0
 62
     7
370
    50
100
AcDbLine
 10
52.853092
 20
226.3365
 30
0.0
 11
52.853092
 21
229.076908
 31
0.0
  0
ARC
  5
CC
102
{ACAD_REACTORS
330
2E3
102
}
330
1F
100
AcDbEntity
  8
LC-002-001-----0
 62
     7
370
    50
100
AcDbCircle
 10
54.353092
 20
229.076908
 30
0.0
 40
1.000000000000014
100
AcDbArc
 50
360.0
 51
90.0
  0
ARC
  5
CD
102
{ACAD_REACTORS
330
2E3
102
}
330
1F
100
AcDbEntity
  8
LC-002-001-----0
 62
     7
370
    50
100
AcDbCircle
 10
54.353092
 20
229.076908
 30
0.0
 40
1.000000000000014
100
AcDbArc
 50
360.0
 51
90.0
  0
ARC
  5
CE
102
{ACAD_REACTORS
330
2E3
102
}
330
1F
100
AcDbEntity
  8
LC-002-001-----0
 62
     7
370
    50
100
AcDbCircle
 10
54.353092
 20
229.076908
 30
0.0
 40
1.70000000000006
100
AcDbArc
 50
360.0
 51
90.0
  0
LINE
  5
CF
102
{ACAD_REACTORS
330
2E3
102
}
330
1F
100
AcDbEntity
  8
LC-002-001-----0
 62
     7
370
    50
100
AcDbLine
 10
56.053092
 20
230.776908
 30
0.0
 11
54.353092
 21
230.776908
 31
0.0
  0
LINE
  5
D0
330
1F
100
AcDbEntity
  8
LC-001-002-----0
  6
DASHED
 62
     7
370
    25
100
AcDbLine
 10
157.153092
 20
212.276908
 30
0.0
 11
156.764543
 21
212.665458
 31
0.0
  0
LINE
  5
D1
330
1F
100
AcDbEntity
  8
LC-001-002-----0
 62
     7
370
    50
100
AcDbLine
 10
156.764543
 20
212.665458
 30
0.0
 11
150.153092
 21
219.276908
 31
0.0
  0
LINE
  5
D2
102
{ACAD_REACTORS
330
2E3
102
}
330
1F
100
AcDbEntity
  8
LC-001-002-----0
 62
     7
370
    50
100
AcDbLine
 10
59.389246
 20
210.008229
 30
0.0
 11
60.003371
 21
210.367598
 31
0.0
  0
LINE
  5
D3
330
1F
100
AcDbEntity
  8
LC-001-002-----0
 62
     7
370
    50
100
AcDbLine
 10
149.860199
 20
215.327161
 30
0.0
 11
154.153092
 21
211.034268
 31
0.0
  0
ARC
  5
D4
102
{ACAD_REACTORS
330
2E3
102
}
330
1F
100
AcDbEntity
  8
LC-001-002-----0
 62
     7
370
    50
100
AcDbCircle
 10
50.653092
 20
226.3365
 30
0.0
 40
1.50000000000022
100
AcDbArc
 50
311.810315
 51
360.0
  0
LINE
  5
D5
102
{ACAD_REACTORS
330
2E3
102
}
330
1F
100
AcDbEntity
  8
LC-001-002-----0
 62
     7
370
    50
100
AcDbLine
 10
60.003371
 20
210.367598
 30
0.0
 11
102.153092
 21
210.367598
 31
0.0
  0
ARC
  5
D6
102
{ACAD_REACTORS
330
2E3
102
}
330
1F
100
AcDbEntity
  8
LC-001-002-----0
 62
     7
370
    50
100
AcDbCircle
 10
50.653092
 20
226.3365
 30
0.0
 40
2.199999999999933
100
AcDbArc
 50
297.035692
 51
360.0
  0
LINE
  5
D7
102
{ACAD_REACTORS
330
2E3
102
}
330
1F
100
AcDbEntity
  8
LC-001-002-----0
 62
     7
370
    50
100
AcDbLine
 10
58.835278
 20
213.576908
 30
0.0
 11
60.003371
 21
210.367598
 31
0.0
  0
INSERT
  5
E6
102
{ACAD_REACTORS
330
2E3
102
}
330
1F
100
AcDbEntity
  8
LC-004-005-----0
 62
     7
370
    25
100
AcDbBlockReference
  2
*X34
 10
0.0
 20
0.0
 30
0.0
  0
DIMENSION
  5
E7
330
1F
100
AcDbEntity
  8
LC-005-003-----0
 62
     7
370
    25
100
AcDbDimension
  2
*D5
 10
157.153092
 20
54.054
 30
0.0
 11
99.255352
 21
84.854
 31
0.0
 70
   160
  1
%%c110
 71
     5
 42
110.0
  3
LC-DIM-L-0140-02-02
100
AcDbAlignedDimension
 13
47.153092
 23
110.776908
 33
0.0
 14
157.153092
 24
110.776908
 34
0.0
100
AcDbRotatedDimension
  0
LINE
  5
F4
102
{ACAD_REACTORS
330
2E3
102
}
330
1F
100
AcDbEntity
  8
LC-001-002-----0
 62
     7
370
    50
100
AcDbLine
 10
102.153092
 20
213.576908
 30
0.0
 11
58.835278
 21
213.576908
 31
0.0
  0
ARC
  5
F6
330
1F
100
AcDbEntity
  8
LC-006-002-RND-0
 62
     7
370
    50
100
AcDbCircle
 10
149.153092
 20
214.620054
 30
0.0
 40
1.000000000000008
100
AcDbArc
 50
45.0
 51
180.0
  0
LINE
  5
F7
102
{ACAD_REACTORS
330
2E3
102
}
330
1F
100
AcDbEntity
  8
LC-001-002-----0
 62
     7
370
    50
100
AcDbLine
 10
51.653092
 20
225.218466
 30
0.0
 11
51.653092
 21
224.376908
 31
0.0
  0
LINE
  5
F8
102
{ACAD_REACTORS
330
2E3
102
}
330
1F
100
AcDbEntity
  8
LC-001-002-----0
 62
     7
370
    50
100
AcDbLine
 10
59.389246
 20
210.008229
 30
0.0
 11
102.153092
 21
210.008229
 31
0.0
  0
LINE
  5
F9
102
{ACAD_REACTORS
330
2E3
102
}
330
1F
100
AcDbEntity
  8
LC-001-002-----0
 62
     7
370
    50
100
AcDbLine
 10
58.226338
 20
213.203292
 30
0.0
 11
59.389246
 21
210.008229
 31
0.0
  0
ARC
  5
FA
102
{ACAD_REACTORS
330
2E3
102
}
330
1F
100
AcDbEntity
  8
LC-001-002-----0
 62
     7
370
    50
100
AcDbCircle
 10
58.978092
 20
213.476908
 30
0.0
 40
0.800000000000772
100
AcDbArc
 50
91.790785
 51
200.0
  0
LINE
  5
FB
102
{ACAD_REACTORS
330
2E6
102
}
330
1F
100
AcDbEntity
  8
LC-001-002-----0
 62
     7
370
    50
100
AcDbLine
 10
56.153092
 20
214.620054
 30
0.0
 11
56.153092
 21
208.276908
 31
0.0
  0
LINE
  5
FC
102
{ACAD_REACTORS
330
2E6
102
}
330
1F
100
AcDbEntity
  8
LC-001-002-----0
 62
     7
370
    50
100
AcDbLine
 10
59.153092
 20
217.090039
 30
0.0
 11
58.357137
 21
219.276908
 31
0.0
  0
LINE
  5
FD
102
{ACAD_REACTORS
330
2E6
102
}
330
1F
100
AcDbEntity
  8
LC-001-002-----0
 62
     7
370
    50
100
AcDbLine
 10
50.153092
 20
211.034268
 30
0.0
 11
50.153092
 21
109.776908
 31
0.0
  0
ARC
  5
FE
102
{ACAD_REACTORS
330
2E6
102
}
330
1F
100
AcDbEntity
  8
LC-006-002-RND-0
 62
     7
370
    50
100
AcDbCircle
 10
55.153092
 20
214.620054
 30
0.0
 40
1.000000000000014
100
AcDbArc
 50
360.0
 51
135.0
  0
LINE
  5
FF
102
{ACAD_REACTORS
330
2E6
102
}
330
1F
100
AcDbEntity
  8
LC-001-002-----0
 62
     7
370
    50
100
AcDbLine
 10
58.153092
 20
208.276908
 30
0.0
 11
102.153092
 21
208.276908
 31
0.0
  0
LINE
  5
100
102
{ACAD_REACTORS
330
2E6
102
}
330
1F
100
AcDbEntity
  8
LC-001-002-----0
 62
     7
370
    50
100
AcDbLine
 10
59.153092
 20
215.276908
 30
0.0
 11
59.153092
 21
217.090039
 31
0.0
  0
LINE
  5
101
102
{ACAD_REACTORS
330
2E6
102
}
330
1F
100
AcDbEntity
  8
LC-001-002-----0
 62
     7
370
    50
100
AcDbLine
 10
47.153092
 20
212.276908
 30
0.0
 11
54.153092
 21
219.276908
 31
0.0
  0
LINE
  5
102
102
{ACAD_REACTORS
330
2E6
102
}
330
1F
100
AcDbEntity
  8
LC-001-002-----0
 62
     7
370
    50
100
AcDbLine
 10
54.445986
 20
215.327161
 30
0.0
 11
50.153092
 21
211.034268
 31
0.0
  0
LINE
  5
103
102
{ACAD_REACTORS
330
2E6
102
}
330
1F
100
AcDbEntity
  8
LC-001-002-----0
 62
     7
370
    50
100
AcDbLine
 10
59.153092
 20
215.276908
 30
0.0
 11
58.153092
 21
214.276908
 31
0.0
  0
LINE
  5
104
102
{ACAD_REACTORS
330
2E6
102
}
330
1F
100
AcDbEntity
  8
LC-001-002-----0
 62
     7
370
    50
100
AcDbLine
 10
58.153092
 20
214.276908
 30
0.0
 11
58.153092
 21
208.276908
 31
0.0
  0
LINE
  5
105
102
{ACAD_REACTORS
330
2E6
102
}
330
1F
100
AcDbEntity
  8
LC-001-002-----0
 62
     7
370
    50
100
AcDbLine
 10
48.153092
 20
109.776908
 30
0.0
 11
50.153092
 21
109.776908
 31
0.0
  0
LINE
  5
106
102
{ACAD_REACTORS
330
2E6
102
}
330
1F
100
AcDbEntity
  8
LC-001-002-----0
 62
     7
370
    50
100
AcDbLine
 10
48.153092
 20
109.776908
 30
0.0
 11
47.153092
 21
110.776908
 31
0.0
  0
LINE
  5
107
102
{ACAD_REACTORS
330
2E6
102
}
330
1F
100
AcDbEntity
  8
LC-001-002-----0
 62
     7
370
    50
100
AcDbLine
 10
56.153092
 20
208.276908
 30
0.0
 11
58.153092
 21
208.276908
 31
0.0
  0
LINE
  5
108
330
1F
100
AcDbEntity
  8
LC-001-002-----0
 62
     7
370
    25
100
AcDbLine
 10
59.431325
 20
266.116715
 30
0.0
 11
74.431325
 21
266.116715
 31
0.0
  0
LINE
  5
109
102
{ACAD_REACTORS
330
2E6
102
}
330
1F
100
AcDbEntity
  8
LC-001-002-----0
 62
     7
370
    50
100
AcDbLine
 10
47.153092
 20
110.776908
 30
0.0
 11
47.153092
 21
212.276908
 31
0.0
  0
ARC
  5
10A
102
{ACAD_REACTORS
330
2E0
102
}
330
1F
100
AcDbEntity
  8
LC-006-002-RND-0
 62
     7
370
    50
100
AcDbCircle
 10
59.153092
 20
227.576908
 30
0.0
 40
2.5
100
AcDbArc
 50
90.0
 51
180.0
  0
ARC
  5
10B
102
{ACAD_REACTORS
330
2E0
102
}
330
1F
100
AcDbEntity
  8
LC-006-002-RND-0
 62
     7
370
    50
100
AcDbCircle
 10
59.153092
 20
227.576908
 30
0.0
 40
1.0
100
AcDbArc
 50
90.0
 51
180.0
  0
ARC
  5
10C
102
{ACAD_REACTORS
330
2E0
102
}
330
1F
100
AcDbEntity
  8
LC-006-002-RND-0
 62
     7
370
    50
100
AcDbCircle
 10
71.653092
 20
227.576908
 30
0.0
 40
1.0
100
AcDbArc
 50
90.0
 51
180.0
  0
ARC
  5
10D
102
{ACAD_REACTORS
330
2E0
102
}
330
1F
100
AcDbEntity
  8
LC-006-002-RND-0
 62
     7
370
    50
100
AcDbCircle
 10
72.653092
 20
227.576908
 30
0.0
 40
1.0
100
AcDbArc
 50
360.0
 51
90.0
  0
ARC
  5
10E
102
{ACAD_REACTORS
330
2E0
102
}
330
1F
100
AcDbEntity
  8
LC-006-002-RND-0
 62
     7
370
    50
100
AcDbCircle
 10
83.653092
 20
227.576908
 30
0.0
 40
1.0
100
AcDbArc
 50
90.0
 51
180.0
  0
ARC
  5
10F
102
{ACAD_REACTORS
330
2E0
102
}
330
1F
100
AcDbEntity
  8
LC-006-002-RND-0
 62
     7
370
    50
100
AcDbCircle
 10
84.653092
 20
227.576908
 30
0.0
 40
1.0
100
AcDbArc
 50
360.0
 51
90.0
  0
ARC
  5
110
102
{ACAD_REACTORS
330
2E0
102
}
330
1F
100
AcDbEntity
  8
LC-006-002-RND-0
 62
     7
370
    50
100
AcDbCircle
 10
95.653092
 20
227.576908
 30
0.0
 40
1.0
100
AcDbArc
 50
90.0
 51
180.0
  0
INSERT
  5
117
102
{ACAD_REACTORS
330
2E0
102
}
330
1F
100
AcDbEntity
  8
LC-004-005-----0
 62
     7
370
    25
100
AcDbBlockReference
  2
*X46
 10
0.0
 20
0.0
 30
0.0
  0
INSERT
  5
11D
102
{ACAD_REACTORS
330
2E0
102
}
330
1F
100
AcDbEntity
  8
LC-004-005-----0
 62
     7
370
    25
100
AcDbBlockReference
  2
*X57
 10
0.0
 20
0.0
 30
0.0
  0
INSERT
  5
123
102
{ACAD_REACTORS
330
2E0
102
}
330
1F
100
AcDbEntity
  8
LC-004-005-----0
 62
     7
370
    25
100
AcDbBlockReference
  2
*X68
 10
0.0
 20
0.0
 30
0.0
  0
LINE
  5
124
102
{ACAD_REACTORS
330
2E0
102
}
330
1F
100
AcDbEntity
  8
LC-001-002-----0
 62
     7
370
    50
100
AcDbLine
 10
94.653092
 20
226.076908
 30
0.0
 11
93.153092
 21
226.076908
 31
0.0
  0
LINE
  5
125
102
{ACAD_REACTORS
330
2E0
102
}
330
1F
100
AcDbEntity
  8
LC-001-002-----0
 62
     7
370
    50
100
AcDbLine
 10
93.153092
 20
226.076908
 30
0.0
 11
87.153092
 21
226.076908
 31
0.0
  0
DIMENSION
  5
126
330
1F
100
AcDbEntity
  8
LC-005-003-----0
 62
     7
370
    25
100
AcDbDimension
  2
*D9
 10
19.09732
 20
224.376908
 30
0.0
 11
-11.70268
 21
212.058
 31
0.0
 70
   160
  1
7
 71
     5
 42
6.4
 53
90.0
  3
LC-DIM-L-0140-02-02
100
AcDbAlignedDimension
 13
53.853092
 23
230.776908
 33
0.0
 14
51.653092
 24
224.376908
 34
0.0
 50
90.0
100
AcDbRotatedDimension
  0
INSERT
  5
13B
102
{ACAD_REACTORS
330
2E0
102
}
330
1F
100
AcDbEntity
  8
LC-004-005-----0
 62
     7
370
    25
100
AcDbBlockReference
  2
*X710
 10
0.0
 20
0.0
 30
0.0
  0
LINE
  5
13C
102
{ACAD_REACTORS
330
2E0
102
}
330
1F
100
AcDbEntity
  8
LC-001-002-----0
 62
     7
370
    50
100
AcDbLine
 10
95.653092
 20
228.576908
 30
0.0
 11
102.153092
 21
228.576908
 31
0.0
  0
LINE
  5
13D
102
{ACAD_REACTORS
330
2E0
102
}
330
1F
100
AcDbEntity
  8
LC-001-002-----0
 62
     7
370
    50
100
AcDbLine
 10
94.653092
 20
227.576908
 30
0.0
 11
94.653092
 21
226.076908
 31
0.0
  0
LINE
  5
13E
102
{ACAD_REACTORS
330
2E0
102
}
330
1F
100
AcDbEntity
  8
LC-001-002-----0
 62
     7
370
    50
100
AcDbLine
 10
83.653092
 20
228.576908
 30
0.0
 11
84.653092
 21
228.576908
 31
0.0
  0
LINE
  5
13F
102
{ACAD_REACTORS
330
2E0
102
}
330
1F
100
AcDbEntity
  8
LC-001-002-----0
 62
     7
370
    50
100
AcDbLine
 10
71.653092
 20
228.576908
 30
0.0
 11
72.653092
 21
228.576908
 31
0.0
  0
ARC
  5
140
102
{ACAD_REACTORS
330
2E0
102
}
330
1F
100
AcDbEntity
  8
LC-001-002-----0
 62
     7
370
    50
100
AcDbCircle
 10
95.653092
 20
227.576908
 30
0.0
 40
2.499999999997215
100
AcDbArc
 50
90.0
 51
180.0
  0
LINE
  5
141
102
{ACAD_REACTORS
330
2E0
102
}
330
1F
100
AcDbEntity
  8
LC-001-002-----0
 62
     7
370
    50
100
AcDbLine
 10
87.153092
 20
226.076908
 30
0.0
 11
85.653092
 21
226.076908
 31
0.0
  0
LINE
  5
142
102
{ACAD_REACTORS
330
2E0
102
}
330
1F
100
AcDbEntity
  8
LC-001-002-----0
 62
     7
370
    50
100
AcDbLine
 10
82.653092
 20
226.076908
 30
0.0
 11
81.153092
 21
226.076908
 31
0.0
  0
LINE
  5
143
102
{ACAD_REACTORS
330
2E0
102
}
330
1F
100
AcDbEntity
  8
LC-001-002-----0
 62
     7
370
    50
100
AcDbLine
 10
81.153092
 20
226.076908
 30
0.0
 11
75.153092
 21
226.076908
 31
0.0
  0
LINE
  5
144
102
{ACAD_REACTORS
330
2E0
102
}
330
1F
100
AcDbEntity
  8
LC-001-002-----0
 62
     7
370
    50
100
AcDbLine
 10
75.153092
 20
226.076908
 30
0.0
 11
73.653092
 21
226.076908
 31
0.0
  0
LINE
  5
145
102
{ACAD_REACTORS
330
2E0
102
}
330
1F
100
AcDbEntity
  8
LC-001-002-----0
 62
     7
370
    50
100
AcDbLine
 10
70.653092
 20
226.076908
 30
0.0
 11
69.153092
 21
226.076908
 31
0.0
  0
LINE
  5
146
102
{ACAD_REACTORS
330
2E0
102
}
330
1F
100
AcDbEntity
  8
LC-001-002-----0
 62
     7
370
    50
100
AcDbLine
 10
69.153092
 20
226.076908
 30
0.0
 11
63.153092
 21
226.076908
 31
0.0
  0
LINE
  5
147
102
{ACAD_REACTORS
330
2E0
102
}
330
1F
100
AcDbEntity
  8
LC-001-002-----0
 62
     7
370
    50
100
AcDbLine
 10
63.153092
 20
226.076908
 30
0.0
 11
61.653092
 21
226.076908
 31
0.0
  0
ARC
  5
148
102
{ACAD_REACTORS
330
2E0
102
}
330
1F
100
AcDbEntity
  8
LC-006-002-RND-0
 62
     7
370
    50
100
AcDbCircle
 10
60.653092
 20
227.576908
 30
0.0
 40
1.0
100
AcDbArc
 50
360.0
 51
90.0
  0
ARC
  5
149
102
{ACAD_REACTORS
330
2E0
102
}
330
1F
100
AcDbEntity
  8
LC-006-002-RND-0
 62
     7
370
    50
100
AcDbCircle
 10
60.653092
 20
227.576908
 30
0.0
 40
2.5
100
AcDbArc
 50
0.0
 51
90.0
  0
ARC
  5
14A
102
{ACAD_REACTORS
330
2E0
102
}
330
1F
100
AcDbEntity
  8
LC-006-002-RND-0
 62
     7
370
    50
100
AcDbCircle
 10
71.653092
 20
227.576908
 30
0.0
 40
2.5
100
AcDbArc
 50
90.0
 51
180.0
  0
ARC
  5
14B
102
{ACAD_REACTORS
330
2E0
102
}
330
1F
100
AcDbEntity
  8
LC-006-002-RND-0
 62
     7
370
    50
100
AcDbCircle
 10
72.653092
 20
227.576908
 30
0.0
 40
2.5
100
AcDbArc
 50
0.0
 51
90.0
  0
ARC
  5
14C
102
{ACAD_REACTORS
330
2E0
102
}
330
1F
100
AcDbEntity
  8
LC-006-002-RND-0
 62
     7
370
    50
100
AcDbCircle
 10
83.653092
 20
227.576908
 30
0.0
 40
2.5
100
AcDbArc
 50
90.0
 51
180.0
  0
ARC
  5
14D
102
{ACAD_REACTORS
330
2E0
102
}
330
1F
100
AcDbEntity
  8
LC-006-002-RND-0
 62
     7
370
    50
100
AcDbCircle
 10
84.653092
 20
227.576908
 30
0.0
 40
2.5
100
AcDbArc
 50
0.0
 51
90.0
  0
LINE
  5
14E
102
{ACAD_REACTORS
330
2E0
102
}
330
1F
100
AcDbEntity
  8
LC-001-002-----0
 62
     7
370
    50
100
AcDbLine
 10
56.653092
 20
227.576908
 30
0.0
 11
56.653092
 21
225.076908
 31
0.0
  0
LINE
  5
14F
102
{ACAD_REACTORS
330
2E0
102
}
330
1F
100
AcDbEntity
  8
LC-001-002-----0
 62
     7
370
    50
100
AcDbLine
 10
56.653092
 20
225.076908
 30
0.0
 11
58.153092
 21
225.076908
 31
0.0
  0
LINE
  5
150
102
{ACAD_REACTORS
330
2E0
102
}
330
1F
100
AcDbEntity
  8
LC-001-002-----0
 62
     7
370
    50
100
AcDbLine
 10
58.153092
 20
225.076908
 30
0.0
 11
102.153092
 21
225.076908
 31
0.0
  0
LINE
  5
151
102
{ACAD_REACTORS
330
2E0
102
}
330
1F
100
AcDbEntity
  8
LC-001-002-----0
 62
     7
370
    50
100
AcDbLine
 10
102.153092
 20
230.076908
 30
0.0
 11
59.153092
 21
230.076908
 31
0.0
  0
LINE
  5
152
102
{ACAD_REACTORS
330
2E0
102
}
330
1F
100
AcDbEntity
  8
LC-001-002-----0
 62
     7
370
    50
100
AcDbLine
 10
58.153092
 20
225.076908
 30
0.0
 11
58.153092
 21
227.576908
 31
0.0
  0
ARC
  5
153
102
{ACAD_REACTORS
330
2E8
102
}
330
1F
100
AcDbEntity
  8
LC-001-002-----0
 62
     7
370
    50
100
AcDbCircle
 10
307.62098
 20
174.984815
 30
0.0
 40
55.00000000011255
100
AcDbArc
 50
0.0
 51
23.338293
  0
ARC
  5
154
102
{ACAD_REACTORS
330
2E8
102
}
330
1F
100
AcDbEntity
  8
LC-001-002-----0
 62
     7
370
    50
100
AcDbCircle
 10
307.62098
 20
174.984815
 30
0.0
 40
55.00000000011254
100
AcDbArc
 50
66.661707
 51
113.338293
  0
ARC
  5
155
102
{ACAD_REACTORS
330
2E8
102
}
330
1F
100
AcDbEntity
  8
LC-001-002-----0
 62
     7
370
    50
100
AcDbCircle
 10
307.62098
 20
174.984815
 30
0.0
 40
55.00000000011255
100
AcDbArc
 50
156.661707
 51
203.338293
  0
ARC
  5
156
102
{ACAD_REACTORS
330
2E8
102
}
330
1F
100
AcDbEntity
  8
LC-001-002-----0
 62
     7
370
    50
100
AcDbCircle
 10
307.62098
 20
174.984815
 30
0.0
 40
55.00000000011254
100
AcDbArc
 50
246.661707
 51
293.338293
  0
ARC
  5
157
102
{ACAD_REACTORS
330
2E8
102
}
330
1F
100
AcDbEntity
  8
LC-001-002-----0
 62
     7
370
    50
100
AcDbCircle
 10
307.62098
 20
174.984815
 30
0.0
 40
55.00000000011256
100
AcDbArc
 50
336.661707
 51
0.0
  0
LINE
  5
158
330
1F
100
AcDbEntity
  8
LC-001-002-----0
 62
     7
370
    25
100
AcDbLine
 10
59.431325
 20
281.116715
 30
0.0
 11
59.431325
 21
266.116715
 31
0.0
  0
LINE
  5
159
102
{ACAD_REACTORS
330
2E2
102
}
330
1F
100
AcDbEntity
  8
LC-001-002-----0
 62
     7
370
    50
100
AcDbLine
 10
348.62098
 20
213.984815
 30
0.0
 11
346.62098
 21
213.984815
 31
0.0
  0
LINE
  5
15A
102
{ACAD_REACTORS
330
2E2
102
}
330
1F
100
AcDbEntity
  8
LC-001-002-----0
 62
     7
370
    50
100
AcDbLine
 10
345.62098
 20
213.984815
 30
0.0
 11
343.62098
 21
213.984815
 31
0.0
  0
LINE
  5
15B
330
1F
100
AcDbEntity
  8
LC-001-002-----0
 62
     7
370
    50
100
AcDbLine
 10
145.153092
 20
208.276908
 30
0.0
 11
102.153092
 21
208.276908
 31
0.0
  0
LINE
  5
15C
102
{ACAD_REACTORS
330
2E2
102
}
330
1F
100
AcDbEntity
  8
LC-001-002-----0
 62
     7
370
    50
100
AcDbLine
 10
345.62098
 20
215.984815
 30
0.0
 11
345.62098
 21
213.984815
 31
0.0
  0
LINE
  5
15D
102
{ACAD_REACTORS
330
2E2
102
}
330
1F
100
AcDbEntity
  8
LC-001-002-----0
 62
     7
370
    50
100
AcDbLine
 10
345.62098
 20
212.984815
 30
0.0
 11
345.62098
 21
210.984815
 31
0.0
  0
LINE
  5
15E
102
{ACAD_REACTORS
330
2E2
102
}
330
1F
100
AcDbEntity
  8
LC-001-002-----0
 62
     7
370
    50
100
AcDbLine
 10
346.62098
 20
215.984815
 30
0.0
 11
346.62098
 21
213.984815
 31
0.0
  0
LINE
  5
15F
102
{ACAD_REACTORS
330
2EA
102
}
330
1F
100
AcDbEntity
  8
LC-002-001-----0
 62
     7
370
    50
100
AcDbLine
 10
350.92098
 20
221.084815
 30
0.0
 11
264.32098
 21
221.084815
 31
0.0
  0
ARC
  5
160
102
{ACAD_REACTORS
330
2EA
102
}
330
1F
100
AcDbEntity
  8
LC-001-002-----0
 62
     7
370
    50
100
AcDbCircle
 10
352.12098
 20
219.484815
 30
0.0
 40
5.5
100
AcDbArc
 50
0.0
 51
90.0
  0
ARC
  5
161
102
{ACAD_REACTORS
330
2EA
102
}
330
1F
100
AcDbEntity
  8
LC-002-001-----0
 62
     7
370
    50
100
AcDbCircle
 10
264.32098
 20
218.284815
 30
0.0
 40
2.800000000000068
100
AcDbArc
 50
90.0
 51
180.0
  0
ARC
  5
162
102
{ACAD_REACTORS
330
2EA
102
}
330
1F
100
AcDbEntity
  8
LC-002-001-----0
 62
     7
370
    50
100
AcDbCircle
 10
352.12098
 20
219.484815
 30
0.0
 40
6.0
100
AcDbArc
 50
0.0
 51
90.0
  0
ARC
  5
164
102
{ACAD_REACTORS
330
2EA
102
}
330
1F
100
AcDbEntity
  8
LC-007-001-RND-0
 62
     7
370
    50
100
AcDbCircle
 10
350.92098
 20
218.284815
 30
0.0
 40
2.800000000000068
100
AcDbArc
 50
0.0
 51
90.0
  0
LINE
  5
165
102
{ACAD_REACTORS
330
2EA
102
}
330
1F
100
AcDbEntity
  8
LC-001-002-----0
 62
     7
370
    50
100
AcDbLine
 10
357.62098
 20
130.484815
 30
0.0
 11
357.62098
 21
219.484815
 31
0.0
  0
LINE
  5
166
102
{ACAD_REACTORS
330
2EA
102
}
330
1F
100
AcDbEntity
  8
LC-002-001-----0
 62
     7
370
    50
100
AcDbLine
 10
352.12098
 20
225.484815
 30
0.0
 11
263.12098
 21
225.484815
 31
0.0
  0
ARC
  5
167
102
{ACAD_REACTORS
330
2EA
102
}
330
1F
100
AcDbEntity
  8
LC-002-001-----0
 62
     7
370
    50
100
AcDbCircle
 10
263.12098
 20
219.484815
 30
0.0
 40
6.0
100
AcDbArc
 50
90.0
 51
180.0
  0
LINE
  5
168
102
{ACAD_REACTORS
330
2EA
102
}
330
1F
100
AcDbEntity
  8
LC-002-001-----0
 62
     7
370
    50
100
AcDbLine
 10
257.12098
 20
219.484815
 30
0.0
 11
257.12098
 21
130.484815
 31
0.0
  0
LINE
  5
169
102
{ACAD_REACTORS
330
2EA
102
}
330
1F
100
AcDbEntity
  8
LC-001-002-----0
 62
     7
370
    50
100
AcDbLine
 10
352.12098
 20
224.984815
 30
0.0
 11
263.12098
 21
224.984815
 31
0.0
  0
LINE
  5
16A
102
{ACAD_REACTORS
330
2EA
102
}
330
1F
100
AcDbEntity
  8
LC-002-001-----0
 62
     7
370
    50
100
AcDbLine
 10
358.12098
 20
130.484815
 30
0.0
 11
358.12098
 21
219.484815
 31
0.0
  0
ARC
  5
16B
102
{ACAD_REACTORS
330
2EA
102
}
330
1F
100
AcDbEntity
  8
LC-001-002-----0
 62
     7
370
    50
100
AcDbCircle
 10
263.12098
 20
219.484815
 30
0.0
 40
5.5
100
AcDbArc
 50
90.0
 51
180.0
  0
LINE
  5
16C
102
{ACAD_REACTORS
330
2EA
102
}
330
1F
100
AcDbEntity
  8
LC-002-001-----0
 62
     7
370
    50
100
AcDbLine
 10
261.52098
 20
131.684815
 30
0.0
 11
261.52098
 21
218.284815
 31
0.0
  0
LINE
  5
16D
102
{ACAD_REACTORS
330
2EA
102
}
330
1F
100
AcDbEntity
  8
LC-002-001-----0
 62
     7
370
    50
100
AcDbLine
 10
353.72098
 20
131.684815
 30
0.0
 11
353.72098
 21
218.284815
 31
0.0
  0
LINE
  5
16E
102
{ACAD_REACTORS
330
2E2
102
}
330
1F
100
AcDbEntity
  8
LC-001-002-----0
 62
     7
370
    50
100
AcDbLine
 10
346.62098
 20
212.984815
 30
0.0
 11
346.62098
 21
210.984815
 31
0.0
  0
LINE
  5
16F
102
{ACAD_REACTORS
330
2EA
102
}
330
1F
100
AcDbEntity
  8
LC-002-001-----0
 62
     7
370
    50
100
AcDbLine
 10
263.12098
 20
124.484815
 30
0.0
 11
352.12098
 21
124.484815
 31
0.0
  0
LINE
  5
170
102
{ACAD_REACTORS
330
2EA
102
}
330
1F
100
AcDbEntity
  8
LC-001-002-----0
 62
     7
370
    50
100
AcDbLine
 10
257.62098
 20
219.484815
 30
0.0
 11
257.62098
 21
130.484815
 31
0.0
  0
LINE
  5
171
102
{ACAD_REACTORS
330
2EA
102
}
330
1F
100
AcDbEntity
  8
LC-002-001-----0
 62
     7
370
    50
100
AcDbLine
 10
350.92098
 20
128.884815
 30
0.0
 11
264.32098
 21
128.884815
 31
0.0
  0
ARC
  5
172
102
{ACAD_REACTORS
330
2EA
102
}
330
1F
100
AcDbEntity
  8
LC-001-002-----0
 62
     7
370
    50
100
AcDbCircle
 10
263.12098
 20
130.484815
 30
0.0
 40
5.5
100
AcDbArc
 50
180.0
 51
270.0
  0
ARC
  5
173
102
{ACAD_REACTORS
330
2EA
102
}
330
1F
100
AcDbEntity
  8
LC-002-001-----0
 62
     7
370
    50
100
AcDbCircle
 10
263.12098
 20
130.484815
 30
0.0
 40
6.0
100
AcDbArc
 50
180.0
 51
270.0
  0
ARC
  5
174
102
{ACAD_REACTORS
330
2EA
102
}
330
1F
100
AcDbEntity
  8
LC-007-001-RND-0
 62
     7
370
    50
100
AcDbCircle
 10
264.32098
 20
131.684815
 30
0.0
 40
2.799999999999955
100
AcDbArc
 50
180.0
 51
270.0
  0
ARC
  5
175
102
{ACAD_REACTORS
330
2EA
102
}
330
1F
100
AcDbEntity
  8
LC-002-001-----0
 62
     7
370
    50
100
AcDbCircle
 10
352.12098
 20
130.484815
 30
0.0
 40
6.0
100
AcDbArc
 50
270.0
 51
0.0
  0
LINE
  5
176
102
{ACAD_REACTORS
330
2EA
102
}
330
1F
100
AcDbEntity
  8
LC-001-002-----0
 62
     7
370
    50
100
AcDbLine
 10
263.12098
 20
124.984815
 30
0.0
 11
352.12098
 21
124.984815
 31
0.0
  0
ARC
  5
177
102
{ACAD_REACTORS
330
2EA
102
}
330
1F
100
AcDbEntity
  8
LC-002-001-----0
 62
     7
370
    50
100
AcDbCircle
 10
350.92098
 20
131.684815
 30
0.0
 40
2.799999999999955
100
AcDbArc
 50
270.0
 51
0.0
  0
ARC
  5
178
102
{ACAD_REACTORS
330
2EA
102
}
330
1F
100
AcDbEntity
  8
LC-001-002-----0
 62
     7
370
    50
100
AcDbCircle
 10
352.12098
 20
130.484815
 30
0.0
 40
5.5
100
AcDbArc
 50
270.0
 51
0.0
  0
LINE
  5
179
102
{ACAD_REACTORS
330
2DF
102
}
330
1F
100
AcDbEntity
  8
LC-002-001-----0
 62
     7
370
    50
100
AcDbLine
 10
147.253092
 20
225.076908
 30
0.0
 11
102.153092
 21
225.076908
 31
0.0
  0
LINE
  5
17A
102
{ACAD_REACTORS
330
2DF
102
}
330
1F
100
AcDbEntity
  8
LC-002-001-----0
 62
     7
370
    50
100
AcDbLine
 10
148.253092
 20
230.776908
 30
0.0
 11
102.153092
 21
230.776908
 31
0.0
  0
LINE
  5
17B
102
{ACAD_REACTORS
330
2DF
102
}
330
1F
100
AcDbEntity
  8
LC-002-001-----0
 62
     7
370
    50
100
AcDbLine
 10
145.853092
 20
219.976908
 30
0.0
 11
102.153092
 21
219.976908
 31
0.0
  0
LINE
  5
17C
102
{ACAD_REACTORS
330
2DF
102
}
330
1F
100
AcDbEntity
  8
LC-002-001-----0
 62
     7
370
    50
100
AcDbLine
 10
147.253092
 20
224.376908
 30
0.0
 11
102.153092
 21
224.376908
 31
0.0
  0
LINE
  5
17D
102
{ACAD_REACTORS
330
2DF
102
}
330
1F
100
AcDbEntity
  8
LC-002-001-----0
 62
     7
370
    50
100
AcDbLine
 10
145.353092
 20
218.776908
 30
0.0
 11
145.353092
 21
214.276908
 31
0.0
  0
LINE
  5
17E
102
{ACAD_REACTORS
330
2DF
102
}
330
1F
100
AcDbEntity
  8
LC-002-001-----0
 62
     7
370
    50
100
AcDbLine
 10
144.653092
 20
218.776908
 30
0.0
 11
144.653092
 21
213.576908
 31
0.0
  0
LINE
  5
17F
102
{ACAD_REACTORS
330
2DF
102
}
330
1F
100
AcDbEntity
  8
LC-002-001-----0
 62
     7
370
    50
100
AcDbLine
 10
148.253092
 20
229.076908
 30
0.0
 11
148.253092
 21
226.076908
 31
0.0
  0
LINE
  5
180
102
{ACAD_REACTORS
330
2DF
102
}
330
1F
100
AcDbEntity
  8
LC-002-001-----0
 62
     7
370
    50
100
AcDbLine
 10
148.953092
 20
229.076908
 30
0.0
 11
148.953092
 21
222.576908
 31
0.0
  0
ARC
  5
181
102
{ACAD_REACTORS
330
2DF
102
}
330
1F
100
AcDbEntity
  8
LC-002-001-----0
 62
     7
370
    50
100
AcDbCircle
 10
145.853092
 20
218.776908
 30
0.0
 40
0.5
100
AcDbArc
 50
90.0
 51
180.0
  0
LINE
  5
182
102
{ACAD_REACTORS
330
2DF
102
}
330
1F
100
AcDbEntity
  8
LC-002-001-----0
 62
     7
370
    50
100
AcDbLine
 10
145.853092
 20
219.276908
 30
0.0
 11
150.153092
 21
219.276908
 31
0.0
  0
LINE
  5
183
102
{ACAD_REACTORS
330
2DF
102
}
330
1F
100
AcDbEntity
  8
LC-002-001-----0
 62
     7
370
    50
100
AcDbLine
 10
148.953092
 20
222.576908
 30
0.0
 11
148.953092
 21
220.976908
 31
0.0
  0
ARC
  5
184
102
{ACAD_REACTORS
330
2DF
102
}
330
1F
100
AcDbEntity
  8
LC-002-001-----0
 62
     7
370
    50
100
AcDbCircle
 10
147.253092
 20
220.976908
 30
0.0
 40
1.0
100
AcDbArc
 50
270.0
 51
0.0
  0
LINE
  5
185
102
{ACAD_REACTORS
330
2DF
102
}
330
1F
100
AcDbEntity
  8
LC-002-001-----0
 62
     7
370
    50
100
AcDbLine
 10
147.253092
 20
219.276908
 30
0.0
 11
145.853092
 21
219.276908
 31
0.0
  0
LINE
  5
186
102
{ACAD_REACTORS
330
2DF
102
}
330
1F
100
AcDbEntity
  8
LC-002-001-----0
 62
     7
370
    50
100
AcDbLine
 10
147.253092
 20
219.976908
 30
0.0
 11
145.853092
 21
219.976908
 31
0.0
  0
LINE
  5
187
102
{ACAD_REACTORS
330
2DF
102
}
330
1F
100
AcDbEntity
  8
LC-002-001-----0
 62
     7
370
    50
100
AcDbLine
 10
148.253092
 20
226.076908
 30
0.0
 11
148.253092
 21
220.976908
 31
0.0
  0
ARC
  5
188
102
{ACAD_REACTORS
330
2DF
102
}
330
1F
100
AcDbEntity
  8
LC-002-001-----0
 62
     7
370
    50
100
AcDbCircle
 10
147.253092
 20
226.076908
 30
0.0
 40
1.700000000000046
100
AcDbArc
 50
270.0
 51
306.031879
  0
ARC
  5
189
102
{ACAD_REACTORS
330
2DF
102
}
330
1F
100
AcDbEntity
  8
LC-002-001-----0
 62
     7
370
    50
100
AcDbCircle
 10
147.253092
 20
226.076908
 30
0.0
 40
1.0
100
AcDbArc
 50
270.0
 51
0.0
  0
ARC
  5
18A
102
{ACAD_REACTORS
330
2DF
102
}
330
1F
100
AcDbEntity
  8
LC-002-001-----0
 62
     7
370
    50
100
AcDbCircle
 10
145.853092
 20
218.776908
 30
0.0
 40
1.200000000000046
100
AcDbArc
 50
90.0
 51
180.0
  0
ARC
  5
18B
102
{ACAD_REACTORS
330
2DF
102
}
330
1F
100
AcDbEntity
  8
LC-002-001-----0
 62
     7
370
    50
100
AcDbCircle
 10
147.253092
 20
220.976908
 30
0.0
 40
1.700000000000046
100
AcDbArc
 50
270.0
 51
0.0
  0
LINE
  5
18C
102
{ACAD_REACTORS
330
2DF
102
}
330
1F
100
AcDbEntity
  8
LC-002-001-----0
 62
     7
370
    50
100
AcDbLine
 10
149.953092
 20
230.076908
 30
0.0
 11
150.453092
 21
230.076908
 31
0.0
  0
LINE
  5
18D
102
{ACAD_REACTORS
330
2DF
102
}
330
1F
100
AcDbEntity
  8
LC-002-001-----0
 62
     7
370
    50
100
AcDbLine
 10
149.953092
 20
230.776908
 30
0.0
 11
150.453092
 21
230.776908
 31
0.0
  0
LINE
  5
18E
102
{ACAD_REACTORS
330
2E2
102
}
330
1F
100
AcDbEntity
  8
LC-001-002-----0
 62
     7
370
    50
100
AcDbLine
 10
348.62098
 20
212.984815
 30
0.0
 11
346.62098
 21
212.984815
 31
0.0
  0
ARC
  5
18F
102
{ACAD_REACTORS
330
2DF
102
}
330
1F
100
AcDbEntity
  8
LC-002-001-----0
 62
     7
370
    50
100
AcDbCircle
 10
150.453092
 20
229.076908
 30
0.0
 40
1.0
100
AcDbArc
 50
0.0
 51
90.0
  0
ARC
  5
190
102
{ACAD_REACTORS
330
2DF
102
}
330
1F
100
AcDbEntity
  8
LC-002-001-----0
 62
     7
370
    50
100
AcDbCircle
 10
150.453092
 20
229.076908
 30
0.0
 40
1.700000000000046
100
AcDbArc
 50
0.0
 51
90.0
  0
LINE
  5
191
102
{ACAD_REACTORS
330
2DF
102
}
330
1F
100
AcDbEntity
  8
LC-002-001-----0
 62
     7
370
    50
100
AcDbLine
 10
152.153092
 20
229.076908
 30
0.0
 11
152.153092
 21
226.3365
 31
0.0
  0
LINE
  5
192
102
{ACAD_REACTORS
330
2DF
102
}
330
1F
100
AcDbEntity
  8
LC-002-001-----0
 62
     7
370
    50
100
AcDbLine
 10
151.453092
 20
226.3365
 30
0.0
 11
151.453092
 21
229.076908
 31
0.0
  0
ARC
  5
193
102
{ACAD_REACTORS
330
2DF
102
}
330
1F
100
AcDbEntity
  8
LC-002-001-----0
 62
     7
370
    50
100
AcDbCircle
 10
149.953092
 20
229.076908
 30
0.0
 40
1.0
100
AcDbArc
 50
90.0
 51
180.0
  0
ARC
  5
194
102
{ACAD_REACTORS
330
2DF
102
}
330
1F
100
AcDbEntity
  8
LC-002-001-----0
 62
     7
370
    50
100
AcDbCircle
 10
149.953092
 20
229.076908
 30
0.0
 40
1.0
100
AcDbArc
 50
90.0
 51
180.0
  0
ARC
  5
195
102
{ACAD_REACTORS
330
2DF
102
}
330
1F
100
AcDbEntity
  8
LC-002-001-----0
 62
     7
370
    50
100
AcDbCircle
 10
149.953092
 20
229.076908
 30
0.0
 40
1.700000000000046
100
AcDbArc
 50
90.0
 51
180.0
  0
LINE
  5
196
102
{ACAD_REACTORS
330
2DF
102
}
330
1F
100
AcDbEntity
  8
LC-002-001-----0
 62
     7
370
    50
100
AcDbLine
 10
148.253092
 20
230.776908
 30
0.0
 11
149.953092
 21
230.776908
 31
0.0
  0
ARC
  5
197
102
{ACAD_REACTORS
330
2E5
102
}
330
1F
100
AcDbEntity
  8
LC-006-002-RND-0
 62
     7
370
    50
100
AcDbCircle
 10
350.62098
 20
217.984815
 30
0.0
 40
2.5
100
AcDbArc
 50
0.0
 51
90.0
  0
LINE
  5
198
102
{ACAD_REACTORS
330
2E0
102
}
330
1F
100
AcDbEntity
  8
LC-001-002-----0
 62
     7
370
    50
100
AcDbLine
 10
59.153092
 20
228.576908
 30
0.0
 11
60.653092
 21
228.576908
 31
0.0
  0
ARC
  5
199
102
{ACAD_REACTORS
330
2E4
102
}
330
1F
100
AcDbEntity
  8
LC-006-002-RND-0
 62
     7
370
    50
100
AcDbCircle
 10
145.153092
 20
227.576908
 30
0.0
 40
2.5
100
AcDbArc
 50
0.0
 51
90.0
  0
ARC
  5
19A
102
{ACAD_REACTORS
330
2E4
102
}
330
1F
100
AcDbEntity
  8
LC-006-002-RND-0
 62
     7
370
    50
100
AcDbCircle
 10
145.153092
 20
227.576908
 30
0.0
 40
1.0
100
AcDbArc
 50
0.0
 51
90.0
  0
ARC
  5
19B
102
{ACAD_REACTORS
330
2E4
102
}
330
1F
100
AcDbEntity
  8
LC-006-002-RND-0
 62
     7
370
    50
100
AcDbCircle
 10
132.653092
 20
227.576908
 30
0.0
 40
1.0
100
AcDbArc
 50
0.0
 51
90.0
  0
ARC
  5
19C
102
{ACAD_REACTORS
330
2E4
102
}
330
1F
100
AcDbEntity
  8
LC-006-002-RND-0
 62
     7
370
    50
100
AcDbCircle
 10
131.653092
 20
227.576908
 30
0.0
 40
1.0
100
AcDbArc
 50
90.0
 51
180.0
  0
ARC
  5
19D
102
{ACAD_REACTORS
330
2E4
102
}
330
1F
100
AcDbEntity
  8
LC-006-002-RND-0
 62
     7
370
    50
100
AcDbCircle
 10
120.653092
 20
227.576908
 30
0.0
 40
1.0
100
AcDbArc
 50
0.0
 51
90.0
  0
ARC
  5
19E
102
{ACAD_REACTORS
330
2E4
102
}
330
1F
100
AcDbEntity
  8
LC-006-002-RND-0
 62
     7
370
    50
100
AcDbCircle
 10
119.653092
 20
227.576908
 30
0.0
 40
1.0
100
AcDbArc
 50
90.0
 51
180.0
  0
ARC
  5
19F
102
{ACAD_REACTORS
330
2E4
102
}
330
1F
100
AcDbEntity
  8
LC-006-002-RND-0
 62
     7
370
    50
100
AcDbCircle
 10
108.653092
 20
227.576908
 30
0.0
 40
1.0
100
AcDbArc
 50
0.0
 51
90.0
  0
ARC
  5
1A0
102
{ACAD_REACTORS
330
2E5
102
}
330
1F
100
AcDbEntity
  8
LC-006-002-RND-0
 62
     7
370
    50
100
AcDbCircle
 10
264.62098
 20
217.984815
 30
0.0
 40
2.5
100
AcDbArc
 50
90.0
 51
180.0
  0
ARC
  5
1A1
102
{ACAD_REACTORS
330
2E5
102
}
330
1F
100
AcDbEntity
  8
LC-006-002-RND-0
 62
     7
370
    50
100
AcDbCircle
 10
264.62098
 20
131.984815
 30
0.0
 40
2.5
100
AcDbArc
 50
180.0
 51
270.0
  0
ARC
  5
1A2
102
{ACAD_REACTORS
330
2E5
102
}
330
1F
100
AcDbEntity
  8
LC-006-002-RND-0
 62
     7
370
    50
100
AcDbCircle
 10
350.62098
 20
131.984815
 30
0.0
 40
2.5
100
AcDbArc
 50
270.0
 51
0.0
  0
LINE
  5
1A3
102
{ACAD_REACTORS
330
2E2
102
}
330
1F
100
AcDbEntity
  8
LC-001-002-----0
 62
     7
370
    50
100
AcDbLine
 10
345.62098
 20
212.984815
 30
0.0
 11
343.62098
 21
212.984815
 31
0.0
  0
CIRCLE
  5
1A4
102
{ACAD_REACTORS
330
2E1
102
}
330
1F
100
AcDbEntity
  8
LC-001-002-----0
 62
     7
370
    50
100
AcDbCircle
 10
346.12098
 20
213.484815
 30
0.0
 40
5.5
  0
ARC
  5
1A5
102
{ACAD_REACTORS
330
2E5
102
}
330
1F
100
AcDbEntity
  8
LC-001-002-----0
 62
     7
370
    50
100
AcDbCircle
 10
311.12098
 20
162.984815
 30
0.0
 40
3.0
100
AcDbArc
 50
270.0
 51
90.0
  0
LINE
  5
1A6
102
{ACAD_REACTORS
330
2E0
102
}
330
1F
100
AcDbEntity
  8
LC-001-002-----0
 62
     7
370
    50
100
AcDbLine
 10
61.653092
 20
227.576908
 30
0.0
 11
61.653092
 21
226.076908
 31
0.0
  0
ARC
  5
1A7
102
{ACAD_REACTORS
330
2E5
102
}
330
1F
100
AcDbEntity
  8
LC-001-002-----0
 62
     7
370
    50
100
AcDbCircle
 10
304.12098
 20
186.984815
 30
0.0
 40
3.0
100
AcDbArc
 50
90.0
 51
270.0
  0
INSERT
  5
1AE
102
{ACAD_REACTORS
330
2E4
102
}
330
1F
100
AcDbEntity
  8
LC-004-005-----0
 62
     7
370
    25
100
AcDbBlockReference
  2
*X811
 10
0.0
 20
0.0
 30
0.0
  0
INSERT
  5
1B4
102
{ACAD_REACTORS
330
2E4
102
}
330
1F
100
AcDbEntity
  8
LC-004-005-----0
 62
     7
370
    25
100
AcDbBlockReference
  2
*X912
 10
0.0
 20
0.0
 30
0.0
  0
INSERT
  5
1BA
102
{ACAD_REACTORS
330
2E4
102
}
330
1F
100
AcDbEntity
  8
LC-004-005-----0
 62
     7
370
    25
100
AcDbBlockReference
  2
*X1013
 10
0.0
 20
0.0
 30
0.0
  0
LINE
  5
1BB
102
{ACAD_REACTORS
330
2E5
102
}
330
1F
100
AcDbEntity
  8
LC-001-002-----0
 62
     7
370
    50
100
AcDbLine
 10
304.12098
 20
159.984815
 30
0.0
 11
311.12098
 21
159.984815
 31
0.0
  0
LINE
  5
1BC
102
{ACAD_REACTORS
330
2E5
102
}
330
1F
100
AcDbEntity
  8
LC-001-002-----0
 62
     7
370
    50
100
AcDbLine
 10
311.12098
 20
189.984815
 30
0.0
 11
304.12098
 21
189.984815
 31
0.0
  0
LINE
  5
1BD
102
{ACAD_REACTORS
330
2E5
102
}
330
1F
100
AcDbEntity
  8
LC-001-002-----0
 62
     7
370
    50
100
AcDbLine
 10
304.12098
 20
165.984815
 30
0.0
 11
311.12098
 21
165.984815
 31
0.0
  0
LINE
  5
1BE
102
{ACAD_REACTORS
330
2E0
102
}
330
1F
100
AcDbEntity
  8
LC-001-002-----0
 62
     7
370
    50
100
AcDbLine
 10
63.153092
 20
227.576908
 30
0.0
 11
63.153092
 21
226.076908
 31
0.0
  0
CIRCLE
  5
1BF
102
{ACAD_REACTORS
330
2E2
102
}
330
1F
100
AcDbEntity
  8
LC-001-002-----0
 62
     7
370
    50
100
AcDbCircle
 10
346.12098
 20
213.484815
 30
0.0
 40
5.5
  0
LINE
  5
1C0
102
{ACAD_REACTORS
330
2E0
102
}
330
1F
100
AcDbEntity
  8
LC-001-002-----0
 62
     7
370
    50
100
AcDbLine
 10
69.153092
 20
227.576908
 30
0.0
 11
69.153092
 21
226.076908
 31
0.0
  0
LINE
  5
1C1
102
{ACAD_REACTORS
330
2E0
102
}
330
1F
100
AcDbEntity
  8
LC-001-002-----0
 62
     7
370
    50
100
AcDbLine
 10
75.153092
 20
227.576908
 30
0.0
 11
75.153092
 21
226.076908
 31
0.0
  0
ARC
  5
1C2
102
{ACAD_REACTORS
330
2E5
102
}
330
1F
100
AcDbEntity
  8
LC-001-002-----0
 62
     7
370
    50
100
AcDbCircle
 10
271.62098
 20
200.984815
 30
0.0
 40
3.0
100
AcDbArc
 50
0.0
 51
180.0
  0
LINE
  5
1C3
102
{ACAD_REACTORS
330
2E0
102
}
330
1F
100
AcDbEntity
  8
LC-001-002-----0
 62
     7
370
    50
100
AcDbLine
 10
81.153092
 20
227.576908
 30
0.0
 11
81.153092
 21
226.076908
 31
0.0
  0
LINE
  5
1C4
102
{ACAD_REACTORS
330
2E0
102
}
330
1F
100
AcDbEntity
  8
LC-001-002-----0
 62
     7
370
    50
100
AcDbLine
 10
87.153092
 20
227.576908
 30
0.0
 11
87.153092
 21
226.076908
 31
0.0
  0
LINE
  5
1C5
102
{ACAD_REACTORS
330
2E0
102
}
330
1F
100
AcDbEntity
  8
LC-001-002-----0
 62
     7
370
    50
100
AcDbLine
 10
93.153092
 20
227.576908
 30
0.0
 11
93.153092
 21
226.076908
 31
0.0
  0
ARC
  5
1C6
102
{ACAD_REACTORS
330
2E5
102
}
330
1F
100
AcDbEntity
  8
LC-001-002-----0
 62
     7
370
    50
100
AcDbCircle
 10
271.62098
 20
148.984815
 30
0.0
 40
3.0
100
AcDbArc
 50
180.0
 51
0.0
  0
LINE
  5
1C7
102
{ACAD_REACTORS
330
2E5
102
}
330
1F
100
AcDbEntity
  8
LC-001-002-----0
 62
     7
370
    50
100
AcDbLine
 10
274.62098
 20
200.984815
 30
0.0
 11
274.62098
 21
148.984815
 31
0.0
  0
LINE
  5
1C8
102
{ACAD_REACTORS
330
2E5
102
}
330
1F
100
AcDbEntity
  8
LC-001-002-----0
 62
     7
370
    50
100
AcDbLine
 10
268.62098
 20
200.984815
 30
0.0
 11
268.62098
 21
148.984815
 31
0.0
  0
LINE
  5
1C9
102
{ACAD_REACTORS
330
2E5
102
}
330
1F
100
AcDbEntity
  8
LC-001-002-----0
 62
     7
370
    50
100
AcDbLine
 10
311.12098
 20
183.984815
 30
0.0
 11
304.12098
 21
183.984815
 31
0.0
  0
LINE
  5
1CA
102
{ACAD_REACTORS
330
2E0
102
}
330
1F
100
AcDbEntity
  8
LC-001-002-----0
 62
     7
370
    50
100
AcDbLine
 10
70.653092
 20
227.576908
 30
0.0
 11
70.653092
 21
226.076908
 31
0.0
  0
LINE
  5
1CB
102
{ACAD_REACTORS
330
2DF
102
}
330
1F
100
AcDbEntity
  8
LC-001-002-----0
 62
     7
370
    50
100
AcDbLine
 10
144.302814
 20
210.367598
 30
0.0
 11
102.153092
 21
210.367598
 31
0.0
  0
INSERT
  5
1D9
102
{ACAD_REACTORS
330
2DF
102
}
330
1F
100
AcDbEntity
  8
LC-004-005-----0
 62
     7
370
    25
100
AcDbBlockReference
  2
*X1114
 10
0.0
 20
0.0
 30
0.0
  0
LINE
  5
1DA
102
{ACAD_REACTORS
330
2DF
102
}
330
1F
100
AcDbEntity
  8
LC-001-002-----0
 62
     7
370
    50
100
AcDbLine
 10
144.916939
 20
210.008229
 30
0.0
 11
102.153092
 21
210.008229
 31
0.0
  0
ARC
  5
1DB
102
{ACAD_REACTORS
330
2DF
102
}
330
1F
100
AcDbEntity
  8
LC-001-002-----0
 62
     7
370
    50
100
AcDbCircle
 10
145.328092
 20
213.476908
 30
0.0
 40
0.8000000000007603
100
AcDbArc
 50
340.0
 51
88.209215
  0
LINE
  5
1DC
102
{ACAD_REACTORS
330
2DF
102
}
330
1F
100
AcDbEntity
  8
LC-001-002-----0
 62
     7
370
    50
100
AcDbLine
 10
102.153092
 20
213.576908
 30
0.0
 11
145.470907
 21
213.576908
 31
0.0
  0
LINE
  5
1DD
102
{ACAD_REACTORS
330
2DF
102
}
330
1F
100
AcDbEntity
  8
LC-001-002-----0
 62
     7
370
    50
100
AcDbLine
 10
152.653092
 20
225.218466
 30
0.0
 11
152.653092
 21
224.376908
 31
0.0
  0
LINE
  5
1DE
102
{ACAD_REACTORS
330
2E2
102
}
330
1F
100
AcDbEntity
  8
LC-001-002-----0
 62
     7
370
    50
100
AcDbLine
 10
348.62098
 20
213.984815
 30
0.0
 11
348.62098
 21
212.984815
 31
0.0
  0
LINE
  5
1DF
102
{ACAD_REACTORS
330
2E0
102
}
330
1F
100
AcDbEntity
  8
LC-001-002-----0
 62
     7
370
    50
100
AcDbLine
 10
73.653092
 20
227.576908
 30
0.0
 11
73.653092
 21
226.076908
 31
0.0
  0
LINE
  5
1E0
102
{ACAD_REACTORS
330
2E2
102
}
330
1F
100
AcDbEntity
  8
LC-001-002-----0
 62
     7
370
    50
100
AcDbLine
 10
343.62098
 20
213.984815
 30
0.0
 11
343.62098
 21
212.984815
 31
0.0
  0
LINE
  5
1E1
102
{ACAD_REACTORS
330
2E4
102
}
330
1F
100
AcDbEntity
  8
LC-001-002-----0
 62
     7
370
    50
100
AcDbLine
 10
109.653092
 20
226.076908
 30
0.0
 11
111.153092
 21
226.076908
 31
0.0
  0
LINE
  5
1E2
102
{ACAD_REACTORS
330
2E4
102
}
330
1F
100
AcDbEntity
  8
LC-001-002-----0
 62
     7
370
    50
100
AcDbLine
 10
111.153092
 20
226.076908
 30
0.0
 11
117.153092
 21
226.076908
 31
0.0
  0
LINE
  5
1E3
102
{ACAD_REACTORS
330
2E0
102
}
330
1F
100
AcDbEntity
  8
LC-001-002-----0
 62
     7
370
    50
100
AcDbLine
 10
82.653092
 20
227.576908
 30
0.0
 11
82.653092
 21
226.076908
 31
0.0
  0
ARC
  5
1E4
102
{ACAD_REACTORS
330
2DF
102
}
330
1F
100
AcDbEntity
  8
LC-001-002-----0
 62
     7
370
    50
100
AcDbCircle
 10
153.653092
 20
226.3365
 30
0.0
 40
1.500000000000227
100
AcDbArc
 50
180.0
 51
228.189685
  0
ARC
  5
1E5
102
{ACAD_REACTORS
330
2DF
102
}
330
1F
100
AcDbEntity
  8
LC-001-002-----0
 62
     7
370
    50
100
AcDbCircle
 10
153.653092
 20
226.3365
 30
0.0
 40
2.199999999999932
100
AcDbArc
 50
180.0
 51
242.964308
  0
LINE
  5
1E6
102
{ACAD_REACTORS
330
2DF
102
}
330
1F
100
AcDbEntity
  8
LC-001-002-----0
 62
     7
370
    50
100
AcDbLine
 10
144.916939
 20
210.008229
 30
0.0
 11
144.302814
 21
210.367598
 31
0.0
  0
LINE
  5
1E7
102
{ACAD_REACTORS
330
2DF
102
}
330
1F
100
AcDbEntity
  8
LC-001-002-----0
 62
     7
370
    50
100
AcDbLine
 10
146.079847
 20
213.203292
 30
0.0
 11
144.916939
 21
210.008229
 31
0.0
  0
LINE
  5
1E8
102
{ACAD_REACTORS
330
2DF
102
}
330
1F
100
AcDbEntity
  8
LC-001-002-----0
 62
     7
370
    50
100
AcDbLine
 10
145.470907
 20
213.576908
 30
0.0
 11
144.302814
 21
210.367598
 31
0.0
  0
LINE
  5
1E9
102
{ACAD_REACTORS
330
2E0
102
}
330
1F
100
AcDbEntity
  8
LC-001-002-----0
 62
     7
370
    50
100
AcDbLine
 10
85.653092
 20
227.576908
 30
0.0
 11
85.653092
 21
226.076908
 31
0.0
  0
LINE
  5
1EA
330
1F
100
AcDbEntity
  8
LC-001-002-----0
 62
     7
370
    50
100
AcDbLine
 10
154.153092
 20
109.776908
 30
0.0
 11
50.153092
 21
109.776908
 31
0.0
  0
LINE
  5
1EB
102
{ACAD_REACTORS
330
2E2
102
}
330
1F
100
AcDbEntity
  8
LC-001-002-----0
 62
     7
370
    50
100
AcDbLine
 10
346.62098
 20
210.984815
 30
0.0
 11
345.62098
 21
210.984815
 31
0.0
  0
LINE
  5
1EC
102
{ACAD_REACTORS
330
2E2
102
}
330
1F
100
AcDbEntity
  8
LC-001-002-----0
 62
     7
370
    50
100
AcDbLine
 10
346.62098
 20
215.984815
 30
0.0
 11
345.62098
 21
215.984815
 31
0.0
  0
LINE
  5
1ED
102
{ACAD_REACTORS
330
2E4
102
}
330
1F
100
AcDbEntity
  8
LC-001-002-----0
 62
     7
370
    50
100
AcDbLine
 10
117.153092
 20
226.076908
 30
0.0
 11
118.653092
 21
226.076908
 31
0.0
  0
LINE
  5
1EE
102
{ACAD_REACTORS
330
2E4
102
}
330
1F
100
AcDbEntity
  8
LC-001-002-----0
 62
     7
370
    50
100
AcDbLine
 10
121.653092
 20
226.076908
 30
0.0
 11
123.153092
 21
226.076908
 31
0.0
  0
LINE
  5
1EF
102
{ACAD_REACTORS
330
2E4
102
}
330
1F
100
AcDbEntity
  8
LC-001-002-----0
 62
     7
370
    50
100
AcDbLine
 10
123.153092
 20
226.076908
 30
0.0
 11
129.153092
 21
226.076908
 31
0.0
  0
LINE
  5
1F0
102
{ACAD_REACTORS
330
2E4
102
}
330
1F
100
AcDbEntity
  8
LC-001-002-----0
 62
     7
370
    50
100
AcDbLine
 10
129.153092
 20
226.076908
 30
0.0
 11
130.653092
 21
226.076908
 31
0.0
  0
LINE
  5
1F1
102
{ACAD_REACTORS
330
2E4
102
}
330
1F
100
AcDbEntity
  8
LC-001-002-----0
 62
     7
370
    50
100
AcDbLine
 10
133.653092
 20
226.076908
 30
0.0
 11
135.153092
 21
226.076908
 31
0.0
  0
LINE
  5
1F2
102
{ACAD_REACTORS
330
2E4
102
}
330
1F
100
AcDbEntity
  8
LC-001-002-----0
 62
     7
370
    50
100
AcDbLine
 10
135.153092
 20
226.076908
 30
0.0
 11
141.153092
 21
226.076908
 31
0.0
  0
LINE
  5
1F3
102
{ACAD_REACTORS
330
2E4
102
}
330
1F
100
AcDbEntity
  8
LC-001-002-----0
 62
     7
370
    50
100
AcDbLine
 10
141.153092
 20
226.076908
 30
0.0
 11
142.653092
 21
226.076908
 31
0.0
  0
ARC
  5
1F4
102
{ACAD_REACTORS
330
2E4
102
}
330
1F
100
AcDbEntity
  8
LC-006-002-RND-0
 62
     7
370
    50
100
AcDbCircle
 10
143.653092
 20
227.576908
 30
0.0
 40
1.0
100
AcDbArc
 50
90.0
 51
180.0
  0
ARC
  5
1F5
102
{ACAD_REACTORS
330
2E4
102
}
330
1F
100
AcDbEntity
  8
LC-006-002-RND-0
 62
     7
370
    50
100
AcDbCircle
 10
143.653092
 20
227.576908
 30
0.0
 40
2.5
100
AcDbArc
 50
90.0
 51
180.0
  0
ARC
  5
1F6
102
{ACAD_REACTORS
330
2E4
102
}
330
1F
100
AcDbEntity
  8
LC-006-002-RND-0
 62
     7
370
    50
100
AcDbCircle
 10
132.653092
 20
227.576908
 30
0.0
 40
2.499999999999972
100
AcDbArc
 50
360.0
 51
90.0
  0
ARC
  5
1F7
102
{ACAD_REACTORS
330
2E4
102
}
330
1F
100
AcDbEntity
  8
LC-006-002-RND-0
 62
     7
370
    50
100
AcDbCircle
 10
131.653092
 20
227.576908
 30
0.0
 40
2.5
100
AcDbArc
 50
90.0
 51
180.0
  0
ARC
  5
1F8
102
{ACAD_REACTORS
330
2E4
102
}
330
1F
100
AcDbEntity
  8
LC-006-002-RND-0
 62
     7
370
    50
100
AcDbCircle
 10
120.653092
 20
227.576908
 30
0.0
 40
2.5
100
AcDbArc
 50
360.0
 51
90.0
  0
ARC
  5
1F9
102
{ACAD_REACTORS
330
2E4
102
}
330
1F
100
AcDbEntity
  8
LC-006-002-RND-0
 62
     7
370
    50
100
AcDbCircle
 10
119.653092
 20
227.576908
 30
0.0
 40
2.5
100
AcDbArc
 50
90.0
 51
180.0
  0
ARC
  5
1FA
102
{ACAD_REACTORS
330
2E4
102
}
330
1F
100
AcDbEntity
  8
LC-001-002-----0
 62
     7
370
    50
100
AcDbCircle
 10
108.653092
 20
227.576908
 30
0.0
 40
2.499999999997215
100
AcDbArc
 50
360.0
 51
90.0
  0
LINE
  5
1FB
102
{ACAD_REACTORS
330
2E4
102
}
330
1F
100
AcDbEntity
  8
LC-001-002-----0
 62
     7
370
    50
100
AcDbLine
 10
147.653092
 20
227.576908
 30
0.0
 11
147.653092
 21
225.076908
 31
0.0
  0
LINE
  5
1FC
102
{ACAD_REACTORS
330
2E4
102
}
330
1F
100
AcDbEntity
  8
LC-001-002-----0
 62
     7
370
    50
100
AcDbLine
 10
147.653092
 20
225.076908
 30
0.0
 11
146.153092
 21
225.076908
 31
0.0
  0
LINE
  5
1FD
102
{ACAD_REACTORS
330
2E4
102
}
330
1F
100
AcDbEntity
  8
LC-001-002-----0
 62
     7
370
    50
100
AcDbLine
 10
146.153092
 20
225.076908
 30
0.0
 11
102.153092
 21
225.076908
 31
0.0
  0
ARC
  5
1FE
102
{ACAD_REACTORS
330
2E5
102
}
330
1F
100
AcDbEntity
  8
LC-001-002-----0
 62
     7
370
    50
100
AcDbCircle
 10
283.62098
 20
159.984815
 30
0.0
 40
3.0
100
AcDbArc
 50
180.0
 51
0.0
  0
LINE
  5
1FF
102
{ACAD_REACTORS
330
2E4
102
}
330
1F
100
AcDbEntity
  8
LC-001-002-----0
 62
     7
370
    50
100
AcDbLine
 10
102.153092
 20
230.076908
 30
0.0
 11
145.153092
 21
230.076908
 31
0.0
  0
LINE
  5
200
102
{ACAD_REACTORS
330
2E4
102
}
330
1F
100
AcDbEntity
  8
LC-001-002-----0
 62
     7
370
    50
100
AcDbLine
 10
146.153092
 20
225.076908
 30
0.0
 11
146.153092
 21
227.576908
 31
0.0
  0
LINE
  5
201
102
{ACAD_REACTORS
330
2E4
102
}
330
1F
100
AcDbEntity
  8
LC-001-002-----0
 62
     7
370
    50
100
AcDbLine
 10
145.153092
 20
228.576908
 30
0.0
 11
143.653092
 21
228.576908
 31
0.0
  0
LINE
  5
202
102
{ACAD_REACTORS
330
2E4
102
}
330
1F
100
AcDbEntity
  8
LC-001-002-----0
 62
     7
370
    50
100
AcDbLine
 10
142.653092
 20
227.576908
 30
0.0
 11
142.653092
 21
226.076908
 31
0.0
  0
LINE
  5
203
102
{ACAD_REACTORS
330
2E4
102
}
330
1F
100
AcDbEntity
  8
LC-001-002-----0
 62
     7
370
    50
100
AcDbLine
 10
141.153092
 20
227.576908
 30
0.0
 11
141.153092
 21
226.076908
 31
0.0
  0
LINE
  5
204
102
{ACAD_REACTORS
330
2E4
102
}
330
1F
100
AcDbEntity
  8
LC-001-002-----0
 62
     7
370
    50
100
AcDbLine
 10
135.153092
 20
227.576908
 30
0.0
 11
135.153092
 21
226.076908
 31
0.0
  0
LINE
  5
205
102
{ACAD_REACTORS
330
2E4
102
}
330
1F
100
AcDbEntity
  8
LC-001-002-----0
 62
     7
370
    50
100
AcDbLine
 10
129.153092
 20
227.576908
 30
0.0
 11
129.153092
 21
226.076908
 31
0.0
  0
LINE
  5
206
102
{ACAD_REACTORS
330
2E4
102
}
330
1F
100
AcDbEntity
  8
LC-001-002-----0
 62
     7
370
    50
100
AcDbLine
 10
123.153092
 20
227.576908
 30
0.0
 11
123.153092
 21
226.076908
 31
0.0
  0
LINE
  5
207
102
{ACAD_REACTORS
330
2E4
102
}
330
1F
100
AcDbEntity
  8
LC-001-002-----0
 62
     7
370
    50
100
AcDbLine
 10
117.153092
 20
227.576908
 30
0.0
 11
117.153092
 21
226.076908
 31
0.0
  0
LINE
  5
208
102
{ACAD_REACTORS
330
2E4
102
}
330
1F
100
AcDbEntity
  8
LC-001-002-----0
 62
     7
370
    50
100
AcDbLine
 10
111.153092
 20
227.576908
 30
0.0
 11
111.153092
 21
226.076908
 31
0.0
  0
LINE
  5
209
102
{ACAD_REACTORS
330
2E4
102
}
330
1F
100
AcDbEntity
  8
LC-001-002-----0
 62
     7
370
    50
100
AcDbLine
 10
133.653092
 20
227.576908
 30
0.0
 11
133.653092
 21
226.076908
 31
0.0
  0
LINE
  5
20A
102
{ACAD_REACTORS
330
2E4
102
}
330
1F
100
AcDbEntity
  8
LC-001-002-----0
 62
     7
370
    50
100
AcDbLine
 10
130.653092
 20
227.576908
 30
0.0
 11
130.653092
 21
226.076908
 31
0.0
  0
LINE
  5
20B
102
{ACAD_REACTORS
330
2E4
102
}
330
1F
100
AcDbEntity
  8
LC-001-002-----0
 62
     7
370
    50
100
AcDbLine
 10
121.653092
 20
227.576908
 30
0.0
 11
121.653092
 21
226.076908
 31
0.0
  0
LINE
  5
20C
102
{ACAD_REACTORS
330
2E4
102
}
330
1F
100
AcDbEntity
  8
LC-001-002-----0
 62
     7
370
    50
100
AcDbLine
 10
118.653092
 20
227.576908
 30
0.0
 11
118.653092
 21
226.076908
 31
0.0
  0
LINE
  5
20D
102
{ACAD_REACTORS
330
2E4
102
}
330
1F
100
AcDbEntity
  8
LC-001-002-----0
 62
     7
370
    50
100
AcDbLine
 10
109.653092
 20
227.576908
 30
0.0
 11
109.653092
 21
226.076908
 31
0.0
  0
LINE
  5
20E
102
{ACAD_REACTORS
330
2E4
102
}
330
1F
100
AcDbEntity
  8
LC-001-002-----0
 62
     7
370
    50
100
AcDbLine
 10
132.653092
 20
228.576908
 30
0.0
 11
131.653092
 21
228.576908
 31
0.0
  0
LINE
  5
20F
102
{ACAD_REACTORS
330
2E4
102
}
330
1F
100
AcDbEntity
  8
LC-001-002-----0
 62
     7
370
    50
100
AcDbLine
 10
120.653092
 20
228.576908
 30
0.0
 11
119.653092
 21
228.576908
 31
0.0
  0
LINE
  5
210
102
{ACAD_REACTORS
330
2E4
102
}
330
1F
100
AcDbEntity
  8
LC-001-002-----0
 62
     7
370
    50
100
AcDbLine
 10
108.653092
 20
228.576908
 30
0.0
 11
102.153092
 21
228.576908
 31
0.0
  0
ARC
  5
211
102
{ACAD_REACTORS
330
2E5
102
}
330
1F
100
AcDbEntity
  8
LC-001-002-----0
 62
     7
370
    50
100
AcDbCircle
 10
283.62098
 20
189.984815
 30
0.0
 40
3.0
100
AcDbArc
 50
0.0
 51
180.0
  0
LINE
  5
212
102
{ACAD_REACTORS
330
2E5
102
}
330
1F
100
AcDbEntity
  8
LC-001-002-----0
 62
     7
370
    50
100
AcDbLine
 10
280.62098
 20
159.984815
 30
0.0
 11
280.62098
 21
189.984815
 31
0.0
  0
LINE
  5
213
102
{ACAD_REACTORS
330
2E5
102
}
330
1F
100
AcDbEntity
  8
LC-001-002-----0
 62
     7
370
    50
100
AcDbLine
 10
286.62098
 20
159.984815
 30
0.0
 11
286.62098
 21
189.984815
 31
0.0
  0
ARC
  5
214
102
{ACAD_REACTORS
330
2E5
102
}
330
1F
100
AcDbEntity
  8
LC-001-002-----0
 62
     7
370
    50
100
AcDbCircle
 10
304.12098
 20
162.984815
 30
0.0
 40
3.0
100
AcDbArc
 50
90.0
 51
270.0
  0
ARC
  5
215
102
{ACAD_REACTORS
330
2E5
102
}
330
1F
100
AcDbEntity
  8
LC-001-002-----0
 62
     7
370
    50
100
AcDbCircle
 10
311.12098
 20
186.984815
 30
0.0
 40
3.0
100
AcDbArc
 50
270.0
 51
90.0
  0
LINE
  5
216
102
{ACAD_REACTORS
330
2E5
102
}
330
1F
100
AcDbEntity
  8
LC-001-002-----0
 62
     7
370
    50
100
AcDbLine
 10
322.62098
 20
153.984815
 30
0.0
 11
292.62098
 21
153.984815
 31
0.0
  0
LINE
  5
217
102
{ACAD_REACTORS
330
2E5
102
}
330
1F
100
AcDbEntity
  8
LC-001-002-----0
 62
     7
370
    50
100
AcDbLine
 10
328.62098
 20
189.984815
 30
0.0
 11
328.62098
 21
159.984815
 31
0.0
  0
LINE
  5
218
102
{ACAD_REACTORS
330
2E5
102
}
330
1F
100
AcDbEntity
  8
LC-001-002-----0
 62
     7
370
    50
100
AcDbLine
 10
292.62098
 20
195.984815
 30
0.0
 11
322.62098
 21
195.984815
 31
0.0
  0
ARC
  5
219
102
{ACAD_REACTORS
330
2E5
102
}
330
1F
100
AcDbEntity
  8
LC-001-002-----0
 62
     7
370
    50
100
AcDbCircle
 10
292.62098
 20
150.984815
 30
0.0
 40
3.0
100
AcDbArc
 50
90.0
 51
270.0
  0
ARC
  5
21A
102
{ACAD_REACTORS
330
2E5
102
}
330
1F
100
AcDbEntity
  8
LC-001-002-----0
 62
     7
370
    50
100
AcDbCircle
 10
331.62098
 20
159.984815
 30
0.0
 40
3.0
100
AcDbArc
 50
180.0
 51
0.0
  0
ARC
  5
21B
102
{ACAD_REACTORS
330
2E5
102
}
330
1F
100
AcDbEntity
  8
LC-001-002-----0
 62
     7
370
    50
100
AcDbCircle
 10
322.62098
 20
198.984815
 30
0.0
 40
3.0
100
AcDbArc
 50
270.0
 51
90.0
  0
CIRCLE
  5
21C
102
{ACAD_REACTORS
330
2E9
102
}
330
1F
100
AcDbEntity
  8
LC-001-002-----0
 62
     7
370
    50
100
AcDbCircle
 10
269.12098
 20
136.484815
 30
0.0
 40
5.5
  0
LINE
  5
21D
102
{ACAD_REACTORS
330
2E9
102
}
330
1F
100
AcDbEntity
  8
LC-001-002-----0
 62
     7
370
    50
100
AcDbLine
 10
271.62098
 20
136.984815
 30
0.0
 11
269.62098
 21
136.984815
 31
0.0
  0
LINE
  5
21E
102
{ACAD_REACTORS
330
2E9
102
}
330
1F
100
AcDbEntity
  8
LC-001-002-----0
 62
     7
370
    50
100
AcDbLine
 10
268.62098
 20
136.984815
 30
0.0
 11
266.62098
 21
136.984815
 31
0.0
  0
LINE
  5
21F
102
{ACAD_REACTORS
330
2E5
102
}
330
1F
100
AcDbEntity
  8
LC-001-002-----0
 62
     7
370
    50
100
AcDbLine
 10
322.62098
 20
147.984815
 30
0.0
 11
292.62098
 21
147.984815
 31
0.0
  0
LINE
  5
220
102
{ACAD_REACTORS
330
2E5
102
}
330
1F
100
AcDbEntity
  8
LC-001-002-----0
 62
     7
370
    50
100
AcDbLine
 10
334.62098
 20
189.984815
 30
0.0
 11
334.62098
 21
159.984815
 31
0.0
  0
LINE
  5
221
102
{ACAD_REACTORS
330
2E5
102
}
330
1F
100
AcDbEntity
  8
LC-001-002-----0
 62
     7
370
    50
100
AcDbLine
 10
292.62098
 20
201.984815
 30
0.0
 11
322.62098
 21
201.984815
 31
0.0
  0
ARC
  5
222
102
{ACAD_REACTORS
330
2E5
102
}
330
1F
100
AcDbEntity
  8
LC-001-002-----0
 62
     7
370
    50
100
AcDbCircle
 10
322.62098
 20
150.984815
 30
0.0
 40
3.0
100
AcDbArc
 50
270.0
 51
90.0
  0
ARC
  5
223
102
{ACAD_REACTORS
330
2E5
102
}
330
1F
100
AcDbEntity
  8
LC-001-002-----0
 62
     7
370
    50
100
AcDbCircle
 10
331.62098
 20
189.984815
 30
0.0
 40
3.0
100
AcDbArc
 50
0.0
 51
180.0
  0
ARC
  5
224
102
{ACAD_REACTORS
330
2E5
102
}
330
1F
100
AcDbEntity
  8
LC-001-002-----0
 62
     7
370
    50
100
AcDbCircle
 10
292.62098
 20
198.984815
 30
0.0
 40
3.0
100
AcDbArc
 50
90.0
 51
270.0
  0
LINE
  5
225
102
{ACAD_REACTORS
330
2E5
102
}
330
1F
100
AcDbEntity
  8
LC-001-002-----0
 62
     7
370
    50
100
AcDbLine
 10
281.62098
 20
141.984815
 30
0.0
 11
333.62098
 21
141.984815
 31
0.0
  0
LINE
  5
226
102
{ACAD_REACTORS
330
2E5
102
}
330
1F
100
AcDbEntity
  8
LC-001-002-----0
 62
     7
370
    50
100
AcDbLine
 10
340.62098
 20
148.984815
 30
0.0
 11
340.62098
 21
200.984815
 31
0.0
  0
LINE
  5
227
102
{ACAD_REACTORS
330
2E5
102
}
330
1F
100
AcDbEntity
  8
LC-001-002-----0
 62
     7
370
    50
100
AcDbLine
 10
333.62098
 20
207.984815
 30
0.0
 11
281.62098
 21
207.984815
 31
0.0
  0
ARC
  5
228
102
{ACAD_REACTORS
330
2E5
102
}
330
1F
100
AcDbEntity
  8
LC-001-002-----0
 62
     7
370
    50
100
AcDbCircle
 10
333.62098
 20
138.984815
 30
0.0
 40
2.999999999999943
100
AcDbArc
 50
270.0
 51
90.0
  0
ARC
  5
229
102
{ACAD_REACTORS
330
2E5
102
}
330
1F
100
AcDbEntity
  8
LC-001-002-----0
 62
     7
370
    50
100
AcDbCircle
 10
343.62098
 20
200.984815
 30
0.0
 40
3.0
100
AcDbArc
 50
0.0
 51
180.0
  0
ARC
  5
22A
102
{ACAD_REACTORS
330
2E5
102
}
330
1F
100
AcDbEntity
  8
LC-001-002-----0
 62
     7
370
    50
100
AcDbCircle
 10
281.62098
 20
210.984815
 30
0.0
 40
3.0
100
AcDbArc
 50
90.0
 51
270.0
  0
LINE
  5
22B
102
{ACAD_REACTORS
330
2E5
102
}
330
1F
100
AcDbEntity
  8
LC-001-002-----0
 62
     7
370
    50
100
AcDbLine
 10
281.62098
 20
135.984815
 30
0.0
 11
333.62098
 21
135.984815
 31
0.0
  0
LINE
  5
22C
102
{ACAD_REACTORS
330
2E5
102
}
330
1F
100
AcDbEntity
  8
LC-001-002-----0
 62
     7
370
    50
100
AcDbLine
 10
346.62098
 20
148.984815
 30
0.0
 11
346.62098
 21
200.984815
 31
0.0
  0
LINE
  5
22D
102
{ACAD_REACTORS
330
2E5
102
}
330
1F
100
AcDbEntity
  8
LC-001-002-----0
 62
     7
370
    50
100
AcDbLine
 10
333.62098
 20
213.984815
 30
0.0
 11
281.62098
 21
213.984815
 31
0.0
  0
LINE
  5
22E
102
{ACAD_REACTORS
330
2E9
102
}
330
1F
100
AcDbEntity
  8
LC-001-002-----0
 62
     7
370
    50
100
AcDbLine
 10
268.62098
 20
138.984815
 30
0.0
 11
268.62098
 21
136.984815
 31
0.0
  0
LINE
  5
22F
102
{ACAD_REACTORS
330
2E9
102
}
330
1F
100
AcDbEntity
  8
LC-001-002-----0
 62
     7
370
    50
100
AcDbLine
 10
268.62098
 20
135.984815
 30
0.0
 11
268.62098
 21
133.984815
 31
0.0
  0
LINE
  5
230
102
{ACAD_REACTORS
330
2E9
102
}
330
1F
100
AcDbEntity
  8
LC-001-002-----0
 62
     7
370
    50
100
AcDbLine
 10
271.62098
 20
135.984815
 30
0.0
 11
269.62098
 21
135.984815
 31
0.0
  0
ARC
  5
231
102
{ACAD_REACTORS
330
2E5
102
}
330
1F
100
AcDbEntity
  8
LC-001-002-----0
 62
     7
370
    50
100
AcDbCircle
 10
281.62098
 20
138.984815
 30
0.0
 40
3.0
100
AcDbArc
 50
90.0
 51
270.0
  0
ARC
  5
232
102
{ACAD_REACTORS
330
2E5
102
}
330
1F
100
AcDbEntity
  8
LC-001-002-----0
 62
     7
370
    50
100
AcDbCircle
 10
343.62098
 20
148.984815
 30
0.0
 40
3.0
100
AcDbArc
 50
180.0
 51
0.0
  0
ARC
  5
233
102
{ACAD_REACTORS
330
2E5
102
}
330
1F
100
AcDbEntity
  8
LC-001-002-----0
 62
     7
370
    50
100
AcDbCircle
 10
333.62098
 20
210.984815
 30
0.0
 40
3.0
100
AcDbArc
 50
270.0
 51
90.0
  0
LINE
  5
234
102
{ACAD_REACTORS
330
2E5
102
}
330
1F
100
AcDbEntity
  8
LC-001-002-----0
 62
     7
370
    50
100
AcDbLine
 10
262.12098
 20
131.984815
 30
0.0
 11
262.12098
 21
217.984815
 31
0.0
  0
LINE
  5
235
102
{ACAD_REACTORS
330
2E5
102
}
330
1F
100
AcDbEntity
  8
LC-001-002-----0
 62
     7
370
    50
100
AcDbLine
 10
264.62098
 20
220.484815
 30
0.0
 11
350.62098
 21
220.484815
 31
0.0
  0
LINE
  5
236
102
{ACAD_REACTORS
330
2E5
102
}
330
1F
100
AcDbEntity
  8
LC-001-002-----0
 62
     7
370
    50
100
AcDbLine
 10
353.12098
 20
217.984815
 30
0.0
 11
353.12098
 21
131.984815
 31
0.0
  0
LINE
  5
237
102
{ACAD_REACTORS
330
2E5
102
}
330
1F
100
AcDbEntity
  8
LC-001-002-----0
 62
     7
370
    50
100
AcDbLine
 10
350.62098
 20
129.484815
 30
0.0
 11
264.62098
 21
129.484815
 31
0.0
  0
LINE
  5
238
102
{ACAD_REACTORS
330
2E9
102
}
330
1F
100
AcDbEntity
  8
LC-001-002-----0
 62
     7
370
    50
100
AcDbLine
 10
268.62098
 20
135.984815
 30
0.0
 11
266.62098
 21
135.984815
 31
0.0
  0
LINE
  5
239
102
{ACAD_REACTORS
330
2E9
102
}
330
1F
100
AcDbEntity
  8
LC-001-002-----0
 62
     7
370
    50
100
AcDbLine
 10
269.62098
 20
138.984815
 30
0.0
 11
269.62098
 21
136.984815
 31
0.0
  0
LINE
  5
23A
102
{ACAD_REACTORS
330
2E9
102
}
330
1F
100
AcDbEntity
  8
LC-001-002-----0
 62
     7
370
    50
100
AcDbLine
 10
269.62098
 20
135.984815
 30
0.0
 11
269.62098
 21
133.984815
 31
0.0
  0
CIRCLE
  5
23B
102
{ACAD_REACTORS
330
2E7
102
}
330
1F
100
AcDbEntity
  8
LC-001-002-----0
 62
     7
370
    50
100
AcDbCircle
 10
269.12098
 20
136.484815
 30
0.0
 40
5.5
  0
LINE
  5
23C
102
{ACAD_REACTORS
330
2E9
102
}
330
1F
100
AcDbEntity
  8
LC-001-002-----0
 62
     7
370
    50
100
AcDbLine
 10
271.62098
 20
136.984815
 30
0.0
 11
271.62098
 21
135.984815
 31
0.0
  0
LINE
  5
23D
102
{ACAD_REACTORS
330
2E9
102
}
330
1F
100
AcDbEntity
  8
LC-001-002-----0
 62
     7
370
    50
100
AcDbLine
 10
266.62098
 20
136.984815
 30
0.0
 11
266.62098
 21
135.984815
 31
0.0
  0
LINE
  5
23E
102
{ACAD_REACTORS
330
2E9
102
}
330
1F
100
AcDbEntity
  8
LC-001-002-----0
 62
     7
370
    50
100
AcDbLine
 10
269.62098
 20
133.984815
 30
0.0
 11
268.62098
 21
133.984815
 31
0.0
  0
LINE
  5
23F
102
{ACAD_REACTORS
330
2E9
102
}
330
1F
100
AcDbEntity
  8
LC-001-002-----0
 62
     7
370
    50
100
AcDbLine
 10
269.62098
 20
138.984815
 30
0.0
 11
268.62098
 21
138.984815
 31
0.0
  0
LINE
  5
240
102
{ACAD_REACTORS
330
2DE
102
}
330
1F
100
AcDbEntity
  8
LC-001-002-----0
 62
     7
370
    50
100
AcDbLine
 10
157.152583
 20
124.776743
 30
0.0
 11
157.152608
 21
116.776849
 31
0.0
  0
LINE
  5
241
102
{ACAD_REACTORS
330
2DE
102
}
330
1F
100
AcDbEntity
  8
LC-001-002-----0
 62
     7
370
    50
100
AcDbLine
 10
154.152655
 20
106.776934
 30
0.0
 11
162.152699
 21
106.776934
 31
0.0
  0
LINE
  5
242
102
{ACAD_REACTORS
330
2DE
102
}
330
1F
100
AcDbEntity
  8
LC-001-002-----0
 62
     7
370
    50
100
AcDbLine
 10
137.846383
 20
106.776934
 30
0.0
 11
137.846383
 21
109.776908
 31
0.0
  0
LINE
  5
243
102
{ACAD_REACTORS
330
2DE
102
}
330
1F
100
AcDbEntity
  8
LC-001-002-----0
 62
     7
370
    50
100
AcDbLine
 10
66.459802
 20
106.776934
 30
0.0
 11
66.459802
 21
109.776908
 31
0.0
  0
LINE
  5
244
102
{ACAD_REACTORS
330
2DE
102
}
330
1F
100
AcDbEntity
  8
LC-001-002-----0
 62
     7
370
    50
100
AcDbLine
 10
64.338499
 20
106.776934
 30
0.0
 11
64.338499
 21
109.776908
 31
0.0
  0
LINE
  5
245
102
{ACAD_REACTORS
330
2DE
102
}
330
1F
100
AcDbEntity
  8
LC-001-002-----0
 62
     7
370
    50
100
AcDbLine
 10
162.152699
 20
106.776934
 30
0.0
 11
162.152699
 21
116.776159
 31
0.0
  0
LINE
  5
246
102
{ACAD_REACTORS
330
2DE
102
}
330
1F
100
AcDbEntity
  8
LC-001-002-----0
 62
     7
370
    50
100
AcDbLine
 10
159.152606
 20
126.776765
 30
0.0
 11
159.152606
 21
116.776849
 31
0.0
  0
LINE
  5
247
102
{ACAD_REACTORS
330
2DE
102
}
330
1F
100
AcDbEntity
  8
LC-001-002-----0
 62
     7
370
    50
100
AcDbLine
 10
160.652712
 20
116.776849
 30
0.0
 11
162.152699
 21
116.776849
 31
0.0
  0
LINE
  5
248
102
{ACAD_REACTORS
330
2DE
102
}
330
1F
100
AcDbEntity
  8
LC-001-002-----0
 62
     7
370
    50
100
AcDbLine
 10
159.152606
 20
126.776765
 30
0.0
 11
157.152583
 21
124.776743
 31
0.0
  0
LINE
  5
249
102
{ACAD_REACTORS
330
2DE
102
}
330
1F
100
AcDbEntity
  8
LC-001-002-----0
 62
     7
370
    50
100
AcDbLine
 10
160.652712
 20
116.776849
 30
0.0
 11
159.152606
 21
116.776849
 31
0.0
  0
LINE
  5
24A
102
{ACAD_REACTORS
330
2DE
102
}
330
1F
100
AcDbEntity
  8
LC-001-002-----0
 62
     7
370
    50
100
AcDbLine
 10
100.653105
 20
109.776908
 30
0.0
 11
103.65308
 21
109.776908
 31
0.0
  0
LINE
  5
24B
102
{ACAD_REACTORS
330
2DE
102
}
330
1F
100
AcDbEntity
  8
LC-001-002-----0
 62
     7
370
    50
100
AcDbLine
 10
103.65308
 20
106.776934
 30
0.0
 11
103.65308
 21
109.776908
 31
0.0
  0
LINE
  5
24C
102
{ACAD_REACTORS
330
2DE
102
}
330
1F
100
AcDbEntity
  8
LC-001-002-----0
 62
     7
370
    50
100
AcDbLine
 10
59.73863
 20
106.776934
 30
0.0
 11
59.73863
 21
109.776908
 31
0.0
  0
LINE
  5
24D
102
{ACAD_REACTORS
330
2DE
102
}
330
1F
100
AcDbEntity
  8
LC-001-002-----0
 62
     7
370
    50
100
AcDbLine
 10
59.73863
 20
109.776908
 30
0.0
 11
66.459802
 21
109.776908
 31
0.0
  0
LINE
  5
24E
102
{ACAD_REACTORS
330
2DE
102
}
330
1F
100
AcDbEntity
  8
LC-001-002-----0
 62
     7
370
    50
100
AcDbLine
 10
50.15353
 20
106.776934
 30
0.0
 11
103.65308
 21
106.776934
 31
0.0
  0
LINE
  5
24F
102
{ACAD_REACTORS
330
2DE
102
}
330
1F
100
AcDbEntity
  8
LC-001-002-----0
 62
     7
370
    50
100
AcDbLine
 10
103.65308
 20
106.776934
 30
0.0
 11
137.846383
 21
106.776934
 31
0.0
  0
LINE
  5
250
102
{ACAD_REACTORS
330
2DE
102
}
330
1F
100
AcDbEntity
  8
LC-001-002-----0
 62
     7
370
    50
100
AcDbLine
 10
137.846383
 20
106.776934
 30
0.0
 11
154.131016
 21
106.776934
 31
0.0
  0
LINE
  5
251
102
{ACAD_REACTORS
330
2DE
102
}
330
1F
100
AcDbEntity
  8
LC-001-002-----0
 62
     7
370
    50
100
AcDbLine
 10
100.653105
 20
106.776934
 30
0.0
 11
100.653105
 21
109.776908
 31
0.0
  0
INSERT
  5
25E
102
{ACAD_REACTORS
330
2DE
102
}
330
1F
100
AcDbEntity
  8
LC-004-005-----0
 62
     7
370
    25
100
AcDbBlockReference
  2
*X1215
 10
0.0
 20
0.0
 30
0.0
  0
LINE
  5
25F
102
{ACAD_REACTORS
330
2DE
102
}
330
1F
100
AcDbEntity
  8
LC-001-002-----0
 62
     7
370
    50
100
AcDbLine
 10
47.153601
 20
124.776743
 30
0.0
 11
47.153556
 21
109.776908
 31
0.0
  0
LINE
  5
260
102
{ACAD_REACTORS
330
2DE
102
}
330
1F
100
AcDbEntity
  8
LC-001-002-----0
 62
     7
370
    50
100
AcDbLine
 10
50.15353
 20
106.776934
 30
0.0
 11
42.153485
 21
106.776934
 31
0.0
  0
LINE
  5
261
102
{ACAD_REACTORS
330
2DE
102
}
330
1F
100
AcDbEntity
  8
LC-001-002-----0
 62
     7
370
    50
100
AcDbLine
 10
42.153485
 20
106.776934
 30
0.0
 11
42.153485
 21
116.776159
 31
0.0
  0
LINE
  5
262
102
{ACAD_REACTORS
330
2DE
102
}
330
1F
100
AcDbEntity
  8
LC-001-002-----0
 62
     7
370
    50
100
AcDbLine
 10
45.153579
 20
126.776765
 30
0.0
 11
45.153579
 21
116.776849
 31
0.0
  0
LINE
  5
263
102
{ACAD_REACTORS
330
2DE
102
}
330
1F
100
AcDbEntity
  8
LC-001-002-----0
 62
     7
370
    50
100
AcDbLine
 10
43.653473
 20
116.776849
 30
0.0
 11
42.153485
 21
116.776849
 31
0.0
  0
LINE
  5
264
102
{ACAD_REACTORS
330
2DE
102
}
330
1F
100
AcDbEntity
  8
LC-001-002-----0
 62
     7
370
    50
100
AcDbLine
 10
45.153579
 20
126.776765
 30
0.0
 11
47.153601
 21
124.776743
 31
0.0
  0
LINE
  5
265
102
{ACAD_REACTORS
330
2DE
102
}
330
1F
100
AcDbEntity
  8
LC-001-002-----0
 62
     7
370
    50
100
AcDbLine
 10
47.153556
 20
109.776908
 30
0.0
 11
50.15353
 21
109.776908
 31
0.0
  0
LINE
  5
266
102
{ACAD_REACTORS
330
2DE
102
}
330
1F
100
AcDbEntity
  8
LC-001-002-----0
 62
     7
370
    50
100
AcDbLine
 10
50.15353
 20
109.776908
 30
0.0
 11
50.15353
 21
106.776934
 31
0.0
  0
LINE
  5
267
102
{ACAD_REACTORS
330
2DE
102
}
330
1F
100
AcDbEntity
  8
LC-001-002-----0
 62
     7
370
    50
100
AcDbLine
 10
43.653473
 20
116.776849
 30
0.0
 11
45.153579
 21
116.776849
 31
0.0
  0
INSERT
  5
274
102
{ACAD_REACTORS
330
2DE
102
}
330
1F
100
AcDbEntity
  8
LC-004-005-----0
 62
     7
370
    25
100
AcDbBlockReference
  2
*X1316
 10
0.0
 20
0.0
 30
0.0
  0
LINE
  5
275
102
{ACAD_REACTORS
330
2DE
102
}
330
1F
100
AcDbEntity
  8
LC-001-002-----0
 62
     7
370
    50
100
AcDbLine
 10
157.152629
 20
109.776908
 30
0.0
 11
154.152655
 21
109.776908
 31
0.0
  0
LINE
  5
276
102
{ACAD_REACTORS
330
2DE
102
}
330
1F
100
AcDbEntity
  8
LC-001-002-----0
 62
     7
370
    50
100
AcDbLine
 10
154.152655
 20
109.776908
 30
0.0
 11
154.152655
 21
106.776934
 31
0.0
  0
LINE
  5
277
102
{ACAD_REACTORS
330
2DE
102
}
330
1F
100
AcDbEntity
  8
LC-001-002-----0
 62
     7
370
    50
100
AcDbLine
 10
157.152583
 20
124.776743
 30
0.0
 11
157.152629
 21
109.776908
 31
0.0
  0
LINE
  5
278
102
{ACAD_REACTORS
330
2DE
102
}
330
1F
100
AcDbEntity
  8
LC-001-002-----0
 62
     7
370
    50
100
AcDbLine
 10
159.152606
 20
126.776765
 30
0.0
 11
157.152583
 21
124.776743
 31
0.0
  0
LINE
  5
279
102
{ACAD_REACTORS
330
2DE
102
}
330
1F
100
AcDbEntity
  8
LC-001-002-----0
 62
     7
370
    50
100
AcDbLine
 10
159.152606
 20
126.776765
 30
0.0
 11
159.152606
 21
116.776849
 31
0.0
  0
LINE
  5
27A
102
{ACAD_REACTORS
330
2DE
102
}
330
1F
100
AcDbEntity
  8
LC-001-002-----0
 62
     7
370
    50
100
AcDbLine
 10
162.152699
 20
106.776934
 30
0.0
 11
162.152699
 21
116.776159
 31
0.0
  0
LINE
  5
27B
102
{ACAD_REACTORS
330
2DE
102
}
330
1F
100
AcDbEntity
  8
LC-001-002-----0
 62
     7
370
    50
100
AcDbLine
 10
154.152655
 20
106.776934
 30
0.0
 11
162.152699
 21
106.776934
 31
0.0
  0
LINE
  5
27C
102
{ACAD_REACTORS
330
2DE
102
}
330
1F
100
AcDbEntity
  8
LC-001-002-----0
 62
     7
370
    50
100
AcDbLine
 10
144.567555
 20
106.776934
 30
0.0
 11
144.567555
 21
109.776908
 31
0.0
  0
LINE
  5
27D
102
{ACAD_REACTORS
330
2DE
102
}
330
1F
100
AcDbEntity
  8
LC-001-002-----0
 62
     7
370
    50
100
AcDbLine
 10
144.567555
 20
109.776908
 30
0.0
 11
137.846383
 21
109.776908
 31
0.0
  0
LINE
  5
27E
102
{ACAD_REACTORS
330
2DE
102
}
330
1F
100
AcDbEntity
  8
LC-001-002-----0
 62
     7
370
    50
100
AcDbLine
 10
139.967686
 20
106.776934
 30
0.0
 11
139.967686
 21
109.776908
 31
0.0
  0
LINE
  5
27F
330
1F
100
AcDbEntity
  8
LC-001-002-----0
 62
     7
370
    50
100
AcDbLine
 10
51.653092
 20
224.376908
 30
0.0
 11
55.353092
 21
224.376908
 31
0.0
  0
LINE
  5
280
330
1F
100
AcDbEntity
  8
LC-001-002-----0
 62
     7
370
    50
100
AcDbLine
 10
152.653092
 20
224.376908
 30
0.0
 11
148.953092
 21
224.376908
 31
0.0
  0
LINE
  5
281
330
1F
100
AcDbEntity
  8
LC-001-002-----0
 62
     7
370
    25
100
AcDbLine
 10
74.431325
 20
281.116715
 30
0.0
 11
74.431325
 21
266.116715
 31
0.0
  0
LINE
  5
282
330
1F
100
AcDbEntity
  8
LC-001-002-----0
 62
     7
370
    25
100
AcDbLine
 10
59.431325
 20
281.116715
 30
0.0
 11
74.22604
 21
281.116715
 31
0.0
  0
INSERT
  5
28B
102
{ACAD_REACTORS
330
2E4
102
}
330
1F
100
AcDbEntity
  8
LC-004-005-----0
 62
     7
370
    25
100
AcDbBlockReference
  2
*X1417
 10
0.0
 20
0.0
 30
0.0
  0
LINE
  5
28C
330
1F
100
AcDbEntity
  8
LC-001-002-----0
 62
     7
370
    25
100
AcDbLine
 10
154.153092
 20
123.776908
 30
0.0
 11
50.153092
 21
123.776908
 31
0.0
  0
INSERT
  5
2A7
330
1F
100
AcDbEntity
  8
LC-004-005-----0
 62
     7
370
    25
100
AcDbBlockReference
  2
*X1518
 10
0.0
 20
0.0
 30
0.0
  0
INSERT
  5
2C2
330
1F
100
AcDbEntity
  8
LC-004-005-----0
 62
     7
370
    25
100
AcDbBlockReference
  2
*X1619
 10
0.0
 20
0.0
 30
0.0
  0
DIMENSION
  5
2C3
330
1F
100
AcDbEntity
  8
LC-005-003-----0
 62
     7
370
    25
100
AcDbDimension
  2
*D20
 10
201.561762
 20
123.775425
 30
0.0
 11
170.762313
 21
141.372964
 31
0.0
 70
   160
 71
     5
 42
14.0
 53
89.998207
  3
LC-DIM-L-0140-02-02
100
AcDbAlignedDimension
 13
154.152655
 23
109.776908
 33
0.0
 14
154.153092
 24
123.776908
 34
0.0
 50
89.998207
100
AcDbRotatedDimension
  0
DIMENSION
  5
2D1
330
1F
100
AcDbEntity
  8
LC-005-003-----0
 62
     7
370
    25
100
AcDbDimension
  2
*D21
 10
246.914883
 20
230.776908
 30
0.0
 11
216.114883
 21
170.478
 31
0.0
 70
   160
  1
15-107
 71
     5
 42
107.0
 53
90.0
  3
LC-DIM-L-0140-02-02
100
AcDbAlignedDimension
 13
154.153092
 23
123.776908
 33
0.0
 14
150.453092
 24
230.776908
 34
0.0
 50
90.0
100
AcDbRotatedDimension
  0
ENDSEC
  0
SECTION
  2
OBJECTS
  0
DICTIONARY
  5
C
330
0
100
AcDbDictionary
281
     1
  3
ACAD_GROUP
350
D
  3
ACAD_LAYOUT
350
1A
  3
ACAD_MLINESTYLE
350
17
  3
ACAD_PLOTSETTINGS
350
19
  3
ACAD_PLOTSTYLENAME
350
E
  0
DICTIONARY
  5
D
102
{ACAD_REACTORS
330
C
102
}
330
C
100
AcDbDictionary
281
     1
  3
LCGROUP114
350
2E3
  3
LCGROUP132
350
2E6
  3
LCGROUP245
350
2EA
  3
LCGROUP329
350
2DF
  3
LCGROUP331
350
2E0
  3
LCGROUP353
350
2E1
  3
LCGROUP376
350
2E2
  3
LCGROUP407
350
2E4
  3
LCGROUP414
350
2E5
  3
LCGROUP509
350
2E8
  3
LCGROUP511
350
2E7
  3
LCGROUP512
350
2E9
  3
LCGROUP552
350
2DE
  0
DICTIONARY
  5
1A
102
{ACAD_REACTORS
330
C
102
}
330
C
100
AcDbDictionary
281
     1
  3
Layout1
350
1E
  3
Layout2
350
26
  3
Model
350
22
  0
DICTIONARY
  5
17
102
{ACAD_REACTORS
330
C
102
}
330
C
100
AcDbDictionary
281
     1
  3
Standard
350
18
  0
DICTIONARY
  5
19
102
{ACAD_REACTORS
330
C
102
}
330
C
100
AcDbDictionary
281
     1
  0
ACDBDICTIONARYWDFLT
  5
E
102
{ACAD_REACTORS
330
C
102
}
330
C
100
AcDbDictionary
281
     1
  3
Normal
350
F
100
AcDbDictionaryWithDefault
340
F
  0
GROUP
  5
2E3
102
{ACAD_REACTORS
330
D
102
}
330
D
100
AcDbGroup
300
Rahmen
 70
     1
 71
     1
340
35
340
37
340
38
340
3E
340
3F
340
42
340
45
340
46
340
47
340
48
340
7C
340
7D
340
7E
340
7F
340
80
340
81
340
82
340
83
340
84
340
85
340
B6
340
C8
340
C9
340
CA
340
CB
340
CC
340
CD
340
CE
340
CF
340
D2
340
D4
340
D5
340
D6
340
D7
340
E6
340
F4
340
F7
340
F8
340
F9
340
FA
  0
GROUP
  5
2E6
102
{ACAD_REACTORS
330
D
102
}
330
D
100
AcDbGroup
300
Rahmenverlõngerung
 70
     1
 71
     1
340
FB
340
FC
340
FD
340
FE
340
FF
340
100
340
101
340
102
340
103
340
104
340
105
340
106
340
107
340
109
  0
GROUP
  5
2EA
102
{ACAD_REACTORS
330
D
102
}
330
D
100
AcDbGroup
300
GRP245
 70
     1
 71
     1
340
15F
340
160
340
161
340
162
340
164
340
165
340
166
340
167
340
168
340
169
340
16A
340
16B
340
16C
340
16D
340
16F
340
170
340
171
340
172
340
173
340
174
340
175
340
176
340
177
340
178
  0
GROUP
  5
2DF
102
{ACAD_REACTORS
330
D
102
}
330
D
100
AcDbGroup
300
Rahmen
 70
     1
 71
     1
340
179
340
17A
340
17B
340
17C
340
17D
340
17E
340
17F
340
180
340
181
340
182
340
183
340
184
340
185
340
186
340
187
340
188
340
189
340
18A
340
18B
340
18C
340
18D
340
18F
340
190
340
191
340
192
340
193
340
194
340
195
340
196
340
1CB
340
1D9
340
1DA
340
1DB
340
1DC
340
1DD
340
1E4
340
1E5
340
1E6
340
1E7
340
1E8
  0
GROUP
  5
2E0
102
{ACAD_REACTORS
330
D
102
}
330
D
100
AcDbGroup
300
rost
 70
     1
 71
     1
340
10A
340
10B
340
10C
340
10D
340
10E
340
10F
340
110
340
117
340
11D
340
123
340
124
340
125
340
13B
340
13C
340
13D
340
13E
340
13F
340
140
340
141
340
142
340
143
340
144
340
145
340
146
340
147
340
148
340
149
340
14A
340
14B
340
14C
340
14D
340
14E
340
14F
340
150
340
151
340
152
340
198
340
1A6
340
1BE
340
1C0
340
1C1
340
1C3
340
1C4
340
1C5
340
1CA
340
1DF
340
1E3
340
1E9
  0
GROUP
  5
2E1
102
{ACAD_REACTORS
330
D
102
}
330
D
100
AcDbGroup
300
!M 0
 70
     1
 71
     1
340
1A4
  0
GROUP
  5
2E2
102
{ACAD_REACTORS
330
D
102
}
330
D
100
AcDbGroup
300
schraube
 70
     1
 71
     1
340
159
340
15A
340
15C
340
15D
340
15E
340
16E
340
18E
340
1A3
340
1BF
340
1DE
340
1E0
340
1EB
340
1EC
  0
GROUP
  5
2E4
102
{ACAD_REACTORS
330
D
102
}
330
D
100
AcDbGroup
300
rost
 70
     1
 71
     1
340
199
340
19A
340
19B
340
19C
340
19D
340
19E
340
19F
340
1AE
340
1B4
340
1BA
340
1E1
340
1E2
340
1ED
340
1EE
340
1EF
340
1F0
340
1F1
340
1F2
340
1F3
340
1F4
340
1F5
340
1F6
340
1F7
340
1F8
340
1F9
340
1FA
340
1FB
340
1FC
340
1FD
340
1FF
340
200
340
201
340
202
340
203
340
204
340
205
340
206
340
207
340
208
340
209
340
20A
340
20B
340
20C
340
20D
340
20E
340
20F
340
210
340
28B
  0
GROUP
  5
2E5
102
{ACAD_REACTORS
330
D
102
}
330
D
100
AcDbGroup
300
GRP414
 70
     1
 71
     1
340
197
340
1A0
340
1A1
340
1A2
340
1A5
340
1A7
340
1BB
340
1BC
340
1BD
340
1C2
340
1C6
340
1C7
340
1C8
340
1C9
340
1FE
340
211
340
212
340
213
340
214
340
215
340
216
340
217
340
218
340
219
340
21A
340
21B
340
21F
340
220
340
221
340
222
340
223
340
224
340
225
340
226
340
227
340
228
340
229
340
22A
340
22B
340
22C
340
22D
340
231
340
232
340
233
340
234
340
235
340
236
340
237
  0
GROUP
  5
2E8
102
{ACAD_REACTORS
330
D
102
}
330
D
100
AcDbGroup
300
verlõngerung
 70
     1
 71
     1
340
153
340
154
340
155
340
156
340
157
  0
GROUP
  5
2E7
102
{ACAD_REACTORS
330
D
102
}
330
D
100
AcDbGroup
300
!M 0
 70
     1
 71
     1
340
23B
  0
GROUP
  5
2E9
102
{ACAD_REACTORS
330
D
102
}
330
D
100
AcDbGroup
300
schraube
 70
     1
 71
     1
340
21C
340
21D
340
21E
340
22E
340
22F
340
230
340
238
340
239
340
23A
340
23C
340
23D
340
23E
340
23F
  0
GROUP
  5
2DE
102
{ACAD_REACTORS
330
D
102
}
330
D
100
AcDbGroup
300
Zentrierring
 70
     1
 71
     1
340
240
340
241
340
242
340
243
340
244
340
245
340
246
340
247
340
248
340
249
340
24A
340
24B
340
24C
340
24D
340
24E
340
24F
340
250
340
251
340
25E
340
25F
340
260
340
261
340
262
340
263
340
264
340
265
340
266
340
267
340
274
340
275
340
276
340
277
340
278
340
279
340
27A
340
27B
340
27C
340
27D
340
27E
  0
LAYOUT
  5
1E
102
{ACAD_REACTORS
330
1A
102
}
330
1A
100
AcDbPlotSettings
  1

  2

  4

  6

 40
0.0
 41
0.0
 42
0.0
 43
0.0
 44
0.0
 45
0.0
 46
0.0
 47
0.0
 48
0.0
 49
0.0
140
0.0
141
0.0
142
1.0
143
1.0
 70
   688
 72
     0
 73
     0
 74
     5
  7

 75
    16
147
1.0
148
0.0
149
0.0
100
AcDbLayout
  1
Layout1
 70
     1
 71
     1
 10
-210.0
 20
-148.5
 11
630.0
 21
445.5
 12
0.0
 22
0.0
 32
0.0
 14
-210.0
 24
-148.5
 34
0.0
 15
630.0
 25
445.5
 35
0.0
146
0.0
 13
0.0
 23
0.0
 33
0.0
 16
1.0
 26
0.0
 36
0.0
 17
0.0
 27
1.0
 37
0.0
 76
     0
330
1B
  0
LAYOUT
  5
26
102
{ACAD_REACTORS
330
1A
102
}
330
1A
100
AcDbPlotSettings
  1

  2

  4

  6

 40
0.0
 41
0.0
 42
0.0
 43
0.0
 44
0.0
 45
0.0
 46
0.0
 47
0.0
 48
0.0
 49
0.0
140
0.0
141
0.0
142
1.0
143
1.0
 70
   688
 72
     0
 73
     0
 74
     5
  7

 75
    16
147
1.0
148
0.0
149
0.0
100
AcDbLayout
  1
Layout2
 70
     1
 71
     2
 10
0.0
 20
0.0
 11
0.0
 21
0.0
 12
0.0
 22
0.0
 32
0.0
 14
0.0
 24
0.0
 34
0.0
 15
0.0
 25
0.0
 35
0.0
146
0.0
 13
0.0
 23
0.0
 33
0.0
 16
1.0
 26
0.0
 36
0.0
 17
0.0
 27
1.0
 37
0.0
 76
     0
330
23
  0
LAYOUT
  5
22
102
{ACAD_REACTORS
330
1A
102
}
330
1A
100
AcDbPlotSettings
  1

  2

  4

  6

 40
0.0
 41
0.0
 42
0.0
 43
0.0
 44
0.0
 45
0.0
 46
0.0
 47
0.0
 48
0.0
 49
0.0
140
0.0
141
0.0
142
1.0
143
1.0
 70
  1776
 72
     0
 73
     0
 74
     0
  7

 75
     0
147
1.0
148
0.0
149
0.0
100
AcDbLayout
  1
Model
 70
     1
 71
     0
 10
-210.0
 20
-148.5
 11
630.0
 21
445.5
 12
0.0
 22
0.0
 32
0.0
 14
-210.0
 24
-148.5
 34
0.0
 15
630.0
 25
445.5
 35
0.0
146
0.0
 13
0.0
 23
0.0
 33
0.0
 16
1.0
 26
0.0
 36
0.0
 17
0.0
 27
1.0
 37
0.0
 76
     0
330
1F
  0
MLINESTYLE
  5
18
102
{ACAD_REACTORS
330
17
102
}
330
17
100
AcDbMlineStyle
  2
Standard
 70
     0
  3

 62
   256
 51
90.0
 52
90.0
 71
     2
 49
0.5
 62
   256
  6
BYLAYER
 49
-0.5
 62
   256
  6
BYLAYER
  0
ACDBPLACEHOLDER
  5
F
102
{ACAD_REACTORS
330
E
102
}
330
E
  0
ENDSEC
  0
EOF
