  0
SECTION
  2
HEADER
  9
$ACADVER
  1
AC1015
  9
$ACADMAINTVER
 70
     6
  9
$DWGCODEPAGE
  3
ANSI_1252
  9
$INSBASE
 10
0.0
 20
0.0
 30
0.0
  9
$EXTMIN
 10
-839.393981
 20
-603.029182
 30
0.0
  9
$EXTMAX
 10
1260.606019
 20
881.970818
 30
0.0
  9
$LIMMIN
 10
-839.393981
 20
-603.029182
  9
$LIMMAX
 10
1260.606019
 20
881.970818
  9
$ORTHOMODE
 70
     0
  9
$REGENMODE
 70
     1
  9
$FILLMODE
 70
     1
  9
$QTEXTMODE
 70
     0
  9
$MIRRTEXT
 70
     1
  9
$LTSCALE
 40
5.0
  9
$ATTMODE
 70
     1
  9
$TEXTSIZE
 40
2.5
  9
$TRACEWID
 40
1.0
  9
$TEXTSTYLE
  7
Standard
  9
$CLAYER
  8
0
  9
$CELTYPE
  6
ByLayer
  9
$CECOLOR
 62
     7
  9
$CELTSCALE
 40
1.0
  9
$DISPSILH
 70
     0
  9
$DIMSCALE
 40
5.0
  9
$DIMASZ
 40
3.5
  9
$DIMEXO
 40
0.625
  9
$DIMDLI
 40
3.75
  9
$DIMRND
 40
0.0
  9
$DIMDLE
 40
0.0
  9
$DIMEXE
 40
1.25
  9
$DIMTP
 40
0.0
  9
$DIMTM
 40
0.0
  9
$DIMTXT
 40
3.5
  9
$DIMCEN
 40
2.5
  9
$DIMTSZ
 40
0.0
  9
$DIMTOL
 70
     0
  9
$DIMLIM
 70
     0
  9
$DIMTIH
 70
     0
  9
$DIMTOH
 70
     0
  9
$DIMSE1
 70
     0
  9
$DIMSE2
 70
     0
  9
$DIMTAD
 70
     1
  9
$DIMZIN
 70
     8
  9
$DIMBLK
  1

  9
$DIMASO
 70
     1
  9
$DIMSHO
 70
     1
  9
$DIMPOST
  1

  9
$DIMAPOST
  1

  9
$DIMALT
 70
     0
  9
$DIMALTD
 70
     3
  9
$DIMALTF
 40
0.03937
  9
$DIMLFAC
 40
1.0
  9
$DIMTOFL
 70
     1
  9
$DIMTVP
 40
0.0
  9
$DIMTIX
 70
     0
  9
$DIMSOXD
 70
     0
  9
$DIMSAH
 70
     0
  9
$DIMBLK1
  1

  9
$DIMBLK2
  1

  9
$DIMSTYLE
  2
ISO-25
  9
$DIMCLRD
 70
     0
  9
$DIMCLRE
 70
     0
  9
$DIMCLRT
 70
     0
  9
$DIMTFAC
 40
1.0
  9
$DIMGAP
 40
0.625
  9
$DIMJUST
 70
     0
  9
$DIMSD1
 70
     0
  9
$DIMSD2
 70
     0
  9
$DIMTOLJ
 70
     0
  9
$DIMTZIN
 70
     8
  9
$DIMALTZ
 70
     0
  9
$DIMALTTZ
 70
     0
  9
$DIMUPT
 70
     0
  9
$DIMDEC
 70
     2
  9
$DIMTDEC
 70
     2
  9
$DIMALTU
 70
     2
  9
$DIMALTTD
 70
     3
  9
$DIMTXSTY
  7
Standard
  9
$DIMAUNIT
 70
     0
  9
$DIMADEC
 70
     0
  9
$DIMALTRND
 40
0.0
  9
$DIMAZIN
 70
     0
  9
$DIMDSEP
 70
    44
  9
$DIMATFIT
 70
     3
  9
$DIMFRAC
 70
     0
  9
$DIMLDRBLK
  1

  9
$DIMLUNIT
 70
     2
  9
$DIMLWD
 70
    -2
  9
$DIMLWE
 70
    -2
  9
$DIMTMOVE
 70
     0
  9
$LUNITS
 70
     2
  9
$LUPREC
 70
     4
  9
$SKETCHINC
 40
1.0
  9
$FILLETRAD
 40
10.0
  9
$AUNITS
 70
     0
  9
$AUPREC
 70
     0
  9
$MENU
  1
.
  9
$ELEVATION
 40
0.0
  9
$PELEVATION
 40
0.0
  9
$THICKNESS
 40
0.0
  9
$LIMCHECK
 70
     0
  9
$CHAMFERA
 40
10.0
  9
$CHAMFERB
 40
10.0
  9
$CHAMFERC
 40
20.0
  9
$CHAMFERD
 40
0.0
  9
$SKPOLY
 70
     0
  9
$TDCREATE
 40
2456014.393563125
  9
$TDUCREATE
 40
2456014.310229792
  9
$TDUPDATE
 40
2456014.393563137
  9
$TDUUPDATE
 40
2456014.310229803
  9
$TDINDWG
 40
0.0000000116
  9
$TDUSRTIMER
 40
0.0000000116
  9
$USRTIMER
 70
     1
  9
$ANGBASE
 50
0.0
  9
$ANGDIR
 70
     0
  9
$PDMODE
 70
     0
  9
$PDSIZE
 40
0.0
  9
$PLINEWID
 40
0.0
  9
$SPLFRAME
 70
     0
  9
$SPLINETYPE
 70
     6
  9
$SPLINESEGS
 70
     8
  9
$HANDSEED
  5
5CC
  9
$SURFTAB1
 70
     6
  9
$SURFTAB2
 70
     6
  9
$SURFTYPE
 70
     6
  9
$SURFU
 70
     6
  9
$SURFV
 70
     6
  9
$UCSBASE
  2

  9
$UCSNAME
  2

  9
$UCSORG
 10
0.0
 20
0.0
 30
0.0
  9
$UCSXDIR
 10
1.0
 20
0.0
 30
0.0
  9
$UCSYDIR
 10
0.0
 20
1.0
 30
0.0
  9
$UCSORTHOREF
  2

  9
$UCSORTHOVIEW
 70
     0
  9
$UCSORGTOP
 10
0.0
 20
0.0
 30
0.0
  9
$UCSORGBOTTOM
 10
0.0
 20
0.0
 30
0.0
  9
$UCSORGLEFT
 10
0.0
 20
0.0
 30
0.0
  9
$UCSORGRIGHT
 10
0.0
 20
0.0
 30
0.0
  9
$UCSORGFRONT
 10
0.0
 20
0.0
 30
0.0
  9
$UCSORGBACK
 10
0.0
 20
0.0
 30
0.0
  9
$PUCSBASE
  2

  9
$PUCSNAME
  2

  9
$PUCSORG
 10
0.0
 20
0.0
 30
0.0
  9
$PUCSXDIR
 10
1.0
 20
0.0
 30
0.0
  9
$PUCSYDIR
 10
0.0
 20
1.0
 30
0.0
  9
$PUCSORTHOREF
  2

  9
$PUCSORTHOVIEW
 70
     0
  9
$PUCSORGTOP
 10
0.0
 20
0.0
 30
0.0
  9
$PUCSORGBOTTOM
 10
0.0
 20
0.0
 30
0.0
  9
$PUCSORGLEFT
 10
0.0
 20
0.0
 30
0.0
  9
$PUCSORGRIGHT
 10
0.0
 20
0.0
 30
0.0
  9
$PUCSORGFRONT
 10
0.0
 20
0.0
 30
0.0
  9
$PUCSORGBACK
 10
0.0
 20
0.0
 30
0.0
  9
$USERI1
 70
     0
  9
$USERI2
 70
     0
  9
$USERI3
 70
     0
  9
$USERI4
 70
     0
  9
$USERI5
 70
     0
  9
$USERR1
 40
0.0
  9
$USERR2
 40
0.0
  9
$USERR3
 40
0.0
  9
$USERR4
 40
0.0
  9
$USERR5
 40
0.0
  9
$WORLDVIEW
 70
     1
  9
$SHADEDGE
 70
     3
  9
$SHADEDIF
 70
    70
  9
$TILEMODE
 70
     1
  9
$MAXACTVP
 70
    64
  9
$PINSBASE
 10
0.0
 20
0.0
 30
0.0
  9
$PLIMCHECK
 70
     0
  9
$PEXTMIN
 10
-839.393981
 20
-603.029182
 30
0.0
  9
$PEXTMAX
 10
1260.606019
 20
881.970818
 30
0.0
  9
$PLIMMIN
 10
-839.393981
 20
-603.029182
  9
$PLIMMAX
 10
1260.606019
 20
881.970818
  9
$UNITMODE
 70
     0
  9
$VISRETAIN
 70
     1
  9
$PLINEGEN
 70
     0
  9
$PSLTSCALE
 70
     1
  9
$TREEDEPTH
 70
  3020
  9
$CMLSTYLE
  2
Standard
  9
$CMLJUST
 70
     0
  9
$CMLSCALE
 40
20.0
  9
$PROXYGRAPHICS
 70
     1
  9
$MEASUREMENT
 70
     1
  9
$CELWEIGHT
370
    -1
  9
$ENDCAPS
280
     0
  9
$JOINSTYLE
280
     0
  9
$LWDISPLAY
290
     0
  9
$INSUNITS
 70
     4
  9
$HYPERLINKBASE
  1

  9
$STYLESHEET
  1

  9
$XEDIT
290
     1
  9
$CEPSNTYPE
380
     0
  9
$PSTYLEMODE
290
     1
  9
$FINGERPRINTGUID
  2
{FAEB1C30-E019-11D5-929B-00C0DF256EC4}
  9
$VERSIONGUID
  2
{FAEB1C32-E019-11D5-929B-00C0DF256EC4}
  9
$EXTNAMES
290
     1
  9
$PSVPSCALE
 40
0.0
  9
$OLESTARTUP
290
     0
  0
ENDSEC
  0
SECTION
  2
CLASSES
  0
CLASS
  1
ACDBDICTIONARYWDFLT
  2
AcDbDictionaryWithDefault
  3
ObjectDBX Classes
 90
        0
280
     0
281
     0
  0
CLASS
  1
ACDBPLACEHOLDER
  2
AcDbPlaceHolder
  3
ObjectDBX Classes
 90
        0
280
     0
281
     0
  0
CLASS
  1
LAYOUT
  2
AcDbLayout
  3
ObjectDBX Classes
 90
        0
280
     0
281
     0
  0
ENDSEC
  0
SECTION
  2
TABLES
  0
TABLE
  2
VPORT
  5
8
330
0
100
AcDbSymbolTable
 70
     2
  0
VPORT
  5
29
330
8
100
AcDbSymbolTableRecord
100
AcDbViewportTableRecord
  2
*ACTIVE
 70
     0
 10
0.0
 20
0.0
 11
1.0
 21
1.0
 12
210.606019
 22
139.470818
 13
0.0
 23
0.0
 14
1.0
 24
1.0
 15
0.0
 25
0.0
 16
0.0
 26
0.0
 36
1.0
 17
0.0
 27
0.0
 37
0.0
 40
1485.0
 41
1.414141
 42
50.0
 43
0.0
 44
0.0
 50
0.0
 51
0.0
 71
    16
 72
   100
 73
     1
 74
     0
 75
     0
 76
     0
 77
     0
 78
     0
281
     0
 65
     0
110
0.0
120
0.0
130
0.0
111
1.0
121
0.0
131
0.0
112
0.0
122
1.0
132
0.0
 79
     0
146
0.0
  0
ENDTAB
  0
TABLE
  2
LTYPE
  5
5
330
0
100
AcDbSymbolTable
 70
     3
  0
LTYPE
  5
14
330
5
100
AcDbSymbolTableRecord
100
AcDbLinetypeTableRecord
  2
ByBlock
 70
     0
  3

 72
    65
 73
     0
 40
0.0
  0
LTYPE
  5
15
330
5
100
AcDbSymbolTableRecord
100
AcDbLinetypeTableRecord
  2
ByLayer
 70
     0
  3

 72
    65
 73
     0
 40
0.0
  0
LTYPE
  5
16
330
5
100
AcDbSymbolTableRecord
100
AcDbLinetypeTableRecord
  2
Continuous
 70
     0
  3
Solid line
 72
    65
 73
     0
 40
0.0
  0
LTYPE
  5
2A
330
5
100
AcDbSymbolTableRecord
100
AcDbLinetypeTableRecord
  2
DASHED
 70
     0
  3
__ __ __ __ __
 72
    65
 73
     2
 40
6.25
 49
5.0
 74
     4
 75
     0
340
0
 46
1.0
 50
0.0
 44
0.0
 45
0.0
 49
-1.25
 74
     4
 75
     0
340
0
 46
1.0
 50
0.0
 44
0.0
 45
0.0
  0
LTYPE
  5
14F
330
5
100
AcDbSymbolTableRecord
100
AcDbLinetypeTableRecord
  2
DASHDOT
 70
     0
  3
__ . __ . __ . __ . __
 72
    65
 73
     4
 40
7.5
 49
5.0
 74
     4
 75
     0
340
0
 46
1.0
 50
0.0
 44
0.0
 45
0.0
 49
-1.25
 74
     4
 75
     0
340
0
 46
1.0
 50
0.0
 44
0.0
 45
0.0
 49
0.0
 74
     4
 75
     0
340
0
 46
1.0
 50
0.0
 44
0.0
 45
0.0
 49
-1.25
 74
     4
 75
     0
340
0
 46
1.0
 50
0.0
 44
0.0
 45
0.0
  0
ENDTAB
  0
TABLE
  2
LAYER
  5
2
330
0
100
AcDbSymbolTable
 70
     7
  0
LAYER
  5
10
330
2
100
AcDbSymbolTableRecord
100
AcDbLayerTableRecord
  2
0
 70
     0
 62
     7
  6
Continuous
370
    -3
390
F
  0
LAYER
  5
2B
330
2
100
AcDbSymbolTableRecord
100
AcDbLayerTableRecord
  2
LC-INFO-1-5-mm-A3-0
 70
     1
 62
     7
  6
ByBlock
370
    -3
390
F
  0
LAYER
  5
2C
330
2
100
AcDbSymbolTableRecord
100
AcDbLayerTableRecord
  2
LC-CUT-HIDDEN
 70
     0
 62
     7
  6
DASHED
370
    -3
390
F
  0
LAYER
  5
2D
330
2
100
AcDbSymbolTableRecord
100
AcDbLayerTableRecord
  2
LC-VIEWPORT
 70
     0
 62
     7
  6
ByBlock
370
    -3
390
F
  0
LAYER
  5
2E
330
2
100
AcDbSymbolTableRecord
100
AcDbLayerTableRecord
  2
LC-3D-HIDDEN
 70
     0
 62
     9
  6
DASHED
370
    -3
390
F
  0
LAYER
  5
30
330
2
100
AcDbSymbolTableRecord
100
AcDbLayerTableRecord
  2
LC-001-100-D00-0
 70
     0
 62
     1
  6
ByBlock
370
    -3
390
F
  0
LAYER
  5
142
330
2
100
AcDbSymbolTableRecord
100
AcDbLayerTableRecord
  2
Defpoints
 70
     0
 62
     7
  6
Continuous
290
     0
370
    -3
390
F
  0
ENDTAB
  0
TABLE
  2
STYLE
  5
3
330
0
100
AcDbSymbolTable
 70
     3
  0
STYLE
  5
11
330
3
100
AcDbSymbolTableRecord
100
AcDbTextStyleTableRecord
  2
Standard
 70
     0
 40
0.0
 41
1.0
 50
0.0
 71
     0
 42
2.5
  3
txt
  4

  0
STYLE
  5
2F
330
3
100
AcDbSymbolTableRecord
100
AcDbTextStyleTableRecord
  2
LCTX15-400-0-0-Arial
 70
     0
 40
0.0
 41
0.8
 50
0.0
 71
     0
 42
3.5
  3

  4

1001
ACAD
1000
Arial
1071
 16777218
  0
STYLE
  5
13F
330
3
100
AcDbSymbolTableRecord
100
AcDbTextStyleTableRecord
  2
LCTX15-400-0-0pDIN-Schrift
 70
     0
 40
2.5
 41
0.8
 50
15.0
 71
     0
 42
3.5
  3
STANDARD
  4

  0
ENDTAB
  0
TABLE
  2
VIEW
  5
6
330
0
100
AcDbSymbolTable
 70
     0
  0
ENDTAB
  0
TABLE
  2
UCS
  5
7
330
0
100
AcDbSymbolTable
 70
     0
  0
ENDTAB
  0
TABLE
  2
APPID
  5
9
330
0
100
AcDbSymbolTable
 70
     1
  0
APPID
  5
12
330
9
100
AcDbSymbolTableRecord
100
AcDbRegAppTableRecord
  2
ACAD
 70
     0
  0
ENDTAB
  0
TABLE
  2
DIMSTYLE
  5
A
330
0
100
AcDbSymbolTable
 70
     2
100
AcDbDimStyleTable
  0
DIMSTYLE
105
27
330
A
100
AcDbSymbolTableRecord
100
AcDbDimStyleTableRecord
  2
ISO-25
 70
     0
 41
2.5
 42
0.625
 43
3.75
 44
1.25
 73
     0
 74
     0
 77
     1
 78
     8
140
2.5
141
2.5
143
0.03937
147
0.625
171
     3
172
     1
271
     2
272
     2
274
     3
278
    44
283
     0
284
     8
340
11
  0
DIMSTYLE
105
140
102
{ACAD_REACTORS
330
141
330
4BB
330
4C8
330
4D5
330
4E2
330
4EF
330
4FD
330
50C
330
51A
330
529
102
}
330
A
100
AcDbSymbolTableRecord
100
AcDbDimStyleTableRecord
  2
LC-DIM-L-0100-02-02
 70
     0
 40
5.0
 41
10.0
 42
0.0
 43
7.5
 44
1.8
 73
     0
 74
     0
 77
     1
 78
     8
 79
     2
140
10.0
141
0.0
146
0.71
147
1.5
176
     2
177
     2
178
     2
179
     2
271
     2
278
    44
289
     1
340
13F
  0
ENDTAB
  0
TABLE
  2
BLOCK_RECORD
  5
1
330
0
100
AcDbSymbolTable
 70
    46
  0
BLOCK_RECORD
  5
1F
330
1
100
AcDbSymbolTableRecord
100
AcDbBlockTableRecord
  2
*Model_Space
340
22
  0
BLOCK_RECORD
  5
1B
330
1
100
AcDbSymbolTableRecord
100
AcDbBlockTableRecord
  2
*Paper_Space
340
1E
  0
BLOCK_RECORD
  5
23
330
1
100
AcDbSymbolTableRecord
100
AcDbBlockTableRecord
  2
*Paper_Space0
340
26
  0
BLOCK_RECORD
  5
45
330
1
100
AcDbSymbolTableRecord
100
AcDbBlockTableRecord
  2
KLON1
340
0
102
{BLKREFS
331
4A
102
}
  0
BLOCK_RECORD
  5
4D
330
1
100
AcDbSymbolTableRecord
100
AcDbBlockTableRecord
  2
KLON2
340
0
102
{BLKREFS
331
54
102
}
  0
BLOCK_RECORD
  5
56
330
1
100
AcDbSymbolTableRecord
100
AcDbBlockTableRecord
  2
KLON3
340
0
102
{BLKREFS
331
5B
102
}
  0
BLOCK_RECORD
  5
5C
330
1
100
AcDbSymbolTableRecord
100
AcDbBlockTableRecord
  2
KLON4
340
0
102
{BLKREFS
331
61
102
}
  0
BLOCK_RECORD
  5
63
330
1
100
AcDbSymbolTableRecord
100
AcDbBlockTableRecord
  2
KLON5
340
0
102
{BLKREFS
331
6A
102
}
  0
BLOCK_RECORD
  5
6D
330
1
100
AcDbSymbolTableRecord
100
AcDbBlockTableRecord
  2
KLON6
340
0
102
{BLKREFS
331
72
102
}
  0
BLOCK_RECORD
  5
80
330
1
100
AcDbSymbolTableRecord
100
AcDbBlockTableRecord
  2
KLON7
340
0
102
{BLKREFS
331
85
102
}
  0
BLOCK_RECORD
  5
86
330
1
100
AcDbSymbolTableRecord
100
AcDbBlockTableRecord
  2
KLON8
340
0
102
{BLKREFS
331
8B
102
}
  0
BLOCK_RECORD
  5
8D
330
1
100
AcDbSymbolTableRecord
100
AcDbBlockTableRecord
  2
KLON9
340
0
102
{BLKREFS
331
93
102
}
  0
BLOCK_RECORD
  5
94
330
1
100
AcDbSymbolTableRecord
100
AcDbBlockTableRecord
  2
KLON10
340
0
102
{BLKREFS
331
9A
102
}
  0
BLOCK_RECORD
  5
9B
330
1
100
AcDbSymbolTableRecord
100
AcDbBlockTableRecord
  2
KLON11
340
0
102
{BLKREFS
331
A0
102
}
  0
BLOCK_RECORD
  5
A1
330
1
100
AcDbSymbolTableRecord
100
AcDbBlockTableRecord
  2
KLON12
340
0
102
{BLKREFS
331
A7
102
}
  0
BLOCK_RECORD
  5
A8
330
1
100
AcDbSymbolTableRecord
100
AcDbBlockTableRecord
  2
KLON13
340
0
102
{BLKREFS
331
AE
102
}
  0
BLOCK_RECORD
  5
AF
330
1
100
AcDbSymbolTableRecord
100
AcDbBlockTableRecord
  2
KLON14
340
0
102
{BLKREFS
331
B4
102
}
  0
BLOCK_RECORD
  5
143
330
1
100
AcDbSymbolTableRecord
100
AcDbBlockTableRecord
  2
*D15
340
0
  0
BLOCK_RECORD
  5
2D4
330
1
100
AcDbSymbolTableRecord
100
AcDbBlockTableRecord
  2
KLON15
340
0
102
{BLKREFS
331
2E4
102
}
  0
BLOCK_RECORD
  5
2E5
330
1
100
AcDbSymbolTableRecord
100
AcDbBlockTableRecord
  2
KLON16
340
0
102
{BLKREFS
331
2F8
102
}
  0
BLOCK_RECORD
  5
2FB
330
1
100
AcDbSymbolTableRecord
100
AcDbBlockTableRecord
  2
KLON17
340
0
102
{BLKREFS
331
300
102
}
  0
BLOCK_RECORD
  5
415
330
1
100
AcDbSymbolTableRecord
100
AcDbBlockTableRecord
  2
KLON18
340
0
102
{BLKREFS
331
41E
102
}
  0
BLOCK_RECORD
  5
41F
330
1
100
AcDbSymbolTableRecord
100
AcDbBlockTableRecord
  2
KLON19
340
0
102
{BLKREFS
331
428
102
}
  0
BLOCK_RECORD
  5
442
330
1
100
AcDbSymbolTableRecord
100
AcDbBlockTableRecord
  2
KLON20
340
0
102
{BLKREFS
331
44A
102
}
  0
BLOCK_RECORD
  5
44B
330
1
100
AcDbSymbolTableRecord
100
AcDbBlockTableRecord
  2
KLON21
340
0
102
{BLKREFS
331
457
102
}
  0
BLOCK_RECORD
  5
458
330
1
100
AcDbSymbolTableRecord
100
AcDbBlockTableRecord
  2
KLON22
340
0
102
{BLKREFS
331
464
102
}
  0
BLOCK_RECORD
  5
4BC
330
1
100
AcDbSymbolTableRecord
100
AcDbBlockTableRecord
  2
*D24
340
0
  0
BLOCK_RECORD
  5
4C9
330
1
100
AcDbSymbolTableRecord
100
AcDbBlockTableRecord
  2
*D25
340
0
  0
BLOCK_RECORD
  5
4D6
330
1
100
AcDbSymbolTableRecord
100
AcDbBlockTableRecord
  2
*D26
340
0
  0
BLOCK_RECORD
  5
4E3
330
1
100
AcDbSymbolTableRecord
100
AcDbBlockTableRecord
  2
*D27
340
0
  0
BLOCK_RECORD
  5
4F0
330
1
100
AcDbSymbolTableRecord
100
AcDbBlockTableRecord
  2
*D28
340
0
  0
BLOCK_RECORD
  5
4FE
330
1
100
AcDbSymbolTableRecord
100
AcDbBlockTableRecord
  2
*D29
340
0
  0
BLOCK_RECORD
  5
50D
330
1
100
AcDbSymbolTableRecord
100
AcDbBlockTableRecord
  2
*D30
340
0
  0
BLOCK_RECORD
  5
51B
330
1
100
AcDbSymbolTableRecord
100
AcDbBlockTableRecord
  2
*D31
340
0
  0
BLOCK_RECORD
  5
52A
330
1
100
AcDbSymbolTableRecord
100
AcDbBlockTableRecord
  2
*D32
340
0
  0
BLOCK_RECORD
  5
538
330
1
100
AcDbSymbolTableRecord
100
AcDbBlockTableRecord
  2
KLON23
340
0
102
{BLKREFS
331
53D
102
}
  0
BLOCK_RECORD
  5
541
330
1
100
AcDbSymbolTableRecord
100
AcDbBlockTableRecord
  2
KLON24
340
0
102
{BLKREFS
331
546
102
}
  0
BLOCK_RECORD
  5
548
330
1
100
AcDbSymbolTableRecord
100
AcDbBlockTableRecord
  2
KLON25
340
0
102
{BLKREFS
331
54D
102
}
  0
BLOCK_RECORD
  5
551
330
1
100
AcDbSymbolTableRecord
100
AcDbBlockTableRecord
  2
KLON26
340
0
102
{BLKREFS
331
556
102
}
  0
BLOCK_RECORD
  5
55A
330
1
100
AcDbSymbolTableRecord
100
AcDbBlockTableRecord
  2
KLON27
340
0
102
{BLKREFS
331
567
102
}
  0
BLOCK_RECORD
  5
568
330
1
100
AcDbSymbolTableRecord
100
AcDbBlockTableRecord
  2
KLON28
340
0
102
{BLKREFS
331
56D
102
}
  0
BLOCK_RECORD
  5
56F
330
1
100
AcDbSymbolTableRecord
100
AcDbBlockTableRecord
  2
KLON29
340
0
102
{BLKREFS
331
575
102
}
  0
BLOCK_RECORD
  5
576
330
1
100
AcDbSymbolTableRecord
100
AcDbBlockTableRecord
  2
KLON30
340
0
102
{BLKREFS
331
57C
102
}
  0
BLOCK_RECORD
  5
57D
330
1
100
AcDbSymbolTableRecord
100
AcDbBlockTableRecord
  2
KLON31
340
0
102
{BLKREFS
331
584
102
}
  0
BLOCK_RECORD
  5
585
330
1
100
AcDbSymbolTableRecord
100
AcDbBlockTableRecord
  2
KLON32
340
0
102
{BLKREFS
331
58B
102
}
  0
BLOCK_RECORD
  5
58C
330
1
100
AcDbSymbolTableRecord
100
AcDbBlockTableRecord
  2
KLON33
340
0
102
{BLKREFS
331
59A
102
}
  0
BLOCK_RECORD
  5
59B
330
1
100
AcDbSymbolTableRecord
100
AcDbBlockTableRecord
  2
KLON34
340
0
102
{BLKREFS
331
5AF
102
}
  0
BLOCK_RECORD
  5
5B0
330
1
100
AcDbSymbolTableRecord
100
AcDbBlockTableRecord
  2
KLON35
340
0
102
{BLKREFS
331
5C3
102
}
  0
ENDTAB
  0
ENDSEC
  0
SECTION
  2
BLOCKS
  0
BLOCK
  5
20
330
1F
100
AcDbEntity
  8
0
100
AcDbBlockBegin
  2
*Model_Space
 70
     0
 71
     0
 10
0.0
 20
0.0
 30
0.0
  3
*Model_Space
  1

  0
ENDBLK
  5
21
330
1F
100
AcDbEntity
  8
0
100
AcDbBlockEnd
  0
BLOCK
  5
1C
330
1B
100
AcDbEntity
 67
     1
  8
0
100
AcDbBlockBegin
  2
*Paper_Space
 70
     0
 71
     0
 10
0.0
 20
0.0
 30
0.0
  3
*Paper_Space
  1

  0
ENDBLK
  5
1D
330
1B
100
AcDbEntity
 67
     1
  8
0
100
AcDbBlockEnd
  0
BLOCK
  5
24
330
23
100
AcDbEntity
  8
0
100
AcDbBlockBegin
  2
*Paper_Space0
 70
     0
 71
     0
 10
0.0
 20
0.0
 30
0.0
  3
*Paper_Space0
  1

  0
ENDBLK
  5
25
330
23
100
AcDbEntity
  8
0
100
AcDbBlockEnd
  0
BLOCK
  5
46
330
45
100
AcDbEntity
  8
0
100
AcDbBlockBegin
  2
KLON1
 70
     0
 71
     0
 10
0.0
 20
0.0
 30
0.0
  3
KLON1
  1

  4
KLON1
  0
LINE
  5
48
330
45
100
AcDbEntity
  8
LC-001-100-D00-0
 62
     7
370
    15
100
AcDbLine
 10
86.462776
 20
73.066081
 30
0.0
 11
86.470196
 21
73.027908
 31
0.0
  0
LINE
  5
49
330
45
100
AcDbEntity
  8
LC-001-100-D00-0
 62
     7
370
    15
100
AcDbLine
 10
86.470196
 20
73.027908
 30
0.0
 11
86.488972
 21
72.995424
 31
0.0
  0
ENDBLK
  5
47
330
45
100
AcDbEntity
  8
0
100
AcDbBlockEnd
  0
BLOCK
  5
4E
330
4D
100
AcDbEntity
  8
0
100
AcDbBlockBegin
  2
KLON2
 70
     0
 71
     0
 10
0.0
 20
0.0
 30
0.0
  3
KLON2
  1

  4
KLON2
  0
LINE
  5
50
330
4D
100
AcDbEntity
  8
LC-001-100-D00-0
 62
     7
370
    15
100
AcDbLine
 10
86.462776
 20
108.888749
 30
0.0
 11
86.475442
 21
108.807868
 31
0.0
  0
LINE
  5
51
330
4D
100
AcDbEntity
  8
LC-001-100-D00-0
 62
     7
370
    15
100
AcDbLine
 10
86.475442
 20
108.807868
 30
0.0
 11
86.484233
 21
108.751659
 31
0.0
  0
LINE
  5
52
330
4D
100
AcDbEntity
  8
LC-001-100-D00-0
 62
     7
370
    15
100
AcDbLine
 10
86.484233
 20
108.751659
 30
0.0
 11
86.486737
 21
108.735561
 31
0.0
  0
LINE
  5
53
330
4D
100
AcDbEntity
  8
LC-001-100-D00-0
 62
     7
370
    15
100
AcDbLine
 10
86.486737
 20
108.735561
 30
0.0
 11
86.488972
 21
108.721275
 31
0.0
  0
ENDBLK
  5
4F
330
4D
100
AcDbEntity
  8
0
100
AcDbBlockEnd
  0
BLOCK
  5
57
330
56
100
AcDbEntity
  8
0
100
AcDbBlockBegin
  2
KLON3
 70
     0
 71
     0
 10
0.0
 20
0.0
 30
0.0
  3
KLON3
  1

  4
KLON3
  0
LINE
  5
59
330
56
100
AcDbEntity
  8
LC-001-100-D00-0
 62
     7
370
    15
100
AcDbLine
 10
86.462776
 20
120.051441
 30
0.0
 11
86.473356
 21
120.057351
 31
0.0
  0
LINE
  5
5A
330
56
100
AcDbEntity
  8
LC-001-100-D00-0
 62
     7
370
    15
100
AcDbLine
 10
86.473356
 20
120.057351
 30
0.0
 11
86.488972
 21
120.066079
 31
0.0
  0
ENDBLK
  5
58
330
56
100
AcDbEntity
  8
0
100
AcDbBlockEnd
  0
BLOCK
  5
5D
330
5C
100
AcDbEntity
  8
0
100
AcDbBlockBegin
  2
KLON4
 70
     0
 71
     0
 10
0.0
 20
0.0
 30
0.0
  3
KLON4
  1

  4
KLON4
  0
LINE
  5
5F
330
5C
100
AcDbEntity
  8
LC-001-100-D00-0
 62
     7
370
    15
100
AcDbLine
 10
-497.484823
 20
120.051441
 30
0.0
 11
-497.495403
 21
120.057351
 31
0.0
  0
LINE
  5
60
330
5C
100
AcDbEntity
  8
LC-001-100-D00-0
 62
     7
370
    15
100
AcDbLine
 10
-497.495403
 20
120.057351
 30
0.0
 11
-497.511019
 21
120.066079
 31
0.0
  0
ENDBLK
  5
5E
330
5C
100
AcDbEntity
  8
0
100
AcDbBlockEnd
  0
BLOCK
  5
64
330
63
100
AcDbEntity
  8
0
100
AcDbBlockBegin
  2
KLON5
 70
     0
 71
     0
 10
0.0
 20
0.0
 30
0.0
  3
KLON5
  1

  4
KLON5
  0
LINE
  5
66
330
63
100
AcDbEntity
  8
LC-001-100-D00-0
 62
     7
370
    15
100
AcDbLine
 10
-497.484823
 20
108.888749
 30
0.0
 11
-497.497489
 21
108.807868
 31
0.0
  0
LINE
  5
67
330
63
100
AcDbEntity
  8
LC-001-100-D00-0
 62
     7
370
    15
100
AcDbLine
 10
-497.497489
 20
108.807868
 30
0.0
 11
-497.506281
 21
108.751659
 31
0.0
  0
LINE
  5
68
330
63
100
AcDbEntity
  8
LC-001-100-D00-0
 62
     7
370
    15
100
AcDbLine
 10
-497.506281
 20
108.751659
 30
0.0
 11
-497.508784
 21
108.735561
 31
0.0
  0
LINE
  5
69
330
63
100
AcDbEntity
  8
LC-001-100-D00-0
 62
     7
370
    15
100
AcDbLine
 10
-497.508784
 20
108.735561
 30
0.0
 11
-497.511019
 21
108.721275
 31
0.0
  0
ENDBLK
  5
65
330
63
100
AcDbEntity
  8
0
100
AcDbBlockEnd
  0
BLOCK
  5
6E
330
6D
100
AcDbEntity
  8
0
100
AcDbBlockBegin
  2
KLON6
 70
     0
 71
     0
 10
0.0
 20
0.0
 30
0.0
  3
KLON6
  1

  4
KLON6
  0
LINE
  5
70
330
6D
100
AcDbEntity
  8
LC-001-100-D00-0
 62
     7
370
    15
100
AcDbLine
 10
-497.484823
 20
73.066081
 30
0.0
 11
-497.492244
 21
73.027908
 31
0.0
  0
LINE
  5
71
330
6D
100
AcDbEntity
  8
LC-001-100-D00-0
 62
     7
370
    15
100
AcDbLine
 10
-497.492244
 20
73.027908
 30
0.0
 11
-497.511019
 21
72.995424
 31
0.0
  0
ENDBLK
  5
6F
330
6D
100
AcDbEntity
  8
0
100
AcDbBlockEnd
  0
BLOCK
  5
81
330
80
100
AcDbEntity
  8
0
100
AcDbBlockBegin
  2
KLON7
 70
     0
 71
     0
 10
0.0
 20
0.0
 30
0.0
  3
KLON7
  1

  4
KLON7
  0
LINE
  5
83
330
80
100
AcDbEntity
  8
LC-001-100-D00-0
 62
     7
370
    15
100
AcDbLine
 10
86.434255
 20
84.232671
 30
0.0
 11
86.450438
 21
84.238756
 31
0.0
  0
LINE
  5
84
330
80
100
AcDbEntity
  8
LC-001-100-D00-0
 62
     7
370
    15
100
AcDbLine
 10
86.450438
 20
84.238756
 30
0.0
 11
86.462776
 21
84.243411
 31
0.0
  0
ENDBLK
  5
82
330
80
100
AcDbEntity
  8
0
100
AcDbBlockEnd
  0
BLOCK
  5
87
330
86
100
AcDbEntity
  8
0
100
AcDbBlockBegin
  2
KLON8
 70
     0
 71
     0
 10
0.0
 20
0.0
 30
0.0
  3
KLON8
  1

  4
KLON8
  0
LINE
  5
89
330
86
100
AcDbEntity
  8
LC-001-100-D00-0
 62
     7
370
    15
100
AcDbLine
 10
-497.456302
 20
84.232671
 30
0.0
 11
-497.472485
 21
84.238756
 31
0.0
  0
LINE
  5
8A
330
86
100
AcDbEntity
  8
LC-001-100-D00-0
 62
     7
370
    15
100
AcDbLine
 10
-497.472485
 20
84.238756
 30
0.0
 11
-497.484823
 21
84.243411
 31
0.0
  0
ENDBLK
  5
88
330
86
100
AcDbEntity
  8
0
100
AcDbBlockEnd
  0
BLOCK
  5
8E
330
8D
100
AcDbEntity
  8
0
100
AcDbBlockBegin
  2
KLON9
 70
     0
 71
     0
 10
0.0
 20
0.0
 30
0.0
  3
KLON9
  1

  4
KLON9
  0
LINE
  5
90
330
8D
100
AcDbEntity
  8
LC-001-100-D00-0
 62
     7
370
    15
100
AcDbLine
 10
-50.524091
 20
90.706863
 30
0.0
 11
-50.512692
 21
91.120337
 31
0.0
  0
LINE
  5
91
330
8D
100
AcDbEntity
  8
LC-001-100-D00-0
 62
     7
370
    15
100
AcDbLine
 10
-50.512692
 20
91.120337
 30
0.0
 11
-50.501009
 21
91.543595
 31
0.0
  0
LINE
  5
92
330
8D
100
AcDbEntity
  8
LC-001-100-D00-0
 62
     7
370
    15
100
AcDbLine
 10
-50.501009
 20
91.543595
 30
0.0
 11
-50.489207
 21
91.971774
 31
0.0
  0
ENDBLK
  5
8F
330
8D
100
AcDbEntity
  8
0
100
AcDbBlockEnd
  0
BLOCK
  5
95
330
94
100
AcDbEntity
  8
0
100
AcDbBlockBegin
  2
KLON10
 70
     0
 71
     0
 10
0.0
 20
0.0
 30
0.0
  3
KLON10
  1

  4
KLON10
  0
LINE
  5
97
330
94
100
AcDbEntity
  8
LC-001-100-D00-0
 62
     7
370
    15
100
AcDbLine
 10
-50.489207
 20
101.160386
 30
0.0
 11
-50.501009
 21
101.588565
 31
0.0
  0
LINE
  5
98
330
94
100
AcDbEntity
  8
LC-001-100-D00-0
 62
     7
370
    15
100
AcDbLine
 10
-50.501009
 20
101.588565
 30
0.0
 11
-50.512692
 21
102.011823
 31
0.0
  0
LINE
  5
99
330
94
100
AcDbEntity
  8
LC-001-100-D00-0
 62
     7
370
    15
100
AcDbLine
 10
-50.512692
 20
102.011823
 30
0.0
 11
-50.524091
 21
102.425297
 31
0.0
  0
ENDBLK
  5
96
330
94
100
AcDbEntity
  8
0
100
AcDbBlockEnd
  0
BLOCK
  5
9C
330
9B
100
AcDbEntity
  8
0
100
AcDbBlockBegin
  2
KLON11
 70
     0
 71
     0
 10
0.0
 20
0.0
 30
0.0
  3
KLON11
  1

  4
KLON11
  0
LINE
  5
9E
330
9B
100
AcDbEntity
  8
LC-001-100-D00-0
 62
     7
370
    15
100
AcDbLine
 10
86.434255
 20
108.899489
 30
0.0
 11
86.450438
 21
108.893405
 31
0.0
  0
LINE
  5
9F
330
9B
100
AcDbEntity
  8
LC-001-100-D00-0
 62
     7
370
    15
100
AcDbLine
 10
86.450438
 20
108.893405
 30
0.0
 11
86.462776
 21
108.888749
 31
0.0
  0
ENDBLK
  5
9D
330
9B
100
AcDbEntity
  8
0
100
AcDbBlockEnd
  0
BLOCK
  5
A2
330
A1
100
AcDbEntity
  8
0
100
AcDbBlockBegin
  2
KLON12
 70
     0
 71
     0
 10
0.0
 20
0.0
 30
0.0
  3
KLON12
  1

  4
KLON12
  0
LINE
  5
A4
330
A1
100
AcDbEntity
  8
LC-001-100-D00-0
 62
     7
370
    15
100
AcDbLine
 10
-360.497957
 20
90.706863
 30
0.0
 11
-360.509356
 21
91.120337
 31
0.0
  0
LINE
  5
A5
330
A1
100
AcDbEntity
  8
LC-001-100-D00-0
 62
     7
370
    15
100
AcDbLine
 10
-360.509356
 20
91.120337
 30
0.0
 11
-360.521039
 21
91.543595
 31
0.0
  0
LINE
  5
A6
330
A1
100
AcDbEntity
  8
LC-001-100-D00-0
 62
     7
370
    15
100
AcDbLine
 10
-360.521039
 20
91.543595
 30
0.0
 11
-360.53284
 21
91.971774
 31
0.0
  0
ENDBLK
  5
A3
330
A1
100
AcDbEntity
  8
0
100
AcDbBlockEnd
  0
BLOCK
  5
A9
330
A8
100
AcDbEntity
  8
0
100
AcDbBlockBegin
  2
KLON13
 70
     0
 71
     0
 10
0.0
 20
0.0
 30
0.0
  3
KLON13
  1

  4
KLON13
  0
LINE
  5
AB
330
A8
100
AcDbEntity
  8
LC-001-100-D00-0
 62
     7
370
    15
100
AcDbLine
 10
-360.53284
 20
101.160386
 30
0.0
 11
-360.521039
 21
101.588565
 31
0.0
  0
LINE
  5
AC
330
A8
100
AcDbEntity
  8
LC-001-100-D00-0
 62
     7
370
    15
100
AcDbLine
 10
-360.521039
 20
101.588565
 30
0.0
 11
-360.509356
 21
102.011823
 31
0.0
  0
LINE
  5
AD
330
A8
100
AcDbEntity
  8
LC-001-100-D00-0
 62
     7
370
    15
100
AcDbLine
 10
-360.509356
 20
102.011823
 30
0.0
 11
-360.497957
 21
102.425297
 31
0.0
  0
ENDBLK
  5
AA
330
A8
100
AcDbEntity
  8
0
100
AcDbBlockEnd
  0
BLOCK
  5
B0
330
AF
100
AcDbEntity
  8
0
100
AcDbBlockBegin
  2
KLON14
 70
     0
 71
     0
 10
0.0
 20
0.0
 30
0.0
  3
KLON14
  1

  4
KLON14
  0
LINE
  5
B2
330
AF
100
AcDbEntity
  8
LC-001-100-D00-0
 62
     7
370
    15
100
AcDbLine
 10
-497.456302
 20
108.899489
 30
0.0
 11
-497.472485
 21
108.893405
 31
0.0
  0
LINE
  5
B3
330
AF
100
AcDbEntity
  8
LC-001-100-D00-0
 62
     7
370
    15
100
AcDbLine
 10
-497.472485
 20
108.893405
 30
0.0
 11
-497.484823
 21
108.888749
 31
0.0
  0
ENDBLK
  5
B1
330
AF
100
AcDbEntity
  8
0
100
AcDbBlockEnd
  0
BLOCK
  5
14D
330
143
100
AcDbEntity
  8
0
100
AcDbBlockBegin
  2
*D15
 70
     1
 71
     0
 10
0.0
 20
0.0
 30
0.0
  3
*D15
  1

  0
LINE
  5
144
330
143
100
AcDbEntity
  8
LC-001-100-D00-0
 62
     2
370
    -2
100
AcDbLine
 10
139.488976
 20
174.06608
 30
0.0
 11
243.565798
 21
174.06608
 31
0.0
  0
LINE
  5
145
330
143
100
AcDbEntity
  8
LC-001-100-D00-0
 62
     2
370
    -2
100
AcDbLine
 10
139.488976
 20
19.06608
 30
0.0
 11
243.565798
 21
19.06608
 31
0.0
  0
LINE
  5
146
330
143
100
AcDbEntity
  8
LC-001-100-D00-0
 62
     2
370
    -2
100
AcDbLine
 10
234.565798
 20
124.06608
 30
0.0
 11
234.565798
 21
69.06608
 31
0.0
  0
SOLID
  5
147
330
143
100
AcDbEntity
  8
LC-001-100-D00-0
 62
     2
100
AcDbTrace
 10
242.899131
 20
124.06608
 30
0.0
 11
226.232464
 21
124.06608
 31
0.0
 12
234.565798
 22
174.06608
 32
0.0
 13
234.565798
 23
174.06608
 33
0.0
  0
SOLID
  5
148
330
143
100
AcDbEntity
  8
LC-001-100-D00-0
 62
     2
100
AcDbTrace
 10
226.232464
 20
69.06608
 30
0.0
 11
242.899131
 21
69.06608
 31
0.0
 12
234.565798
 22
19.06608
 32
0.0
 13
234.565798
 23
19.06608
 33
0.0
  0
MTEXT
  5
149
330
143
100
AcDbEntity
  8
LC-001-100-D00-0
 62
     2
100
AcDbMText
 10
179.565798
 20
87.495818
 30
0.0
 40
50.0
 41
0.0
 71
     5
 72
     1
  1
\A1;155
  7
LCTX15-400-0-0pDIN-Schrift
 11
6.123031769111886E-17
 21
1.0
 31
0.0
 73
     1
 44
1.0
  0
POINT
  5
14A
330
143
100
AcDbEntity
  8
Defpoints
 62
     0
100
AcDbPoint
 10
139.488976
 20
174.06608
 30
0.0
  0
POINT
  5
14B
330
143
100
AcDbEntity
  8
Defpoints
 62
     0
100
AcDbPoint
 10
139.488976
 20
19.06608
 30
0.0
  0
POINT
  5
14C
330
143
100
AcDbEntity
  8
Defpoints
 62
     0
100
AcDbPoint
 10
234.565798
 20
19.06608
 30
0.0
  0
ENDBLK
  5
14E
330
143
100
AcDbEntity
  8
0
100
AcDbBlockEnd
  0
BLOCK
  5
2D5
330
2D4
100
AcDbEntity
  8
0
100
AcDbBlockBegin
  2
KLON15
 70
     0
 71
     0
 10
0.0
 20
0.0
 30
0.0
  3
KLON15
  1

  4
KLON15
  0
LINE
  5
2D7
330
2D4
100
AcDbEntity
  8
LC-001-100-D00-0
 62
     7
370
    15
100
AcDbLine
 10
-131.511029
 20
452.691816
 30
0.0
 11
-131.513756
 21
452.691853
 31
0.0
  0
LINE
  5
2D8
330
2D4
100
AcDbEntity
  8
LC-001-100-D00-0
 62
     7
370
    15
100
AcDbLine
 10
-131.513756
 20
452.691853
 30
0.0
 11
-131.518338
 21
452.692047
 31
0.0
  0
LINE
  5
2D9
330
2D4
100
AcDbEntity
  8
LC-001-100-D00-0
 62
     7
370
    15
100
AcDbLine
 10
-131.518338
 20
452.692047
 30
0.0
 11
-131.527211
 21
452.692881
 31
0.0
  0
LINE
  5
2DA
330
2D4
100
AcDbEntity
  8
LC-001-100-D00-0
 62
     7
370
    15
100
AcDbLine
 10
-131.527211
 20
452.692881
 30
0.0
 11
-131.529491
 21
452.693187
 31
0.0
  0
LINE
  5
2DB
330
2D4
100
AcDbEntity
  8
LC-001-100-D00-0
 62
     7
370
    15
100
AcDbLine
 10
-131.529491
 20
452.693187
 30
0.0
 11
-131.530065
 21
452.693269
 31
0.0
  0
LINE
  5
2DC
330
2D4
100
AcDbEntity
  8
LC-001-100-D00-0
 62
     7
370
    15
100
AcDbLine
 10
-131.530065
 20
452.693269
 30
0.0
 11
-131.530207
 21
452.693291
 31
0.0
  0
LINE
  5
2DD
330
2D4
100
AcDbEntity
  8
LC-001-100-D00-0
 62
     7
370
    15
100
AcDbLine
 10
-131.530207
 20
452.693291
 30
0.0
 11
-131.649386
 21
452.742562
 31
0.0
  0
LINE
  5
2DE
330
2D4
100
AcDbEntity
  8
LC-001-100-D00-0
 62
     7
370
    15
100
AcDbLine
 10
-131.649386
 20
452.742562
 30
0.0
 11
-132.48999
 21
453.555457
 31
0.0
  0
LINE
  5
2DF
330
2D4
100
AcDbEntity
  8
LC-001-100-D00-0
 62
     7
370
    15
100
AcDbLine
 10
-132.48999
 20
453.555457
 30
0.0
 11
-133.578669
 21
454.880782
 31
0.0
  0
LINE
  5
2E0
330
2D4
100
AcDbEntity
  8
LC-001-100-D00-0
 62
     7
370
    15
100
AcDbLine
 10
-133.578669
 20
454.880782
 30
0.0
 11
-135.004532
 21
456.783943
 31
0.0
  0
LINE
  5
2E1
330
2D4
100
AcDbEntity
  8
LC-001-100-D00-0
 62
     7
370
    15
100
AcDbLine
 10
-135.004532
 20
456.783943
 30
0.0
 11
-137.056876
 21
459.749602
 31
0.0
  0
LINE
  5
2E2
330
2D4
100
AcDbEntity
  8
LC-001-100-D00-0
 62
     7
370
    15
100
AcDbLine
 10
-137.056876
 20
459.749602
 30
0.0
 11
-139.427546
 21
463.390932
 31
0.0
  0
LINE
  5
2E3
330
2D4
100
AcDbEntity
  8
LC-001-100-D00-0
 62
     7
370
    15
100
AcDbLine
 10
-139.427546
 20
463.390932
 30
0.0
 11
-139.535736
 21
463.557311
 31
0.0
  0
ENDBLK
  5
2D6
330
2D4
100
AcDbEntity
  8
0
100
AcDbBlockEnd
  0
BLOCK
  5
2E6
330
2E5
100
AcDbEntity
  8
0
100
AcDbBlockBegin
  2
KLON16
 70
     0
 71
     0
 10
0.0
 20
0.0
 30
0.0
  3
KLON16
  1

  4
KLON16
  0
LINE
  5
2E8
330
2E5
100
AcDbEntity
  8
LC-001-100-D00-0
 62
     7
370
    15
100
AcDbLine
 10
-139.535736
 20
463.557311
 30
0.0
 11
-140.277345
 21
465.935864
 31
0.0
  0
LINE
  5
2E9
330
2E5
100
AcDbEntity
  8
LC-001-100-D00-0
 62
     7
370
    15
100
AcDbLine
 10
-140.277345
 20
465.935864
 30
0.0
 11
-140.912082
 21
468.51629
 31
0.0
  0
LINE
  5
2EA
330
2E5
100
AcDbEntity
  8
LC-001-100-D00-0
 62
     7
370
    15
100
AcDbLine
 10
-140.912082
 20
468.51629
 30
0.0
 11
-141.431291
 21
471.64847
 31
0.0
  0
LINE
  5
2EB
330
2E5
100
AcDbEntity
  8
LC-001-100-D00-0
 62
     7
370
    15
100
AcDbLine
 10
-141.431291
 20
471.64847
 30
0.0
 11
-141.66813
 21
474.985346
 31
0.0
  0
LINE
  5
2EC
330
2E5
100
AcDbEntity
  8
LC-001-100-D00-0
 62
     7
370
    15
100
AcDbLine
 10
-141.66813
 20
474.985346
 30
0.0
 11
-141.57721
 21
478.255116
 31
0.0
  0
LINE
  5
2ED
330
2E5
100
AcDbEntity
  8
LC-001-100-D00-0
 62
     7
370
    15
100
AcDbLine
 10
-141.57721
 20
478.255116
 30
0.0
 11
-141.165394
 21
481.546492
 31
0.0
  0
LINE
  5
2EE
330
2E5
100
AcDbEntity
  8
LC-001-100-D00-0
 62
     7
370
    15
100
AcDbLine
 10
-141.165394
 20
481.546492
 30
0.0
 11
-140.5215
 21
484.539278
 31
0.0
  0
LINE
  5
2EF
330
2E5
100
AcDbEntity
  8
LC-001-100-D00-0
 62
     7
370
    15
100
AcDbLine
 10
-140.5215
 20
484.539278
 30
0.0
 11
-139.68287
 21
487.389207
 31
0.0
  0
LINE
  5
2F0
330
2E5
100
AcDbEntity
  8
LC-001-100-D00-0
 62
     7
370
    15
100
AcDbLine
 10
-139.68287
 20
487.389207
 30
0.0
 11
-138.61521
 21
490.300231
 31
0.0
  0
LINE
  5
2F1
330
2E5
100
AcDbEntity
  8
LC-001-100-D00-0
 62
     7
370
    15
100
AcDbLine
 10
-138.61521
 20
490.300231
 30
0.0
 11
-137.491334
 21
492.910337
 31
0.0
  0
LINE
  5
2F2
330
2E5
100
AcDbEntity
  8
LC-001-100-D00-0
 62
     7
370
    15
100
AcDbLine
 10
-137.491334
 20
492.910337
 30
0.0
 11
-136.342917
 21
495.287046
 31
0.0
  0
LINE
  5
2F3
330
2E5
100
AcDbEntity
  8
LC-001-100-D00-0
 62
     7
370
    15
100
AcDbLine
 10
-136.342917
 20
495.287046
 30
0.0
 11
-135.3711
 21
497.14116
 31
0.0
  0
LINE
  5
2F4
330
2E5
100
AcDbEntity
  8
LC-001-100-D00-0
 62
     7
370
    15
100
AcDbLine
 10
-135.3711
 20
497.14116
 30
0.0
 11
-134.828862
 21
498.127431
 31
0.0
  0
LINE
  5
2F5
330
2E5
100
AcDbEntity
  8
LC-001-100-D00-0
 62
     7
370
    15
100
AcDbLine
 10
-134.828862
 20
498.127431
 30
0.0
 11
-134.542163
 21
498.636957
 31
0.0
  0
LINE
  5
2F6
330
2E5
100
AcDbEntity
  8
LC-001-100-D00-0
 62
     7
370
    15
100
AcDbLine
 10
-134.542163
 20
498.636957
 30
0.0
 11
-134.511303
 21
498.691335
 31
0.0
  0
LINE
  5
2F7
330
2E5
100
AcDbEntity
  8
LC-001-100-D00-0
 62
     7
370
    15
100
AcDbLine
 10
-134.511303
 20
498.691335
 30
0.0
 11
-134.511027
 21
498.69182
 31
0.0
  0
ENDBLK
  5
2E7
330
2E5
100
AcDbEntity
  8
0
100
AcDbBlockEnd
  0
BLOCK
  5
2FC
330
2FB
100
AcDbEntity
  8
0
100
AcDbBlockBegin
  2
KLON17
 70
     0
 71
     0
 10
0.0
 20
0.0
 30
0.0
  3
KLON17
  1

  4
KLON17
  0
LINE
  5
2FE
330
2FB
100
AcDbEntity
  8
LC-001-100-D00-0
 62
     7
370
    15
100
AcDbLine
 10
-140.193578
 20
462.19182
 30
0.0
 11
-140.186798
 21
462.206096
 31
0.0
  0
LINE
  5
2FF
330
2FB
100
AcDbEntity
  8
LC-001-100-D00-0
 62
     7
370
    15
100
AcDbLine
 10
-140.186798
 20
462.206096
 30
0.0
 11
-139.535736
 21
463.557311
 31
0.0
  0
ENDBLK
  5
2FD
330
2FB
100
AcDbEntity
  8
0
100
AcDbBlockEnd
  0
BLOCK
  5
416
330
415
100
AcDbEntity
  8
0
100
AcDbBlockBegin
  2
KLON18
 70
     0
 71
     0
 10
0.0
 20
0.0
 30
0.0
  3
KLON18
  1

  4
KLON18
  0
LINE
  5
418
330
415
100
AcDbEntity
  8
LC-001-100-D00-0
 62
     7
370
    15
100
AcDbLine
 10
77.396665
 20
530.859983
 30
0.0
 11
79.952959
 21
530.953279
 31
0.0
  0
LINE
  5
419
330
415
100
AcDbEntity
  8
LC-001-100-D00-0
 62
     7
370
    15
100
AcDbLine
 10
79.952959
 20
530.953279
 30
0.0
 11
82.098756
 21
531.031592
 31
0.0
  0
LINE
  5
41A
330
415
100
AcDbEntity
  8
LC-001-100-D00-0
 62
     7
370
    15
100
AcDbLine
 10
82.098756
 20
531.031592
 30
0.0
 11
83.8289
 21
531.094736
 31
0.0
  0
LINE
  5
41B
330
415
100
AcDbEntity
  8
LC-001-100-D00-0
 62
     7
370
    15
100
AcDbLine
 10
83.8289
 20
531.094736
 30
0.0
 11
85.139219
 21
531.142557
 31
0.0
  0
LINE
  5
41C
330
415
100
AcDbEntity
  8
LC-001-100-D00-0
 62
     7
370
    15
100
AcDbLine
 10
85.139219
 20
531.142557
 30
0.0
 11
86.026643
 21
531.174945
 31
0.0
  0
LINE
  5
41D
330
415
100
AcDbEntity
  8
LC-001-100-D00-0
 62
     7
370
    15
100
AcDbLine
 10
86.026643
 20
531.174945
 30
0.0
 11
86.488966
 21
531.191819
 31
0.0
  0
ENDBLK
  5
417
330
415
100
AcDbEntity
  8
0
100
AcDbBlockEnd
  0
BLOCK
  5
420
330
41F
100
AcDbEntity
  8
0
100
AcDbBlockBegin
  2
KLON19
 70
     0
 71
     0
 10
0.0
 20
0.0
 30
0.0
  3
KLON19
  1

  4
KLON19
  0
LINE
  5
422
330
41F
100
AcDbEntity
  8
LC-001-100-D00-0
 62
     7
370
    15
100
AcDbLine
 10
-488.418724
 20
530.859983
 30
0.0
 11
-490.975019
 21
530.953279
 31
0.0
  0
LINE
  5
423
330
41F
100
AcDbEntity
  8
LC-001-100-D00-0
 62
     7
370
    15
100
AcDbLine
 10
-490.975019
 20
530.953279
 30
0.0
 11
-493.120816
 21
531.031592
 31
0.0
  0
LINE
  5
424
330
41F
100
AcDbEntity
  8
LC-001-100-D00-0
 62
     7
370
    15
100
AcDbLine
 10
-493.120816
 20
531.031592
 30
0.0
 11
-494.85096
 21
531.094736
 31
0.0
  0
LINE
  5
425
330
41F
100
AcDbEntity
  8
LC-001-100-D00-0
 62
     7
370
    15
100
AcDbLine
 10
-494.85096
 20
531.094736
 30
0.0
 11
-496.161278
 21
531.142557
 31
0.0
  0
LINE
  5
426
330
41F
100
AcDbEntity
  8
LC-001-100-D00-0
 62
     7
370
    15
100
AcDbLine
 10
-496.161278
 20
531.142557
 30
0.0
 11
-497.048702
 21
531.174945
 31
0.0
  0
LINE
  5
427
330
41F
100
AcDbEntity
  8
LC-001-100-D00-0
 62
     7
370
    15
100
AcDbLine
 10
-497.048702
 20
531.174945
 30
0.0
 11
-497.511025
 21
531.191819
 31
0.0
  0
ENDBLK
  5
421
330
41F
100
AcDbEntity
  8
0
100
AcDbBlockEnd
  0
BLOCK
  5
443
330
442
100
AcDbEntity
  8
0
100
AcDbBlockBegin
  2
KLON20
 70
     0
 71
     0
 10
0.0
 20
0.0
 30
0.0
  3
KLON20
  1

  4
KLON20
  0
LINE
  5
445
330
442
100
AcDbEntity
  8
LC-001-100-D00-0
 62
     7
370
    15
100
AcDbLine
 10
-251.630645
 20
519.191817
 30
0.0
 11
-251.617115
 21
519.033112
 31
0.0
  0
LINE
  5
446
330
442
100
AcDbEntity
  8
LC-001-100-D00-0
 62
     7
370
    15
100
AcDbLine
 10
-251.617115
 20
519.033112
 30
0.0
 11
-251.455191
 21
518.448692
 31
0.0
  0
LINE
  5
447
330
442
100
AcDbEntity
  8
LC-001-100-D00-0
 62
     7
370
    15
100
AcDbLine
 10
-251.455191
 20
518.448692
 30
0.0
 11
-251.205325
 21
518.002387
 31
0.0
  0
LINE
  5
448
330
442
100
AcDbEntity
  8
LC-001-100-D00-0
 62
     7
370
    15
100
AcDbLine
 10
-251.205325
 20
518.002387
 30
0.0
 11
-250.894025
 21
517.743636
 31
0.0
  0
LINE
  5
449
330
442
100
AcDbEntity
  8
LC-001-100-D00-0
 62
     7
370
    15
100
AcDbLine
 10
-250.894025
 20
517.743636
 30
0.0
 11
-250.756532
 21
517.699879
 31
0.0
  0
ENDBLK
  5
444
330
442
100
AcDbEntity
  8
0
100
AcDbBlockEnd
  0
BLOCK
  5
44C
330
44B
100
AcDbEntity
  8
0
100
AcDbBlockBegin
  2
KLON21
 70
     0
 71
     0
 10
0.0
 20
0.0
 30
0.0
  3
KLON21
  1

  4
KLON21
  0
LINE
  5
44E
330
44B
100
AcDbEntity
  8
LC-001-100-D00-0
 62
     7
370
    15
100
AcDbLine
 10
86.461607
 20
532.691818
 30
0.0
 11
86.460922
 21
532.729799
 31
0.0
  0
LINE
  5
44F
330
44B
100
AcDbEntity
  8
LC-001-100-D00-0
 62
     7
370
    15
100
AcDbLine
 10
86.460922
 20
532.729799
 30
0.0
 11
86.458866
 21
532.842586
 31
0.0
  0
LINE
  5
450
330
44B
100
AcDbEntity
  8
LC-001-100-D00-0
 62
     7
370
    15
100
AcDbLine
 10
86.458866
 20
532.842586
 30
0.0
 11
86.455498
 21
533.026755
 31
0.0
  0
LINE
  5
451
330
44B
100
AcDbEntity
  8
LC-001-100-D00-0
 62
     7
370
    15
100
AcDbLine
 10
86.455498
 20
533.026755
 30
0.0
 11
86.450938
 21
533.276707
 31
0.0
  0
LINE
  5
452
330
44B
100
AcDbEntity
  8
LC-001-100-D00-0
 62
     7
370
    15
100
AcDbLine
 10
86.450938
 20
533.276707
 30
0.0
 11
86.445306
 21
533.58485
 31
0.0
  0
LINE
  5
453
330
44B
100
AcDbEntity
  8
LC-001-100-D00-0
 62
     7
370
    15
100
AcDbLine
 10
86.445306
 20
533.58485
 30
0.0
 11
86.438809
 21
533.941819
 31
0.0
  0
LINE
  5
454
330
44B
100
AcDbEntity
  8
LC-001-100-D00-0
 62
     7
370
    15
100
AcDbLine
 10
86.438809
 20
533.941819
 30
0.0
 11
86.431597
 21
534.336768
 31
0.0
  0
LINE
  5
455
330
44B
100
AcDbEntity
  8
LC-001-100-D00-0
 62
     7
370
    15
100
AcDbLine
 10
86.431597
 20
534.336768
 30
0.0
 11
86.423908
 21
534.757698
 31
0.0
  0
LINE
  5
456
330
44B
100
AcDbEntity
  8
LC-001-100-D00-0
 62
     7
370
    15
100
AcDbLine
 10
86.423908
 20
534.757698
 30
0.0
 11
86.41601
 21
535.191819
 31
0.0
  0
ENDBLK
  5
44D
330
44B
100
AcDbEntity
  8
0
100
AcDbBlockEnd
  0
BLOCK
  5
459
330
458
100
AcDbEntity
  8
0
100
AcDbBlockBegin
  2
KLON22
 70
     0
 71
     0
 10
0.0
 20
0.0
 30
0.0
  3
KLON22
  1

  4
KLON22
  0
LINE
  5
45B
330
458
100
AcDbEntity
  8
LC-001-100-D00-0
 62
     7
370
    15
100
AcDbLine
 10
-497.483667
 20
532.691818
 30
0.0
 11
-497.482981
 21
532.729799
 31
0.0
  0
LINE
  5
45C
330
458
100
AcDbEntity
  8
LC-001-100-D00-0
 62
     7
370
    15
100
AcDbLine
 10
-497.482981
 20
532.729799
 30
0.0
 11
-497.480925
 21
532.842586
 31
0.0
  0
LINE
  5
45D
330
458
100
AcDbEntity
  8
LC-001-100-D00-0
 62
     7
370
    15
100
AcDbLine
 10
-497.480925
 20
532.842586
 30
0.0
 11
-497.477557
 21
533.026755
 31
0.0
  0
LINE
  5
45E
330
458
100
AcDbEntity
  8
LC-001-100-D00-0
 62
     7
370
    15
100
AcDbLine
 10
-497.477557
 20
533.026755
 30
0.0
 11
-497.472998
 21
533.276707
 31
0.0
  0
LINE
  5
45F
330
458
100
AcDbEntity
  8
LC-001-100-D00-0
 62
     7
370
    15
100
AcDbLine
 10
-497.472998
 20
533.276707
 30
0.0
 11
-497.467365
 21
533.58485
 31
0.0
  0
LINE
  5
460
330
458
100
AcDbEntity
  8
LC-001-100-D00-0
 62
     7
370
    15
100
AcDbLine
 10
-497.467365
 20
533.58485
 30
0.0
 11
-497.460868
 21
533.941819
 31
0.0
  0
LINE
  5
461
330
458
100
AcDbEntity
  8
LC-001-100-D00-0
 62
     7
370
    15
100
AcDbLine
 10
-497.460868
 20
533.941819
 30
0.0
 11
-497.453656
 21
534.336768
 31
0.0
  0
LINE
  5
462
330
458
100
AcDbEntity
  8
LC-001-100-D00-0
 62
     7
370
    15
100
AcDbLine
 10
-497.453656
 20
534.336768
 30
0.0
 11
-497.445967
 21
534.757698
 31
0.0
  0
LINE
  5
463
330
458
100
AcDbEntity
  8
LC-001-100-D00-0
 62
     7
370
    15
100
AcDbLine
 10
-497.445967
 20
534.757698
 30
0.0
 11
-497.438069
 21
535.191819
 31
0.0
  0
ENDBLK
  5
45A
330
458
100
AcDbEntity
  8
0
100
AcDbBlockEnd
  0
BLOCK
  5
4C6
330
4BC
100
AcDbEntity
  8
0
100
AcDbBlockBegin
  2
*D24
 70
     1
 71
     0
 10
0.0
 20
0.0
 30
0.0
  3
*D24
  1

  0
LINE
  5
4BD
330
4BC
100
AcDbEntity
  8
LC-001-100-D00-0
 62
     2
370
    -2
100
AcDbLine
 10
144.48897
 20
553.191818
 30
0.0
 11
144.48897
 21
689.385253
 31
0.0
  0
LINE
  5
4BE
330
4BC
100
AcDbEntity
  8
LC-001-100-D00-0
 62
     2
370
    -2
100
AcDbLine
 10
-555.51103
 20
553.191818
 30
0.0
 11
-555.51103
 21
689.385253
 31
0.0
  0
LINE
  5
4BF
330
4BC
100
AcDbEntity
  8
LC-001-100-D00-0
 62
     2
370
    -2
100
AcDbLine
 10
94.48897
 20
680.385253
 30
0.0
 11
-505.51103
 21
680.385253
 31
0.0
  0
SOLID
  5
4C0
330
4BC
100
AcDbEntity
  8
LC-001-100-D00-0
 62
     2
100
AcDbTrace
 10
94.48897
 20
672.05192
 30
0.0
 11
94.48897
 21
688.718586
 31
0.0
 12
144.48897
 22
680.385253
 32
0.0
 13
144.48897
 23
680.385253
 33
0.0
  0
SOLID
  5
4C1
330
4BC
100
AcDbEntity
  8
LC-001-100-D00-0
 62
     2
100
AcDbTrace
 10
-505.51103
 20
688.718586
 30
0.0
 11
-505.51103
 21
672.05192
 31
0.0
 12
-555.51103
 22
680.385253
 32
0.0
 13
-555.51103
 23
680.385253
 33
0.0
  0
MTEXT
  5
4C2
330
4BC
100
AcDbEntity
  8
LC-001-100-D00-0
 62
     2
100
AcDbMText
 10
-200.728769
 20
735.385253
 30
0.0
 40
50.0
 41
0.0
 71
     5
 72
     1
  1
\A1;700
  7
LCTX15-400-0-0pDIN-Schrift
 73
     1
 44
1.0
  0
POINT
  5
4C3
330
4BC
100
AcDbEntity
  8
Defpoints
 62
     0
100
AcDbPoint
 10
144.48897
 20
553.191818
 30
0.0
  0
POINT
  5
4C4
330
4BC
100
AcDbEntity
  8
Defpoints
 62
     0
100
AcDbPoint
 10
-555.51103
 20
553.191818
 30
0.0
  0
POINT
  5
4C5
330
4BC
100
AcDbEntity
  8
Defpoints
 62
     0
100
AcDbPoint
 10
-555.51103
 20
680.385253
 30
0.0
  0
ENDBLK
  5
4C7
330
4BC
100
AcDbEntity
  8
0
100
AcDbBlockEnd
  0
BLOCK
  5
4D3
330
4C9
100
AcDbEntity
  8
0
100
AcDbBlockBegin
  2
*D25
 70
     1
 71
     0
 10
0.0
 20
0.0
 30
0.0
  3
*D25
  1

  0
LINE
  5
4CA
330
4C9
100
AcDbEntity
  8
LC-001-100-D00-0
 62
     2
370
    -2
100
AcDbLine
 10
-505.51103
 20
550.191818
 30
0.0
 11
-505.51103
 21
601.850528
 31
0.0
  0
LINE
  5
4CB
330
4C9
100
AcDbEntity
  8
LC-001-100-D00-0
 62
     2
370
    -2
100
AcDbLine
 10
94.48897
 20
550.191818
 30
0.0
 11
94.48897
 21
601.850528
 31
0.0
  0
LINE
  5
4CC
330
4C9
100
AcDbEntity
  8
LC-001-100-D00-0
 62
     2
370
    -2
100
AcDbLine
 10
-455.51103
 20
592.850528
 30
0.0
 11
44.48897
 21
592.850528
 31
0.0
  0
SOLID
  5
4CD
330
4C9
100
AcDbEntity
  8
LC-001-100-D00-0
 62
     2
100
AcDbTrace
 10
-455.51103
 20
601.183862
 30
0.0
 11
-455.51103
 21
584.517195
 31
0.0
 12
-505.51103
 22
592.850528
 32
0.0
 13
-505.51103
 23
592.850528
 33
0.0
  0
SOLID
  5
4CE
330
4C9
100
AcDbEntity
  8
LC-001-100-D00-0
 62
     2
100
AcDbTrace
 10
44.48897
 20
584.517195
 30
0.0
 11
44.48897
 21
601.183862
 31
0.0
 12
94.48897
 22
592.850528
 32
0.0
 13
94.48897
 23
592.850528
 33
0.0
  0
MTEXT
  5
4CF
330
4C9
100
AcDbEntity
  8
LC-001-100-D00-0
 62
     2
100
AcDbMText
 10
-210.009892
 20
647.850528
 30
0.0
 40
50.0
 41
0.0
 71
     5
 72
     1
  1
\A1;600
  7
LCTX15-400-0-0pDIN-Schrift
 73
     1
 44
1.0
  0
POINT
  5
4D0
330
4C9
100
AcDbEntity
  8
Defpoints
 62
     0
100
AcDbPoint
 10
-505.51103
 20
550.191818
 30
0.0
  0
POINT
  5
4D1
330
4C9
100
AcDbEntity
  8
Defpoints
 62
     0
100
AcDbPoint
 10
94.48897
 20
550.191818
 30
0.0
  0
POINT
  5
4D2
330
4C9
100
AcDbEntity
  8
Defpoints
 62
     0
100
AcDbPoint
 10
94.48897
 20
592.850528
 30
0.0
  0
ENDBLK
  5
4D4
330
4C9
100
AcDbEntity
  8
0
100
AcDbBlockEnd
  0
BLOCK
  5
4E0
330
4D6
100
AcDbEntity
  8
0
100
AcDbBlockBegin
  2
*D26
 70
     1
 71
     0
 10
0.0
 20
0.0
 30
0.0
  3
*D26
  1

  0
LINE
  5
4D7
330
4D6
100
AcDbEntity
  8
LC-001-100-D00-0
 62
     2
370
    -2
100
AcDbLine
 10
-279.51103
 20
462.191818
 30
0.0
 11
-279.51103
 21
347.772029
 31
0.0
  0
LINE
  5
4D8
330
4D6
100
AcDbEntity
  8
LC-001-100-D00-0
 62
     2
370
    -2
100
AcDbLine
 10
-131.51103
 20
502.441818
 30
0.0
 11
-131.51103
 21
347.772029
 31
0.0
  0
LINE
  5
4D9
330
4D6
100
AcDbEntity
  8
LC-001-100-D00-0
 62
     2
370
    -2
100
AcDbLine
 10
-229.51103
 20
356.772029
 30
0.0
 11
-181.51103
 21
356.772029
 31
0.0
  0
SOLID
  5
4DA
330
4D6
100
AcDbEntity
  8
LC-001-100-D00-0
 62
     2
100
AcDbTrace
 10
-229.51103
 20
365.105362
 30
0.0
 11
-229.51103
 21
348.438695
 31
0.0
 12
-279.51103
 22
356.772029
 32
0.0
 13
-279.51103
 23
356.772029
 33
0.0
  0
SOLID
  5
4DB
330
4D6
100
AcDbEntity
  8
LC-001-100-D00-0
 62
     2
100
AcDbTrace
 10
-181.51103
 20
348.438695
 30
0.0
 11
-181.51103
 21
365.105362
 31
0.0
 12
-131.51103
 22
356.772029
 32
0.0
 13
-131.51103
 23
356.772029
 33
0.0
  0
MTEXT
  5
4DC
330
4D6
100
AcDbEntity
  8
LC-001-100-D00-0
 62
     2
100
AcDbMText
 10
-219.291015
 20
411.772029
 30
0.0
 40
50.0
 41
0.0
 71
     5
 72
     1
  1
\A1;148
  7
LCTX15-400-0-0pDIN-Schrift
 73
     1
 44
1.0
  0
POINT
  5
4DD
330
4D6
100
AcDbEntity
  8
Defpoints
 62
     0
100
AcDbPoint
 10
-279.51103
 20
462.191818
 30
0.0
  0
POINT
  5
4DE
330
4D6
100
AcDbEntity
  8
Defpoints
 62
     0
100
AcDbPoint
 10
-131.51103
 20
502.441818
 30
0.0
  0
POINT
  5
4DF
330
4D6
100
AcDbEntity
  8
Defpoints
 62
     0
100
AcDbPoint
 10
-131.51103
 20
356.772029
 30
0.0
  0
ENDBLK
  5
4E1
330
4D6
100
AcDbEntity
  8
0
100
AcDbBlockEnd
  0
BLOCK
  5
4ED
330
4E3
100
AcDbEntity
  8
0
100
AcDbBlockBegin
  2
*D27
 70
     1
 71
     0
 10
0.0
 20
0.0
 30
0.0
  3
*D27
  1

  0
LINE
  5
4E4
330
4E3
100
AcDbEntity
  8
LC-001-100-D00-0
 62
     2
370
    -2
100
AcDbLine
 10
-279.51103
 20
462.191818
 30
0.0
 11
-279.51103
 21
260.237304
 31
0.0
  0
LINE
  5
4E5
330
4E3
100
AcDbEntity
  8
LC-001-100-D00-0
 62
     2
370
    -2
100
AcDbLine
 10
3.988767
 20
451.629641
 30
0.0
 11
3.988767
 21
260.237304
 31
0.0
  0
LINE
  5
4E6
330
4E3
100
AcDbEntity
  8
LC-001-100-D00-0
 62
     2
370
    -2
100
AcDbLine
 10
-229.51103
 20
269.237304
 30
0.0
 11
-46.011233
 21
269.237304
 31
0.0
  0
SOLID
  5
4E7
330
4E3
100
AcDbEntity
  8
LC-001-100-D00-0
 62
     2
100
AcDbTrace
 10
-229.51103
 20
277.570637
 30
0.0
 11
-229.51103
 21
260.903971
 31
0.0
 12
-279.51103
 22
269.237304
 32
0.0
 13
-279.51103
 23
269.237304
 33
0.0
  0
SOLID
  5
4E8
330
4E3
100
AcDbEntity
  8
LC-001-100-D00-0
 62
     2
100
AcDbTrace
 10
-46.011233
 20
260.903971
 30
0.0
 11
-46.011233
 21
277.570637
 31
0.0
 12
3.988767
 22
269.237304
 32
0.0
 13
3.988767
 23
269.237304
 33
0.0
  0
MTEXT
  5
4E9
330
4E3
100
AcDbEntity
  8
LC-001-100-D00-0
 62
     2
100
AcDbMText
 10
-141.948325
 20
324.237304
 30
0.0
 40
50.0
 41
0.0
 71
     5
 72
     1
  1
\A1;284
  7
LCTX15-400-0-0pDIN-Schrift
 73
     1
 44
1.0
  0
POINT
  5
4EA
330
4E3
100
AcDbEntity
  8
Defpoints
 62
     0
100
AcDbPoint
 10
-279.51103
 20
462.191818
 30
0.0
  0
POINT
  5
4EB
330
4E3
100
AcDbEntity
  8
Defpoints
 62
     0
100
AcDbPoint
 10
3.988767
 20
451.629641
 30
0.0
  0
POINT
  5
4EC
330
4E3
100
AcDbEntity
  8
Defpoints
 62
     0
100
AcDbPoint
 10
3.988767
 20
269.237304
 30
0.0
  0
ENDBLK
  5
4EE
330
4E3
100
AcDbEntity
  8
0
100
AcDbBlockEnd
  0
BLOCK
  5
4FB
330
4F0
100
AcDbEntity
  8
0
100
AcDbBlockBegin
  2
*D28
 70
     1
 71
     0
 10
0.0
 20
0.0
 30
0.0
  3
*D28
  1

  0
LINE
  5
4F1
330
4F0
100
AcDbEntity
  8
LC-001-100-D00-0
 62
     2
370
    -2
100
AcDbLine
 10
-234.51103
 20
461.291818
 30
0.0
 11
-356.67988
 21
461.291818
 31
0.0
  0
LINE
  5
4F2
330
4F0
100
AcDbEntity
  8
LC-001-100-D00-0
 62
     2
370
    -2
100
AcDbLine
 10
-238.439394
 20
511.691818
 30
0.0
 11
-356.67988
 21
511.691818
 31
0.0
  0
LINE
  5
4F3
330
4F0
100
AcDbEntity
  8
LC-001-100-D00-0
 62
     2
370
    -2
100
AcDbLine
 10
-347.67988
 20
561.691818
 30
0.0
 11
-347.67988
 21
611.691818
 31
0.0
  0
LINE
  5
4F4
330
4F0
100
AcDbEntity
  8
LC-001-100-D00-0
 62
     2
370
    -2
100
AcDbLine
 10
-347.67988
 20
411.291818
 30
0.0
 11
-347.67988
 21
334.917164
 31
0.0
  0
SOLID
  5
4F5
330
4F0
100
AcDbEntity
  8
LC-001-100-D00-0
 62
     2
100
AcDbTrace
 10
-339.346547
 20
411.291818
 30
0.0
 11
-356.013214
 21
411.291818
 31
0.0
 12
-347.67988
 22
461.291818
 32
0.0
 13
-347.67988
 23
461.291818
 33
0.0
  0
SOLID
  5
4F6
330
4F0
100
AcDbEntity
  8
LC-001-100-D00-0
 62
     2
100
AcDbTrace
 10
-356.013214
 20
561.691818
 30
0.0
 11
-339.346547
 21
561.691818
 31
0.0
 12
-347.67988
 22
511.691818
 32
0.0
 13
-347.67988
 23
511.691818
 33
0.0
  0
MTEXT
  5
4F7
330
4F0
100
AcDbEntity
  8
LC-001-100-D00-0
 62
     2
100
AcDbMText
 10
-402.67988
 20
377.992568
 30
0.0
 40
50.0
 41
0.0
 71
     5
 72
     1
  1
\A1;50
  7
LCTX15-400-0-0pDIN-Schrift
 11
6.123031769111886E-17
 21
1.0
 31
0.0
 73
     1
 44
1.0
  0
POINT
  5
4F8
330
4F0
100
AcDbEntity
  8
Defpoints
 62
     0
100
AcDbPoint
 10
-234.51103
 20
461.291818
 30
0.0
  0
POINT
  5
4F9
330
4F0
100
AcDbEntity
  8
Defpoints
 62
     0
100
AcDbPoint
 10
-238.439394
 20
511.691818
 30
0.0
  0
POINT
  5
4FA
330
4F0
100
AcDbEntity
  8
Defpoints
 62
     0
100
AcDbPoint
 10
-347.67988
 20
511.691818
 30
0.0
  0
ENDBLK
  5
4FC
330
4F0
100
AcDbEntity
  8
0
100
AcDbBlockEnd
  0
BLOCK
  5
50A
330
4FE
100
AcDbEntity
  8
0
100
AcDbBlockBegin
  2
*D29
 70
     1
 71
     0
 10
0.0
 20
0.0
 30
0.0
  3
*D29
  1

  0
LINE
  5
4FF
330
4FE
100
AcDbEntity
  8
LC-001-100-D00-0
 62
     2
370
    -2
100
AcDbLine
 10
0.488767
 20
500.691818
 30
0.0
 11
119.401024
 21
500.691818
 31
0.0
  0
LINE
  5
500
330
4FE
100
AcDbEntity
  8
LC-001-100-D00-0
 62
     2
370
    -2
100
AcDbLine
 10
0.488767
 20
450.691818
 30
0.0
 11
119.401024
 21
450.691818
 31
0.0
  0
LINE
  5
501
330
4FE
100
AcDbEntity
  8
LC-001-100-D00-0
 62
     2
370
    -2
100
AcDbLine
 10
110.401024
 20
550.691818
 30
0.0
 11
110.401024
 21
600.691818
 31
0.0
  0
LINE
  5
502
330
4FE
100
AcDbEntity
  8
LC-001-100-D00-0
 62
     2
370
    -2
100
AcDbLine
 10
110.401024
 20
400.691818
 30
0.0
 11
110.401024
 21
350.691818
 31
0.0
  0
LINE
  5
503
330
4FE
100
AcDbEntity
  8
LC-001-100-D00-0
 62
     2
370
    -2
100
AcDbLine
 10
110.401024
 20
500.691818
 30
0.0
 11
110.401024
 21
450.691818
 31
0.0
  0
SOLID
  5
504
330
4FE
100
AcDbEntity
  8
LC-001-100-D00-0
 62
     2
100
AcDbTrace
 10
102.06769
 20
550.691818
 30
0.0
 11
118.734357
 21
550.691818
 31
0.0
 12
110.401024
 22
500.691818
 32
0.0
 13
110.401024
 23
500.691818
 33
0.0
  0
SOLID
  5
505
330
4FE
100
AcDbEntity
  8
LC-001-100-D00-0
 62
     2
100
AcDbTrace
 10
118.734357
 20
400.691818
 30
0.0
 11
102.06769
 21
400.691818
 31
0.0
 12
110.401024
 22
450.691818
 32
0.0
 13
110.401024
 23
450.691818
 33
0.0
  0
MTEXT
  5
506
330
4FE
100
AcDbEntity
  8
LC-001-100-D00-0
 62
     2
100
AcDbMText
 10
55.401024
 20
475.50513
 30
0.0
 40
50.0
 41
0.0
 71
     5
 72
     1
  1
\A1;DN50
  7
LCTX15-400-0-0pDIN-Schrift
 11
6.123031769111886E-17
 21
1.0
 31
0.0
 73
     1
 44
1.0
  0
POINT
  5
507
330
4FE
100
AcDbEntity
  8
Defpoints
 62
     0
100
AcDbPoint
 10
0.488767
 20
500.691818
 30
0.0
  0
POINT
  5
508
330
4FE
100
AcDbEntity
  8
Defpoints
 62
     0
100
AcDbPoint
 10
0.488767
 20
450.691818
 30
0.0
  0
POINT
  5
509
330
4FE
100
AcDbEntity
  8
Defpoints
 62
     0
100
AcDbPoint
 10
110.401024
 20
450.691818
 30
0.0
  0
ENDBLK
  5
50B
330
4FE
100
AcDbEntity
  8
0
100
AcDbBlockEnd
  0
BLOCK
  5
518
330
50D
100
AcDbEntity
  8
0
100
AcDbBlockBegin
  2
*D30
 70
     1
 71
     0
 10
0.0
 20
0.0
 30
0.0
  3
*D30
  1

  0
LINE
  5
50E
330
50D
100
AcDbEntity
  8
LC-001-100-D00-0
 62
     2
370
    -2
100
AcDbLine
 10
144.48897
 20
553.191818
 30
0.0
 11
227.468611
 21
553.191818
 31
0.0
  0
LINE
  5
50F
330
50D
100
AcDbEntity
  8
LC-001-100-D00-0
 62
     2
370
    -2
100
AcDbLine
 10
10.488767
 20
475.691818
 30
0.0
 11
227.468611
 21
475.691818
 31
0.0
  0
LINE
  5
510
330
50D
100
AcDbEntity
  8
LC-001-100-D00-0
 62
     2
370
    -2
100
AcDbLine
 10
218.468611
 20
603.191818
 30
0.0
 11
218.468611
 21
653.191818
 31
0.0
  0
LINE
  5
511
330
50D
100
AcDbEntity
  8
LC-001-100-D00-0
 62
     2
370
    -2
100
AcDbLine
 10
218.468611
 20
425.691818
 30
0.0
 11
218.468611
 21
282.914258
 31
0.0
  0
SOLID
  5
512
330
50D
100
AcDbEntity
  8
LC-001-100-D00-0
 62
     2
100
AcDbTrace
 10
210.135278
 20
603.191818
 30
0.0
 11
226.801945
 21
603.191818
 31
0.0
 12
218.468611
 22
553.191818
 32
0.0
 13
218.468611
 23
553.191818
 33
0.0
  0
SOLID
  5
513
330
50D
100
AcDbEntity
  8
LC-001-100-D00-0
 62
     2
100
AcDbTrace
 10
226.801945
 20
425.691818
 30
0.0
 11
210.135278
 21
425.691818
 31
0.0
 12
218.468611
 22
475.691818
 32
0.0
 13
218.468611
 23
475.691818
 33
0.0
  0
MTEXT
  5
514
330
50D
100
AcDbEntity
  8
LC-001-100-D00-0
 62
     2
100
AcDbMText
 10
163.468611
 20
352.351083
 30
0.0
 40
50.0
 41
0.0
 71
     5
 72
     1
  1
\A1;77,5
  7
LCTX15-400-0-0pDIN-Schrift
 11
6.123031769111886E-17
 21
1.0
 31
0.0
 73
     1
 44
1.0
  0
POINT
  5
515
330
50D
100
AcDbEntity
  8
Defpoints
 62
     0
100
AcDbPoint
 10
144.48897
 20
553.191818
 30
0.0
  0
POINT
  5
516
330
50D
100
AcDbEntity
  8
Defpoints
 62
     0
100
AcDbPoint
 10
10.488767
 20
475.691818
 30
0.0
  0
POINT
  5
517
330
50D
100
AcDbEntity
  8
Defpoints
 62
     0
100
AcDbPoint
 10
218.468611
 20
475.691818
 30
0.0
  0
ENDBLK
  5
519
330
50D
100
AcDbEntity
  8
0
100
AcDbBlockEnd
  0
BLOCK
  5
527
330
51B
100
AcDbEntity
  8
0
100
AcDbBlockBegin
  2
*D31
 70
     1
 71
     0
 10
0.0
 20
0.0
 30
0.0
  3
*D31
  1

  0
LINE
  5
51C
330
51B
100
AcDbEntity
  8
LC-001-100-D00-0
 62
     2
370
    -2
100
AcDbLine
 10
-555.51103
 20
553.191818
 30
0.0
 11
-594.391073
 21
553.191818
 31
0.0
  0
LINE
  5
51D
330
51B
100
AcDbEntity
  8
LC-001-100-D00-0
 62
     2
370
    -2
100
AcDbLine
 10
-259.52891
 20
443.191818
 30
0.0
 11
-594.391073
 21
443.191818
 31
0.0
  0
LINE
  5
51E
330
51B
100
AcDbEntity
  8
LC-001-100-D00-0
 62
     2
370
    -2
100
AcDbLine
 10
-585.391073
 20
603.191818
 30
0.0
 11
-585.391073
 21
653.191818
 31
0.0
  0
LINE
  5
51F
330
51B
100
AcDbEntity
  8
LC-001-100-D00-0
 62
     2
370
    -2
100
AcDbLine
 10
-585.391073
 20
393.191818
 30
0.0
 11
-585.391073
 21
343.191818
 31
0.0
  0
LINE
  5
520
330
51B
100
AcDbEntity
  8
LC-001-100-D00-0
 62
     2
370
    -2
100
AcDbLine
 10
-585.391073
 20
553.191818
 30
0.0
 11
-585.391073
 21
443.191818
 31
0.0
  0
SOLID
  5
521
330
51B
100
AcDbEntity
  8
LC-001-100-D00-0
 62
     2
100
AcDbTrace
 10
-593.724407
 20
603.191818
 30
0.0
 11
-577.05774
 21
603.191818
 31
0.0
 12
-585.391073
 22
553.191818
 32
0.0
 13
-585.391073
 23
553.191818
 33
0.0
  0
SOLID
  5
522
330
51B
100
AcDbEntity
  8
LC-001-100-D00-0
 62
     2
100
AcDbTrace
 10
-577.05774
 20
393.191818
 30
0.0
 11
-593.724407
 21
393.191818
 31
0.0
 12
-585.391073
 22
443.191818
 32
0.0
 13
-585.391073
 23
443.191818
 33
0.0
  0
MTEXT
  5
523
330
51B
100
AcDbEntity
  8
LC-001-100-D00-0
 62
     2
100
AcDbMText
 10
-640.391073
 20
458.745818
 30
0.0
 40
50.0
 41
0.0
 71
     5
 72
     1
  1
\A1;110
  7
LCTX15-400-0-0pDIN-Schrift
 11
6.123031769111886E-17
 21
1.0
 31
0.0
 73
     1
 44
1.0
  0
POINT
  5
524
330
51B
100
AcDbEntity
  8
Defpoints
 62
     0
100
AcDbPoint
 10
-555.51103
 20
553.191818
 30
0.0
  0
POINT
  5
525
330
51B
100
AcDbEntity
  8
Defpoints
 62
     0
100
AcDbPoint
 10
-259.52891
 20
443.191818
 30
0.0
  0
POINT
  5
526
330
51B
100
AcDbEntity
  8
Defpoints
 62
     0
100
AcDbPoint
 10
-585.391073
 20
443.191818
 30
0.0
  0
ENDBLK
  5
528
330
51B
100
AcDbEntity
  8
0
100
AcDbBlockEnd
  0
BLOCK
  5
535
330
52A
100
AcDbEntity
  8
0
100
AcDbBlockBegin
  2
*D32
 70
     1
 71
     0
 10
0.0
 20
0.0
 30
0.0
  3
*D32
  1

  0
LINE
  5
52B
330
52A
100
AcDbEntity
  8
LC-001-100-D00-0
 62
     2
370
    -2
100
AcDbLine
 10
144.48897
 20
553.191818
 30
0.0
 11
355.378098
 21
553.191818
 31
0.0
  0
LINE
  5
52C
330
52A
100
AcDbEntity
  8
LC-001-100-D00-0
 62
     2
370
    -2
100
AcDbLine
 10
-8.01103
 20
418.691818
 30
0.0
 11
355.378098
 21
418.691818
 31
0.0
  0
LINE
  5
52D
330
52A
100
AcDbEntity
  8
LC-001-100-D00-0
 62
     2
370
    -2
100
AcDbLine
 10
346.378098
 20
503.191818
 30
0.0
 11
346.378098
 21
468.691818
 31
0.0
  0
LINE
  5
52E
330
52A
100
AcDbEntity
  8
LC-001-100-D00-0
 62
     2
370
    -2
100
AcDbLine
 10
346.378098
 20
418.691818
 30
0.0
 11
346.378098
 21
113.966136
 31
0.0
  0
SOLID
  5
52F
330
52A
100
AcDbEntity
  8
LC-001-100-D00-0
 62
     2
100
AcDbTrace
 10
354.711432
 20
503.191818
 30
0.0
 11
338.044765
 21
503.191818
 31
0.0
 12
346.378098
 22
553.191818
 32
0.0
 13
346.378098
 23
553.191818
 33
0.0
  0
SOLID
  5
530
330
52A
100
AcDbEntity
  8
LC-001-100-D00-0
 62
     2
100
AcDbTrace
 10
338.044765
 20
468.691818
 30
0.0
 11
354.711432
 21
468.691818
 31
0.0
 12
346.378098
 22
418.691818
 32
0.0
 13
346.378098
 23
418.691818
 33
0.0
  0
MTEXT
  5
531
330
52A
100
AcDbEntity
  8
LC-001-100-D00-0
 62
     2
100
AcDbMText
 10
291.378098
 20
280.545818
 30
0.0
 40
50.0
 41
0.0
 71
     5
 72
     1
  1
\A1;110-129,5
  7
LCTX15-400-0-0pDIN-Schrift
 11
6.123031769111886E-17
 21
1.0
 31
0.0
 73
     1
 44
1.0
  0
POINT
  5
532
330
52A
100
AcDbEntity
  8
Defpoints
 62
     0
100
AcDbPoint
 10
144.48897
 20
553.191818
 30
0.0
  0
POINT
  5
533
330
52A
100
AcDbEntity
  8
Defpoints
 62
     0
100
AcDbPoint
 10
-8.01103
 20
418.691818
 30
0.0
  0
POINT
  5
534
330
52A
100
AcDbEntity
  8
Defpoints
 62
     0
100
AcDbPoint
 10
346.378098
 20
418.691818
 30
0.0
  0
ENDBLK
  5
536
330
52A
100
AcDbEntity
  8
0
100
AcDbBlockEnd
  0
BLOCK
  5
539
330
538
100
AcDbEntity
  8
0
100
AcDbBlockBegin
  2
KLON23
 70
     0
 71
     0
 10
0.0
 20
0.0
 30
0.0
  3
KLON23
  1

  4
KLON23
  0
LINE
  5
53B
330
538
100
AcDbEntity
  8
LC-001-100-D00-0
 62
     7
370
    50
100
AcDbLine
 10
-470.31103
 20
537.633994
 30
0.0
 11
-465.76103
 21
542.183994
 31
0.0
  0
LINE
  5
53C
330
538
100
AcDbEntity
  8
LC-001-100-D00-0
 62
     7
370
    50
100
AcDbLine
 10
-460.26103
 20
547.683994
 30
0.0
 11
-457.26103
 21
550.683995
 31
0.0
  0
ENDBLK
  5
53A
330
538
100
AcDbEntity
  8
0
100
AcDbBlockEnd
  0
BLOCK
  5
542
330
541
100
AcDbEntity
  8
0
100
AcDbBlockBegin
  2
KLON24
 70
     0
 71
     0
 10
0.0
 20
0.0
 30
0.0
  3
KLON24
  1

  4
KLON24
  0
LINE
  5
544
330
541
100
AcDbEntity
  8
LC-001-100-D00-0
 62
     7
370
    25
100
AcDbLine
 10
-315.26103
 20
535.529517
 30
0.0
 11
-310.805813
 21
539.984734
 31
0.0
  0
LINE
  5
545
330
541
100
AcDbEntity
  8
LC-001-100-D00-0
 62
     7
370
    25
100
AcDbLine
 10
-323.76103
 20
549.480158
 30
0.0
 11
-320.049369
 21
553.191818
 31
0.0
  0
ENDBLK
  5
543
330
541
100
AcDbEntity
  8
0
100
AcDbBlockEnd
  0
BLOCK
  5
549
330
548
100
AcDbEntity
  8
0
100
AcDbBlockBegin
  2
KLON25
 70
     0
 71
     0
 10
0.0
 20
0.0
 30
0.0
  3
KLON25
  1

  4
KLON25
  0
LINE
  5
54B
330
548
100
AcDbEntity
  8
LC-001-100-D00-0
 62
     7
370
    25
100
AcDbLine
 10
69.68897
 20
538.818646
 30
0.0
 11
74.23897
 21
543.368647
 31
0.0
  0
LINE
  5
54C
330
548
100
AcDbEntity
  8
LC-001-100-D00-0
 62
     7
370
    25
100
AcDbLine
 10
79.73897
 20
548.868647
 30
0.0
 11
82.73897
 21
551.868647
 31
0.0
  0
ENDBLK
  5
54A
330
548
100
AcDbEntity
  8
0
100
AcDbBlockEnd
  0
BLOCK
  5
552
330
551
100
AcDbEntity
  8
0
100
AcDbBlockBegin
  2
KLON26
 70
     0
 71
     0
 10
0.0
 20
0.0
 30
0.0
  3
KLON26
  1

  4
KLON26
  0
LINE
  5
554
330
551
100
AcDbEntity
  8
LC-001-100-D00-0
 62
     7
370
    25
100
AcDbLine
 10
-114.51118
 20
534.223611
 30
0.0
 11
-110.71103
 21
538.023762
 31
0.0
  0
LINE
  5
555
330
551
100
AcDbEntity
  8
LC-001-100-D00-0
 62
     7
370
    25
100
AcDbLine
 10
-123.76103
 20
547.424402
 30
0.0
 11
-117.993614
 21
553.191818
 31
0.0
  0
ENDBLK
  5
553
330
551
100
AcDbEntity
  8
0
100
AcDbBlockEnd
  0
BLOCK
  5
55B
330
55A
100
AcDbEntity
  8
0
100
AcDbBlockBegin
  2
KLON27
 70
     0
 71
     0
 10
0.0
 20
0.0
 30
0.0
  3
KLON27
  1

  4
KLON27
  0
LINE
  5
55D
330
55A
100
AcDbEntity
  8
LC-001-100-D00-0
 62
     7
370
    25
100
AcDbLine
 10
-111.520269
 20
447.411958
 30
0.0
 11
-106.240409
 21
452.691818
 31
0.0
  0
LINE
  5
55E
330
55A
100
AcDbEntity
  8
LC-001-100-D00-0
 62
     7
370
    25
100
AcDbLine
 10
-131.691048
 20
449.691818
 30
0.0
 11
-128.691049
 21
452.691818
 31
0.0
  0
LINE
  5
55F
330
55A
100
AcDbEntity
  8
LC-001-100-D00-0
 62
     7
370
    25
100
AcDbLine
 10
-160.641687
 20
443.191818
 30
0.0
 11
-157.641688
 21
446.191818
 31
0.0
  0
LINE
  5
560
330
55A
100
AcDbEntity
  8
LC-001-100-D00-0
 62
     7
370
    25
100
AcDbLine
 10
-183.092327
 20
443.191818
 30
0.0
 11
-180.092327
 21
446.191818
 31
0.0
  0
LINE
  5
561
330
55A
100
AcDbEntity
  8
LC-001-100-D00-0
 62
     7
370
    25
100
AcDbLine
 10
-205.542966
 20
443.191818
 30
0.0
 11
-202.542967
 21
446.191818
 31
0.0
  0
LINE
  5
562
330
55A
100
AcDbEntity
  8
LC-001-100-D00-0
 62
     7
370
    25
100
AcDbLine
 10
-227.993606
 20
443.191818
 30
0.0
 11
-224.993606
 21
446.191818
 31
0.0
  0
LINE
  5
563
330
55A
100
AcDbEntity
  8
LC-001-100-D00-0
 62
     7
370
    25
100
AcDbLine
 10
-250.444245
 20
443.191818
 30
0.0
 11
-247.444246
 21
446.191818
 31
0.0
  0
LINE
  5
564
330
55A
100
AcDbEntity
  8
LC-001-100-D00-0
 62
     7
370
    25
100
AcDbLine
 10
-266.50249
 20
449.584214
 30
0.0
 11
-263.748239
 21
452.338464
 31
0.0
  0
LINE
  5
565
330
55A
100
AcDbEntity
  8
LC-001-100-D00-0
 62
     7
370
    25
100
AcDbLine
 10
-279.184395
 20
459.352949
 30
0.0
 11
-276.509613
 21
462.027732
 31
0.0
  0
LINE
  5
566
330
55A
100
AcDbEntity
  8
LC-001-100-D00-0
 62
     7
370
    25
100
AcDbLine
 10
-279.51103
 20
481.476955
 30
0.0
 11
-276.51103
 21
484.476956
 31
0.0
  0
ENDBLK
  5
55C
330
55A
100
AcDbEntity
  8
0
100
AcDbBlockEnd
  0
BLOCK
  5
569
330
568
100
AcDbEntity
  8
0
100
AcDbBlockBegin
  2
KLON28
 70
     0
 71
     0
 10
0.0
 20
0.0
 30
0.0
  3
KLON28
  1

  4
KLON28
  0
LINE
  5
56B
330
568
100
AcDbEntity
  8
LC-001-100-D00-0
 62
     7
370
    25
100
AcDbLine
 10
-105.141691
 20
498.691818
 30
0.0
 11
-98.7453
 21
505.08821
 31
0.0
  0
LINE
  5
56C
330
568
100
AcDbEntity
  8
LC-001-100-D00-0
 62
     7
370
    25
100
AcDbLine
 10
-127.592331
 20
498.691818
 30
0.0
 11
-124.592331
 21
501.691818
 31
0.0
  0
ENDBLK
  5
56A
330
568
100
AcDbEntity
  8
0
100
AcDbBlockEnd
  0
BLOCK
  5
570
330
56F
100
AcDbEntity
  8
0
100
AcDbBlockBegin
  2
KLON29
 70
     0
 71
     0
 10
0.0
 20
0.0
 30
0.0
  3
KLON29
  1

  4
KLON29
  0
LINE
  5
572
330
56F
100
AcDbEntity
  8
LC-001-100-D00-0
 62
     7
370
    25
100
AcDbLine
 10
-15.589134
 20
498.441818
 30
0.0
 11
-13.339134
 21
500.691818
 31
0.0
  0
LINE
  5
573
330
56F
100
AcDbEntity
  8
LC-001-100-D00-0
 62
     7
370
    25
100
AcDbLine
 10
-98.867577
 20
504.965933
 30
0.0
 11
-96.677872
 21
507.155637
 31
0.0
  0
LINE
  5
574
330
56F
100
AcDbEntity
  8
LC-001-100-D00-0
 62
     7
370
    25
100
AcDbLine
 10
-82.94107
 20
498.441818
 30
0.0
 11
-80.691071
 21
500.691818
 31
0.0
  0
ENDBLK
  5
571
330
56F
100
AcDbEntity
  8
0
100
AcDbBlockEnd
  0
BLOCK
  5
577
330
576
100
AcDbEntity
  8
0
100
AcDbBlockBegin
  2
KLON30
 70
     0
 71
     0
 10
0.0
 20
0.0
 30
0.0
  3
KLON30
  1

  4
KLON30
  0
LINE
  5
579
330
576
100
AcDbEntity
  8
LC-001-100-D00-0
 62
     7
370
    25
100
AcDbLine
 10
-63.33913
 20
450.691818
 30
0.0
 11
-61.08913
 21
452.941818
 31
0.0
  0
LINE
  5
57A
330
576
100
AcDbEntity
  8
LC-001-100-D00-0
 62
     7
370
    25
100
AcDbLine
 10
-40.88849
 20
450.691818
 30
0.0
 11
-38.63849
 21
452.941818
 31
0.0
  0
LINE
  5
57B
330
576
100
AcDbEntity
  8
LC-001-100-D00-0
 62
     7
370
    25
100
AcDbLine
 10
-18.43785
 20
450.691818
 30
0.0
 11
-16.18785
 21
452.941818
 31
0.0
  0
ENDBLK
  5
578
330
576
100
AcDbEntity
  8
0
100
AcDbBlockEnd
  0
BLOCK
  5
57E
330
57D
100
AcDbEntity
  8
0
100
AcDbBlockBegin
  2
KLON31
 70
     0
 71
     0
 10
0.0
 20
0.0
 30
0.0
  3
KLON31
  1

  4
KLON31
  0
LINE
  5
580
330
57D
100
AcDbEntity
  8
LC-001-100-D00-0
 62
     7
370
    25
100
AcDbLine
 10
-234.51103
 20
481.575676
 30
0.0
 11
-233.01103
 21
483.075676
 31
0.0
  0
LINE
  5
581
330
57D
100
AcDbEntity
  8
LC-001-100-D00-0
 62
     7
370
    25
100
AcDbLine
 10
-234.51103
 20
504.026317
 30
0.0
 11
-233.01103
 21
505.526318
 31
0.0
  0
LINE
  5
582
330
57D
100
AcDbEntity
  8
LC-001-100-D00-0
 62
     7
370
    25
100
AcDbLine
 10
-240.594878
 20
520.39311
 30
0.0
 11
-234.044965
 21
526.943023
 31
0.0
  0
LINE
  5
583
330
57D
100
AcDbEntity
  8
LC-001-100-D00-0
 62
     7
370
    25
100
AcDbLine
 10
-258.01103
 20
525.427598
 30
0.0
 11
-256.246809
 21
527.191818
 31
0.0
  0
ENDBLK
  5
57F
330
57D
100
AcDbEntity
  8
0
100
AcDbBlockEnd
  0
BLOCK
  5
586
330
585
100
AcDbEntity
  8
0
100
AcDbBlockBegin
  2
KLON32
 70
     0
 71
     0
 10
0.0
 20
0.0
 30
0.0
  3
KLON32
  1

  4
KLON32
  0
LINE
  5
588
330
585
100
AcDbEntity
  8
LC-001-100-D00-0
 62
     7
370
    25
100
AcDbLine
 10
-178.01103
 20
470.723757
 30
0.0
 11
-176.51103
 21
472.223757
 31
0.0
  0
LINE
  5
589
330
585
100
AcDbEntity
  8
LC-001-100-D00-0
 62
     7
370
    25
100
AcDbLine
 10
-178.01103
 20
493.174398
 30
0.0
 11
-176.51103
 21
494.674398
 31
0.0
  0
LINE
  5
58A
330
585
100
AcDbEntity
  8
LC-001-100-D00-0
 62
     7
370
    25
100
AcDbLine
 10
-178.01103
 20
515.625039
 30
0.0
 11
-166.444251
 21
527.191818
 31
0.0
  0
ENDBLK
  5
587
330
585
100
AcDbEntity
  8
0
100
AcDbBlockEnd
  0
BLOCK
  5
58D
330
58C
100
AcDbEntity
  8
0
100
AcDbBlockBegin
  2
KLON33
 70
     0
 71
     0
 10
0.0
 20
0.0
 30
0.0
  3
KLON33
  1

  4
KLON33
  0
LINE
  5
58F
330
58C
100
AcDbEntity
  8
LC-001-100-D00-0
 62
     7
370
    25
100
AcDbLine
 10
-180.592327
 20
445.691818
 30
0.0
 11
-179.092327
 21
447.191818
 31
0.0
  0
LINE
  5
590
330
58C
100
AcDbEntity
  8
LC-001-100-D00-0
 62
     7
370
    25
100
AcDbLine
 10
-166.01103
 20
460.273117
 30
0.0
 11
-164.51103
 21
461.773117
 31
0.0
  0
LINE
  5
591
330
58C
100
AcDbEntity
  8
LC-001-100-D00-0
 62
     7
370
    25
100
AcDbLine
 10
-203.042967
 20
445.691818
 30
0.0
 11
-201.542967
 21
447.191818
 31
0.0
  0
LINE
  5
592
330
58C
100
AcDbEntity
  8
LC-001-100-D00-0
 62
     7
370
    25
100
AcDbLine
 10
-166.01103
 20
482.723758
 30
0.0
 11
-164.51103
 21
484.223758
 31
0.0
  0
LINE
  5
593
330
58C
100
AcDbEntity
  8
LC-001-100-D00-0
 62
     7
370
    25
100
AcDbLine
 10
-225.493606
 20
445.691818
 30
0.0
 11
-223.993606
 21
447.191818
 31
0.0
  0
LINE
  5
594
330
58C
100
AcDbEntity
  8
LC-001-100-D00-0
 62
     7
370
    25
100
AcDbLine
 10
-166.01103
 20
505.174399
 30
0.0
 11
-164.51103
 21
506.674399
 31
0.0
  0
LINE
  5
595
330
58C
100
AcDbEntity
  8
LC-001-100-D00-0
 62
     7
370
    25
100
AcDbLine
 10
-151.993611
 20
519.191818
 30
0.0
 11
-150.26103
 21
520.9244
 31
0.0
  0
LINE
  5
596
330
58C
100
AcDbEntity
  8
LC-001-100-D00-0
 62
     7
370
    25
100
AcDbLine
 10
-245.689786
 20
447.946278
 30
0.0
 11
-244.596493
 21
449.039572
 31
0.0
  0
LINE
  5
597
330
58C
100
AcDbEntity
  8
LC-001-100-D00-0
 62
     7
370
    25
100
AcDbLine
 10
-246.51103
 20
469.575675
 30
0.0
 11
-245.01103
 21
471.075676
 31
0.0
  0
LINE
  5
598
330
58C
100
AcDbEntity
  8
LC-001-100-D00-0
 62
     7
370
    25
100
AcDbLine
 10
-246.51103
 20
492.026317
 30
0.0
 11
-245.01103
 21
493.526317
 31
0.0
  0
LINE
  5
599
330
58C
100
AcDbEntity
  8
LC-001-100-D00-0
 62
     7
370
    25
100
AcDbLine
 10
-248.116025
 20
512.871962
 30
0.0
 11
-246.685452
 21
514.302535
 31
0.0
  0
ENDBLK
  5
58E
330
58C
100
AcDbEntity
  8
0
100
AcDbBlockEnd
  0
BLOCK
  5
59C
330
59B
100
AcDbEntity
  8
0
100
AcDbBlockBegin
  2
KLON34
 70
     0
 71
     0
 10
0.0
 20
0.0
 30
0.0
  3
KLON34
  1

  4
KLON34
  0
LINE
  5
59E
330
59B
100
AcDbEntity
  8
LC-001-100-D00-0
 62
     7
370
    25
100
AcDbLine
 10
-262.246809
 20
521.191818
 30
0.0
 11
-260.81103
 21
522.627598
 31
0.0
  0
LINE
  5
59F
330
59B
100
AcDbEntity
  8
LC-001-100-D00-0
 62
     7
370
    25
100
AcDbLine
 10
-279.697449
 20
526.191818
 30
0.0
 11
-278.197449
 21
527.691818
 31
0.0
  0
LINE
  5
5A0
330
59B
100
AcDbEntity
  8
LC-001-100-D00-0
 62
     7
370
    25
100
AcDbLine
 10
-297.57564
 20
530.764267
 30
0.0
 11
-296.350895
 21
531.989012
 31
0.0
  0
LINE
  5
5A1
330
59B
100
AcDbEntity
  8
LC-001-100-D00-0
 62
     7
370
    25
100
AcDbLine
 10
-319.598728
 20
531.191818
 30
0.0
 11
-318.098728
 21
532.691818
 31
0.0
  0
LINE
  5
5A2
330
59B
100
AcDbEntity
  8
LC-001-100-D00-0
 62
     7
370
    25
100
AcDbLine
 10
-309.51103
 20
541.279518
 30
0.0
 11
-301.51103
 21
549.279518
 31
0.0
  0
LINE
  5
5A3
330
59B
100
AcDbEntity
  8
LC-001-100-D00-0
 62
     7
370
    25
100
AcDbLine
 10
-342.049368
 20
531.191818
 30
0.0
 11
-340.549368
 21
532.691818
 31
0.0
  0
LINE
  5
5A4
330
59B
100
AcDbEntity
  8
LC-001-100-D00-0
 62
     7
370
    25
100
AcDbLine
 10
-364.500007
 20
531.191818
 30
0.0
 11
-363.000007
 21
532.691818
 31
0.0
  0
LINE
  5
5A5
330
59B
100
AcDbEntity
  8
LC-001-100-D00-0
 62
     7
370
    25
100
AcDbLine
 10
-386.950647
 20
531.191818
 30
0.0
 11
-385.450647
 21
532.691818
 31
0.0
  0
LINE
  5
5A6
330
59B
100
AcDbEntity
  8
LC-001-100-D00-0
 62
     7
370
    25
100
AcDbLine
 10
-409.401286
 20
531.191818
 30
0.0
 11
-407.901286
 21
532.691818
 31
0.0
  0
LINE
  5
5A7
330
59B
100
AcDbEntity
  8
LC-001-100-D00-0
 62
     7
370
    25
100
AcDbLine
 10
-431.851926
 20
531.191818
 30
0.0
 11
-430.351926
 21
532.691818
 31
0.0
  0
LINE
  5
5A8
330
59B
100
AcDbEntity
  8
LC-001-100-D00-0
 62
     7
370
    25
100
AcDbLine
 10
-454.302565
 20
531.191818
 30
0.0
 11
-452.802565
 21
532.691818
 31
0.0
  0
LINE
  5
5A9
330
59B
100
AcDbEntity
  8
LC-001-100-D00-0
 62
     7
370
    25
100
AcDbLine
 10
-476.753205
 20
531.191818
 30
0.0
 11
-472.313365
 21
535.631658
 31
0.0
  0
LINE
  5
5AA
330
59B
100
AcDbEntity
  8
LC-001-100-D00-0
 62
     7
370
    25
100
AcDbLine
 10
-499.074334
 20
531.321329
 30
0.0
 11
-497.701575
 21
532.694088
 31
0.0
  0
LINE
  5
5AB
330
59B
100
AcDbEntity
  8
LC-001-100-D00-0
 62
     7
370
    25
100
AcDbLine
 10
-479.51103
 20
550.884634
 30
0.0
 11
-477.703846
 21
552.691818
 31
0.0
  0
LINE
  5
5AC
330
59B
100
AcDbEntity
  8
LC-001-100-D00-0
 62
     7
370
    25
100
AcDbLine
 10
-507.01103
 20
545.835273
 30
0.0
 11
-505.51103
 21
547.335273
 31
0.0
  0
LINE
  5
5AD
330
59B
100
AcDbEntity
  8
LC-001-100-D00-0
 62
     7
370
    25
100
AcDbLine
 10
-523.605124
 20
551.691818
 30
0.0
 11
-522.105125
 21
553.191818
 31
0.0
  0
LINE
  5
5AE
330
59B
100
AcDbEntity
  8
LC-001-100-D00-0
 62
     7
370
    25
100
AcDbLine
 10
-546.055764
 20
551.691818
 30
0.0
 11
-544.555764
 21
553.191818
 31
0.0
  0
ENDBLK
  5
59D
330
59B
100
AcDbEntity
  8
0
100
AcDbBlockEnd
  0
BLOCK
  5
5B1
330
5B0
100
AcDbEntity
  8
0
100
AcDbBlockBegin
  2
KLON35
 70
     0
 71
     0
 10
0.0
 20
0.0
 30
0.0
  3
KLON35
  1

  4
KLON35
  0
LINE
  5
5B3
330
5B0
100
AcDbEntity
  8
LC-001-100-D00-0
 62
     7
370
    25
100
AcDbLine
 10
127.463421
 20
551.691818
 30
0.0
 11
128.96342
 21
553.191818
 31
0.0
  0
LINE
  5
5B4
330
5B0
100
AcDbEntity
  8
LC-001-100-D00-0
 62
     7
370
    25
100
AcDbLine
 10
84.512783
 20
531.191818
 30
0.0
 11
86.012782
 21
532.691818
 31
0.0
  0
LINE
  5
5B5
330
5B0
100
AcDbEntity
  8
LC-001-100-D00-0
 62
     7
370
    25
100
AcDbLine
 10
94.48897
 20
541.168007
 30
0.0
 11
95.98897
 21
542.668007
 31
0.0
  0
LINE
  5
5B6
330
5B0
100
AcDbEntity
  8
LC-001-100-D00-0
 62
     7
370
    25
100
AcDbLine
 10
105.012781
 20
551.691818
 30
0.0
 11
106.512781
 21
553.191818
 31
0.0
  0
LINE
  5
5B7
330
5B0
100
AcDbEntity
  8
LC-001-100-D00-0
 62
     7
370
    25
100
AcDbLine
 10
62.062143
 20
531.191818
 30
0.0
 11
68.48897
 21
537.618646
 31
0.0
  0
LINE
  5
5B8
330
5B0
100
AcDbEntity
  8
LC-001-100-D00-0
 62
     7
370
    25
100
AcDbLine
 10
39.611504
 20
531.191818
 30
0.0
 11
41.111503
 21
532.691818
 31
0.0
  0
LINE
  5
5B9
330
5B0
100
AcDbEntity
  8
LC-001-100-D00-0
 62
     7
370
    25
100
AcDbLine
 10
17.160864
 20
531.191818
 30
0.0
 11
18.660864
 21
532.691818
 31
0.0
  0
LINE
  5
5BA
330
5B0
100
AcDbEntity
  8
LC-001-100-D00-0
 62
     7
370
    25
100
AcDbLine
 10
-5.289775
 20
531.191818
 30
0.0
 11
-3.789776
 21
532.691818
 31
0.0
  0
LINE
  5
5BB
330
5B0
100
AcDbEntity
  8
LC-001-100-D00-0
 62
     7
370
    25
100
AcDbLine
 10
-27.740415
 20
531.191818
 30
0.0
 11
-26.240415
 21
532.691818
 31
0.0
  0
LINE
  5
5BC
330
5B0
100
AcDbEntity
  8
LC-001-100-D00-0
 62
     7
370
    25
100
AcDbLine
 10
-50.191054
 20
531.191818
 30
0.0
 11
-48.691054
 21
532.691818
 31
0.0
  0
LINE
  5
5BD
330
5B0
100
AcDbEntity
  8
LC-001-100-D00-0
 62
     7
370
    25
100
AcDbLine
 10
-72.641694
 20
531.191818
 30
0.0
 11
-71.141694
 21
532.691818
 31
0.0
  0
LINE
  5
5BE
330
5B0
100
AcDbEntity
  8
LC-001-100-D00-0
 62
     7
370
    25
100
AcDbLine
 10
-95.092333
 20
531.191818
 30
0.0
 11
-93.592333
 21
532.691818
 31
0.0
  0
LINE
  5
5BF
330
5B0
100
AcDbEntity
  8
LC-001-100-D00-0
 62
     7
370
    25
100
AcDbLine
 10
-119.626461
 20
529.10833
 30
0.0
 11
-117.505141
 21
531.22965
 31
0.0
  0
LINE
  5
5C0
330
5B0
100
AcDbEntity
  8
LC-001-100-D00-0
 62
     7
370
    25
100
AcDbLine
 10
-109.51103
 20
539.223762
 30
0.0
 11
-101.51103
 21
547.223763
 31
0.0
  0
LINE
  5
5C1
330
5B0
100
AcDbEntity
  8
LC-001-100-D00-0
 62
     7
370
    25
100
AcDbLine
 10
-149.993612
 20
521.191818
 30
0.0
 11
-148.71103
 21
522.4744
 31
0.0
  0
LINE
  5
5C2
330
5B0
100
AcDbEntity
  8
LC-001-100-D00-0
 62
     7
370
    25
100
AcDbLine
 10
-144.993612
 20
526.191818
 30
0.0
 11
-143.493612
 21
527.691818
 31
0.0
  0
ENDBLK
  5
5B2
330
5B0
100
AcDbEntity
  8
0
100
AcDbBlockEnd
  0
ENDSEC
  0
SECTION
  2
ENTITIES
  0
ARC
  5
31
330
1F
100
AcDbEntity
  8
LC-001-100-D00-0
 62
     7
370
    50
100
AcDbCircle
 10
91.988976
 20
73.06608
 30
0.0
 40
2.5
100
AcDbArc
 50
270.0
 51
0.0
  0
LINE
  5
32
330
1F
100
AcDbEntity
  8
LC-001-100-D00-0
 62
     7
370
    50
100
AcDbLine
 10
94.488976
 20
73.06608
 30
0.0
 11
94.488976
 21
120.06608
 31
0.0
  0
ARC
  5
33
330
1F
100
AcDbEntity
  8
LC-001-100-D00-0
 62
     7
370
    50
100
AcDbCircle
 10
91.988976
 20
120.06608
 30
0.0
 40
2.5
100
AcDbArc
 50
0.0
 51
90.0
  0
LINE
  5
34
330
1F
100
AcDbEntity
  8
LC-001-100-D00-0
 62
     7
370
    50
100
AcDbLine
 10
91.988976
 20
70.56608
 30
0.0
 11
-503.011024
 21
70.56608
 31
0.0
  0
LINE
  5
35
330
1F
100
AcDbEntity
  8
LC-001-100-D00-0
 62
     7
370
    50
100
AcDbLine
 10
-503.011024
 20
122.56608
 30
0.0
 11
91.988976
 21
122.56608
 31
0.0
  0
ARC
  5
36
330
1F
100
AcDbEntity
  8
LC-001-100-D00-0
 62
     7
370
    50
100
AcDbCircle
 10
-503.011024
 20
120.06608
 30
0.0
 40
2.5
100
AcDbArc
 50
90.0
 51
180.0
  0
ARC
  5
37
330
1F
100
AcDbEntity
  8
LC-001-100-D00-0
 62
     7
370
    50
100
AcDbCircle
 10
-503.011024
 20
73.06608
 30
0.0
 40
2.5
100
AcDbArc
 50
180.0
 51
270.0
  0
LINE
  5
38
330
1F
100
AcDbEntity
  8
LC-001-100-D00-0
 62
     7
370
    50
100
AcDbLine
 10
-505.511024
 20
73.06608
 30
0.0
 11
-505.511024
 21
120.06608
 31
0.0
  0
ARC
  5
39
330
1F
100
AcDbEntity
  8
LC-001-100-D00-0
 62
     7
370
    50
100
AcDbCircle
 10
-550.511024
 20
169.06608
 30
0.0
 40
5.0
100
AcDbArc
 50
90.0
 51
180.0
  0
LINE
  5
3A
330
1F
100
AcDbEntity
  8
LC-001-100-D00-0
 62
     7
370
    25
100
AcDbLine
 10
139.488976
 20
174.06608
 30
0.0
 11
-550.511024
 21
174.06608
 31
0.0
  0
ARC
  5
3B
330
1F
100
AcDbEntity
  8
LC-001-100-D00-0
 62
     7
370
    50
100
AcDbCircle
 10
139.488976
 20
169.06608
 30
0.0
 40
5.0
100
AcDbArc
 50
0.0
 51
90.0
  0
LINE
  5
3C
330
1F
100
AcDbEntity
  8
LC-001-100-D00-0
 62
     7
370
    50
100
AcDbLine
 10
-550.511024
 20
19.06608
 30
0.0
 11
139.488976
 21
19.06608
 31
0.0
  0
ARC
  5
3D
330
1F
100
AcDbEntity
  8
LC-001-100-D00-0
 62
     7
370
    50
100
AcDbCircle
 10
-550.511024
 20
24.06608
 30
0.0
 40
5.0
100
AcDbArc
 50
180.0
 51
270.0
  0
LINE
  5
3E
330
1F
100
AcDbEntity
  8
LC-001-100-D00-0
 62
     7
370
    50
100
AcDbLine
 10
-555.511024
 20
169.06608
 30
0.0
 11
-555.511024
 21
24.06608
 31
0.0
  0
ARC
  5
3F
330
1F
100
AcDbEntity
  8
LC-001-100-D00-0
 62
     7
370
    50
100
AcDbCircle
 10
139.488976
 20
24.06608
 30
0.0
 40
5.0
100
AcDbArc
 50
270.0
 51
0.0
  0
LINE
  5
40
330
1F
100
AcDbEntity
  8
LC-001-100-D00-0
 62
     7
370
    50
100
AcDbLine
 10
144.488976
 20
169.06608
 30
0.0
 11
144.488976
 21
24.06608
 31
0.0
  0
CIRCLE
  5
41
330
1F
100
AcDbEntity
  8
LC-001-100-D00-0
 62
     7
370
    50
100
AcDbCircle
 10
64.488976
 20
96.56608
 30
0.0
 40
3.000000000000227
  0
CIRCLE
  5
42
330
1F
100
AcDbEntity
  8
LC-001-100-D00-0
 62
     7
370
    50
100
AcDbCircle
 10
-105.511024
 20
96.56608
 30
0.0
 40
2.999999999999886
  0
CIRCLE
  5
43
330
1F
100
AcDbEntity
  8
LC-001-100-D00-0
 62
     7
370
    50
100
AcDbCircle
 10
-305.511024
 20
96.56608
 30
0.0
 40
3.000000000000227
  0
CIRCLE
  5
44
330
1F
100
AcDbEntity
  8
LC-001-100-D00-0
 62
     7
370
    50
100
AcDbCircle
 10
-475.511024
 20
96.56608
 30
0.0
 40
3.000000000000227
  0
INSERT
  5
4A
330
1F
100
AcDbEntity
  8
LC-001-100-D00-0
 62
     7
370
    50
100
AcDbBlockReference
  2
KLON1
 10
0.0
 20
0.0
 30
0.0
  0
LINE
  5
4B
330
1F
100
AcDbEntity
  8
LC-001-100-D00-0
 62
     7
370
    50
100
AcDbLine
 10
86.462776
 20
84.243411
 30
0.0
 11
86.462776
 21
73.066081
 31
0.0
  0
ARC
  5
4C
330
1F
100
AcDbEntity
  8
LC-001-100-D00-0
 62
     7
370
    50
100
AcDbCircle
 10
849.648937
 20
-35.048085
 30
0.0
 40
772.4529614869404
100
AcDbArc
 50
171.103568
 51
171.116141
  0
INSERT
  5
54
330
1F
100
AcDbEntity
  8
LC-001-100-D00-0
 62
     7
370
    50
100
AcDbBlockReference
  2
KLON2
 10
0.0
 20
0.0
 30
0.0
  0
LINE
  5
55
330
1F
100
AcDbEntity
  8
LC-001-100-D00-0
 62
     7
370
    50
100
AcDbLine
 10
86.462776
 20
120.051441
 30
0.0
 11
86.462776
 21
108.888749
 31
0.0
  0
INSERT
  5
5B
330
1F
100
AcDbEntity
  8
LC-001-100-D00-0
 62
     7
370
    50
100
AcDbBlockReference
  2
KLON3
 10
0.0
 20
0.0
 30
0.0
  0
INSERT
  5
61
330
1F
100
AcDbEntity
  8
LC-001-100-D00-0
 62
     7
370
    50
100
AcDbBlockReference
  2
KLON4
 10
0.0
 20
0.0
 30
0.0
  0
LINE
  5
62
330
1F
100
AcDbEntity
  8
LC-001-100-D00-0
 62
     7
370
    50
100
AcDbLine
 10
-497.484823
 20
120.051441
 30
0.0
 11
-497.484823
 21
108.888749
 31
0.0
  0
INSERT
  5
6A
330
1F
100
AcDbEntity
  8
LC-001-100-D00-0
 62
     7
370
    50
100
AcDbBlockReference
  2
KLON5
 10
0.0
 20
0.0
 30
0.0
  0
ARC
  5
6B
330
1F
100
AcDbEntity
  8
LC-001-100-D00-0
 62
     7
370
    50
100
AcDbCircle
 10
-1260.670984
 20
-35.048085
 30
0.0
 40
772.452961486941
100
AcDbArc
 50
8.883859
 51
8.896432
  0
LINE
  5
6C
330
1F
100
AcDbEntity
  8
LC-001-100-D00-0
 62
     7
370
    50
100
AcDbLine
 10
-497.484823
 20
84.243411
 30
0.0
 11
-497.484823
 21
73.066081
 31
0.0
  0
INSERT
  5
72
330
1F
100
AcDbEntity
  8
LC-001-100-D00-0
 62
     7
370
    50
100
AcDbBlockReference
  2
KLON6
 10
0.0
 20
0.0
 30
0.0
  0
ELLIPSE
  5
73
330
1F
100
AcDbEntity
  8
LC-001-100-D00-0
 62
     7
370
    50
100
AcDbEllipse
 10
86.416008
 20
73.06608
 30
0.0
 11
0.0
 21
-2.499999635696385
 31
0.0
210
0.0
220
0.0
230
1.0
 40
0.018242
 41
3.141592653594779
 42
4.712388980377101
  0
ELLIPSE
  5
74
330
1F
100
AcDbEntity
  8
LC-001-100-D00-0
 62
     7
370
    50
100
AcDbEllipse
 10
-50.583992
 20
73.06608
 30
0.0
 11
0.0
 21
-2.500000061511992
 31
0.0
210
0.0
220
0.0
230
1.0
 40
0.018242
 41
3.141592653591196
 42
4.71238898038104
  0
ELLIPSE
  5
75
330
1F
100
AcDbEntity
  8
LC-001-100-D00-0
 62
     7
370
    50
100
AcDbEllipse
 10
154.961613
 20
73.06608
 30
0.0
 11
68.49999999988512
 21
0.0
 31
0.0
210
0.0
220
0.0
230
1.0
 40
0.036496
 41
3.141592653597689
 42
3.169858841660745
  0
ELLIPSE
  5
76
330
1F
100
AcDbEntity
  8
LC-001-100-D00-0
 62
     7
370
    50
100
AcDbEllipse
 10
-497.438055
 20
73.06608
 30
0.0
 11
0.0
 21
-2.500000061035156
 31
0.0
210
0.0
220
0.0
230
1.0
 40
0.018242
 41
1.570796326802548
 42
3.141592653589793
  0
ELLIPSE
  5
77
330
1F
100
AcDbEntity
  8
LC-001-100-D00-0
 62
     7
370
    50
100
AcDbEllipse
 10
-360.438055
 20
73.06608
 30
0.0
 11
0.0
 21
-2.499999954223632
 31
0.0
210
0.0
220
0.0
230
1.0
 40
0.018242
 41
1.570796326798523
 42
3.141592653591039
  0
ELLIPSE
  5
78
330
1F
100
AcDbEntity
  8
LC-001-100-D00-0
 62
     7
370
    50
100
AcDbEllipse
 10
-565.983661
 20
73.06608
 30
0.0
 11
68.50000000001266
 21
0.0
 31
0.0
210
0.0
220
0.0
230
1.0
 40
0.036496
 41
6.254919119109461
 42
6.283185307179603
  0
ELLIPSE
  5
79
330
1F
100
AcDbEntity
  8
LC-001-100-D00-0
 62
     7
370
    50
100
AcDbEllipse
 10
154.961613
 20
120.06608
 30
0.0
 11
68.50000000081623
 21
0.0
 31
0.0
210
0.0
220
0.0
230
1.0
 40
0.036496
 41
3.141592653589833
 42
3.147448628039423
  0
ELLIPSE
  5
7A
330
1F
100
AcDbEntity
  8
LC-001-100-D00-0
 62
     7
370
    50
100
AcDbEllipse
 10
86.416008
 20
120.06608
 30
0.0
 11
0.0
 21
-2.5
 31
0.0
210
0.0
220
0.0
230
1.0
 40
0.018242
 41
4.712388980384673
 42
6.283185357505142
  0
ELLIPSE
  5
7B
330
1F
100
AcDbEntity
  8
LC-001-100-D00-0
 62
     7
370
    50
100
AcDbEllipse
 10
-565.983661
 20
120.06608
 30
0.0
 11
68.50000000001255
 21
0.0
 31
0.0
210
0.0
220
0.0
230
1.0
 40
0.036496
 41
6.277329332730745
 42
6.283185307179586
  0
ELLIPSE
  5
7C
330
1F
100
AcDbEntity
  8
LC-001-100-D00-0
 62
     7
370
    50
100
AcDbEllipse
 10
-497.438055
 20
120.06608
 30
0.0
 11
0.0
 21
-2.499999755859363
 31
0.0
210
0.0
220
0.0
230
0.9999999999999999
 40
0.018242
 41
6.28318525684904
 42
7.853981633974478
  0
ELLIPSE
  5
7D
330
1F
100
AcDbEntity
  8
LC-001-100-D00-0
 62
     7
370
    50
100
AcDbEllipse
 10
-50.583992
 20
120.06608
 30
0.0
 11
0.0
 21
-2.499999816894525
 31
0.0
210
0.0
220
0.0
230
0.9999999999999999
 40
0.018242
 41
4.712388980388595
 42
6.283185315680188
  0
ELLIPSE
  5
7E
330
1F
100
AcDbEntity
  8
LC-001-100-D00-0
 62
     7
370
    50
100
AcDbEllipse
 10
-360.438055
 20
120.06608
 30
0.0
 11
0.0
 21
-2.5
 31
0.0
210
0.0
220
0.0
230
1.0
 40
0.018242
 41
6.283185298683971
 42
7.853981633970721
  0
LINE
  5
7F
330
1F
100
AcDbEntity
  8
LC-001-100-D00-0
 62
     7
370
    50
100
AcDbLine
 10
-50.538381
 20
73.066081
 30
0.0
 11
-50.538381
 21
75.916597
 31
0.0
  0
INSERT
  5
85
330
1F
100
AcDbEntity
  8
LC-001-100-D00-0
 62
     7
370
    50
100
AcDbBlockReference
  2
KLON7
 10
0.0
 20
0.0
 30
0.0
  0
INSERT
  5
8B
330
1F
100
AcDbEntity
  8
LC-001-100-D00-0
 62
     7
370
    50
100
AcDbBlockReference
  2
KLON8
 10
0.0
 20
0.0
 30
0.0
  0
LINE
  5
8C
330
1F
100
AcDbEntity
  8
LC-001-100-D00-0
 62
     7
370
    50
100
AcDbLine
 10
-360.483666
 20
73.066081
 30
0.0
 11
-360.483666
 21
75.916597
 31
0.0
  0
INSERT
  5
93
330
1F
100
AcDbEntity
  8
LC-001-100-D00-0
 62
     7
370
    50
100
AcDbBlockReference
  2
KLON9
 10
0.0
 20
0.0
 30
0.0
  0
INSERT
  5
9A
330
1F
100
AcDbEntity
  8
LC-001-100-D00-0
 62
     7
370
    50
100
AcDbBlockReference
  2
KLON10
 10
0.0
 20
0.0
 30
0.0
  0
INSERT
  5
A0
330
1F
100
AcDbEntity
  8
LC-001-100-D00-0
 62
     7
370
    50
100
AcDbBlockReference
  2
KLON11
 10
0.0
 20
0.0
 30
0.0
  0
INSERT
  5
A7
330
1F
100
AcDbEntity
  8
LC-001-100-D00-0
 62
     7
370
    50
100
AcDbBlockReference
  2
KLON12
 10
0.0
 20
0.0
 30
0.0
  0
INSERT
  5
AE
330
1F
100
AcDbEntity
  8
LC-001-100-D00-0
 62
     7
370
    50
100
AcDbBlockReference
  2
KLON13
 10
0.0
 20
0.0
 30
0.0
  0
INSERT
  5
B4
330
1F
100
AcDbEntity
  8
LC-001-100-D00-0
 62
     7
370
    50
100
AcDbBlockReference
  2
KLON14
 10
0.0
 20
0.0
 30
0.0
  0
LINE
  5
B5
330
1F
100
AcDbEntity
  8
LC-001-100-D00-0
 62
     7
370
    50
100
AcDbLine
 10
-50.538381
 20
117.215564
 30
0.0
 11
-50.538381
 21
120.066079
 31
0.0
  0
LINE
  5
B6
330
1F
100
AcDbEntity
  8
LC-001-100-D00-0
 62
     7
370
    50
100
AcDbLine
 10
-360.483666
 20
117.215564
 30
0.0
 11
-360.483666
 21
120.066079
 31
0.0
  0
LINE
  5
B7
330
1F
100
AcDbEntity
  8
LC-001-100-D00-0
 62
     7
370
    50
100
AcDbLine
 10
-50.524121
 20
76.710402
 30
0.0
 11
-50.524121
 21
90.705129
 31
0.0
  0
ELLIPSE
  5
B8
330
1F
100
AcDbEntity
  8
LC-001-100-D00-0
 62
     7
370
    50
100
AcDbEllipse
 10
-193.770835
 20
68.145272
 30
0.0
 11
143.246651349787
 21
8.567474729959217
 31
0.0
210
0.0
220
0.0
230
1.0
 40
0.016531
 41
6.28099466593927
 42
6.282196627517029
  0
ELLIPSE
  5
B9
330
1F
100
AcDbEntity
  8
LC-001-100-D00-0
 62
     7
370
    50
100
AcDbEllipse
 10
-193.770835
 20
124.986888
 30
0.0
 11
143.246651239552
 21
-8.567474723366116
 31
0.0
210
0.0
220
0.0
230
1.0
 40
0.016531
 41
0.0009886796644803
 42
0.0021906412421392
  0
LINE
  5
BA
330
1F
100
AcDbEntity
  8
LC-001-100-D00-0
 62
     7
370
    50
100
AcDbLine
 10
-50.524121
 20
102.427031
 30
0.0
 11
-50.524121
 21
116.421758
 31
0.0
  0
ELLIPSE
  5
BB
330
1F
100
AcDbEntity
  8
LC-001-100-D00-0
 62
     7
370
    50
100
AcDbEllipse
 10
-217.251212
 20
68.145272
 30
0.0
 11
143.2466514780934
 21
-8.56747473763342
 31
0.0
210
0.0
220
0.0
230
1.0
 40
0.016531
 41
3.142581333253772
 42
3.143783294831477
  0
LINE
  5
BC
330
1F
100
AcDbEntity
  8
LC-001-100-D00-0
 62
     7
370
    50
100
AcDbLine
 10
-360.497927
 20
76.710402
 30
0.0
 11
-360.497927
 21
90.705129
 31
0.0
  0
ELLIPSE
  5
BD
330
1F
100
AcDbEntity
  8
LC-001-100-D00-0
 62
     7
370
    50
100
AcDbEllipse
 10
-217.251212
 20
124.986888
 30
0.0
 11
143.2466511913111
 21
8.567474720480863
 31
0.0
210
0.0
220
0.0
230
1.0
 40
0.016531
 41
3.139402012353979
 42
3.140603973931417
  0
LINE
  5
BE
330
1F
100
AcDbEntity
  8
LC-001-100-D00-0
 62
     7
370
    50
100
AcDbLine
 10
-360.497927
 20
102.427031
 30
0.0
 11
-360.497927
 21
116.421758
 31
0.0
  0
LINE
  5
BF
330
1F
100
AcDbEntity
  8
LC-001-100-D00-0
 62
     7
370
    50
100
AcDbLine
 10
-50.538381
 20
75.916969
 30
0.0
 11
-50.52421
 21
76.707539
 31
0.0
  0
LINE
  5
C0
330
1F
100
AcDbEntity
  8
LC-001-100-D00-0
 62
     7
370
    50
100
AcDbLine
 10
-50.538381
 20
117.215191
 30
0.0
 11
-50.52421
 21
116.424621
 31
0.0
  0
LINE
  5
C1
330
1F
100
AcDbEntity
  8
LC-001-100-D00-0
 62
     7
370
    50
100
AcDbLine
 10
-360.483666
 20
75.916969
 30
0.0
 11
-360.497837
 21
76.707539
 31
0.0
  0
LINE
  5
C2
330
1F
100
AcDbEntity
  8
LC-001-100-D00-0
 62
     7
370
    50
100
AcDbLine
 10
-360.483666
 20
117.215191
 30
0.0
 11
-360.497837
 21
116.424621
 31
0.0
  0
ARC
  5
C3
330
1F
100
AcDbEntity
  8
LC-001-100-D00-0
 62
     7
370
    50
100
AcDbCircle
 10
-175.011032
 20
96.566101
 30
0.0
 40
24.80002105913741
100
AcDbArc
 50
270.0
 51
300.592807
  0
ARC
  5
C4
330
1F
100
AcDbEntity
  8
LC-001-100-D00-0
 62
     7
370
    50
100
AcDbCircle
 10
-236.011016
 20
96.566101
 30
0.0
 40
24.80002105913727
100
AcDbArc
 50
239.407193
 51
270.0
  0
ARC
  5
C5
330
1F
100
AcDbEntity
  8
LC-001-100-D00-0
 62
     7
370
    50
100
AcDbCircle
 10
-175.011029
 20
96.566067
 30
0.0
 40
24.80001358063619
100
AcDbArc
 50
59.407188
 51
90.0
  0
ARC
  5
C6
330
1F
100
AcDbEntity
  8
LC-001-100-D00-0
 62
     7
370
    50
100
AcDbCircle
 10
-236.011018
 20
96.566067
 30
0.0
 40
24.80001358063646
100
AcDbArc
 50
90.0
 51
120.592812
  0
LINE
  5
C7
330
1F
100
AcDbEntity
  8
LC-001-100-D00-0
 62
     7
370
    50
100
AcDbLine
 10
-236.011024
 20
121.366081
 30
0.0
 11
-175.011023
 21
121.366081
 31
0.0
  0
LINE
  5
C8
330
1F
100
AcDbEntity
  8
LC-001-100-D00-0
 62
     7
370
    50
100
AcDbLine
 10
-175.011023
 20
71.76608
 30
0.0
 11
-236.011024
 21
71.76608
 31
0.0
  0
LINE
  5
C9
330
1F
100
AcDbEntity
  8
LC-001-100-D00-0
 62
     7
370
    50
100
AcDbLine
 10
-272.343857
 20
100.004983
 30
0.0
 11
-272.335713
 21
99.637092
 31
0.0
  0
LINE
  5
CA
330
1F
100
AcDbEntity
  8
LC-001-100-D00-0
 62
     7
370
    50
100
AcDbLine
 10
-273.455133
 20
100.797952
 30
0.0
 11
-272.343857
 21
100.004983
 31
0.0
  0
LINE
  5
CB
330
1F
100
AcDbEntity
  8
LC-001-100-D00-0
 62
     7
370
    50
100
AcDbLine
 10
-272.343857
 20
101.590921
 30
0.0
 11
-273.455133
 21
100.797952
 31
0.0
  0
LINE
  5
CC
330
1F
100
AcDbEntity
  8
LC-001-100-D00-0
 62
     7
370
    50
100
AcDbLine
 10
-272.343857
 20
101.964619
 30
0.0
 11
-272.343857
 21
101.590921
 31
0.0
  0
LINE
  5
CD
330
1F
100
AcDbEntity
  8
LC-001-100-D00-0
 62
     7
370
    50
100
AcDbLine
 10
-273.717356
 20
100.985151
 30
0.0
 11
-272.343857
 21
101.964619
 31
0.0
  0
LINE
  5
CE
330
1F
100
AcDbEntity
  8
LC-001-100-D00-0
 62
     7
370
    50
100
AcDbLine
 10
-274.901552
 20
101.830003
 30
0.0
 11
-273.717356
 21
100.985151
 31
0.0
  0
LINE
  5
CF
330
1F
100
AcDbEntity
  8
LC-001-100-D00-0
 62
     7
370
    50
100
AcDbLine
 10
-274.901552
 20
101.456305
 30
0.0
 11
-274.901552
 21
101.830003
 31
0.0
  0
LINE
  5
D0
330
1F
100
AcDbEntity
  8
LC-001-100-D00-0
 62
     7
370
    50
100
AcDbLine
 10
-273.978872
 20
100.797952
 30
0.0
 11
-274.901552
 21
101.456305
 31
0.0
  0
LINE
  5
D1
330
1F
100
AcDbEntity
  8
LC-001-100-D00-0
 62
     7
370
    50
100
AcDbLine
 10
-274.901552
 20
100.139599
 30
0.0
 11
-273.978872
 21
100.797952
 31
0.0
  0
LINE
  5
D2
330
1F
100
AcDbEntity
  8
LC-001-100-D00-0
 62
     7
370
    50
100
AcDbLine
 10
-274.901552
 20
99.765901
 30
0.0
 11
-274.901552
 21
100.139599
 31
0.0
  0
LINE
  5
D3
330
1F
100
AcDbEntity
  8
LC-001-100-D00-0
 62
     7
370
    50
100
AcDbLine
 10
-273.717356
 20
100.611454
 30
0.0
 11
-274.901552
 21
99.765901
 31
0.0
  0
LINE
  5
D4
330
1F
100
AcDbEntity
  8
LC-001-100-D00-0
 62
     7
370
    50
100
AcDbLine
 10
-272.335713
 20
99.637092
 30
0.0
 11
-273.717356
 21
100.611454
 31
0.0
  0
LINE
  5
D5
330
1F
100
AcDbEntity
  8
LC-001-100-D00-0
 62
     7
370
    50
100
AcDbLine
 10
-272.343857
 20
95.338317
 30
0.0
 11
-272.335713
 21
94.970425
 31
0.0
  0
LINE
  5
D6
330
1F
100
AcDbEntity
  8
LC-001-100-D00-0
 62
     7
370
    50
100
AcDbLine
 10
-273.455133
 20
96.131285
 30
0.0
 11
-272.343857
 21
95.338317
 31
0.0
  0
LINE
  5
D7
330
1F
100
AcDbEntity
  8
LC-001-100-D00-0
 62
     7
370
    50
100
AcDbLine
 10
-272.343857
 20
96.924254
 30
0.0
 11
-273.455133
 21
96.131285
 31
0.0
  0
LINE
  5
D8
330
1F
100
AcDbEntity
  8
LC-001-100-D00-0
 62
     7
370
    50
100
AcDbLine
 10
-272.343857
 20
97.297952
 30
0.0
 11
-272.343857
 21
96.924254
 31
0.0
  0
LINE
  5
D9
330
1F
100
AcDbEntity
  8
LC-001-100-D00-0
 62
     7
370
    50
100
AcDbLine
 10
-273.717356
 20
96.318485
 30
0.0
 11
-272.343857
 21
97.297952
 31
0.0
  0
LINE
  5
DA
330
1F
100
AcDbEntity
  8
LC-001-100-D00-0
 62
     7
370
    50
100
AcDbLine
 10
-274.901552
 20
97.163337
 30
0.0
 11
-273.717356
 21
96.318485
 31
0.0
  0
LINE
  5
DB
330
1F
100
AcDbEntity
  8
LC-001-100-D00-0
 62
     7
370
    50
100
AcDbLine
 10
-274.901552
 20
96.789639
 30
0.0
 11
-274.901552
 21
97.163337
 31
0.0
  0
LINE
  5
DC
330
1F
100
AcDbEntity
  8
LC-001-100-D00-0
 62
     7
370
    50
100
AcDbLine
 10
-273.978872
 20
96.131285
 30
0.0
 11
-274.901552
 21
96.789639
 31
0.0
  0
LINE
  5
DD
330
1F
100
AcDbEntity
  8
LC-001-100-D00-0
 62
     7
370
    50
100
AcDbLine
 10
-274.901552
 20
95.472932
 30
0.0
 11
-273.978872
 21
96.131285
 31
0.0
  0
LINE
  5
DE
330
1F
100
AcDbEntity
  8
LC-001-100-D00-0
 62
     7
370
    50
100
AcDbLine
 10
-274.901552
 20
95.099234
 30
0.0
 11
-274.901552
 21
95.472932
 31
0.0
  0
LINE
  5
DF
330
1F
100
AcDbEntity
  8
LC-001-100-D00-0
 62
     7
370
    50
100
AcDbLine
 10
-273.717356
 20
95.944787
 30
0.0
 11
-274.901552
 21
95.099234
 31
0.0
  0
LINE
  5
E0
330
1F
100
AcDbEntity
  8
LC-001-100-D00-0
 62
     7
370
    50
100
AcDbLine
 10
-272.335713
 20
94.970425
 30
0.0
 11
-273.717356
 21
95.944787
 31
0.0
  0
LINE
  5
E1
330
1F
100
AcDbEntity
  8
LC-001-100-D00-0
 62
     7
370
    50
100
AcDbLine
 10
-272.343857
 20
90.67165
 30
0.0
 11
-272.335713
 21
90.303758
 31
0.0
  0
LINE
  5
E2
330
1F
100
AcDbEntity
  8
LC-001-100-D00-0
 62
     7
370
    50
100
AcDbLine
 10
-273.455133
 20
91.464619
 30
0.0
 11
-272.343857
 21
90.67165
 31
0.0
  0
LINE
  5
E3
330
1F
100
AcDbEntity
  8
LC-001-100-D00-0
 62
     7
370
    50
100
AcDbLine
 10
-272.343857
 20
92.257587
 30
0.0
 11
-273.455133
 21
91.464619
 31
0.0
  0
LINE
  5
E4
330
1F
100
AcDbEntity
  8
LC-001-100-D00-0
 62
     7
370
    50
100
AcDbLine
 10
-272.343857
 20
92.631285
 30
0.0
 11
-272.343857
 21
92.257587
 31
0.0
  0
LINE
  5
E5
330
1F
100
AcDbEntity
  8
LC-001-100-D00-0
 62
     7
370
    50
100
AcDbLine
 10
-273.717356
 20
91.651818
 30
0.0
 11
-272.343857
 21
92.631285
 31
0.0
  0
LINE
  5
E6
330
1F
100
AcDbEntity
  8
LC-001-100-D00-0
 62
     7
370
    50
100
AcDbLine
 10
-274.901552
 20
92.49667
 30
0.0
 11
-273.717356
 21
91.651818
 31
0.0
  0
LINE
  5
E7
330
1F
100
AcDbEntity
  8
LC-001-100-D00-0
 62
     7
370
    50
100
AcDbLine
 10
-274.901552
 20
92.122972
 30
0.0
 11
-274.901552
 21
92.49667
 31
0.0
  0
LINE
  5
E8
330
1F
100
AcDbEntity
  8
LC-001-100-D00-0
 62
     7
370
    50
100
AcDbLine
 10
-273.978872
 20
91.464619
 30
0.0
 11
-274.901552
 21
92.122972
 31
0.0
  0
LINE
  5
E9
330
1F
100
AcDbEntity
  8
LC-001-100-D00-0
 62
     7
370
    50
100
AcDbLine
 10
-274.901552
 20
90.806266
 30
0.0
 11
-273.978872
 21
91.464619
 31
0.0
  0
LINE
  5
EA
330
1F
100
AcDbEntity
  8
LC-001-100-D00-0
 62
     7
370
    50
100
AcDbLine
 10
-274.901552
 20
90.432567
 30
0.0
 11
-274.901552
 21
90.806266
 31
0.0
  0
LINE
  5
EB
330
1F
100
AcDbEntity
  8
LC-001-100-D00-0
 62
     7
370
    50
100
AcDbLine
 10
-273.717356
 20
91.27812
 30
0.0
 11
-274.901552
 21
90.432567
 31
0.0
  0
LINE
  5
EC
330
1F
100
AcDbEntity
  8
LC-001-100-D00-0
 62
     7
370
    50
100
AcDbLine
 10
-272.335713
 20
90.303758
 30
0.0
 11
-273.717356
 21
91.27812
 31
0.0
  0
LINE
  5
ED
330
1F
100
AcDbEntity
  8
LC-001-100-D00-0
 62
     7
370
    50
100
AcDbLine
 10
-272.343857
 20
88.338317
 30
0.0
 11
-272.343857
 21
87.964619
 31
0.0
  0
LINE
  5
EE
330
1F
100
AcDbEntity
  8
LC-001-100-D00-0
 62
     7
370
    50
100
AcDbLine
 10
-273.455133
 20
89.131285
 30
0.0
 11
-272.343857
 21
88.338317
 31
0.0
  0
LINE
  5
EF
330
1F
100
AcDbEntity
  8
LC-001-100-D00-0
 62
     7
370
    50
100
AcDbLine
 10
-272.343857
 20
89.924254
 30
0.0
 11
-273.455133
 21
89.131285
 31
0.0
  0
LINE
  5
F0
330
1F
100
AcDbEntity
  8
LC-001-100-D00-0
 62
     7
370
    50
100
AcDbLine
 10
-272.343857
 20
90.297952
 30
0.0
 11
-272.343857
 21
89.924254
 31
0.0
  0
LINE
  5
F1
330
1F
100
AcDbEntity
  8
LC-001-100-D00-0
 62
     7
370
    50
100
AcDbLine
 10
-273.717356
 20
89.318485
 30
0.0
 11
-272.343857
 21
90.297952
 31
0.0
  0
LINE
  5
F2
330
1F
100
AcDbEntity
  8
LC-001-100-D00-0
 62
     7
370
    50
100
AcDbLine
 10
-274.901552
 20
90.163337
 30
0.0
 11
-273.717356
 21
89.318485
 31
0.0
  0
LINE
  5
F3
330
1F
100
AcDbEntity
  8
LC-001-100-D00-0
 62
     7
370
    50
100
AcDbLine
 10
-274.901552
 20
89.789639
 30
0.0
 11
-274.901552
 21
90.163337
 31
0.0
  0
LINE
  5
F4
330
1F
100
AcDbEntity
  8
LC-001-100-D00-0
 62
     7
370
    50
100
AcDbLine
 10
-273.978872
 20
89.131285
 30
0.0
 11
-274.901552
 21
89.789639
 31
0.0
  0
LINE
  5
F5
330
1F
100
AcDbEntity
  8
LC-001-100-D00-0
 62
     7
370
    50
100
AcDbLine
 10
-274.901552
 20
88.472932
 30
0.0
 11
-273.978872
 21
89.131285
 31
0.0
  0
LINE
  5
F6
330
1F
100
AcDbEntity
  8
LC-001-100-D00-0
 62
     7
370
    50
100
AcDbLine
 10
-274.901552
 20
88.099234
 30
0.0
 11
-274.901552
 21
88.472932
 31
0.0
  0
LINE
  5
F7
330
1F
100
AcDbEntity
  8
LC-001-100-D00-0
 62
     7
370
    50
100
AcDbLine
 10
-273.717356
 20
88.944787
 30
0.0
 11
-274.901552
 21
88.099234
 31
0.0
  0
LINE
  5
F8
330
1F
100
AcDbEntity
  8
LC-001-100-D00-0
 62
     7
370
    50
100
AcDbLine
 10
-272.343857
 20
87.964619
 30
0.0
 11
-273.717356
 21
88.944787
 31
0.0
  0
LINE
  5
F9
330
1F
100
AcDbEntity
  8
LC-001-100-D00-0
 62
     7
370
    50
100
AcDbLine
 10
-272.343857
 20
93.004983
 30
0.0
 11
-272.335713
 21
92.637092
 31
0.0
  0
LINE
  5
FA
330
1F
100
AcDbEntity
  8
LC-001-100-D00-0
 62
     7
370
    50
100
AcDbLine
 10
-273.455133
 20
93.797952
 30
0.0
 11
-272.343857
 21
93.004983
 31
0.0
  0
LINE
  5
FB
330
1F
100
AcDbEntity
  8
LC-001-100-D00-0
 62
     7
370
    50
100
AcDbLine
 10
-272.343857
 20
94.590921
 30
0.0
 11
-273.455133
 21
93.797952
 31
0.0
  0
LINE
  5
FC
330
1F
100
AcDbEntity
  8
LC-001-100-D00-0
 62
     7
370
    50
100
AcDbLine
 10
-272.343857
 20
94.964619
 30
0.0
 11
-272.343857
 21
94.590921
 31
0.0
  0
LINE
  5
FD
330
1F
100
AcDbEntity
  8
LC-001-100-D00-0
 62
     7
370
    50
100
AcDbLine
 10
-273.717356
 20
93.985152
 30
0.0
 11
-272.343857
 21
94.964619
 31
0.0
  0
LINE
  5
FE
330
1F
100
AcDbEntity
  8
LC-001-100-D00-0
 62
     7
370
    50
100
AcDbLine
 10
-274.901552
 20
94.830003
 30
0.0
 11
-273.717356
 21
93.985152
 31
0.0
  0
LINE
  5
FF
330
1F
100
AcDbEntity
  8
LC-001-100-D00-0
 62
     7
370
    50
100
AcDbLine
 10
-274.901552
 20
94.456305
 30
0.0
 11
-274.901552
 21
94.830003
 31
0.0
  0
LINE
  5
100
330
1F
100
AcDbEntity
  8
LC-001-100-D00-0
 62
     7
370
    50
100
AcDbLine
 10
-273.978872
 20
93.797952
 30
0.0
 11
-274.901552
 21
94.456305
 31
0.0
  0
LINE
  5
101
330
1F
100
AcDbEntity
  8
LC-001-100-D00-0
 62
     7
370
    50
100
AcDbLine
 10
-274.901552
 20
93.139599
 30
0.0
 11
-273.978872
 21
93.797952
 31
0.0
  0
LINE
  5
102
330
1F
100
AcDbEntity
  8
LC-001-100-D00-0
 62
     7
370
    50
100
AcDbLine
 10
-274.901552
 20
92.765901
 30
0.0
 11
-274.901552
 21
93.139599
 31
0.0
  0
LINE
  5
103
330
1F
100
AcDbEntity
  8
LC-001-100-D00-0
 62
     7
370
    50
100
AcDbLine
 10
-273.717356
 20
93.611454
 30
0.0
 11
-274.901552
 21
92.765901
 31
0.0
  0
LINE
  5
104
330
1F
100
AcDbEntity
  8
LC-001-100-D00-0
 62
     7
370
    50
100
AcDbLine
 10
-272.335713
 20
92.637092
 30
0.0
 11
-273.717356
 21
93.611454
 31
0.0
  0
LINE
  5
105
330
1F
100
AcDbEntity
  8
LC-001-100-D00-0
 62
     7
370
    50
100
AcDbLine
 10
-272.343857
 20
97.67165
 30
0.0
 11
-272.335713
 21
97.303758
 31
0.0
  0
LINE
  5
106
330
1F
100
AcDbEntity
  8
LC-001-100-D00-0
 62
     7
370
    50
100
AcDbLine
 10
-273.455133
 20
98.464619
 30
0.0
 11
-272.343857
 21
97.67165
 31
0.0
  0
LINE
  5
107
330
1F
100
AcDbEntity
  8
LC-001-100-D00-0
 62
     7
370
    50
100
AcDbLine
 10
-272.343857
 20
99.257587
 30
0.0
 11
-273.455133
 21
98.464619
 31
0.0
  0
LINE
  5
108
330
1F
100
AcDbEntity
  8
LC-001-100-D00-0
 62
     7
370
    50
100
AcDbLine
 10
-272.343857
 20
99.631285
 30
0.0
 11
-272.343857
 21
99.257587
 31
0.0
  0
LINE
  5
109
330
1F
100
AcDbEntity
  8
LC-001-100-D00-0
 62
     7
370
    50
100
AcDbLine
 10
-273.717356
 20
98.651818
 30
0.0
 11
-272.343857
 21
99.631285
 31
0.0
  0
LINE
  5
10A
330
1F
100
AcDbEntity
  8
LC-001-100-D00-0
 62
     7
370
    50
100
AcDbLine
 10
-274.901552
 20
99.49667
 30
0.0
 11
-273.717356
 21
98.651818
 31
0.0
  0
LINE
  5
10B
330
1F
100
AcDbEntity
  8
LC-001-100-D00-0
 62
     7
370
    50
100
AcDbLine
 10
-274.901552
 20
99.122972
 30
0.0
 11
-274.901552
 21
99.49667
 31
0.0
  0
LINE
  5
10C
330
1F
100
AcDbEntity
  8
LC-001-100-D00-0
 62
     7
370
    50
100
AcDbLine
 10
-273.978872
 20
98.464619
 30
0.0
 11
-274.901552
 21
99.122972
 31
0.0
  0
LINE
  5
10D
330
1F
100
AcDbEntity
  8
LC-001-100-D00-0
 62
     7
370
    50
100
AcDbLine
 10
-274.901552
 20
97.806265
 30
0.0
 11
-273.978872
 21
98.464619
 31
0.0
  0
LINE
  5
10E
330
1F
100
AcDbEntity
  8
LC-001-100-D00-0
 62
     7
370
    50
100
AcDbLine
 10
-274.901552
 20
97.432567
 30
0.0
 11
-274.901552
 21
97.806265
 31
0.0
  0
LINE
  5
10F
330
1F
100
AcDbEntity
  8
LC-001-100-D00-0
 62
     7
370
    50
100
AcDbLine
 10
-273.717356
 20
98.27812
 30
0.0
 11
-274.901552
 21
97.432567
 31
0.0
  0
LINE
  5
110
330
1F
100
AcDbEntity
  8
LC-001-100-D00-0
 62
     7
370
    50
100
AcDbLine
 10
-272.335713
 20
97.303758
 30
0.0
 11
-273.717356
 21
98.27812
 31
0.0
  0
ARC
  5
111
330
1F
100
AcDbEntity
  8
LC-001-100-D00-0
 62
     7
370
    50
100
AcDbCircle
 10
-175.011024
 20
96.56608
 30
0.0
 40
24.79999999999434
100
AcDbArc
 50
300.592814
 51
59.407186
  0
ARC
  5
112
330
1F
100
AcDbEntity
  8
LC-001-100-D00-0
 62
     7
370
    50
100
AcDbCircle
 10
-236.011024
 20
96.56608
 30
0.0
 40
24.79999999999424
100
AcDbArc
 50
120.592814
 51
239.407186
  0
LINE
  5
113
330
1F
100
AcDbEntity
  8
LC-001-100-D00-0
 62
     7
370
    50
100
AcDbLine
 10
-87.261024
 20
109.81608
 30
0.0
 11
-87.261024
 21
83.31608
 31
0.0
  0
ARC
  5
114
330
1F
100
AcDbEntity
  8
LC-001-100-D00-0
 62
     7
370
    50
100
AcDbCircle
 10
-92.261024
 20
109.81608
 30
0.0
 40
5.0
100
AcDbArc
 50
0.0
 51
90.0
  0
ARC
  5
115
330
1F
100
AcDbEntity
  8
LC-001-100-D00-0
 62
     7
370
    50
100
AcDbCircle
 10
-92.261024
 20
83.31608
 30
0.0
 40
5.0
100
AcDbArc
 50
270.0
 51
0.0
  0
CIRCLE
  5
116
330
1F
100
AcDbEntity
  8
LC-001-100-D00-0
 62
     7
370
    50
100
AcDbCircle
 10
-105.511024
 20
96.56608
 30
0.0
 40
3.899999999999864
  0
LINE
  5
117
330
1F
100
AcDbEntity
  8
LC-001-100-D00-0
 62
     7
370
    50
100
AcDbLine
 10
-92.261024
 20
78.31608
 30
0.0
 11
-118.761024
 21
78.31608
 31
0.0
  0
LINE
  5
118
330
1F
100
AcDbEntity
  8
LC-001-100-D00-0
 62
     7
370
    50
100
AcDbLine
 10
-118.761024
 20
114.81608
 30
0.0
 11
-92.261024
 21
114.81608
 31
0.0
  0
ARC
  5
119
330
1F
100
AcDbEntity
  8
LC-001-100-D00-0
 62
     7
370
    50
100
AcDbCircle
 10
-118.761024
 20
109.81608
 30
0.0
 40
5.0
100
AcDbArc
 50
90.0
 51
180.0
  0
ARC
  5
11A
330
1F
100
AcDbEntity
  8
LC-001-100-D00-0
 62
     7
370
    50
100
AcDbCircle
 10
-118.761024
 20
83.31608
 30
0.0
 40
5.0
100
AcDbArc
 50
180.0
 51
270.0
  0
LINE
  5
11B
330
1F
100
AcDbEntity
  8
LC-001-100-D00-0
 62
     7
370
    50
100
AcDbLine
 10
-123.761024
 20
83.31608
 30
0.0
 11
-123.761024
 21
109.81608
 31
0.0
  0
ARC
  5
11C
330
1F
100
AcDbEntity
  8
LC-001-100-D00-0
 62
     7
370
    50
100
AcDbCircle
 10
77.738976
 20
83.31608
 30
0.0
 40
5.0
100
AcDbArc
 50
270.0
 51
0.0
  0
LINE
  5
11D
330
1F
100
AcDbEntity
  8
LC-001-100-D00-0
 62
     7
370
    50
100
AcDbLine
 10
82.738976
 20
109.81608
 30
0.0
 11
82.738976
 21
83.31608
 31
0.0
  0
ARC
  5
11E
330
1F
100
AcDbEntity
  8
LC-001-100-D00-0
 62
     7
370
    50
100
AcDbCircle
 10
77.738976
 20
109.81608
 30
0.0
 40
5.0
100
AcDbArc
 50
0.0
 51
90.0
  0
CIRCLE
  5
11F
330
1F
100
AcDbEntity
  8
LC-001-100-D00-0
 62
     7
370
    50
100
AcDbCircle
 10
64.488976
 20
96.56608
 30
0.0
 40
3.899999999999864
  0
LINE
  5
120
330
1F
100
AcDbEntity
  8
LC-001-100-D00-0
 62
     7
370
    50
100
AcDbLine
 10
77.738976
 20
78.31608
 30
0.0
 11
51.238976
 21
78.31608
 31
0.0
  0
LINE
  5
121
330
1F
100
AcDbEntity
  8
LC-001-100-D00-0
 62
     7
370
    50
100
AcDbLine
 10
51.238976
 20
114.81608
 30
0.0
 11
77.738976
 21
114.81608
 31
0.0
  0
ARC
  5
122
330
1F
100
AcDbEntity
  8
LC-001-100-D00-0
 62
     7
370
    50
100
AcDbCircle
 10
51.238976
 20
83.31608
 30
0.0
 40
5.0
100
AcDbArc
 50
180.0
 51
270.0
  0
ARC
  5
123
330
1F
100
AcDbEntity
  8
LC-001-100-D00-0
 62
     7
370
    50
100
AcDbCircle
 10
51.238976
 20
109.81608
 30
0.0
 40
5.0
100
AcDbArc
 50
90.0
 51
180.0
  0
LINE
  5
124
330
1F
100
AcDbEntity
  8
LC-001-100-D00-0
 62
     7
370
    50
100
AcDbLine
 10
46.238976
 20
83.31608
 30
0.0
 11
46.238976
 21
109.81608
 31
0.0
  0
ARC
  5
125
330
1F
100
AcDbEntity
  8
LC-001-100-D00-0
 62
     7
370
    50
100
AcDbCircle
 10
-292.261024
 20
109.81608
 30
0.0
 40
5.0
100
AcDbArc
 50
0.0
 51
90.0
  0
LINE
  5
126
330
1F
100
AcDbEntity
  8
LC-001-100-D00-0
 62
     7
370
    50
100
AcDbLine
 10
-287.261024
 20
109.81608
 30
0.0
 11
-287.261024
 21
83.31608
 31
0.0
  0
ARC
  5
127
330
1F
100
AcDbEntity
  8
LC-001-100-D00-0
 62
     7
370
    50
100
AcDbCircle
 10
-292.261024
 20
83.31608
 30
0.0
 40
5.0
100
AcDbArc
 50
270.0
 51
0.0
  0
CIRCLE
  5
128
330
1F
100
AcDbEntity
  8
LC-001-100-D00-0
 62
     7
370
    50
100
AcDbCircle
 10
-305.511024
 20
96.56608
 30
0.0
 40
3.899999999999864
  0
LINE
  5
129
330
1F
100
AcDbEntity
  8
LC-001-100-D00-0
 62
     7
370
    50
100
AcDbLine
 10
-318.761024
 20
114.81608
 30
0.0
 11
-292.261024
 21
114.81608
 31
0.0
  0
LINE
  5
12A
330
1F
100
AcDbEntity
  8
LC-001-100-D00-0
 62
     7
370
    50
100
AcDbLine
 10
-292.261024
 20
78.31608
 30
0.0
 11
-318.761024
 21
78.31608
 31
0.0
  0
ARC
  5
12B
330
1F
100
AcDbEntity
  8
LC-001-100-D00-0
 62
     7
370
    50
100
AcDbCircle
 10
-318.761024
 20
83.31608
 30
0.0
 40
5.0
100
AcDbArc
 50
180.0
 51
270.0
  0
ARC
  5
12C
330
1F
100
AcDbEntity
  8
LC-001-100-D00-0
 62
     7
370
    50
100
AcDbCircle
 10
-318.761024
 20
109.81608
 30
0.0
 40
5.0
100
AcDbArc
 50
90.0
 51
180.0
  0
LINE
  5
12D
330
1F
100
AcDbEntity
  8
LC-001-100-D00-0
 62
     7
370
    50
100
AcDbLine
 10
-323.761024
 20
83.31608
 30
0.0
 11
-323.761024
 21
109.81608
 31
0.0
  0
ARC
  5
12E
330
1F
100
AcDbEntity
  8
LC-001-100-D00-0
 62
     7
370
    50
100
AcDbCircle
 10
-462.261024
 20
83.31608
 30
0.0
 40
5.0
100
AcDbArc
 50
270.0
 51
0.0
  0
ARC
  5
12F
330
1F
100
AcDbEntity
  8
LC-001-100-D00-0
 62
     7
370
    50
100
AcDbCircle
 10
-462.261024
 20
109.81608
 30
0.0
 40
5.0
100
AcDbArc
 50
0.0
 51
90.0
  0
LINE
  5
130
330
1F
100
AcDbEntity
  8
LC-001-100-D00-0
 62
     7
370
    50
100
AcDbLine
 10
-457.261024
 20
109.81608
 30
0.0
 11
-457.261024
 21
83.31608
 31
0.0
  0
CIRCLE
  5
131
330
1F
100
AcDbEntity
  8
LC-001-100-D00-0
 62
     7
370
    50
100
AcDbCircle
 10
-475.511024
 20
96.56608
 30
0.0
 40
3.899999999999864
  0
LINE
  5
132
330
1F
100
AcDbEntity
  8
LC-001-100-D00-0
 62
     7
370
    50
100
AcDbLine
 10
-488.761024
 20
114.81608
 30
0.0
 11
-462.261024
 21
114.81608
 31
0.0
  0
LINE
  5
133
330
1F
100
AcDbEntity
  8
LC-001-100-D00-0
 62
     7
370
    50
100
AcDbLine
 10
-462.261024
 20
78.31608
 30
0.0
 11
-488.761024
 21
78.31608
 31
0.0
  0
ARC
  5
134
330
1F
100
AcDbEntity
  8
LC-001-100-D00-0
 62
     7
370
    50
100
AcDbCircle
 10
-488.761024
 20
109.81608
 30
0.0
 40
5.0
100
AcDbArc
 50
90.0
 51
180.0
  0
ARC
  5
135
330
1F
100
AcDbEntity
  8
LC-001-100-D00-0
 62
     7
370
    50
100
AcDbCircle
 10
-488.761024
 20
83.31608
 30
0.0
 40
5.0
100
AcDbArc
 50
180.0
 51
270.0
  0
LINE
  5
136
330
1F
100
AcDbEntity
  8
LC-001-100-D00-0
 62
     7
370
    50
100
AcDbLine
 10
-493.761024
 20
83.31608
 30
0.0
 11
-493.761024
 21
109.81608
 31
0.0
  0
LINE
  5
137
330
1F
100
AcDbEntity
  8
LC-001-100-D00-0
 62
     7
370
    50
100
AcDbLine
 10
-236.011024
 20
72.56608
 30
0.0
 11
-175.011024
 21
72.56608
 31
0.0
  0
ARC
  5
138
330
1F
100
AcDbEntity
  8
LC-001-100-D00-0
 62
     7
370
    50
100
AcDbCircle
 10
-236.011024
 20
96.56608
 30
0.0
 40
24.0
100
AcDbArc
 50
90.0
 51
270.0
  0
LINE
  5
139
330
1F
100
AcDbEntity
  8
LC-001-100-D00-0
 62
     7
370
    50
100
AcDbLine
 10
-175.011024
 20
120.56608
 30
0.0
 11
-236.011024
 21
120.56608
 31
0.0
  0
ARC
  5
13A
330
1F
100
AcDbEntity
  8
LC-001-100-D00-0
 62
     7
370
    50
100
AcDbCircle
 10
-175.011024
 20
96.56608
 30
0.0
 40
24.00000000000011
100
AcDbArc
 50
270.0
 51
90.0
  0
ARC
  5
13B
330
1F
100
AcDbEntity
  8
LC-001-100-D00-0
 62
     7
370
    50
100
AcDbCircle
 10
-194.011024
 20
96.56608
 30
0.0
 40
16.00000000000023
100
AcDbArc
 50
270.0
 51
90.0
  0
LINE
  5
13C
330
1F
100
AcDbEntity
  8
LC-001-100-D00-0
 62
     7
370
    50
100
AcDbLine
 10
-194.011024
 20
112.56608
 30
0.0
 11
-217.011024
 21
112.56608
 31
0.0
  0
LINE
  5
13D
330
1F
100
AcDbEntity
  8
LC-001-100-D00-0
 62
     7
370
    50
100
AcDbLine
 10
-217.011024
 20
80.56608
 30
0.0
 11
-194.011024
 21
80.56608
 31
0.0
  0
ARC
  5
13E
330
1F
100
AcDbEntity
  8
LC-001-100-D00-0
 62
     7
370
    50
100
AcDbCircle
 10
-217.011024
 20
96.56608
 30
0.0
 40
16.00000000000023
100
AcDbArc
 50
90.0
 51
270.0
  0
DIMENSION
  5
141
330
1F
100
AcDbEntity
  8
LC-001-100-D00-0
 62
     7
370
    25
100
AcDbDimension
  2
*D15
 10
234.565798
 20
19.06608
 30
0.0
 11
179.565798
 21
87.495818
 31
0.0
 70
   160
  1
155
 71
     5
 42
155.0
 53
90.0
  3
LC-DIM-L-0100-02-02
100
AcDbAlignedDimension
 13
139.488976
 23
174.06608
 33
0.0
 14
139.488976
 24
19.06608
 34
0.0
 50
90.0
100
AcDbRotatedDimension
  0
LINE
  5
150
330
1F
100
AcDbEntity
  8
LC-001-100-D00-0
  6
DASHDOT
 62
     7
370
    25
100
AcDbLine
 10
-560.511024
 20
96.56608
 30
0.0
 11
149.488976
 21
96.56608
 31
0.0
  0
LINE
  5
151
330
1F
100
AcDbEntity
  8
LC-001-100-D00-0
  6
DASHDOT
 62
     7
370
    25
100
AcDbLine
 10
-205.511024
 20
179.06608
 30
0.0
 11
-205.511024
 21
14.06608
 31
0.0
  0
LINE
  5
152
330
1F
100
AcDbEntity
  8
LC-001-100-D00-0
 62
     7
370
    50
100
AcDbLine
 10
-150.26103
 20
521.051832
 30
0.0
 11
-148.46103
 21
521.051832
 31
0.0
  0
LINE
  5
153
330
1F
100
AcDbEntity
  8
LC-001-100-D00-0
 62
     7
370
    50
100
AcDbLine
 10
-262.56103
 20
521.051832
 30
0.0
 11
-260.76103
 21
521.051832
 31
0.0
  0
LINE
  5
154
330
1F
100
AcDbEntity
  8
LC-001-100-D00-0
 62
     7
370
    50
100
AcDbLine
 10
-92.263234
 20
448.691818
 30
0.0
 11
-92.263234
 21
450.474739
 31
0.0
  0
LINE
  5
155
330
1F
100
AcDbEntity
  8
LC-001-100-D00-0
 62
     7
370
    50
100
AcDbLine
 10
-92.263234
 20
500.908897
 30
0.0
 11
-92.263234
 21
502.691818
 31
0.0
  0
LINE
  5
156
330
1F
100
AcDbEntity
  8
LC-001-100-D00-0
 62
     7
370
    50
100
AcDbLine
 10
-96.263234
 20
502.691818
 30
0.0
 11
-96.263234
 21
500.908897
 31
0.0
  0
LINE
  5
157
330
1F
100
AcDbEntity
  8
LC-001-100-D00-0
 62
     7
370
    50
100
AcDbLine
 10
-96.263234
 20
450.474739
 30
0.0
 11
-96.263234
 21
448.691818
 31
0.0
  0
LINE
  5
158
330
1F
100
AcDbEntity
  8
LC-001-100-D00-0
 62
     7
370
    50
100
AcDbLine
 10
-165.796615
 20
519.191818
 30
0.0
 11
-165.796615
 21
517.691818
 31
0.0
  0
LINE
  5
159
330
1F
100
AcDbEntity
  8
LC-001-100-D00-0
 62
     7
370
    50
100
AcDbLine
 10
-245.225445
 20
517.691818
 30
0.0
 11
-245.225445
 21
519.191818
 31
0.0
  0
ARC
  5
15A
330
1F
100
AcDbEntity
  8
LC-001-100-D00-0
 62
     7
370
    50
100
AcDbCircle
 10
-414.51103
 20
426.191818
 30
0.0
 40
0.4999999999997726
100
AcDbArc
 50
90.0
 51
180.0
  0
ARC
  5
15B
330
1F
100
AcDbEntity
  8
LC-001-100-D00-0
 62
     7
370
    50
100
AcDbCircle
 10
-396.51103
 20
426.191818
 30
0.0
 40
0.5
100
AcDbArc
 50
0.0
 51
90.0
  0
LINE
  5
15C
330
1F
100
AcDbEntity
  8
LC-001-100-D00-0
 62
     7
370
    50
100
AcDbLine
 10
-415.01103
 20
426.191818
 30
0.0
 11
-415.01103
 21
418.691818
 31
0.0
  0
LINE
  5
15D
330
1F
100
AcDbEntity
  8
LC-001-100-D00-0
 62
     7
370
    50
100
AcDbLine
 10
-396.01103
 20
418.691818
 30
0.0
 11
-396.01103
 21
426.191818
 31
0.0
  0
ARC
  5
15E
330
1F
100
AcDbEntity
  8
LC-001-100-D00-0
 62
     7
370
    50
100
AcDbCircle
 10
-14.51103
 20
426.191818
 30
0.0
 40
0.5
100
AcDbArc
 50
90.0
 51
180.0
  0
ARC
  5
15F
330
1F
100
AcDbEntity
  8
LC-001-100-D00-0
 62
     7
370
    50
100
AcDbCircle
 10
3.48897
 20
426.191818
 30
0.0
 40
0.4999999999998863
100
AcDbArc
 50
0.0
 51
90.0
  0
LINE
  5
160
330
1F
100
AcDbEntity
  8
LC-001-100-D00-0
 62
     7
370
    50
100
AcDbLine
 10
-15.01103
 20
426.191818
 30
0.0
 11
-15.01103
 21
418.691818
 31
0.0
  0
LINE
  5
161
330
1F
100
AcDbEntity
  8
LC-001-100-D00-0
 62
     7
370
    50
100
AcDbLine
 10
3.98897
 20
418.691818
 30
0.0
 11
3.98897
 21
426.191818
 31
0.0
  0
LINE
  5
162
330
1F
100
AcDbEntity
  8
LC-001-100-D00-0
 62
     7
370
    50
100
AcDbLine
 10
-18.284526
 20
527.367968
 30
0.0
 11
-18.284532
 21
524.691818
 31
0.0
  0
LINE
  5
163
330
1F
100
AcDbEntity
  8
LC-001-100-D00-0
 62
     7
370
    50
100
AcDbLine
 10
7.262473
 20
524.691818
 30
0.0
 11
7.262472
 21
528.300341
 31
0.0
  0
LINE
  5
164
330
1F
100
AcDbEntity
  8
LC-001-100-D00-0
 62
     7
370
    50
100
AcDbLine
 10
-418.284532
 20
520.69182
 30
0.0
 11
-418.284532
 21
495.691818
 31
0.0
  0
LINE
  5
165
330
1F
100
AcDbEntity
  8
LC-001-100-D00-0
 62
     7
370
    50
100
AcDbLine
 10
-392.737527
 20
495.691818
 30
0.0
 11
-392.737534
 21
520.69182
 31
0.0
  0
LINE
  5
166
330
1F
100
AcDbEntity
  8
LC-001-100-D00-0
 62
     7
370
    50
100
AcDbLine
 10
-418.284532
 20
528.300341
 30
0.0
 11
-418.284532
 21
524.691818
 31
0.0
  0
LINE
  5
167
330
1F
100
AcDbEntity
  8
LC-001-100-D00-0
 62
     7
370
    50
100
AcDbLine
 10
-392.737527
 20
524.691818
 30
0.0
 11
-392.737534
 21
527.367968
 31
0.0
  0
LINE
  5
168
330
1F
100
AcDbEntity
  8
LC-001-100-D00-0
 62
     7
370
    50
100
AcDbLine
 10
-18.284526
 20
520.69182
 30
0.0
 11
-18.284526
 21
500.69182
 31
0.0
  0
LINE
  5
169
330
1F
100
AcDbEntity
  8
LC-001-100-D00-0
 62
     7
370
    50
100
AcDbLine
 10
7.262473
 20
495.691818
 30
0.0
 11
7.262472
 21
520.69182
 31
0.0
  0
LINE
  5
16A
330
1F
100
AcDbEntity
  8
LC-001-100-D00-0
 62
     7
370
    50
100
AcDbLine
 10
-15.511032
 20
524.691818
 30
0.0
 11
-15.511032
 21
524.591819
 31
0.0
  0
LINE
  5
16B
330
1F
100
AcDbEntity
  8
LC-001-100-D00-0
 62
     7
370
    50
100
AcDbLine
 10
-15.511032
 20
450.691819
 30
0.0
 11
-15.51103
 21
441.691818
 31
0.0
  0
LINE
  5
16C
330
1F
100
AcDbEntity
  8
LC-001-100-D00-0
 62
     7
370
    50
100
AcDbLine
 10
4.48897
 20
441.691818
 30
0.0
 11
4.488964
 21
495.691817
 31
0.0
  0
LINE
  5
16D
330
1F
100
AcDbEntity
  8
LC-001-100-D00-0
 62
     7
370
    50
100
AcDbLine
 10
4.488964
 20
524.591819
 30
0.0
 11
4.488964
 21
524.691818
 31
0.0
  0
LINE
  5
16E
330
1F
100
AcDbEntity
  8
LC-001-100-D00-0
 62
     7
370
    50
100
AcDbLine
 10
-15.51103
 20
438.191818
 30
0.0
 11
-15.51103
 21
427.691818
 31
0.0
  0
LINE
  5
16F
330
1F
100
AcDbEntity
  8
LC-001-100-D00-0
 62
     7
370
    50
100
AcDbLine
 10
4.48897
 20
427.691818
 30
0.0
 11
4.48897
 21
438.191818
 31
0.0
  0
LINE
  5
170
330
1F
100
AcDbEntity
  8
LC-001-100-D00-0
 62
     7
370
    50
100
AcDbLine
 10
-15.51103
 20
427.691818
 30
0.0
 11
-14.51103
 21
426.691818
 31
0.0
  0
LINE
  5
171
330
1F
100
AcDbEntity
  8
LC-001-100-D00-0
 62
     7
370
    50
100
AcDbLine
 10
3.48897
 20
426.691818
 30
0.0
 11
4.48897
 21
427.691818
 31
0.0
  0
LINE
  5
172
330
1F
100
AcDbEntity
  8
LC-001-100-D00-0
 62
     7
370
    50
100
AcDbLine
 10
-13.411026
 20
441.691816
 30
0.0
 11
-13.411026
 21
438.191816
 31
0.0
  0
LINE
  5
173
330
1F
100
AcDbEntity
  8
LC-001-100-D00-0
 62
     7
370
    50
100
AcDbLine
 10
2.388973
 20
438.191816
 30
0.0
 11
2.388973
 21
441.691816
 31
0.0
  0
LINE
  5
174
330
1F
100
AcDbEntity
  8
LC-001-100-D00-0
 62
     7
370
    50
100
AcDbLine
 10
-415.511023
 20
495.691817
 30
0.0
 11
-415.51103
 21
441.691818
 31
0.0
  0
LINE
  5
175
330
1F
100
AcDbEntity
  8
LC-001-100-D00-0
 62
     7
370
    50
100
AcDbLine
 10
-395.51103
 20
441.691818
 30
0.0
 11
-395.511027
 21
495.691817
 31
0.0
  0
LINE
  5
176
330
1F
100
AcDbEntity
  8
LC-001-100-D00-0
 62
     7
370
    50
100
AcDbLine
 10
-415.51103
 20
438.191818
 30
0.0
 11
-415.51103
 21
427.691818
 31
0.0
  0
LINE
  5
177
330
1F
100
AcDbEntity
  8
LC-001-100-D00-0
 62
     7
370
    50
100
AcDbLine
 10
-395.51103
 20
427.691818
 30
0.0
 11
-395.51103
 21
438.191818
 31
0.0
  0
LINE
  5
178
330
1F
100
AcDbEntity
  8
LC-001-100-D00-0
 62
     7
370
    50
100
AcDbLine
 10
-415.51103
 20
427.691818
 30
0.0
 11
-414.51103
 21
426.691818
 31
0.0
  0
LINE
  5
179
330
1F
100
AcDbEntity
  8
LC-001-100-D00-0
 62
     7
370
    50
100
AcDbLine
 10
-396.51103
 20
426.691818
 30
0.0
 11
-395.51103
 21
427.691818
 31
0.0
  0
LINE
  5
17A
330
1F
100
AcDbEntity
  8
LC-001-100-D00-0
 62
     7
370
    50
100
AcDbLine
 10
-413.411032
 20
441.691816
 30
0.0
 11
-413.411032
 21
438.191816
 31
0.0
  0
LINE
  5
17B
330
1F
100
AcDbEntity
  8
LC-001-100-D00-0
 62
     7
370
    50
100
AcDbLine
 10
-397.611033
 20
438.191816
 30
0.0
 11
-397.611033
 21
441.691816
 31
0.0
  0
ARC
  5
17C
330
1F
100
AcDbEntity
  8
LC-001-100-D00-0
 62
     7
370
    50
100
AcDbCircle
 10
-469.71103
 20
539.423052
 30
0.0
 40
0.6000000000003082
100
AcDbArc
 50
105.0
 51
180.0
  0
LINE
  5
17D
330
1F
100
AcDbEntity
  8
LC-001-100-D00-0
 62
     7
370
    50
100
AcDbLine
 10
-470.31103
 20
539.423052
 30
0.0
 11
-470.31103
 21
536.960585
 31
0.0
  0
ARC
  5
17E
330
1F
100
AcDbEntity
  8
LC-001-100-D00-0
 62
     7
370
    50
100
AcDbCircle
 10
-469.71103
 20
536.960585
 30
0.0
 40
0.5999999999999091
100
AcDbArc
 50
180.0
 51
255.0
  0
LINE
  5
17F
330
1F
100
AcDbEntity
  8
LC-001-100-D00-0
 62
     7
370
    50
100
AcDbLine
 10
-469.866321
 20
536.381029
 30
0.0
 11
-469.160166
 21
536.191818
 31
0.0
  0
LINE
  5
180
330
1F
100
AcDbEntity
  8
LC-001-100-D00-0
 62
     7
370
    50
100
AcDbLine
 10
-469.160166
 20
534.191819
 30
0.0
 11
-469.160166
 21
536.191818
 31
0.0
  0
LINE
  5
181
330
1F
100
AcDbEntity
  8
LC-001-100-D00-0
 62
     7
370
    50
100
AcDbLine
 10
-469.160166
 20
534.191819
 30
0.0
 11
-471.11103
 21
534.191818
 31
0.0
  0
LINE
  5
182
330
1F
100
AcDbEntity
  8
LC-001-100-D00-0
 62
     7
370
    50
100
AcDbLine
 10
-471.11103
 20
534.191818
 30
0.0
 11
-472.11103
 21
535.191818
 31
0.0
  0
LINE
  5
183
330
1F
100
AcDbEntity
  8
LC-001-100-D00-0
 62
     7
370
    50
100
AcDbLine
 10
-472.111043
 20
541.191818
 30
0.0
 11
-472.11103
 21
535.191818
 31
0.0
  0
LINE
  5
184
330
1F
100
AcDbEntity
  8
LC-001-100-D00-0
 62
     7
370
    50
100
AcDbLine
 10
-472.111043
 20
541.191818
 30
0.0
 11
-471.111026
 21
542.191819
 31
0.0
  0
LINE
  5
185
330
1F
100
AcDbEntity
  8
LC-001-100-D00-0
 62
     7
370
    50
100
AcDbLine
 10
-469.160166
 20
542.191819
 30
0.0
 11
-471.111026
 21
542.191819
 31
0.0
  0
LINE
  5
186
330
1F
100
AcDbEntity
  8
LC-001-100-D00-0
 62
     7
370
    50
100
AcDbLine
 10
-469.160166
 20
540.191818
 30
0.0
 11
-469.160166
 21
542.191819
 31
0.0
  0
LINE
  5
187
330
1F
100
AcDbEntity
  8
LC-001-100-D00-0
 62
     7
370
    50
100
AcDbLine
 10
-469.160166
 20
540.191818
 30
0.0
 11
-469.866321
 21
540.002608
 31
0.0
  0
LINE
  5
188
330
1F
100
AcDbEntity
  8
LC-001-100-D00-0
 62
     7
370
    50
100
AcDbLine
 10
-480.71103
 20
536.960585
 30
0.0
 11
-480.71103
 21
539.423052
 31
0.0
  0
LINE
  5
189
330
1F
100
AcDbEntity
  8
LC-001-100-D00-0
 62
     7
370
    50
100
AcDbLine
 10
-479.911026
 20
542.191819
 30
0.0
 11
-478.911038
 21
541.191818
 31
0.0
  0
LINE
  5
18A
330
1F
100
AcDbEntity
  8
LC-001-100-D00-0
 62
     7
370
    50
100
AcDbLine
 10
-478.91103
 20
535.191818
 30
0.0
 11
-479.91103
 21
534.191818
 31
0.0
  0
LINE
  5
18B
330
1F
100
AcDbEntity
  8
LC-001-100-D00-0
 62
     7
370
    50
100
AcDbLine
 10
-478.91103
 20
535.191818
 30
0.0
 11
-478.75319
 21
535.191818
 31
0.0
  0
LINE
  5
18C
330
1F
100
AcDbEntity
  8
LC-001-100-D00-0
 62
     7
370
    50
100
AcDbLine
 10
-472.268869
 20
535.191818
 30
0.0
 11
-472.11103
 21
535.191818
 31
0.0
  0
LINE
  5
18D
330
1F
100
AcDbEntity
  8
LC-001-100-D00-0
 62
     7
370
    50
100
AcDbLine
 10
-471.11103
 20
534.191818
 30
0.0
 11
-471.646811
 21
534.191818
 31
0.0
  0
LINE
  5
18E
330
1F
100
AcDbEntity
  8
LC-001-100-D00-0
 62
     7
370
    50
100
AcDbLine
 10
-479.375248
 20
534.191818
 30
0.0
 11
-479.91103
 21
534.191818
 31
0.0
  0
LINE
  5
18F
330
1F
100
AcDbEntity
  8
LC-001-100-D00-0
 62
     7
370
    50
100
AcDbLine
 10
-478.91103
 20
535.191818
 30
0.0
 11
-478.911038
 21
541.191818
 31
0.0
  0
LINE
  5
190
330
1F
100
AcDbEntity
  8
LC-001-100-D00-0
 62
     7
370
    50
100
AcDbLine
 10
-481.861886
 20
542.191819
 30
0.0
 11
-481.861886
 21
540.191818
 31
0.0
  0
LINE
  5
191
330
1F
100
AcDbEntity
  8
LC-001-100-D00-0
 62
     7
370
    50
100
AcDbLine
 10
-481.861886
 20
536.191818
 30
0.0
 11
-481.861886
 21
534.191819
 31
0.0
  0
LINE
  5
192
330
1F
100
AcDbEntity
  8
LC-001-100-D00-0
 62
     7
370
    50
100
AcDbLine
 10
-481.861886
 20
536.191818
 30
0.0
 11
-481.155738
 21
536.381029
 31
0.0
  0
ARC
  5
193
330
1F
100
AcDbEntity
  8
LC-001-100-D00-0
 62
     7
370
    50
100
AcDbCircle
 10
-481.31103
 20
536.960585
 30
0.0
 40
0.5999999999998836
100
AcDbArc
 50
285.0
 51
0.0
  0
ARC
  5
194
330
1F
100
AcDbEntity
  8
LC-001-100-D00-0
 62
     7
370
    50
100
AcDbCircle
 10
-481.31103
 20
539.423052
 30
0.0
 40
0.6000000000002501
100
AcDbArc
 50
0.0
 51
75.0
  0
LINE
  5
195
330
1F
100
AcDbEntity
  8
LC-001-100-D00-0
 62
     7
370
    50
100
AcDbLine
 10
-481.155738
 20
540.002608
 30
0.0
 11
-481.861886
 21
540.191818
 31
0.0
  0
LINE
  5
196
330
1F
100
AcDbEntity
  8
LC-001-100-D00-0
 62
     7
370
    50
100
AcDbLine
 10
-479.91103
 20
534.191818
 30
0.0
 11
-481.861886
 21
534.191819
 31
0.0
  0
LINE
  5
197
330
1F
100
AcDbEntity
  8
LC-001-100-D00-0
 62
     7
370
    50
100
AcDbLine
 10
-479.911026
 20
542.191819
 30
0.0
 11
-481.861886
 21
542.191819
 31
0.0
  0
LINE
  5
198
330
1F
100
AcDbEntity
  8
LC-001-100-D00-0
 62
     7
370
    50
100
AcDbLine
 10
-469.160166
 20
542.191819
 30
0.0
 11
-469.160166
 21
540.191818
 31
0.0
  0
LINE
  5
199
330
1F
100
AcDbEntity
  8
LC-001-100-D00-0
 62
     7
370
    50
100
AcDbLine
 10
-471.611019
 20
542.191819
 30
0.0
 11
-469.160166
 21
542.191819
 31
0.0
  0
LINE
  5
19A
330
1F
100
AcDbEntity
  8
LC-001-100-D00-0
 62
     7
370
    50
100
AcDbLine
 10
-471.61103
 20
553.191818
 30
0.0
 11
-471.611019
 21
542.191819
 31
0.0
  0
LINE
  5
19B
330
1F
100
AcDbEntity
  8
LC-001-100-D00-0
 62
     7
370
    50
100
AcDbLine
 10
-458.26103
 20
553.191818
 30
0.0
 11
-471.61103
 21
553.191818
 31
0.0
  0
ARC
  5
19C
330
1F
100
AcDbEntity
  8
LC-001-100-D00-0
 62
     7
370
    50
100
AcDbCircle
 10
-458.26103
 20
552.191818
 30
0.0
 40
1.0
100
AcDbArc
 50
0.0
 51
90.0
  0
LINE
  5
19D
330
1F
100
AcDbEntity
  8
LC-001-100-D00-0
 62
     7
370
    50
100
AcDbLine
 10
-457.261022
 20
546.191818
 30
0.0
 11
-457.26103
 21
552.191818
 31
0.0
  0
LINE
  5
19E
330
1F
100
AcDbEntity
  8
LC-001-100-D00-0
 62
     7
370
    50
100
AcDbLine
 10
-457.261022
 20
546.191818
 30
0.0
 11
-460.26103
 21
546.191818
 31
0.0
  0
LINE
  5
19F
330
1F
100
AcDbEntity
  8
LC-001-100-D00-0
 62
     7
370
    50
100
AcDbLine
 10
-460.261043
 20
550.191818
 30
0.0
 11
-460.26103
 21
546.191818
 31
0.0
  0
LINE
  5
1A0
330
1F
100
AcDbEntity
  8
LC-001-100-D00-0
 62
     7
370
    50
100
AcDbLine
 10
-460.261043
 20
550.191818
 30
0.0
 11
-464.76103
 21
550.191818
 31
0.0
  0
ARC
  5
1A1
330
1F
100
AcDbEntity
  8
LC-001-100-D00-0
 62
     7
370
    50
100
AcDbCircle
 10
-464.76103
 20
549.191818
 30
0.0
 40
1.000000000000227
100
AcDbArc
 50
90.0
 51
180.0
  0
LINE
  5
1A2
330
1F
100
AcDbEntity
  8
LC-001-100-D00-0
 62
     7
370
    50
100
AcDbLine
 10
-465.76103
 20
549.191818
 30
0.0
 11
-465.76103
 21
535.191818
 31
0.0
  0
ARC
  5
1A3
330
1F
100
AcDbEntity
  8
LC-001-100-D00-0
 62
     7
370
    50
100
AcDbCircle
 10
-466.76103
 20
535.191818
 30
0.0
 40
1.0
100
AcDbArc
 50
270.0
 51
0.0
  0
LINE
  5
1A4
330
1F
100
AcDbEntity
  8
LC-001-100-D00-0
 62
     7
370
    50
100
AcDbLine
 10
-469.160166
 20
534.191819
 30
0.0
 11
-466.76103
 21
534.191818
 31
0.0
  0
LINE
  5
1A5
330
1F
100
AcDbEntity
  8
LC-001-100-D00-0
 62
     7
370
    50
100
AcDbLine
 10
-469.160166
 20
536.191818
 30
0.0
 11
-469.160166
 21
534.191819
 31
0.0
  0
LINE
  5
1A6
330
1F
100
AcDbEntity
  8
LC-001-100-D00-0
 62
     7
370
    50
100
AcDbLine
 10
-469.160166
 20
536.191818
 30
0.0
 11
-469.81103
 21
536.191818
 31
0.0
  0
ARC
  5
1A7
330
1F
100
AcDbEntity
  8
LC-001-100-D00-0
 62
     7
370
    50
100
AcDbCircle
 10
-469.81103
 20
536.691818
 30
0.0
 40
0.5000000000001137
100
AcDbArc
 50
180.0
 51
270.0
  0
LINE
  5
1A8
330
1F
100
AcDbEntity
  8
LC-001-100-D00-0
 62
     7
370
    50
100
AcDbLine
 10
-470.31103
 20
536.691818
 30
0.0
 11
-470.31103
 21
539.691818
 31
0.0
  0
ARC
  5
1A9
330
1F
100
AcDbEntity
  8
LC-001-100-D00-0
 62
     7
370
    50
100
AcDbCircle
 10
-469.81103
 20
539.691818
 30
0.0
 40
0.5
100
AcDbArc
 50
90.0
 51
180.0
  0
LINE
  5
1AA
330
1F
100
AcDbEntity
  8
LC-001-100-D00-0
 62
     7
370
    50
100
AcDbLine
 10
-469.81103
 20
540.191818
 30
0.0
 11
-469.160166
 21
540.191818
 31
0.0
  0
ARC
  5
1AB
330
1F
100
AcDbEntity
  8
LC-001-100-D00-0
 62
     7
370
    50
100
AcDbCircle
 10
-486.26103
 20
549.191818
 30
0.0
 40
1.000000000000227
100
AcDbArc
 50
0.0
 51
90.0
  0
ARC
  5
1AC
330
1F
100
AcDbEntity
  8
LC-001-100-D00-0
 62
     7
370
    50
100
AcDbCircle
 10
-484.26103
 20
535.191818
 30
0.0
 40
1.0
100
AcDbArc
 50
180.0
 51
270.0
  0
LINE
  5
1AD
330
1F
100
AcDbEntity
  8
LC-001-100-D00-0
 62
     7
370
    50
100
AcDbLine
 10
-485.26103
 20
535.191818
 30
0.0
 11
-485.26103
 21
549.191818
 31
0.0
  0
LINE
  5
1AE
330
1F
100
AcDbEntity
  8
LC-001-100-D00-0
 62
     7
370
    50
100
AcDbLine
 10
-480.71103
 20
539.691818
 30
0.0
 11
-480.71103
 21
536.691818
 31
0.0
  0
LINE
  5
1AF
330
1F
100
AcDbEntity
  8
LC-001-100-D00-0
 62
     7
370
    50
100
AcDbLine
 10
-479.411032
 20
542.191819
 30
0.0
 11
-479.41103
 21
553.191818
 31
0.0
  0
LINE
  5
1B0
330
1F
100
AcDbEntity
  8
LC-001-100-D00-0
 62
     7
370
    50
100
AcDbLine
 10
-479.41103
 20
553.191818
 30
0.0
 11
-471.61103
 21
553.191818
 31
0.0
  0
LINE
  5
1B1
330
1F
100
AcDbEntity
  8
LC-001-100-D00-0
 62
     7
370
    50
100
AcDbLine
 10
-481.861886
 20
534.191819
 30
0.0
 11
-481.861886
 21
536.191818
 31
0.0
  0
LINE
  5
1B2
330
1F
100
AcDbEntity
  8
LC-001-100-D00-0
 62
     7
370
    50
100
AcDbLine
 10
-481.861886
 20
540.191818
 30
0.0
 11
-481.861886
 21
542.191819
 31
0.0
  0
ARC
  5
1B3
330
1F
100
AcDbEntity
  8
LC-001-100-D00-0
 62
     7
370
    50
100
AcDbCircle
 10
-481.21103
 20
539.691818
 30
0.0
 40
0.5000000000001137
100
AcDbArc
 50
0.0
 51
90.0
  0
ARC
  5
1B4
330
1F
100
AcDbEntity
  8
LC-001-100-D00-0
 62
     7
370
    50
100
AcDbCircle
 10
-481.21103
 20
536.691818
 30
0.0
 40
0.5
100
AcDbArc
 50
270.0
 51
0.0
  0
LINE
  5
1B5
330
1F
100
AcDbEntity
  8
LC-001-100-D00-0
 62
     7
370
    50
100
AcDbLine
 10
-481.21103
 20
536.191818
 30
0.0
 11
-481.861886
 21
536.191818
 31
0.0
  0
LINE
  5
1B6
330
1F
100
AcDbEntity
  8
LC-001-100-D00-0
 62
     7
370
    50
100
AcDbLine
 10
-490.76103
 20
546.191818
 30
0.0
 11
-490.761038
 21
550.191818
 31
0.0
  0
LINE
  5
1B7
330
1F
100
AcDbEntity
  8
LC-001-100-D00-0
 62
     7
370
    50
100
AcDbLine
 10
-493.76103
 20
552.191818
 30
0.0
 11
-493.761029
 21
546.191818
 31
0.0
  0
ARC
  5
1B8
330
1F
100
AcDbEntity
  8
LC-001-100-D00-0
 62
     7
370
    50
100
AcDbCircle
 10
-492.76103
 20
552.191818
 30
0.0
 40
0.9999999999997726
100
AcDbArc
 50
90.0
 51
180.0
  0
LINE
  5
1B9
330
1F
100
AcDbEntity
  8
LC-001-100-D00-0
 62
     7
370
    50
100
AcDbLine
 10
-481.861886
 20
540.191818
 30
0.0
 11
-481.21103
 21
540.191818
 31
0.0
  0
LINE
  5
1BA
330
1F
100
AcDbEntity
  8
LC-001-100-D00-0
 62
     7
370
    50
100
AcDbLine
 10
-481.861886
 20
542.191819
 30
0.0
 11
-479.411032
 21
542.191819
 31
0.0
  0
LINE
  5
1BB
330
1F
100
AcDbEntity
  8
LC-001-100-D00-0
 62
     7
370
    50
100
AcDbLine
 10
-484.26103
 20
534.191818
 30
0.0
 11
-481.861886
 21
534.191819
 31
0.0
  0
LINE
  5
1BC
330
1F
100
AcDbEntity
  8
LC-001-100-D00-0
 62
     7
370
    50
100
AcDbLine
 10
-486.26103
 20
550.191818
 30
0.0
 11
-490.761038
 21
550.191818
 31
0.0
  0
LINE
  5
1BD
330
1F
100
AcDbEntity
  8
LC-001-100-D00-0
 62
     7
370
    50
100
AcDbLine
 10
-479.41103
 20
553.191818
 30
0.0
 11
-492.76103
 21
553.191818
 31
0.0
  0
LINE
  5
1BE
330
1F
100
AcDbEntity
  8
LC-001-100-D00-0
 62
     7
370
    50
100
AcDbLine
 10
-490.76103
 20
546.191818
 30
0.0
 11
-493.761029
 21
546.191818
 31
0.0
  0
LINE
  5
1BF
330
1F
100
AcDbEntity
  8
LC-001-100-D00-0
 62
     7
370
    50
100
AcDbLine
 10
-462.26103
 20
546.191818
 30
0.0
 11
-460.26103
 21
546.191818
 31
0.0
  0
LINE
  5
1C0
330
1F
100
AcDbEntity
  8
LC-001-100-D00-0
 62
     7
370
    50
100
AcDbLine
 10
-490.76103
 20
546.191818
 30
0.0
 11
-488.76103
 21
546.191818
 31
0.0
  0
LINE
  5
1C1
330
1F
100
AcDbEntity
  8
LC-001-100-D00-0
 62
     7
370
    50
100
AcDbLine
 10
-488.76103
 20
546.191818
 30
0.0
 11
-485.261019
 21
546.191818
 31
0.0
  0
LINE
  5
1C2
330
1F
100
AcDbEntity
  8
LC-001-100-D00-0
 62
     7
370
    50
100
AcDbLine
 10
-465.761032
 20
546.191818
 30
0.0
 11
-462.26103
 21
546.191818
 31
0.0
  0
ARC
  5
1C3
330
1F
100
AcDbEntity
  8
LC-001-100-D00-0
 62
     7
370
    50
100
AcDbCircle
 10
-299.71103
 20
539.423052
 30
0.0
 40
0.6000000000003082
100
AcDbArc
 50
105.0
 51
180.0
  0
LINE
  5
1C4
330
1F
100
AcDbEntity
  8
LC-001-100-D00-0
 62
     7
370
    50
100
AcDbLine
 10
-300.31103
 20
539.423052
 30
0.0
 11
-300.31103
 21
536.960585
 31
0.0
  0
ARC
  5
1C5
330
1F
100
AcDbEntity
  8
LC-001-100-D00-0
 62
     7
370
    50
100
AcDbCircle
 10
-299.71103
 20
536.960585
 30
0.0
 40
0.5999999999999091
100
AcDbArc
 50
180.0
 51
255.0
  0
LINE
  5
1C6
330
1F
100
AcDbEntity
  8
LC-001-100-D00-0
 62
     7
370
    50
100
AcDbLine
 10
-299.866321
 20
536.381029
 30
0.0
 11
-299.160179
 21
536.191818
 31
0.0
  0
LINE
  5
1C7
330
1F
100
AcDbEntity
  8
LC-001-100-D00-0
 62
     7
370
    50
100
AcDbLine
 10
-299.160179
 20
534.191819
 30
0.0
 11
-299.160179
 21
536.191818
 31
0.0
  0
LINE
  5
1C8
330
1F
100
AcDbEntity
  8
LC-001-100-D00-0
 62
     7
370
    50
100
AcDbLine
 10
-299.160179
 20
534.191819
 30
0.0
 11
-301.11103
 21
534.191818
 31
0.0
  0
LINE
  5
1C9
330
1F
100
AcDbEntity
  8
LC-001-100-D00-0
 62
     7
370
    50
100
AcDbLine
 10
-301.11103
 20
534.191818
 30
0.0
 11
-302.11103
 21
535.191818
 31
0.0
  0
LINE
  5
1CA
330
1F
100
AcDbEntity
  8
LC-001-100-D00-0
 62
     7
370
    50
100
AcDbLine
 10
-302.111033
 20
541.191818
 30
0.0
 11
-302.11103
 21
535.191818
 31
0.0
  0
LINE
  5
1CB
330
1F
100
AcDbEntity
  8
LC-001-100-D00-0
 62
     7
370
    50
100
AcDbLine
 10
-302.111033
 20
541.191818
 30
0.0
 11
-301.111031
 21
542.191819
 31
0.0
  0
LINE
  5
1CC
330
1F
100
AcDbEntity
  8
LC-001-100-D00-0
 62
     7
370
    50
100
AcDbLine
 10
-299.160179
 20
542.191819
 30
0.0
 11
-301.111031
 21
542.191819
 31
0.0
  0
LINE
  5
1CD
330
1F
100
AcDbEntity
  8
LC-001-100-D00-0
 62
     7
370
    50
100
AcDbLine
 10
-299.160179
 20
540.191818
 30
0.0
 11
-299.160179
 21
542.191819
 31
0.0
  0
LINE
  5
1CE
330
1F
100
AcDbEntity
  8
LC-001-100-D00-0
 62
     7
370
    50
100
AcDbLine
 10
-299.160179
 20
540.191818
 30
0.0
 11
-299.866321
 21
540.002608
 31
0.0
  0
LINE
  5
1CF
330
1F
100
AcDbEntity
  8
LC-001-100-D00-0
 62
     7
370
    50
100
AcDbLine
 10
-310.71103
 20
536.960585
 30
0.0
 11
-310.71103
 21
539.423052
 31
0.0
  0
LINE
  5
1D0
330
1F
100
AcDbEntity
  8
LC-001-100-D00-0
 62
     7
370
    50
100
AcDbLine
 10
-309.911031
 20
542.191819
 30
0.0
 11
-308.911029
 21
541.191818
 31
0.0
  0
LINE
  5
1D1
330
1F
100
AcDbEntity
  8
LC-001-100-D00-0
 62
     7
370
    50
100
AcDbLine
 10
-308.91103
 20
535.191818
 30
0.0
 11
-309.91103
 21
534.191818
 31
0.0
  0
LINE
  5
1D2
330
1F
100
AcDbEntity
  8
LC-001-100-D00-0
 62
     7
370
    50
100
AcDbLine
 10
-308.91103
 20
535.191818
 30
0.0
 11
-308.75319
 21
535.191818
 31
0.0
  0
LINE
  5
1D3
330
1F
100
AcDbEntity
  8
LC-001-100-D00-0
 62
     7
370
    50
100
AcDbLine
 10
-302.268869
 20
535.191818
 30
0.0
 11
-302.11103
 21
535.191818
 31
0.0
  0
LINE
  5
1D4
330
1F
100
AcDbEntity
  8
LC-001-100-D00-0
 62
     7
370
    50
100
AcDbLine
 10
-301.11103
 20
534.191818
 30
0.0
 11
-301.646811
 21
534.191818
 31
0.0
  0
LINE
  5
1D5
330
1F
100
AcDbEntity
  8
LC-001-100-D00-0
 62
     7
370
    50
100
AcDbLine
 10
-309.375248
 20
534.191818
 30
0.0
 11
-309.91103
 21
534.191818
 31
0.0
  0
LINE
  5
1D6
330
1F
100
AcDbEntity
  8
LC-001-100-D00-0
 62
     7
370
    50
100
AcDbLine
 10
-308.91103
 20
535.191818
 30
0.0
 11
-308.911029
 21
541.191818
 31
0.0
  0
LINE
  5
1D7
330
1F
100
AcDbEntity
  8
LC-001-100-D00-0
 62
     7
370
    50
100
AcDbLine
 10
-311.861884
 20
542.191819
 30
0.0
 11
-311.861884
 21
540.191818
 31
0.0
  0
LINE
  5
1D8
330
1F
100
AcDbEntity
  8
LC-001-100-D00-0
 62
     7
370
    50
100
AcDbLine
 10
-311.861884
 20
536.191818
 30
0.0
 11
-311.861884
 21
534.191819
 31
0.0
  0
LINE
  5
1D9
330
1F
100
AcDbEntity
  8
LC-001-100-D00-0
 62
     7
370
    50
100
AcDbLine
 10
-311.861884
 20
536.191818
 30
0.0
 11
-311.155738
 21
536.381029
 31
0.0
  0
ARC
  5
1DA
330
1F
100
AcDbEntity
  8
LC-001-100-D00-0
 62
     7
370
    50
100
AcDbCircle
 10
-311.31103
 20
536.960585
 30
0.0
 40
0.6000000000003376
100
AcDbArc
 50
285.0
 51
0.0
  0
ARC
  5
1DB
330
1F
100
AcDbEntity
  8
LC-001-100-D00-0
 62
     7
370
    50
100
AcDbCircle
 10
-311.31103
 20
539.423052
 30
0.0
 40
0.6000000000003638
100
AcDbArc
 50
0.0
 51
75.0
  0
LINE
  5
1DC
330
1F
100
AcDbEntity
  8
LC-001-100-D00-0
 62
     7
370
    50
100
AcDbLine
 10
-311.155738
 20
540.002608
 30
0.0
 11
-311.861884
 21
540.191818
 31
0.0
  0
LINE
  5
1DD
330
1F
100
AcDbEntity
  8
LC-001-100-D00-0
 62
     7
370
    50
100
AcDbLine
 10
-309.91103
 20
534.191818
 30
0.0
 11
-311.861884
 21
534.191819
 31
0.0
  0
LINE
  5
1DE
330
1F
100
AcDbEntity
  8
LC-001-100-D00-0
 62
     7
370
    50
100
AcDbLine
 10
-309.911031
 20
542.191819
 30
0.0
 11
-311.861884
 21
542.191819
 31
0.0
  0
LINE
  5
1DF
330
1F
100
AcDbEntity
  8
LC-001-100-D00-0
 62
     7
370
    50
100
AcDbLine
 10
-299.160179
 20
542.191819
 30
0.0
 11
-299.160179
 21
540.191818
 31
0.0
  0
LINE
  5
1E0
330
1F
100
AcDbEntity
  8
LC-001-100-D00-0
 62
     7
370
    50
100
AcDbLine
 10
-301.611032
 20
542.191819
 30
0.0
 11
-299.160179
 21
542.191819
 31
0.0
  0
LINE
  5
1E1
330
1F
100
AcDbEntity
  8
LC-001-100-D00-0
 62
     7
370
    50
100
AcDbLine
 10
-301.61103
 20
553.191818
 30
0.0
 11
-301.611032
 21
542.191819
 31
0.0
  0
LINE
  5
1E2
330
1F
100
AcDbEntity
  8
LC-001-100-D00-0
 62
     7
370
    50
100
AcDbLine
 10
-288.26103
 20
553.191818
 30
0.0
 11
-301.61103
 21
553.191818
 31
0.0
  0
ARC
  5
1E3
330
1F
100
AcDbEntity
  8
LC-001-100-D00-0
 62
     7
370
    50
100
AcDbCircle
 10
-288.26103
 20
552.191818
 30
0.0
 40
0.9999999999998863
100
AcDbArc
 50
0.0
 51
90.0
  0
LINE
  5
1E4
330
1F
100
AcDbEntity
  8
LC-001-100-D00-0
 62
     7
370
    50
100
AcDbLine
 10
-287.261028
 20
546.191818
 30
0.0
 11
-287.26103
 21
552.191818
 31
0.0
  0
LINE
  5
1E5
330
1F
100
AcDbEntity
  8
LC-001-100-D00-0
 62
     7
370
    50
100
AcDbLine
 10
-287.261028
 20
546.191818
 30
0.0
 11
-290.26103
 21
546.191818
 31
0.0
  0
LINE
  5
1E6
330
1F
100
AcDbEntity
  8
LC-001-100-D00-0
 62
     7
370
    50
100
AcDbLine
 10
-290.261026
 20
550.191818
 30
0.0
 11
-290.26103
 21
546.191818
 31
0.0
  0
LINE
  5
1E7
330
1F
100
AcDbEntity
  8
LC-001-100-D00-0
 62
     7
370
    50
100
AcDbLine
 10
-290.261026
 20
550.191818
 30
0.0
 11
-294.76103
 21
550.191818
 31
0.0
  0
ARC
  5
1E8
330
1F
100
AcDbEntity
  8
LC-001-100-D00-0
 62
     7
370
    50
100
AcDbCircle
 10
-294.76103
 20
549.191818
 30
0.0
 40
1.000000000000227
100
AcDbArc
 50
90.0
 51
180.0
  0
LINE
  5
1E9
330
1F
100
AcDbEntity
  8
LC-001-100-D00-0
 62
     7
370
    50
100
AcDbLine
 10
-295.76103
 20
549.191818
 30
0.0
 11
-295.76103
 21
535.191818
 31
0.0
  0
ARC
  5
1EA
330
1F
100
AcDbEntity
  8
LC-001-100-D00-0
 62
     7
370
    50
100
AcDbCircle
 10
-296.76103
 20
535.191818
 30
0.0
 40
1.0
100
AcDbArc
 50
270.0
 51
0.0
  0
LINE
  5
1EB
330
1F
100
AcDbEntity
  8
LC-001-100-D00-0
 62
     7
370
    50
100
AcDbLine
 10
-299.160179
 20
534.191819
 30
0.0
 11
-296.76103
 21
534.191818
 31
0.0
  0
LINE
  5
1EC
330
1F
100
AcDbEntity
  8
LC-001-100-D00-0
 62
     7
370
    50
100
AcDbLine
 10
-299.160179
 20
536.191818
 30
0.0
 11
-299.160179
 21
534.191819
 31
0.0
  0
LINE
  5
1ED
330
1F
100
AcDbEntity
  8
LC-001-100-D00-0
 62
     7
370
    50
100
AcDbLine
 10
-299.160179
 20
536.191818
 30
0.0
 11
-299.81103
 21
536.191818
 31
0.0
  0
ARC
  5
1EE
330
1F
100
AcDbEntity
  8
LC-001-100-D00-0
 62
     7
370
    50
100
AcDbCircle
 10
-299.81103
 20
536.691818
 30
0.0
 40
0.5000000000001137
100
AcDbArc
 50
180.0
 51
270.0
  0
LINE
  5
1EF
330
1F
100
AcDbEntity
  8
LC-001-100-D00-0
 62
     7
370
    50
100
AcDbLine
 10
-300.31103
 20
536.691818
 30
0.0
 11
-300.31103
 21
539.691818
 31
0.0
  0
ARC
  5
1F0
330
1F
100
AcDbEntity
  8
LC-001-100-D00-0
 62
     7
370
    50
100
AcDbCircle
 10
-299.81103
 20
539.691818
 30
0.0
 40
0.5
100
AcDbArc
 50
90.0
 51
180.0
  0
LINE
  5
1F1
330
1F
100
AcDbEntity
  8
LC-001-100-D00-0
 62
     7
370
    50
100
AcDbLine
 10
-299.81103
 20
540.191818
 30
0.0
 11
-299.160179
 21
540.191818
 31
0.0
  0
ARC
  5
1F2
330
1F
100
AcDbEntity
  8
LC-001-100-D00-0
 62
     7
370
    50
100
AcDbCircle
 10
-316.26103
 20
549.191818
 30
0.0
 40
1.000000000000227
100
AcDbArc
 50
0.0
 51
90.0
  0
LINE
  5
1F3
330
1F
100
AcDbEntity
  8
LC-001-100-D00-0
 62
     7
370
    50
100
AcDbLine
 10
-315.26103
 20
535.191818
 30
0.0
 11
-315.26103
 21
549.191818
 31
0.0
  0
LINE
  5
1F4
330
1F
100
AcDbEntity
  8
LC-001-100-D00-0
 62
     7
370
    50
100
AcDbLine
 10
-310.71103
 20
539.691818
 30
0.0
 11
-310.71103
 21
536.691818
 31
0.0
  0
LINE
  5
1F5
330
1F
100
AcDbEntity
  8
LC-001-100-D00-0
 62
     7
370
    50
100
AcDbLine
 10
-309.41103
 20
542.191819
 30
0.0
 11
-309.41103
 21
553.191818
 31
0.0
  0
LINE
  5
1F6
330
1F
100
AcDbEntity
  8
LC-001-100-D00-0
 62
     7
370
    50
100
AcDbLine
 10
-309.41103
 20
553.191818
 30
0.0
 11
-301.61103
 21
553.191818
 31
0.0
  0
ARC
  5
1F7
330
1F
100
AcDbEntity
  8
LC-001-100-D00-0
 62
     7
370
    50
100
AcDbCircle
 10
-314.26103
 20
535.191818
 30
0.0
 40
0.9999999999998863
100
AcDbArc
 50
180.0
 51
270.0
  0
LINE
  5
1F8
330
1F
100
AcDbEntity
  8
LC-001-100-D00-0
 62
     7
370
    50
100
AcDbLine
 10
-311.861884
 20
534.191819
 30
0.0
 11
-311.861884
 21
536.191818
 31
0.0
  0
LINE
  5
1F9
330
1F
100
AcDbEntity
  8
LC-001-100-D00-0
 62
     7
370
    50
100
AcDbLine
 10
-311.861884
 20
540.191818
 30
0.0
 11
-311.861884
 21
542.191819
 31
0.0
  0
ARC
  5
1FA
330
1F
100
AcDbEntity
  8
LC-001-100-D00-0
 62
     7
370
    50
100
AcDbCircle
 10
-311.21103
 20
539.691818
 30
0.0
 40
0.5000000000001137
100
AcDbArc
 50
0.0
 51
90.0
  0
ARC
  5
1FB
330
1F
100
AcDbEntity
  8
LC-001-100-D00-0
 62
     7
370
    50
100
AcDbCircle
 10
-311.21103
 20
536.691818
 30
0.0
 40
0.5
100
AcDbArc
 50
270.0
 51
0.0
  0
LINE
  5
1FC
330
1F
100
AcDbEntity
  8
LC-001-100-D00-0
 62
     7
370
    50
100
AcDbLine
 10
-311.21103
 20
536.191818
 30
0.0
 11
-311.861884
 21
536.191818
 31
0.0
  0
LINE
  5
1FD
330
1F
100
AcDbEntity
  8
LC-001-100-D00-0
 62
     7
370
    50
100
AcDbLine
 10
-320.76103
 20
546.191818
 30
0.0
 11
-320.761029
 21
550.191818
 31
0.0
  0
LINE
  5
1FE
330
1F
100
AcDbEntity
  8
LC-001-100-D00-0
 62
     7
370
    50
100
AcDbLine
 10
-323.76103
 20
552.191818
 30
0.0
 11
-323.761027
 21
546.191818
 31
0.0
  0
ARC
  5
1FF
330
1F
100
AcDbEntity
  8
LC-001-100-D00-0
 62
     7
370
    50
100
AcDbCircle
 10
-322.76103
 20
552.191818
 30
0.0
 40
1.0
100
AcDbArc
 50
90.0
 51
180.0
  0
LINE
  5
200
330
1F
100
AcDbEntity
  8
LC-001-100-D00-0
 62
     7
370
    50
100
AcDbLine
 10
-311.861884
 20
540.191818
 30
0.0
 11
-311.21103
 21
540.191818
 31
0.0
  0
LINE
  5
201
330
1F
100
AcDbEntity
  8
LC-001-100-D00-0
 62
     7
370
    50
100
AcDbLine
 10
-311.861884
 20
542.191819
 30
0.0
 11
-309.41103
 21
542.191819
 31
0.0
  0
LINE
  5
202
330
1F
100
AcDbEntity
  8
LC-001-100-D00-0
 62
     7
370
    50
100
AcDbLine
 10
-314.26103
 20
534.191818
 30
0.0
 11
-311.861884
 21
534.191819
 31
0.0
  0
LINE
  5
203
330
1F
100
AcDbEntity
  8
LC-001-100-D00-0
 62
     7
370
    50
100
AcDbLine
 10
-316.26103
 20
550.191818
 30
0.0
 11
-320.761029
 21
550.191818
 31
0.0
  0
LINE
  5
204
330
1F
100
AcDbEntity
  8
LC-001-100-D00-0
 62
     7
370
    50
100
AcDbLine
 10
-309.41103
 20
553.191818
 30
0.0
 11
-322.76103
 21
553.191818
 31
0.0
  0
LINE
  5
205
330
1F
100
AcDbEntity
  8
LC-001-100-D00-0
 62
     7
370
    50
100
AcDbLine
 10
-320.76103
 20
546.191818
 30
0.0
 11
-323.761027
 21
546.191818
 31
0.0
  0
LINE
  5
206
330
1F
100
AcDbEntity
  8
LC-001-100-D00-0
 62
     7
370
    50
100
AcDbLine
 10
-292.26103
 20
546.191818
 30
0.0
 11
-290.26103
 21
546.191818
 31
0.0
  0
LINE
  5
207
330
1F
100
AcDbEntity
  8
LC-001-100-D00-0
 62
     7
370
    50
100
AcDbLine
 10
-320.76103
 20
546.191818
 30
0.0
 11
-318.76103
 21
546.191818
 31
0.0
  0
LINE
  5
208
330
1F
100
AcDbEntity
  8
LC-001-100-D00-0
 62
     7
370
    50
100
AcDbLine
 10
-318.76103
 20
546.191818
 30
0.0
 11
-315.261032
 21
546.191818
 31
0.0
  0
LINE
  5
209
330
1F
100
AcDbEntity
  8
LC-001-100-D00-0
 62
     7
370
    50
100
AcDbLine
 10
-295.76103
 20
546.191818
 30
0.0
 11
-292.26103
 21
546.191818
 31
0.0
  0
ARC
  5
20A
330
1F
100
AcDbEntity
  8
LC-001-100-D00-0
 62
     7
370
    50
100
AcDbCircle
 10
70.28897
 20
539.423052
 30
0.0
 40
0.6000000000003082
100
AcDbArc
 50
105.0
 51
180.0
  0
LINE
  5
20B
330
1F
100
AcDbEntity
  8
LC-001-100-D00-0
 62
     7
370
    50
100
AcDbLine
 10
69.68897
 20
539.423052
 30
0.0
 11
69.68897
 21
536.960585
 31
0.0
  0
ARC
  5
20C
330
1F
100
AcDbEntity
  8
LC-001-100-D00-0
 62
     7
370
    50
100
AcDbCircle
 10
70.28897
 20
536.960585
 30
0.0
 40
0.6000000000001364
100
AcDbArc
 50
180.0
 51
255.0
  0
LINE
  5
20D
330
1F
100
AcDbEntity
  8
LC-001-100-D00-0
 62
     7
370
    50
100
AcDbLine
 10
70.133679
 20
536.381029
 30
0.0
 11
70.839826
 21
536.191818
 31
0.0
  0
LINE
  5
20E
330
1F
100
AcDbEntity
  8
LC-001-100-D00-0
 62
     7
370
    50
100
AcDbLine
 10
70.839826
 20
534.191819
 30
0.0
 11
70.839826
 21
536.191818
 31
0.0
  0
LINE
  5
20F
330
1F
100
AcDbEntity
  8
LC-001-100-D00-0
 62
     7
370
    50
100
AcDbLine
 10
70.839826
 20
534.191819
 30
0.0
 11
68.88897
 21
534.191818
 31
0.0
  0
LINE
  5
210
330
1F
100
AcDbEntity
  8
LC-001-100-D00-0
 62
     7
370
    50
100
AcDbLine
 10
68.88897
 20
534.191818
 30
0.0
 11
67.88897
 21
535.191818
 31
0.0
  0
LINE
  5
211
330
1F
100
AcDbEntity
  8
LC-001-100-D00-0
 62
     7
370
    50
100
AcDbLine
 10
67.888979
 20
541.191818
 30
0.0
 11
67.88897
 21
535.191818
 31
0.0
  0
LINE
  5
212
330
1F
100
AcDbEntity
  8
LC-001-100-D00-0
 62
     7
370
    50
100
AcDbLine
 10
67.888979
 20
541.191818
 30
0.0
 11
68.888966
 21
542.191819
 31
0.0
  0
LINE
  5
213
330
1F
100
AcDbEntity
  8
LC-001-100-D00-0
 62
     7
370
    50
100
AcDbLine
 10
70.839826
 20
542.191819
 30
0.0
 11
68.888966
 21
542.191819
 31
0.0
  0
LINE
  5
214
330
1F
100
AcDbEntity
  8
LC-001-100-D00-0
 62
     7
370
    50
100
AcDbLine
 10
70.839826
 20
540.191818
 30
0.0
 11
70.839826
 21
542.191819
 31
0.0
  0
LINE
  5
215
330
1F
100
AcDbEntity
  8
LC-001-100-D00-0
 62
     7
370
    50
100
AcDbLine
 10
70.839826
 20
540.191818
 30
0.0
 11
70.133679
 21
540.002608
 31
0.0
  0
LINE
  5
216
330
1F
100
AcDbEntity
  8
LC-001-100-D00-0
 62
     7
370
    50
100
AcDbLine
 10
59.28897
 20
536.960585
 30
0.0
 11
59.28897
 21
539.423052
 31
0.0
  0
LINE
  5
217
330
1F
100
AcDbEntity
  8
LC-001-100-D00-0
 62
     7
370
    50
100
AcDbLine
 10
60.088966
 20
542.191819
 30
0.0
 11
61.088983
 21
541.191818
 31
0.0
  0
LINE
  5
218
330
1F
100
AcDbEntity
  8
LC-001-100-D00-0
 62
     7
370
    50
100
AcDbLine
 10
61.08897
 20
535.191818
 30
0.0
 11
60.08897
 21
534.191818
 31
0.0
  0
LINE
  5
219
330
1F
100
AcDbEntity
  8
LC-001-100-D00-0
 62
     7
370
    50
100
AcDbLine
 10
61.08897
 20
535.191818
 30
0.0
 11
61.24681
 21
535.191818
 31
0.0
  0
LINE
  5
21A
330
1F
100
AcDbEntity
  8
LC-001-100-D00-0
 62
     7
370
    50
100
AcDbLine
 10
67.731131
 20
535.191818
 30
0.0
 11
67.88897
 21
535.191818
 31
0.0
  0
LINE
  5
21B
330
1F
100
AcDbEntity
  8
LC-001-100-D00-0
 62
     7
370
    50
100
AcDbLine
 10
68.88897
 20
534.191818
 30
0.0
 11
68.353189
 21
534.191818
 31
0.0
  0
LINE
  5
21C
330
1F
100
AcDbEntity
  8
LC-001-100-D00-0
 62
     7
370
    50
100
AcDbLine
 10
60.624752
 20
534.191818
 30
0.0
 11
60.08897
 21
534.191818
 31
0.0
  0
LINE
  5
21D
330
1F
100
AcDbEntity
  8
LC-001-100-D00-0
 62
     7
370
    50
100
AcDbLine
 10
61.08897
 20
535.191818
 30
0.0
 11
61.088983
 21
541.191818
 31
0.0
  0
LINE
  5
21E
330
1F
100
AcDbEntity
  8
LC-001-100-D00-0
 62
     7
370
    50
100
AcDbLine
 10
58.138106
 20
542.191819
 30
0.0
 11
58.138106
 21
540.191818
 31
0.0
  0
LINE
  5
21F
330
1F
100
AcDbEntity
  8
LC-001-100-D00-0
 62
     7
370
    50
100
AcDbLine
 10
58.138106
 20
536.191818
 30
0.0
 11
58.138106
 21
534.191819
 31
0.0
  0
LINE
  5
220
330
1F
100
AcDbEntity
  8
LC-001-100-D00-0
 62
     7
370
    50
100
AcDbLine
 10
58.138106
 20
536.191818
 30
0.0
 11
58.844262
 21
536.381029
 31
0.0
  0
ARC
  5
221
330
1F
100
AcDbEntity
  8
LC-001-100-D00-0
 62
     7
370
    50
100
AcDbCircle
 10
58.68897
 20
536.960585
 30
0.0
 40
0.5999999999999277
100
AcDbArc
 50
285.0
 51
0.0
  0
ARC
  5
222
330
1F
100
AcDbEntity
  8
LC-001-100-D00-0
 62
     7
370
    50
100
AcDbCircle
 10
58.68897
 20
539.423052
 30
0.0
 40
0.6000000000003638
100
AcDbArc
 50
0.0
 51
75.0
  0
LINE
  5
223
330
1F
100
AcDbEntity
  8
LC-001-100-D00-0
 62
     7
370
    50
100
AcDbLine
 10
58.844262
 20
540.002608
 30
0.0
 11
58.138106
 21
540.191818
 31
0.0
  0
LINE
  5
224
330
1F
100
AcDbEntity
  8
LC-001-100-D00-0
 62
     7
370
    50
100
AcDbLine
 10
60.08897
 20
534.191818
 30
0.0
 11
58.138106
 21
534.191819
 31
0.0
  0
LINE
  5
225
330
1F
100
AcDbEntity
  8
LC-001-100-D00-0
 62
     7
370
    50
100
AcDbLine
 10
60.088966
 20
542.191819
 30
0.0
 11
58.138106
 21
542.191819
 31
0.0
  0
LINE
  5
226
330
1F
100
AcDbEntity
  8
LC-001-100-D00-0
 62
     7
370
    50
100
AcDbLine
 10
70.839826
 20
542.191819
 30
0.0
 11
70.839826
 21
540.191818
 31
0.0
  0
LINE
  5
227
330
1F
100
AcDbEntity
  8
LC-001-100-D00-0
 62
     7
370
    50
100
AcDbLine
 10
68.388973
 20
542.191819
 30
0.0
 11
70.839826
 21
542.191819
 31
0.0
  0
LINE
  5
228
330
1F
100
AcDbEntity
  8
LC-001-100-D00-0
 62
     7
370
    50
100
AcDbLine
 10
68.38897
 20
553.191818
 30
0.0
 11
68.388973
 21
542.191819
 31
0.0
  0
LINE
  5
229
330
1F
100
AcDbEntity
  8
LC-001-100-D00-0
 62
     7
370
    50
100
AcDbLine
 10
81.73897
 20
553.191818
 30
0.0
 11
68.38897
 21
553.191818
 31
0.0
  0
ARC
  5
22A
330
1F
100
AcDbEntity
  8
LC-001-100-D00-0
 62
     7
370
    50
100
AcDbCircle
 10
81.73897
 20
552.191818
 30
0.0
 40
1.0
100
AcDbArc
 50
0.0
 51
90.0
  0
LINE
  5
22B
330
1F
100
AcDbEntity
  8
LC-001-100-D00-0
 62
     7
370
    50
100
AcDbLine
 10
82.73897
 20
546.191818
 30
0.0
 11
82.73897
 21
552.191818
 31
0.0
  0
LINE
  5
22C
330
1F
100
AcDbEntity
  8
LC-001-100-D00-0
 62
     7
370
    50
100
AcDbLine
 10
82.73897
 20
546.191818
 30
0.0
 11
79.73897
 21
546.191818
 31
0.0
  0
LINE
  5
22D
330
1F
100
AcDbEntity
  8
LC-001-100-D00-0
 62
     7
370
    50
100
AcDbLine
 10
79.738978
 20
550.191818
 30
0.0
 11
79.73897
 21
546.191818
 31
0.0
  0
LINE
  5
22E
330
1F
100
AcDbEntity
  8
LC-001-100-D00-0
 62
     7
370
    50
100
AcDbLine
 10
79.738978
 20
550.191818
 30
0.0
 11
75.23897
 21
550.191818
 31
0.0
  0
ARC
  5
22F
330
1F
100
AcDbEntity
  8
LC-001-100-D00-0
 62
     7
370
    50
100
AcDbCircle
 10
75.23897
 20
549.191818
 30
0.0
 40
1.000000000000227
100
AcDbArc
 50
90.0
 51
180.0
  0
LINE
  5
230
330
1F
100
AcDbEntity
  8
LC-001-100-D00-0
 62
     7
370
    50
100
AcDbLine
 10
74.23897
 20
549.191818
 30
0.0
 11
74.23897
 21
535.191818
 31
0.0
  0
ARC
  5
231
330
1F
100
AcDbEntity
  8
LC-001-100-D00-0
 62
     7
370
    50
100
AcDbCircle
 10
73.23897
 20
535.191818
 30
0.0
 40
1.0
100
AcDbArc
 50
270.0
 51
0.0
  0
LINE
  5
232
330
1F
100
AcDbEntity
  8
LC-001-100-D00-0
 62
     7
370
    50
100
AcDbLine
 10
70.839826
 20
534.191819
 30
0.0
 11
73.23897
 21
534.191818
 31
0.0
  0
LINE
  5
233
330
1F
100
AcDbEntity
  8
LC-001-100-D00-0
 62
     7
370
    50
100
AcDbLine
 10
70.839826
 20
536.191818
 30
0.0
 11
70.839826
 21
534.191819
 31
0.0
  0
LINE
  5
234
330
1F
100
AcDbEntity
  8
LC-001-100-D00-0
 62
     7
370
    50
100
AcDbLine
 10
70.839826
 20
536.191818
 30
0.0
 11
70.18897
 21
536.191818
 31
0.0
  0
ARC
  5
235
330
1F
100
AcDbEntity
  8
LC-001-100-D00-0
 62
     7
370
    50
100
AcDbCircle
 10
70.18897
 20
536.691818
 30
0.0
 40
0.5000000000002274
100
AcDbArc
 50
180.0
 51
270.0
  0
LINE
  5
236
330
1F
100
AcDbEntity
  8
LC-001-100-D00-0
 62
     7
370
    50
100
AcDbLine
 10
69.68897
 20
536.691818
 30
0.0
 11
69.68897
 21
539.691818
 31
0.0
  0
ARC
  5
237
330
1F
100
AcDbEntity
  8
LC-001-100-D00-0
 62
     7
370
    50
100
AcDbCircle
 10
70.18897
 20
539.691818
 30
0.0
 40
0.5
100
AcDbArc
 50
90.0
 51
180.0
  0
LINE
  5
238
330
1F
100
AcDbEntity
  8
LC-001-100-D00-0
 62
     7
370
    50
100
AcDbLine
 10
70.18897
 20
540.191818
 30
0.0
 11
70.839826
 21
540.191818
 31
0.0
  0
ARC
  5
239
330
1F
100
AcDbEntity
  8
LC-001-100-D00-0
 62
     7
370
    50
100
AcDbCircle
 10
53.73897
 20
549.191818
 30
0.0
 40
1.000000000000227
100
AcDbArc
 50
0.0
 51
90.0
  0
LINE
  5
23A
330
1F
100
AcDbEntity
  8
LC-001-100-D00-0
 62
     7
370
    50
100
AcDbLine
 10
54.73897
 20
535.191818
 30
0.0
 11
54.73897
 21
549.191818
 31
0.0
  0
ARC
  5
23B
330
1F
100
AcDbEntity
  8
LC-001-100-D00-0
 62
     7
370
    50
100
AcDbCircle
 10
55.73897
 20
535.191818
 30
0.0
 40
1.0
100
AcDbArc
 50
180.0
 51
270.0
  0
LINE
  5
23C
330
1F
100
AcDbEntity
  8
LC-001-100-D00-0
 62
     7
370
    50
100
AcDbLine
 10
59.28897
 20
539.691818
 30
0.0
 11
59.28897
 21
536.691818
 31
0.0
  0
LINE
  5
23D
330
1F
100
AcDbEntity
  8
LC-001-100-D00-0
 62
     7
370
    50
100
AcDbLine
 10
60.58896
 20
542.191819
 30
0.0
 11
60.58897
 21
553.191818
 31
0.0
  0
LINE
  5
23E
330
1F
100
AcDbEntity
  8
LC-001-100-D00-0
 62
     7
370
    50
100
AcDbLine
 10
60.58897
 20
553.191818
 30
0.0
 11
68.38897
 21
553.191818
 31
0.0
  0
LINE
  5
23F
330
1F
100
AcDbEntity
  8
LC-001-100-D00-0
 62
     7
370
    50
100
AcDbLine
 10
58.138106
 20
534.191819
 30
0.0
 11
58.138106
 21
536.191818
 31
0.0
  0
LINE
  5
240
330
1F
100
AcDbEntity
  8
LC-001-100-D00-0
 62
     7
370
    50
100
AcDbLine
 10
58.138106
 20
540.191818
 30
0.0
 11
58.138106
 21
542.191819
 31
0.0
  0
ARC
  5
241
330
1F
100
AcDbEntity
  8
LC-001-100-D00-0
 62
     7
370
    50
100
AcDbCircle
 10
58.78897
 20
539.691818
 30
0.0
 40
0.5000000000002274
100
AcDbArc
 50
0.0
 51
90.0
  0
ARC
  5
242
330
1F
100
AcDbEntity
  8
LC-001-100-D00-0
 62
     7
370
    50
100
AcDbCircle
 10
58.78897
 20
536.691818
 30
0.0
 40
0.5
100
AcDbArc
 50
270.0
 51
0.0
  0
LINE
  5
243
330
1F
100
AcDbEntity
  8
LC-001-100-D00-0
 62
     7
370
    50
100
AcDbLine
 10
58.78897
 20
536.191818
 30
0.0
 11
58.138106
 21
536.191818
 31
0.0
  0
LINE
  5
244
330
1F
100
AcDbEntity
  8
LC-001-100-D00-0
 62
     7
370
    50
100
AcDbLine
 10
49.23897
 20
546.191818
 30
0.0
 11
49.238984
 21
550.191818
 31
0.0
  0
LINE
  5
245
330
1F
100
AcDbEntity
  8
LC-001-100-D00-0
 62
     7
370
    50
100
AcDbLine
 10
46.23897
 20
552.191818
 30
0.0
 11
46.238963
 21
546.191818
 31
0.0
  0
ARC
  5
246
330
1F
100
AcDbEntity
  8
LC-001-100-D00-0
 62
     7
370
    50
100
AcDbCircle
 10
47.23897
 20
552.191818
 30
0.0
 40
1.0
100
AcDbArc
 50
90.0
 51
180.0
  0
LINE
  5
247
330
1F
100
AcDbEntity
  8
LC-001-100-D00-0
 62
     7
370
    50
100
AcDbLine
 10
58.138106
 20
540.191818
 30
0.0
 11
58.78897
 21
540.191818
 31
0.0
  0
LINE
  5
248
330
1F
100
AcDbEntity
  8
LC-001-100-D00-0
 62
     7
370
    50
100
AcDbLine
 10
58.138106
 20
542.191819
 30
0.0
 11
60.58896
 21
542.191819
 31
0.0
  0
LINE
  5
249
330
1F
100
AcDbEntity
  8
LC-001-100-D00-0
 62
     7
370
    50
100
AcDbLine
 10
55.73897
 20
534.191818
 30
0.0
 11
58.138106
 21
534.191819
 31
0.0
  0
LINE
  5
24A
330
1F
100
AcDbEntity
  8
LC-001-100-D00-0
 62
     7
370
    50
100
AcDbLine
 10
53.73897
 20
550.191818
 30
0.0
 11
49.238984
 21
550.191818
 31
0.0
  0
LINE
  5
24B
330
1F
100
AcDbEntity
  8
LC-001-100-D00-0
 62
     7
370
    50
100
AcDbLine
 10
60.58897
 20
553.191818
 30
0.0
 11
47.23897
 21
553.191818
 31
0.0
  0
LINE
  5
24C
330
1F
100
AcDbEntity
  8
LC-001-100-D00-0
 62
     7
370
    50
100
AcDbLine
 10
49.23897
 20
546.191818
 30
0.0
 11
46.238963
 21
546.191818
 31
0.0
  0
LINE
  5
24D
330
1F
100
AcDbEntity
  8
LC-001-100-D00-0
 62
     7
370
    50
100
AcDbLine
 10
77.73897
 20
546.191818
 30
0.0
 11
79.73897
 21
546.191818
 31
0.0
  0
LINE
  5
24E
330
1F
100
AcDbEntity
  8
LC-001-100-D00-0
 62
     7
370
    50
100
AcDbLine
 10
49.23897
 20
546.191818
 30
0.0
 11
51.23897
 21
546.191818
 31
0.0
  0
LINE
  5
24F
330
1F
100
AcDbEntity
  8
LC-001-100-D00-0
 62
     7
370
    50
100
AcDbLine
 10
51.23897
 20
546.191818
 30
0.0
 11
54.738972
 21
546.191818
 31
0.0
  0
LINE
  5
250
330
1F
100
AcDbEntity
  8
LC-001-100-D00-0
 62
     7
370
    50
100
AcDbLine
 10
74.23896
 20
546.191818
 30
0.0
 11
77.73897
 21
546.191818
 31
0.0
  0
ARC
  5
251
330
1F
100
AcDbEntity
  8
LC-001-100-D00-0
 62
     7
370
    50
100
AcDbCircle
 10
-99.71103
 20
539.423052
 30
0.0
 40
0.6000000000003082
100
AcDbArc
 50
105.0
 51
180.0
  0
LINE
  5
252
330
1F
100
AcDbEntity
  8
LC-001-100-D00-0
 62
     7
370
    50
100
AcDbLine
 10
-100.31103
 20
539.423052
 30
0.0
 11
-100.31103
 21
536.960585
 31
0.0
  0
ARC
  5
253
330
1F
100
AcDbEntity
  8
LC-001-100-D00-0
 62
     7
370
    50
100
AcDbCircle
 10
-99.71103
 20
536.960585
 30
0.0
 40
0.5999999999999091
100
AcDbArc
 50
180.0
 51
255.0
  0
LINE
  5
254
330
1F
100
AcDbEntity
  8
LC-001-100-D00-0
 62
     7
370
    50
100
AcDbLine
 10
-99.866321
 20
536.381029
 30
0.0
 11
-99.160176
 21
536.191818
 31
0.0
  0
LINE
  5
255
330
1F
100
AcDbEntity
  8
LC-001-100-D00-0
 62
     7
370
    50
100
AcDbLine
 10
-99.160176
 20
534.191819
 30
0.0
 11
-99.160176
 21
536.191818
 31
0.0
  0
LINE
  5
256
330
1F
100
AcDbEntity
  8
LC-001-100-D00-0
 62
     7
370
    50
100
AcDbLine
 10
-99.160176
 20
534.191819
 30
0.0
 11
-101.11103
 21
534.191818
 31
0.0
  0
LINE
  5
257
330
1F
100
AcDbEntity
  8
LC-001-100-D00-0
 62
     7
370
    50
100
AcDbLine
 10
-101.11103
 20
534.191818
 30
0.0
 11
-102.11103
 21
535.191818
 31
0.0
  0
LINE
  5
258
330
1F
100
AcDbEntity
  8
LC-001-100-D00-0
 62
     7
370
    50
100
AcDbLine
 10
-102.11103
 20
541.191818
 30
0.0
 11
-102.11103
 21
535.191818
 31
0.0
  0
LINE
  5
259
330
1F
100
AcDbEntity
  8
LC-001-100-D00-0
 62
     7
370
    50
100
AcDbLine
 10
-102.11103
 20
541.191818
 30
0.0
 11
-101.111028
 21
542.191819
 31
0.0
  0
LINE
  5
25A
330
1F
100
AcDbEntity
  8
LC-001-100-D00-0
 62
     7
370
    50
100
AcDbLine
 10
-99.160176
 20
542.191819
 30
0.0
 11
-101.111028
 21
542.191819
 31
0.0
  0
LINE
  5
25B
330
1F
100
AcDbEntity
  8
LC-001-100-D00-0
 62
     7
370
    50
100
AcDbLine
 10
-99.160176
 20
540.191818
 30
0.0
 11
-99.160176
 21
542.191819
 31
0.0
  0
LINE
  5
25C
330
1F
100
AcDbEntity
  8
LC-001-100-D00-0
 62
     7
370
    50
100
AcDbLine
 10
-99.160176
 20
540.191818
 30
0.0
 11
-99.866321
 21
540.002608
 31
0.0
  0
LINE
  5
25D
330
1F
100
AcDbEntity
  8
LC-001-100-D00-0
 62
     7
370
    50
100
AcDbLine
 10
-110.71103
 20
536.960585
 30
0.0
 11
-110.71103
 21
539.423052
 31
0.0
  0
LINE
  5
25E
330
1F
100
AcDbEntity
  8
LC-001-100-D00-0
 62
     7
370
    50
100
AcDbLine
 10
-109.911028
 20
542.191819
 30
0.0
 11
-108.911026
 21
541.191818
 31
0.0
  0
LINE
  5
25F
330
1F
100
AcDbEntity
  8
LC-001-100-D00-0
 62
     7
370
    50
100
AcDbLine
 10
-108.91103
 20
535.191818
 30
0.0
 11
-109.91103
 21
534.191818
 31
0.0
  0
LINE
  5
260
330
1F
100
AcDbEntity
  8
LC-001-100-D00-0
 62
     7
370
    50
100
AcDbLine
 10
-108.91103
 20
535.191818
 30
0.0
 11
-108.75319
 21
535.191818
 31
0.0
  0
LINE
  5
261
330
1F
100
AcDbEntity
  8
LC-001-100-D00-0
 62
     7
370
    50
100
AcDbLine
 10
-102.268869
 20
535.191818
 30
0.0
 11
-102.11103
 21
535.191818
 31
0.0
  0
LINE
  5
262
330
1F
100
AcDbEntity
  8
LC-001-100-D00-0
 62
     7
370
    50
100
AcDbLine
 10
-101.11103
 20
534.191818
 30
0.0
 11
-101.646811
 21
534.191818
 31
0.0
  0
LINE
  5
263
330
1F
100
AcDbEntity
  8
LC-001-100-D00-0
 62
     7
370
    50
100
AcDbLine
 10
-109.375248
 20
534.191818
 30
0.0
 11
-109.91103
 21
534.191818
 31
0.0
  0
LINE
  5
264
330
1F
100
AcDbEntity
  8
LC-001-100-D00-0
 62
     7
370
    50
100
AcDbLine
 10
-108.91103
 20
535.191818
 30
0.0
 11
-108.911026
 21
541.191818
 31
0.0
  0
LINE
  5
265
330
1F
100
AcDbEntity
  8
LC-001-100-D00-0
 62
     7
370
    50
100
AcDbLine
 10
-111.861881
 20
542.191819
 30
0.0
 11
-111.861881
 21
540.191818
 31
0.0
  0
LINE
  5
266
330
1F
100
AcDbEntity
  8
LC-001-100-D00-0
 62
     7
370
    50
100
AcDbLine
 10
-111.861881
 20
536.191818
 30
0.0
 11
-111.861881
 21
534.191819
 31
0.0
  0
LINE
  5
267
330
1F
100
AcDbEntity
  8
LC-001-100-D00-0
 62
     7
370
    50
100
AcDbLine
 10
-111.861881
 20
536.191818
 30
0.0
 11
-111.155738
 21
536.381029
 31
0.0
  0
ARC
  5
268
330
1F
100
AcDbEntity
  8
LC-001-100-D00-0
 62
     7
370
    50
100
AcDbCircle
 10
-111.31103
 20
536.960585
 30
0.0
 40
0.5999999999998983
100
AcDbArc
 50
285.0
 51
0.0
  0
ARC
  5
269
330
1F
100
AcDbEntity
  8
LC-001-100-D00-0
 62
     7
370
    50
100
AcDbCircle
 10
-111.31103
 20
539.423052
 30
0.0
 40
0.6000000000003638
100
AcDbArc
 50
0.0
 51
75.0
  0
LINE
  5
26A
330
1F
100
AcDbEntity
  8
LC-001-100-D00-0
 62
     7
370
    50
100
AcDbLine
 10
-111.155738
 20
540.002608
 30
0.0
 11
-111.861881
 21
540.191818
 31
0.0
  0
LINE
  5
26B
330
1F
100
AcDbEntity
  8
LC-001-100-D00-0
 62
     7
370
    50
100
AcDbLine
 10
-109.91103
 20
534.191818
 30
0.0
 11
-111.861881
 21
534.191819
 31
0.0
  0
LINE
  5
26C
330
1F
100
AcDbEntity
  8
LC-001-100-D00-0
 62
     7
370
    50
100
AcDbLine
 10
-109.911028
 20
542.191819
 30
0.0
 11
-111.861881
 21
542.191819
 31
0.0
  0
LINE
  5
26D
330
1F
100
AcDbEntity
  8
LC-001-100-D00-0
 62
     7
370
    50
100
AcDbLine
 10
-99.160176
 20
542.191819
 30
0.0
 11
-99.160176
 21
540.191818
 31
0.0
  0
LINE
  5
26E
330
1F
100
AcDbEntity
  8
LC-001-100-D00-0
 62
     7
370
    50
100
AcDbLine
 10
-101.611029
 20
542.191819
 30
0.0
 11
-99.160176
 21
542.191819
 31
0.0
  0
LINE
  5
26F
330
1F
100
AcDbEntity
  8
LC-001-100-D00-0
 62
     7
370
    50
100
AcDbLine
 10
-101.61103
 20
553.191818
 30
0.0
 11
-101.611029
 21
542.191819
 31
0.0
  0
LINE
  5
270
330
1F
100
AcDbEntity
  8
LC-001-100-D00-0
 62
     7
370
    50
100
AcDbLine
 10
-88.26103
 20
553.191818
 30
0.0
 11
-101.61103
 21
553.191818
 31
0.0
  0
ARC
  5
271
330
1F
100
AcDbEntity
  8
LC-001-100-D00-0
 62
     7
370
    50
100
AcDbCircle
 10
-88.26103
 20
552.191818
 30
0.0
 40
1.0
100
AcDbArc
 50
0.0
 51
90.0
  0
LINE
  5
272
330
1F
100
AcDbEntity
  8
LC-001-100-D00-0
 62
     7
370
    50
100
AcDbLine
 10
-87.261032
 20
546.191818
 30
0.0
 11
-87.26103
 21
552.191818
 31
0.0
  0
LINE
  5
273
330
1F
100
AcDbEntity
  8
LC-001-100-D00-0
 62
     7
370
    50
100
AcDbLine
 10
-87.261032
 20
546.191818
 30
0.0
 11
-90.26103
 21
546.191818
 31
0.0
  0
LINE
  5
274
330
1F
100
AcDbEntity
  8
LC-001-100-D00-0
 62
     7
370
    50
100
AcDbLine
 10
-90.261031
 20
550.191818
 30
0.0
 11
-90.26103
 21
546.191818
 31
0.0
  0
LINE
  5
275
330
1F
100
AcDbEntity
  8
LC-001-100-D00-0
 62
     7
370
    50
100
AcDbLine
 10
-90.261031
 20
550.191818
 30
0.0
 11
-94.76103
 21
550.191818
 31
0.0
  0
ARC
  5
276
330
1F
100
AcDbEntity
  8
LC-001-100-D00-0
 62
     7
370
    50
100
AcDbCircle
 10
-94.76103
 20
549.191818
 30
0.0
 40
1.000000000000227
100
AcDbArc
 50
90.0
 51
180.0
  0
LINE
  5
277
330
1F
100
AcDbEntity
  8
LC-001-100-D00-0
 62
     7
370
    50
100
AcDbLine
 10
-95.76103
 20
549.191818
 30
0.0
 11
-95.76103
 21
535.191818
 31
0.0
  0
ARC
  5
278
330
1F
100
AcDbEntity
  8
LC-001-100-D00-0
 62
     7
370
    50
100
AcDbCircle
 10
-96.76103
 20
535.191818
 30
0.0
 40
1.0
100
AcDbArc
 50
270.0
 51
0.0
  0
LINE
  5
279
330
1F
100
AcDbEntity
  8
LC-001-100-D00-0
 62
     7
370
    50
100
AcDbLine
 10
-99.160176
 20
534.191819
 30
0.0
 11
-96.76103
 21
534.191818
 31
0.0
  0
LINE
  5
27A
330
1F
100
AcDbEntity
  8
LC-001-100-D00-0
 62
     7
370
    50
100
AcDbLine
 10
-99.160176
 20
536.191818
 30
0.0
 11
-99.160176
 21
534.191819
 31
0.0
  0
LINE
  5
27B
330
1F
100
AcDbEntity
  8
LC-001-100-D00-0
 62
     7
370
    50
100
AcDbLine
 10
-99.160176
 20
536.191818
 30
0.0
 11
-99.81103
 21
536.191818
 31
0.0
  0
ARC
  5
27C
330
1F
100
AcDbEntity
  8
LC-001-100-D00-0
 62
     7
370
    50
100
AcDbCircle
 10
-99.81103
 20
536.691818
 30
0.0
 40
0.5000000000001137
100
AcDbArc
 50
180.0
 51
270.0
  0
LINE
  5
27D
330
1F
100
AcDbEntity
  8
LC-001-100-D00-0
 62
     7
370
    50
100
AcDbLine
 10
-100.31103
 20
536.691818
 30
0.0
 11
-100.31103
 21
539.691818
 31
0.0
  0
ARC
  5
27E
330
1F
100
AcDbEntity
  8
LC-001-100-D00-0
 62
     7
370
    50
100
AcDbCircle
 10
-99.81103
 20
539.691818
 30
0.0
 40
0.5
100
AcDbArc
 50
90.0
 51
180.0
  0
LINE
  5
27F
330
1F
100
AcDbEntity
  8
LC-001-100-D00-0
 62
     7
370
    50
100
AcDbLine
 10
-99.81103
 20
540.191818
 30
0.0
 11
-99.160176
 21
540.191818
 31
0.0
  0
ARC
  5
280
330
1F
100
AcDbEntity
  8
LC-001-100-D00-0
 62
     7
370
    50
100
AcDbCircle
 10
-116.26103
 20
549.191818
 30
0.0
 40
1.000000000000227
100
AcDbArc
 50
0.0
 51
90.0
  0
LINE
  5
281
330
1F
100
AcDbEntity
  8
LC-001-100-D00-0
 62
     7
370
    50
100
AcDbLine
 10
-115.26103
 20
535.191818
 30
0.0
 11
-115.26103
 21
549.191818
 31
0.0
  0
LINE
  5
282
330
1F
100
AcDbEntity
  8
LC-001-100-D00-0
 62
     7
370
    50
100
AcDbLine
 10
-110.71103
 20
539.691818
 30
0.0
 11
-110.71103
 21
536.691818
 31
0.0
  0
LINE
  5
283
330
1F
100
AcDbEntity
  8
LC-001-100-D00-0
 62
     7
370
    50
100
AcDbLine
 10
-109.411027
 20
542.191819
 30
0.0
 11
-109.41103
 21
553.191818
 31
0.0
  0
LINE
  5
284
330
1F
100
AcDbEntity
  8
LC-001-100-D00-0
 62
     7
370
    50
100
AcDbLine
 10
-109.41103
 20
553.191818
 30
0.0
 11
-101.61103
 21
553.191818
 31
0.0
  0
ARC
  5
285
330
1F
100
AcDbEntity
  8
LC-001-100-D00-0
 62
     7
370
    50
100
AcDbCircle
 10
-114.26103
 20
535.191818
 30
0.0
 40
0.9999999999998863
100
AcDbArc
 50
180.0
 51
270.0
  0
LINE
  5
286
330
1F
100
AcDbEntity
  8
LC-001-100-D00-0
 62
     7
370
    50
100
AcDbLine
 10
-111.861881
 20
534.191819
 30
0.0
 11
-111.861881
 21
536.191818
 31
0.0
  0
LINE
  5
287
330
1F
100
AcDbEntity
  8
LC-001-100-D00-0
 62
     7
370
    50
100
AcDbLine
 10
-111.861881
 20
540.191818
 30
0.0
 11
-111.861881
 21
542.191819
 31
0.0
  0
ARC
  5
288
330
1F
100
AcDbEntity
  8
LC-001-100-D00-0
 62
     7
370
    50
100
AcDbCircle
 10
-111.21103
 20
539.691818
 30
0.0
 40
0.5000000000001137
100
AcDbArc
 50
0.0
 51
90.0
  0
ARC
  5
289
330
1F
100
AcDbEntity
  8
LC-001-100-D00-0
 62
     7
370
    50
100
AcDbCircle
 10
-111.21103
 20
536.691818
 30
0.0
 40
0.5
100
AcDbArc
 50
270.0
 51
0.0
  0
LINE
  5
28A
330
1F
100
AcDbEntity
  8
LC-001-100-D00-0
 62
     7
370
    50
100
AcDbLine
 10
-111.21103
 20
536.191818
 30
0.0
 11
-111.861881
 21
536.191818
 31
0.0
  0
LINE
  5
28B
330
1F
100
AcDbEntity
  8
LC-001-100-D00-0
 62
     7
370
    50
100
AcDbLine
 10
-120.76103
 20
546.191818
 30
0.0
 11
-120.761033
 21
550.191818
 31
0.0
  0
LINE
  5
28C
330
1F
100
AcDbEntity
  8
LC-001-100-D00-0
 62
     7
370
    50
100
AcDbLine
 10
-123.76103
 20
552.191818
 30
0.0
 11
-123.761032
 21
546.191818
 31
0.0
  0
ARC
  5
28D
330
1F
100
AcDbEntity
  8
LC-001-100-D00-0
 62
     7
370
    50
100
AcDbCircle
 10
-122.76103
 20
552.191818
 30
0.0
 40
1.0
100
AcDbArc
 50
90.0
 51
180.0
  0
LINE
  5
28E
330
1F
100
AcDbEntity
  8
LC-001-100-D00-0
 62
     7
370
    50
100
AcDbLine
 10
-111.861881
 20
540.191818
 30
0.0
 11
-111.21103
 21
540.191818
 31
0.0
  0
LINE
  5
28F
330
1F
100
AcDbEntity
  8
LC-001-100-D00-0
 62
     7
370
    50
100
AcDbLine
 10
-111.861881
 20
542.191819
 30
0.0
 11
-109.411027
 21
542.191819
 31
0.0
  0
LINE
  5
290
330
1F
100
AcDbEntity
  8
LC-001-100-D00-0
 62
     7
370
    50
100
AcDbLine
 10
-114.26103
 20
534.191818
 30
0.0
 11
-111.861881
 21
534.191819
 31
0.0
  0
LINE
  5
291
330
1F
100
AcDbEntity
  8
LC-001-100-D00-0
 62
     7
370
    50
100
AcDbLine
 10
-116.26103
 20
550.191818
 30
0.0
 11
-120.761033
 21
550.191818
 31
0.0
  0
LINE
  5
292
330
1F
100
AcDbEntity
  8
LC-001-100-D00-0
 62
     7
370
    50
100
AcDbLine
 10
-109.41103
 20
553.191818
 30
0.0
 11
-122.76103
 21
553.191818
 31
0.0
  0
LINE
  5
293
330
1F
100
AcDbEntity
  8
LC-001-100-D00-0
 62
     7
370
    50
100
AcDbLine
 10
-120.76103
 20
546.191818
 30
0.0
 11
-123.761032
 21
546.191818
 31
0.0
  0
LINE
  5
294
330
1F
100
AcDbEntity
  8
LC-001-100-D00-0
 62
     7
370
    50
100
AcDbLine
 10
-92.26103
 20
546.191818
 30
0.0
 11
-90.26103
 21
546.191818
 31
0.0
  0
LINE
  5
295
330
1F
100
AcDbEntity
  8
LC-001-100-D00-0
 62
     7
370
    50
100
AcDbLine
 10
-120.76103
 20
546.191818
 30
0.0
 11
-118.76103
 21
546.191818
 31
0.0
  0
LINE
  5
296
330
1F
100
AcDbEntity
  8
LC-001-100-D00-0
 62
     7
370
    50
100
AcDbLine
 10
-118.76103
 20
546.191818
 30
0.0
 11
-115.261029
 21
546.191818
 31
0.0
  0
LINE
  5
297
330
1F
100
AcDbEntity
  8
LC-001-100-D00-0
 62
     7
370
    50
100
AcDbLine
 10
-95.761027
 20
546.191818
 30
0.0
 11
-92.26103
 21
546.191818
 31
0.0
  0
LINE
  5
298
330
1F
100
AcDbEntity
  8
LC-001-100-D00-0
 62
     7
370
    50
100
AcDbLine
 10
-147.01103
 20
523.348902
 30
0.0
 11
-148.198644
 21
521.20639
 31
0.0
  0
ARC
  5
299
330
1F
100
AcDbEntity
  8
LC-001-100-D00-0
 62
     7
370
    50
100
AcDbCircle
 10
-148.46103
 20
521.351832
 30
0.0
 40
0.3000000000000682
100
AcDbArc
 50
180.0
 51
331.0
  0
LINE
  5
29A
330
1F
100
AcDbEntity
  8
LC-001-100-D00-0
 62
     7
370
    50
100
AcDbLine
 10
-148.76103
 20
521.351832
 30
0.0
 11
-148.76103
 21
523.892072
 31
0.0
  0
ARC
  5
29B
330
1F
100
AcDbEntity
  8
LC-001-100-D00-0
 62
     7
370
    50
100
AcDbCircle
 10
-146.76103
 20
523.892072
 30
0.0
 40
2.000000000000126
100
AcDbArc
 50
113.962489
 51
180.0
  0
LINE
  5
29C
330
1F
100
AcDbEntity
  8
LC-001-100-D00-0
 62
     7
370
    50
100
AcDbLine
 10
-147.573307
 20
525.719695
 30
0.0
 11
-146.704954
 21
526.10563
 31
0.0
  0
ARC
  5
29D
330
1F
100
AcDbEntity
  8
LC-001-100-D00-0
 62
     7
370
    50
100
AcDbCircle
 10
-146.298815
 20
525.191818
 30
0.0
 40
1.0
100
AcDbArc
 50
90.0
 51
113.962489
  0
LINE
  5
29E
330
1F
100
AcDbEntity
  8
LC-001-100-D00-0
 62
     7
370
    50
100
AcDbLine
 10
-140.511032
 20
522.191819
 30
0.0
 11
-140.511032
 21
526.191818
 31
0.0
  0
LINE
  5
29F
330
1F
100
AcDbEntity
  8
LC-001-100-D00-0
 62
     7
370
    50
100
AcDbLine
 10
-146.51103
 20
522.191818
 30
0.0
 11
-146.51103
 21
522.971612
 31
0.0
  0
ARC
  5
2A0
330
1F
100
AcDbEntity
  8
LC-001-100-D00-0
 62
     7
370
    50
100
AcDbCircle
 10
-146.81103
 20
522.971612
 30
0.0
 40
0.3000000000001819
100
AcDbArc
 50
0.0
 51
72.558995
  0
LINE
  5
2A1
330
1F
100
AcDbEntity
  8
LC-001-100-D00-0
 62
     7
370
    50
100
AcDbLine
 10
-146.721113
 20
523.25782
 30
0.0
 11
-147.01103
 21
523.348902
 31
0.0
  0
LINE
  5
2A2
330
1F
100
AcDbEntity
  8
LC-001-100-D00-0
 62
     7
370
    50
100
AcDbLine
 10
-146.51103
 20
522.191818
 30
0.0
 11
-140.511032
 21
522.191819
 31
0.0
  0
LINE
  5
2A3
330
1F
100
AcDbEntity
  8
LC-001-100-D00-0
 62
     7
370
    50
100
AcDbLine
 10
-146.298815
 20
526.191818
 30
0.0
 11
-140.511032
 21
526.191818
 31
0.0
  0
LINE
  5
2A4
330
1F
100
AcDbEntity
  8
LC-001-100-D00-0
 62
     7
370
    50
100
AcDbLine
 10
-146.51103
 20
522.191818
 30
0.0
 11
-147.652412
 21
522.191818
 31
0.0
  0
LINE
  5
2A5
330
1F
100
AcDbEntity
  8
LC-001-100-D00-0
 62
     7
370
    50
100
AcDbLine
 10
-147.061518
 20
523.25782
 30
0.0
 11
-146.721113
 21
523.25782
 31
0.0
  0
LINE
  5
2A6
330
1F
100
AcDbEntity
  8
LC-001-100-D00-0
 62
     7
370
    50
100
AcDbLine
 10
-264.51103
 20
522.971612
 30
0.0
 11
-264.51103
 21
522.191818
 31
0.0
  0
LINE
  5
2A7
330
1F
100
AcDbEntity
  8
LC-001-100-D00-0
 62
     7
370
    50
100
AcDbLine
 10
-263.369648
 20
522.191818
 30
0.0
 11
-264.51103
 21
522.191818
 31
0.0
  0
LINE
  5
2A8
330
1F
100
AcDbEntity
  8
LC-001-100-D00-0
 62
     7
370
    50
100
AcDbLine
 10
-264.300947
 20
523.25782
 30
0.0
 11
-263.960542
 21
523.25782
 31
0.0
  0
ARC
  5
2A9
330
1F
100
AcDbEntity
  8
LC-001-100-D00-0
 62
     7
370
    50
100
AcDbCircle
 10
-264.21103
 20
522.971612
 30
0.0
 40
0.3000000000000931
100
AcDbArc
 50
107.441005
 51
180.0
  0
ARC
  5
2AA
330
1F
100
AcDbEntity
  8
LC-001-100-D00-0
 62
     7
370
    50
100
AcDbCircle
 10
-262.56103
 20
521.351832
 30
0.0
 40
0.3000000000001418
100
AcDbArc
 50
209.0
 51
0.0
  0
LINE
  5
2AB
330
1F
100
AcDbEntity
  8
LC-001-100-D00-0
 62
     7
370
    50
100
AcDbLine
 10
-262.26103
 20
523.892072
 30
0.0
 11
-262.26103
 21
521.351832
 31
0.0
  0
LINE
  5
2AC
330
1F
100
AcDbEntity
  8
LC-001-100-D00-0
 62
     7
370
    50
100
AcDbLine
 10
-262.823416
 20
521.20639
 30
0.0
 11
-264.011029
 21
523.348902
 31
0.0
  0
ARC
  5
2AD
330
1F
100
AcDbEntity
  8
LC-001-100-D00-0
 62
     7
370
    50
100
AcDbCircle
 10
-264.26103
 20
523.892072
 30
0.0
 40
2.0
100
AcDbArc
 50
0.0
 51
66.037511
  0
LINE
  5
2AE
330
1F
100
AcDbEntity
  8
LC-001-100-D00-0
 62
     7
370
    50
100
AcDbLine
 10
-264.011029
 20
523.348902
 30
0.0
 11
-264.300947
 21
523.25782
 31
0.0
  0
LINE
  5
2AF
330
1F
100
AcDbEntity
  8
LC-001-100-D00-0
 62
     7
370
    50
100
AcDbLine
 10
-264.317106
 20
526.10563
 30
0.0
 11
-263.448753
 21
525.719695
 31
0.0
  0
LINE
  5
2B0
330
1F
100
AcDbEntity
  8
LC-001-100-D00-0
 62
     7
370
    50
100
AcDbLine
 10
-270.511027
 20
526.191818
 30
0.0
 11
-270.511027
 21
522.191819
 31
0.0
  0
ARC
  5
2B1
330
1F
100
AcDbEntity
  8
LC-001-100-D00-0
 62
     7
370
    50
100
AcDbCircle
 10
-264.723244
 20
525.191818
 30
0.0
 40
0.9999999999997051
100
AcDbArc
 50
66.037511
 51
90.0
  0
LINE
  5
2B2
330
1F
100
AcDbEntity
  8
LC-001-100-D00-0
 62
     7
370
    50
100
AcDbLine
 10
-270.511027
 20
522.191819
 30
0.0
 11
-264.51103
 21
522.191818
 31
0.0
  0
LINE
  5
2B3
330
1F
100
AcDbEntity
  8
LC-001-100-D00-0
 62
     7
370
    50
100
AcDbLine
 10
-270.511027
 20
526.191818
 30
0.0
 11
-264.723244
 21
526.191818
 31
0.0
  0
LINE
  5
2B4
330
1F
100
AcDbEntity
  8
LC-001-100-D00-0
 62
     7
370
    50
100
AcDbLine
 10
-131.511029
 20
502.44182
 30
0.0
 11
-131.511029
 21
526.191818
 31
0.0
  0
LINE
  5
2B5
330
1F
100
AcDbEntity
  8
LC-001-100-D00-0
 62
     7
370
    50
100
AcDbLine
 10
-134.51103
 20
502.441818
 30
0.0
 11
-134.511027
 21
523.191819
 31
0.0
  0
LINE
  5
2B6
330
1F
100
AcDbEntity
  8
LC-001-100-D00-0
 62
     7
370
    50
100
AcDbLine
 10
-137.511026
 20
519.191817
 30
0.0
 11
-137.511026
 21
523.191819
 31
0.0
  0
LINE
  5
2B7
330
1F
100
AcDbEntity
  8
LC-001-100-D00-0
 62
     7
370
    50
100
AcDbLine
 10
-137.511026
 20
519.191817
 30
0.0
 11
-143.51103
 21
519.191818
 31
0.0
  0
LINE
  5
2B8
330
1F
100
AcDbEntity
  8
LC-001-100-D00-0
 62
     7
370
    50
100
AcDbLine
 10
-143.51103
 20
519.191818
 30
0.0
 11
-143.511031
 21
522.191819
 31
0.0
  0
LINE
  5
2B9
330
1F
100
AcDbEntity
  8
LC-001-100-D00-0
 62
     7
370
    50
100
AcDbLine
 10
-143.511031
 20
522.191819
 30
0.0
 11
-140.511032
 21
522.191819
 31
0.0
  0
LINE
  5
2BA
330
1F
100
AcDbEntity
  8
LC-001-100-D00-0
 62
     7
370
    50
100
AcDbLine
 10
-140.511032
 20
526.191818
 30
0.0
 11
-140.511032
 21
522.191819
 31
0.0
  0
LINE
  5
2BB
330
1F
100
AcDbEntity
  8
LC-001-100-D00-0
 62
     7
370
    50
100
AcDbLine
 10
-134.511027
 20
523.191819
 30
0.0
 11
-137.511026
 21
523.191819
 31
0.0
  0
LINE
  5
2BC
330
1F
100
AcDbEntity
  8
LC-001-100-D00-0
 62
     7
370
    50
100
AcDbLine
 10
-140.511032
 20
526.191818
 30
0.0
 11
-131.511029
 21
526.191818
 31
0.0
  0
LINE
  5
2BD
330
1F
100
AcDbEntity
  8
LC-001-100-D00-0
 62
     7
370
    50
100
AcDbLine
 10
-131.511029
 20
502.44182
 30
0.0
 11
-134.51103
 21
502.441818
 31
0.0
  0
LINE
  5
2BE
330
1F
100
AcDbEntity
  8
LC-001-100-D00-0
 62
     7
370
    50
100
AcDbLine
 10
-155.210622
 20
502.441818
 30
0.0
 11
-134.51103
 21
502.441818
 31
0.0
  0
LINE
  5
2BF
330
1F
100
AcDbEntity
  8
LC-001-100-D00-0
 62
     7
370
    50
100
AcDbLine
 10
-150.26103
 20
519.191818
 30
0.0
 11
-143.51103
 21
519.191818
 31
0.0
  0
LINE
  5
2C0
330
1F
100
AcDbEntity
  8
LC-001-100-D00-0
 62
     7
370
    50
100
AcDbLine
 10
-267.511029
 20
522.191819
 30
0.0
 11
-267.51103
 21
519.191818
 31
0.0
  0
LINE
  5
2C1
330
1F
100
AcDbEntity
  8
LC-001-100-D00-0
 62
     7
370
    50
100
AcDbLine
 10
-267.51103
 20
519.191818
 30
0.0
 11
-260.76103
 21
519.191818
 31
0.0
  0
LINE
  5
2C2
330
1F
100
AcDbEntity
  8
LC-001-100-D00-0
 62
     7
370
    50
100
AcDbLine
 10
-270.511027
 20
522.191819
 30
0.0
 11
-270.511027
 21
526.191818
 31
0.0
  0
LINE
  5
2C3
330
1F
100
AcDbEntity
  8
LC-001-100-D00-0
 62
     7
370
    50
100
AcDbLine
 10
-273.511033
 20
523.191819
 30
0.0
 11
-273.511033
 21
519.191817
 31
0.0
  0
LINE
  5
2C4
330
1F
100
AcDbEntity
  8
LC-001-100-D00-0
 62
     7
370
    50
100
AcDbLine
 10
-279.511031
 20
526.191818
 30
0.0
 11
-279.511031
 21
502.44182
 31
0.0
  0
LINE
  5
2C5
330
1F
100
AcDbEntity
  8
LC-001-100-D00-0
 62
     7
370
    50
100
AcDbLine
 10
-276.511032
 20
523.191819
 30
0.0
 11
-276.51103
 21
502.441818
 31
0.0
  0
LINE
  5
2C6
330
1F
100
AcDbEntity
  8
LC-001-100-D00-0
 62
     7
370
    50
100
AcDbLine
 10
-276.51103
 20
502.441818
 30
0.0
 11
-255.811437
 21
502.441818
 31
0.0
  0
LINE
  5
2C7
330
1F
100
AcDbEntity
  8
LC-001-100-D00-0
 62
     7
370
    50
100
AcDbLine
 10
-270.511027
 20
522.191819
 30
0.0
 11
-267.511029
 21
522.191819
 31
0.0
  0
LINE
  5
2C8
330
1F
100
AcDbEntity
  8
LC-001-100-D00-0
 62
     7
370
    50
100
AcDbLine
 10
-267.51103
 20
519.191818
 30
0.0
 11
-273.511033
 21
519.191817
 31
0.0
  0
LINE
  5
2C9
330
1F
100
AcDbEntity
  8
LC-001-100-D00-0
 62
     7
370
    50
100
AcDbLine
 10
-273.511033
 20
523.191819
 30
0.0
 11
-276.511032
 21
523.191819
 31
0.0
  0
LINE
  5
2CA
330
1F
100
AcDbEntity
  8
LC-001-100-D00-0
 62
     7
370
    50
100
AcDbLine
 10
-279.511031
 20
526.191818
 30
0.0
 11
-270.511027
 21
526.191818
 31
0.0
  0
LINE
  5
2CB
330
1F
100
AcDbEntity
  8
LC-001-100-D00-0
 62
     7
370
    50
100
AcDbLine
 10
-276.51103
 20
502.441818
 30
0.0
 11
-279.511031
 21
502.44182
 31
0.0
  0
LINE
  5
2CC
330
1F
100
AcDbEntity
  8
LC-001-100-D00-0
 62
     7
370
    50
100
AcDbLine
 10
-163.521904
 20
502.441818
 30
0.0
 11
-155.210622
 21
502.441818
 31
0.0
  0
LINE
  5
2CD
330
1F
100
AcDbEntity
  8
LC-001-100-D00-0
 62
     7
370
    50
100
AcDbLine
 10
-255.811437
 20
502.441818
 30
0.0
 11
-247.500155
 21
502.441818
 31
0.0
  0
LINE
  5
2CE
330
1F
100
AcDbEntity
  8
LC-001-100-D00-0
 62
     7
370
    50
100
AcDbLine
 10
-247.500155
 20
502.441818
 30
0.0
 11
-246.511031
 21
502.44182
 31
0.0
  0
LINE
  5
2CF
330
1F
100
AcDbEntity
  8
LC-001-100-D00-0
 62
     7
370
    50
100
AcDbLine
 10
-164.511029
 20
502.44182
 30
0.0
 11
-163.521904
 21
502.441818
 31
0.0
  0
LINE
  5
2D0
330
1F
100
AcDbEntity
  8
LC-001-100-D00-0
 62
     7
370
    50
100
AcDbLine
 10
-131.511029
 20
449.691817
 30
0.0
 11
-120.511029
 21
449.691817
 31
0.0
  0
LINE
  5
2D1
330
1F
100
AcDbEntity
  8
LC-001-100-D00-0
 62
     7
370
    50
100
AcDbLine
 10
-120.511029
 20
501.691818
 30
0.0
 11
-131.511029
 21
501.691818
 31
0.0
  0
LINE
  5
2D2
330
1F
100
AcDbEntity
  8
LC-001-100-D00-0
 62
     7
370
    50
100
AcDbLine
 10
-131.511029
 20
501.691818
 30
0.0
 11
-131.511029
 21
502.44182
 31
0.0
  0
LINE
  5
2D3
330
1F
100
AcDbEntity
  8
LC-001-100-D00-0
 62
     7
370
    50
100
AcDbLine
 10
-131.511029
 20
452.691816
 30
0.0
 11
-92.613844
 21
452.691818
 31
0.0
  0
INSERT
  5
2E4
330
1F
100
AcDbEntity
  8
LC-001-100-D00-0
 62
     7
370
    50
100
AcDbBlockReference
  2
KLON15
 10
0.0
 20
0.0
 30
0.0
  0
INSERT
  5
2F8
330
1F
100
AcDbEntity
  8
LC-001-100-D00-0
 62
     7
370
    50
100
AcDbBlockReference
  2
KLON16
 10
0.0
 20
0.0
 30
0.0
  0
LINE
  5
2F9
330
1F
100
AcDbEntity
  8
LC-001-100-D00-0
 62
     7
370
    50
100
AcDbLine
 10
-92.613844
 20
498.691818
 30
0.0
 11
-134.511027
 21
498.69182
 31
0.0
  0
LINE
  5
2FA
330
1F
100
AcDbEntity
  8
LC-001-100-D00-0
 62
     7
370
    50
100
AcDbLine
 10
-92.613844
 20
452.691818
 30
0.0
 11
-92.613844
 21
498.691818
 31
0.0
  0
INSERT
  5
300
330
1F
100
AcDbEntity
  8
LC-001-100-D00-0
 62
     7
370
    50
100
AcDbBlockReference
  2
KLON17
 10
0.0
 20
0.0
 30
0.0
  0
LINE
  5
301
330
1F
100
AcDbEntity
  8
LC-001-100-D00-0
 62
     7
370
    50
100
AcDbLine
 10
-134.51103
 20
502.441818
 30
0.0
 11
-155.210622
 21
502.441818
 31
0.0
  0
LINE
  5
302
330
1F
100
AcDbEntity
  8
LC-001-100-D00-0
 62
     7
370
    50
100
AcDbLine
 10
-134.511027
 20
498.69182
 30
0.0
 11
-134.51103
 21
502.441818
 31
0.0
  0
LINE
  5
303
330
1F
100
AcDbEntity
  8
LC-001-100-D00-0
 62
     7
370
    50
100
AcDbLine
 10
-131.511029
 20
449.691817
 30
0.0
 11
-144.51103
 21
449.691818
 31
0.0
  0
ARC
  5
304
330
1F
100
AcDbEntity
  8
LC-001-100-D00-0
 62
     7
370
    50
100
AcDbCircle
 10
-151.49315
 20
450.191818
 30
0.0
 40
7.0
100
AcDbArc
 50
270.0
 51
355.903956
  0
LINE
  5
305
330
1F
100
AcDbEntity
  8
LC-001-100-D00-0
 62
     7
370
    50
100
AcDbLine
 10
-259.52891
 20
443.191818
 30
0.0
 11
-151.49315
 21
443.191818
 31
0.0
  0
ARC
  5
306
330
1F
100
AcDbEntity
  8
LC-001-100-D00-0
 62
     7
370
    50
100
AcDbCircle
 10
-259.52891
 20
450.191818
 30
0.0
 40
6.999999999999846
100
AcDbArc
 50
184.096044
 51
270.0
  0
LINE
  5
307
330
1F
100
AcDbEntity
  8
LC-001-100-D00-0
 62
     7
370
    50
100
AcDbLine
 10
-266.51103
 20
449.691818
 30
0.0
 11
-267.01103
 21
449.691818
 31
0.0
  0
ARC
  5
308
330
1F
100
AcDbEntity
  8
LC-001-100-D00-0
 62
     7
370
    50
100
AcDbCircle
 10
-267.01103
 20
462.191818
 30
0.0
 40
12.5
100
AcDbArc
 50
180.0
 51
270.0
  0
LINE
  5
309
330
1F
100
AcDbEntity
  8
LC-001-100-D00-0
 62
     7
370
    50
100
AcDbLine
 10
-279.511031
 20
502.44182
 30
0.0
 11
-279.51103
 21
462.191818
 31
0.0
  0
LINE
  5
30A
330
1F
100
AcDbEntity
  8
LC-001-100-D00-0
 62
     7
370
    50
100
AcDbLine
 10
-276.51103
 20
502.441818
 30
0.0
 11
-279.511031
 21
502.44182
 31
0.0
  0
LINE
  5
30B
330
1F
100
AcDbEntity
  8
LC-001-100-D00-0
 62
     7
370
    50
100
AcDbLine
 10
-276.51103
 20
502.441818
 30
0.0
 11
-276.51103
 21
462.191818
 31
0.0
  0
ARC
  5
30C
330
1F
100
AcDbEntity
  8
LC-001-100-D00-0
 62
     7
370
    50
100
AcDbCircle
 10
-267.01103
 20
462.191818
 30
0.0
 40
9.499999999999886
100
AcDbArc
 50
180.0
 51
270.0
  0
LINE
  5
30D
330
1F
100
AcDbEntity
  8
LC-001-100-D00-0
 62
     7
370
    50
100
AcDbLine
 10
-264.51103
 20
452.691818
 30
0.0
 11
-267.01103
 21
452.691818
 31
0.0
  0
ARC
  5
30E
330
1F
100
AcDbEntity
  8
LC-001-100-D00-0
 62
     7
370
    50
100
AcDbCircle
 10
-264.51103
 20
451.691818
 30
0.0
 40
1.0
100
AcDbArc
 50
0.0
 51
90.0
  0
LINE
  5
30F
330
1F
100
AcDbEntity
  8
LC-001-100-D00-0
 62
     7
370
    50
100
AcDbLine
 10
-263.51103
 20
450.191818
 30
0.0
 11
-263.51103
 21
451.691818
 31
0.0
  0
ARC
  5
310
330
1F
100
AcDbEntity
  8
LC-001-100-D00-0
 62
     7
370
    50
100
AcDbCircle
 10
-259.51103
 20
450.191818
 30
0.0
 40
4.000000000000114
100
AcDbArc
 50
180.0
 51
270.0
  0
LINE
  5
311
330
1F
100
AcDbEntity
  8
LC-001-100-D00-0
 62
     7
370
    50
100
AcDbLine
 10
-259.51103
 20
446.191818
 30
0.0
 11
-151.51103
 21
446.191818
 31
0.0
  0
ARC
  5
312
330
1F
100
AcDbEntity
  8
LC-001-100-D00-0
 62
     7
370
    50
100
AcDbCircle
 10
-151.51103
 20
450.191818
 30
0.0
 40
4.0
100
AcDbArc
 50
270.0
 51
0.0
  0
LINE
  5
313
330
1F
100
AcDbEntity
  8
LC-001-100-D00-0
 62
     7
370
    50
100
AcDbLine
 10
-147.51103
 20
451.691818
 30
0.0
 11
-147.51103
 21
450.191818
 31
0.0
  0
ARC
  5
314
330
1F
100
AcDbEntity
  8
LC-001-100-D00-0
 62
     7
370
    50
100
AcDbCircle
 10
-146.51103
 20
451.691818
 30
0.0
 40
1.0
100
AcDbArc
 50
90.0
 51
180.0
  0
LINE
  5
315
330
1F
100
AcDbEntity
  8
LC-001-100-D00-0
 62
     7
370
    50
100
AcDbLine
 10
-131.511029
 20
452.691816
 30
0.0
 11
-146.51103
 21
452.691818
 31
0.0
  0
LINE
  5
316
330
1F
100
AcDbEntity
  8
LC-001-100-D00-0
 62
     7
370
    50
100
AcDbLine
 10
-92.613844
 20
452.691818
 30
0.0
 11
-87.013844
 21
451.191303
 31
0.0
  0
LINE
  5
317
330
1F
100
AcDbEntity
  8
LC-001-100-D00-0
 62
     7
370
    50
100
AcDbLine
 10
-87.013844
 20
451.191303
 30
0.0
 11
-87.013844
 21
450.757564
 31
0.0
  0
ARC
  5
318
330
1F
100
AcDbEntity
  8
LC-001-100-D00-0
 62
     7
370
    50
100
AcDbCircle
 10
-87.513802
 20
450.757564
 30
0.0
 40
0.4999578796799692
100
AcDbArc
 50
301.198872
 51
0.0
  0
ARC
  5
319
330
1F
100
AcDbEntity
  8
LC-001-100-D00-0
 62
     7
370
    50
100
AcDbCircle
 10
-102.612526
 20
475.689628
 30
0.0
 40
29.64750216706083
100
AcDbArc
 50
292.382556
 51
301.198872
  0
ARC
  5
31A
330
1F
100
AcDbEntity
  8
LC-001-100-D00-0
 62
     7
370
    50
100
AcDbCircle
 10
-91.513465
 20
448.738002
 30
0.0
 40
0.4999578796799824
100
AcDbArc
 50
180.0
 51
292.382556
  0
LINE
  5
31B
330
1F
100
AcDbEntity
  8
LC-001-100-D00-0
 62
     7
370
    50
100
AcDbLine
 10
-92.013423
 20
448.738002
 30
0.0
 11
-92.013423
 21
450.041861
 31
0.0
  0
ARC
  5
31C
330
1F
100
AcDbEntity
  8
LC-001-100-D00-0
 62
     7
370
    50
100
AcDbCircle
 10
-92.513381
 20
450.041861
 30
0.0
 40
0.4999578796800961
100
AcDbArc
 50
0.0
 51
90.0
  0
LINE
  5
31D
330
1F
100
AcDbEntity
  8
LC-001-100-D00-0
 62
     7
370
    50
100
AcDbLine
 10
-92.513381
 20
450.541818
 30
0.0
 11
-96.013086
 21
450.541818
 31
0.0
  0
ARC
  5
31E
330
1F
100
AcDbEntity
  8
LC-001-100-D00-0
 62
     7
370
    50
100
AcDbCircle
 10
-96.013086
 20
450.041861
 30
0.0
 40
0.4999578796800961
100
AcDbArc
 50
90.0
 51
180.0
  0
LINE
  5
31F
330
1F
100
AcDbEntity
  8
LC-001-100-D00-0
 62
     7
370
    50
100
AcDbLine
 10
-96.513044
 20
450.041861
 30
0.0
 11
-96.513044
 21
447.085
 31
0.0
  0
ARC
  5
320
330
1F
100
AcDbEntity
  8
LC-001-100-D00-0
 62
     7
370
    50
100
AcDbCircle
 10
-97.013002
 20
447.085
 30
0.0
 40
0.4999578796800452
100
AcDbArc
 50
281.075925
 51
0.0
  0
ARC
  5
321
330
1F
100
AcDbEntity
  8
LC-001-100-D00-0
 62
     7
370
    50
100
AcDbCircle
 10
-102.612526
 20
475.689628
 30
0.0
 40
29.64750432250023
100
AcDbArc
 50
241.270296
 51
281.075925
  0
LINE
  5
322
330
1F
100
AcDbEntity
  8
LC-001-100-D00-0
 62
     7
370
    50
100
AcDbLine
 10
-116.863435
 20
449.691818
 30
0.0
 11
-118.011232
 21
449.691817
 31
0.0
  0
LINE
  5
323
330
1F
100
AcDbEntity
  8
LC-001-100-D00-0
 62
     7
370
    50
100
AcDbLine
 10
-118.011232
 20
449.691817
 30
0.0
 11
-118.011232
 21
448.191822
 31
0.0
  0
LINE
  5
324
330
1F
100
AcDbEntity
  8
LC-001-100-D00-0
 62
     7
370
    50
100
AcDbLine
 10
-118.011232
 20
448.191822
 30
0.0
 11
-120.511029
 21
448.191822
 31
0.0
  0
LINE
  5
325
330
1F
100
AcDbEntity
  8
LC-001-100-D00-0
 62
     7
370
    50
100
AcDbLine
 10
-120.511029
 20
448.191822
 30
0.0
 11
-120.511029
 21
449.691817
 31
0.0
  0
LINE
  5
326
330
1F
100
AcDbEntity
  8
LC-001-100-D00-0
 62
     7
370
    50
100
AcDbLine
 10
-87.013844
 20
500.192334
 30
0.0
 11
-92.613844
 21
498.691818
 31
0.0
  0
LINE
  5
327
330
1F
100
AcDbEntity
  8
LC-001-100-D00-0
 62
     7
370
    50
100
AcDbLine
 10
-87.013844
 20
500.192334
 30
0.0
 11
-87.013844
 21
451.191303
 31
0.0
  0
ARC
  5
328
330
1F
100
AcDbEntity
  8
LC-001-100-D00-0
 62
     7
370
    50
100
AcDbCircle
 10
-87.513802
 20
500.626073
 30
0.0
 40
0.4999578796800961
100
AcDbArc
 50
0.0
 51
58.801128
  0
LINE
  5
329
330
1F
100
AcDbEntity
  8
LC-001-100-D00-0
 62
     7
370
    50
100
AcDbLine
 10
-96.013086
 20
500.841818
 30
0.0
 11
-92.513381
 21
500.841818
 31
0.0
  0
ARC
  5
32A
330
1F
100
AcDbEntity
  8
LC-001-100-D00-0
 62
     7
370
    50
100
AcDbCircle
 10
-92.513381
 20
501.341776
 30
0.0
 40
0.4999578796798687
100
AcDbArc
 50
270.0
 51
0.0
  0
LINE
  5
32B
330
1F
100
AcDbEntity
  8
LC-001-100-D00-0
 62
     7
370
    50
100
AcDbLine
 10
-92.013423
 20
501.341776
 30
0.0
 11
-92.013423
 21
502.645635
 31
0.0
  0
ARC
  5
32C
330
1F
100
AcDbEntity
  8
LC-001-100-D00-0
 62
     7
370
    50
100
AcDbCircle
 10
-91.513465
 20
502.645635
 30
0.0
 40
0.4999578796799869
100
AcDbArc
 50
67.617444
 51
180.0
  0
ARC
  5
32D
330
1F
100
AcDbEntity
  8
LC-001-100-D00-0
 62
     7
370
    50
100
AcDbCircle
 10
-102.612526
 20
475.694008
 30
0.0
 40
29.64750216706094
100
AcDbArc
 50
58.801128
 51
67.617444
  0
LINE
  5
32E
330
1F
100
AcDbEntity
  8
LC-001-100-D00-0
 62
     7
370
    50
100
AcDbLine
 10
-131.511029
 20
502.44182
 30
0.0
 11
-134.51103
 21
502.441818
 31
0.0
  0
LINE
  5
32F
330
1F
100
AcDbEntity
  8
LC-001-100-D00-0
 62
     7
370
    50
100
AcDbLine
 10
-120.511029
 20
501.691818
 30
0.0
 11
-120.511029
 21
503.191818
 31
0.0
  0
LINE
  5
330
330
1F
100
AcDbEntity
  8
LC-001-100-D00-0
 62
     7
370
    50
100
AcDbLine
 10
-120.511029
 20
503.191818
 30
0.0
 11
-118.011233
 21
503.191818
 31
0.0
  0
ARC
  5
331
330
1F
100
AcDbEntity
  8
LC-001-100-D00-0
 62
     7
370
    50
100
AcDbCircle
 10
-102.648941
 20
475.691818
 30
0.0
 40
31.49999999999998
100
AcDbArc
 50
105.394857
 51
119.188982
  0
LINE
  5
332
330
1F
100
AcDbEntity
  8
LC-001-100-D00-0
 62
     7
370
    50
100
AcDbLine
 10
-111.011233
 20
504.127022
 30
0.0
 11
-111.011233
 21
506.061574
 31
0.0
  0
ARC
  5
333
330
1F
100
AcDbEntity
  8
LC-001-100-D00-0
 62
     7
370
    50
100
AcDbCircle
 10
-102.612526
 20
475.694008
 30
0.0
 40
29.6475043225003
100
AcDbArc
 50
78.924075
 51
106.456389
  0
ARC
  5
334
330
1F
100
AcDbEntity
  8
LC-001-100-D00-0
 62
     7
370
    50
100
AcDbCircle
 10
-97.013002
 20
504.298637
 30
0.0
 40
0.4999578796800961
100
AcDbArc
 50
0.0
 51
78.924075
  0
LINE
  5
335
330
1F
100
AcDbEntity
  8
LC-001-100-D00-0
 62
     7
370
    50
100
AcDbLine
 10
-96.513044
 20
504.298637
 30
0.0
 11
-96.513044
 21
501.341776
 31
0.0
  0
ARC
  5
336
330
1F
100
AcDbEntity
  8
LC-001-100-D00-0
 62
     7
370
    50
100
AcDbCircle
 10
-96.013086
 20
501.341776
 30
0.0
 40
0.4999578796799824
100
AcDbArc
 50
180.0
 51
270.0
  0
LINE
  5
337
330
1F
100
AcDbEntity
  8
LC-001-100-D00-0
 62
     7
370
    50
100
AcDbLine
 10
-87.013844
 20
500.626073
 30
0.0
 11
-87.013844
 21
500.192334
 31
0.0
  0
LINE
  5
338
330
1F
100
AcDbEntity
  8
LC-001-100-D00-0
 62
     7
370
    50
100
AcDbLine
 10
-161.07741
 20
452.691818
 30
0.0
 11
-146.51103
 21
452.691818
 31
0.0
  0
LINE
  5
339
330
1F
100
AcDbEntity
  8
LC-001-100-D00-0
 62
     7
370
    50
100
AcDbLine
 10
-255.811437
 20
502.441818
 30
0.0
 11
-276.51103
 21
502.441818
 31
0.0
  0
LINE
  5
33A
330
1F
100
AcDbEntity
  8
LC-001-100-D00-0
 62
     7
370
    50
100
AcDbLine
 10
-264.51103
 20
452.691818
 30
0.0
 11
-249.94465
 21
452.691818
 31
0.0
  0
LINE
  5
33B
330
1F
100
AcDbEntity
  8
LC-001-100-D00-0
 62
     7
370
    50
100
AcDbLine
 10
-163.521904
 20
452.691818
 30
0.0
 11
-161.07741
 21
452.691818
 31
0.0
  0
LINE
  5
33C
330
1F
100
AcDbEntity
  8
LC-001-100-D00-0
 62
     7
370
    50
100
AcDbLine
 10
-249.94465
 20
452.691818
 30
0.0
 11
-247.500155
 21
452.691818
 31
0.0
  0
LINE
  5
33D
330
1F
100
AcDbEntity
  8
LC-001-100-D00-0
 62
     7
370
    50
100
AcDbLine
 10
-247.500155
 20
452.691818
 30
0.0
 11
-246.511031
 21
452.691816
 31
0.0
  0
LINE
  5
33E
330
1F
100
AcDbEntity
  8
LC-001-100-D00-0
 62
     7
370
    50
100
AcDbLine
 10
-164.511029
 20
452.691816
 30
0.0
 11
-163.521904
 21
452.691818
 31
0.0
  0
LINE
  5
33F
330
1F
100
AcDbEntity
  8
LC-001-100-D00-0
 62
     7
370
    50
100
AcDbLine
 10
-155.210622
 20
502.441818
 30
0.0
 11
-163.521904
 21
502.441818
 31
0.0
  0
LINE
  5
340
330
1F
100
AcDbEntity
  8
LC-001-100-D00-0
 62
     7
370
    50
100
AcDbLine
 10
-247.500155
 20
502.441818
 30
0.0
 11
-255.811437
 21
502.441818
 31
0.0
  0
LINE
  5
341
330
1F
100
AcDbEntity
  8
LC-001-100-D00-0
 62
     7
370
    50
100
AcDbLine
 10
-163.521904
 20
502.441818
 30
0.0
 11
-164.511029
 21
502.44182
 31
0.0
  0
LINE
  5
342
330
1F
100
AcDbEntity
  8
LC-001-100-D00-0
 62
     7
370
    50
100
AcDbLine
 10
-246.511031
 20
502.44182
 30
0.0
 11
-247.500155
 21
502.441818
 31
0.0
  0
CIRCLE
  5
343
330
1F
100
AcDbEntity
  8
LC-001-100-D00-0
 62
     7
370
    50
100
AcDbCircle
 10
-151.26103
 20
523.941818
 30
0.0
 40
1.75
  0
CIRCLE
  5
344
330
1F
100
AcDbEntity
  8
LC-001-100-D00-0
 62
     7
370
    50
100
AcDbCircle
 10
-259.76103
 20
523.941818
 30
0.0
 40
1.75
  0
LINE
  5
345
330
1F
100
AcDbEntity
  8
LC-001-100-D00-0
 62
     7
370
    50
100
AcDbLine
 10
-151.011031
 20
525.691819
 30
0.0
 11
-153.011031
 21
525.691819
 31
0.0
  0
LINE
  5
346
330
1F
100
AcDbEntity
  8
LC-001-100-D00-0
 62
     7
370
    50
100
AcDbLine
 10
-153.011031
 20
522.191819
 30
0.0
 11
-153.011031
 21
525.691819
 31
0.0
  0
LINE
  5
347
330
1F
100
AcDbEntity
  8
LC-001-100-D00-0
 62
     7
370
    50
100
AcDbLine
 10
-151.011031
 20
522.191819
 30
0.0
 11
-153.011031
 21
522.191819
 31
0.0
  0
LINE
  5
348
330
1F
100
AcDbEntity
  8
LC-001-100-D00-0
 62
     7
370
    50
100
AcDbLine
 10
-151.011031
 20
521.191817
 30
0.0
 11
-151.011031
 21
522.191819
 31
0.0
  0
LINE
  5
349
330
1F
100
AcDbEntity
  8
LC-001-100-D00-0
 62
     7
370
    50
100
AcDbLine
 10
-151.011031
 20
521.191817
 30
0.0
 11
-166.51103
 21
521.191818
 31
0.0
  0
ARC
  5
34A
330
1F
100
AcDbEntity
  8
LC-001-100-D00-0
 62
     7
370
    50
100
AcDbCircle
 10
-166.51103
 20
511.191818
 30
0.0
 40
10.0
100
AcDbArc
 50
90.0
 51
180.0
  0
LINE
  5
34B
330
1F
100
AcDbEntity
  8
LC-001-100-D00-0
 62
     7
370
    50
100
AcDbLine
 10
-176.511031
 20
461.29182
 30
0.0
 11
-176.51103
 21
511.191818
 31
0.0
  0
LINE
  5
34C
330
1F
100
AcDbEntity
  8
LC-001-100-D00-0
 62
     7
370
    50
100
AcDbLine
 10
-176.511031
 20
461.29182
 30
0.0
 11
-178.01103
 21
461.291818
 31
0.0
  0
LINE
  5
34D
330
1F
100
AcDbEntity
  8
LC-001-100-D00-0
 62
     7
370
    50
100
AcDbLine
 10
-178.01103
 20
461.291818
 30
0.0
 11
-178.01103
 21
525.191818
 31
0.0
  0
ARC
  5
34E
330
1F
100
AcDbEntity
  8
LC-001-100-D00-0
 62
     7
370
    50
100
AcDbCircle
 10
-176.01103
 20
525.191818
 30
0.0
 40
2.0
100
AcDbArc
 50
90.0
 51
180.0
  0
LINE
  5
34F
330
1F
100
AcDbEntity
  8
LC-001-100-D00-0
 62
     7
370
    50
100
AcDbLine
 10
-151.011031
 20
527.191818
 30
0.0
 11
-176.01103
 21
527.191818
 31
0.0
  0
LINE
  5
350
330
1F
100
AcDbEntity
  8
LC-001-100-D00-0
 62
     7
370
    50
100
AcDbLine
 10
-151.011031
 20
527.191818
 30
0.0
 11
-151.011031
 21
525.691819
 31
0.0
  0
LINE
  5
351
330
1F
100
AcDbEntity
  8
LC-001-100-D00-0
 62
     7
370
    50
100
AcDbLine
 10
-194.01103
 20
461.291818
 30
0.0
 11
-178.01103
 21
461.291818
 31
0.0
  0
LINE
  5
352
330
1F
100
AcDbEntity
  8
LC-001-100-D00-0
 62
     7
370
    50
100
AcDbLine
 10
-194.01103
 20
527.191818
 30
0.0
 11
-176.01103
 21
527.191818
 31
0.0
  0
LINE
  5
353
330
1F
100
AcDbEntity
  8
LC-001-100-D00-0
 62
     7
370
    50
100
AcDbLine
 10
-234.51103
 20
511.191818
 30
0.0
 11
-234.511029
 21
461.29182
 31
0.0
  0
LINE
  5
354
330
1F
100
AcDbEntity
  8
LC-001-100-D00-0
 62
     7
370
    50
100
AcDbLine
 10
-233.01103
 20
525.191818
 30
0.0
 11
-233.01103
 21
461.291818
 31
0.0
  0
LINE
  5
355
330
1F
100
AcDbEntity
  8
LC-001-100-D00-0
 62
     7
370
    50
100
AcDbLine
 10
-233.01103
 20
461.291818
 30
0.0
 11
-217.01103
 21
461.291818
 31
0.0
  0
ARC
  5
356
330
1F
100
AcDbEntity
  8
LC-001-100-D00-0
 62
     7
370
    50
100
AcDbCircle
 10
-235.01103
 20
525.191818
 30
0.0
 40
2.0
100
AcDbArc
 50
0.0
 51
90.0
  0
LINE
  5
357
330
1F
100
AcDbEntity
  8
LC-001-100-D00-0
 62
     7
370
    50
100
AcDbLine
 10
-235.01103
 20
527.191818
 30
0.0
 11
-217.01103
 21
527.191818
 31
0.0
  0
ARC
  5
358
330
1F
100
AcDbEntity
  8
LC-001-100-D00-0
 62
     7
370
    50
100
AcDbCircle
 10
-244.51103
 20
511.191818
 30
0.0
 40
10.0
100
AcDbArc
 50
0.0
 51
90.0
  0
LINE
  5
359
330
1F
100
AcDbEntity
  8
LC-001-100-D00-0
 62
     7
370
    50
100
AcDbLine
 10
-260.011028
 20
522.191819
 30
0.0
 11
-260.011028
 21
521.191817
 31
0.0
  0
LINE
  5
35A
330
1F
100
AcDbEntity
  8
LC-001-100-D00-0
 62
     7
370
    50
100
AcDbLine
 10
-258.011028
 20
525.691819
 30
0.0
 11
-258.011028
 21
522.191819
 31
0.0
  0
LINE
  5
35B
330
1F
100
AcDbEntity
  8
LC-001-100-D00-0
 62
     7
370
    50
100
AcDbLine
 10
-260.011028
 20
525.691819
 30
0.0
 11
-260.011028
 21
527.191818
 31
0.0
  0
LINE
  5
35C
330
1F
100
AcDbEntity
  8
LC-001-100-D00-0
 62
     7
370
    50
100
AcDbLine
 10
-233.01103
 20
461.291818
 30
0.0
 11
-234.511029
 21
461.29182
 31
0.0
  0
LINE
  5
35D
330
1F
100
AcDbEntity
  8
LC-001-100-D00-0
 62
     7
370
    50
100
AcDbLine
 10
-258.011028
 20
522.191819
 30
0.0
 11
-260.011028
 21
522.191819
 31
0.0
  0
LINE
  5
35E
330
1F
100
AcDbEntity
  8
LC-001-100-D00-0
 62
     7
370
    50
100
AcDbLine
 10
-244.51103
 20
521.191818
 30
0.0
 11
-260.011028
 21
521.191817
 31
0.0
  0
LINE
  5
35F
330
1F
100
AcDbEntity
  8
LC-001-100-D00-0
 62
     7
370
    50
100
AcDbLine
 10
-235.01103
 20
527.191818
 30
0.0
 11
-260.011028
 21
527.191818
 31
0.0
  0
LINE
  5
360
330
1F
100
AcDbEntity
  8
LC-001-100-D00-0
 62
     7
370
    50
100
AcDbLine
 10
-258.011028
 20
525.691819
 30
0.0
 11
-260.011028
 21
525.691819
 31
0.0
  0
LINE
  5
361
330
1F
100
AcDbEntity
  8
LC-001-100-D00-0
 62
     7
370
    50
100
AcDbLine
 10
-217.01103
 20
527.191818
 30
0.0
 11
-194.01103
 21
527.191818
 31
0.0
  0
LINE
  5
362
330
1F
100
AcDbEntity
  8
LC-001-100-D00-0
 62
     7
370
    50
100
AcDbLine
 10
-217.01103
 20
461.291818
 30
0.0
 11
-194.01103
 21
461.291818
 31
0.0
  0
ARC
  5
363
330
1F
100
AcDbEntity
  8
LC-001-100-D00-0
 62
     7
370
    50
100
AcDbCircle
 10
-257.039106
 20
518.191818
 30
0.0
 40
1.000000000000014
100
AcDbArc
 50
53.673174
 51
90.0
  0
LINE
  5
364
330
1F
100
AcDbEntity
  8
LC-001-100-D00-0
 62
     7
370
    50
100
AcDbLine
 10
-257.039106
 20
519.191818
 30
0.0
 11
-260.76103
 21
519.191818
 31
0.0
  0
LINE
  5
365
330
1F
100
AcDbEntity
  8
LC-001-100-D00-0
 62
     7
370
    50
100
AcDbLine
 10
-260.76103
 20
521.191818
 30
0.0
 11
-260.76103
 21
519.191818
 31
0.0
  0
LINE
  5
366
330
1F
100
AcDbEntity
  8
LC-001-100-D00-0
 62
     7
370
    50
100
AcDbLine
 10
-257.039106
 20
521.191818
 30
0.0
 11
-260.76103
 21
521.191818
 31
0.0
  0
ARC
  5
367
330
1F
100
AcDbEntity
  8
LC-001-100-D00-0
 62
     7
370
    50
100
AcDbCircle
 10
-257.039106
 20
518.191818
 30
0.0
 40
3.000000000000158
100
AcDbArc
 50
53.673174
 51
90.0
  0
LINE
  5
368
330
1F
100
AcDbEntity
  8
LC-001-100-D00-0
 62
     7
370
    50
100
AcDbLine
 10
-245.418639
 20
513.371055
 30
0.0
 11
-255.261934
 21
520.608772
 31
0.0
  0
ARC
  5
369
330
1F
100
AcDbEntity
  8
LC-001-100-D00-0
 62
     7
370
    50
100
AcDbCircle
 10
-246.01103
 20
512.565404
 30
0.0
 40
1.000000000000114
100
AcDbArc
 50
0.0
 51
53.673174
  0
LINE
  5
36A
330
1F
100
AcDbEntity
  8
LC-001-100-D00-0
 62
     7
370
    50
100
AcDbLine
 10
-245.01103
 20
512.565404
 30
0.0
 11
-245.01103
 21
450.691818
 31
0.0
  0
ARC
  5
36B
330
1F
100
AcDbEntity
  8
LC-001-100-D00-0
 62
     7
370
    50
100
AcDbCircle
 10
-241.51103
 20
450.691818
 30
0.0
 40
3.500000000000114
100
AcDbArc
 50
180.0
 51
270.0
  0
LINE
  5
36C
330
1F
100
AcDbEntity
  8
LC-001-100-D00-0
 62
     7
370
    50
100
AcDbLine
 10
-241.51103
 20
447.191818
 30
0.0
 11
-169.51103
 21
447.191818
 31
0.0
  0
ARC
  5
36D
330
1F
100
AcDbEntity
  8
LC-001-100-D00-0
 62
     7
370
    50
100
AcDbCircle
 10
-169.51103
 20
450.691818
 30
0.0
 40
3.5
100
AcDbArc
 50
270.0
 51
0.0
  0
LINE
  5
36E
330
1F
100
AcDbEntity
  8
LC-001-100-D00-0
 62
     7
370
    50
100
AcDbLine
 10
-166.01103
 20
450.691818
 30
0.0
 11
-166.01103
 21
512.565404
 31
0.0
  0
ARC
  5
36F
330
1F
100
AcDbEntity
  8
LC-001-100-D00-0
 62
     7
370
    50
100
AcDbCircle
 10
-165.01103
 20
512.565404
 30
0.0
 40
1.000000000000014
100
AcDbArc
 50
126.326826
 51
180.0
  0
LINE
  5
370
330
1F
100
AcDbEntity
  8
LC-001-100-D00-0
 62
     7
370
    50
100
AcDbLine
 10
-165.60342
 20
513.371055
 30
0.0
 11
-155.760125
 21
520.608772
 31
0.0
  0
ARC
  5
371
330
1F
100
AcDbEntity
  8
LC-001-100-D00-0
 62
     7
370
    50
100
AcDbCircle
 10
-153.982954
 20
518.191818
 30
0.0
 40
3.0
100
AcDbArc
 50
90.0
 51
126.326826
  0
LINE
  5
372
330
1F
100
AcDbEntity
  8
LC-001-100-D00-0
 62
     7
370
    50
100
AcDbLine
 10
-150.26103
 20
521.191818
 30
0.0
 11
-153.982954
 21
521.191818
 31
0.0
  0
LINE
  5
373
330
1F
100
AcDbEntity
  8
LC-001-100-D00-0
 62
     7
370
    50
100
AcDbLine
 10
-150.26103
 20
519.191818
 30
0.0
 11
-150.26103
 21
521.191818
 31
0.0
  0
LINE
  5
374
330
1F
100
AcDbEntity
  8
LC-001-100-D00-0
 62
     7
370
    50
100
AcDbLine
 10
-150.26103
 20
519.191818
 30
0.0
 11
-153.982954
 21
519.191818
 31
0.0
  0
ARC
  5
375
330
1F
100
AcDbEntity
  8
LC-001-100-D00-0
 62
     7
370
    50
100
AcDbCircle
 10
-153.982954
 20
518.191818
 30
0.0
 40
1.0
100
AcDbArc
 50
90.0
 51
126.326826
  0
LINE
  5
376
330
1F
100
AcDbEntity
  8
LC-001-100-D00-0
 62
     7
370
    50
100
AcDbLine
 10
-154.575344
 20
518.997469
 30
0.0
 11
-164.511029
 21
511.69182
 31
0.0
  0
LINE
  5
377
330
1F
100
AcDbEntity
  8
LC-001-100-D00-0
 62
     7
370
    50
100
AcDbLine
 10
-164.51103
 20
450.691818
 30
0.0
 11
-164.511029
 21
511.69182
 31
0.0
  0
ARC
  5
378
330
1F
100
AcDbEntity
  8
LC-001-100-D00-0
 62
     7
370
    50
100
AcDbCircle
 10
-169.51103
 20
450.691818
 30
0.0
 40
5.0
100
AcDbArc
 50
270.0
 51
0.0
  0
LINE
  5
379
330
1F
100
AcDbEntity
  8
LC-001-100-D00-0
 62
     7
370
    50
100
AcDbLine
 10
-241.51103
 20
445.691818
 30
0.0
 11
-169.51103
 21
445.691818
 31
0.0
  0
ARC
  5
37A
330
1F
100
AcDbEntity
  8
LC-001-100-D00-0
 62
     7
370
    50
100
AcDbCircle
 10
-241.51103
 20
450.691818
 30
0.0
 40
5.0
100
AcDbArc
 50
180.0
 51
270.0
  0
LINE
  5
37B
330
1F
100
AcDbEntity
  8
LC-001-100-D00-0
 62
     7
370
    50
100
AcDbLine
 10
-246.511031
 20
511.69182
 30
0.0
 11
-246.51103
 21
450.691818
 31
0.0
  0
LINE
  5
37C
330
1F
100
AcDbEntity
  8
LC-001-100-D00-0
 62
     7
370
    50
100
AcDbLine
 10
-256.446715
 20
518.997469
 30
0.0
 11
-246.511031
 21
511.69182
 31
0.0
  0
ARC
  5
37D
330
1F
100
AcDbEntity
  8
LC-001-100-D00-0
 62
     7
370
    50
100
AcDbCircle
 10
-165.017777
 20
512.559978
 30
0.0
 40
1.000373573444565
100
AcDbArc
 50
126.325165
 51
180.0
  0
LINE
  5
37E
330
1F
100
AcDbEntity
  8
LC-001-100-D00-0
 62
     7
370
    50
100
AcDbLine
 10
-165.610365
 20
513.365947
 30
0.0
 11
-165.60342
 21
513.371055
 31
0.0
  0
LINE
  5
37F
330
1F
100
AcDbEntity
  8
LC-001-100-D00-0
 62
     7
370
    50
100
AcDbLine
 10
-166.018151
 20
511.691818
 30
0.0
 11
-170.431634
 21
511.691818
 31
0.0
  0
LINE
  5
380
330
1F
100
AcDbEntity
  8
LC-001-100-D00-0
 62
     7
370
    50
100
AcDbLine
 10
-166.018151
 20
512.560036
 30
0.0
 11
-166.018151
 21
511.691818
 31
0.0
  0
LINE
  5
381
330
1F
100
AcDbEntity
  8
LC-001-100-D00-0
 62
     7
370
    50
100
AcDbLine
 10
-245.003909
 20
512.560036
 30
0.0
 11
-245.003909
 21
511.691818
 31
0.0
  0
LINE
  5
382
330
1F
100
AcDbEntity
  8
LC-001-100-D00-0
 62
     7
370
    50
100
AcDbLine
 10
-240.590425
 20
511.691818
 30
0.0
 11
-245.003909
 21
511.691818
 31
0.0
  0
ARC
  5
383
330
1F
100
AcDbEntity
  8
LC-001-100-D00-0
 62
     7
370
    50
100
AcDbCircle
 10
-246.004256
 20
512.559991
 30
0.0
 40
1.000347039120811
100
AcDbArc
 50
0.0
 51
53.675603
  0
LINE
  5
384
330
1F
100
AcDbEntity
  8
LC-001-100-D00-0
 62
     7
370
    50
100
AcDbLine
 10
-172.582664
 20
519.137588
 30
0.0
 11
-172.582664
 21
511.69182
 31
0.0
  0
LINE
  5
385
330
1F
100
AcDbEntity
  8
LC-001-100-D00-0
 62
     7
370
    50
100
AcDbLine
 10
-172.582665
 20
519.191818
 30
0.0
 11
-165.796615
 21
519.191818
 31
0.0
  0
LINE
  5
386
330
1F
100
AcDbEntity
  8
LC-001-100-D00-0
 62
     7
370
    50
100
AcDbLine
 10
-161.332327
 20
519.191818
 30
0.0
 11
-157.687181
 21
519.191818
 31
0.0
  0
LINE
  5
387
330
1F
100
AcDbEntity
  8
LC-001-100-D00-0
 62
     7
370
    50
100
AcDbLine
 10
-238.439396
 20
519.137588
 30
0.0
 11
-238.439396
 21
511.69182
 31
0.0
  0
LINE
  5
388
330
1F
100
AcDbEntity
  8
LC-001-100-D00-0
 62
     7
370
    50
100
AcDbLine
 10
-253.334878
 20
519.191818
 30
0.0
 11
-249.689733
 21
519.191818
 31
0.0
  0
LINE
  5
389
330
1F
100
AcDbEntity
  8
LC-001-100-D00-0
 62
     7
370
    50
100
AcDbLine
 10
-245.225445
 20
519.191818
 30
0.0
 11
-238.439394
 21
519.191818
 31
0.0
  0
LINE
  5
38A
330
1F
100
AcDbEntity
  8
LC-001-100-D00-0
 62
     7
370
    50
100
AcDbLine
 10
-170.431634
 20
511.691818
 30
0.0
 11
-176.498522
 21
511.691818
 31
0.0
  0
LINE
  5
38B
330
1F
100
AcDbEntity
  8
LC-001-100-D00-0
 62
     7
370
    50
100
AcDbLine
 10
-234.523538
 20
511.691818
 30
0.0
 11
-240.590425
 21
511.691818
 31
0.0
  0
LINE
  5
38C
330
1F
100
AcDbEntity
  8
LC-001-100-D00-0
 62
     7
370
    50
100
AcDbLine
 10
3.988767
 20
498.441818
 30
0.0
 11
3.988767
 21
452.941818
 31
0.0
  0
LINE
  5
38D
330
1F
100
AcDbEntity
  8
LC-001-100-D00-0
 62
     7
370
    50
100
AcDbLine
 10
3.988767
 20
452.941818
 30
0.0
 11
-83.731257
 21
452.941818
 31
0.0
  0
LINE
  5
38E
330
1F
100
AcDbEntity
  8
LC-001-100-D00-0
 62
     7
370
    50
100
AcDbLine
 10
-83.731257
 20
498.441818
 30
0.0
 11
-83.731257
 21
452.941818
 31
0.0
  0
LINE
  5
38F
330
1F
100
AcDbEntity
  8
LC-001-100-D00-0
 62
     7
370
    50
100
AcDbLine
 10
-83.731257
 20
498.441818
 30
0.0
 11
3.988767
 21
498.441818
 31
0.0
  0
LINE
  5
390
330
1F
100
AcDbEntity
  8
LC-001-100-D00-0
 62
     7
370
    50
100
AcDbLine
 10
0.488762
 20
500.69182
 30
0.0
 11
-82.536248
 21
500.691818
 31
0.0
  0
LINE
  5
391
330
1F
100
AcDbEntity
  8
LC-001-100-D00-0
 62
     7
370
    50
100
AcDbLine
 10
3.988762
 20
499.753997
 30
0.0
 11
0.488762
 21
500.69182
 31
0.0
  0
LINE
  5
392
330
1F
100
AcDbEntity
  8
LC-001-100-D00-0
 62
     7
370
    50
100
AcDbLine
 10
3.988767
 20
498.441818
 30
0.0
 11
3.988762
 21
499.753997
 31
0.0
  0
ARC
  5
393
330
1F
100
AcDbEntity
  8
LC-001-100-D00-0
 62
     7
370
    50
100
AcDbCircle
 10
-102.511233
 20
475.691818
 30
0.0
 40
29.50000000000004
100
AcDbArc
 50
50.46055
 51
104.235124
  0
ARC
  5
394
330
1F
100
AcDbEntity
  8
LC-001-100-D00-0
 62
     7
370
    50
100
AcDbCircle
 10
-110.011233
 20
505.255309
 30
0.0
 40
0.9999999999998863
100
AcDbArc
 50
180.0
 51
284.235124
  0
LINE
  5
395
330
1F
100
AcDbEntity
  8
LC-001-100-D00-0
 62
     7
370
    50
100
AcDbLine
 10
-111.011233
 20
507.691819
 30
0.0
 11
-111.011233
 21
505.255309
 31
0.0
  0
LINE
  5
396
330
1F
100
AcDbEntity
  8
LC-001-100-D00-0
 62
     7
370
    50
100
AcDbLine
 10
-102.511233
 20
507.691818
 30
0.0
 11
-111.011233
 21
507.691819
 31
0.0
  0
ARC
  5
397
330
1F
100
AcDbEntity
  8
LC-001-100-D00-0
 62
     7
370
    50
100
AcDbCircle
 10
-102.511233
 20
475.691818
 30
0.0
 40
32.00000000000007
100
AcDbArc
 50
51.375167
 51
90.0
  0
LINE
  5
398
330
1F
100
AcDbEntity
  8
LC-001-100-D00-0
 62
     7
370
    50
100
AcDbLine
 10
0.488762
 20
450.691819
 30
0.0
 11
3.988762
 21
451.629639
 31
0.0
  0
ARC
  5
399
330
1F
100
AcDbEntity
  8
LC-001-100-D00-0
 62
     7
370
    50
100
AcDbCircle
 10
-110.011233
 20
446.128327
 30
0.0
 40
0.9999999999998909
100
AcDbArc
 50
75.764876
 51
180.0
  0
ARC
  5
39A
330
1F
100
AcDbEntity
  8
LC-001-100-D00-0
 62
     7
370
    50
100
AcDbCircle
 10
-102.511233
 20
475.691818
 30
0.0
 40
29.5
100
AcDbArc
 50
255.764876
 51
309.53945
  0
LINE
  5
39B
330
1F
100
AcDbEntity
  8
LC-001-100-D00-0
 62
     7
370
    50
100
AcDbLine
 10
3.988762
 20
451.629639
 30
0.0
 11
3.988767
 21
452.941818
 31
0.0
  0
LINE
  5
39C
330
1F
100
AcDbEntity
  8
LC-001-100-D00-0
 62
     7
370
    50
100
AcDbLine
 10
-82.536248
 20
450.691818
 30
0.0
 11
0.488762
 21
450.691819
 31
0.0
  0
ARC
  5
39D
330
1F
100
AcDbEntity
  8
LC-001-100-D00-0
 62
     7
370
    50
100
AcDbCircle
 10
-102.511233
 20
475.691818
 30
0.0
 40
32.0
100
AcDbArc
 50
270.0
 51
308.624833
  0
LINE
  5
39E
330
1F
100
AcDbEntity
  8
LC-001-100-D00-0
 62
     7
370
    50
100
AcDbLine
 10
-111.011233
 20
443.69182
 30
0.0
 11
-102.511233
 21
443.691818
 31
0.0
  0
LINE
  5
39F
330
1F
100
AcDbEntity
  8
LC-001-100-D00-0
 62
     7
370
    50
100
AcDbLine
 10
-111.011233
 20
446.128327
 30
0.0
 11
-111.011233
 21
443.69182
 31
0.0
  0
LINE
  5
3A0
330
1F
100
AcDbEntity
  8
LC-001-100-D00-0
 62
     7
370
    50
100
AcDbLine
 10
-111.011233
 20
447.256615
 30
0.0
 11
-111.011233
 21
446.128327
 31
0.0
  0
CIRCLE
  5
3A1
330
1F
100
AcDbEntity
  8
LC-001-100-D00-0
 62
     7
370
    50
100
AcDbCircle
 10
-94.263234
 20
502.691818
 30
0.0
 40
2.0
  0
CIRCLE
  5
3A2
330
1F
100
AcDbEntity
  8
LC-001-100-D00-0
 62
     7
370
    50
100
AcDbCircle
 10
-94.263234
 20
448.691818
 30
0.0
 40
1.999999999999773
  0
LINE
  5
3A3
330
1F
100
AcDbEntity
  8
LC-001-100-D00-0
 62
     7
370
    50
100
AcDbLine
 10
-150.21103
 20
521.191818
 30
0.0
 11
-150.21103
 21
525.191818
 31
0.0
  0
ARC
  5
3A4
330
1F
100
AcDbEntity
  8
LC-001-100-D00-0
 62
     7
370
    50
100
AcDbCircle
 10
-147.71103
 20
525.191818
 30
0.0
 40
2.5
100
AcDbArc
 50
90.0
 51
180.0
  0
LINE
  5
3A5
330
1F
100
AcDbEntity
  8
LC-001-100-D00-0
 62
     7
370
    50
100
AcDbLine
 10
-147.71103
 20
527.691818
 30
0.0
 11
-131.03764
 21
527.691818
 31
0.0
  0
ARC
  5
3A6
330
1F
100
AcDbEntity
  8
LC-001-100-D00-0
 62
     7
370
    50
100
AcDbCircle
 10
-131.03764
 20
530.191818
 30
0.0
 40
2.500000000000227
100
AcDbArc
 50
270.0
 51
285.0
  0
LINE
  5
3A7
330
1F
100
AcDbEntity
  8
LC-001-100-D00-0
 62
     7
370
    50
100
AcDbLine
 10
-130.390592
 20
527.777004
 30
0.0
 11
-112.556921
 21
532.555522
 31
0.0
  0
ARC
  5
3A8
330
1F
100
AcDbEntity
  8
LC-001-100-D00-0
 62
     7
370
    50
100
AcDbCircle
 10
-111.521644
 20
528.691818
 30
0.0
 40
4.0
100
AcDbArc
 50
90.0
 51
105.0
  0
LINE
  5
3A9
330
1F
100
AcDbEntity
  8
LC-001-100-D00-0
 62
     7
370
    50
100
AcDbLine
 10
-110.01103
 20
532.691818
 30
0.0
 11
-111.521644
 21
532.691818
 31
0.0
  0
LINE
  5
3AA
330
1F
100
AcDbEntity
  8
LC-001-100-D00-0
 62
     7
370
    50
100
AcDbLine
 10
-110.01103
 20
534.091819
 30
0.0
 11
-110.01103
 21
532.691818
 31
0.0
  0
LINE
  5
3AB
330
1F
100
AcDbEntity
  8
LC-001-100-D00-0
 62
     7
370
    50
100
AcDbLine
 10
-110.01103
 20
534.091819
 30
0.0
 11
-109.51103
 21
534.091818
 31
0.0
  0
ARC
  5
3AC
330
1F
100
AcDbEntity
  8
LC-001-100-D00-0
 62
     7
370
    50
100
AcDbCircle
 10
-110.51103
 20
535.591818
 30
0.0
 40
1.802775637732184
100
AcDbArc
 50
303.690068
 51
56.309932
  0
LINE
  5
3AD
330
1F
100
AcDbEntity
  8
LC-001-100-D00-0
 62
     7
370
    50
100
AcDbLine
 10
-109.51103
 20
537.091818
 30
0.0
 11
-109.511029
 21
551.691818
 31
0.0
  0
LINE
  5
3AE
330
1F
100
AcDbEntity
  8
LC-001-100-D00-0
 62
     7
370
    50
100
AcDbLine
 10
-109.511029
 20
551.691818
 30
0.0
 11
-108.511027
 21
552.691818
 31
0.0
  0
LINE
  5
3AF
330
1F
100
AcDbEntity
  8
LC-001-100-D00-0
 62
     7
370
    50
100
AcDbLine
 10
-108.511027
 20
552.691818
 30
0.0
 11
-102.51103
 21
552.691818
 31
0.0
  0
LINE
  5
3B0
330
1F
100
AcDbEntity
  8
LC-001-100-D00-0
 62
     7
370
    50
100
AcDbLine
 10
-102.51103
 20
552.691818
 30
0.0
 11
-101.511028
 21
551.691818
 31
0.0
  0
LINE
  5
3B1
330
1F
100
AcDbEntity
  8
LC-001-100-D00-0
 62
     7
370
    50
100
AcDbLine
 10
-101.511028
 20
551.691818
 30
0.0
 11
-101.51103
 21
537.091818
 31
0.0
  0
ARC
  5
3B2
330
1F
100
AcDbEntity
  8
LC-001-100-D00-0
 62
     7
370
    50
100
AcDbCircle
 10
-100.51103
 20
535.591818
 30
0.0
 40
1.802775637732184
100
AcDbArc
 50
123.690068
 51
236.309932
  0
LINE
  5
3B3
330
1F
100
AcDbEntity
  8
LC-001-100-D00-0
 62
     7
370
    50
100
AcDbLine
 10
-101.51103
 20
534.091818
 30
0.0
 11
-101.011027
 21
534.091819
 31
0.0
  0
LINE
  5
3B4
330
1F
100
AcDbEntity
  8
LC-001-100-D00-0
 62
     7
370
    50
100
AcDbLine
 10
-101.011027
 20
532.691818
 30
0.0
 11
-101.011027
 21
534.091819
 31
0.0
  0
LINE
  5
3B5
330
1F
100
AcDbEntity
  8
LC-001-100-D00-0
 62
     7
370
    50
100
AcDbLine
 10
59.988979
 20
532.691818
 30
0.0
 11
-101.011027
 21
532.691818
 31
0.0
  0
LINE
  5
3B6
330
1F
100
AcDbEntity
  8
LC-001-100-D00-0
 62
     7
370
    50
100
AcDbLine
 10
59.988979
 20
534.091819
 30
0.0
 11
59.988979
 21
532.691818
 31
0.0
  0
LINE
  5
3B7
330
1F
100
AcDbEntity
  8
LC-001-100-D00-0
 62
     7
370
    50
100
AcDbLine
 10
59.988979
 20
534.091819
 30
0.0
 11
60.48897
 21
534.091818
 31
0.0
  0
ARC
  5
3B8
330
1F
100
AcDbEntity
  8
LC-001-100-D00-0
 62
     7
370
    50
100
AcDbCircle
 10
59.48897
 20
535.591818
 30
0.0
 40
1.802775637731868
100
AcDbArc
 50
303.690068
 51
56.309932
  0
LINE
  5
3B9
330
1F
100
AcDbEntity
  8
LC-001-100-D00-0
 62
     7
370
    50
100
AcDbLine
 10
60.48897
 20
537.091818
 30
0.0
 11
60.488973
 21
551.691818
 31
0.0
  0
LINE
  5
3BA
330
1F
100
AcDbEntity
  8
LC-001-100-D00-0
 62
     7
370
    50
100
AcDbLine
 10
60.488973
 20
551.691818
 30
0.0
 11
61.48896
 21
552.691818
 31
0.0
  0
LINE
  5
3BB
330
1F
100
AcDbEntity
  8
LC-001-100-D00-0
 62
     7
370
    50
100
AcDbLine
 10
61.48896
 20
552.691818
 30
0.0
 11
67.488972
 21
552.691818
 31
0.0
  0
LINE
  5
3BC
330
1F
100
AcDbEntity
  8
LC-001-100-D00-0
 62
     7
370
    50
100
AcDbLine
 10
67.488972
 20
552.691818
 30
0.0
 11
68.488959
 21
551.691818
 31
0.0
  0
LINE
  5
3BD
330
1F
100
AcDbEntity
  8
LC-001-100-D00-0
 62
     7
370
    50
100
AcDbLine
 10
68.488959
 20
551.691818
 30
0.0
 11
68.48897
 21
537.091818
 31
0.0
  0
ARC
  5
3BE
330
1F
100
AcDbEntity
  8
LC-001-100-D00-0
 62
     7
370
    50
100
AcDbCircle
 10
69.48897
 20
535.591818
 30
0.0
 40
1.802775637732058
100
AcDbArc
 50
123.690068
 51
236.309932
  0
LINE
  5
3BF
330
1F
100
AcDbEntity
  8
LC-001-100-D00-0
 62
     7
370
    50
100
AcDbLine
 10
68.48897
 20
534.091818
 30
0.0
 11
68.988983
 21
534.091819
 31
0.0
  0
LINE
  5
3C0
330
1F
100
AcDbEntity
  8
LC-001-100-D00-0
 62
     7
370
    50
100
AcDbLine
 10
68.988983
 20
532.691818
 30
0.0
 11
68.988983
 21
534.091819
 31
0.0
  0
LINE
  5
3C1
330
1F
100
AcDbEntity
  8
LC-001-100-D00-0
 62
     7
370
    50
100
AcDbLine
 10
86.48897
 20
532.691818
 30
0.0
 11
68.988983
 21
532.691818
 31
0.0
  0
ARC
  5
3C2
330
1F
100
AcDbEntity
  8
LC-001-100-D00-0
 62
     7
370
    50
100
AcDbCircle
 10
86.48897
 20
540.691818
 30
0.0
 40
7.999999999999773
100
AcDbArc
 50
270.0
 51
0.0
  0
LINE
  5
3C3
330
1F
100
AcDbEntity
  8
LC-001-100-D00-0
 62
     7
370
    50
100
AcDbLine
 10
94.48897
 20
550.191818
 30
0.0
 11
94.48897
 21
540.691818
 31
0.0
  0
ARC
  5
3C4
330
1F
100
AcDbEntity
  8
LC-001-100-D00-0
 62
     7
370
    50
100
AcDbCircle
 10
97.48897
 20
550.191818
 30
0.0
 40
3.0
100
AcDbArc
 50
90.0
 51
180.0
  0
LINE
  5
3C5
330
1F
100
AcDbEntity
  8
LC-001-100-D00-0
 62
     7
370
    50
100
AcDbLine
 10
97.48897
 20
553.191818
 30
0.0
 11
144.488964
 21
553.191818
 31
0.0
  0
LINE
  5
3C6
330
1F
100
AcDbEntity
  8
LC-001-100-D00-0
 62
     7
370
    50
100
AcDbLine
 10
144.488964
 20
553.191818
 30
0.0
 11
144.488964
 21
551.691818
 31
0.0
  0
LINE
  5
3C7
330
1F
100
AcDbEntity
  8
LC-001-100-D00-0
 62
     7
370
    50
100
AcDbLine
 10
97.48897
 20
551.691818
 30
0.0
 11
144.488964
 21
551.691818
 31
0.0
  0
ARC
  5
3C8
330
1F
100
AcDbEntity
  8
LC-001-100-D00-0
 62
     7
370
    50
100
AcDbCircle
 10
97.48897
 20
550.191818
 30
0.0
 40
1.500000000000455
100
AcDbArc
 50
90.0
 51
180.0
  0
LINE
  5
3C9
330
1F
100
AcDbEntity
  8
LC-001-100-D00-0
 62
     7
370
    50
100
AcDbLine
 10
95.98897
 20
550.191818
 30
0.0
 11
95.98897
 21
540.691818
 31
0.0
  0
ARC
  5
3CA
330
1F
100
AcDbEntity
  8
LC-001-100-D00-0
 62
     7
370
    50
100
AcDbCircle
 10
86.48897
 20
540.691818
 30
0.0
 40
9.5
100
AcDbArc
 50
270.0
 51
0.0
  0
LINE
  5
3CB
330
1F
100
AcDbEntity
  8
LC-001-100-D00-0
 62
     7
370
    50
100
AcDbLine
 10
86.48897
 20
531.191818
 30
0.0
 11
-111.521644
 21
531.191818
 31
0.0
  0
ARC
  5
3CC
330
1F
100
AcDbEntity
  8
LC-001-100-D00-0
 62
     7
370
    50
100
AcDbCircle
 10
-111.521644
 20
528.691818
 30
0.0
 40
2.5
100
AcDbArc
 50
90.0
 51
105.0
  0
LINE
  5
3CD
330
1F
100
AcDbEntity
  8
LC-001-100-D00-0
 62
     7
370
    50
100
AcDbLine
 10
-130.002364
 20
526.328115
 30
0.0
 11
-112.168692
 21
531.106633
 31
0.0
  0
ARC
  5
3CE
330
1F
100
AcDbEntity
  8
LC-001-100-D00-0
 62
     7
370
    50
100
AcDbCircle
 10
-131.03764
 20
530.191818
 30
0.0
 40
4.000000000000227
100
AcDbArc
 50
270.0
 51
285.0
  0
LINE
  5
3CF
330
1F
100
AcDbEntity
  8
LC-001-100-D00-0
 62
     7
370
    50
100
AcDbLine
 10
-147.71103
 20
526.191818
 30
0.0
 11
-131.03764
 21
526.191818
 31
0.0
  0
ARC
  5
3D0
330
1F
100
AcDbEntity
  8
LC-001-100-D00-0
 62
     7
370
    50
100
AcDbCircle
 10
-147.71103
 20
525.191818
 30
0.0
 40
1.0
100
AcDbArc
 50
90.0
 51
180.0
  0
LINE
  5
3D1
330
1F
100
AcDbEntity
  8
LC-001-100-D00-0
 62
     7
370
    50
100
AcDbLine
 10
-148.711029
 20
521.191817
 30
0.0
 11
-148.71103
 21
525.191818
 31
0.0
  0
LINE
  5
3D2
330
1F
100
AcDbEntity
  8
LC-001-100-D00-0
 62
     7
370
    50
100
AcDbLine
 10
-150.21103
 20
521.191818
 30
0.0
 11
-148.711029
 21
521.191817
 31
0.0
  0
LINE
  5
3D3
330
1F
100
AcDbEntity
  8
LC-001-100-D00-0
 62
     7
370
    50
100
AcDbLine
 10
-161.117146
 20
527.691818
 30
0.0
 11
-147.71103
 21
527.691818
 31
0.0
  0
LINE
  5
3D4
330
1F
100
AcDbEntity
  8
LC-001-100-D00-0
 62
     7
370
    50
100
AcDbLine
 10
-150.21103
 20
521.191818
 30
0.0
 11
-150.26103
 21
521.191818
 31
0.0
  0
LINE
  5
3D5
330
1F
100
AcDbEntity
  8
LC-001-100-D00-0
 62
     7
370
    50
100
AcDbLine
 10
-262.31103
 20
525.191818
 30
0.0
 11
-262.31103
 21
521.191817
 31
0.0
  0
LINE
  5
3D6
330
1F
100
AcDbEntity
  8
LC-001-100-D00-0
 62
     7
370
    50
100
AcDbLine
 10
-260.76103
 20
521.191818
 30
0.0
 11
-260.81103
 21
521.191818
 31
0.0
  0
LINE
  5
3D7
330
1F
100
AcDbEntity
  8
LC-001-100-D00-0
 62
     7
370
    50
100
AcDbLine
 10
-260.81103
 20
525.191818
 30
0.0
 11
-260.81103
 21
521.191818
 31
0.0
  0
ARC
  5
3D8
330
1F
100
AcDbEntity
  8
LC-001-100-D00-0
 62
     7
370
    50
100
AcDbCircle
 10
-263.31103
 20
525.191818
 30
0.0
 40
2.5
100
AcDbArc
 50
0.0
 51
90.0
  0
LINE
  5
3D9
330
1F
100
AcDbEntity
  8
LC-001-100-D00-0
 62
     7
370
    50
100
AcDbLine
 10
-249.904913
 20
527.691818
 30
0.0
 11
-263.31103
 21
527.691818
 31
0.0
  0
ARC
  5
3DA
330
1F
100
AcDbEntity
  8
LC-001-100-D00-0
 62
     7
370
    50
100
AcDbCircle
 10
-263.31103
 20
525.191818
 30
0.0
 40
0.9999999999998863
100
AcDbArc
 50
0.0
 51
90.0
  0
LINE
  5
3DB
330
1F
100
AcDbEntity
  8
LC-001-100-D00-0
 62
     7
370
    50
100
AcDbLine
 10
-472.511019
 20
552.691818
 30
0.0
 11
-471.511032
 21
551.691818
 31
0.0
  0
LINE
  5
3DC
330
1F
100
AcDbEntity
  8
LC-001-100-D00-0
 62
     7
370
    50
100
AcDbLine
 10
-471.511032
 20
551.691818
 30
0.0
 11
-471.51103
 21
537.091818
 31
0.0
  0
ARC
  5
3DD
330
1F
100
AcDbEntity
  8
LC-001-100-D00-0
 62
     7
370
    50
100
AcDbCircle
 10
-470.51103
 20
535.591818
 30
0.0
 40
1.802775637732121
100
AcDbArc
 50
123.690068
 51
236.309932
  0
LINE
  5
3DE
330
1F
100
AcDbEntity
  8
LC-001-100-D00-0
 62
     7
370
    50
100
AcDbLine
 10
-471.51103
 20
534.091818
 30
0.0
 11
-471.011039
 21
534.091819
 31
0.0
  0
LINE
  5
3DF
330
1F
100
AcDbEntity
  8
LC-001-100-D00-0
 62
     7
370
    50
100
AcDbLine
 10
-471.011039
 20
532.691818
 30
0.0
 11
-471.011039
 21
534.091819
 31
0.0
  0
LINE
  5
3E0
330
1F
100
AcDbEntity
  8
LC-001-100-D00-0
 62
     7
370
    50
100
AcDbLine
 10
-310.011033
 20
532.691818
 30
0.0
 11
-471.011039
 21
532.691818
 31
0.0
  0
LINE
  5
3E1
330
1F
100
AcDbEntity
  8
LC-001-100-D00-0
 62
     7
370
    50
100
AcDbLine
 10
-310.011033
 20
534.091819
 30
0.0
 11
-310.011033
 21
532.691818
 31
0.0
  0
LINE
  5
3E2
330
1F
100
AcDbEntity
  8
LC-001-100-D00-0
 62
     7
370
    50
100
AcDbLine
 10
-310.011033
 20
534.091819
 30
0.0
 11
-309.51103
 21
534.091818
 31
0.0
  0
ARC
  5
3E3
330
1F
100
AcDbEntity
  8
LC-001-100-D00-0
 62
     7
370
    50
100
AcDbCircle
 10
-310.51103
 20
535.591818
 30
0.0
 40
1.802775637732184
100
AcDbArc
 50
303.690068
 51
56.309932
  0
LINE
  5
3E4
330
1F
100
AcDbEntity
  8
LC-001-100-D00-0
 62
     7
370
    50
100
AcDbLine
 10
-309.51103
 20
537.091818
 30
0.0
 11
-309.511032
 21
551.691818
 31
0.0
  0
LINE
  5
3E5
330
1F
100
AcDbEntity
  8
LC-001-100-D00-0
 62
     7
370
    50
100
AcDbLine
 10
-309.511032
 20
551.691818
 30
0.0
 11
-308.51103
 21
552.691818
 31
0.0
  0
LINE
  5
3E6
330
1F
100
AcDbEntity
  8
LC-001-100-D00-0
 62
     7
370
    50
100
AcDbLine
 10
-308.51103
 20
552.691818
 30
0.0
 11
-302.511033
 21
552.691818
 31
0.0
  0
LINE
  5
3E7
330
1F
100
AcDbEntity
  8
LC-001-100-D00-0
 62
     7
370
    50
100
AcDbLine
 10
-302.511033
 20
552.691818
 30
0.0
 11
-301.511031
 21
551.691818
 31
0.0
  0
LINE
  5
3E8
330
1F
100
AcDbEntity
  8
LC-001-100-D00-0
 62
     7
370
    50
100
AcDbLine
 10
-301.511031
 20
551.691818
 30
0.0
 11
-301.51103
 21
537.091818
 31
0.0
  0
ARC
  5
3E9
330
1F
100
AcDbEntity
  8
LC-001-100-D00-0
 62
     7
370
    50
100
AcDbCircle
 10
-300.51103
 20
535.591818
 30
0.0
 40
1.802775637732184
100
AcDbArc
 50
123.690068
 51
236.309932
  0
LINE
  5
3EA
330
1F
100
AcDbEntity
  8
LC-001-100-D00-0
 62
     7
370
    50
100
AcDbLine
 10
-301.51103
 20
534.091818
 30
0.0
 11
-301.01103
 21
534.091819
 31
0.0
  0
LINE
  5
3EB
330
1F
100
AcDbEntity
  8
LC-001-100-D00-0
 62
     7
370
    50
100
AcDbLine
 10
-301.01103
 20
532.691818
 30
0.0
 11
-301.01103
 21
534.091819
 31
0.0
  0
LINE
  5
3EC
330
1F
100
AcDbEntity
  8
LC-001-100-D00-0
 62
     7
370
    50
100
AcDbLine
 10
-299.500415
 20
532.691818
 30
0.0
 11
-301.01103
 21
532.691818
 31
0.0
  0
ARC
  5
3ED
330
1F
100
AcDbEntity
  8
LC-001-100-D00-0
 62
     7
370
    50
100
AcDbCircle
 10
-299.500415
 20
528.691818
 30
0.0
 40
4.000000000000122
100
AcDbArc
 50
75.0
 51
90.0
  0
LINE
  5
3EE
330
1F
100
AcDbEntity
  8
LC-001-100-D00-0
 62
     7
370
    50
100
AcDbLine
 10
-298.465139
 20
532.555522
 30
0.0
 11
-280.631467
 21
527.777004
 31
0.0
  0
ARC
  5
3EF
330
1F
100
AcDbEntity
  8
LC-001-100-D00-0
 62
     7
370
    50
100
AcDbCircle
 10
-279.98442
 20
530.191818
 30
0.0
 40
2.500000000000091
100
AcDbArc
 50
255.0
 51
270.0
  0
LINE
  5
3F0
330
1F
100
AcDbEntity
  8
LC-001-100-D00-0
 62
     7
370
    50
100
AcDbLine
 10
-274.588238
 20
527.691819
 30
0.0
 11
-274.588238
 21
527.591819
 31
0.0
  0
LINE
  5
3F1
330
1F
100
AcDbEntity
  8
LC-001-100-D00-0
 62
     7
370
    50
100
AcDbLine
 10
-274.588238
 20
527.591819
 30
0.0
 11
-274.064403
 21
527.591819
 31
0.0
  0
LINE
  5
3F2
330
1F
100
AcDbEntity
  8
LC-001-100-D00-0
 62
     7
370
    50
100
AcDbLine
 10
-274.064403
 20
527.591819
 30
0.0
 11
-274.064403
 21
527.691819
 31
0.0
  0
LINE
  5
3F3
330
1F
100
AcDbEntity
  8
LC-001-100-D00-0
 62
     7
370
    50
100
AcDbLine
 10
-273.370158
 20
527.691819
 30
0.0
 11
-273.370158
 21
527.591819
 31
0.0
  0
LINE
  5
3F4
330
1F
100
AcDbEntity
  8
LC-001-100-D00-0
 62
     7
370
    50
100
AcDbLine
 10
-273.370158
 20
527.591819
 30
0.0
 11
-272.845808
 21
527.591819
 31
0.0
  0
LINE
  5
3F5
330
1F
100
AcDbEntity
  8
LC-001-100-D00-0
 62
     7
370
    50
100
AcDbLine
 10
-272.845808
 20
527.591819
 30
0.0
 11
-272.845808
 21
527.691819
 31
0.0
  0
ARC
  5
3F6
330
1F
100
AcDbEntity
  8
LC-001-100-D00-0
 62
     7
370
    50
100
AcDbCircle
 10
-279.98442
 20
530.191818
 30
0.0
 40
4.000000000000122
100
AcDbArc
 50
255.0
 51
270.0
  0
LINE
  5
3F7
330
1F
100
AcDbEntity
  8
LC-001-100-D00-0
 62
     7
370
    50
100
AcDbLine
 10
-298.853367
 20
531.106633
 30
0.0
 11
-281.019696
 21
526.328115
 31
0.0
  0
ARC
  5
3F8
330
1F
100
AcDbEntity
  8
LC-001-100-D00-0
 62
     7
370
    50
100
AcDbCircle
 10
-299.500415
 20
528.691818
 30
0.0
 40
2.500000000000091
100
AcDbArc
 50
75.0
 51
90.0
  0
LINE
  5
3F9
330
1F
100
AcDbEntity
  8
LC-001-100-D00-0
 62
     7
370
    50
100
AcDbLine
 10
-299.500415
 20
531.191818
 30
0.0
 11
-497.51103
 21
531.191818
 31
0.0
  0
ARC
  5
3FA
330
1F
100
AcDbEntity
  8
LC-001-100-D00-0
 62
     7
370
    50
100
AcDbCircle
 10
-497.51103
 20
540.691818
 30
0.0
 40
9.5
100
AcDbArc
 50
180.0
 51
270.0
  0
LINE
  5
3FB
330
1F
100
AcDbEntity
  8
LC-001-100-D00-0
 62
     7
370
    50
100
AcDbLine
 10
-507.01103
 20
540.691818
 30
0.0
 11
-507.01103
 21
550.191818
 31
0.0
  0
ARC
  5
3FC
330
1F
100
AcDbEntity
  8
LC-001-100-D00-0
 62
     7
370
    50
100
AcDbCircle
 10
-508.51103
 20
550.191818
 30
0.0
 40
1.500000000000057
100
AcDbArc
 50
0.0
 51
90.0
  0
LINE
  5
3FD
330
1F
100
AcDbEntity
  8
LC-001-100-D00-0
 62
     7
370
    50
100
AcDbLine
 10
-555.511024
 20
551.691818
 30
0.0
 11
-555.511024
 21
553.191818
 31
0.0
  0
ARC
  5
3FE
330
1F
100
AcDbEntity
  8
LC-001-100-D00-0
 62
     7
370
    50
100
AcDbCircle
 10
-508.51103
 20
550.191818
 30
0.0
 40
2.999999999999943
100
AcDbArc
 50
0.0
 51
90.0
  0
LINE
  5
3FF
330
1F
100
AcDbEntity
  8
LC-001-100-D00-0
 62
     7
370
    50
100
AcDbLine
 10
-505.51103
 20
540.691818
 30
0.0
 11
-505.51103
 21
550.191818
 31
0.0
  0
ARC
  5
400
330
1F
100
AcDbEntity
  8
LC-001-100-D00-0
 62
     7
370
    50
100
AcDbCircle
 10
-497.51103
 20
540.691818
 30
0.0
 40
8.000000000000227
100
AcDbArc
 50
180.0
 51
270.0
  0
LINE
  5
401
330
1F
100
AcDbEntity
  8
LC-001-100-D00-0
 62
     7
370
    50
100
AcDbLine
 10
-480.011042
 20
532.691818
 30
0.0
 11
-497.51103
 21
532.691818
 31
0.0
  0
LINE
  5
402
330
1F
100
AcDbEntity
  8
LC-001-100-D00-0
 62
     7
370
    50
100
AcDbLine
 10
-480.011042
 20
534.091819
 30
0.0
 11
-480.011042
 21
532.691818
 31
0.0
  0
LINE
  5
403
330
1F
100
AcDbEntity
  8
LC-001-100-D00-0
 62
     7
370
    50
100
AcDbLine
 10
-480.011042
 20
534.091819
 30
0.0
 11
-479.51103
 21
534.091818
 31
0.0
  0
ARC
  5
404
330
1F
100
AcDbEntity
  8
LC-001-100-D00-0
 62
     7
370
    50
100
AcDbCircle
 10
-480.51103
 20
535.591818
 30
0.0
 40
1.802775637731963
100
AcDbArc
 50
303.690068
 51
56.309932
  0
LINE
  5
405
330
1F
100
AcDbEntity
  8
LC-001-100-D00-0
 62
     7
370
    50
100
AcDbLine
 10
-479.51103
 20
537.091818
 30
0.0
 11
-479.511019
 21
551.691818
 31
0.0
  0
LINE
  5
406
330
1F
100
AcDbEntity
  8
LC-001-100-D00-0
 62
     7
370
    50
100
AcDbLine
 10
-479.511019
 20
551.691818
 30
0.0
 11
-478.511032
 21
552.691818
 31
0.0
  0
LINE
  5
407
330
1F
100
AcDbEntity
  8
LC-001-100-D00-0
 62
     7
370
    50
100
AcDbLine
 10
-478.511032
 20
552.691818
 30
0.0
 11
-472.511019
 21
552.691818
 31
0.0
  0
LINE
  5
408
330
1F
100
AcDbEntity
  8
LC-001-100-D00-0
 62
     7
370
    50
100
AcDbLine
 10
-262.31103
 20
521.191817
 30
0.0
 11
-260.81103
 21
521.191818
 31
0.0
  0
LINE
  5
409
330
1F
100
AcDbEntity
  8
LC-001-100-D00-0
 62
     7
370
    50
100
AcDbLine
 10
-279.98442
 20
526.191818
 30
0.0
 11
-263.31103
 21
526.191818
 31
0.0
  0
LINE
  5
40A
330
1F
100
AcDbEntity
  8
LC-001-100-D00-0
 62
     7
370
    50
100
AcDbLine
 10
-272.845808
 20
527.691819
 30
0.0
 11
-263.31103
 21
527.691818
 31
0.0
  0
LINE
  5
40B
330
1F
100
AcDbEntity
  8
LC-001-100-D00-0
 62
     7
370
    50
100
AcDbLine
 10
-274.064403
 20
527.691819
 30
0.0
 11
-273.370158
 21
527.691819
 31
0.0
  0
LINE
  5
40C
330
1F
100
AcDbEntity
  8
LC-001-100-D00-0
 62
     7
370
    50
100
AcDbLine
 10
-279.98442
 20
527.691818
 30
0.0
 11
-274.588238
 21
527.691819
 31
0.0
  0
LINE
  5
40D
330
1F
100
AcDbEntity
  8
LC-001-100-D00-0
 62
     7
370
    50
100
AcDbLine
 10
-555.511024
 20
553.191818
 30
0.0
 11
-508.51103
 21
553.191818
 31
0.0
  0
LINE
  5
40E
330
1F
100
AcDbEntity
  8
LC-001-100-D00-0
 62
     7
370
    50
100
AcDbLine
 10
-555.511024
 20
551.691818
 30
0.0
 11
-508.51103
 21
551.691818
 31
0.0
  0
LINE
  5
40F
330
1F
100
AcDbEntity
  8
LC-001-100-D00-0
 62
     7
370
    50
100
AcDbLine
 10
-273.370158
 20
527.691819
 30
0.0
 11
-272.845808
 21
527.691819
 31
0.0
  0
LINE
  5
410
330
1F
100
AcDbEntity
  8
LC-001-100-D00-0
 62
     7
370
    50
100
AcDbLine
 10
-274.588238
 20
527.691819
 30
0.0
 11
-274.064403
 21
527.691819
 31
0.0
  0
ELLIPSE
  5
411
330
1F
100
AcDbEntity
  8
LC-001-100-D00-0
 62
     7
370
    50
100
AcDbEllipse
 10
-50.489213
 20
528.691818
 30
0.0
 11
0.0
 21
-2.500000061035156
 31
0.0
210
0.0
220
0.0
230
1.0
 40
0.027578
 41
0.000000000003195
 42
0.3217505544005188
  0
ELLIPSE
  5
412
330
1F
100
AcDbEntity
  8
LC-001-100-D00-0
 62
     7
370
    50
100
AcDbEllipse
 10
-360.532847
 20
528.691818
 30
0.0
 11
0.0
 21
-2.500000011444092
 31
0.0
210
0.0
220
0.0
230
1.0
 40
0.027578
 41
5.961434752785946
 42
6.283185307181236
  0
LINE
  5
413
330
1F
100
AcDbEntity
  8
LC-001-100-D00-0
 62
     7
370
    50
100
AcDbLine
 10
-50.511029
 20
531.063166
 30
0.0
 11
-50.511029
 21
526.397778
 31
0.0
  0
LINE
  5
414
330
1F
100
AcDbEntity
  8
LC-001-100-D00-0
 62
     7
370
    50
100
AcDbLine
 10
-360.511031
 20
531.063166
 30
0.0
 11
-360.511031
 21
526.397778
 31
0.0
  0
INSERT
  5
41E
330
1F
100
AcDbEntity
  8
LC-001-100-D00-0
 62
     7
370
    50
100
AcDbBlockReference
  2
KLON18
 10
0.0
 20
0.0
 30
0.0
  0
INSERT
  5
428
330
1F
100
AcDbEntity
  8
LC-001-100-D00-0
 62
     7
370
    50
100
AcDbBlockReference
  2
KLON19
 10
0.0
 20
0.0
 30
0.0
  0
LINE
  5
429
330
1F
100
AcDbEntity
  8
LC-001-100-D00-0
 62
     7
370
    50
100
AcDbLine
 10
-50.511043
 20
526.191818
 30
0.0
 11
-50.511058
 21
526.397085
 31
0.0
  0
LINE
  5
42A
330
1F
100
AcDbEntity
  8
LC-001-100-D00-0
 62
     7
370
    50
100
AcDbLine
 10
-50.511029
 20
526.191818
 30
0.0
 11
77.396665
 21
530.859983
 31
0.0
  0
LINE
  5
42B
330
1F
100
AcDbEntity
  8
LC-001-100-D00-0
 62
     7
370
    50
100
AcDbLine
 10
-50.511043
 20
526.191818
 30
0.0
 11
-50.511043
 21
526.191818
 31
0.0
  0
LINE
  5
42C
330
1F
100
AcDbEntity
  8
LC-001-100-D00-0
 62
     7
370
    50
100
AcDbLine
 10
-360.511016
 20
526.191818
 30
0.0
 11
-360.511001
 21
526.397085
 31
0.0
  0
LINE
  5
42D
330
1F
100
AcDbEntity
  8
LC-001-100-D00-0
 62
     7
370
    50
100
AcDbLine
 10
-360.511031
 20
526.191818
 30
0.0
 11
-488.418724
 21
530.859983
 31
0.0
  0
LINE
  5
42E
330
1F
100
AcDbEntity
  8
LC-001-100-D00-0
 62
     7
370
    50
100
AcDbLine
 10
-360.511016
 20
526.191818
 30
0.0
 11
-360.511016
 21
526.191818
 31
0.0
  0
LINE
  5
42F
330
1F
100
AcDbEntity
  8
LC-001-100-D00-0
 62
     7
370
    50
100
AcDbLine
 10
-163.724873
 20
519.191818
 30
0.0
 11
-161.332327
 21
519.191818
 31
0.0
  0
LINE
  5
430
330
1F
100
AcDbEntity
  8
LC-001-100-D00-0
 62
     7
370
    50
100
AcDbLine
 10
-160.361114
 20
517.691818
 30
0.0
 11
-160.265528
 21
517.699879
 31
0.0
  0
LINE
  5
431
330
1F
100
AcDbEntity
  8
LC-001-100-D00-0
 62
     7
370
    50
100
AcDbLine
 10
-160.361114
 20
517.691818
 30
0.0
 11
-163.724873
 21
517.691818
 31
0.0
  0
LINE
  5
432
330
1F
100
AcDbEntity
  8
LC-001-100-D00-0
 62
     7
370
    50
100
AcDbLine
 10
-250.756532
 20
517.699879
 30
0.0
 11
-250.660945
 21
517.691818
 31
0.0
  0
LINE
  5
433
330
1F
100
AcDbEntity
  8
LC-001-100-D00-0
 62
     7
370
    50
100
AcDbLine
 10
-247.297186
 20
517.691818
 30
0.0
 11
-250.660945
 21
517.691818
 31
0.0
  0
LINE
  5
434
330
1F
100
AcDbEntity
  8
LC-001-100-D00-0
 62
     7
370
    50
100
AcDbLine
 10
-249.689733
 20
519.191818
 30
0.0
 11
-247.297186
 21
519.191818
 31
0.0
  0
LINE
  5
435
330
1F
100
AcDbEntity
  8
LC-001-100-D00-0
 62
     7
370
    50
100
AcDbLine
 10
-163.724873
 20
517.691818
 30
0.0
 11
-164.501801
 21
517.691818
 31
0.0
  0
LINE
  5
436
330
1F
100
AcDbEntity
  8
LC-001-100-D00-0
 62
     7
370
    50
100
AcDbLine
 10
-163.724873
 20
519.191818
 30
0.0
 11
-164.501801
 21
519.191818
 31
0.0
  0
LINE
  5
437
330
1F
100
AcDbEntity
  8
LC-001-100-D00-0
 62
     7
370
    50
100
AcDbLine
 10
-247.297186
 20
517.691818
 30
0.0
 11
-246.520258
 21
517.691818
 31
0.0
  0
LINE
  5
438
330
1F
100
AcDbEntity
  8
LC-001-100-D00-0
 62
     7
370
    50
100
AcDbLine
 10
-247.297186
 20
519.191818
 30
0.0
 11
-246.520258
 21
519.191818
 31
0.0
  0
LINE
  5
439
330
1F
100
AcDbEntity
  8
LC-001-100-D00-0
 62
     7
370
    50
100
AcDbLine
 10
-131.03764
 20
526.191818
 30
0.0
 11
-128.937039
 21
526.191818
 31
0.0
  0
LINE
  5
43A
330
1F
100
AcDbEntity
  8
LC-001-100-D00-0
 62
     7
370
    50
100
AcDbLine
 10
-279.98442
 20
526.191818
 30
0.0
 11
-282.08502
 21
526.191818
 31
0.0
  0
LINE
  5
43B
330
1F
100
AcDbEntity
  8
LC-001-100-D00-0
 62
     7
370
    50
100
AcDbLine
 10
-164.501801
 20
517.691818
 30
0.0
 11
-165.796615
 21
517.691818
 31
0.0
  0
LINE
  5
43C
330
1F
100
AcDbEntity
  8
LC-001-100-D00-0
 62
     7
370
    50
100
AcDbLine
 10
-165.780684
 20
519.191818
 30
0.0
 11
-164.501801
 21
519.191818
 31
0.0
  0
LINE
  5
43D
330
1F
100
AcDbEntity
  8
LC-001-100-D00-0
 62
     7
370
    50
100
AcDbLine
 10
-245.225445
 20
517.691818
 30
0.0
 11
-246.520258
 21
517.691818
 31
0.0
  0
LINE
  5
43E
330
1F
100
AcDbEntity
  8
LC-001-100-D00-0
 62
     7
370
    50
100
AcDbLine
 10
-246.520258
 20
519.191818
 30
0.0
 11
-245.241376
 21
519.191818
 31
0.0
  0
LINE
  5
43F
330
1F
100
AcDbEntity
  8
LC-001-100-D00-0
 62
     7
370
    50
100
AcDbLine
 10
-128.937039
 20
526.191818
 30
0.0
 11
-50.511043
 21
526.191818
 31
0.0
  0
LINE
  5
440
330
1F
100
AcDbEntity
  8
LC-001-100-D00-0
 62
     7
370
    50
100
AcDbLine
 10
-282.08502
 20
526.191818
 30
0.0
 11
-360.511016
 21
526.191818
 31
0.0
  0
ARC
  5
441
330
1F
100
AcDbEntity
  8
LC-001-100-D00-0
 62
     7
370
    50
100
AcDbCircle
 10
-160.995402
 20
519.12597
 30
0.0
 40
1.602014939990957
100
AcDbArc
 50
297.103406
 51
2.355668
  0
INSERT
  5
44A
330
1F
100
AcDbEntity
  8
LC-001-100-D00-0
 62
     7
370
    50
100
AcDbBlockReference
  2
KLON20
 10
0.0
 20
0.0
 30
0.0
  0
INSERT
  5
457
330
1F
100
AcDbEntity
  8
LC-001-100-D00-0
 62
     7
370
    50
100
AcDbBlockReference
  2
KLON21
 10
0.0
 20
0.0
 30
0.0
  0
INSERT
  5
464
330
1F
100
AcDbEntity
  8
LC-001-100-D00-0
 62
     7
370
    50
100
AcDbBlockReference
  2
KLON22
 10
0.0
 20
0.0
 30
0.0
  0
LINE
  5
465
330
1F
100
AcDbEntity
  8
LC-001-100-D00-0
 62
     7
370
    50
100
AcDbLine
 10
91.98897
 20
553.191818
 30
0.0
 11
97.48897
 21
553.191818
 31
0.0
  0
LINE
  5
466
330
1F
100
AcDbEntity
  8
LC-001-100-D00-0
 62
     7
370
    50
100
AcDbLine
 10
-503.01103
 20
553.191818
 30
0.0
 11
-508.51103
 21
553.191818
 31
0.0
  0
LINE
  5
467
330
1F
100
AcDbEntity
  8
LC-001-100-D00-0
 62
     7
370
    50
100
AcDbLine
 10
91.98897
 20
553.191818
 30
0.0
 11
81.73897
 21
553.191818
 31
0.0
  0
LINE
  5
468
330
1F
100
AcDbEntity
  8
LC-001-100-D00-0
 62
     7
370
    50
100
AcDbLine
 10
47.23897
 20
553.191818
 30
0.0
 11
-88.26103
 21
553.191818
 31
0.0
  0
LINE
  5
469
330
1F
100
AcDbEntity
  8
LC-001-100-D00-0
 62
     7
370
    50
100
AcDbLine
 10
-122.76103
 20
553.191818
 30
0.0
 11
-288.26103
 21
553.191818
 31
0.0
  0
LINE
  5
46A
330
1F
100
AcDbEntity
  8
LC-001-100-D00-0
 62
     7
370
    50
100
AcDbLine
 10
-322.76103
 20
553.191818
 30
0.0
 11
-458.26103
 21
553.191818
 31
0.0
  0
LINE
  5
46B
330
1F
100
AcDbEntity
  8
LC-001-100-D00-0
 62
     7
370
    50
100
AcDbLine
 10
-492.76103
 20
553.191818
 30
0.0
 11
-503.01103
 21
553.191818
 31
0.0
  0
ARC
  5
46C
330
1F
100
AcDbEntity
  8
LC-001-100-D00-0
 62
     7
370
    50
100
AcDbCircle
 10
-18.41103
 20
526.591818
 30
0.0
 40
2.000000000000114
100
AcDbArc
 50
180.0
 51
270.0
  0
LINE
  5
46D
330
1F
100
AcDbEntity
  8
LC-001-100-D00-0
 62
     7
370
    50
100
AcDbLine
 10
-18.41103
 20
524.591818
 30
0.0
 11
7.38897
 21
524.591818
 31
0.0
  0
ARC
  5
46E
330
1F
100
AcDbEntity
  8
LC-001-100-D00-0
 62
     7
370
    50
100
AcDbCircle
 10
7.38897
 20
526.591818
 30
0.0
 40
2.000000000000227
100
AcDbArc
 50
270.0
 51
0.0
  0
LINE
  5
46F
330
1F
100
AcDbEntity
  8
LC-001-100-D00-0
 62
     7
370
    50
100
AcDbLine
 10
9.38897
 20
526.591818
 30
0.0
 11
9.388972
 21
528.37795
 31
0.0
  0
LINE
  5
470
330
1F
100
AcDbEntity
  8
LC-001-100-D00-0
 62
     7
370
    50
100
AcDbLine
 10
11.388976
 20
528.450942
 30
0.0
 11
11.38897
 21
526.591818
 31
0.0
  0
ARC
  5
471
330
1F
100
AcDbEntity
  8
LC-001-100-D00-0
 62
     7
370
    50
100
AcDbCircle
 10
7.38897
 20
526.591818
 30
0.0
 40
4.000000000000227
100
AcDbArc
 50
270.0
 51
0.0
  0
LINE
  5
472
330
1F
100
AcDbEntity
  8
LC-001-100-D00-0
 62
     7
370
    50
100
AcDbLine
 10
7.38897
 20
522.591818
 30
0.0
 11
-18.41103
 21
522.591818
 31
0.0
  0
ARC
  5
473
330
1F
100
AcDbEntity
  8
LC-001-100-D00-0
 62
     7
370
    50
100
AcDbCircle
 10
-18.41103
 20
526.591818
 30
0.0
 40
4.000000000000114
100
AcDbArc
 50
180.0
 51
270.0
  0
LINE
  5
474
330
1F
100
AcDbEntity
  8
LC-001-100-D00-0
 62
     7
370
    50
100
AcDbLine
 10
-22.41103
 20
526.591818
 30
0.0
 11
-22.41103
 21
527.217366
 31
0.0
  0
LINE
  5
475
330
1F
100
AcDbEntity
  8
LC-001-100-D00-0
 62
     7
370
    50
100
AcDbLine
 10
-20.411026
 20
527.290359
 30
0.0
 11
-20.41103
 21
526.591818
 31
0.0
  0
LINE
  5
476
330
1F
100
AcDbEntity
  8
LC-001-100-D00-0
 62
     7
370
    50
100
AcDbLine
 10
-388.61103
 20
526.591818
 30
0.0
 11
-388.61103
 21
527.217366
 31
0.0
  0
ARC
  5
477
330
1F
100
AcDbEntity
  8
LC-001-100-D00-0
 62
     7
370
    50
100
AcDbCircle
 10
-392.61103
 20
526.591818
 30
0.0
 40
4.000000000000227
100
AcDbArc
 50
270.0
 51
0.0
  0
LINE
  5
478
330
1F
100
AcDbEntity
  8
LC-001-100-D00-0
 62
     7
370
    50
100
AcDbLine
 10
-418.41103
 20
522.591818
 30
0.0
 11
-392.61103
 21
522.591818
 31
0.0
  0
ARC
  5
479
330
1F
100
AcDbEntity
  8
LC-001-100-D00-0
 62
     7
370
    50
100
AcDbCircle
 10
-418.41103
 20
526.591818
 30
0.0
 40
4.000000000000227
100
AcDbArc
 50
180.0
 51
270.0
  0
LINE
  5
47A
330
1F
100
AcDbEntity
  8
LC-001-100-D00-0
 62
     7
370
    50
100
AcDbLine
 10
-422.411036
 20
528.450942
 30
0.0
 11
-422.41103
 21
526.591818
 31
0.0
  0
LINE
  5
47B
330
1F
100
AcDbEntity
  8
LC-001-100-D00-0
 62
     7
370
    50
100
AcDbLine
 10
-420.41103
 20
526.591818
 30
0.0
 11
-420.411032
 21
528.37795
 31
0.0
  0
ARC
  5
47C
330
1F
100
AcDbEntity
  8
LC-001-100-D00-0
 62
     7
370
    50
100
AcDbCircle
 10
-418.41103
 20
526.591818
 30
0.0
 40
2.000000000000114
100
AcDbArc
 50
180.0
 51
270.0
  0
LINE
  5
47D
330
1F
100
AcDbEntity
  8
LC-001-100-D00-0
 62
     7
370
    50
100
AcDbLine
 10
-392.61103
 20
524.591818
 30
0.0
 11
-418.41103
 21
524.591818
 31
0.0
  0
ARC
  5
47E
330
1F
100
AcDbEntity
  8
LC-001-100-D00-0
 62
     7
370
    50
100
AcDbCircle
 10
-392.61103
 20
526.591818
 30
0.0
 40
2.000000000000227
100
AcDbArc
 50
270.0
 51
0.0
  0
LINE
  5
47F
330
1F
100
AcDbEntity
  8
LC-001-100-D00-0
 62
     7
370
    50
100
AcDbLine
 10
-390.611034
 20
527.290359
 30
0.0
 11
-390.61103
 21
526.591818
 31
0.0
  0
LINE
  5
480
330
1F
100
AcDbEntity
  8
LC-001-100-D00-0
 62
     7
370
    50
100
AcDbLine
 10
-403.675299
 20
426.691823
 30
0.0
 11
-414.35295
 21
426.691823
 31
0.0
  0
LINE
  5
481
330
1F
100
AcDbEntity
  8
LC-001-100-D00-0
 62
     7
370
    50
100
AcDbLine
 10
-403.675299
 20
426.691823
 30
0.0
 11
-396.643128
 21
426.691823
 31
0.0
  0
LINE
  5
482
330
1F
100
AcDbEntity
  8
LC-001-100-D00-0
 62
     7
370
    50
100
AcDbLine
 10
-414.811312
 20
418.691818
 30
0.0
 11
-415.01103
 21
418.691818
 31
0.0
  0
LINE
  5
483
330
1F
100
AcDbEntity
  8
LC-001-100-D00-0
 62
     7
370
    50
100
AcDbLine
 10
-396.01103
 20
418.691818
 30
0.0
 11
-414.811312
 21
418.691818
 31
0.0
  0
LINE
  5
484
330
1F
100
AcDbEntity
  8
LC-001-100-D00-0
 62
     7
370
    50
100
AcDbLine
 10
-3.675293
 20
426.691823
 30
0.0
 11
-14.352959
 21
426.691823
 31
0.0
  0
LINE
  5
485
330
1F
100
AcDbEntity
  8
LC-001-100-D00-0
 62
     7
370
    50
100
AcDbLine
 10
-3.675293
 20
426.691823
 30
0.0
 11
3.356863
 21
426.691823
 31
0.0
  0
LINE
  5
486
330
1F
100
AcDbEntity
  8
LC-001-100-D00-0
 62
     7
370
    50
100
AcDbLine
 10
-14.811312
 20
418.691818
 30
0.0
 11
-15.01103
 21
418.691818
 31
0.0
  0
LINE
  5
487
330
1F
100
AcDbEntity
  8
LC-001-100-D00-0
 62
     7
370
    50
100
AcDbLine
 10
3.98897
 20
418.691818
 30
0.0
 11
-14.811312
 21
418.691818
 31
0.0
  0
LINE
  5
488
330
1F
100
AcDbEntity
  8
LC-001-100-D00-0
 62
     7
370
    50
100
AcDbLine
 10
-2.624278
 20
524.691818
 30
0.0
 11
-8.397781
 21
524.691818
 31
0.0
  0
LINE
  5
489
330
1F
100
AcDbEntity
  8
LC-001-100-D00-0
 62
     7
370
    50
100
AcDbLine
 10
-8.397781
 20
524.691818
 30
0.0
 11
-14.459959
 21
524.691818
 31
0.0
  0
LINE
  5
48A
330
1F
100
AcDbEntity
  8
LC-001-100-D00-0
 62
     7
370
    50
100
AcDbLine
 10
3.437899
 20
524.691818
 30
0.0
 11
-2.624278
 21
524.691818
 31
0.0
  0
LINE
  5
48B
330
1F
100
AcDbEntity
  8
LC-001-100-D00-0
 62
     7
370
    50
100
AcDbLine
 10
6.324651
 20
524.691818
 30
0.0
 11
3.437899
 21
524.691818
 31
0.0
  0
LINE
  5
48C
330
1F
100
AcDbEntity
  8
LC-001-100-D00-0
 62
     7
370
    50
100
AcDbLine
 10
-14.459959
 20
524.691818
 30
0.0
 11
-17.34671
 21
524.691818
 31
0.0
  0
LINE
  5
48D
330
1F
100
AcDbEntity
  8
LC-001-100-D00-0
 62
     7
370
    50
100
AcDbLine
 10
-17.34671
 20
524.691818
 30
0.0
 11
-18.284532
 21
524.691818
 31
0.0
  0
LINE
  5
48E
330
1F
100
AcDbEntity
  8
LC-001-100-D00-0
 62
     7
370
    50
100
AcDbLine
 10
7.262473
 20
524.691818
 30
0.0
 11
6.324651
 21
524.691818
 31
0.0
  0
LINE
  5
48F
330
1F
100
AcDbEntity
  8
LC-001-100-D00-0
 62
     7
370
    50
100
AcDbLine
 10
-396.51103
 20
520.691818
 30
0.0
 11
-402.624275
 21
520.69182
 31
0.0
  0
LINE
  5
490
330
1F
100
AcDbEntity
  8
LC-001-100-D00-0
 62
     7
370
    50
100
AcDbLine
 10
-408.397775
 20
520.69182
 30
0.0
 11
-414.51103
 21
520.691818
 31
0.0
  0
LINE
  5
491
330
1F
100
AcDbEntity
  8
LC-001-100-D00-0
 62
     7
370
    50
100
AcDbLine
 10
-402.624278
 20
495.691818
 30
0.0
 11
-408.397781
 21
495.691818
 31
0.0
  0
LINE
  5
492
330
1F
100
AcDbEntity
  8
LC-001-100-D00-0
 62
     7
370
    50
100
AcDbLine
 10
-408.397781
 20
495.691818
 30
0.0
 11
-414.459959
 21
495.691818
 31
0.0
  0
LINE
  5
493
330
1F
100
AcDbEntity
  8
LC-001-100-D00-0
 62
     7
370
    50
100
AcDbLine
 10
-391.72221
 20
522.691818
 30
0.0
 11
-390.51103
 21
522.691818
 31
0.0
  0
LINE
  5
494
330
1F
100
AcDbEntity
  8
LC-001-100-D00-0
 62
     7
370
    50
100
AcDbLine
 10
-390.51103
 20
522.691818
 30
0.0
 11
-390.51103
 21
520.691818
 31
0.0
  0
LINE
  5
495
330
1F
100
AcDbEntity
  8
LC-001-100-D00-0
 62
     7
370
    50
100
AcDbLine
 10
-390.51103
 20
520.691818
 30
0.0
 11
-396.51103
 21
520.691818
 31
0.0
  0
LINE
  5
496
330
1F
100
AcDbEntity
  8
LC-001-100-D00-0
 62
     7
370
    50
100
AcDbLine
 10
-396.562101
 20
495.691818
 30
0.0
 11
-402.624278
 21
495.691818
 31
0.0
  0
LINE
  5
497
330
1F
100
AcDbEntity
  8
LC-001-100-D00-0
 62
     7
370
    50
100
AcDbLine
 10
-420.51103
 20
520.691818
 30
0.0
 11
-420.51103
 21
522.691818
 31
0.0
  0
LINE
  5
498
330
1F
100
AcDbEntity
  8
LC-001-100-D00-0
 62
     7
370
    50
100
AcDbLine
 10
-414.51103
 20
520.691818
 30
0.0
 11
-420.51103
 21
520.691818
 31
0.0
  0
LINE
  5
499
330
1F
100
AcDbEntity
  8
LC-001-100-D00-0
 62
     7
370
    50
100
AcDbLine
 10
-420.51103
 20
522.691818
 30
0.0
 11
-419.299849
 21
522.691818
 31
0.0
  0
LINE
  5
49A
330
1F
100
AcDbEntity
  8
LC-001-100-D00-0
 62
     7
370
    50
100
AcDbLine
 10
-393.675349
 20
495.691818
 30
0.0
 11
-396.562101
 21
495.691818
 31
0.0
  0
LINE
  5
49B
330
1F
100
AcDbEntity
  8
LC-001-100-D00-0
 62
     7
370
    50
100
AcDbLine
 10
-414.459959
 20
495.691818
 30
0.0
 11
-417.34671
 21
495.691818
 31
0.0
  0
LINE
  5
49C
330
1F
100
AcDbEntity
  8
LC-001-100-D00-0
 62
     7
370
    50
100
AcDbLine
 10
-417.34671
 20
495.691818
 30
0.0
 11
-418.284532
 21
495.691818
 31
0.0
  0
LINE
  5
49D
330
1F
100
AcDbEntity
  8
LC-001-100-D00-0
 62
     7
370
    50
100
AcDbLine
 10
-392.737527
 20
495.691818
 30
0.0
 11
-393.675349
 21
495.691818
 31
0.0
  0
LINE
  5
49E
330
1F
100
AcDbEntity
  8
LC-001-100-D00-0
 62
     7
370
    50
100
AcDbLine
 10
-402.624278
 20
524.691818
 30
0.0
 11
-408.397781
 21
524.691818
 31
0.0
  0
LINE
  5
49F
330
1F
100
AcDbEntity
  8
LC-001-100-D00-0
 62
     7
370
    50
100
AcDbLine
 10
-408.397781
 20
524.691818
 30
0.0
 11
-414.459959
 21
524.691818
 31
0.0
  0
LINE
  5
4A0
330
1F
100
AcDbEntity
  8
LC-001-100-D00-0
 62
     7
370
    50
100
AcDbLine
 10
-396.562101
 20
524.691818
 30
0.0
 11
-402.624278
 21
524.691818
 31
0.0
  0
LINE
  5
4A1
330
1F
100
AcDbEntity
  8
LC-001-100-D00-0
 62
     7
370
    50
100
AcDbLine
 10
-393.675349
 20
524.691818
 30
0.0
 11
-396.562101
 21
524.691818
 31
0.0
  0
LINE
  5
4A2
330
1F
100
AcDbEntity
  8
LC-001-100-D00-0
 62
     7
370
    50
100
AcDbLine
 10
-414.459959
 20
524.691818
 30
0.0
 11
-417.34671
 21
524.691818
 31
0.0
  0
LINE
  5
4A3
330
1F
100
AcDbEntity
  8
LC-001-100-D00-0
 62
     7
370
    50
100
AcDbLine
 10
-417.34671
 20
524.691818
 30
0.0
 11
-418.284532
 21
524.691818
 31
0.0
  0
LINE
  5
4A4
330
1F
100
AcDbEntity
  8
LC-001-100-D00-0
 62
     7
370
    50
100
AcDbLine
 10
-392.737527
 20
524.691818
 30
0.0
 11
-393.675349
 21
524.691818
 31
0.0
  0
LINE
  5
4A5
330
1F
100
AcDbEntity
  8
LC-001-100-D00-0
 62
     7
370
    50
100
AcDbLine
 10
3.48897
 20
520.691818
 30
0.0
 11
-2.624284
 21
520.69182
 31
0.0
  0
LINE
  5
4A6
330
1F
100
AcDbEntity
  8
LC-001-100-D00-0
 62
     7
370
    50
100
AcDbLine
 10
-8.397784
 20
520.69182
 30
0.0
 11
-14.51103
 21
520.691818
 31
0.0
  0
LINE
  5
4A7
330
1F
100
AcDbEntity
  8
LC-001-100-D00-0
 62
     7
370
    50
100
AcDbLine
 10
9.48897
 20
522.691818
 30
0.0
 11
9.48897
 21
520.691818
 31
0.0
  0
LINE
  5
4A8
330
1F
100
AcDbEntity
  8
LC-001-100-D00-0
 62
     7
370
    50
100
AcDbLine
 10
9.48897
 20
520.691818
 30
0.0
 11
3.48897
 21
520.691818
 31
0.0
  0
LINE
  5
4A9
330
1F
100
AcDbEntity
  8
LC-001-100-D00-0
 62
     7
370
    50
100
AcDbLine
 10
8.27779
 20
522.691818
 30
0.0
 11
9.48897
 21
522.691818
 31
0.0
  0
LINE
  5
4AA
330
1F
100
AcDbEntity
  8
LC-001-100-D00-0
 62
     7
370
    50
100
AcDbLine
 10
-20.51103
 20
520.691818
 30
0.0
 11
-20.51103
 21
522.691818
 31
0.0
  0
LINE
  5
4AB
330
1F
100
AcDbEntity
  8
LC-001-100-D00-0
 62
     7
370
    50
100
AcDbLine
 10
-14.51103
 20
520.691818
 30
0.0
 11
-20.51103
 21
520.691818
 31
0.0
  0
LINE
  5
4AC
330
1F
100
AcDbEntity
  8
LC-001-100-D00-0
 62
     7
370
    50
100
AcDbLine
 10
-20.51103
 20
522.691818
 30
0.0
 11
-19.299849
 21
522.691818
 31
0.0
  0
LINE
  5
4AD
330
1F
100
AcDbEntity
  8
LC-001-100-D00-0
 62
     7
370
    50
100
AcDbLine
 10
6.324651
 20
495.691818
 30
0.0
 11
3.988762
 21
495.691817
 31
0.0
  0
LINE
  5
4AE
330
1F
100
AcDbEntity
  8
LC-001-100-D00-0
 62
     7
370
    50
100
AcDbLine
 10
7.262473
 20
495.691818
 30
0.0
 11
6.324651
 21
495.691818
 31
0.0
  0
LINE
  5
4AF
330
1F
100
AcDbEntity
  8
LC-001-100-D00-0
 62
     7
370
    50
100
AcDbLine
 10
-15.51103
 20
441.691818
 30
0.0
 11
4.48897
 21
441.691818
 31
0.0
  0
LINE
  5
4B0
330
1F
100
AcDbEntity
  8
LC-001-100-D00-0
 62
     7
370
    50
100
AcDbLine
 10
-15.51103
 20
438.191818
 30
0.0
 11
4.48897
 21
438.191818
 31
0.0
  0
LINE
  5
4B1
330
1F
100
AcDbEntity
  8
LC-001-100-D00-0
 62
     7
370
    50
100
AcDbLine
 10
-15.3008
 20
427.691818
 30
0.0
 11
4.48897
 21
427.691818
 31
0.0
  0
LINE
  5
4B2
330
1F
100
AcDbEntity
  8
LC-001-100-D00-0
 62
     7
370
    50
100
AcDbLine
 10
-15.51103
 20
427.691818
 30
0.0
 11
-15.3008
 21
427.691818
 31
0.0
  0
LINE
  5
4B3
330
1F
100
AcDbEntity
  8
LC-001-100-D00-0
 62
     7
370
    50
100
AcDbLine
 10
-14.321823
 20
426.691818
 30
0.0
 11
-14.51103
 21
426.691818
 31
0.0
  0
LINE
  5
4B4
330
1F
100
AcDbEntity
  8
LC-001-100-D00-0
 62
     7
370
    50
100
AcDbLine
 10
3.48897
 20
426.691818
 30
0.0
 11
-14.321823
 21
426.691818
 31
0.0
  0
LINE
  5
4B5
330
1F
100
AcDbEntity
  8
LC-001-100-D00-0
 62
     7
370
    50
100
AcDbLine
 10
-415.51103
 20
441.691818
 30
0.0
 11
-395.51103
 21
441.691818
 31
0.0
  0
LINE
  5
4B6
330
1F
100
AcDbEntity
  8
LC-001-100-D00-0
 62
     7
370
    50
100
AcDbLine
 10
-415.51103
 20
438.191818
 30
0.0
 11
-395.51103
 21
438.191818
 31
0.0
  0
LINE
  5
4B7
330
1F
100
AcDbEntity
  8
LC-001-100-D00-0
 62
     7
370
    50
100
AcDbLine
 10
-415.3008
 20
427.691818
 30
0.0
 11
-395.51103
 21
427.691818
 31
0.0
  0
LINE
  5
4B8
330
1F
100
AcDbEntity
  8
LC-001-100-D00-0
 62
     7
370
    50
100
AcDbLine
 10
-415.51103
 20
427.691818
 30
0.0
 11
-415.3008
 21
427.691818
 31
0.0
  0
LINE
  5
4B9
330
1F
100
AcDbEntity
  8
LC-001-100-D00-0
 62
     7
370
    50
100
AcDbLine
 10
-414.321823
 20
426.691818
 30
0.0
 11
-414.51103
 21
426.691818
 31
0.0
  0
LINE
  5
4BA
330
1F
100
AcDbEntity
  8
LC-001-100-D00-0
 62
     7
370
    50
100
AcDbLine
 10
-396.51103
 20
426.691818
 30
0.0
 11
-414.321823
 21
426.691818
 31
0.0
  0
DIMENSION
  5
4BB
330
1F
100
AcDbEntity
  8
LC-001-100-D00-0
 62
     7
370
    25
100
AcDbDimension
  2
*D24
 10
-555.51103
 20
680.385253
 30
0.0
 11
-200.728769
 21
735.385253
 31
0.0
 70
   160
  1
700
 71
     5
 42
700.0
  3
LC-DIM-L-0100-02-02
100
AcDbAlignedDimension
 13
144.48897
 23
553.191818
 33
0.0
 14
-555.51103
 24
553.191818
 34
0.0
100
AcDbRotatedDimension
  0
DIMENSION
  5
4C8
330
1F
100
AcDbEntity
  8
LC-001-100-D00-0
 62
     7
370
    25
100
AcDbDimension
  2
*D25
 10
94.48897
 20
592.850528
 30
0.0
 11
-210.009892
 21
647.850528
 31
0.0
 70
   160
  1
600
 71
     5
 42
600.0
  3
LC-DIM-L-0100-02-02
100
AcDbAlignedDimension
 13
-505.51103
 23
550.191818
 33
0.0
 14
94.48897
 24
550.191818
 34
0.0
100
AcDbRotatedDimension
  0
DIMENSION
  5
4D5
330
1F
100
AcDbEntity
  8
LC-001-100-D00-0
 62
     7
370
    25
100
AcDbDimension
  2
*D26
 10
-131.51103
 20
356.772029
 30
0.0
 11
-219.291015
 21
411.772029
 31
0.0
 70
   160
  1
148
 71
     5
 42
148.0
  3
LC-DIM-L-0100-02-02
100
AcDbAlignedDimension
 13
-279.51103
 23
462.191818
 33
0.0
 14
-131.51103
 24
502.441818
 34
0.0
100
AcDbRotatedDimension
  0
DIMENSION
  5
4E2
330
1F
100
AcDbEntity
  8
LC-001-100-D00-0
 62
     7
370
    25
100
AcDbDimension
  2
*D27
 10
3.988767
 20
269.237304
 30
0.0
 11
-141.948325
 21
324.237304
 31
0.0
 70
   160
  1
284
 71
     5
 42
283.499797
  3
LC-DIM-L-0100-02-02
100
AcDbAlignedDimension
 13
-279.51103
 23
462.191818
 33
0.0
 14
3.988767
 24
451.629641
 34
0.0
100
AcDbRotatedDimension
  0
DIMENSION
  5
4EF
330
1F
100
AcDbEntity
  8
LC-001-100-D00-0
 62
     7
370
    25
100
AcDbDimension
  2
*D28
 10
-347.67988
 20
511.691818
 30
0.0
 11
-402.67988
 21
377.992568
 31
0.0
 70
   160
  1
50
 71
     5
 42
50.4
 53
90.0
  3
LC-DIM-L-0100-02-02
100
AcDbAlignedDimension
 13
-234.51103
 23
461.291818
 33
0.0
 14
-238.439394
 24
511.691818
 34
0.0
 50
90.0
100
AcDbRotatedDimension
  0
DIMENSION
  5
4FD
330
1F
100
AcDbEntity
  8
LC-001-100-D00-0
 62
     7
370
    25
100
AcDbDimension
  2
*D29
 10
110.401024
 20
450.691818
 30
0.0
 11
55.401024
 21
475.50513
 31
0.0
 70
   160
  1
DN50
 71
     5
 42
50.0
 53
90.0
  3
LC-DIM-L-0100-02-02
100
AcDbAlignedDimension
 13
0.488767
 23
500.691818
 33
0.0
 14
0.488767
 24
450.691818
 34
0.0
 50
90.0
100
AcDbRotatedDimension
  0
DIMENSION
  5
50C
330
1F
100
AcDbEntity
  8
LC-001-100-D00-0
 62
     7
370
    25
100
AcDbDimension
  2
*D30
 10
218.468611
 20
475.691818
 30
0.0
 11
163.468611
 21
352.351083
 31
0.0
 70
   160
  1
77,5
 71
     5
 42
77.5
 53
90.0
  3
LC-DIM-L-0100-02-02
100
AcDbAlignedDimension
 13
144.48897
 23
553.191818
 33
0.0
 14
10.488767
 24
475.691818
 34
0.0
 50
90.0
100
AcDbRotatedDimension
  0
DIMENSION
  5
51A
330
1F
100
AcDbEntity
  8
LC-001-100-D00-0
 62
     7
370
    25
100
AcDbDimension
  2
*D31
 10
-585.391073
 20
443.191818
 30
0.0
 11
-640.391073
 21
458.745818
 31
0.0
 70
   160
  1
110
 71
     5
 42
110.0
 53
90.0
  3
LC-DIM-L-0100-02-02
100
AcDbAlignedDimension
 13
-555.51103
 23
553.191818
 33
0.0
 14
-259.52891
 24
443.191818
 34
0.0
 50
90.0
100
AcDbRotatedDimension
  0
DIMENSION
  5
529
330
1F
100
AcDbEntity
  8
LC-001-100-D00-0
 62
     7
370
    25
100
AcDbDimension
  2
*D32
 10
346.378098
 20
418.691818
 30
0.0
 11
291.378098
 21
280.545818
 31
0.0
 70
   160
  1
110-129,5
 71
     5
 42
134.5
 53
90.0
  3
LC-DIM-L-0100-02-02
100
AcDbAlignedDimension
 13
144.48897
 23
553.191818
 33
0.0
 14
-8.01103
 24
418.691818
 34
0.0
 50
90.0
100
AcDbRotatedDimension
  0
LINE
  5
537
330
1F
100
AcDbEntity
  8
LC-001-100-D00-0
 62
     7
370
    50
100
AcDbLine
 10
-472.11103
 20
535.833994
 30
0.0
 11
-470.31103
 21
537.633994
 31
0.0
  0
INSERT
  5
53D
330
1F
100
AcDbEntity
  8
LC-001-100-D00-0
 62
     7
370
    50
100
AcDbBlockReference
  2
KLON23
 10
0.0
 20
0.0
 30
0.0
  0
LINE
  5
53E
330
1F
100
AcDbEntity
  8
LC-001-100-D00-0
 62
     7
370
    25
100
AcDbLine
 10
-485.26103
 20
545.134634
 30
0.0
 11
-479.41103
 21
550.984634
 31
0.0
  0
LINE
  5
53F
330
1F
100
AcDbEntity
  8
LC-001-100-D00-0
 62
     7
370
    50
100
AcDbLine
 10
-310.915939
 20
539.874608
 30
0.0
 11
-309.254879
 21
541.535668
 31
0.0
  0
LINE
  5
540
330
1F
100
AcDbEntity
  8
LC-001-100-D00-0
 62
     7
370
    25
100
AcDbLine
 10
-301.61103
 20
549.179518
 30
0.0
 11
-297.59873
 21
553.191818
 31
0.0
  0
INSERT
  5
546
330
1F
100
AcDbEntity
  8
LC-001-100-D00-0
 62
     7
370
    25
100
AcDbBlockReference
  2
KLON24
 10
0.0
 20
0.0
 30
0.0
  0
LINE
  5
547
330
1F
100
AcDbEntity
  8
LC-001-100-D00-0
 62
     7
370
    50
100
AcDbLine
 10
67.88897
 20
537.018646
 30
0.0
 11
69.68897
 21
538.818646
 31
0.0
  0
INSERT
  5
54D
330
1F
100
AcDbEntity
  8
LC-001-100-D00-0
 62
     7
370
    25
100
AcDbBlockReference
  2
KLON25
 10
0.0
 20
0.0
 30
0.0
  0
LINE
  5
54E
330
1F
100
AcDbEntity
  8
LC-001-100-D00-0
 62
     7
370
    25
100
AcDbLine
 10
54.73897
 20
546.319286
 30
0.0
 11
60.58897
 21
552.169287
 31
0.0
  0
LINE
  5
54F
330
1F
100
AcDbEntity
  8
LC-001-100-D00-0
 62
     7
370
    50
100
AcDbLine
 10
-110.71103
 20
538.023762
 30
0.0
 11
-108.91103
 21
539.823762
 31
0.0
  0
LINE
  5
550
330
1F
100
AcDbEntity
  8
LC-001-100-D00-0
 62
     7
370
    25
100
AcDbLine
 10
-101.61103
 20
547.123763
 30
0.0
 11
-95.542974
 21
553.191818
 31
0.0
  0
INSERT
  5
556
330
1F
100
AcDbEntity
  8
LC-001-100-D00-0
 62
     7
370
    25
100
AcDbBlockReference
  2
KLON26
 10
0.0
 20
0.0
 30
0.0
  0
LINE
  5
557
330
1F
100
AcDbEntity
  8
LC-001-100-D00-0
 62
     7
370
    50
100
AcDbLine
 10
-148.76103
 20
522.4244
 30
0.0
 11
-144.993612
 21
526.191818
 31
0.0
  0
LINE
  5
558
330
1F
100
AcDbEntity
  8
LC-001-100-D00-0
 62
     7
370
    25
100
AcDbLine
 10
-279.51103
 20
503.927596
 30
0.0
 11
-276.51103
 21
506.927597
 31
0.0
  0
LINE
  5
559
330
1F
100
AcDbEntity
  8
LC-001-100-D00-0
 62
     7
370
    25
100
AcDbLine
 10
-134.51103
 20
514.22376
 30
0.0
 11
-131.51103
 21
517.223761
 31
0.0
  0
INSERT
  5
567
330
1F
100
AcDbEntity
  8
LC-001-100-D00-0
 62
     7
370
    25
100
AcDbBlockReference
  2
KLON27
 10
0.0
 20
0.0
 30
0.0
  0
INSERT
  5
56D
330
1F
100
AcDbEntity
  8
LC-001-100-D00-0
 62
     7
370
    25
100
AcDbBlockReference
  2
KLON28
 10
0.0
 20
0.0
 30
0.0
  0
LINE
  5
56E
330
1F
100
AcDbEntity
  8
LC-001-100-D00-0
 62
     7
370
    50
100
AcDbLine
 10
-260.859284
 20
522.579344
 30
0.0
 11
-258.398555
 21
525.040073
 31
0.0
  0
INSERT
  5
575
330
1F
100
AcDbEntity
  8
LC-001-100-D00-0
 62
     7
370
    25
100
AcDbBlockReference
  2
KLON29
 10
0.0
 20
0.0
 30
0.0
  0
INSERT
  5
57C
330
1F
100
AcDbEntity
  8
LC-001-100-D00-0
 62
     7
370
    25
100
AcDbBlockReference
  2
KLON30
 10
0.0
 20
0.0
 30
0.0
  0
INSERT
  5
584
330
1F
100
AcDbEntity
  8
LC-001-100-D00-0
 62
     7
370
    25
100
AcDbBlockReference
  2
KLON31
 10
0.0
 20
0.0
 30
0.0
  0
INSERT
  5
58B
330
1F
100
AcDbEntity
  8
LC-001-100-D00-0
 62
     7
370
    25
100
AcDbBlockReference
  2
KLON32
 10
0.0
 20
0.0
 30
0.0
  0
INSERT
  5
59A
330
1F
100
AcDbEntity
  8
LC-001-100-D00-0
 62
     7
370
    25
100
AcDbBlockReference
  2
KLON33
 10
0.0
 20
0.0
 30
0.0
  0
INSERT
  5
5AF
330
1F
100
AcDbEntity
  8
LC-001-100-D00-0
 62
     7
370
    25
100
AcDbBlockReference
  2
KLON34
 10
0.0
 20
0.0
 30
0.0
  0
INSERT
  5
5C3
330
1F
100
AcDbEntity
  8
LC-001-100-D00-0
 62
     7
370
    25
100
AcDbBlockReference
  2
KLON35
 10
0.0
 20
0.0
 30
0.0
  0
LINE
  5
5C4
330
1F
100
AcDbEntity
  8
LC-001-100-D00-0
  6
DASHDOT
 62
     7
370
    25
100
AcDbLine
 10
-5.51103
 20
431.691818
 30
0.0
 11
-5.51103
 21
555.691818
 31
0.0
  0
LINE
  5
5C5
330
1F
100
AcDbEntity
  8
LC-001-100-D00-0
  6
DASHDOT
 62
     7
370
    25
100
AcDbLine
 10
-92.536248
 20
475.691818
 30
0.0
 11
10.488767
 21
475.691818
 31
0.0
  0
LINE
  5
5C6
330
1F
100
AcDbEntity
  8
LC-001-100-D00-0
  6
DASHDOT
 62
     7
370
    25
100
AcDbLine
 10
64.48897
 20
559.191818
 30
0.0
 11
64.48897
 21
525.191818
 31
0.0
  0
LINE
  5
5C7
330
1F
100
AcDbEntity
  8
LC-001-100-D00-0
  6
DASHDOT
 62
     7
370
    25
100
AcDbLine
 10
-105.51103
 20
559.191818
 30
0.0
 11
-105.51103
 21
525.191818
 31
0.0
  0
LINE
  5
5C8
330
1F
100
AcDbEntity
  8
LC-001-100-D00-0
  6
DASHDOT
 62
     7
370
    25
100
AcDbLine
 10
-205.51103
 20
512.441818
 30
0.0
 11
-205.51103
 21
442.691818
 31
0.0
  0
LINE
  5
5C9
330
1F
100
AcDbEntity
  8
LC-001-100-D00-0
  6
DASHDOT
 62
     7
370
    25
100
AcDbLine
 10
-405.51103
 20
529.691818
 30
0.0
 11
-405.51103
 21
431.691818
 31
0.0
  0
LINE
  5
5CA
330
1F
100
AcDbEntity
  8
LC-001-100-D00-0
  6
DASHDOT
 62
     7
370
    25
100
AcDbLine
 10
-475.51103
 20
559.191818
 30
0.0
 11
-475.51103
 21
525.191818
 31
0.0
  0
LINE
  5
5CB
330
1F
100
AcDbEntity
  8
LC-001-100-D00-0
  6
DASHDOT
 62
     7
370
    25
100
AcDbLine
 10
-305.51103
 20
559.191818
 30
0.0
 11
-305.51103
 21
525.191818
 31
0.0
  0
ENDSEC
  0
SECTION
  2
OBJECTS
  0
DICTIONARY
  5
C
330
0
100
AcDbDictionary
281
     1
  3
ACAD_GROUP
350
D
  3
ACAD_LAYOUT
350
1A
  3
ACAD_MLINESTYLE
350
17
  3
ACAD_PLOTSETTINGS
350
19
  3
ACAD_PLOTSTYLENAME
350
E
  0
DICTIONARY
  5
D
102
{ACAD_REACTORS
330
C
102
}
330
C
100
AcDbDictionary
281
     1
  0
DICTIONARY
  5
1A
102
{ACAD_REACTORS
330
C
102
}
330
C
100
AcDbDictionary
281
     1
  3
Layout1
350
1E
  3
Layout2
350
26
  3
Model
350
22
  0
DICTIONARY
  5
17
102
{ACAD_REACTORS
330
C
102
}
330
C
100
AcDbDictionary
281
     1
  3
Standard
350
18
  0
DICTIONARY
  5
19
102
{ACAD_REACTORS
330
C
102
}
330
C
100
AcDbDictionary
281
     1
  0
ACDBDICTIONARYWDFLT
  5
E
102
{ACAD_REACTORS
330
C
102
}
330
C
100
AcDbDictionary
281
     1
  3
Normal
350
F
100
AcDbDictionaryWithDefault
340
F
  0
LAYOUT
  5
1E
102
{ACAD_REACTORS
330
1A
102
}
330
1A
100
AcDbPlotSettings
  1

  2

  4

  6

 40
0.0
 41
0.0
 42
0.0
 43
0.0
 44
0.0
 45
0.0
 46
0.0
 47
0.0
 48
0.0
 49
0.0
140
0.0
141
0.0
142
1.0
143
1.0
 70
   688
 72
     0
 73
     0
 74
     5
  7

 75
    16
147
1.0
148
0.0
149
0.0
100
AcDbLayout
  1
Layout1
 70
     1
 71
     1
 10
-839.393981
 20
-603.029182
 11
1260.606019
 21
881.970818
 12
0.0
 22
0.0
 32
0.0
 14
-839.393981
 24
-603.029182
 34
0.0
 15
1260.606019
 25
881.970818
 35
0.0
146
0.0
 13
0.0
 23
0.0
 33
0.0
 16
1.0
 26
0.0
 36
0.0
 17
0.0
 27
1.0
 37
0.0
 76
     0
330
1B
  0
LAYOUT
  5
26
102
{ACAD_REACTORS
330
1A
102
}
330
1A
100
AcDbPlotSettings
  1

  2

  4

  6

 40
0.0
 41
0.0
 42
0.0
 43
0.0
 44
0.0
 45
0.0
 46
0.0
 47
0.0
 48
0.0
 49
0.0
140
0.0
141
0.0
142
1.0
143
1.0
 70
   688
 72
     0
 73
     0
 74
     5
  7

 75
    16
147
1.0
148
0.0
149
0.0
100
AcDbLayout
  1
Layout2
 70
     1
 71
     2
 10
0.0
 20
0.0
 11
0.0
 21
0.0
 12
0.0
 22
0.0
 32
0.0
 14
0.0
 24
0.0
 34
0.0
 15
0.0
 25
0.0
 35
0.0
146
0.0
 13
0.0
 23
0.0
 33
0.0
 16
1.0
 26
0.0
 36
0.0
 17
0.0
 27
1.0
 37
0.0
 76
     0
330
23
  0
LAYOUT
  5
22
102
{ACAD_REACTORS
330
1A
102
}
330
1A
100
AcDbPlotSettings
  1

  2

  4

  6

 40
0.0
 41
0.0
 42
0.0
 43
0.0
 44
0.0
 45
0.0
 46
0.0
 47
0.0
 48
0.0
 49
0.0
140
0.0
141
0.0
142
1.0
143
1.0
 70
  1776
 72
     0
 73
     0
 74
     0
  7

 75
     0
147
1.0
148
0.0
149
0.0
100
AcDbLayout
  1
Model
 70
     1
 71
     0
 10
-839.393981
 20
-603.029182
 11
1260.606019
 21
881.970818
 12
0.0
 22
0.0
 32
0.0
 14
-839.393981
 24
-603.029182
 34
0.0
 15
1260.606019
 25
881.970818
 35
0.0
146
0.0
 13
0.0
 23
0.0
 33
0.0
 16
1.0
 26
0.0
 36
0.0
 17
0.0
 27
1.0
 37
0.0
 76
     0
330
1F
  0
MLINESTYLE
  5
18
102
{ACAD_REACTORS
330
17
102
}
330
17
100
AcDbMlineStyle
  2
Standard
 70
     0
  3

 62
   256
 51
90.0
 52
90.0
 71
     2
 49
0.5
 62
   256
  6
BYLAYER
 49
-0.5
 62
   256
  6
BYLAYER
  0
ACDBPLACEHOLDER
  5
F
102
{ACAD_REACTORS
330
E
102
}
330
E
  0
ENDSEC
  0
EOF
