  0
SECTION
  2
HEADER
  9
$ACADVER
  1
AC1015
  9
$ACADMAINTVER
 70
     6
  9
$DWGCODEPAGE
  3
ANSI_1252
  9
$INSBASE
 10
0.0
 20
0.0
 30
0.0
  9
$EXTMIN
 10
-860.676523
 20
-615.076131
 30
0.0
  9
$EXTMAX
 10
1239.323477
 20
869.923869
 30
0.0
  9
$LIMMIN
 10
-860.676523
 20
-615.076131
  9
$LIMMAX
 10
1239.323477
 20
869.923869
  9
$ORTHOMODE
 70
     0
  9
$REGENMODE
 70
     1
  9
$FILLMODE
 70
     1
  9
$QTEXTMODE
 70
     0
  9
$MIRRTEXT
 70
     1
  9
$LTSCALE
 40
5.0
  9
$ATTMODE
 70
     1
  9
$TEXTSIZE
 40
2.5
  9
$TRACEWID
 40
1.0
  9
$TEXTSTYLE
  7
Standard
  9
$CLAYER
  8
0
  9
$CELTYPE
  6
ByLayer
  9
$CECOLOR
 62
     7
  9
$CELTSCALE
 40
1.0
  9
$DISPSILH
 70
     0
  9
$DIMSCALE
 40
5.0
  9
$DIMASZ
 40
3.5
  9
$DIMEXO
 40
0.625
  9
$DIMDLI
 40
3.75
  9
$DIMRND
 40
0.0
  9
$DIMDLE
 40
0.0
  9
$DIMEXE
 40
1.25
  9
$DIMTP
 40
0.0
  9
$DIMTM
 40
0.0
  9
$DIMTXT
 40
3.5
  9
$DIMCEN
 40
2.5
  9
$DIMTSZ
 40
0.0
  9
$DIMTOL
 70
     0
  9
$DIMLIM
 70
     0
  9
$DIMTIH
 70
     0
  9
$DIMTOH
 70
     0
  9
$DIMSE1
 70
     0
  9
$DIMSE2
 70
     0
  9
$DIMTAD
 70
     1
  9
$DIMZIN
 70
     8
  9
$DIMBLK
  1

  9
$DIMASO
 70
     1
  9
$DIMSHO
 70
     1
  9
$DIMPOST
  1

  9
$DIMAPOST
  1

  9
$DIMALT
 70
     0
  9
$DIMALTD
 70
     3
  9
$DIMALTF
 40
0.03937
  9
$DIMLFAC
 40
1.0
  9
$DIMTOFL
 70
     1
  9
$DIMTVP
 40
0.0
  9
$DIMTIX
 70
     0
  9
$DIMSOXD
 70
     0
  9
$DIMSAH
 70
     0
  9
$DIMBLK1
  1

  9
$DIMBLK2
  1

  9
$DIMSTYLE
  2
ISO-25
  9
$DIMCLRD
 70
     0
  9
$DIMCLRE
 70
     0
  9
$DIMCLRT
 70
     0
  9
$DIMTFAC
 40
1.0
  9
$DIMGAP
 40
0.625
  9
$DIMJUST
 70
     0
  9
$DIMSD1
 70
     0
  9
$DIMSD2
 70
     0
  9
$DIMTOLJ
 70
     0
  9
$DIMTZIN
 70
     8
  9
$DIMALTZ
 70
     0
  9
$DIMALTTZ
 70
     0
  9
$DIMUPT
 70
     0
  9
$DIMDEC
 70
     2
  9
$DIMTDEC
 70
     2
  9
$DIMALTU
 70
     2
  9
$DIMALTTD
 70
     3
  9
$DIMTXSTY
  7
Standard
  9
$DIMAUNIT
 70
     0
  9
$DIMADEC
 70
     0
  9
$DIMALTRND
 40
0.0
  9
$DIMAZIN
 70
     0
  9
$DIMDSEP
 70
    44
  9
$DIMATFIT
 70
     3
  9
$DIMFRAC
 70
     0
  9
$DIMLDRBLK
  1

  9
$DIMLUNIT
 70
     2
  9
$DIMLWD
 70
    -2
  9
$DIMLWE
 70
    -2
  9
$DIMTMOVE
 70
     0
  9
$LUNITS
 70
     2
  9
$LUPREC
 70
     4
  9
$SKETCHINC
 40
1.0
  9
$FILLETRAD
 40
10.0
  9
$AUNITS
 70
     0
  9
$AUPREC
 70
     0
  9
$MENU
  1
.
  9
$ELEVATION
 40
0.0
  9
$PELEVATION
 40
0.0
  9
$THICKNESS
 40
0.0
  9
$LIMCHECK
 70
     0
  9
$CHAMFERA
 40
10.0
  9
$CHAMFERB
 40
10.0
  9
$CHAMFERC
 40
20.0
  9
$CHAMFERD
 40
0.0
  9
$SKPOLY
 70
     0
  9
$TDCREATE
 40
2455421.483629618
  9
$TDUCREATE
 40
2455421.400296285
  9
$TDUPDATE
 40
2455421.48362963
  9
$TDUUPDATE
 40
2455421.400296297
  9
$TDINDWG
 40
0.0000000116
  9
$TDUSRTIMER
 40
0.0000000116
  9
$USRTIMER
 70
     1
  9
$ANGBASE
 50
0.0
  9
$ANGDIR
 70
     0
  9
$PDMODE
 70
     0
  9
$PDSIZE
 40
0.0
  9
$PLINEWID
 40
0.0
  9
$SPLFRAME
 70
     0
  9
$SPLINETYPE
 70
     6
  9
$SPLINESEGS
 70
     8
  9
$HANDSEED
  5
6FF
  9
$SURFTAB1
 70
     6
  9
$SURFTAB2
 70
     6
  9
$SURFTYPE
 70
     6
  9
$SURFU
 70
     6
  9
$SURFV
 70
     6
  9
$UCSBASE
  2

  9
$UCSNAME
  2

  9
$UCSORG
 10
0.0
 20
0.0
 30
0.0
  9
$UCSXDIR
 10
1.0
 20
0.0
 30
0.0
  9
$UCSYDIR
 10
0.0
 20
1.0
 30
0.0
  9
$UCSORTHOREF
  2

  9
$UCSORTHOVIEW
 70
     0
  9
$UCSORGTOP
 10
0.0
 20
0.0
 30
0.0
  9
$UCSORGBOTTOM
 10
0.0
 20
0.0
 30
0.0
  9
$UCSORGLEFT
 10
0.0
 20
0.0
 30
0.0
  9
$UCSORGRIGHT
 10
0.0
 20
0.0
 30
0.0
  9
$UCSORGFRONT
 10
0.0
 20
0.0
 30
0.0
  9
$UCSORGBACK
 10
0.0
 20
0.0
 30
0.0
  9
$PUCSBASE
  2

  9
$PUCSNAME
  2

  9
$PUCSORG
 10
0.0
 20
0.0
 30
0.0
  9
$PUCSXDIR
 10
1.0
 20
0.0
 30
0.0
  9
$PUCSYDIR
 10
0.0
 20
1.0
 30
0.0
  9
$PUCSORTHOREF
  2

  9
$PUCSORTHOVIEW
 70
     0
  9
$PUCSORGTOP
 10
0.0
 20
0.0
 30
0.0
  9
$PUCSORGBOTTOM
 10
0.0
 20
0.0
 30
0.0
  9
$PUCSORGLEFT
 10
0.0
 20
0.0
 30
0.0
  9
$PUCSORGRIGHT
 10
0.0
 20
0.0
 30
0.0
  9
$PUCSORGFRONT
 10
0.0
 20
0.0
 30
0.0
  9
$PUCSORGBACK
 10
0.0
 20
0.0
 30
0.0
  9
$USERI1
 70
     0
  9
$USERI2
 70
     0
  9
$USERI3
 70
     0
  9
$USERI4
 70
     0
  9
$USERI5
 70
     0
  9
$USERR1
 40
0.0
  9
$USERR2
 40
0.0
  9
$USERR3
 40
0.0
  9
$USERR4
 40
0.0
  9
$USERR5
 40
0.0
  9
$WORLDVIEW
 70
     1
  9
$SHADEDGE
 70
     3
  9
$SHADEDIF
 70
    70
  9
$TILEMODE
 70
     1
  9
$MAXACTVP
 70
    64
  9
$PINSBASE
 10
0.0
 20
0.0
 30
0.0
  9
$PLIMCHECK
 70
     0
  9
$PEXTMIN
 10
-860.676523
 20
-615.076131
 30
0.0
  9
$PEXTMAX
 10
1239.323477
 20
869.923869
 30
0.0
  9
$PLIMMIN
 10
-860.676523
 20
-615.076131
  9
$PLIMMAX
 10
1239.323477
 20
869.923869
  9
$UNITMODE
 70
     0
  9
$VISRETAIN
 70
     1
  9
$PLINEGEN
 70
     0
  9
$PSLTSCALE
 70
     1
  9
$TREEDEPTH
 70
  3020
  9
$CMLSTYLE
  2
Standard
  9
$CMLJUST
 70
     0
  9
$CMLSCALE
 40
20.0
  9
$PROXYGRAPHICS
 70
     1
  9
$MEASUREMENT
 70
     1
  9
$CELWEIGHT
370
    -1
  9
$ENDCAPS
280
     0
  9
$JOINSTYLE
280
     0
  9
$LWDISPLAY
290
     0
  9
$INSUNITS
 70
     4
  9
$HYPERLINKBASE
  1

  9
$STYLESHEET
  1

  9
$XEDIT
290
     1
  9
$CEPSNTYPE
380
     0
  9
$PSTYLEMODE
290
     1
  9
$FINGERPRINTGUID
  2
{FAEB1C30-E019-11D5-929B-00C0DF256EC4}
  9
$VERSIONGUID
  2
{FAEB1C32-E019-11D5-929B-00C0DF256EC4}
  9
$EXTNAMES
290
     1
  9
$PSVPSCALE
 40
0.0
  9
$OLESTARTUP
290
     0
  0
ENDSEC
  0
SECTION
  2
CLASSES
  0
CLASS
  1
ACDBDICTIONARYWDFLT
  2
AcDbDictionaryWithDefault
  3
ObjectDBX Classes
 90
        0
280
     0
281
     0
  0
CLASS
  1
ACDBPLACEHOLDER
  2
AcDbPlaceHolder
  3
ObjectDBX Classes
 90
        0
280
     0
281
     0
  0
CLASS
  1
LAYOUT
  2
AcDbLayout
  3
ObjectDBX Classes
 90
        0
280
     0
281
     0
  0
ENDSEC
  0
SECTION
  2
TABLES
  0
TABLE
  2
VPORT
  5
8
330
0
100
AcDbSymbolTable
 70
     2
  0
VPORT
  5
29
330
8
100
AcDbSymbolTableRecord
100
AcDbViewportTableRecord
  2
*ACTIVE
 70
     0
 10
0.0
 20
0.0
 11
1.0
 21
1.0
 12
189.323477
 22
127.423869
 13
0.0
 23
0.0
 14
1.0
 24
1.0
 15
0.0
 25
0.0
 16
0.0
 26
0.0
 36
1.0
 17
0.0
 27
0.0
 37
0.0
 40
1485.0
 41
1.414141
 42
50.0
 43
0.0
 44
0.0
 50
0.0
 51
0.0
 71
    16
 72
   100
 73
     1
 74
     0
 75
     0
 76
     0
 77
     0
 78
     0
281
     0
 65
     0
110
0.0
120
0.0
130
0.0
111
1.0
121
0.0
131
0.0
112
0.0
122
1.0
132
0.0
 79
     0
146
0.0
  0
ENDTAB
  0
TABLE
  2
LTYPE
  5
5
330
0
100
AcDbSymbolTable
 70
     3
  0
LTYPE
  5
14
330
5
100
AcDbSymbolTableRecord
100
AcDbLinetypeTableRecord
  2
ByBlock
 70
     0
  3

 72
    65
 73
     0
 40
0.0
  0
LTYPE
  5
15
330
5
100
AcDbSymbolTableRecord
100
AcDbLinetypeTableRecord
  2
ByLayer
 70
     0
  3

 72
    65
 73
     0
 40
0.0
  0
LTYPE
  5
16
330
5
100
AcDbSymbolTableRecord
100
AcDbLinetypeTableRecord
  2
Continuous
 70
     0
  3
Solid line
 72
    65
 73
     0
 40
0.0
  0
LTYPE
  5
2A
330
5
100
AcDbSymbolTableRecord
100
AcDbLinetypeTableRecord
  2
DASHED
 70
     0
  3
__ __ __ __ __
 72
    65
 73
     2
 40
6.25
 49
5.0
 74
     4
 75
     0
340
0
 46
1.0
 50
0.0
 44
0.0
 45
0.0
 49
-1.25
 74
     4
 75
     0
340
0
 46
1.0
 50
0.0
 44
0.0
 45
0.0
  0
LTYPE
  5
E5
330
5
100
AcDbSymbolTableRecord
100
AcDbLinetypeTableRecord
  2
DASHDOT
 70
     0
  3
__ . __ . __ . __ . __
 72
    65
 73
     4
 40
7.5
 49
5.0
 74
     4
 75
     0
340
0
 46
1.0
 50
0.0
 44
0.0
 45
0.0
 49
-1.25
 74
     4
 75
     0
340
0
 46
1.0
 50
0.0
 44
0.0
 45
0.0
 49
0.0
 74
     4
 75
     0
340
0
 46
1.0
 50
0.0
 44
0.0
 45
0.0
 49
-1.25
 74
     4
 75
     0
340
0
 46
1.0
 50
0.0
 44
0.0
 45
0.0
  0
ENDTAB
  0
TABLE
  2
LAYER
  5
2
330
0
100
AcDbSymbolTable
 70
     7
  0
LAYER
  5
10
330
2
100
AcDbSymbolTableRecord
100
AcDbLayerTableRecord
  2
0
 70
     0
 62
     7
  6
Continuous
370
    -3
390
F
  0
LAYER
  5
2B
330
2
100
AcDbSymbolTableRecord
100
AcDbLayerTableRecord
  2
LC-INFO-1-5-mm-A3-0
 70
     1
 62
     7
  6
ByBlock
370
    -3
390
F
  0
LAYER
  5
2C
330
2
100
AcDbSymbolTableRecord
100
AcDbLayerTableRecord
  2
LC-CUT-HIDDEN
 70
     0
 62
     7
  6
DASHED
370
    -3
390
F
  0
LAYER
  5
2D
330
2
100
AcDbSymbolTableRecord
100
AcDbLayerTableRecord
  2
LC-VIEWPORT
 70
     0
 62
     7
  6
ByBlock
370
    -3
390
F
  0
LAYER
  5
2E
330
2
100
AcDbSymbolTableRecord
100
AcDbLayerTableRecord
  2
LC-3D-HIDDEN
 70
     0
 62
     9
  6
DASHED
370
    -3
390
F
  0
LAYER
  5
30
330
2
100
AcDbSymbolTableRecord
100
AcDbLayerTableRecord
  2
LC-001-100-D00-0
 70
     0
 62
     1
  6
ByBlock
370
    -3
390
F
  0
LAYER
  5
D7
330
2
100
AcDbSymbolTableRecord
100
AcDbLayerTableRecord
  2
Defpoints
 70
     0
 62
     7
  6
Continuous
290
     0
370
    -3
390
F
  0
ENDTAB
  0
TABLE
  2
STYLE
  5
3
330
0
100
AcDbSymbolTable
 70
     3
  0
STYLE
  5
11
330
3
100
AcDbSymbolTableRecord
100
AcDbTextStyleTableRecord
  2
Standard
 70
     0
 40
0.0
 41
1.0
 50
0.0
 71
     0
 42
2.5
  3
txt
  4

  0
STYLE
  5
2F
330
3
100
AcDbSymbolTableRecord
100
AcDbTextStyleTableRecord
  2
LCTX15-400-0-0-Arial
 70
     0
 40
0.0
 41
0.8
 50
0.0
 71
     0
 42
3.5
  3

  4

1001
ACAD
1000
Arial
1071
 16777218
  0
STYLE
  5
D4
330
3
100
AcDbSymbolTableRecord
100
AcDbTextStyleTableRecord
  2
LCTX15-400-0-0pDIN-Schrift
 70
     0
 40
2.5
 41
0.8
 50
15.0
 71
     0
 42
3.5
  3
STANDARD
  4

  0
ENDTAB
  0
TABLE
  2
VIEW
  5
6
330
0
100
AcDbSymbolTable
 70
     0
  0
ENDTAB
  0
TABLE
  2
UCS
  5
7
330
0
100
AcDbSymbolTable
 70
     0
  0
ENDTAB
  0
TABLE
  2
APPID
  5
9
330
0
100
AcDbSymbolTable
 70
     1
  0
APPID
  5
12
330
9
100
AcDbSymbolTableRecord
100
AcDbRegAppTableRecord
  2
ACAD
 70
     0
  0
ENDTAB
  0
TABLE
  2
DIMSTYLE
  5
A
330
0
100
AcDbSymbolTable
 70
     2
100
AcDbDimStyleTable
  0
DIMSTYLE
105
27
330
A
100
AcDbSymbolTableRecord
100
AcDbDimStyleTableRecord
  2
ISO-25
 70
     0
 41
2.5
 42
0.625
 43
3.75
 44
1.25
 73
     0
 74
     0
 77
     1
 78
     8
140
2.5
141
2.5
143
0.03937
147
0.625
171
     3
172
     1
271
     2
272
     2
274
     3
278
    44
283
     0
284
     8
340
11
  0
DIMSTYLE
105
D5
102
{ACAD_REACTORS
330
D6
330
21D
330
22B
330
239
330
5DC
330
5EB
330
5F8
330
606
330
613
330
620
330
62E
330
63C
102
}
330
A
100
AcDbSymbolTableRecord
100
AcDbDimStyleTableRecord
  2
LC-DIM-L-0100-02-02
 70
     0
 40
5.0
 41
10.0
 42
0.0
 43
7.5
 44
1.8
 73
     0
 74
     0
 77
     1
 78
     8
 79
     2
140
10.0
141
0.0
146
0.71
147
1.5
176
     2
177
     2
178
     2
179
     2
271
     2
278
    44
289
     1
340
D4
  0
ENDTAB
  0
TABLE
  2
BLOCK_RECORD
  5
1
330
0
100
AcDbSymbolTable
 70
    53
  0
BLOCK_RECORD
  5
1F
330
1
100
AcDbSymbolTableRecord
100
AcDbBlockTableRecord
  2
*Model_Space
340
22
  0
BLOCK_RECORD
  5
1B
330
1
100
AcDbSymbolTableRecord
100
AcDbBlockTableRecord
  2
*Paper_Space
340
1E
  0
BLOCK_RECORD
  5
23
330
1
100
AcDbSymbolTableRecord
100
AcDbBlockTableRecord
  2
*Paper_Space0
340
26
  0
BLOCK_RECORD
  5
D8
330
1
100
AcDbSymbolTableRecord
100
AcDbBlockTableRecord
  2
*D1
340
0
  0
BLOCK_RECORD
  5
106
330
1
100
AcDbSymbolTableRecord
100
AcDbBlockTableRecord
  2
KLON1
340
0
102
{BLKREFS
331
10C
102
}
  0
BLOCK_RECORD
  5
10D
330
1
100
AcDbSymbolTableRecord
100
AcDbBlockTableRecord
  2
KLON2
340
0
102
{BLKREFS
331
114
102
}
  0
BLOCK_RECORD
  5
116
330
1
100
AcDbSymbolTableRecord
100
AcDbBlockTableRecord
  2
KLON3
340
0
102
{BLKREFS
331
11B
102
}
  0
BLOCK_RECORD
  5
11C
330
1
100
AcDbSymbolTableRecord
100
AcDbBlockTableRecord
  2
KLON4
340
0
102
{BLKREFS
331
121
102
}
  0
BLOCK_RECORD
  5
122
330
1
100
AcDbSymbolTableRecord
100
AcDbBlockTableRecord
  2
KLON5
340
0
102
{BLKREFS
331
127
102
}
  0
BLOCK_RECORD
  5
128
330
1
100
AcDbSymbolTableRecord
100
AcDbBlockTableRecord
  2
KLON6
340
0
102
{BLKREFS
331
12D
102
}
  0
BLOCK_RECORD
  5
12F
330
1
100
AcDbSymbolTableRecord
100
AcDbBlockTableRecord
  2
KLON7
340
0
102
{BLKREFS
331
136
102
}
  0
BLOCK_RECORD
  5
137
330
1
100
AcDbSymbolTableRecord
100
AcDbBlockTableRecord
  2
KLON8
340
0
102
{BLKREFS
331
13D
102
}
  0
BLOCK_RECORD
  5
14C
330
1
100
AcDbSymbolTableRecord
100
AcDbBlockTableRecord
  2
KLON9
340
0
102
{BLKREFS
331
151
102
}
  0
BLOCK_RECORD
  5
152
330
1
100
AcDbSymbolTableRecord
100
AcDbBlockTableRecord
  2
KLON10
340
0
102
{BLKREFS
331
157
102
}
  0
BLOCK_RECORD
  5
159
330
1
100
AcDbSymbolTableRecord
100
AcDbBlockTableRecord
  2
KLON11
340
0
102
{BLKREFS
331
15F
102
}
  0
BLOCK_RECORD
  5
160
330
1
100
AcDbSymbolTableRecord
100
AcDbBlockTableRecord
  2
KLON12
340
0
102
{BLKREFS
331
165
102
}
  0
BLOCK_RECORD
  5
166
330
1
100
AcDbSymbolTableRecord
100
AcDbBlockTableRecord
  2
KLON13
340
0
102
{BLKREFS
331
16C
102
}
  0
BLOCK_RECORD
  5
16D
330
1
100
AcDbSymbolTableRecord
100
AcDbBlockTableRecord
  2
KLON14
340
0
102
{BLKREFS
331
173
102
}
  0
BLOCK_RECORD
  5
174
330
1
100
AcDbSymbolTableRecord
100
AcDbBlockTableRecord
  2
KLON15
340
0
102
{BLKREFS
331
17A
102
}
  0
BLOCK_RECORD
  5
17B
330
1
100
AcDbSymbolTableRecord
100
AcDbBlockTableRecord
  2
KLON16
340
0
102
{BLKREFS
331
180
102
}
  0
BLOCK_RECORD
  5
21E
330
1
100
AcDbSymbolTableRecord
100
AcDbBlockTableRecord
  2
*D18
340
0
  0
BLOCK_RECORD
  5
22C
330
1
100
AcDbSymbolTableRecord
100
AcDbBlockTableRecord
  2
*D19
340
0
  0
BLOCK_RECORD
  5
23A
330
1
100
AcDbSymbolTableRecord
100
AcDbBlockTableRecord
  2
*D20
340
0
  0
BLOCK_RECORD
  5
427
330
1
100
AcDbSymbolTableRecord
100
AcDbBlockTableRecord
  2
KLON17
340
0
102
{BLKREFS
331
437
102
}
  0
BLOCK_RECORD
  5
438
330
1
100
AcDbSymbolTableRecord
100
AcDbBlockTableRecord
  2
KLON18
340
0
102
{BLKREFS
331
44B
102
}
  0
BLOCK_RECORD
  5
44F
330
1
100
AcDbSymbolTableRecord
100
AcDbBlockTableRecord
  2
KLON19
340
0
102
{BLKREFS
331
454
102
}
  0
BLOCK_RECORD
  5
57D
330
1
100
AcDbSymbolTableRecord
100
AcDbBlockTableRecord
  2
KLON20
340
0
102
{BLKREFS
331
586
102
}
  0
BLOCK_RECORD
  5
587
330
1
100
AcDbSymbolTableRecord
100
AcDbBlockTableRecord
  2
KLON21
340
0
102
{BLKREFS
331
590
102
}
  0
BLOCK_RECORD
  5
5A9
330
1
100
AcDbSymbolTableRecord
100
AcDbBlockTableRecord
  2
KLON22
340
0
102
{BLKREFS
331
5B1
102
}
  0
BLOCK_RECORD
  5
5B2
330
1
100
AcDbSymbolTableRecord
100
AcDbBlockTableRecord
  2
KLON23
340
0
102
{BLKREFS
331
5BE
102
}
  0
BLOCK_RECORD
  5
5BF
330
1
100
AcDbSymbolTableRecord
100
AcDbBlockTableRecord
  2
KLON24
340
0
102
{BLKREFS
331
5CB
102
}
  0
BLOCK_RECORD
  5
5DD
330
1
100
AcDbSymbolTableRecord
100
AcDbBlockTableRecord
  2
*D29
340
0
  0
BLOCK_RECORD
  5
5EC
330
1
100
AcDbSymbolTableRecord
100
AcDbBlockTableRecord
  2
*D30
340
0
  0
BLOCK_RECORD
  5
5F9
330
1
100
AcDbSymbolTableRecord
100
AcDbBlockTableRecord
  2
*D31
340
0
  0
BLOCK_RECORD
  5
607
330
1
100
AcDbSymbolTableRecord
100
AcDbBlockTableRecord
  2
*D32
340
0
  0
BLOCK_RECORD
  5
614
330
1
100
AcDbSymbolTableRecord
100
AcDbBlockTableRecord
  2
*D33
340
0
  0
BLOCK_RECORD
  5
621
330
1
100
AcDbSymbolTableRecord
100
AcDbBlockTableRecord
  2
*D34
340
0
  0
BLOCK_RECORD
  5
62F
330
1
100
AcDbSymbolTableRecord
100
AcDbBlockTableRecord
  2
*D35
340
0
  0
BLOCK_RECORD
  5
63D
330
1
100
AcDbSymbolTableRecord
100
AcDbBlockTableRecord
  2
*D36
340
0
  0
BLOCK_RECORD
  5
64B
330
1
100
AcDbSymbolTableRecord
100
AcDbBlockTableRecord
  2
KLON25
340
0
102
{BLKREFS
331
657
102
}
  0
BLOCK_RECORD
  5
658
330
1
100
AcDbSymbolTableRecord
100
AcDbBlockTableRecord
  2
KLON26
340
0
102
{BLKREFS
331
65F
102
}
  0
BLOCK_RECORD
  5
660
330
1
100
AcDbSymbolTableRecord
100
AcDbBlockTableRecord
  2
KLON27
340
0
102
{BLKREFS
331
667
102
}
  0
BLOCK_RECORD
  5
668
330
1
100
AcDbSymbolTableRecord
100
AcDbBlockTableRecord
  2
KLON28
340
0
102
{BLKREFS
331
680
102
}
  0
BLOCK_RECORD
  5
681
330
1
100
AcDbSymbolTableRecord
100
AcDbBlockTableRecord
  2
KLON29
340
0
102
{BLKREFS
331
69A
102
}
  0
BLOCK_RECORD
  5
69B
330
1
100
AcDbSymbolTableRecord
100
AcDbBlockTableRecord
  2
KLON30
340
0
102
{BLKREFS
331
6A1
102
}
  0
BLOCK_RECORD
  5
6A2
330
1
100
AcDbSymbolTableRecord
100
AcDbBlockTableRecord
  2
KLON31
340
0
102
{BLKREFS
331
6A8
102
}
  0
BLOCK_RECORD
  5
6A9
330
1
100
AcDbSymbolTableRecord
100
AcDbBlockTableRecord
  2
KLON32
340
0
102
{BLKREFS
331
6B7
102
}
  0
BLOCK_RECORD
  5
6B8
330
1
100
AcDbSymbolTableRecord
100
AcDbBlockTableRecord
  2
KLON33
340
0
102
{BLKREFS
331
6BE
102
}
  0
BLOCK_RECORD
  5
6C0
330
1
100
AcDbSymbolTableRecord
100
AcDbBlockTableRecord
  2
KLON34
340
0
102
{BLKREFS
331
6C5
102
}
  0
BLOCK_RECORD
  5
6C8
330
1
100
AcDbSymbolTableRecord
100
AcDbBlockTableRecord
  2
KLON35
340
0
102
{BLKREFS
331
6CD
102
}
  0
BLOCK_RECORD
  5
6D0
330
1
100
AcDbSymbolTableRecord
100
AcDbBlockTableRecord
  2
KLON36
340
0
102
{BLKREFS
331
6D5
102
}
  0
BLOCK_RECORD
  5
6D8
330
1
100
AcDbSymbolTableRecord
100
AcDbBlockTableRecord
  2
KLON37
340
0
102
{BLKREFS
331
6DD
102
}
  0
BLOCK_RECORD
  5
6E0
330
1
100
AcDbSymbolTableRecord
100
AcDbBlockTableRecord
  2
KLON38
340
0
102
{BLKREFS
331
6E5
102
}
  0
BLOCK_RECORD
  5
6E8
330
1
100
AcDbSymbolTableRecord
100
AcDbBlockTableRecord
  2
KLON39
340
0
102
{BLKREFS
331
6ED
102
}
  0
BLOCK_RECORD
  5
6F0
330
1
100
AcDbSymbolTableRecord
100
AcDbBlockTableRecord
  2
KLON40
340
0
102
{BLKREFS
331
6F5
102
}
  0
ENDTAB
  0
ENDSEC
  0
SECTION
  2
BLOCKS
  0
BLOCK
  5
20
330
1F
100
AcDbEntity
  8
0
100
AcDbBlockBegin
  2
*Model_Space
 70
     0
 71
     0
 10
0.0
 20
0.0
 30
0.0
  3
*Model_Space
  1

  0
ENDBLK
  5
21
330
1F
100
AcDbEntity
  8
0
100
AcDbBlockEnd
  0
BLOCK
  5
1C
330
1B
100
AcDbEntity
 67
     1
  8
0
100
AcDbBlockBegin
  2
*Paper_Space
 70
     0
 71
     0
 10
0.0
 20
0.0
 30
0.0
  3
*Paper_Space
  1

  0
ENDBLK
  5
1D
330
1B
100
AcDbEntity
 67
     1
  8
0
100
AcDbBlockEnd
  0
BLOCK
  5
24
330
23
100
AcDbEntity
  8
0
100
AcDbBlockBegin
  2
*Paper_Space0
 70
     0
 71
     0
 10
0.0
 20
0.0
 30
0.0
  3
*Paper_Space0
  1

  0
ENDBLK
  5
25
330
23
100
AcDbEntity
  8
0
100
AcDbBlockEnd
  0
BLOCK
  5
E3
330
D8
100
AcDbEntity
  8
0
100
AcDbBlockBegin
  2
*D1
 70
     1
 71
     0
 10
0.0
 20
0.0
 30
0.0
  3
*D1
  1

  0
LINE
  5
D9
330
D8
100
AcDbEntity
  8
LC-001-100-D00-0
 62
     2
370
    -2
100
AcDbLine
 10
462.419327
 20
216.57866
 30
0.0
 11
462.419327
 21
124.363869
 31
0.0
  0
LINE
  5
DA
330
D8
100
AcDbEntity
  8
LC-001-100-D00-0
 62
     2
370
    -2
100
AcDbLine
 10
543.419327
 20
216.57866
 30
0.0
 11
543.419327
 21
124.363869
 31
0.0
  0
LINE
  5
DB
330
D8
100
AcDbEntity
  8
LC-001-100-D00-0
 62
     2
370
    -2
100
AcDbLine
 10
412.419327
 20
133.363869
 30
0.0
 11
362.419327
 21
133.363869
 31
0.0
  0
LINE
  5
DC
330
D8
100
AcDbEntity
  8
LC-001-100-D00-0
 62
     2
370
    -2
100
AcDbLine
 10
593.419327
 20
133.363869
 30
0.0
 11
676.582454
 21
133.363869
 31
0.0
  0
SOLID
  5
DD
330
D8
100
AcDbEntity
  8
LC-001-100-D00-0
 62
     2
100
AcDbTrace
 10
412.419327
 20
125.030536
 30
0.0
 11
412.419327
 21
141.697203
 31
0.0
 12
462.419327
 22
133.363869
 32
0.0
 13
462.419327
 23
133.363869
 33
0.0
  0
SOLID
  5
DE
330
D8
100
AcDbEntity
  8
LC-001-100-D00-0
 62
     2
100
AcDbTrace
 10
593.419327
 20
141.697203
 30
0.0
 11
593.419327
 21
125.030536
 31
0.0
 12
543.419327
 22
133.363869
 32
0.0
 13
543.419327
 23
133.363869
 33
0.0
  0
MTEXT
  5
DF
330
D8
100
AcDbEntity
  8
LC-001-100-D00-0
 62
     2
100
AcDbMText
 10
636.993006
 20
188.363869
 30
0.0
 40
50.0
 41
0.0
 71
     5
 72
     1
  1
\A1;81
  7
LCTX15-400-0-0pDIN-Schrift
 73
     1
 44
1.0
  0
POINT
  5
E0
330
D8
100
AcDbEntity
  8
Defpoints
 62
     0
100
AcDbPoint
 10
462.419327
 20
216.57866
 30
0.0
  0
POINT
  5
E1
330
D8
100
AcDbEntity
  8
Defpoints
 62
     0
100
AcDbPoint
 10
543.419327
 20
216.57866
 30
0.0
  0
POINT
  5
E2
330
D8
100
AcDbEntity
  8
Defpoints
 62
     0
100
AcDbPoint
 10
543.419327
 20
133.363869
 30
0.0
  0
ENDBLK
  5
E4
330
D8
100
AcDbEntity
  8
0
100
AcDbBlockEnd
  0
BLOCK
  5
107
330
106
100
AcDbEntity
  8
0
100
AcDbBlockBegin
  2
KLON1
 70
     0
 71
     0
 10
0.0
 20
0.0
 30
0.0
  3
KLON1
  1

  4
KLON1
  0
LINE
  5
109
330
106
100
AcDbEntity
  8
LC-001-100-D00-0
 62
     7
370
    15
100
AcDbLine
 10
118.254922
 20
-42.106326
 30
0.0
 11
118.252686
 21
-42.120611
 31
0.0
  0
LINE
  5
10A
330
106
100
AcDbEntity
  8
LC-001-100-D00-0
 62
     7
370
    15
100
AcDbLine
 10
118.252686
 20
-42.120611
 30
0.0
 11
118.241391
 21
-42.192919
 31
0.0
  0
LINE
  5
10B
330
106
100
AcDbEntity
  8
LC-001-100-D00-0
 62
     7
370
    15
100
AcDbLine
 10
118.241391
 20
-42.192919
 30
0.0
 11
118.228755
 21
-42.2738
 31
0.0
  0
ENDBLK
  5
108
330
106
100
AcDbEntity
  8
0
100
AcDbBlockEnd
  0
BLOCK
  5
10E
330
10D
100
AcDbEntity
  8
0
100
AcDbBlockBegin
  2
KLON2
 70
     0
 71
     0
 10
0.0
 20
0.0
 30
0.0
  3
KLON2
  1

  4
KLON2
  0
LINE
  5
110
330
10D
100
AcDbEntity
  8
LC-001-100-D00-0
 62
     7
370
    15
100
AcDbLine
 10
118.228755
 20
-17.628462
 30
0.0
 11
118.241391
 21
-17.709343
 31
0.0
  0
LINE
  5
111
330
10D
100
AcDbEntity
  8
LC-001-100-D00-0
 62
     7
370
    15
100
AcDbLine
 10
118.241391
 20
-17.709343
 30
0.0
 11
118.250183
 21
-17.765552
 31
0.0
  0
LINE
  5
112
330
10D
100
AcDbEntity
  8
LC-001-100-D00-0
 62
     7
370
    15
100
AcDbLine
 10
118.250183
 20
-17.765552
 30
0.0
 11
118.252686
 21
-17.78165
 31
0.0
  0
LINE
  5
113
330
10D
100
AcDbEntity
  8
LC-001-100-D00-0
 62
     7
370
    15
100
AcDbLine
 10
118.252686
 20
-17.78165
 30
0.0
 11
118.254922
 21
-17.795936
 31
0.0
  0
ENDBLK
  5
10F
330
10D
100
AcDbEntity
  8
0
100
AcDbBlockEnd
  0
BLOCK
  5
117
330
116
100
AcDbEntity
  8
0
100
AcDbBlockBegin
  2
KLON3
 70
     0
 71
     0
 10
0.0
 20
0.0
 30
0.0
  3
KLON3
  1

  4
KLON3
  0
LINE
  5
119
330
116
100
AcDbEntity
  8
LC-001-100-D00-0
 62
     7
370
    15
100
AcDbLine
 10
118.228755
 20
-6.46577
 30
0.0
 11
118.239305
 21
-6.45986
 31
0.0
  0
LINE
  5
11A
330
116
100
AcDbEntity
  8
LC-001-100-D00-0
 62
     7
370
    15
100
AcDbLine
 10
118.239305
 20
-6.45986
 30
0.0
 11
118.254922
 21
-6.451132
 31
0.0
  0
ENDBLK
  5
118
330
116
100
AcDbEntity
  8
0
100
AcDbBlockEnd
  0
BLOCK
  5
11D
330
11C
100
AcDbEntity
  8
0
100
AcDbBlockBegin
  2
KLON4
 70
     0
 71
     0
 10
0.0
 20
0.0
 30
0.0
  3
KLON4
  1

  4
KLON4
  0
LINE
  5
11F
330
11C
100
AcDbEntity
  8
LC-001-100-D00-0
 62
     7
370
    15
100
AcDbLine
 10
118.228755
 20
-53.45113
 30
0.0
 11
118.236146
 21
-53.489303
 31
0.0
  0
LINE
  5
120
330
11C
100
AcDbEntity
  8
LC-001-100-D00-0
 62
     7
370
    15
100
AcDbLine
 10
118.236146
 20
-53.489303
 30
0.0
 11
118.254922
 21
-53.521788
 31
0.0
  0
ENDBLK
  5
11E
330
11C
100
AcDbEntity
  8
0
100
AcDbBlockEnd
  0
BLOCK
  5
123
330
122
100
AcDbEntity
  8
0
100
AcDbBlockBegin
  2
KLON5
 70
     0
 71
     0
 10
0.0
 20
0.0
 30
0.0
  3
KLON5
  1

  4
KLON5
  0
LINE
  5
125
330
122
100
AcDbEntity
  8
LC-001-100-D00-0
 62
     7
370
    15
100
AcDbLine
 10
-665.718892
 20
-53.45113
 30
0.0
 11
-665.726283
 21
-53.489303
 31
0.0
  0
LINE
  5
126
330
122
100
AcDbEntity
  8
LC-001-100-D00-0
 62
     7
370
    15
100
AcDbLine
 10
-665.726283
 20
-53.489303
 30
0.0
 11
-665.745058
 21
-53.521788
 31
0.0
  0
ENDBLK
  5
124
330
122
100
AcDbEntity
  8
0
100
AcDbBlockEnd
  0
BLOCK
  5
129
330
128
100
AcDbEntity
  8
0
100
AcDbBlockBegin
  2
KLON6
 70
     0
 71
     0
 10
0.0
 20
0.0
 30
0.0
  3
KLON6
  1

  4
KLON6
  0
LINE
  5
12B
330
128
100
AcDbEntity
  8
LC-001-100-D00-0
 62
     7
370
    15
100
AcDbLine
 10
-665.718892
 20
-6.46577
 30
0.0
 11
-665.729442
 21
-6.45986
 31
0.0
  0
LINE
  5
12C
330
128
100
AcDbEntity
  8
LC-001-100-D00-0
 62
     7
370
    15
100
AcDbLine
 10
-665.729442
 20
-6.45986
 30
0.0
 11
-665.745058
 21
-6.451132
 31
0.0
  0
ENDBLK
  5
12A
330
128
100
AcDbEntity
  8
0
100
AcDbBlockEnd
  0
BLOCK
  5
130
330
12F
100
AcDbEntity
  8
0
100
AcDbBlockBegin
  2
KLON7
 70
     0
 71
     0
 10
0.0
 20
0.0
 30
0.0
  3
KLON7
  1

  4
KLON7
  0
LINE
  5
132
330
12F
100
AcDbEntity
  8
LC-001-100-D00-0
 62
     7
370
    15
100
AcDbLine
 10
-665.718892
 20
-17.628462
 30
0.0
 11
-665.731528
 21
-17.709343
 31
0.0
  0
LINE
  5
133
330
12F
100
AcDbEntity
  8
LC-001-100-D00-0
 62
     7
370
    15
100
AcDbLine
 10
-665.731528
 20
-17.709343
 30
0.0
 11
-665.740319
 21
-17.765552
 31
0.0
  0
LINE
  5
134
330
12F
100
AcDbEntity
  8
LC-001-100-D00-0
 62
     7
370
    15
100
AcDbLine
 10
-665.740319
 20
-17.765552
 30
0.0
 11
-665.742823
 21
-17.78165
 31
0.0
  0
LINE
  5
135
330
12F
100
AcDbEntity
  8
LC-001-100-D00-0
 62
     7
370
    15
100
AcDbLine
 10
-665.742823
 20
-17.78165
 30
0.0
 11
-665.745058
 21
-17.795936
 31
0.0
  0
ENDBLK
  5
131
330
12F
100
AcDbEntity
  8
0
100
AcDbBlockEnd
  0
BLOCK
  5
138
330
137
100
AcDbEntity
  8
0
100
AcDbBlockBegin
  2
KLON8
 70
     0
 71
     0
 10
0.0
 20
0.0
 30
0.0
  3
KLON8
  1

  4
KLON8
  0
LINE
  5
13A
330
137
100
AcDbEntity
  8
LC-001-100-D00-0
 62
     7
370
    15
100
AcDbLine
 10
-665.745058
 20
-42.106326
 30
0.0
 11
-665.742823
 21
-42.120611
 31
0.0
  0
LINE
  5
13B
330
137
100
AcDbEntity
  8
LC-001-100-D00-0
 62
     7
370
    15
100
AcDbLine
 10
-665.742823
 20
-42.120611
 30
0.0
 11
-665.731528
 21
-42.192919
 31
0.0
  0
LINE
  5
13C
330
137
100
AcDbEntity
  8
LC-001-100-D00-0
 62
     7
370
    15
100
AcDbLine
 10
-665.731528
 20
-42.192919
 30
0.0
 11
-665.718892
 21
-42.2738
 31
0.0
  0
ENDBLK
  5
139
330
137
100
AcDbEntity
  8
0
100
AcDbBlockEnd
  0
BLOCK
  5
14D
330
14C
100
AcDbEntity
  8
0
100
AcDbBlockBegin
  2
KLON9
 70
     0
 71
     0
 10
0.0
 20
0.0
 30
0.0
  3
KLON9
  1

  4
KLON9
  0
LINE
  5
14F
330
14C
100
AcDbEntity
  8
LC-001-100-D00-0
 62
     7
370
    15
100
AcDbLine
 10
118.200234
 20
-42.28454
 30
0.0
 11
118.216387
 21
-42.278455
 31
0.0
  0
LINE
  5
150
330
14C
100
AcDbEntity
  8
LC-001-100-D00-0
 62
     7
370
    15
100
AcDbLine
 10
118.216387
 20
-42.278455
 30
0.0
 11
118.228755
 21
-42.2738
 31
0.0
  0
ENDBLK
  5
14E
330
14C
100
AcDbEntity
  8
0
100
AcDbBlockEnd
  0
BLOCK
  5
153
330
152
100
AcDbEntity
  8
0
100
AcDbBlockBegin
  2
KLON10
 70
     0
 71
     0
 10
0.0
 20
0.0
 30
0.0
  3
KLON10
  1

  4
KLON10
  0
LINE
  5
155
330
152
100
AcDbEntity
  8
LC-001-100-D00-0
 62
     7
370
    15
100
AcDbLine
 10
-665.690371
 20
-42.28454
 30
0.0
 11
-665.706524
 21
-42.278455
 31
0.0
  0
LINE
  5
156
330
152
100
AcDbEntity
  8
LC-001-100-D00-0
 62
     7
370
    15
100
AcDbLine
 10
-665.706524
 20
-42.278455
 30
0.0
 11
-665.718892
 21
-42.2738
 31
0.0
  0
ENDBLK
  5
154
330
152
100
AcDbEntity
  8
0
100
AcDbBlockEnd
  0
BLOCK
  5
15A
330
159
100
AcDbEntity
  8
0
100
AcDbBlockBegin
  2
KLON11
 70
     0
 71
     0
 10
0.0
 20
0.0
 30
0.0
  3
KLON11
  1

  4
KLON11
  0
LINE
  5
15C
330
159
100
AcDbEntity
  8
LC-001-100-D00-0
 62
     7
370
    15
100
AcDbLine
 10
-18.758126
 20
-35.810348
 30
0.0
 11
-18.746742
 21
-35.396874
 31
0.0
  0
LINE
  5
15D
330
159
100
AcDbEntity
  8
LC-001-100-D00-0
 62
     7
370
    15
100
AcDbLine
 10
-18.746742
 20
-35.396874
 30
0.0
 11
-18.735059
 21
-34.973616
 31
0.0
  0
LINE
  5
15E
330
159
100
AcDbEntity
  8
LC-001-100-D00-0
 62
     7
370
    15
100
AcDbLine
 10
-18.735059
 20
-34.973616
 30
0.0
 11
-18.723258
 21
-34.545437
 31
0.0
  0
ENDBLK
  5
15B
330
159
100
AcDbEntity
  8
0
100
AcDbBlockEnd
  0
BLOCK
  5
161
330
160
100
AcDbEntity
  8
0
100
AcDbBlockBegin
  2
KLON12
 70
     0
 71
     0
 10
0.0
 20
0.0
 30
0.0
  3
KLON12
  1

  4
KLON12
  0
LINE
  5
163
330
160
100
AcDbEntity
  8
LC-001-100-D00-0
 62
     7
370
    15
100
AcDbLine
 10
118.200234
 20
-17.617722
 30
0.0
 11
118.216387
 21
-17.623806
 31
0.0
  0
LINE
  5
164
330
160
100
AcDbEntity
  8
LC-001-100-D00-0
 62
     7
370
    15
100
AcDbLine
 10
118.216387
 20
-17.623806
 30
0.0
 11
118.228755
 21
-17.628462
 31
0.0
  0
ENDBLK
  5
162
330
160
100
AcDbEntity
  8
0
100
AcDbBlockEnd
  0
BLOCK
  5
167
330
166
100
AcDbEntity
  8
0
100
AcDbBlockBegin
  2
KLON13
 70
     0
 71
     0
 10
0.0
 20
0.0
 30
0.0
  3
KLON13
  1

  4
KLON13
  0
LINE
  5
169
330
166
100
AcDbEntity
  8
LC-001-100-D00-0
 62
     7
370
    15
100
AcDbLine
 10
-18.723258
 20
-25.356825
 30
0.0
 11
-18.735059
 21
-24.928646
 31
0.0
  0
LINE
  5
16A
330
166
100
AcDbEntity
  8
LC-001-100-D00-0
 62
     7
370
    15
100
AcDbLine
 10
-18.735059
 20
-24.928646
 30
0.0
 11
-18.746742
 21
-24.505388
 31
0.0
  0
LINE
  5
16B
330
166
100
AcDbEntity
  8
LC-001-100-D00-0
 62
     7
370
    15
100
AcDbLine
 10
-18.746742
 20
-24.505388
 30
0.0
 11
-18.758126
 21
-24.091914
 31
0.0
  0
ENDBLK
  5
168
330
166
100
AcDbEntity
  8
0
100
AcDbBlockEnd
  0
BLOCK
  5
16E
330
16D
100
AcDbEntity
  8
0
100
AcDbBlockBegin
  2
KLON14
 70
     0
 71
     0
 10
0.0
 20
0.0
 30
0.0
  3
KLON14
  1

  4
KLON14
  0
LINE
  5
170
330
16D
100
AcDbEntity
  8
LC-001-100-D00-0
 62
     7
370
    15
100
AcDbLine
 10
-528.73201
 20
-35.810348
 30
0.0
 11
-528.743395
 21
-35.396874
 31
0.0
  0
LINE
  5
171
330
16D
100
AcDbEntity
  8
LC-001-100-D00-0
 62
     7
370
    15
100
AcDbLine
 10
-528.743395
 20
-35.396874
 30
0.0
 11
-528.755077
 21
-34.973616
 31
0.0
  0
LINE
  5
172
330
16D
100
AcDbEntity
  8
LC-001-100-D00-0
 62
     7
370
    15
100
AcDbLine
 10
-528.755077
 20
-34.973616
 30
0.0
 11
-528.766879
 21
-34.545437
 31
0.0
  0
ENDBLK
  5
16F
330
16D
100
AcDbEntity
  8
0
100
AcDbBlockEnd
  0
BLOCK
  5
175
330
174
100
AcDbEntity
  8
0
100
AcDbBlockBegin
  2
KLON15
 70
     0
 71
     0
 10
0.0
 20
0.0
 30
0.0
  3
KLON15
  1

  4
KLON15
  0
LINE
  5
177
330
174
100
AcDbEntity
  8
LC-001-100-D00-0
 62
     7
370
    15
100
AcDbLine
 10
-528.766879
 20
-25.356825
 30
0.0
 11
-528.755077
 21
-24.928646
 31
0.0
  0
LINE
  5
178
330
174
100
AcDbEntity
  8
LC-001-100-D00-0
 62
     7
370
    15
100
AcDbLine
 10
-528.755077
 20
-24.928646
 30
0.0
 11
-528.743395
 21
-24.505388
 31
0.0
  0
LINE
  5
179
330
174
100
AcDbEntity
  8
LC-001-100-D00-0
 62
     7
370
    15
100
AcDbLine
 10
-528.743395
 20
-24.505388
 30
0.0
 11
-528.73201
 21
-24.091914
 31
0.0
  0
ENDBLK
  5
176
330
174
100
AcDbEntity
  8
0
100
AcDbBlockEnd
  0
BLOCK
  5
17C
330
17B
100
AcDbEntity
  8
0
100
AcDbBlockBegin
  2
KLON16
 70
     0
 71
     0
 10
0.0
 20
0.0
 30
0.0
  3
KLON16
  1

  4
KLON16
  0
LINE
  5
17E
330
17B
100
AcDbEntity
  8
LC-001-100-D00-0
 62
     7
370
    15
100
AcDbLine
 10
-665.690371
 20
-17.617722
 30
0.0
 11
-665.706524
 21
-17.623806
 31
0.0
  0
LINE
  5
17F
330
17B
100
AcDbEntity
  8
LC-001-100-D00-0
 62
     7
370
    15
100
AcDbLine
 10
-665.706524
 20
-17.623806
 30
0.0
 11
-665.718892
 21
-17.628462
 31
0.0
  0
ENDBLK
  5
17D
330
17B
100
AcDbEntity
  8
0
100
AcDbBlockEnd
  0
BLOCK
  5
229
330
21E
100
AcDbEntity
  8
0
100
AcDbBlockBegin
  2
*D18
 70
     1
 71
     0
 10
0.0
 20
0.0
 30
0.0
  3
*D18
  1

  0
LINE
  5
21F
330
21E
100
AcDbEntity
  8
LC-001-100-D00-0
 62
     2
370
    -2
100
AcDbLine
 10
171.254932
 20
16.048869
 30
0.0
 11
275.889979
 21
16.048869
 31
0.0
  0
LINE
  5
220
330
21E
100
AcDbEntity
  8
LC-001-100-D00-0
 62
     2
370
    -2
100
AcDbLine
 10
171.254932
 20
14.548869
 30
0.0
 11
275.889979
 21
14.548869
 31
0.0
  0
LINE
  5
221
330
21E
100
AcDbEntity
  8
LC-001-100-D00-0
 62
     2
370
    -2
100
AcDbLine
 10
266.889979
 20
66.048869
 30
0.0
 11
266.889979
 21
116.048869
 31
0.0
  0
LINE
  5
222
330
21E
100
AcDbEntity
  8
LC-001-100-D00-0
 62
     2
370
    -2
100
AcDbLine
 10
266.889979
 20
-35.451131
 30
0.0
 11
266.889979
 21
-81.020813
 31
0.0
  0
SOLID
  5
223
330
21E
100
AcDbEntity
  8
LC-001-100-D00-0
 62
     2
100
AcDbTrace
 10
258.556646
 20
66.048869
 30
0.0
 11
275.223312
 21
66.048869
 31
0.0
 12
266.889979
 22
16.048869
 32
0.0
 13
266.889979
 23
16.048869
 33
0.0
  0
SOLID
  5
224
330
21E
100
AcDbEntity
  8
LC-001-100-D00-0
 62
     2
100
AcDbTrace
 10
275.223312
 20
-35.451131
 30
0.0
 11
258.556646
 21
-35.451131
 31
0.0
 12
266.889979
 22
14.548869
 32
0.0
 13
266.889979
 23
14.548869
 33
0.0
  0
MTEXT
  5
225
330
21E
100
AcDbEntity
  8
LC-001-100-D00-0
 62
     2
100
AcDbMText
 10
211.889979
 20
-34.441131
 30
0.0
 40
50.0
 41
0.0
 71
     5
 72
     1
  1
\A1;1,5
  7
LCTX15-400-0-0pDIN-Schrift
 11
6.123031769111886E-17
 21
1.0
 31
0.0
 73
     1
 44
1.0
  0
POINT
  5
226
330
21E
100
AcDbEntity
  8
Defpoints
 62
     0
100
AcDbPoint
 10
171.254932
 20
16.048869
 30
0.0
  0
POINT
  5
227
330
21E
100
AcDbEntity
  8
Defpoints
 62
     0
100
AcDbPoint
 10
171.254932
 20
14.548869
 30
0.0
  0
POINT
  5
228
330
21E
100
AcDbEntity
  8
Defpoints
 62
     0
100
AcDbPoint
 10
266.889979
 20
14.548869
 30
0.0
  0
ENDBLK
  5
22A
330
21E
100
AcDbEntity
  8
0
100
AcDbBlockEnd
  0
BLOCK
  5
237
330
22C
100
AcDbEntity
  8
0
100
AcDbBlockBegin
  2
*D19
 70
     1
 71
     0
 10
0.0
 20
0.0
 30
0.0
  3
*D19
  1

  0
LINE
  5
22D
330
22C
100
AcDbEntity
  8
LC-001-100-D00-0
 62
     2
370
    -2
100
AcDbLine
 10
171.254932
 20
14.548869
 30
0.0
 11
364.537411
 21
14.548869
 31
0.0
  0
LINE
  5
22E
330
22C
100
AcDbEntity
  8
LC-001-100-D00-0
 62
     2
370
    -2
100
AcDbLine
 10
123.754932
 20
-3.951131
 30
0.0
 11
364.537411
 21
-3.951131
 31
0.0
  0
LINE
  5
22F
330
22C
100
AcDbEntity
  8
LC-001-100-D00-0
 62
     2
370
    -2
100
AcDbLine
 10
355.537411
 20
64.548869
 30
0.0
 11
355.537411
 21
114.548869
 31
0.0
  0
LINE
  5
230
330
22C
100
AcDbEntity
  8
LC-001-100-D00-0
 62
     2
370
    -2
100
AcDbLine
 10
355.537411
 20
-53.951131
 30
0.0
 11
355.537411
 21
-149.073432
 31
0.0
  0
SOLID
  5
231
330
22C
100
AcDbEntity
  8
LC-001-100-D00-0
 62
     2
100
AcDbTrace
 10
347.204077
 20
64.548869
 30
0.0
 11
363.870744
 21
64.548869
 31
0.0
 12
355.537411
 22
14.548869
 32
0.0
 13
355.537411
 23
14.548869
 33
0.0
  0
SOLID
  5
232
330
22C
100
AcDbEntity
  8
LC-001-100-D00-0
 62
     2
100
AcDbTrace
 10
363.870744
 20
-53.951131
 30
0.0
 11
347.204077
 21
-53.951131
 31
0.0
 12
355.537411
 22
-3.951131
 32
0.0
 13
355.537411
 23
-3.951131
 33
0.0
  0
MTEXT
  5
233
330
22C
100
AcDbEntity
  8
LC-001-100-D00-0
 62
     2
100
AcDbMText
 10
300.537411
 20
-83.446131
 30
0.0
 40
50.0
 41
0.0
 71
     5
 72
     1
  1
\A1;18,5
  7
LCTX15-400-0-0pDIN-Schrift
 11
6.123031769111886E-17
 21
1.0
 31
0.0
 73
     1
 44
1.0
  0
POINT
  5
234
330
22C
100
AcDbEntity
  8
Defpoints
 62
     0
100
AcDbPoint
 10
171.254932
 20
14.548869
 30
0.0
  0
POINT
  5
235
330
22C
100
AcDbEntity
  8
Defpoints
 62
     0
100
AcDbPoint
 10
123.754932
 20
-3.951131
 30
0.0
  0
POINT
  5
236
330
22C
100
AcDbEntity
  8
Defpoints
 62
     0
100
AcDbPoint
 10
355.537411
 20
-3.951131
 30
0.0
  0
ENDBLK
  5
238
330
22C
100
AcDbEntity
  8
0
100
AcDbBlockEnd
  0
BLOCK
  5
244
330
23A
100
AcDbEntity
  8
0
100
AcDbBlockBegin
  2
*D20
 70
     1
 71
     0
 10
0.0
 20
0.0
 30
0.0
  3
*D20
  1

  0
LINE
  5
23B
330
23A
100
AcDbEntity
  8
LC-001-100-D00-0
 62
     2
370
    -2
100
AcDbLine
 10
171.254932
 20
16.048869
 30
0.0
 11
431.022984
 21
16.048869
 31
0.0
  0
LINE
  5
23C
330
23A
100
AcDbEntity
  8
LC-001-100-D00-0
 62
     2
370
    -2
100
AcDbLine
 10
171.254932
 20
-107.451131
 30
0.0
 11
431.022984
 21
-107.451131
 31
0.0
  0
LINE
  5
23D
330
23A
100
AcDbEntity
  8
LC-001-100-D00-0
 62
     2
370
    -2
100
AcDbLine
 10
422.022984
 20
-33.951131
 30
0.0
 11
422.022984
 21
-57.451131
 31
0.0
  0
SOLID
  5
23E
330
23A
100
AcDbEntity
  8
LC-001-100-D00-0
 62
     2
100
AcDbTrace
 10
430.356318
 20
-33.951131
 30
0.0
 11
413.689651
 21
-33.951131
 31
0.0
 12
422.022984
 22
16.048869
 32
0.0
 13
422.022984
 23
16.048869
 33
0.0
  0
SOLID
  5
23F
330
23A
100
AcDbEntity
  8
LC-001-100-D00-0
 62
     2
100
AcDbTrace
 10
413.689651
 20
-57.451131
 30
0.0
 11
430.356318
 21
-57.451131
 31
0.0
 12
422.022984
 22
-107.451131
 32
0.0
 13
422.022984
 23
-107.451131
 33
0.0
  0
MTEXT
  5
240
330
23A
100
AcDbEntity
  8
LC-001-100-D00-0
 62
     2
100
AcDbMText
 10
367.022984
 20
-68.596131
 30
0.0
 40
50.0
 41
0.0
 71
     5
 72
     1
  1
\A1;123,5
  7
LCTX15-400-0-0pDIN-Schrift
 11
6.123031769111886E-17
 21
1.0
 31
0.0
 73
     1
 44
1.0
  0
POINT
  5
241
330
23A
100
AcDbEntity
  8
Defpoints
 62
     0
100
AcDbPoint
 10
171.254932
 20
16.048869
 30
0.0
  0
POINT
  5
242
330
23A
100
AcDbEntity
  8
Defpoints
 62
     0
100
AcDbPoint
 10
171.254932
 20
-107.451131
 30
0.0
  0
POINT
  5
243
330
23A
100
AcDbEntity
  8
Defpoints
 62
     0
100
AcDbPoint
 10
422.022984
 20
-107.451131
 30
0.0
  0
ENDBLK
  5
245
330
23A
100
AcDbEntity
  8
0
100
AcDbBlockEnd
  0
BLOCK
  5
428
330
427
100
AcDbEntity
  8
0
100
AcDbBlockBegin
  2
KLON17
 70
     0
 71
     0
 10
0.0
 20
0.0
 30
0.0
  3
KLON17
  1

  4
KLON17
  0
LINE
  5
42A
330
427
100
AcDbEntity
  8
LC-001-100-D00-0
 62
     7
370
    15
100
AcDbLine
 10
-199.745079
 20
207.078661
 30
0.0
 11
-199.747806
 21
207.078691
 31
0.0
  0
LINE
  5
42B
330
427
100
AcDbEntity
  8
LC-001-100-D00-0
 62
     7
370
    15
100
AcDbLine
 10
-199.747806
 20
207.078691
 30
0.0
 11
-199.752388
 21
207.078885
 31
0.0
  0
LINE
  5
42C
330
427
100
AcDbEntity
  8
LC-001-100-D00-0
 62
     7
370
    15
100
AcDbLine
 10
-199.752388
 20
207.078885
 30
0.0
 11
-199.761262
 21
207.079719
 31
0.0
  0
LINE
  5
42D
330
427
100
AcDbEntity
  8
LC-001-100-D00-0
 62
     7
370
    15
100
AcDbLine
 10
-199.761262
 20
207.079719
 30
0.0
 11
-199.763542
 21
207.080025
 31
0.0
  0
LINE
  5
42E
330
427
100
AcDbEntity
  8
LC-001-100-D00-0
 62
     7
370
    15
100
AcDbLine
 10
-199.763542
 20
207.080025
 30
0.0
 11
-199.764115
 21
207.080107
 31
0.0
  0
LINE
  5
42F
330
427
100
AcDbEntity
  8
LC-001-100-D00-0
 62
     7
370
    15
100
AcDbLine
 10
-199.764115
 20
207.080107
 30
0.0
 11
-199.764257
 21
207.080129
 31
0.0
  0
LINE
  5
430
330
427
100
AcDbEntity
  8
LC-001-100-D00-0
 62
     7
370
    15
100
AcDbLine
 10
-199.764257
 20
207.080129
 30
0.0
 11
-199.883436
 21
207.1294
 31
0.0
  0
LINE
  5
431
330
427
100
AcDbEntity
  8
LC-001-100-D00-0
 62
     7
370
    15
100
AcDbLine
 10
-199.883436
 20
207.1294
 30
0.0
 11
-200.724041
 21
207.942295
 31
0.0
  0
LINE
  5
432
330
427
100
AcDbEntity
  8
LC-001-100-D00-0
 62
     7
370
    15
100
AcDbLine
 10
-200.724041
 20
207.942295
 30
0.0
 11
-201.81272
 21
209.267627
 31
0.0
  0
LINE
  5
433
330
427
100
AcDbEntity
  8
LC-001-100-D00-0
 62
     7
370
    15
100
AcDbLine
 10
-201.81272
 20
209.267627
 30
0.0
 11
-203.238582
 21
211.170781
 31
0.0
  0
LINE
  5
434
330
427
100
AcDbEntity
  8
LC-001-100-D00-0
 62
     7
370
    15
100
AcDbLine
 10
-203.238582
 20
211.170781
 30
0.0
 11
-205.290926
 21
214.13644
 31
0.0
  0
LINE
  5
435
330
427
100
AcDbEntity
  8
LC-001-100-D00-0
 62
     7
370
    15
100
AcDbLine
 10
-205.290926
 20
214.13644
 30
0.0
 11
-207.661597
 21
217.777769
 31
0.0
  0
LINE
  5
436
330
427
100
AcDbEntity
  8
LC-001-100-D00-0
 62
     7
370
    15
100
AcDbLine
 10
-207.661597
 20
217.777769
 30
0.0
 11
-207.769787
 21
217.944156
 31
0.0
  0
ENDBLK
  5
429
330
427
100
AcDbEntity
  8
0
100
AcDbBlockEnd
  0
BLOCK
  5
439
330
438
100
AcDbEntity
  8
0
100
AcDbBlockBegin
  2
KLON18
 70
     0
 71
     0
 10
0.0
 20
0.0
 30
0.0
  3
KLON18
  1

  4
KLON18
  0
LINE
  5
43B
330
438
100
AcDbEntity
  8
LC-001-100-D00-0
 62
     7
370
    15
100
AcDbLine
 10
-207.769787
 20
217.944156
 30
0.0
 11
-208.511395
 21
220.322701
 31
0.0
  0
LINE
  5
43C
330
438
100
AcDbEntity
  8
LC-001-100-D00-0
 62
     7
370
    15
100
AcDbLine
 10
-208.511395
 20
220.322701
 30
0.0
 11
-209.146132
 21
222.903128
 31
0.0
  0
LINE
  5
43D
330
438
100
AcDbEntity
  8
LC-001-100-D00-0
 62
     7
370
    15
100
AcDbLine
 10
-209.146132
 20
222.903128
 30
0.0
 11
-209.665341
 21
226.035311
 31
0.0
  0
LINE
  5
43E
330
438
100
AcDbEntity
  8
LC-001-100-D00-0
 62
     7
370
    15
100
AcDbLine
 10
-209.665341
 20
226.035311
 30
0.0
 11
-209.90218
 21
229.372188
 31
0.0
  0
LINE
  5
43F
330
438
100
AcDbEntity
  8
LC-001-100-D00-0
 62
     7
370
    15
100
AcDbLine
 10
-209.90218
 20
229.372188
 30
0.0
 11
-209.811261
 21
232.641957
 31
0.0
  0
LINE
  5
440
330
438
100
AcDbEntity
  8
LC-001-100-D00-0
 62
     7
370
    15
100
AcDbLine
 10
-209.811261
 20
232.641957
 30
0.0
 11
-209.399445
 21
235.933333
 31
0.0
  0
LINE
  5
441
330
438
100
AcDbEntity
  8
LC-001-100-D00-0
 62
     7
370
    15
100
AcDbLine
 10
-209.399445
 20
235.933333
 30
0.0
 11
-208.755551
 21
238.926123
 31
0.0
  0
LINE
  5
442
330
438
100
AcDbEntity
  8
LC-001-100-D00-0
 62
     7
370
    15
100
AcDbLine
 10
-208.755551
 20
238.926123
 30
0.0
 11
-207.916921
 21
241.776049
 31
0.0
  0
LINE
  5
443
330
438
100
AcDbEntity
  8
LC-001-100-D00-0
 62
     7
370
    15
100
AcDbLine
 10
-207.916921
 20
241.776049
 30
0.0
 11
-206.84926
 21
244.687076
 31
0.0
  0
LINE
  5
444
330
438
100
AcDbEntity
  8
LC-001-100-D00-0
 62
     7
370
    15
100
AcDbLine
 10
-206.84926
 20
244.687076
 30
0.0
 11
-205.725385
 21
247.297178
 31
0.0
  0
LINE
  5
445
330
438
100
AcDbEntity
  8
LC-001-100-D00-0
 62
     7
370
    15
100
AcDbLine
 10
-205.725385
 20
247.297178
 30
0.0
 11
-204.576967
 21
249.673891
 31
0.0
  0
LINE
  5
446
330
438
100
AcDbEntity
  8
LC-001-100-D00-0
 62
     7
370
    15
100
AcDbLine
 10
-204.576967
 20
249.673891
 30
0.0
 11
-203.60515
 21
251.528002
 31
0.0
  0
LINE
  5
447
330
438
100
AcDbEntity
  8
LC-001-100-D00-0
 62
     7
370
    15
100
AcDbLine
 10
-203.60515
 20
251.528002
 30
0.0
 11
-203.062912
 21
252.514272
 31
0.0
  0
LINE
  5
448
330
438
100
AcDbEntity
  8
LC-001-100-D00-0
 62
     7
370
    15
100
AcDbLine
 10
-203.062912
 20
252.514272
 30
0.0
 11
-202.776214
 21
253.023799
 31
0.0
  0
LINE
  5
449
330
438
100
AcDbEntity
  8
LC-001-100-D00-0
 62
     7
370
    15
100
AcDbLine
 10
-202.776214
 20
253.023799
 30
0.0
 11
-202.745353
 21
253.078177
 31
0.0
  0
LINE
  5
44A
330
438
100
AcDbEntity
  8
LC-001-100-D00-0
 62
     7
370
    15
100
AcDbLine
 10
-202.745353
 20
253.078177
 30
0.0
 11
-202.745078
 21
253.078661
 31
0.0
  0
ENDBLK
  5
43A
330
438
100
AcDbEntity
  8
0
100
AcDbBlockEnd
  0
BLOCK
  5
450
330
44F
100
AcDbEntity
  8
0
100
AcDbBlockBegin
  2
KLON19
 70
     0
 71
     0
 10
0.0
 20
0.0
 30
0.0
  3
KLON19
  1

  4
KLON19
  0
LINE
  5
452
330
44F
100
AcDbEntity
  8
LC-001-100-D00-0
 62
     7
370
    15
100
AcDbLine
 10
-208.427628
 20
216.578658
 30
0.0
 11
-208.420848
 21
216.592941
 31
0.0
  0
LINE
  5
453
330
44F
100
AcDbEntity
  8
LC-001-100-D00-0
 62
     7
370
    15
100
AcDbLine
 10
-208.420848
 20
216.592941
 30
0.0
 11
-207.769787
 21
217.944156
 31
0.0
  0
ENDBLK
  5
451
330
44F
100
AcDbEntity
  8
0
100
AcDbBlockEnd
  0
BLOCK
  5
57E
330
57D
100
AcDbEntity
  8
0
100
AcDbBlockBegin
  2
KLON20
 70
     0
 71
     0
 10
0.0
 20
0.0
 30
0.0
  3
KLON20
  1

  4
KLON20
  0
LINE
  5
580
330
57D
100
AcDbEntity
  8
LC-001-100-D00-0
 62
     7
370
    15
100
AcDbLine
 10
109.162608
 20
265.246825
 30
0.0
 11
111.718903
 21
265.340121
 31
0.0
  0
LINE
  5
581
330
57D
100
AcDbEntity
  8
LC-001-100-D00-0
 62
     7
370
    15
100
AcDbLine
 10
111.718903
 20
265.340121
 30
0.0
 11
113.8647
 21
265.418434
 31
0.0
  0
LINE
  5
582
330
57D
100
AcDbEntity
  8
LC-001-100-D00-0
 62
     7
370
    15
100
AcDbLine
 10
113.8647
 20
265.418434
 30
0.0
 11
115.594844
 21
265.481578
 31
0.0
  0
LINE
  5
583
330
57D
100
AcDbEntity
  8
LC-001-100-D00-0
 62
     7
370
    15
100
AcDbLine
 10
115.594844
 20
265.481578
 30
0.0
 11
116.905192
 21
265.529399
 31
0.0
  0
LINE
  5
584
330
57D
100
AcDbEntity
  8
LC-001-100-D00-0
 62
     7
370
    15
100
AcDbLine
 10
116.905192
 20
265.529399
 30
0.0
 11
117.792586
 21
265.561787
 31
0.0
  0
LINE
  5
585
330
57D
100
AcDbEntity
  8
LC-001-100-D00-0
 62
     7
370
    15
100
AcDbLine
 10
117.792586
 20
265.561787
 30
0.0
 11
118.25491
 21
265.578661
 31
0.0
  0
ENDBLK
  5
57F
330
57D
100
AcDbEntity
  8
0
100
AcDbBlockEnd
  0
BLOCK
  5
588
330
587
100
AcDbEntity
  8
0
100
AcDbBlockBegin
  2
KLON21
 70
     0
 71
     0
 10
0.0
 20
0.0
 30
0.0
  3
KLON21
  1

  4
KLON21
  0
LINE
  5
58A
330
587
100
AcDbEntity
  8
LC-001-100-D00-0
 62
     7
370
    15
100
AcDbLine
 10
-656.652769
 20
265.246825
 30
0.0
 11
-659.209063
 21
265.340121
 31
0.0
  0
LINE
  5
58B
330
587
100
AcDbEntity
  8
LC-001-100-D00-0
 62
     7
370
    15
100
AcDbLine
 10
-659.209063
 20
265.340121
 30
0.0
 11
-661.35486
 21
265.418434
 31
0.0
  0
LINE
  5
58C
330
587
100
AcDbEntity
  8
LC-001-100-D00-0
 62
     7
370
    15
100
AcDbLine
 10
-661.35486
 20
265.418434
 30
0.0
 11
-663.085004
 21
265.481578
 31
0.0
  0
LINE
  5
58D
330
587
100
AcDbEntity
  8
LC-001-100-D00-0
 62
     7
370
    15
100
AcDbLine
 10
-663.085004
 20
265.481578
 30
0.0
 11
-664.395353
 21
265.529399
 31
0.0
  0
LINE
  5
58E
330
587
100
AcDbEntity
  8
LC-001-100-D00-0
 62
     7
370
    15
100
AcDbLine
 10
-664.395353
 20
265.529399
 30
0.0
 11
-665.282746
 21
265.561787
 31
0.0
  0
LINE
  5
58F
330
587
100
AcDbEntity
  8
LC-001-100-D00-0
 62
     7
370
    15
100
AcDbLine
 10
-665.282746
 20
265.561787
 30
0.0
 11
-665.74507
 21
265.578661
 31
0.0
  0
ENDBLK
  5
589
330
587
100
AcDbEntity
  8
0
100
AcDbBlockEnd
  0
BLOCK
  5
5AA
330
5A9
100
AcDbEntity
  8
0
100
AcDbBlockBegin
  2
KLON22
 70
     0
 71
     0
 10
0.0
 20
0.0
 30
0.0
  3
KLON22
  1

  4
KLON22
  0
LINE
  5
5AC
330
5A9
100
AcDbEntity
  8
LC-001-100-D00-0
 62
     7
370
    15
100
AcDbLine
 10
-319.864696
 20
253.578659
 30
0.0
 11
-319.851165
 21
253.419954
 31
0.0
  0
LINE
  5
5AD
330
5A9
100
AcDbEntity
  8
LC-001-100-D00-0
 62
     7
370
    15
100
AcDbLine
 10
-319.851165
 20
253.419954
 30
0.0
 11
-319.689242
 21
252.835534
 31
0.0
  0
LINE
  5
5AE
330
5A9
100
AcDbEntity
  8
LC-001-100-D00-0
 62
     7
370
    15
100
AcDbLine
 10
-319.689242
 20
252.835534
 30
0.0
 11
-319.439375
 21
252.389229
 31
0.0
  0
LINE
  5
5AF
330
5A9
100
AcDbEntity
  8
LC-001-100-D00-0
 62
     7
370
    15
100
AcDbLine
 10
-319.439375
 20
252.389229
 30
0.0
 11
-319.128075
 21
252.130478
 31
0.0
  0
LINE
  5
5B0
330
5A9
100
AcDbEntity
  8
LC-001-100-D00-0
 62
     7
370
    15
100
AcDbLine
 10
-319.128075
 20
252.130478
 30
0.0
 11
-318.990582
 21
252.086721
 31
0.0
  0
ENDBLK
  5
5AB
330
5A9
100
AcDbEntity
  8
0
100
AcDbBlockEnd
  0
BLOCK
  5
5B3
330
5B2
100
AcDbEntity
  8
0
100
AcDbBlockBegin
  2
KLON23
 70
     0
 71
     0
 10
0.0
 20
0.0
 30
0.0
  3
KLON23
  1

  4
KLON23
  0
LINE
  5
5B5
330
5B2
100
AcDbEntity
  8
LC-001-100-D00-0
 62
     7
370
    15
100
AcDbLine
 10
118.227551
 20
267.07866
 30
0.0
 11
118.226866
 21
267.116641
 31
0.0
  0
LINE
  5
5B6
330
5B2
100
AcDbEntity
  8
LC-001-100-D00-0
 62
     7
370
    15
100
AcDbLine
 10
118.226866
 20
267.116641
 30
0.0
 11
118.224809
 21
267.229428
 31
0.0
  0
LINE
  5
5B7
330
5B2
100
AcDbEntity
  8
LC-001-100-D00-0
 62
     7
370
    15
100
AcDbLine
 10
118.224809
 20
267.229428
 30
0.0
 11
118.221442
 21
267.413597
 31
0.0
  0
LINE
  5
5B8
330
5B2
100
AcDbEntity
  8
LC-001-100-D00-0
 62
     7
370
    15
100
AcDbLine
 10
118.221442
 20
267.413597
 30
0.0
 11
118.216882
 21
267.663549
 31
0.0
  0
LINE
  5
5B9
330
5B2
100
AcDbEntity
  8
LC-001-100-D00-0
 62
     7
370
    15
100
AcDbLine
 10
118.216882
 20
267.663549
 30
0.0
 11
118.211279
 21
267.971692
 31
0.0
  0
LINE
  5
5BA
330
5B2
100
AcDbEntity
  8
LC-001-100-D00-0
 62
     7
370
    15
100
AcDbLine
 10
118.211279
 20
267.971692
 30
0.0
 11
118.204752
 21
268.32866
 31
0.0
  0
LINE
  5
5BB
330
5B2
100
AcDbEntity
  8
LC-001-100-D00-0
 62
     7
370
    15
100
AcDbLine
 10
118.204752
 20
268.32866
 30
0.0
 11
118.19754
 21
268.72361
 31
0.0
  0
LINE
  5
5BC
330
5B2
100
AcDbEntity
  8
LC-001-100-D00-0
 62
     7
370
    15
100
AcDbLine
 10
118.19754
 20
268.72361
 30
0.0
 11
118.189881
 21
269.14454
 31
0.0
  0
LINE
  5
5BD
330
5B2
100
AcDbEntity
  8
LC-001-100-D00-0
 62
     7
370
    15
100
AcDbLine
 10
118.189881
 20
269.14454
 30
0.0
 11
118.181954
 21
269.578661
 31
0.0
  0
ENDBLK
  5
5B4
330
5B2
100
AcDbEntity
  8
0
100
AcDbBlockEnd
  0
BLOCK
  5
5C0
330
5BF
100
AcDbEntity
  8
0
100
AcDbBlockBegin
  2
KLON24
 70
     0
 71
     0
 10
0.0
 20
0.0
 30
0.0
  3
KLON24
  1

  4
KLON24
  0
LINE
  5
5C2
330
5BF
100
AcDbEntity
  8
LC-001-100-D00-0
 62
     7
370
    15
100
AcDbLine
 10
-665.717711
 20
267.07866
 30
0.0
 11
-665.717026
 21
267.116641
 31
0.0
  0
LINE
  5
5C3
330
5BF
100
AcDbEntity
  8
LC-001-100-D00-0
 62
     7
370
    15
100
AcDbLine
 10
-665.717026
 20
267.116641
 30
0.0
 11
-665.71497
 21
267.229428
 31
0.0
  0
LINE
  5
5C4
330
5BF
100
AcDbEntity
  8
LC-001-100-D00-0
 62
     7
370
    15
100
AcDbLine
 10
-665.71497
 20
267.229428
 30
0.0
 11
-665.711602
 21
267.413597
 31
0.0
  0
LINE
  5
5C5
330
5BF
100
AcDbEntity
  8
LC-001-100-D00-0
 62
     7
370
    15
100
AcDbLine
 10
-665.711602
 20
267.413597
 30
0.0
 11
-665.707042
 21
267.663549
 31
0.0
  0
LINE
  5
5C6
330
5BF
100
AcDbEntity
  8
LC-001-100-D00-0
 62
     7
370
    15
100
AcDbLine
 10
-665.707042
 20
267.663549
 30
0.0
 11
-665.701439
 21
267.971692
 31
0.0
  0
LINE
  5
5C7
330
5BF
100
AcDbEntity
  8
LC-001-100-D00-0
 62
     7
370
    15
100
AcDbLine
 10
-665.701439
 20
267.971692
 30
0.0
 11
-665.694913
 21
268.32866
 31
0.0
  0
LINE
  5
5C8
330
5BF
100
AcDbEntity
  8
LC-001-100-D00-0
 62
     7
370
    15
100
AcDbLine
 10
-665.694913
 20
268.32866
 30
0.0
 11
-665.6877
 21
268.72361
 31
0.0
  0
LINE
  5
5C9
330
5BF
100
AcDbEntity
  8
LC-001-100-D00-0
 62
     7
370
    15
100
AcDbLine
 10
-665.6877
 20
268.72361
 30
0.0
 11
-665.680041
 21
269.14454
 31
0.0
  0
LINE
  5
5CA
330
5BF
100
AcDbEntity
  8
LC-001-100-D00-0
 62
     7
370
    15
100
AcDbLine
 10
-665.680041
 20
269.14454
 30
0.0
 11
-665.672114
 21
269.578661
 31
0.0
  0
ENDBLK
  5
5C1
330
5BF
100
AcDbEntity
  8
0
100
AcDbBlockEnd
  0
BLOCK
  5
5E9
330
5DD
100
AcDbEntity
  8
0
100
AcDbBlockBegin
  2
*D29
 70
     1
 71
     0
 10
0.0
 20
0.0
 30
0.0
  3
*D29
  1

  0
LINE
  5
5DE
330
5DD
100
AcDbEntity
  8
LC-001-100-D00-0
 62
     2
370
    -2
100
AcDbLine
 10
-723.74508
 20
287.57866
 30
0.0
 11
-765.891555
 21
287.57866
 31
0.0
  0
LINE
  5
5DF
330
5DD
100
AcDbEntity
  8
LC-001-100-D00-0
 62
     2
370
    -2
100
AcDbLine
 10
-718.74508
 20
332.57866
 30
0.0
 11
-765.891555
 21
332.57866
 31
0.0
  0
LINE
  5
5E0
330
5DD
100
AcDbEntity
  8
LC-001-100-D00-0
 62
     2
370
    -2
100
AcDbLine
 10
-756.891555
 20
237.57866
 30
0.0
 11
-756.891555
 21
187.57866
 31
0.0
  0
LINE
  5
5E1
330
5DD
100
AcDbEntity
  8
LC-001-100-D00-0
 62
     2
370
    -2
100
AcDbLine
 10
-756.891555
 20
382.57866
 30
0.0
 11
-756.891555
 21
432.57866
 31
0.0
  0
LINE
  5
5E2
330
5DD
100
AcDbEntity
  8
LC-001-100-D00-0
 62
     2
370
    -2
100
AcDbLine
 10
-756.891555
 20
287.57866
 30
0.0
 11
-756.891555
 21
332.57866
 31
0.0
  0
SOLID
  5
5E3
330
5DD
100
AcDbEntity
  8
LC-001-100-D00-0
 62
     2
100
AcDbTrace
 10
-748.558222
 20
237.57866
 30
0.0
 11
-765.224889
 21
237.57866
 31
0.0
 12
-756.891555
 22
287.57866
 32
0.0
 13
-756.891555
 23
287.57866
 33
0.0
  0
SOLID
  5
5E4
330
5DD
100
AcDbEntity
  8
LC-001-100-D00-0
 62
     2
100
AcDbTrace
 10
-765.224889
 20
382.57866
 30
0.0
 11
-748.558222
 21
382.57866
 31
0.0
 12
-756.891555
 22
332.57866
 32
0.0
 13
-756.891555
 23
332.57866
 33
0.0
  0
MTEXT
  5
5E5
330
5DD
100
AcDbEntity
  8
LC-001-100-D00-0
 62
     2
100
AcDbMText
 10
-811.891555
 20
312.38369
 30
0.0
 40
50.0
 41
0.0
 71
     5
 72
     1
  1
\A1;46
  7
LCTX15-400-0-0pDIN-Schrift
 11
6.123031769111886E-17
 21
1.0
 31
0.0
 73
     1
 44
1.0
  0
POINT
  5
5E6
330
5DD
100
AcDbEntity
  8
Defpoints
 62
     0
100
AcDbPoint
 10
-723.74508
 20
287.57866
 30
0.0
  0
POINT
  5
5E7
330
5DD
100
AcDbEntity
  8
Defpoints
 62
     0
100
AcDbPoint
 10
-718.74508
 20
332.57866
 30
0.0
  0
POINT
  5
5E8
330
5DD
100
AcDbEntity
  8
Defpoints
 62
     0
100
AcDbPoint
 10
-756.891555
 20
332.57866
 30
0.0
  0
ENDBLK
  5
5EA
330
5DD
100
AcDbEntity
  8
0
100
AcDbBlockEnd
  0
BLOCK
  5
5F6
330
5EC
100
AcDbEntity
  8
0
100
AcDbBlockBegin
  2
*D30
 70
     1
 71
     0
 10
0.0
 20
0.0
 30
0.0
  3
*D30
  1

  0
LINE
  5
5ED
330
5EC
100
AcDbEntity
  8
LC-001-100-D00-0
 62
     2
370
    -2
100
AcDbLine
 10
-347.74508
 20
216.57866
 30
0.0
 11
-347.74508
 21
97.633869
 31
0.0
  0
LINE
  5
5EE
330
5EC
100
AcDbEntity
  8
LC-001-100-D00-0
 62
     2
370
    -2
100
AcDbLine
 10
-64.245283
 20
206.016483
 30
0.0
 11
-64.245283
 21
97.633869
 31
0.0
  0
LINE
  5
5EF
330
5EC
100
AcDbEntity
  8
LC-001-100-D00-0
 62
     2
370
    -2
100
AcDbLine
 10
-297.74508
 20
106.633869
 30
0.0
 11
-114.245283
 21
106.633869
 31
0.0
  0
SOLID
  5
5F0
330
5EC
100
AcDbEntity
  8
LC-001-100-D00-0
 62
     2
100
AcDbTrace
 10
-297.74508
 20
114.967203
 30
0.0
 11
-297.74508
 21
98.300536
 31
0.0
 12
-347.74508
 22
106.633869
 32
0.0
 13
-347.74508
 23
106.633869
 33
0.0
  0
SOLID
  5
5F1
330
5EC
100
AcDbEntity
  8
LC-001-100-D00-0
 62
     2
100
AcDbTrace
 10
-114.245283
 20
98.300536
 30
0.0
 11
-114.245283
 21
114.967203
 31
0.0
 12
-64.245283
 22
106.633869
 32
0.0
 13
-64.245283
 23
106.633869
 33
0.0
  0
MTEXT
  5
5F2
330
5EC
100
AcDbEntity
  8
LC-001-100-D00-0
 62
     2
100
AcDbMText
 10
-225.103266
 20
161.633869
 30
0.0
 40
50.0
 41
0.0
 71
     5
 72
     1
  1
\A1;284
  7
LCTX15-400-0-0pDIN-Schrift
 73
     1
 44
1.0
  0
POINT
  5
5F3
330
5EC
100
AcDbEntity
  8
Defpoints
 62
     0
100
AcDbPoint
 10
-347.74508
 20
216.57866
 30
0.0
  0
POINT
  5
5F4
330
5EC
100
AcDbEntity
  8
Defpoints
 62
     0
100
AcDbPoint
 10
-64.245283
 20
206.016483
 30
0.0
  0
POINT
  5
5F5
330
5EC
100
AcDbEntity
  8
Defpoints
 62
     0
100
AcDbPoint
 10
-64.245283
 20
106.633869
 30
0.0
  0
ENDBLK
  5
5F7
330
5EC
100
AcDbEntity
  8
0
100
AcDbBlockEnd
  0
BLOCK
  5
604
330
5F9
100
AcDbEntity
  8
0
100
AcDbBlockBegin
  2
*D31
 70
     1
 71
     0
 10
0.0
 20
0.0
 30
0.0
  3
*D31
  1

  0
LINE
  5
5FA
330
5F9
100
AcDbEntity
  8
LC-001-100-D00-0
 62
     2
370
    -2
100
AcDbLine
 10
-302.74508
 20
216.07866
 30
0.0
 11
-422.479058
 21
216.07866
 31
0.0
  0
LINE
  5
5FB
330
5F9
100
AcDbEntity
  8
LC-001-100-D00-0
 62
     2
370
    -2
100
AcDbLine
 10
-308.824476
 20
246.07866
 30
0.0
 11
-422.479058
 21
246.07866
 31
0.0
  0
LINE
  5
5FC
330
5F9
100
AcDbEntity
  8
LC-001-100-D00-0
 62
     2
370
    -2
100
AcDbLine
 10
-413.479058
 20
296.07866
 30
0.0
 11
-413.479058
 21
346.07866
 31
0.0
  0
LINE
  5
5FD
330
5F9
100
AcDbEntity
  8
LC-001-100-D00-0
 62
     2
370
    -2
100
AcDbLine
 10
-413.479058
 20
166.07866
 30
0.0
 11
-413.479058
 21
114.048465
 31
0.0
  0
SOLID
  5
5FE
330
5F9
100
AcDbEntity
  8
LC-001-100-D00-0
 62
     2
100
AcDbTrace
 10
-405.145725
 20
166.07866
 30
0.0
 11
-421.812391
 21
166.07866
 31
0.0
 12
-413.479058
 22
216.07866
 32
0.0
 13
-413.479058
 23
216.07866
 33
0.0
  0
SOLID
  5
5FF
330
5F9
100
AcDbEntity
  8
LC-001-100-D00-0
 62
     2
100
AcDbTrace
 10
-421.812391
 20
296.07866
 30
0.0
 11
-405.145725
 21
296.07866
 31
0.0
 12
-413.479058
 22
246.07866
 32
0.0
 13
-413.479058
 23
246.07866
 33
0.0
  0
MTEXT
  5
600
330
5F9
100
AcDbEntity
  8
LC-001-100-D00-0
 62
     2
100
AcDbMText
 10
-468.479058
 20
157.123869
 30
0.0
 40
50.0
 41
0.0
 71
     5
 72
     1
  1
\A1;30
  7
LCTX15-400-0-0pDIN-Schrift
 11
6.123031769111886E-17
 21
1.0
 31
0.0
 73
     1
 44
1.0
  0
POINT
  5
601
330
5F9
100
AcDbEntity
  8
Defpoints
 62
     0
100
AcDbPoint
 10
-302.74508
 20
216.07866
 30
0.0
  0
POINT
  5
602
330
5F9
100
AcDbEntity
  8
Defpoints
 62
     0
100
AcDbPoint
 10
-308.824476
 20
246.07866
 30
0.0
  0
POINT
  5
603
330
5F9
100
AcDbEntity
  8
Defpoints
 62
     0
100
AcDbPoint
 10
-413.479058
 20
246.07866
 30
0.0
  0
ENDBLK
  5
605
330
5F9
100
AcDbEntity
  8
0
100
AcDbBlockEnd
  0
BLOCK
  5
611
330
607
100
AcDbEntity
  8
0
100
AcDbBlockBegin
  2
*D32
 70
     1
 71
     0
 10
0.0
 20
0.0
 30
0.0
  3
*D32
  1

  0
LINE
  5
608
330
607
100
AcDbEntity
  8
LC-001-100-D00-0
 62
     2
370
    -2
100
AcDbLine
 10
-723.74508
 20
327.57866
 30
0.0
 11
-723.74508
 21
437.878869
 31
0.0
  0
LINE
  5
609
330
607
100
AcDbEntity
  8
LC-001-100-D00-0
 62
     2
370
    -2
100
AcDbLine
 10
176.25492
 20
327.57866
 30
0.0
 11
176.25492
 21
437.878869
 31
0.0
  0
LINE
  5
60A
330
607
100
AcDbEntity
  8
LC-001-100-D00-0
 62
     2
370
    -2
100
AcDbLine
 10
-673.74508
 20
428.878869
 30
0.0
 11
126.25492
 21
428.878869
 31
0.0
  0
SOLID
  5
60B
330
607
100
AcDbEntity
  8
LC-001-100-D00-0
 62
     2
100
AcDbTrace
 10
-673.74508
 20
437.212203
 30
0.0
 11
-673.74508
 21
420.545536
 31
0.0
 12
-723.74508
 22
428.878869
 32
0.0
 13
-723.74508
 23
428.878869
 33
0.0
  0
SOLID
  5
60C
330
607
100
AcDbEntity
  8
LC-001-100-D00-0
 62
     2
100
AcDbTrace
 10
126.25492
 20
420.545536
 30
0.0
 11
126.25492
 21
437.212203
 31
0.0
 12
176.25492
 22
428.878869
 32
0.0
 13
176.25492
 23
428.878869
 33
0.0
  0
MTEXT
  5
60D
330
607
100
AcDbEntity
  8
LC-001-100-D00-0
 62
     2
100
AcDbMText
 10
-278.291725
 20
483.878869
 30
0.0
 40
50.0
 41
0.0
 71
     5
 72
     1
  1
\A1;900
  7
LCTX15-400-0-0pDIN-Schrift
 73
     1
 44
1.0
  0
POINT
  5
60E
330
607
100
AcDbEntity
  8
Defpoints
 62
     0
100
AcDbPoint
 10
-723.74508
 20
327.57866
 30
0.0
  0
POINT
  5
60F
330
607
100
AcDbEntity
  8
Defpoints
 62
     0
100
AcDbPoint
 10
176.25492
 20
327.57866
 30
0.0
  0
POINT
  5
610
330
607
100
AcDbEntity
  8
Defpoints
 62
     0
100
AcDbPoint
 10
176.25492
 20
428.878869
 30
0.0
  0
ENDBLK
  5
612
330
607
100
AcDbEntity
  8
0
100
AcDbBlockEnd
  0
BLOCK
  5
61E
330
614
100
AcDbEntity
  8
0
100
AcDbBlockBegin
  2
*D33
 70
     1
 71
     0
 10
0.0
 20
0.0
 30
0.0
  3
*D33
  1

  0
LINE
  5
615
330
614
100
AcDbEntity
  8
LC-001-100-D00-0
 62
     2
370
    -2
100
AcDbLine
 10
-673.74508
 20
284.57866
 30
0.0
 11
-673.74508
 21
361.774204
 31
0.0
  0
LINE
  5
616
330
614
100
AcDbEntity
  8
LC-001-100-D00-0
 62
     2
370
    -2
100
AcDbLine
 10
126.25492
 20
284.57866
 30
0.0
 11
126.25492
 21
361.774204
 31
0.0
  0
LINE
  5
617
330
614
100
AcDbEntity
  8
LC-001-100-D00-0
 62
     2
370
    -2
100
AcDbLine
 10
-623.74508
 20
352.774204
 30
0.0
 11
76.25492
 21
352.774204
 31
0.0
  0
SOLID
  5
618
330
614
100
AcDbEntity
  8
LC-001-100-D00-0
 62
     2
100
AcDbTrace
 10
-623.74508
 20
361.107537
 30
0.0
 11
-623.74508
 21
344.440871
 31
0.0
 12
-673.74508
 22
352.774204
 32
0.0
 13
-673.74508
 23
352.774204
 33
0.0
  0
SOLID
  5
619
330
614
100
AcDbEntity
  8
LC-001-100-D00-0
 62
     2
100
AcDbTrace
 10
76.25492
 20
344.440871
 30
0.0
 11
76.25492
 21
361.107537
 31
0.0
 12
126.25492
 22
352.774204
 32
0.0
 13
126.25492
 23
352.774204
 33
0.0
  0
MTEXT
  5
61A
330
614
100
AcDbEntity
  8
LC-001-100-D00-0
 62
     2
100
AcDbMText
 10
-273.702127
 20
407.774204
 30
0.0
 40
50.0
 41
0.0
 71
     5
 72
     1
  1
\A1;800
  7
LCTX15-400-0-0pDIN-Schrift
 73
     1
 44
1.0
  0
POINT
  5
61B
330
614
100
AcDbEntity
  8
Defpoints
 62
     0
100
AcDbPoint
 10
-673.74508
 20
284.57866
 30
0.0
  0
POINT
  5
61C
330
614
100
AcDbEntity
  8
Defpoints
 62
     0
100
AcDbPoint
 10
126.25492
 20
284.57866
 30
0.0
  0
POINT
  5
61D
330
614
100
AcDbEntity
  8
Defpoints
 62
     0
100
AcDbPoint
 10
126.25492
 20
352.774204
 30
0.0
  0
ENDBLK
  5
61F
330
614
100
AcDbEntity
  8
0
100
AcDbBlockEnd
  0
BLOCK
  5
62C
330
621
100
AcDbEntity
  8
0
100
AcDbBlockBegin
  2
*D34
 70
     1
 71
     0
 10
0.0
 20
0.0
 30
0.0
  3
*D34
  1

  0
LINE
  5
622
330
621
100
AcDbEntity
  8
LC-001-100-D00-0
 62
     2
370
    -2
100
AcDbLine
 10
-67.745283
 20
255.07866
 30
0.0
 11
253.728121
 21
255.07866
 31
0.0
  0
LINE
  5
623
330
621
100
AcDbEntity
  8
LC-001-100-D00-0
 62
     2
370
    -2
100
AcDbLine
 10
-67.745283
 20
205.07866
 30
0.0
 11
253.728121
 21
205.07866
 31
0.0
  0
LINE
  5
624
330
621
100
AcDbEntity
  8
LC-001-100-D00-0
 62
     2
370
    -2
100
AcDbLine
 10
244.728121
 20
155.07866
 30
0.0
 11
244.728121
 21
105.07866
 31
0.0
  0
LINE
  5
625
330
621
100
AcDbEntity
  8
LC-001-100-D00-0
 62
     2
370
    -2
100
AcDbLine
 10
244.728121
 20
305.07866
 30
0.0
 11
244.728121
 21
404.825222
 31
0.0
  0
SOLID
  5
626
330
621
100
AcDbEntity
  8
LC-001-100-D00-0
 62
     2
100
AcDbTrace
 10
236.394788
 20
305.07866
 30
0.0
 11
253.061455
 21
305.07866
 31
0.0
 12
244.728121
 22
255.07866
 32
0.0
 13
244.728121
 23
255.07866
 33
0.0
  0
SOLID
  5
627
330
621
100
AcDbEntity
  8
LC-001-100-D00-0
 62
     2
100
AcDbTrace
 10
253.061455
 20
155.07866
 30
0.0
 11
236.394788
 21
155.07866
 31
0.0
 12
244.728121
 22
205.07866
 32
0.0
 13
244.728121
 23
205.07866
 33
0.0
  0
MTEXT
  5
628
330
621
100
AcDbEntity
  8
LC-001-100-D00-0
 62
     2
100
AcDbMText
 10
189.728121
 20
320.473869
 30
0.0
 40
50.0
 41
0.0
 71
     5
 72
     1
  1
\A1;DN50
  7
LCTX15-400-0-0pDIN-Schrift
 11
6.123031769111886E-17
 21
1.0
 31
0.0
 73
     1
 44
1.0
  0
POINT
  5
629
330
621
100
AcDbEntity
  8
Defpoints
 62
     0
100
AcDbPoint
 10
-67.745283
 20
255.07866
 30
0.0
  0
POINT
  5
62A
330
621
100
AcDbEntity
  8
Defpoints
 62
     0
100
AcDbPoint
 10
-67.745283
 20
205.07866
 30
0.0
  0
POINT
  5
62B
330
621
100
AcDbEntity
  8
Defpoints
 62
     0
100
AcDbPoint
 10
244.728121
 20
205.07866
 30
0.0
  0
ENDBLK
  5
62D
330
621
100
AcDbEntity
  8
0
100
AcDbBlockEnd
  0
BLOCK
  5
63A
330
62F
100
AcDbEntity
  8
0
100
AcDbBlockBegin
  2
*D35
 70
     1
 71
     0
 10
0.0
 20
0.0
 30
0.0
  3
*D35
  1

  0
LINE
  5
630
330
62F
100
AcDbEntity
  8
LC-001-100-D00-0
 62
     2
370
    -2
100
AcDbLine
 10
176.25492
 20
287.57866
 30
0.0
 11
324.646067
 21
287.57866
 31
0.0
  0
LINE
  5
631
330
62F
100
AcDbEntity
  8
LC-001-100-D00-0
 62
     2
370
    -2
100
AcDbLine
 10
-57.745283
 20
230.07866
 30
0.0
 11
324.646067
 21
230.07866
 31
0.0
  0
LINE
  5
632
330
62F
100
AcDbEntity
  8
LC-001-100-D00-0
 62
     2
370
    -2
100
AcDbLine
 10
315.646067
 20
180.07866
 30
0.0
 11
315.646067
 21
130.07866
 31
0.0
  0
LINE
  5
633
330
62F
100
AcDbEntity
  8
LC-001-100-D00-0
 62
     2
370
    -2
100
AcDbLine
 10
315.646067
 20
337.57866
 30
0.0
 11
315.646067
 21
361.25927
 31
0.0
  0
SOLID
  5
634
330
62F
100
AcDbEntity
  8
LC-001-100-D00-0
 62
     2
100
AcDbTrace
 10
307.312733
 20
337.57866
 30
0.0
 11
323.9794
 21
337.57866
 31
0.0
 12
315.646067
 22
287.57866
 32
0.0
 13
315.646067
 23
287.57866
 33
0.0
  0
SOLID
  5
635
330
62F
100
AcDbEntity
  8
LC-001-100-D00-0
 62
     2
100
AcDbTrace
 10
323.9794
 20
180.07866
 30
0.0
 11
307.312733
 21
180.07866
 31
0.0
 12
315.646067
 22
230.07866
 32
0.0
 13
315.646067
 23
230.07866
 33
0.0
  0
MTEXT
  5
636
330
62F
100
AcDbEntity
  8
LC-001-100-D00-0
 62
     2
100
AcDbMText
 10
260.646067
 20
289.288869
 30
0.0
 40
50.0
 41
0.0
 71
     5
 72
     1
  1
\A1;57,5
  7
LCTX15-400-0-0pDIN-Schrift
 11
6.123031769111886E-17
 21
1.0
 31
0.0
 73
     1
 44
1.0
  0
POINT
  5
637
330
62F
100
AcDbEntity
  8
Defpoints
 62
     0
100
AcDbPoint
 10
176.25492
 20
287.57866
 30
0.0
  0
POINT
  5
638
330
62F
100
AcDbEntity
  8
Defpoints
 62
     0
100
AcDbPoint
 10
-57.745283
 20
230.07866
 30
0.0
  0
POINT
  5
639
330
62F
100
AcDbEntity
  8
Defpoints
 62
     0
100
AcDbPoint
 10
315.646067
 20
230.07866
 30
0.0
  0
ENDBLK
  5
63B
330
62F
100
AcDbEntity
  8
0
100
AcDbBlockEnd
  0
BLOCK
  5
649
330
63D
100
AcDbEntity
  8
0
100
AcDbBlockBegin
  2
*D36
 70
     1
 71
     0
 10
0.0
 20
0.0
 30
0.0
  3
*D36
  1

  0
LINE
  5
63E
330
63D
100
AcDbEntity
  8
LC-001-100-D00-0
 62
     2
370
    -2
100
AcDbLine
 10
176.25492
 20
287.57866
 30
0.0
 11
391.13164
 21
287.57866
 31
0.0
  0
LINE
  5
63F
330
63D
100
AcDbEntity
  8
LC-001-100-D00-0
 62
     2
370
    -2
100
AcDbLine
 10
-219.7272
 20
197.57866
 30
0.0
 11
391.13164
 21
197.57866
 31
0.0
  0
LINE
  5
640
330
63D
100
AcDbEntity
  8
LC-001-100-D00-0
 62
     2
370
    -2
100
AcDbLine
 10
382.13164
 20
337.57866
 30
0.0
 11
382.13164
 21
387.57866
 31
0.0
  0
LINE
  5
641
330
63D
100
AcDbEntity
  8
LC-001-100-D00-0
 62
     2
370
    -2
100
AcDbLine
 10
382.13164
 20
147.57866
 30
0.0
 11
382.13164
 21
97.57866
 31
0.0
  0
LINE
  5
642
330
63D
100
AcDbEntity
  8
LC-001-100-D00-0
 62
     2
370
    -2
100
AcDbLine
 10
382.13164
 20
287.57866
 30
0.0
 11
382.13164
 21
197.57866
 31
0.0
  0
SOLID
  5
643
330
63D
100
AcDbEntity
  8
LC-001-100-D00-0
 62
     2
100
AcDbTrace
 10
373.798307
 20
337.57866
 30
0.0
 11
390.464973
 21
337.57866
 31
0.0
 12
382.13164
 22
287.57866
 32
0.0
 13
382.13164
 23
287.57866
 33
0.0
  0
SOLID
  5
644
330
63D
100
AcDbEntity
  8
LC-001-100-D00-0
 62
     2
100
AcDbTrace
 10
390.464973
 20
147.57866
 30
0.0
 11
373.798307
 21
147.57866
 31
0.0
 12
382.13164
 22
197.57866
 32
0.0
 13
382.13164
 23
197.57866
 33
0.0
  0
MTEXT
  5
645
330
63D
100
AcDbEntity
  8
LC-001-100-D00-0
 62
     2
100
AcDbMText
 10
327.13164
 20
210.583869
 30
0.0
 40
50.0
 41
0.0
 71
     5
 72
     1
  1
\A1;90
  7
LCTX15-400-0-0pDIN-Schrift
 11
6.123031769111886E-17
 21
1.0
 31
0.0
 73
     1
 44
1.0
  0
POINT
  5
646
330
63D
100
AcDbEntity
  8
Defpoints
 62
     0
100
AcDbPoint
 10
176.25492
 20
287.57866
 30
0.0
  0
POINT
  5
647
330
63D
100
AcDbEntity
  8
Defpoints
 62
     0
100
AcDbPoint
 10
-219.7272
 20
197.57866
 30
0.0
  0
POINT
  5
648
330
63D
100
AcDbEntity
  8
Defpoints
 62
     0
100
AcDbPoint
 10
382.13164
 20
197.57866
 30
0.0
  0
ENDBLK
  5
64A
330
63D
100
AcDbEntity
  8
0
100
AcDbBlockEnd
  0
BLOCK
  5
64C
330
64B
100
AcDbEntity
  8
0
100
AcDbBlockBegin
  2
KLON25
 70
     0
 71
     0
 10
0.0
 20
0.0
 30
0.0
  3
KLON25
  1

  4
KLON25
  0
LINE
  5
64E
330
64B
100
AcDbEntity
  8
LC-001-100-D00-0
 62
     7
370
    25
100
AcDbLine
 10
-239.427242
 20
200.07866
 30
0.0
 11
-237.927242
 21
201.57866
 31
0.0
  0
LINE
  5
64F
330
64B
100
AcDbEntity
  8
LC-001-100-D00-0
 62
     7
370
    25
100
AcDbLine
 10
-234.24508
 20
205.260823
 30
0.0
 11
-232.74508
 21
206.760823
 31
0.0
  0
LINE
  5
650
330
64B
100
AcDbEntity
  8
LC-001-100-D00-0
 62
     7
370
    25
100
AcDbLine
 10
-261.877881
 20
200.07866
 30
0.0
 11
-260.377882
 21
201.57866
 31
0.0
  0
LINE
  5
651
330
64B
100
AcDbEntity
  8
LC-001-100-D00-0
 62
     7
370
    25
100
AcDbLine
 10
-234.24508
 20
227.711464
 30
0.0
 11
-232.74508
 21
229.211464
 31
0.0
  0
LINE
  5
652
330
64B
100
AcDbEntity
  8
LC-001-100-D00-0
 62
     7
370
    25
100
AcDbLine
 10
-284.328521
 20
200.07866
 30
0.0
 11
-282.828521
 21
201.57866
 31
0.0
  0
LINE
  5
653
330
64B
100
AcDbEntity
  8
LC-001-100-D00-0
 62
     7
370
    25
100
AcDbLine
 10
-306.77916
 20
200.07866
 30
0.0
 11
-305.279161
 21
201.57866
 31
0.0
  0
LINE
  5
654
330
64B
100
AcDbEntity
  8
LC-001-100-D00-0
 62
     7
370
    25
100
AcDbLine
 10
-314.74508
 20
214.563381
 30
0.0
 11
-313.24508
 21
216.063381
 31
0.0
  0
LINE
  5
655
330
64B
100
AcDbEntity
  8
LC-001-100-D00-0
 62
     7
370
    25
100
AcDbLine
 10
-314.74508
 20
237.014022
 30
0.0
 11
-313.24508
 21
238.514022
 31
0.0
  0
LINE
  5
656
330
64B
100
AcDbEntity
  8
LC-001-100-D00-0
 62
     7
370
    25
100
AcDbLine
 10
-322.459048
 20
251.750695
 30
0.0
 11
-321.028475
 21
253.181268
 31
0.0
  0
ENDBLK
  5
64D
330
64B
100
AcDbEntity
  8
0
100
AcDbBlockEnd
  0
BLOCK
  5
659
330
658
100
AcDbEntity
  8
0
100
AcDbBlockBegin
  2
KLON26
 70
     0
 71
     0
 10
0.0
 20
0.0
 30
0.0
  3
KLON26
  1

  4
KLON26
  0
LINE
  5
65B
330
658
100
AcDbEntity
  8
LC-001-100-D00-0
 62
     7
370
    25
100
AcDbLine
 10
-119.325327
 20
252.82866
 30
0.0
 11
-117.075328
 21
255.07866
 31
0.0
  0
LINE
  5
65C
330
658
100
AcDbEntity
  8
LC-001-100-D00-0
 62
     7
370
    25
100
AcDbLine
 10
-96.874687
 20
252.82866
 30
0.0
 11
-94.624688
 21
255.07866
 31
0.0
  0
LINE
  5
65D
330
658
100
AcDbEntity
  8
LC-001-100-D00-0
 62
     7
370
    25
100
AcDbLine
 10
-74.424047
 20
252.82866
 30
0.0
 11
-72.174048
 21
255.07866
 31
0.0
  0
LINE
  5
65E
330
658
100
AcDbEntity
  8
LC-001-100-D00-0
 62
     7
370
    25
100
AcDbLine
 10
-179.245283
 20
260.260642
 30
0.0
 11
-177.427265
 21
262.07866
 31
0.0
  0
ENDBLK
  5
65A
330
658
100
AcDbEntity
  8
0
100
AcDbBlockEnd
  0
BLOCK
  5
661
330
660
100
AcDbEntity
  8
0
100
AcDbBlockBegin
  2
KLON27
 70
     0
 71
     0
 10
0.0
 20
0.0
 30
0.0
  3
KLON27
  1

  4
KLON27
  0
LINE
  5
663
330
660
100
AcDbEntity
  8
LC-001-100-D00-0
 62
     7
370
    25
100
AcDbLine
 10
-174.075323
 20
198.07866
 30
0.0
 11
-171.563962
 21
200.590022
 31
0.0
  0
LINE
  5
664
330
660
100
AcDbEntity
  8
LC-001-100-D00-0
 62
     7
370
    25
100
AcDbLine
 10
-144.624684
 20
205.07866
 30
0.0
 11
-142.374684
 21
207.32866
 31
0.0
  0
LINE
  5
665
330
660
100
AcDbEntity
  8
LC-001-100-D00-0
 62
     7
370
    25
100
AcDbLine
 10
-122.174044
 20
205.07866
 30
0.0
 11
-119.924044
 21
207.32866
 31
0.0
  0
LINE
  5
666
330
660
100
AcDbEntity
  8
LC-001-100-D00-0
 62
     7
370
    25
100
AcDbLine
 10
-99.723424
 20
205.07866
 30
0.0
 11
-97.473424
 21
207.32866
 31
0.0
  0
ENDBLK
  5
662
330
660
100
AcDbEntity
  8
0
100
AcDbBlockEnd
  0
BLOCK
  5
669
330
668
100
AcDbEntity
  8
0
100
AcDbBlockBegin
  2
KLON28
 70
     0
 71
     0
 10
0.0
 20
0.0
 30
0.0
  3
KLON28
  1

  4
KLON28
  0
LINE
  5
66B
330
668
100
AcDbEntity
  8
LC-001-100-D00-0
 62
     7
370
    25
100
AcDbLine
 10
160.881704
 20
286.07866
 30
0.0
 11
162.381704
 21
287.57866
 31
0.0
  0
LINE
  5
66C
330
668
100
AcDbEntity
  8
LC-001-100-D00-0
 62
     7
370
    25
100
AcDbLine
 10
117.931066
 20
265.57866
 30
0.0
 11
119.533978
 21
267.181572
 31
0.0
  0
LINE
  5
66D
330
668
100
AcDbEntity
  8
LC-001-100-D00-0
 62
     7
370
    25
100
AcDbLine
 10
126.152009
 20
273.799603
 30
0.0
 11
127.75492
 21
275.402515
 31
0.0
  0
LINE
  5
66E
330
668
100
AcDbEntity
  8
LC-001-100-D00-0
 62
     7
370
    25
100
AcDbLine
 10
138.431065
 20
286.07866
 30
0.0
 11
139.931065
 21
287.57866
 31
0.0
  0
LINE
  5
66F
330
668
100
AcDbEntity
  8
LC-001-100-D00-0
 62
     7
370
    25
100
AcDbLine
 10
95.480427
 20
265.57866
 30
0.0
 11
99.494038
 21
269.592272
 31
0.0
  0
LINE
  5
670
330
668
100
AcDbEntity
  8
LC-001-100-D00-0
 62
     7
370
    25
100
AcDbLine
 10
73.029787
 20
265.57866
 30
0.0
 11
74.529787
 21
267.07866
 31
0.0
  0
LINE
  5
671
330
668
100
AcDbEntity
  8
LC-001-100-D00-0
 62
     7
370
    25
100
AcDbLine
 10
92.25492
 20
284.803794
 30
0.0
 11
94.529786
 21
287.07866
 31
0.0
  0
LINE
  5
672
330
668
100
AcDbEntity
  8
LC-001-100-D00-0
 62
     7
370
    25
100
AcDbLine
 10
50.579148
 20
265.57866
 30
0.0
 11
52.079148
 21
267.07866
 31
0.0
  0
LINE
  5
673
330
668
100
AcDbEntity
  8
LC-001-100-D00-0
 62
     7
370
    25
100
AcDbLine
 10
28.128509
 20
265.57866
 30
0.0
 11
29.628508
 21
267.07866
 31
0.0
  0
LINE
  5
674
330
668
100
AcDbEntity
  8
LC-001-100-D00-0
 62
     7
370
    25
100
AcDbLine
 10
5.677869
 20
265.57866
 30
0.0
 11
7.177869
 21
267.07866
 31
0.0
  0
LINE
  5
675
330
668
100
AcDbEntity
  8
LC-001-100-D00-0
 62
     7
370
    25
100
AcDbLine
 10
-16.77277
 20
265.57866
 30
0.0
 11
-15.272771
 21
267.07866
 31
0.0
  0
LINE
  5
676
330
668
100
AcDbEntity
  8
LC-001-100-D00-0
 62
     7
370
    25
100
AcDbLine
 10
-39.22341
 20
265.57866
 30
0.0
 11
-35.439365
 21
269.362706
 31
0.0
  0
LINE
  5
677
330
668
100
AcDbEntity
  8
LC-001-100-D00-0
 62
     7
370
    25
100
AcDbLine
 10
-61.674049
 20
265.57866
 30
0.0
 11
-60.174049
 21
267.07866
 31
0.0
  0
LINE
  5
678
330
668
100
AcDbEntity
  8
LC-001-100-D00-0
 62
     7
370
    25
100
AcDbLine
 10
-42.74508
 20
284.507631
 30
0.0
 11
-40.174051
 21
287.07866
 31
0.0
  0
LINE
  5
679
330
668
100
AcDbEntity
  8
LC-001-100-D00-0
 62
     7
370
    25
100
AcDbLine
 10
-84.124689
 20
265.57866
 30
0.0
 11
-82.624689
 21
267.07866
 31
0.0
  0
LINE
  5
67A
330
668
100
AcDbEntity
  8
LC-001-100-D00-0
 62
     7
370
    25
100
AcDbLine
 10
-106.575328
 20
265.57866
 30
0.0
 11
-105.075328
 21
267.07866
 31
0.0
  0
LINE
  5
67B
330
668
100
AcDbEntity
  8
LC-001-100-D00-0
 62
     7
370
    25
100
AcDbLine
 10
-129.025968
 20
265.57866
 30
0.0
 11
-127.525968
 21
267.07866
 31
0.0
  0
LINE
  5
67C
330
668
100
AcDbEntity
  8
LC-001-100-D00-0
 62
     7
370
    25
100
AcDbLine
 10
-151.476607
 20
265.57866
 30
0.0
 11
-149.976607
 21
267.07866
 31
0.0
  0
LINE
  5
67D
330
668
100
AcDbEntity
  8
LC-001-100-D00-0
 62
     7
370
    25
100
AcDbLine
 10
-173.927247
 20
265.57866
 30
0.0
 11
-170.349446
 21
269.156462
 31
0.0
  0
LINE
  5
67E
330
668
100
AcDbEntity
  8
LC-001-100-D00-0
 62
     7
370
    25
100
AcDbLine
 10
-201.377886
 20
260.57866
 30
0.0
 11
-199.877886
 21
262.07866
 31
0.0
  0
LINE
  5
67F
330
668
100
AcDbEntity
  8
LC-001-100-D00-0
 62
     7
370
    25
100
AcDbLine
 10
-177.74508
 20
284.211468
 30
0.0
 11
-174.877888
 21
287.07866
 31
0.0
  0
ENDBLK
  5
66A
330
668
100
AcDbEntity
  8
0
100
AcDbBlockEnd
  0
BLOCK
  5
682
330
681
100
AcDbEntity
  8
0
100
AcDbBlockBegin
  2
KLON29
 70
     0
 71
     0
 10
0.0
 20
0.0
 30
0.0
  3
KLON29
  1

  4
KLON29
  0
LINE
  5
684
330
681
100
AcDbEntity
  8
LC-001-100-D00-0
 62
     7
370
    25
100
AcDbLine
 10
-336.081723
 20
260.57866
 30
0.0
 11
-334.581723
 21
262.07866
 31
0.0
  0
LINE
  5
685
330
681
100
AcDbEntity
  8
LC-001-100-D00-0
 62
     7
370
    25
100
AcDbLine
 10
-356.464066
 20
262.646956
 30
0.0
 11
-355.239322
 21
263.871701
 31
0.0
  0
LINE
  5
686
330
681
100
AcDbEntity
  8
LC-001-100-D00-0
 62
     7
370
    25
100
AcDbLine
 10
-375.983002
 20
265.57866
 30
0.0
 11
-369.74508
 21
271.816583
 31
0.0
  0
LINE
  5
687
330
681
100
AcDbEntity
  8
LC-001-100-D00-0
 62
     7
370
    25
100
AcDbLine
 10
-398.433642
 20
265.57866
 30
0.0
 11
-396.933642
 21
267.07866
 31
0.0
  0
LINE
  5
688
330
681
100
AcDbEntity
  8
LC-001-100-D00-0
 62
     7
370
    25
100
AcDbLine
 10
-420.884281
 20
265.57866
 30
0.0
 11
-419.384281
 21
267.07866
 31
0.0
  0
LINE
  5
689
330
681
100
AcDbEntity
  8
LC-001-100-D00-0
 62
     7
370
    25
100
AcDbLine
 10
-443.334921
 20
265.57866
 30
0.0
 11
-441.834921
 21
267.07866
 31
0.0
  0
LINE
  5
68A
330
681
100
AcDbEntity
  8
LC-001-100-D00-0
 62
     7
370
    25
100
AcDbLine
 10
-465.78556
 20
265.57866
 30
0.0
 11
-464.28556
 21
267.07866
 31
0.0
  0
LINE
  5
68B
330
681
100
AcDbEntity
  8
LC-001-100-D00-0
 62
     7
370
    25
100
AcDbLine
 10
-488.2362
 20
265.57866
 30
0.0
 11
-486.7362
 21
267.07866
 31
0.0
  0
LINE
  5
68C
330
681
100
AcDbEntity
  8
LC-001-100-D00-0
 62
     7
370
    25
100
AcDbLine
 10
-510.686839
 20
265.57866
 30
0.0
 11
-505.115282
 21
271.150218
 31
0.0
  0
LINE
  5
68D
330
681
100
AcDbEntity
  8
LC-001-100-D00-0
 62
     7
370
    25
100
AcDbLine
 10
-504.916637
 20
271.348862
 30
0.0
 11
-504.74508
 21
271.52042
 31
0.0
  0
LINE
  5
68E
330
681
100
AcDbEntity
  8
LC-001-100-D00-0
 62
     7
370
    25
100
AcDbLine
 10
-533.137478
 20
265.57866
 30
0.0
 11
-531.637479
 21
267.07866
 31
0.0
  0
LINE
  5
68F
330
681
100
AcDbEntity
  8
LC-001-100-D00-0
 62
     7
370
    25
100
AcDbLine
 10
-512.74508
 20
285.97106
 30
0.0
 11
-511.63748
 21
287.07866
 31
0.0
  0
LINE
  5
690
330
681
100
AcDbEntity
  8
LC-001-100-D00-0
 62
     7
370
    25
100
AcDbLine
 10
-555.588118
 20
265.57866
 30
0.0
 11
-554.088118
 21
267.07866
 31
0.0
  0
LINE
  5
691
330
681
100
AcDbEntity
  8
LC-001-100-D00-0
 62
     7
370
    25
100
AcDbLine
 10
-578.038757
 20
265.57866
 30
0.0
 11
-576.538758
 21
267.07866
 31
0.0
  0
LINE
  5
692
330
681
100
AcDbEntity
  8
LC-001-100-D00-0
 62
     7
370
    25
100
AcDbLine
 10
-600.489397
 20
265.57866
 30
0.0
 11
-598.989397
 21
267.07866
 31
0.0
  0
LINE
  5
693
330
681
100
AcDbEntity
  8
LC-001-100-D00-0
 62
     7
370
    25
100
AcDbLine
 10
-622.940036
 20
265.57866
 30
0.0
 11
-621.440037
 21
267.07866
 31
0.0
  0
LINE
  5
694
330
681
100
AcDbEntity
  8
LC-001-100-D00-0
 62
     7
370
    25
100
AcDbLine
 10
-645.390676
 20
265.57866
 30
0.0
 11
-640.471471
 21
270.497865
 31
0.0
  0
LINE
  5
695
330
681
100
AcDbEntity
  8
LC-001-100-D00-0
 62
     7
370
    25
100
AcDbLine
 10
-667.648648
 20
265.771328
 30
0.0
 11
-666.320588
 21
267.099388
 31
0.0
  0
LINE
  5
696
330
681
100
AcDbEntity
  8
LC-001-100-D00-0
 62
     7
370
    25
100
AcDbLine
 10
-647.74508
 20
285.674897
 30
0.0
 11
-646.341317
 21
287.07866
 31
0.0
  0
LINE
  5
697
330
681
100
AcDbEntity
  8
LC-001-100-D00-0
 62
     7
370
    25
100
AcDbLine
 10
-675.24508
 20
280.625536
 30
0.0
 11
-673.74508
 21
282.125536
 31
0.0
  0
LINE
  5
698
330
681
100
AcDbEntity
  8
LC-001-100-D00-0
 62
     7
370
    25
100
AcDbLine
 10
-692.242596
 20
286.07866
 30
0.0
 11
-690.742596
 21
287.57866
 31
0.0
  0
LINE
  5
699
330
681
100
AcDbEntity
  8
LC-001-100-D00-0
 62
     7
370
    25
100
AcDbLine
 10
-714.693235
 20
286.07866
 30
0.0
 11
-713.193235
 21
287.57866
 31
0.0
  0
ENDBLK
  5
683
330
681
100
AcDbEntity
  8
0
100
AcDbBlockEnd
  0
BLOCK
  5
69C
330
69B
100
AcDbEntity
  8
0
100
AcDbBlockBegin
  2
KLON30
 70
     0
 71
     0
 10
0.0
 20
0.0
 30
0.0
  3
KLON30
  1

  4
KLON30
  0
LINE
  5
69E
330
69B
100
AcDbEntity
  8
LC-001-100-D00-0
 62
     7
370
    25
100
AcDbLine
 10
-245.877883
 20
216.07866
 30
0.0
 11
-244.74508
 21
217.211463
 31
0.0
  0
LINE
  5
69F
330
69B
100
AcDbEntity
  8
LC-001-100-D00-0
 62
     7
370
    25
100
AcDbLine
 10
-246.24508
 20
238.162104
 30
0.0
 11
-244.74508
 21
239.662104
 31
0.0
  0
LINE
  5
6A0
330
69B
100
AcDbEntity
  8
LC-001-100-D00-0
 62
     7
370
    25
100
AcDbLine
 10
-228.828525
 20
255.57866
 30
0.0
 11
-222.828525
 21
261.57866
 31
0.0
  0
ENDBLK
  5
69D
330
69B
100
AcDbEntity
  8
0
100
AcDbBlockEnd
  0
BLOCK
  5
6A3
330
6A2
100
AcDbEntity
  8
0
100
AcDbBlockBegin
  2
KLON31
 70
     0
 71
     0
 10
0.0
 20
0.0
 30
0.0
  3
KLON31
  1

  4
KLON31
  0
LINE
  5
6A5
330
6A2
100
AcDbEntity
  8
LC-001-100-D00-0
 62
     7
370
    25
100
AcDbLine
 10
-302.74508
 20
226.563382
 30
0.0
 11
-301.24508
 21
228.063382
 31
0.0
  0
LINE
  5
6A6
330
6A2
100
AcDbEntity
  8
LC-001-100-D00-0
 62
     7
370
    25
100
AcDbLine
 10
-303.199665
 20
248.559439
 30
0.0
 11
-301.24508
 21
250.514023
 31
0.0
  0
LINE
  5
6A7
330
6A2
100
AcDbEntity
  8
LC-001-100-D00-0
 62
     7
370
    25
100
AcDbLine
 10
-318.631083
 20
255.57866
 30
0.0
 11
-312.631083
 21
261.57866
 31
0.0
  0
ENDBLK
  5
6A4
330
6A2
100
AcDbEntity
  8
0
100
AcDbBlockEnd
  0
BLOCK
  5
6AA
330
6A9
100
AcDbEntity
  8
0
100
AcDbBlockBegin
  2
KLON32
 70
     0
 71
     0
 10
0.0
 20
0.0
 30
0.0
  3
KLON32
  1

  4
KLON32
  0
LINE
  5
6AC
330
6A9
100
AcDbEntity
  8
LC-001-100-D00-0
 62
     7
370
    25
100
AcDbLine
 10
-171.712373
 20
200.441611
 30
0.0
 11
-165.075324
 21
207.07866
 31
0.0
  0
LINE
  5
6AD
330
6A9
100
AcDbEntity
  8
LC-001-100-D00-0
 62
     7
370
    25
100
AcDbLine
 10
-190.525963
 20
204.07866
 30
0.0
 11
-187.525964
 21
207.07866
 31
0.0
  0
LINE
  5
6AE
330
6A9
100
AcDbEntity
  8
LC-001-100-D00-0
 62
     7
370
    25
100
AcDbLine
 10
-219.471947
 20
197.583316
 30
0.0
 11
-209.976603
 21
207.07866
 31
0.0
  0
LINE
  5
6AF
330
6A9
100
AcDbEntity
  8
LC-001-100-D00-0
 62
     7
370
    25
100
AcDbLine
 10
-241.927242
 20
197.57866
 30
0.0
 11
-238.927242
 21
200.57866
 31
0.0
  0
LINE
  5
6B0
330
6A9
100
AcDbEntity
  8
LC-001-100-D00-0
 62
     7
370
    25
100
AcDbLine
 10
-264.377881
 20
197.57866
 30
0.0
 11
-261.377882
 21
200.57866
 31
0.0
  0
LINE
  5
6B1
330
6A9
100
AcDbEntity
  8
LC-001-100-D00-0
 62
     7
370
    25
100
AcDbLine
 10
-286.828521
 20
197.57866
 30
0.0
 11
-283.828521
 21
200.57866
 31
0.0
  0
LINE
  5
6B2
330
6A9
100
AcDbEntity
  8
LC-001-100-D00-0
 62
     7
370
    25
100
AcDbLine
 10
-309.27916
 20
197.57866
 30
0.0
 11
-306.27916
 21
200.57866
 31
0.0
  0
LINE
  5
6B3
330
6A9
100
AcDbEntity
  8
LC-001-100-D00-0
 62
     7
370
    25
100
AcDbLine
 10
-330.958066
 20
198.350394
 30
0.0
 11
-328.63056
 21
200.677901
 31
0.0
  0
LINE
  5
6B4
330
6A9
100
AcDbEntity
  8
LC-001-100-D00-0
 62
     7
370
    25
100
AcDbLine
 10
-344.051536
 20
207.707565
 30
0.0
 11
-341.930197
 21
209.828904
 31
0.0
  0
LINE
  5
6B5
330
6A9
100
AcDbEntity
  8
LC-001-100-D00-0
 62
     7
370
    25
100
AcDbLine
 10
-347.74508
 20
226.464661
 30
0.0
 11
-344.74508
 21
229.464661
 31
0.0
  0
LINE
  5
6B6
330
6A9
100
AcDbEntity
  8
LC-001-100-D00-0
 62
     7
370
    25
100
AcDbLine
 10
-347.74508
 20
248.915302
 30
0.0
 11
-344.74508
 21
251.915302
 31
0.0
  0
ENDBLK
  5
6AB
330
6A9
100
AcDbEntity
  8
0
100
AcDbBlockEnd
  0
BLOCK
  5
6B9
330
6B8
100
AcDbEntity
  8
0
100
AcDbBlockBegin
  2
KLON33
 70
     0
 71
     0
 10
0.0
 20
0.0
 30
0.0
  3
KLON33
  1

  4
KLON33
  0
LINE
  5
6BB
330
6B8
100
AcDbEntity
  8
LC-001-100-D00-0
 62
     7
370
    25
100
AcDbLine
 10
-163.976606
 20
253.07866
 30
0.0
 11
-161.826607
 21
255.22866
 31
0.0
  0
LINE
  5
6BC
330
6B8
100
AcDbEntity
  8
LC-001-100-D00-0
 62
     7
370
    25
100
AcDbLine
 10
-160.247474
 20
256.807793
 30
0.0
 11
-159.559523
 21
257.495744
 31
0.0
  0
LINE
  5
6BD
330
6B8
100
AcDbEntity
  8
LC-001-100-D00-0
 62
     7
370
    25
100
AcDbLine
 10
-186.427246
 20
253.07866
 30
0.0
 11
-179.245283
 21
260.260624
 31
0.0
  0
ENDBLK
  5
6BA
330
6B8
100
AcDbEntity
  8
0
100
AcDbBlockEnd
  0
BLOCK
  5
6C1
330
6C0
100
AcDbEntity
  8
0
100
AcDbBlockBegin
  2
KLON34
 70
     0
 71
     0
 10
0.0
 20
0.0
 30
0.0
  3
KLON34
  1

  4
KLON34
  0
LINE
  5
6C3
330
6C0
100
AcDbEntity
  8
LC-001-100-D00-0
 62
     7
370
    25
100
AcDbLine
 10
-208.377885
 20
253.57866
 30
0.0
 11
-205.74508
 21
256.211466
 31
0.0
  0
LINE
  5
6C4
330
6C0
100
AcDbEntity
  8
LC-001-100-D00-0
 62
     7
370
    25
100
AcDbLine
 10
-204.377886
 20
257.57866
 30
0.0
 11
-201.377886
 21
260.57866
 31
0.0
  0
ENDBLK
  5
6C2
330
6C0
100
AcDbEntity
  8
0
100
AcDbBlockEnd
  0
BLOCK
  5
6C9
330
6C8
100
AcDbEntity
  8
0
100
AcDbBlockBegin
  2
KLON35
 70
     0
 71
     0
 10
0.0
 20
0.0
 30
0.0
  3
KLON35
  1

  4
KLON35
  0
LINE
  5
6CB
330
6C8
100
AcDbEntity
  8
LC-001-100-D00-0
 62
     7
370
    25
100
AcDbLine
 10
-168.533631
 20
270.972276
 30
0.0
 11
-163.99508
 21
275.510828
 31
0.0
  0
LINE
  5
6CC
330
6C8
100
AcDbEntity
  8
LC-001-100-D00-0
 62
     7
370
    25
100
AcDbLine
 10
-158.49508
 20
281.010828
 30
0.0
 11
-155.49508
 21
284.010828
 31
0.0
  0
ENDBLK
  5
6CA
330
6C8
100
AcDbEntity
  8
0
100
AcDbBlockEnd
  0
BLOCK
  5
6D1
330
6D0
100
AcDbEntity
  8
0
100
AcDbBlockBegin
  2
KLON36
 70
     0
 71
     0
 10
0.0
 20
0.0
 30
0.0
  3
KLON36
  1

  4
KLON36
  0
LINE
  5
6D3
330
6D0
100
AcDbEntity
  8
LC-001-100-D00-0
 62
     7
370
    25
100
AcDbLine
 10
-368.54508
 20
273.016583
 30
0.0
 11
-363.99508
 21
277.566583
 31
0.0
  0
LINE
  5
6D4
330
6D0
100
AcDbEntity
  8
LC-001-100-D00-0
 62
     7
370
    25
100
AcDbLine
 10
-358.49508
 20
283.066584
 30
0.0
 11
-355.49508
 21
286.066584
 31
0.0
  0
ENDBLK
  5
6D2
330
6D0
100
AcDbEntity
  8
0
100
AcDbBlockEnd
  0
BLOCK
  5
6D9
330
6D8
100
AcDbEntity
  8
0
100
AcDbBlockBegin
  2
KLON37
 70
     0
 71
     0
 10
0.0
 20
0.0
 30
0.0
  3
KLON37
  1

  4
KLON37
  0
LINE
  5
6DB
330
6D8
100
AcDbEntity
  8
LC-001-100-D00-0
 62
     7
370
    50
100
AcDbLine
 10
101.45492
 20
271.553154
 30
0.0
 11
106.00492
 21
276.103154
 31
0.0
  0
LINE
  5
6DC
330
6D8
100
AcDbEntity
  8
LC-001-100-D00-0
 62
     7
370
    50
100
AcDbLine
 10
111.50492
 20
281.603154
 30
0.0
 11
114.50492
 21
284.603155
 31
0.0
  0
ENDBLK
  5
6DA
330
6D8
100
AcDbEntity
  8
0
100
AcDbBlockEnd
  0
BLOCK
  5
6E1
330
6E0
100
AcDbEntity
  8
0
100
AcDbBlockBegin
  2
KLON38
 70
     0
 71
     0
 10
0.0
 20
0.0
 30
0.0
  3
KLON38
  1

  4
KLON38
  0
LINE
  5
6E3
330
6E0
100
AcDbEntity
  8
LC-001-100-D00-0
 62
     7
370
    25
100
AcDbLine
 10
-503.54508
 20
272.72042
 30
0.0
 11
-498.99508
 21
277.27042
 31
0.0
  0
LINE
  5
6E4
330
6E0
100
AcDbEntity
  8
LC-001-100-D00-0
 62
     7
370
    25
100
AcDbLine
 10
-493.49508
 20
282.770421
 30
0.0
 11
-490.49508
 21
285.770421
 31
0.0
  0
ENDBLK
  5
6E2
330
6E0
100
AcDbEntity
  8
0
100
AcDbBlockEnd
  0
BLOCK
  5
6E9
330
6E8
100
AcDbEntity
  8
0
100
AcDbBlockBegin
  2
KLON39
 70
     0
 71
     0
 10
0.0
 20
0.0
 30
0.0
  3
KLON39
  1

  4
KLON39
  0
LINE
  5
6EB
330
6E8
100
AcDbEntity
  8
LC-001-100-D00-0
 62
     7
370
    25
100
AcDbLine
 10
-638.54508
 20
272.424257
 30
0.0
 11
-633.99508
 21
276.974257
 31
0.0
  0
LINE
  5
6EC
330
6E8
100
AcDbEntity
  8
LC-001-100-D00-0
 62
     7
370
    25
100
AcDbLine
 10
-628.49508
 20
282.474257
 30
0.0
 11
-625.49508
 21
285.474258
 31
0.0
  0
ENDBLK
  5
6EA
330
6E8
100
AcDbEntity
  8
0
100
AcDbBlockEnd
  0
BLOCK
  5
6F1
330
6F0
100
AcDbEntity
  8
0
100
AcDbBlockBegin
  2
KLON40
 70
     0
 71
     0
 10
0.0
 20
0.0
 30
0.0
  3
KLON40
  1

  4
KLON40
  0
LINE
  5
6F3
330
6F0
100
AcDbEntity
  8
LC-001-100-D00-0
 62
     7
370
    50
100
AcDbLine
 10
-33.54508
 20
271.256991
 30
0.0
 11
-28.99508
 21
275.806991
 31
0.0
  0
LINE
  5
6F4
330
6F0
100
AcDbEntity
  8
LC-001-100-D00-0
 62
     7
370
    50
100
AcDbLine
 10
-23.49508
 20
281.306991
 30
0.0
 11
-20.49508
 21
284.306992
 31
0.0
  0
ENDBLK
  5
6F2
330
6F0
100
AcDbEntity
  8
0
100
AcDbBlockEnd
  0
ENDSEC
  0
SECTION
  2
ENTITIES
  0
LINE
  5
31
330
1F
100
AcDbEntity
  8
LC-001-100-D00-0
 62
     7
370
    50
100
AcDbLine
 10
533.419327
 20
286.07866
 30
0.0
 11
533.419327
 21
284.67866
 31
0.0
  0
LINE
  5
32
330
1F
100
AcDbEntity
  8
LC-001-100-D00-0
 62
     7
370
    50
100
AcDbLine
 10
542.419327
 20
284.67866
 30
0.0
 11
542.419328
 21
286.07866
 31
0.0
  0
LINE
  5
33
330
1F
100
AcDbEntity
  8
LC-001-100-D00-0
 62
     7
370
    50
100
AcDbLine
 10
463.419325
 20
286.07866
 30
0.0
 11
463.419327
 21
284.67866
 31
0.0
  0
LINE
  5
34
330
1F
100
AcDbEntity
  8
LC-001-100-D00-0
 62
     7
370
    50
100
AcDbLine
 10
472.419327
 20
284.67866
 30
0.0
 11
472.419326
 21
286.07866
 31
0.0
  0
LINE
  5
35
330
1F
100
AcDbEntity
  8
LC-001-100-D00-0
 62
     7
370
    50
100
AcDbLine
 10
533.919326
 20
284.67866
 30
0.0
 11
533.919327
 21
271.07866
 31
0.0
  0
LINE
  5
36
330
1F
100
AcDbEntity
  8
LC-001-100-D00-0
 62
     7
370
    50
100
AcDbLine
 10
541.919327
 20
271.07866
 30
0.0
 11
541.919327
 21
284.67866
 31
0.0
  0
LINE
  5
37
330
1F
100
AcDbEntity
  8
LC-001-100-D00-0
 62
     7
370
    50
100
AcDbLine
 10
463.919326
 20
284.67866
 30
0.0
 11
463.919327
 21
271.07866
 31
0.0
  0
LINE
  5
38
330
1F
100
AcDbEntity
  8
LC-001-100-D00-0
 62
     7
370
    50
100
AcDbLine
 10
471.919327
 20
271.07866
 30
0.0
 11
471.919327
 21
284.67866
 31
0.0
  0
ARC
  5
39
330
1F
100
AcDbEntity
  8
LC-001-100-D00-0
 62
     7
370
    50
100
AcDbCircle
 10
558.419327
 20
160.57866
 30
0.0
 40
0.5
100
AcDbArc
 50
90.0
 51
180.0
  0
ARC
  5
3A
330
1F
100
AcDbEntity
  8
LC-001-100-D00-0
 62
     7
370
    50
100
AcDbCircle
 10
576.419327
 20
160.57866
 30
0.0
 40
0.5
100
AcDbArc
 50
0.0
 51
90.0
  0
LINE
  5
3B
330
1F
100
AcDbEntity
  8
LC-001-100-D00-0
 62
     7
370
    50
100
AcDbLine
 10
557.919327
 20
160.57866
 30
0.0
 11
557.919327
 21
153.07866
 31
0.0
  0
LINE
  5
3C
330
1F
100
AcDbEntity
  8
LC-001-100-D00-0
 62
     7
370
    50
100
AcDbLine
 10
576.919327
 20
153.07866
 30
0.0
 11
576.919327
 21
160.57866
 31
0.0
  0
LINE
  5
3D
330
1F
100
AcDbEntity
  8
LC-001-100-D00-0
 62
     7
370
    50
100
AcDbLine
 10
557.419325
 20
230.078659
 30
0.0
 11
557.419327
 21
176.07866
 31
0.0
  0
LINE
  5
3E
330
1F
100
AcDbEntity
  8
LC-001-100-D00-0
 62
     7
370
    50
100
AcDbLine
 10
577.419327
 20
176.07866
 30
0.0
 11
577.419329
 21
230.078659
 31
0.0
  0
LINE
  5
3F
330
1F
100
AcDbEntity
  8
LC-001-100-D00-0
 62
     7
370
    50
100
AcDbLine
 10
557.419327
 20
162.07866
 30
0.0
 11
558.419327
 21
161.07866
 31
0.0
  0
LINE
  5
40
330
1F
100
AcDbEntity
  8
LC-001-100-D00-0
 62
     7
370
    50
100
AcDbLine
 10
576.419327
 20
161.07866
 30
0.0
 11
577.419327
 21
162.07866
 31
0.0
  0
LINE
  5
41
330
1F
100
AcDbEntity
  8
LC-001-100-D00-0
 62
     7
370
    50
100
AcDbLine
 10
557.419327
 20
172.57866
 30
0.0
 11
557.419327
 21
162.07866
 31
0.0
  0
LINE
  5
42
330
1F
100
AcDbEntity
  8
LC-001-100-D00-0
 62
     7
370
    50
100
AcDbLine
 10
577.419327
 20
162.07866
 30
0.0
 11
577.419327
 21
172.57866
 31
0.0
  0
LINE
  5
43
330
1F
100
AcDbEntity
  8
LC-001-100-D00-0
 62
     7
370
    50
100
AcDbLine
 10
559.519327
 20
176.078658
 30
0.0
 11
559.519327
 21
172.578658
 31
0.0
  0
LINE
  5
44
330
1F
100
AcDbEntity
  8
LC-001-100-D00-0
 62
     7
370
    50
100
AcDbLine
 10
575.31933
 20
172.578658
 30
0.0
 11
575.31933
 21
176.078658
 31
0.0
  0
ARC
  5
45
330
1F
100
AcDbEntity
  8
LC-001-100-D00-0
 62
     7
370
    50
100
AcDbCircle
 10
542.319327
 20
261.67866
 30
0.0
 40
0.5999999999999091
100
AcDbArc
 50
270.0
 51
0.0
  0
ARC
  5
46
330
1F
100
AcDbEntity
  8
LC-001-100-D00-0
 62
     7
370
    50
100
AcDbCircle
 10
533.519327
 20
261.67866
 30
0.0
 40
0.5999999999999091
100
AcDbArc
 50
180.0
 51
270.0
  0
LINE
  5
47
330
1F
100
AcDbEntity
  8
LC-001-100-D00-0
 62
     7
370
    50
100
AcDbLine
 10
542.919327
 20
261.67866
 30
0.0
 11
542.919326
 21
265.078659
 31
0.0
  0
LINE
  5
48
330
1F
100
AcDbEntity
  8
LC-001-100-D00-0
 62
     7
370
    50
100
AcDbLine
 10
532.919326
 20
265.078659
 30
0.0
 11
532.919327
 21
261.67866
 31
0.0
  0
LINE
  5
49
330
1F
100
AcDbEntity
  8
LC-001-100-D00-0
 62
     7
370
    50
100
AcDbLine
 10
540.919325
 20
270.07866
 30
0.0
 11
540.919325
 21
271.07866
 31
0.0
  0
LINE
  5
4A
330
1F
100
AcDbEntity
  8
LC-001-100-D00-0
 62
     7
370
    50
100
AcDbLine
 10
534.919328
 20
271.07866
 30
0.0
 11
534.919328
 21
270.07866
 31
0.0
  0
ARC
  5
4B
330
1F
100
AcDbEntity
  8
LC-001-100-D00-0
 62
     7
370
    50
100
AcDbCircle
 10
472.319327
 20
261.67866
 30
0.0
 40
0.5999999999999091
100
AcDbArc
 50
270.0
 51
0.0
  0
ARC
  5
4C
330
1F
100
AcDbEntity
  8
LC-001-100-D00-0
 62
     7
370
    50
100
AcDbCircle
 10
463.519327
 20
261.67866
 30
0.0
 40
0.5999999999999091
100
AcDbArc
 50
180.0
 51
270.0
  0
LINE
  5
4D
330
1F
100
AcDbEntity
  8
LC-001-100-D00-0
 62
     7
370
    50
100
AcDbLine
 10
472.919327
 20
261.67866
 30
0.0
 11
472.919327
 21
265.078659
 31
0.0
  0
LINE
  5
4E
330
1F
100
AcDbEntity
  8
LC-001-100-D00-0
 62
     7
370
    50
100
AcDbLine
 10
462.919328
 20
265.078659
 30
0.0
 11
462.919327
 21
261.67866
 31
0.0
  0
LINE
  5
4F
330
1F
100
AcDbEntity
  8
LC-001-100-D00-0
 62
     7
370
    50
100
AcDbLine
 10
470.919325
 20
270.07866
 30
0.0
 11
470.919325
 21
271.07866
 31
0.0
  0
LINE
  5
50
330
1F
100
AcDbEntity
  8
LC-001-100-D00-0
 62
     7
370
    50
100
AcDbLine
 10
464.919328
 20
271.07866
 30
0.0
 11
464.919328
 21
270.07866
 31
0.0
  0
LINE
  5
51
330
1F
100
AcDbEntity
  8
LC-001-100-D00-0
 62
     7
370
    50
100
AcDbLine
 10
473.419327
 20
265.07866
 30
0.0
 11
473.419326
 21
267.07866
 31
0.0
  0
LINE
  5
52
330
1F
100
AcDbEntity
  8
LC-001-100-D00-0
 62
     7
370
    50
100
AcDbLine
 10
462.419327
 20
267.07866
 30
0.0
 11
462.419327
 21
265.07866
 31
0.0
  0
LINE
  5
53
330
1F
100
AcDbEntity
  8
LC-001-100-D00-0
 62
     7
370
    50
100
AcDbLine
 10
543.419327
 20
265.07866
 30
0.0
 11
543.419327
 21
267.07866
 31
0.0
  0
LINE
  5
54
330
1F
100
AcDbEntity
  8
LC-001-100-D00-0
 62
     7
370
    50
100
AcDbLine
 10
532.419327
 20
267.07866
 30
0.0
 11
532.419327
 21
265.07866
 31
0.0
  0
LINE
  5
55
330
1F
100
AcDbEntity
  8
LC-001-100-D00-0
 62
     7
370
    50
100
AcDbLine
 10
575.419327
 20
287.57866
 30
0.0
 11
580.419327
 21
287.57866
 31
0.0
  0
LINE
  5
56
330
1F
100
AcDbEntity
  8
LC-001-100-D00-0
 62
     7
370
    50
100
AcDbLine
 10
580.419327
 20
287.57866
 30
0.0
 11
580.419327
 21
286.07866
 31
0.0
  0
LINE
  5
57
330
1F
100
AcDbEntity
  8
LC-001-100-D00-0
 62
     7
370
    50
100
AcDbLine
 10
580.419327
 20
286.07866
 30
0.0
 11
575.419327
 21
286.07866
 31
0.0
  0
ARC
  5
58
330
1F
100
AcDbEntity
  8
LC-001-100-D00-0
 62
     7
370
    50
100
AcDbCircle
 10
459.919327
 20
289.07866
 30
0.0
 40
1.500000000000227
100
AcDbArc
 50
180.0
 51
270.0
  0
LINE
  5
59
330
1F
100
AcDbEntity
  8
LC-001-100-D00-0
 62
     7
370
    50
100
AcDbLine
 10
459.919327
 20
287.57866
 30
0.0
 11
575.419327
 21
287.57866
 31
0.0
  0
LINE
  5
5A
330
1F
100
AcDbEntity
  8
LC-001-100-D00-0
 62
     7
370
    50
100
AcDbLine
 10
459.419327
 20
286.07866
 30
0.0
 11
575.419327
 21
286.07866
 31
0.0
  0
ARC
  5
5B
330
1F
100
AcDbEntity
  8
LC-001-100-D00-0
 62
     7
370
    50
100
AcDbCircle
 10
459.419327
 20
288.57866
 30
0.0
 40
2.5
100
AcDbArc
 50
180.0
 51
270.0
  0
LINE
  5
5C
330
1F
100
AcDbEntity
  8
LC-001-100-D00-0
 62
     7
370
    50
100
AcDbLine
 10
456.919327
 20
288.57866
 30
0.0
 11
456.919327
 21
332.57866
 31
0.0
  0
LINE
  5
5D
330
1F
100
AcDbEntity
  8
LC-001-100-D00-0
 62
     7
370
    50
100
AcDbLine
 10
458.419327
 20
332.57866
 30
0.0
 11
458.419327
 21
289.07866
 31
0.0
  0
LINE
  5
5E
330
1F
100
AcDbEntity
  8
LC-001-100-D00-0
 62
     7
370
    50
100
AcDbLine
 10
456.919327
 20
337.57866
 30
0.0
 11
458.419327
 21
337.57866
 31
0.0
  0
LINE
  5
5F
330
1F
100
AcDbEntity
  8
LC-001-100-D00-0
 62
     7
370
    50
100
AcDbLine
 10
456.919327
 20
332.57866
 30
0.0
 11
456.919327
 21
337.57866
 31
0.0
  0
LINE
  5
60
330
1F
100
AcDbEntity
  8
LC-001-100-D00-0
 62
     7
370
    50
100
AcDbLine
 10
458.419327
 20
337.57866
 30
0.0
 11
458.419327
 21
332.57866
 31
0.0
  0
ARC
  5
61
330
1F
100
AcDbEntity
  8
LC-001-100-D00-0
 62
     7
370
    50
100
AcDbCircle
 10
531.919327
 20
284.57866
 30
0.0
 40
1.500000000000227
100
AcDbArc
 50
90.0
 51
180.0
  0
ARC
  5
62
330
1F
100
AcDbEntity
  8
LC-001-100-D00-0
 62
     7
370
    50
100
AcDbCircle
 10
473.919327
 20
284.57866
 30
0.0
 40
1.5
100
AcDbArc
 50
0.0
 51
90.0
  0
LINE
  5
63
330
1F
100
AcDbEntity
  8
LC-001-100-D00-0
 62
     7
370
    50
100
AcDbLine
 10
515.252736
 20
265.578661
 30
0.0
 11
526.419327
 21
265.57866
 31
0.0
  0
LINE
  5
64
330
1F
100
AcDbEntity
  8
LC-001-100-D00-0
 62
     7
370
    50
100
AcDbLine
 10
515.074521
 20
265.578661
 30
0.0
 11
515.252736
 21
265.578661
 31
0.0
  0
LINE
  5
65
330
1F
100
AcDbEntity
  8
LC-001-100-D00-0
 62
     7
370
    50
100
AcDbLine
 10
515.074521
 20
265.578661
 30
0.0
 11
490.764132
 21
265.578661
 31
0.0
  0
LINE
  5
66
330
1F
100
AcDbEntity
  8
LC-001-100-D00-0
 62
     7
370
    50
100
AcDbLine
 10
490.585918
 20
265.578661
 30
0.0
 11
490.764132
 21
265.578661
 31
0.0
  0
LINE
  5
67
330
1F
100
AcDbEntity
  8
LC-001-100-D00-0
 62
     7
370
    50
100
AcDbLine
 10
479.419327
 20
265.57866
 30
0.0
 11
490.585918
 21
265.578661
 31
0.0
  0
LINE
  5
68
330
1F
100
AcDbEntity
  8
LC-001-100-D00-0
 62
     7
370
    50
100
AcDbLine
 10
475.419327
 20
275.07866
 30
0.0
 11
475.419327
 21
284.57866
 31
0.0
  0
LINE
  5
69
330
1F
100
AcDbEntity
  8
LC-001-100-D00-0
 62
     7
370
    50
100
AcDbLine
 10
530.419327
 20
284.57866
 30
0.0
 11
530.419327
 21
275.07866
 31
0.0
  0
ARC
  5
6A
330
1F
100
AcDbEntity
  8
LC-001-100-D00-0
 62
     7
370
    50
100
AcDbCircle
 10
479.419327
 20
269.57866
 30
0.0
 40
3.999999999999773
100
AcDbArc
 50
180.0
 51
270.0
  0
LINE
  5
6B
330
1F
100
AcDbEntity
  8
LC-001-100-D00-0
 62
     7
370
    50
100
AcDbLine
 10
475.419327
 20
275.07866
 30
0.0
 11
475.419327
 21
269.57866
 31
0.0
  0
ARC
  5
6C
330
1F
100
AcDbEntity
  8
LC-001-100-D00-0
 62
     7
370
    50
100
AcDbCircle
 10
526.419327
 20
269.57866
 30
0.0
 40
4.000000000014552
100
AcDbArc
 50
270.0
 51
0.0
  0
LINE
  5
6D
330
1F
100
AcDbEntity
  8
LC-001-100-D00-0
 62
     7
370
    50
100
AcDbLine
 10
530.419327
 20
269.57866
 30
0.0
 11
530.419327
 21
275.07866
 31
0.0
  0
ARC
  5
6E
330
1F
100
AcDbEntity
  8
LC-001-100-D00-0
 62
     7
370
    50
100
AcDbCircle
 10
526.419327
 20
264.57866
 30
0.0
 40
4.0
100
AcDbArc
 50
270.0
 51
0.0
  0
LINE
  5
6F
330
1F
100
AcDbEntity
  8
LC-001-100-D00-0
 62
     7
370
    50
100
AcDbLine
 10
530.419327
 20
269.57866
 30
0.0
 11
530.419326
 21
264.57866
 31
0.0
  0
ARC
  5
70
330
1F
100
AcDbEntity
  8
LC-001-100-D00-0
 62
     7
370
    50
100
AcDbCircle
 10
479.419327
 20
264.57866
 30
0.0
 40
4.000000000045475
100
AcDbArc
 50
180.0
 51
270.0
  0
LINE
  5
71
330
1F
100
AcDbEntity
  8
LC-001-100-D00-0
 62
     7
370
    50
100
AcDbLine
 10
475.419327
 20
264.57866
 30
0.0
 11
475.419327
 21
269.57866
 31
0.0
  0
LINE
  5
72
330
1F
100
AcDbEntity
  8
LC-001-100-D00-0
 62
     7
370
    50
100
AcDbLine
 10
526.419326
 20
260.57866
 30
0.0
 11
523.570295
 21
260.57866
 31
0.0
  0
ARC
  5
73
330
1F
100
AcDbEntity
  8
LC-001-100-D00-0
 62
     7
370
    50
100
AcDbCircle
 10
498.325021
 20
263.07866
 30
0.0
 40
2.5
100
AcDbArc
 50
90.0
 51
108.434949
  0
LINE
  5
74
330
1F
100
AcDbEntity
  8
LC-001-100-D00-0
 62
     7
370
    50
100
AcDbLine
 10
497.534451
 20
265.450369
 30
0.0
 11
497.533368
 21
265.450008
 31
0.0
  0
LINE
  5
75
330
1F
100
AcDbEntity
  8
LC-001-100-D00-0
 62
     7
370
    50
100
AcDbLine
 10
508.305286
 20
265.450008
 30
0.0
 11
508.304202
 21
265.450369
 31
0.0
  0
ARC
  5
76
330
1F
100
AcDbEntity
  8
LC-001-100-D00-0
 62
     7
370
    50
100
AcDbCircle
 10
507.513632
 20
263.07866
 30
0.0
 40
2.499999999999846
100
AcDbArc
 50
71.565051
 51
90.0
  0
LINE
  5
77
330
1F
100
AcDbEntity
  8
LC-001-100-D00-0
 62
     7
370
    50
100
AcDbLine
 10
482.268359
 20
260.57866
 30
0.0
 11
479.419327
 21
260.57866
 31
0.0
  0
LINE
  5
78
330
1F
100
AcDbEntity
  8
LC-001-100-D00-0
 62
     7
370
    50
100
AcDbLine
 10
523.570295
 20
260.57866
 30
0.0
 11
523.568438
 21
260.57866
 31
0.0
  0
LINE
  5
79
330
1F
100
AcDbEntity
  8
LC-001-100-D00-0
 62
     7
370
    50
100
AcDbLine
 10
523.568438
 20
260.57866
 30
0.0
 11
522.303526
 21
260.783927
 31
0.0
  0
LINE
  5
7A
330
1F
100
AcDbEntity
  8
LC-001-100-D00-0
 62
     7
370
    50
100
AcDbLine
 10
522.303526
 20
260.783927
 30
0.0
 11
522.301446
 21
260.78462
 31
0.0
  0
LINE
  5
7B
330
1F
100
AcDbEntity
  8
LC-001-100-D00-0
 62
     7
370
    50
100
AcDbLine
 10
482.270216
 20
260.57866
 30
0.0
 11
483.535127
 21
260.783927
 31
0.0
  0
LINE
  5
7C
330
1F
100
AcDbEntity
  8
LC-001-100-D00-0
 62
     7
370
    50
100
AcDbLine
 10
482.270216
 20
260.57866
 30
0.0
 11
482.268359
 21
260.57866
 31
0.0
  0
LINE
  5
7D
330
1F
100
AcDbEntity
  8
LC-001-100-D00-0
 62
     7
370
    50
100
AcDbLine
 10
483.537207
 20
260.78462
 30
0.0
 11
483.535127
 21
260.783927
 31
0.0
  0
LINE
  5
7E
330
1F
100
AcDbEntity
  8
LC-001-100-D00-0
 62
     7
370
    50
100
AcDbLine
 10
522.301446
 20
260.78462
 30
0.0
 11
508.305286
 21
265.450008
 31
0.0
  0
LINE
  5
7F
330
1F
100
AcDbEntity
  8
LC-001-100-D00-0
 62
     7
370
    50
100
AcDbLine
 10
497.533368
 20
265.450008
 30
0.0
 11
483.537207
 21
260.78462
 31
0.0
  0
LINE
  5
80
330
1F
100
AcDbEntity
  8
LC-001-100-D00-0
 62
     7
370
    50
100
AcDbLine
 10
554.419327
 20
284.07866
 30
0.0
 11
580.419327
 21
284.07866
 31
0.0
  0
LINE
  5
81
330
1F
100
AcDbEntity
  8
LC-001-100-D00-0
 62
     7
370
    50
100
AcDbLine
 10
554.419327
 20
286.07866
 30
0.0
 11
554.419327
 21
284.07866
 31
0.0
  0
LINE
  5
82
330
1F
100
AcDbEntity
  8
LC-001-100-D00-0
 62
     7
370
    50
100
AcDbLine
 10
580.419327
 20
286.07866
 30
0.0
 11
580.419327
 21
284.07866
 31
0.0
  0
LINE
  5
83
330
1F
100
AcDbEntity
  8
LC-001-100-D00-0
 62
     7
370
    50
100
AcDbLine
 10
554.419327
 20
282.07866
 30
0.0
 11
554.419327
 21
284.07866
 31
0.0
  0
LINE
  5
84
330
1F
100
AcDbEntity
  8
LC-001-100-D00-0
 62
     7
370
    50
100
AcDbLine
 10
580.419327
 20
284.07866
 30
0.0
 11
580.419327
 21
282.07866
 31
0.0
  0
LINE
  5
85
330
1F
100
AcDbEntity
  8
LC-001-100-D00-0
 62
     7
370
    50
100
AcDbLine
 10
554.419327
 20
282.07866
 30
0.0
 11
554.419327
 21
260.97866
 31
0.0
  0
LINE
  5
86
330
1F
100
AcDbEntity
  8
LC-001-100-D00-0
 62
     7
370
    50
100
AcDbLine
 10
580.419327
 20
282.07866
 30
0.0
 11
580.419327
 21
260.97866
 31
0.0
  0
LINE
  5
87
330
1F
100
AcDbEntity
  8
LC-001-100-D00-0
 62
     7
370
    50
100
AcDbLine
 10
580.419327
 20
256.97866
 30
0.0
 11
577.978934
 21
256.97866
 31
0.0
  0
LINE
  5
88
330
1F
100
AcDbEntity
  8
LC-001-100-D00-0
 62
     7
370
    50
100
AcDbLine
 10
556.85972
 20
256.97866
 30
0.0
 11
554.419327
 21
256.97866
 31
0.0
  0
LINE
  5
89
330
1F
100
AcDbEntity
  8
LC-001-100-D00-0
 62
     7
370
    50
100
AcDbLine
 10
554.419327
 20
256.97866
 30
0.0
 11
554.419327
 21
260.97866
 31
0.0
  0
LINE
  5
8A
330
1F
100
AcDbEntity
  8
LC-001-100-D00-0
 62
     7
370
    50
100
AcDbLine
 10
580.419327
 20
260.97866
 30
0.0
 11
580.419327
 21
256.97866
 31
0.0
  0
LINE
  5
8B
330
1F
100
AcDbEntity
  8
LC-001-100-D00-0
 62
     7
370
    50
100
AcDbLine
 10
483.989467
 20
260.57866
 30
0.0
 11
482.270216
 21
260.57866
 31
0.0
  0
LINE
  5
8C
330
1F
100
AcDbEntity
  8
LC-001-100-D00-0
 62
     7
370
    50
100
AcDbLine
 10
523.568438
 20
260.57866
 30
0.0
 11
521.849186
 21
260.57866
 31
0.0
  0
LINE
  5
8D
330
1F
100
AcDbEntity
  8
LC-001-100-D00-0
 62
     7
370
    50
100
AcDbLine
 10
521.849186
 20
260.57866
 30
0.0
 11
483.989467
 21
260.57866
 31
0.0
  0
LINE
  5
8E
330
1F
100
AcDbEntity
  8
LC-001-100-D00-0
 62
     7
370
    50
100
AcDbLine
 10
542.419327
 20
284.67866
 30
0.0
 11
533.419327
 21
284.67866
 31
0.0
  0
LINE
  5
8F
330
1F
100
AcDbEntity
  8
LC-001-100-D00-0
 62
     7
370
    50
100
AcDbLine
 10
463.419327
 20
284.67866
 30
0.0
 11
472.419327
 21
284.67866
 31
0.0
  0
LINE
  5
90
330
1F
100
AcDbEntity
  8
LC-001-100-D00-0
 62
     7
370
    50
100
AcDbLine
 10
541.919327
 20
271.07866
 30
0.0
 11
533.919327
 21
271.07866
 31
0.0
  0
LINE
  5
91
330
1F
100
AcDbEntity
  8
LC-001-100-D00-0
 62
     7
370
    50
100
AcDbLine
 10
463.919327
 20
271.07866
 30
0.0
 11
471.919327
 21
271.07866
 31
0.0
  0
LINE
  5
92
330
1F
100
AcDbEntity
  8
LC-001-100-D00-0
 62
     7
370
    50
100
AcDbLine
 10
558.577403
 20
161.078665
 30
0.0
 11
576.28722
 21
161.078665
 31
0.0
  0
LINE
  5
93
330
1F
100
AcDbEntity
  8
LC-001-100-D00-0
 62
     7
370
    50
100
AcDbLine
 10
569.357046
 20
153.07866
 30
0.0
 11
557.919327
 21
153.07866
 31
0.0
  0
LINE
  5
94
330
1F
100
AcDbEntity
  8
LC-001-100-D00-0
 62
     7
370
    50
100
AcDbLine
 10
576.919327
 20
153.07866
 30
0.0
 11
569.357046
 21
153.07866
 31
0.0
  0
LINE
  5
95
330
1F
100
AcDbEntity
  8
LC-001-100-D00-0
 62
     7
370
    50
100
AcDbLine
 10
555.419327
 20
255.07866
 30
0.0
 11
555.419325
 21
256.97866
 31
0.0
  0
LINE
  5
96
330
1F
100
AcDbEntity
  8
LC-001-100-D00-0
 62
     7
370
    50
100
AcDbLine
 10
557.804467
 20
257.07866
 30
0.0
 11
561.419327
 21
257.07866
 31
0.0
  0
LINE
  5
97
330
1F
100
AcDbEntity
  8
LC-001-100-D00-0
 62
     7
370
    50
100
AcDbLine
 10
561.419327
 20
255.07866
 30
0.0
 11
555.419327
 21
255.07866
 31
0.0
  0
LINE
  5
98
330
1F
100
AcDbEntity
  8
LC-001-100-D00-0
 62
     7
370
    50
100
AcDbLine
 10
573.419327
 20
255.07866
 30
0.0
 11
561.419327
 21
255.07866
 31
0.0
  0
LINE
  5
99
330
1F
100
AcDbEntity
  8
LC-001-100-D00-0
 62
     7
370
    50
100
AcDbLine
 10
573.419327
 20
257.07866
 30
0.0
 11
561.419327
 21
257.07866
 31
0.0
  0
LINE
  5
9A
330
1F
100
AcDbEntity
  8
LC-001-100-D00-0
 62
     7
370
    50
100
AcDbLine
 10
579.419325
 20
256.97866
 30
0.0
 11
579.419327
 21
255.07866
 31
0.0
  0
LINE
  5
9B
330
1F
100
AcDbEntity
  8
LC-001-100-D00-0
 62
     7
370
    50
100
AcDbLine
 10
579.419327
 20
255.07866
 30
0.0
 11
573.419327
 21
255.07866
 31
0.0
  0
LINE
  5
9C
330
1F
100
AcDbEntity
  8
LC-001-100-D00-0
 62
     7
370
    50
100
AcDbLine
 10
573.419327
 20
257.07866
 30
0.0
 11
577.034186
 21
257.07866
 31
0.0
  0
LINE
  5
9D
330
1F
100
AcDbEntity
  8
LC-001-100-D00-0
 62
     7
370
    50
100
AcDbLine
 10
570.919327
 20
230.07866
 30
0.0
 11
563.919327
 21
230.07866
 31
0.0
  0
LINE
  5
9E
330
1F
100
AcDbEntity
  8
LC-001-100-D00-0
 62
     7
370
    50
100
AcDbLine
 10
575.919327
 20
230.07866
 30
0.0
 11
570.919327
 21
230.07866
 31
0.0
  0
LINE
  5
9F
330
1F
100
AcDbEntity
  8
LC-001-100-D00-0
 62
     7
370
    50
100
AcDbLine
 10
563.919327
 20
230.07866
 30
0.0
 11
558.919327
 21
230.07866
 31
0.0
  0
LINE
  5
A0
330
1F
100
AcDbEntity
  8
LC-001-100-D00-0
 62
     7
370
    50
100
AcDbLine
 10
555.419327
 20
230.07866
 30
0.0
 11
555.419327
 21
255.07866
 31
0.0
  0
LINE
  5
A1
330
1F
100
AcDbEntity
  8
LC-001-100-D00-0
 62
     7
370
    50
100
AcDbLine
 10
558.919327
 20
230.07866
 30
0.0
 11
555.419327
 21
230.07866
 31
0.0
  0
LINE
  5
A2
330
1F
100
AcDbEntity
  8
LC-001-100-D00-0
 62
     7
370
    50
100
AcDbLine
 10
579.419327
 20
255.07866
 30
0.0
 11
579.419327
 21
230.07866
 31
0.0
  0
LINE
  5
A3
330
1F
100
AcDbEntity
  8
LC-001-100-D00-0
 62
     7
370
    50
100
AcDbLine
 10
579.419327
 20
230.07866
 30
0.0
 11
575.919327
 21
230.07866
 31
0.0
  0
LINE
  5
A4
330
1F
100
AcDbEntity
  8
LC-001-100-D00-0
 62
     7
370
    50
100
AcDbLine
 10
557.419327
 20
176.07866
 30
0.0
 11
577.419327
 21
176.07866
 31
0.0
  0
LINE
  5
A5
330
1F
100
AcDbEntity
  8
LC-001-100-D00-0
 62
     7
370
    50
100
AcDbLine
 10
569.459031
 20
162.07866
 30
0.0
 11
577.419327
 21
162.07866
 31
0.0
  0
LINE
  5
A6
330
1F
100
AcDbEntity
  8
LC-001-100-D00-0
 62
     7
370
    50
100
AcDbLine
 10
557.419327
 20
162.07866
 30
0.0
 11
569.459031
 21
162.07866
 31
0.0
  0
LINE
  5
A7
330
1F
100
AcDbEntity
  8
LC-001-100-D00-0
 62
     7
370
    50
100
AcDbLine
 10
569.255061
 20
161.07866
 30
0.0
 11
558.419327
 21
161.07866
 31
0.0
  0
LINE
  5
A8
330
1F
100
AcDbEntity
  8
LC-001-100-D00-0
 62
     7
370
    50
100
AcDbLine
 10
576.419327
 20
161.07866
 30
0.0
 11
569.255061
 21
161.07866
 31
0.0
  0
LINE
  5
A9
330
1F
100
AcDbEntity
  8
LC-001-100-D00-0
 62
     7
370
    50
100
AcDbLine
 10
557.419327
 20
172.57866
 30
0.0
 11
577.419327
 21
172.57866
 31
0.0
  0
LINE
  5
AA
330
1F
100
AcDbEntity
  8
LC-001-100-D00-0
 62
     7
370
    50
100
AcDbLine
 10
537.919327
 20
261.07866
 30
0.0
 11
533.519327
 21
261.07866
 31
0.0
  0
LINE
  5
AB
330
1F
100
AcDbEntity
  8
LC-001-100-D00-0
 62
     7
370
    50
100
AcDbLine
 10
542.319327
 20
261.07866
 30
0.0
 11
537.919327
 21
261.07866
 31
0.0
  0
LINE
  5
AC
330
1F
100
AcDbEntity
  8
LC-001-100-D00-0
 62
     7
370
    50
100
AcDbLine
 10
467.919327
 20
261.07866
 30
0.0
 11
463.519327
 21
261.07866
 31
0.0
  0
LINE
  5
AD
330
1F
100
AcDbEntity
  8
LC-001-100-D00-0
 62
     7
370
    50
100
AcDbLine
 10
472.319327
 20
261.07866
 30
0.0
 11
467.919327
 21
261.07866
 31
0.0
  0
LINE
  5
AE
330
1F
100
AcDbEntity
  8
LC-001-100-D00-0
 62
     7
370
    50
100
AcDbLine
 10
467.419327
 20
267.07866
 30
0.0
 11
462.419327
 21
267.07866
 31
0.0
  0
LINE
  5
AF
330
1F
100
AcDbEntity
  8
LC-001-100-D00-0
 62
     7
370
    50
100
AcDbLine
 10
462.419327
 20
267.07866
 30
0.0
 11
462.419327
 21
270.07866
 31
0.0
  0
LINE
  5
B0
330
1F
100
AcDbEntity
  8
LC-001-100-D00-0
 62
     7
370
    50
100
AcDbLine
 10
462.419327
 20
270.07866
 30
0.0
 11
467.419327
 21
270.07866
 31
0.0
  0
LINE
  5
B1
330
1F
100
AcDbEntity
  8
LC-001-100-D00-0
 62
     7
370
    50
100
AcDbLine
 10
543.419327
 20
270.07866
 30
0.0
 11
543.419327
 21
267.07866
 31
0.0
  0
LINE
  5
B2
330
1F
100
AcDbEntity
  8
LC-001-100-D00-0
 62
     7
370
    50
100
AcDbLine
 10
543.419327
 20
267.07866
 30
0.0
 11
538.419327
 21
267.07866
 31
0.0
  0
LINE
  5
B3
330
1F
100
AcDbEntity
  8
LC-001-100-D00-0
 62
     7
370
    50
100
AcDbLine
 10
538.419327
 20
270.07866
 30
0.0
 11
543.419327
 21
270.07866
 31
0.0
  0
LINE
  5
B4
330
1F
100
AcDbEntity
  8
LC-001-100-D00-0
 62
     7
370
    50
100
AcDbLine
 10
530.419326
 20
270.07866
 30
0.0
 11
538.419327
 21
270.07866
 31
0.0
  0
LINE
  5
B5
330
1F
100
AcDbEntity
  8
LC-001-100-D00-0
 62
     7
370
    50
100
AcDbLine
 10
530.419326
 20
267.07866
 30
0.0
 11
538.419327
 21
267.07866
 31
0.0
  0
LINE
  5
B6
330
1F
100
AcDbEntity
  8
LC-001-100-D00-0
 62
     7
370
    50
100
AcDbLine
 10
467.419327
 20
267.07866
 30
0.0
 11
475.419327
 21
267.07866
 31
0.0
  0
LINE
  5
B7
330
1F
100
AcDbEntity
  8
LC-001-100-D00-0
 62
     7
370
    50
100
AcDbLine
 10
467.419327
 20
270.07866
 30
0.0
 11
475.419327
 21
270.07866
 31
0.0
  0
LINE
  5
B8
330
1F
100
AcDbEntity
  8
LC-001-100-D00-0
 62
     7
370
    50
100
AcDbLine
 10
540.866135
 20
256.82866
 30
0.0
 11
464.972518
 21
256.82866
 31
0.0
  0
LINE
  5
B9
330
1F
100
AcDbEntity
  8
LC-001-100-D00-0
 62
     7
370
    50
100
AcDbLine
 10
543.419327
 20
271.07866
 30
0.0
 11
543.419327
 21
270.07866
 31
0.0
  0
LINE
  5
BA
330
1F
100
AcDbEntity
  8
LC-001-100-D00-0
 62
     7
370
    50
100
AcDbLine
 10
462.419327
 20
270.07866
 30
0.0
 11
462.419327
 21
271.07866
 31
0.0
  0
LINE
  5
BB
330
1F
100
AcDbEntity
  8
LC-001-100-D00-0
 62
     7
370
    50
100
AcDbLine
 10
462.419327
 20
271.07866
 30
0.0
 11
462.419327
 21
286.07866
 31
0.0
  0
LINE
  5
BC
330
1F
100
AcDbEntity
  8
LC-001-100-D00-0
 62
     7
370
    50
100
AcDbLine
 10
543.419327
 20
265.07866
 30
0.0
 11
543.419327
 21
256.82866
 31
0.0
  0
LINE
  5
BD
330
1F
100
AcDbEntity
  8
LC-001-100-D00-0
 62
     7
370
    50
100
AcDbLine
 10
543.419327
 20
256.82866
 30
0.0
 11
540.866135
 21
256.82866
 31
0.0
  0
LINE
  5
BE
330
1F
100
AcDbEntity
  8
LC-001-100-D00-0
 62
     7
370
    50
100
AcDbLine
 10
543.419327
 20
286.07866
 30
0.0
 11
543.419327
 21
271.07866
 31
0.0
  0
LINE
  5
BF
330
1F
100
AcDbEntity
  8
LC-001-100-D00-0
 62
     7
370
    50
100
AcDbLine
 10
462.419327
 20
256.82866
 30
0.0
 11
462.419327
 21
265.07866
 31
0.0
  0
LINE
  5
C0
330
1F
100
AcDbEntity
  8
LC-001-100-D00-0
 62
     7
370
    50
100
AcDbLine
 10
464.972518
 20
256.82866
 30
0.0
 11
462.419327
 21
256.82866
 31
0.0
  0
LINE
  5
C1
330
1F
100
AcDbEntity
  8
LC-001-100-D00-0
 62
     7
370
    50
100
AcDbLine
 10
464.972518
 20
256.82866
 30
0.0
 11
540.866135
 21
256.82866
 31
0.0
  0
LINE
  5
C2
330
1F
100
AcDbEntity
  8
LC-001-100-D00-0
 62
     7
370
    50
100
AcDbLine
 10
529.96188
 20
204.07866
 30
0.0
 11
475.876773
 21
204.07866
 31
0.0
  0
LINE
  5
C3
330
1F
100
AcDbEntity
  8
LC-001-100-D00-0
 62
     7
370
    50
100
AcDbLine
 10
523.434924
 20
197.57866
 30
0.0
 11
482.403729
 21
197.57866
 31
0.0
  0
LINE
  5
C4
330
1F
100
AcDbEntity
  8
LC-001-100-D00-0
 62
     7
370
    50
100
AcDbLine
 10
543.419327
 20
256.82866
 30
0.0
 11
543.419327
 21
216.57866
 31
0.0
  0
LINE
  5
C5
330
1F
100
AcDbEntity
  8
LC-001-100-D00-0
 62
     7
370
    50
100
AcDbLine
 10
540.866135
 20
256.82866
 30
0.0
 11
543.419327
 21
256.82866
 31
0.0
  0
ARC
  5
C6
330
1F
100
AcDbEntity
  8
LC-001-100-D00-0
 62
     7
370
    50
100
AcDbCircle
 10
530.919327
 20
216.57866
 30
0.0
 40
12.50000000000046
100
AcDbArc
 50
270.0
 51
0.0
  0
LINE
  5
C7
330
1F
100
AcDbEntity
  8
LC-001-100-D00-0
 62
     7
370
    50
100
AcDbLine
 10
530.919327
 20
204.07866
 30
0.0
 11
529.96188
 21
204.07866
 31
0.0
  0
ARC
  5
C8
330
1F
100
AcDbEntity
  8
LC-001-100-D00-0
 62
     7
370
    50
100
AcDbCircle
 10
474.919327
 20
216.57866
 30
0.0
 40
12.5
100
AcDbArc
 50
180.0
 51
270.0
  0
LINE
  5
C9
330
1F
100
AcDbEntity
  8
LC-001-100-D00-0
 62
     7
370
    50
100
AcDbLine
 10
475.876773
 20
204.07866
 30
0.0
 11
474.919327
 21
204.07866
 31
0.0
  0
LINE
  5
CA
330
1F
100
AcDbEntity
  8
LC-001-100-D00-0
 62
     7
370
    50
100
AcDbLine
 10
462.419327
 20
216.57866
 30
0.0
 11
462.419327
 21
256.82866
 31
0.0
  0
LINE
  5
CB
330
1F
100
AcDbEntity
  8
LC-001-100-D00-0
 62
     7
370
    50
100
AcDbLine
 10
462.419327
 20
256.82866
 30
0.0
 11
464.972518
 21
256.82866
 31
0.0
  0
ARC
  5
CC
330
1F
100
AcDbEntity
  8
LC-001-100-D00-0
 62
     7
370
    50
100
AcDbCircle
 10
482.401447
 20
204.57866
 30
0.0
 40
7.00000000000032
100
AcDbArc
 50
184.096044
 51
270.0
  0
LINE
  5
CD
330
1F
100
AcDbEntity
  8
LC-001-100-D00-0
 62
     7
370
    50
100
AcDbLine
 10
482.403729
 20
197.57866
 30
0.0
 11
482.401447
 21
197.57866
 31
0.0
  0
ARC
  5
CE
330
1F
100
AcDbEntity
  8
LC-001-100-D00-0
 62
     7
370
    50
100
AcDbCircle
 10
523.437207
 20
204.57866
 30
0.0
 40
7.0
100
AcDbArc
 50
270.0
 51
355.903956
  0
LINE
  5
CF
330
1F
100
AcDbEntity
  8
LC-001-100-D00-0
 62
     7
370
    50
100
AcDbLine
 10
523.437207
 20
197.57866
 30
0.0
 11
523.434924
 21
197.57866
 31
0.0
  0
LINE
  5
D0
330
1F
100
AcDbEntity
  8
LC-001-100-D00-0
 62
     7
370
    50
100
AcDbLine
 10
467.919327
 20
265.07866
 30
0.0
 11
473.419327
 21
265.07866
 31
0.0
  0
LINE
  5
D1
330
1F
100
AcDbEntity
  8
LC-001-100-D00-0
 62
     7
370
    50
100
AcDbLine
 10
462.419327
 20
265.07866
 30
0.0
 11
467.919327
 21
265.07866
 31
0.0
  0
LINE
  5
D2
330
1F
100
AcDbEntity
  8
LC-001-100-D00-0
 62
     7
370
    50
100
AcDbLine
 10
537.919327
 20
265.07866
 30
0.0
 11
543.419327
 21
265.07866
 31
0.0
  0
LINE
  5
D3
330
1F
100
AcDbEntity
  8
LC-001-100-D00-0
 62
     7
370
    50
100
AcDbLine
 10
532.419327
 20
265.07866
 30
0.0
 11
537.919327
 21
265.07866
 31
0.0
  0
DIMENSION
  5
D6
330
1F
100
AcDbEntity
  8
LC-001-100-D00-0
 62
     7
370
    25
100
AcDbDimension
  2
*D1
 10
543.419327
 20
133.363869
 30
0.0
 11
636.993006
 21
188.363869
 31
0.0
 70
   160
  1
81
 71
     5
 42
81.0
  3
LC-DIM-L-0100-02-02
100
AcDbAlignedDimension
 13
462.419327
 23
216.57866
 33
0.0
 14
543.419327
 24
216.57866
 34
0.0
100
AcDbRotatedDimension
  0
LINE
  5
E6
330
1F
100
AcDbEntity
  8
LC-001-100-D00-0
  6
DASHDOT
 62
     7
370
    25
100
AcDbLine
 10
502.919327
 20
197.57866
 30
0.0
 11
502.919327
 21
287.57866
 31
0.0
  0
LINE
  5
E7
330
1F
100
AcDbEntity
  8
LC-001-100-D00-0
  6
DASHDOT
 62
     7
370
    25
100
AcDbLine
 10
567.419327
 20
166.07866
 30
0.0
 11
567.419327
 21
290.07866
 31
0.0
  0
LINE
  5
E8
330
1F
100
AcDbEntity
  8
LC-001-100-D00-0
 62
     7
370
    50
100
AcDbLine
 10
176.254932
 20
16.048869
 30
0.0
 11
176.254932
 21
14.548869
 31
0.0
  0
LINE
  5
E9
330
1F
100
AcDbEntity
  8
LC-001-100-D00-0
 62
     7
370
    50
100
AcDbLine
 10
176.254932
 20
14.548869
 30
0.0
 11
171.254932
 21
14.548869
 31
0.0
  0
LINE
  5
EA
330
1F
100
AcDbEntity
  8
LC-001-100-D00-0
 62
     7
370
    50
100
AcDbLine
 10
171.254932
 20
16.048869
 30
0.0
 11
176.254932
 21
16.048869
 31
0.0
  0
LINE
  5
EB
330
1F
100
AcDbEntity
  8
LC-001-100-D00-0
 62
     7
370
    50
100
AcDbLine
 10
-718.745068
 20
14.548869
 30
0.0
 11
171.254932
 21
14.548869
 31
0.0
  0
LINE
  5
EC
330
1F
100
AcDbEntity
  8
LC-001-100-D00-0
 62
     7
370
    50
100
AcDbLine
 10
-718.745068
 20
16.048869
 30
0.0
 11
171.254932
 21
16.048869
 31
0.0
  0
LINE
  5
ED
330
1F
100
AcDbEntity
  8
LC-001-100-D00-0
 62
     7
370
    50
100
AcDbLine
 10
-723.745068
 20
14.548869
 30
0.0
 11
-723.745068
 21
16.048869
 31
0.0
  0
LINE
  5
EE
330
1F
100
AcDbEntity
  8
LC-001-100-D00-0
 62
     7
370
    50
100
AcDbLine
 10
-718.745068
 20
14.548869
 30
0.0
 11
-723.745068
 21
14.548869
 31
0.0
  0
LINE
  5
EF
330
1F
100
AcDbEntity
  8
LC-001-100-D00-0
 62
     7
370
    50
100
AcDbLine
 10
-723.745068
 20
16.048869
 30
0.0
 11
-718.745068
 21
16.048869
 31
0.0
  0
LINE
  5
F0
330
1F
100
AcDbEntity
  8
LC-001-100-D00-0
 62
     7
370
    50
100
AcDbLine
 10
-723.745068
 20
13.048869
 30
0.0
 11
-723.745068
 21
14.548869
 31
0.0
  0
LINE
  5
F1
330
1F
100
AcDbEntity
  8
LC-001-100-D00-0
 62
     7
370
    50
100
AcDbLine
 10
176.254932
 20
14.548869
 30
0.0
 11
176.254932
 21
13.048869
 31
0.0
  0
ARC
  5
F2
330
1F
100
AcDbEntity
  8
LC-001-100-D00-0
 62
     7
370
    50
100
AcDbCircle
 10
123.754932
 20
-53.451131
 30
0.0
 40
2.5
100
AcDbArc
 50
270.0
 51
0.0
  0
ARC
  5
F3
330
1F
100
AcDbEntity
  8
LC-001-100-D00-0
 62
     7
370
    50
100
AcDbCircle
 10
123.754932
 20
-6.451131
 30
0.0
 40
2.5
100
AcDbArc
 50
0.0
 51
90.0
  0
LINE
  5
F4
330
1F
100
AcDbEntity
  8
LC-001-100-D00-0
 62
     7
370
    50
100
AcDbLine
 10
126.254932
 20
-53.451131
 30
0.0
 11
126.254932
 21
-6.451131
 31
0.0
  0
LINE
  5
F5
330
1F
100
AcDbEntity
  8
LC-001-100-D00-0
 62
     7
370
    50
100
AcDbLine
 10
123.754932
 20
-55.951131
 30
0.0
 11
-671.245068
 21
-55.951131
 31
0.0
  0
LINE
  5
F6
330
1F
100
AcDbEntity
  8
LC-001-100-D00-0
 62
     7
370
    50
100
AcDbLine
 10
-671.245068
 20
-3.951131
 30
0.0
 11
123.754932
 21
-3.951131
 31
0.0
  0
ARC
  5
F7
330
1F
100
AcDbEntity
  8
LC-001-100-D00-0
 62
     7
370
    50
100
AcDbCircle
 10
-671.245068
 20
-6.451131
 30
0.0
 40
2.5
100
AcDbArc
 50
90.0
 51
180.0
  0
ARC
  5
F8
330
1F
100
AcDbEntity
  8
LC-001-100-D00-0
 62
     7
370
    50
100
AcDbCircle
 10
-671.245068
 20
-53.451131
 30
0.0
 40
2.5
100
AcDbArc
 50
180.0
 51
270.0
  0
LINE
  5
F9
330
1F
100
AcDbEntity
  8
LC-001-100-D00-0
 62
     7
370
    50
100
AcDbLine
 10
-673.745068
 20
-53.451131
 30
0.0
 11
-673.745068
 21
-6.451131
 31
0.0
  0
ARC
  5
FA
330
1F
100
AcDbEntity
  8
LC-001-100-D00-0
 62
     7
370
    50
100
AcDbCircle
 10
171.254932
 20
-102.451131
 30
0.0
 40
5.0
100
AcDbArc
 50
270.0
 51
0.0
  0
LINE
  5
FB
330
1F
100
AcDbEntity
  8
LC-001-100-D00-0
 62
     7
370
    50
100
AcDbLine
 10
-718.745068
 20
-107.451131
 30
0.0
 11
171.254932
 21
-107.451131
 31
0.0
  0
ARC
  5
FC
330
1F
100
AcDbEntity
  8
LC-001-100-D00-0
 62
     7
370
    50
100
AcDbCircle
 10
-718.745068
 20
-102.451131
 30
0.0
 40
5.0
100
AcDbArc
 50
180.0
 51
270.0
  0
LINE
  5
FD
330
1F
100
AcDbEntity
  8
LC-001-100-D00-0
 62
     7
370
    50
100
AcDbLine
 10
-723.745068
 20
13.048869
 30
0.0
 11
-723.745068
 21
-102.451131
 31
0.0
  0
LINE
  5
FE
330
1F
100
AcDbEntity
  8
LC-001-100-D00-0
 62
     7
370
    50
100
AcDbLine
 10
176.254932
 20
13.048869
 30
0.0
 11
176.254932
 21
-102.451131
 31
0.0
  0
CIRCLE
  5
FF
330
1F
100
AcDbEntity
  8
LC-001-100-D00-0
 62
     7
370
    50
100
AcDbCircle
 10
96.254932
 20
-29.951131
 30
0.0
 40
3.000000000000114
  0
CIRCLE
  5
100
330
1F
100
AcDbEntity
  8
LC-001-100-D00-0
 62
     7
370
    50
100
AcDbCircle
 10
-38.745068
 20
-29.951131
 30
0.0
 40
3.000000000000114
  0
CIRCLE
  5
101
330
1F
100
AcDbEntity
  8
LC-001-100-D00-0
 62
     7
370
    50
100
AcDbCircle
 10
-173.745068
 20
-29.951131
 30
0.0
 40
3.000000000000114
  0
CIRCLE
  5
102
330
1F
100
AcDbEntity
  8
LC-001-100-D00-0
 62
     7
370
    50
100
AcDbCircle
 10
-373.745068
 20
-29.951131
 30
0.0
 40
3.000000000000114
  0
CIRCLE
  5
103
330
1F
100
AcDbEntity
  8
LC-001-100-D00-0
 62
     7
370
    50
100
AcDbCircle
 10
-508.745068
 20
-29.951131
 30
0.0
 40
3.000000000000114
  0
CIRCLE
  5
104
330
1F
100
AcDbEntity
  8
LC-001-100-D00-0
 62
     7
370
    50
100
AcDbCircle
 10
-643.745068
 20
-29.951131
 30
0.0
 40
3.000000000000114
  0
LINE
  5
105
330
1F
100
AcDbEntity
  8
LC-001-100-D00-0
 62
     7
370
    50
100
AcDbLine
 10
118.228755
 20
-42.2738
 30
0.0
 11
118.228755
 21
-53.45113
 31
0.0
  0
INSERT
  5
10C
330
1F
100
AcDbEntity
  8
LC-001-100-D00-0
 62
     7
370
    50
100
AcDbBlockReference
  2
KLON1
 10
0.0
 20
0.0
 30
0.0
  0
INSERT
  5
114
330
1F
100
AcDbEntity
  8
LC-001-100-D00-0
 62
     7
370
    50
100
AcDbBlockReference
  2
KLON2
 10
0.0
 20
0.0
 30
0.0
  0
LINE
  5
115
330
1F
100
AcDbEntity
  8
LC-001-100-D00-0
 62
     7
370
    50
100
AcDbLine
 10
118.228755
 20
-6.46577
 30
0.0
 11
118.228755
 21
-17.628462
 31
0.0
  0
INSERT
  5
11B
330
1F
100
AcDbEntity
  8
LC-001-100-D00-0
 62
     7
370
    50
100
AcDbBlockReference
  2
KLON3
 10
0.0
 20
0.0
 30
0.0
  0
INSERT
  5
121
330
1F
100
AcDbEntity
  8
LC-001-100-D00-0
 62
     7
370
    50
100
AcDbBlockReference
  2
KLON4
 10
0.0
 20
0.0
 30
0.0
  0
INSERT
  5
127
330
1F
100
AcDbEntity
  8
LC-001-100-D00-0
 62
     7
370
    50
100
AcDbBlockReference
  2
KLON5
 10
0.0
 20
0.0
 30
0.0
  0
INSERT
  5
12D
330
1F
100
AcDbEntity
  8
LC-001-100-D00-0
 62
     7
370
    50
100
AcDbBlockReference
  2
KLON6
 10
0.0
 20
0.0
 30
0.0
  0
LINE
  5
12E
330
1F
100
AcDbEntity
  8
LC-001-100-D00-0
 62
     7
370
    50
100
AcDbLine
 10
-665.718892
 20
-6.46577
 30
0.0
 11
-665.718892
 21
-17.628462
 31
0.0
  0
INSERT
  5
136
330
1F
100
AcDbEntity
  8
LC-001-100-D00-0
 62
     7
370
    50
100
AcDbBlockReference
  2
KLON7
 10
0.0
 20
0.0
 30
0.0
  0
INSERT
  5
13D
330
1F
100
AcDbEntity
  8
LC-001-100-D00-0
 62
     7
370
    50
100
AcDbBlockReference
  2
KLON8
 10
0.0
 20
0.0
 30
0.0
  0
LINE
  5
13E
330
1F
100
AcDbEntity
  8
LC-001-100-D00-0
 62
     7
370
    50
100
AcDbLine
 10
-665.718892
 20
-42.2738
 30
0.0
 11
-665.718892
 21
-53.45113
 31
0.0
  0
ELLIPSE
  5
13F
330
1F
100
AcDbEntity
  8
LC-001-100-D00-0
 62
     7
370
    50
100
AcDbEllipse
 10
118.181963
 20
-53.451131
 30
0.0
 11
0.0
 21
-2.5
 31
0.0
210
0.0
220
0.0
230
1.0
 40
0.018242
 41
3.141592653590105
 42
4.712388980377411
  0
ELLIPSE
  5
140
330
1F
100
AcDbEntity
  8
LC-001-100-D00-0
 62
     7
370
    50
100
AcDbEllipse
 10
186.727569
 20
-53.451131
 30
0.0
 11
68.50000000000283
 21
0.0
 31
0.0
210
0.0
220
0.0
230
1.0
 40
0.036496
 41
3.141592653597609
 42
3.169858841660885
  0
ELLIPSE
  5
141
330
1F
100
AcDbEntity
  8
LC-001-100-D00-0
 62
     7
370
    50
100
AcDbEllipse
 10
-18.818037
 20
-53.451131
 30
0.0
 11
0.0
 21
-2.500000000089407
 31
0.0
210
0.0
220
0.0
230
1.0
 40
0.018242
 41
3.141592653589871
 42
4.712388980380876
  0
ELLIPSE
  5
142
330
1F
100
AcDbEntity
  8
LC-001-100-D00-0
 62
     7
370
    50
100
AcDbEllipse
 10
-665.6721
 20
-53.451131
 30
0.0
 11
0.0
 21
-2.499999816894525
 31
0.0
210
0.0
220
0.0
230
0.9999999999999999
 40
0.018242
 41
1.570796326802218
 42
3.141592653602257
  0
ELLIPSE
  5
143
330
1F
100
AcDbEntity
  8
LC-001-100-D00-0
 62
     7
370
    50
100
AcDbEllipse
 10
-528.6721
 20
-53.451131
 30
0.0
 11
0.0
 21
-2.4999996948242
 31
0.0
210
0.0
220
0.0
230
1.0
 40
0.018242
 41
1.570796326798626
 42
3.141592653592286
  0
ELLIPSE
  5
144
330
1F
100
AcDbEntity
  8
LC-001-100-D00-0
 62
     7
370
    50
100
AcDbEllipse
 10
-734.217705
 20
-53.451131
 30
0.0
 11
68.50000000979874
 21
0.0
 31
0.0
210
0.0
220
0.0
230
1.0
 40
0.036496
 41
6.254919119109258
 42
6.283185307179541
  0
ELLIPSE
  5
145
330
1F
100
AcDbEntity
  8
LC-001-100-D00-0
 62
     7
370
    50
100
AcDbEllipse
 10
186.727569
 20
-6.451131
 30
0.0
 11
68.5000000024494
 21
0.0
 31
0.0
210
0.0
220
0.0
230
0.9999999999999999
 40
0.036496
 41
3.14159265359002
 42
3.147448628039788
  0
ELLIPSE
  5
146
330
1F
100
AcDbEntity
  8
LC-001-100-D00-0
 62
     7
370
    50
100
AcDbEllipse
 10
118.181963
 20
-6.451131
 30
0.0
 11
0.0
 21
-2.499998901366946
 31
0.0
210
0.0
220
0.0
230
1.0
 40
0.018242
 41
4.712388980384599
 42
6.283185334007285
  0
ELLIPSE
  5
147
330
1F
100
AcDbEntity
  8
LC-001-100-D00-0
 62
     7
370
    50
100
AcDbEllipse
 10
-734.217705
 20
-6.451131
 30
0.0
 11
68.50000000816398
 21
0.0
 31
0.0
210
0.0
220
0.0
230
1.0
 40
0.036496
 41
6.277329332730488
 42
6.28318530717954
  0
ELLIPSE
  5
148
330
1F
100
AcDbEntity
  8
LC-001-100-D00-0
 62
     7
370
    50
100
AcDbEllipse
 10
-665.6721
 20
-6.451131
 30
0.0
 11
0.0
 21
-2.499999877929684
 31
0.0
210
0.0
220
0.0
230
1.0
 40
0.018242
 41
6.283185280339122
 42
7.853981633974483
  0
ELLIPSE
  5
149
330
1F
100
AcDbEntity
  8
LC-001-100-D00-0
 62
     7
370
    50
100
AcDbEllipse
 10
-18.818037
 20
-6.451131
 30
0.0
 11
0.0
 21
-2.500000000089407
 31
0.0
210
0.0
220
0.0
230
1.0
 40
0.018242
 41
4.712388980388147
 42
6.283185320149781
  0
ELLIPSE
  5
14A
330
1F
100
AcDbEntity
  8
LC-001-100-D00-0
 62
     7
370
    50
100
AcDbEllipse
 10
-528.6721
 20
-6.451131
 30
0.0
 11
0.0
 21
-2.500000061035156
 31
0.0
210
0.0
220
0.0
230
1.0
 40
0.018242
 41
6.28318529420682
 42
7.853981633970935
  0
LINE
  5
14B
330
1F
100
AcDbEntity
  8
LC-001-100-D00-0
 62
     7
370
    50
100
AcDbLine
 10
-18.772432
 20
-53.45113
 30
0.0
 11
-18.772432
 21
-50.600614
 31
0.0
  0
INSERT
  5
151
330
1F
100
AcDbEntity
  8
LC-001-100-D00-0
 62
     7
370
    50
100
AcDbBlockReference
  2
KLON9
 10
0.0
 20
0.0
 30
0.0
  0
INSERT
  5
157
330
1F
100
AcDbEntity
  8
LC-001-100-D00-0
 62
     7
370
    50
100
AcDbBlockReference
  2
KLON10
 10
0.0
 20
0.0
 30
0.0
  0
LINE
  5
158
330
1F
100
AcDbEntity
  8
LC-001-100-D00-0
 62
     7
370
    50
100
AcDbLine
 10
-528.717705
 20
-53.45113
 30
0.0
 11
-528.717705
 21
-50.600614
 31
0.0
  0
INSERT
  5
15F
330
1F
100
AcDbEntity
  8
LC-001-100-D00-0
 62
     7
370
    50
100
AcDbBlockReference
  2
KLON11
 10
0.0
 20
0.0
 30
0.0
  0
INSERT
  5
165
330
1F
100
AcDbEntity
  8
LC-001-100-D00-0
 62
     7
370
    50
100
AcDbBlockReference
  2
KLON12
 10
0.0
 20
0.0
 30
0.0
  0
INSERT
  5
16C
330
1F
100
AcDbEntity
  8
LC-001-100-D00-0
 62
     7
370
    50
100
AcDbBlockReference
  2
KLON13
 10
0.0
 20
0.0
 30
0.0
  0
INSERT
  5
173
330
1F
100
AcDbEntity
  8
LC-001-100-D00-0
 62
     7
370
    50
100
AcDbBlockReference
  2
KLON14
 10
0.0
 20
0.0
 30
0.0
  0
INSERT
  5
17A
330
1F
100
AcDbEntity
  8
LC-001-100-D00-0
 62
     7
370
    50
100
AcDbBlockReference
  2
KLON15
 10
0.0
 20
0.0
 30
0.0
  0
INSERT
  5
180
330
1F
100
AcDbEntity
  8
LC-001-100-D00-0
 62
     7
370
    50
100
AcDbBlockReference
  2
KLON16
 10
0.0
 20
0.0
 30
0.0
  0
LINE
  5
181
330
1F
100
AcDbEntity
  8
LC-001-100-D00-0
 62
     7
370
    50
100
AcDbLine
 10
-18.772432
 20
-9.301647
 30
0.0
 11
-18.772432
 21
-6.451132
 31
0.0
  0
LINE
  5
182
330
1F
100
AcDbEntity
  8
LC-001-100-D00-0
 62
     7
370
    50
100
AcDbLine
 10
-528.717705
 20
-9.301647
 30
0.0
 11
-528.717705
 21
-6.451132
 31
0.0
  0
LINE
  5
183
330
1F
100
AcDbEntity
  8
LC-001-100-D00-0
 62
     7
370
    50
100
AcDbLine
 10
-18.758156
 20
-49.806809
 30
0.0
 11
-18.758156
 21
-35.812082
 31
0.0
  0
ELLIPSE
  5
184
330
1F
100
AcDbEntity
  8
LC-001-100-D00-0
 62
     7
370
    15
100
AcDbEllipse
 10
163.484311
 20
190.602423
 30
0.0
 11
28.64933024572246
 21
1.71349494454237
 31
0.0
210
0.0
220
0.0
230
1.0
 40
0.016531
 41
6.280994665941261
 42
6.282196627518995
  0
ELLIPSE
  5
185
330
1F
100
AcDbEntity
  8
LC-001-100-D00-0
 62
     7
370
    15
100
AcDbEllipse
 10
163.484311
 20
201.970746
 30
0.0
 11
28.64933025255306
 21
-1.713494944950897
 31
0.0
210
0.0
220
0.0
230
1.0
 40
0.016531
 41
0.0009886796619136
 42
0.002190641239273
  0
LINE
  5
186
330
1F
100
AcDbEntity
  8
LC-001-100-D00-0
 62
     7
370
    50
100
AcDbLine
 10
-18.758156
 20
-24.09018
 30
0.0
 11
-18.758156
 21
-10.095453
 31
0.0
  0
ELLIPSE
  5
187
330
1F
100
AcDbEntity
  8
LC-001-100-D00-0
 62
     7
370
    15
100
AcDbEllipse
 10
118.788236
 20
190.602423
 30
0.0
 11
28.64933023615971
 21
-1.71349494397043
 31
0.0
210
0.0
220
0.0
230
1.0
 40
0.016531
 41
3.142581333254995
 42
3.143783294832874
  0
LINE
  5
188
330
1F
100
AcDbEntity
  8
LC-001-100-D00-0
 62
     7
370
    50
100
AcDbLine
 10
-528.73198
 20
-49.806809
 30
0.0
 11
-528.73198
 21
-35.812082
 31
0.0
  0
ELLIPSE
  5
189
330
1F
100
AcDbEntity
  8
LC-001-100-D00-0
 62
     7
370
    15
100
AcDbEllipse
 10
118.788236
 20
201.970746
 30
0.0
 11
28.64933027270292
 21
1.713494946156109
 31
0.0
210
0.0
220
0.0
230
0.9999999999999999
 40
0.016531
 41
3.139402012347726
 42
3.140603973924851
  0
LINE
  5
18A
330
1F
100
AcDbEntity
  8
LC-001-100-D00-0
 62
     7
370
    50
100
AcDbLine
 10
-528.73198
 20
-24.09018
 30
0.0
 11
-528.73198
 21
-10.095453
 31
0.0
  0
LINE
  5
18B
330
1F
100
AcDbEntity
  8
LC-001-100-D00-0
 62
     7
370
    50
100
AcDbLine
 10
-18.772432
 20
-50.600242
 30
0.0
 11
-18.758275
 21
-49.809672
 31
0.0
  0
LINE
  5
18C
330
1F
100
AcDbEntity
  8
LC-001-100-D00-0
 62
     7
370
    50
100
AcDbLine
 10
-18.772432
 20
-9.30202
 30
0.0
 11
-18.758275
 21
-10.09259
 31
0.0
  0
LINE
  5
18D
330
1F
100
AcDbEntity
  8
LC-001-100-D00-0
 62
     7
370
    50
100
AcDbLine
 10
-528.717705
 20
-50.600242
 30
0.0
 11
-528.731861
 21
-49.809672
 31
0.0
  0
LINE
  5
18E
330
1F
100
AcDbEntity
  8
LC-001-100-D00-0
 62
     7
370
    50
100
AcDbLine
 10
-528.717705
 20
-9.30202
 30
0.0
 11
-528.731861
 21
-10.09259
 31
0.0
  0
ARC
  5
18F
330
1F
100
AcDbEntity
  8
LC-001-100-D00-0
 62
     7
370
    50
100
AcDbCircle
 10
-243.245076
 20
-29.95111
 30
0.0
 40
24.80002105913775
100
AcDbArc
 50
270.0
 51
300.592807
  0
ARC
  5
190
330
1F
100
AcDbEntity
  8
LC-001-100-D00-0
 62
     7
370
    50
100
AcDbCircle
 10
-304.24506
 20
-29.95111
 30
0.0
 40
24.80002105913768
100
AcDbArc
 50
239.407193
 51
270.0
  0
ARC
  5
191
330
1F
100
AcDbEntity
  8
LC-001-100-D00-0
 62
     7
370
    50
100
AcDbCircle
 10
-243.245074
 20
-29.951144
 30
0.0
 40
24.80001358063621
100
AcDbArc
 50
59.407188
 51
90.0
  0
ARC
  5
192
330
1F
100
AcDbEntity
  8
LC-001-100-D00-0
 62
     7
370
    50
100
AcDbCircle
 10
-304.245063
 20
-29.951144
 30
0.0
 40
24.80001358063646
100
AcDbArc
 50
90.0
 51
120.592812
  0
LINE
  5
193
330
1F
100
AcDbEntity
  8
LC-001-100-D00-0
 62
     7
370
    50
100
AcDbLine
 10
-304.245069
 20
-5.15113
 30
0.0
 11
-243.245068
 21
-5.15113
 31
0.0
  0
LINE
  5
194
330
1F
100
AcDbEntity
  8
LC-001-100-D00-0
 62
     7
370
    50
100
AcDbLine
 10
-243.245068
 20
-54.751132
 30
0.0
 11
-304.245069
 21
-54.751132
 31
0.0
  0
LINE
  5
195
330
1F
100
AcDbEntity
  8
LC-001-100-D00-0
 62
     7
370
    50
100
AcDbLine
 10
-340.577901
 20
-26.512228
 30
0.0
 11
-340.569758
 21
-26.88012
 31
0.0
  0
LINE
  5
196
330
1F
100
AcDbEntity
  8
LC-001-100-D00-0
 62
     7
370
    50
100
AcDbLine
 10
-341.689178
 20
-25.719259
 30
0.0
 11
-340.577901
 21
-26.512228
 31
0.0
  0
LINE
  5
197
330
1F
100
AcDbEntity
  8
LC-001-100-D00-0
 62
     7
370
    50
100
AcDbLine
 10
-340.577901
 20
-24.92629
 30
0.0
 11
-341.689178
 21
-25.719259
 31
0.0
  0
LINE
  5
198
330
1F
100
AcDbEntity
  8
LC-001-100-D00-0
 62
     7
370
    50
100
AcDbLine
 10
-340.577901
 20
-24.552592
 30
0.0
 11
-340.577901
 21
-24.92629
 31
0.0
  0
LINE
  5
199
330
1F
100
AcDbEntity
  8
LC-001-100-D00-0
 62
     7
370
    50
100
AcDbLine
 10
-341.951401
 20
-25.53206
 30
0.0
 11
-340.577901
 21
-24.552592
 31
0.0
  0
LINE
  5
19A
330
1F
100
AcDbEntity
  8
LC-001-100-D00-0
 62
     7
370
    50
100
AcDbLine
 10
-343.135596
 20
-24.687208
 30
0.0
 11
-341.951401
 21
-25.53206
 31
0.0
  0
LINE
  5
19B
330
1F
100
AcDbEntity
  8
LC-001-100-D00-0
 62
     7
370
    50
100
AcDbLine
 10
-343.135596
 20
-25.060906
 30
0.0
 11
-343.135596
 21
-24.687208
 31
0.0
  0
LINE
  5
19C
330
1F
100
AcDbEntity
  8
LC-001-100-D00-0
 62
     7
370
    50
100
AcDbLine
 10
-342.212916
 20
-25.719259
 30
0.0
 11
-343.135596
 21
-25.060906
 31
0.0
  0
LINE
  5
19D
330
1F
100
AcDbEntity
  8
LC-001-100-D00-0
 62
     7
370
    50
100
AcDbLine
 10
-343.135596
 20
-26.377612
 30
0.0
 11
-342.212916
 21
-25.719259
 31
0.0
  0
LINE
  5
19E
330
1F
100
AcDbEntity
  8
LC-001-100-D00-0
 62
     7
370
    50
100
AcDbLine
 10
-343.135596
 20
-26.75131
 30
0.0
 11
-343.135596
 21
-26.377612
 31
0.0
  0
LINE
  5
19F
330
1F
100
AcDbEntity
  8
LC-001-100-D00-0
 62
     7
370
    50
100
AcDbLine
 10
-341.951401
 20
-25.905758
 30
0.0
 11
-343.135596
 21
-26.75131
 31
0.0
  0
LINE
  5
1A0
330
1F
100
AcDbEntity
  8
LC-001-100-D00-0
 62
     7
370
    50
100
AcDbLine
 10
-340.569758
 20
-26.88012
 30
0.0
 11
-341.951401
 21
-25.905758
 31
0.0
  0
LINE
  5
1A1
330
1F
100
AcDbEntity
  8
LC-001-100-D00-0
 62
     7
370
    50
100
AcDbLine
 10
-340.577901
 20
-31.178895
 30
0.0
 11
-340.569758
 21
-31.546786
 31
0.0
  0
LINE
  5
1A2
330
1F
100
AcDbEntity
  8
LC-001-100-D00-0
 62
     7
370
    50
100
AcDbLine
 10
-341.689178
 20
-30.385926
 30
0.0
 11
-340.577901
 21
-31.178895
 31
0.0
  0
LINE
  5
1A3
330
1F
100
AcDbEntity
  8
LC-001-100-D00-0
 62
     7
370
    50
100
AcDbLine
 10
-340.577901
 20
-29.592957
 30
0.0
 11
-341.689178
 21
-30.385926
 31
0.0
  0
LINE
  5
1A4
330
1F
100
AcDbEntity
  8
LC-001-100-D00-0
 62
     7
370
    50
100
AcDbLine
 10
-340.577901
 20
-29.219259
 30
0.0
 11
-340.577901
 21
-29.592957
 31
0.0
  0
LINE
  5
1A5
330
1F
100
AcDbEntity
  8
LC-001-100-D00-0
 62
     7
370
    50
100
AcDbLine
 10
-341.951401
 20
-30.198726
 30
0.0
 11
-340.577901
 21
-29.219259
 31
0.0
  0
LINE
  5
1A6
330
1F
100
AcDbEntity
  8
LC-001-100-D00-0
 62
     7
370
    50
100
AcDbLine
 10
-343.135596
 20
-29.353874
 30
0.0
 11
-341.951401
 21
-30.198726
 31
0.0
  0
LINE
  5
1A7
330
1F
100
AcDbEntity
  8
LC-001-100-D00-0
 62
     7
370
    50
100
AcDbLine
 10
-343.135596
 20
-29.727572
 30
0.0
 11
-343.135596
 21
-29.353874
 31
0.0
  0
LINE
  5
1A8
330
1F
100
AcDbEntity
  8
LC-001-100-D00-0
 62
     7
370
    50
100
AcDbLine
 10
-342.212916
 20
-30.385926
 30
0.0
 11
-343.135596
 21
-29.727572
 31
0.0
  0
LINE
  5
1A9
330
1F
100
AcDbEntity
  8
LC-001-100-D00-0
 62
     7
370
    50
100
AcDbLine
 10
-343.135596
 20
-31.044279
 30
0.0
 11
-342.212916
 21
-30.385926
 31
0.0
  0
LINE
  5
1AA
330
1F
100
AcDbEntity
  8
LC-001-100-D00-0
 62
     7
370
    50
100
AcDbLine
 10
-343.135596
 20
-31.417977
 30
0.0
 11
-343.135596
 21
-31.044279
 31
0.0
  0
LINE
  5
1AB
330
1F
100
AcDbEntity
  8
LC-001-100-D00-0
 62
     7
370
    50
100
AcDbLine
 10
-341.951401
 20
-30.572424
 30
0.0
 11
-343.135596
 21
-31.417977
 31
0.0
  0
LINE
  5
1AC
330
1F
100
AcDbEntity
  8
LC-001-100-D00-0
 62
     7
370
    50
100
AcDbLine
 10
-340.569758
 20
-31.546786
 30
0.0
 11
-341.951401
 21
-30.572424
 31
0.0
  0
LINE
  5
1AD
330
1F
100
AcDbEntity
  8
LC-001-100-D00-0
 62
     7
370
    50
100
AcDbLine
 10
-340.577901
 20
-35.845561
 30
0.0
 11
-340.569758
 21
-36.213453
 31
0.0
  0
LINE
  5
1AE
330
1F
100
AcDbEntity
  8
LC-001-100-D00-0
 62
     7
370
    50
100
AcDbLine
 10
-341.689178
 20
-35.052592
 30
0.0
 11
-340.577901
 21
-35.845561
 31
0.0
  0
LINE
  5
1AF
330
1F
100
AcDbEntity
  8
LC-001-100-D00-0
 62
     7
370
    50
100
AcDbLine
 10
-340.577901
 20
-34.259624
 30
0.0
 11
-341.689178
 21
-35.052592
 31
0.0
  0
LINE
  5
1B0
330
1F
100
AcDbEntity
  8
LC-001-100-D00-0
 62
     7
370
    50
100
AcDbLine
 10
-340.577901
 20
-33.885926
 30
0.0
 11
-340.577901
 21
-34.259624
 31
0.0
  0
LINE
  5
1B1
330
1F
100
AcDbEntity
  8
LC-001-100-D00-0
 62
     7
370
    50
100
AcDbLine
 10
-341.951401
 20
-34.865393
 30
0.0
 11
-340.577901
 21
-33.885926
 31
0.0
  0
LINE
  5
1B2
330
1F
100
AcDbEntity
  8
LC-001-100-D00-0
 62
     7
370
    50
100
AcDbLine
 10
-343.135596
 20
-34.020541
 30
0.0
 11
-341.951401
 21
-34.865393
 31
0.0
  0
LINE
  5
1B3
330
1F
100
AcDbEntity
  8
LC-001-100-D00-0
 62
     7
370
    50
100
AcDbLine
 10
-343.135596
 20
-34.394239
 30
0.0
 11
-343.135596
 21
-34.020541
 31
0.0
  0
LINE
  5
1B4
330
1F
100
AcDbEntity
  8
LC-001-100-D00-0
 62
     7
370
    50
100
AcDbLine
 10
-342.212916
 20
-35.052592
 30
0.0
 11
-343.135596
 21
-34.394239
 31
0.0
  0
LINE
  5
1B5
330
1F
100
AcDbEntity
  8
LC-001-100-D00-0
 62
     7
370
    50
100
AcDbLine
 10
-343.135596
 20
-35.710946
 30
0.0
 11
-342.212916
 21
-35.052592
 31
0.0
  0
LINE
  5
1B6
330
1F
100
AcDbEntity
  8
LC-001-100-D00-0
 62
     7
370
    50
100
AcDbLine
 10
-343.135596
 20
-36.084644
 30
0.0
 11
-343.135596
 21
-35.710946
 31
0.0
  0
LINE
  5
1B7
330
1F
100
AcDbEntity
  8
LC-001-100-D00-0
 62
     7
370
    50
100
AcDbLine
 10
-341.951401
 20
-35.239091
 30
0.0
 11
-343.135596
 21
-36.084644
 31
0.0
  0
LINE
  5
1B8
330
1F
100
AcDbEntity
  8
LC-001-100-D00-0
 62
     7
370
    50
100
AcDbLine
 10
-340.569758
 20
-36.213453
 30
0.0
 11
-341.951401
 21
-35.239091
 31
0.0
  0
LINE
  5
1B9
330
1F
100
AcDbEntity
  8
LC-001-100-D00-0
 62
     7
370
    50
100
AcDbLine
 10
-340.577901
 20
-38.178895
 30
0.0
 11
-340.577901
 21
-38.552592
 31
0.0
  0
LINE
  5
1BA
330
1F
100
AcDbEntity
  8
LC-001-100-D00-0
 62
     7
370
    50
100
AcDbLine
 10
-341.689178
 20
-37.385926
 30
0.0
 11
-340.577901
 21
-38.178895
 31
0.0
  0
LINE
  5
1BB
330
1F
100
AcDbEntity
  8
LC-001-100-D00-0
 62
     7
370
    50
100
AcDbLine
 10
-340.577901
 20
-36.592957
 30
0.0
 11
-341.689178
 21
-37.385926
 31
0.0
  0
LINE
  5
1BC
330
1F
100
AcDbEntity
  8
LC-001-100-D00-0
 62
     7
370
    50
100
AcDbLine
 10
-340.577901
 20
-36.219259
 30
0.0
 11
-340.577901
 21
-36.592957
 31
0.0
  0
LINE
  5
1BD
330
1F
100
AcDbEntity
  8
LC-001-100-D00-0
 62
     7
370
    50
100
AcDbLine
 10
-341.951401
 20
-37.198726
 30
0.0
 11
-340.577901
 21
-36.219259
 31
0.0
  0
LINE
  5
1BE
330
1F
100
AcDbEntity
  8
LC-001-100-D00-0
 62
     7
370
    50
100
AcDbLine
 10
-343.135596
 20
-36.353874
 30
0.0
 11
-341.951401
 21
-37.198726
 31
0.0
  0
LINE
  5
1BF
330
1F
100
AcDbEntity
  8
LC-001-100-D00-0
 62
     7
370
    50
100
AcDbLine
 10
-343.135596
 20
-36.727572
 30
0.0
 11
-343.135596
 21
-36.353874
 31
0.0
  0
LINE
  5
1C0
330
1F
100
AcDbEntity
  8
LC-001-100-D00-0
 62
     7
370
    50
100
AcDbLine
 10
-342.212916
 20
-37.385926
 30
0.0
 11
-343.135596
 21
-36.727572
 31
0.0
  0
LINE
  5
1C1
330
1F
100
AcDbEntity
  8
LC-001-100-D00-0
 62
     7
370
    50
100
AcDbLine
 10
-343.135596
 20
-38.044279
 30
0.0
 11
-342.212916
 21
-37.385926
 31
0.0
  0
LINE
  5
1C2
330
1F
100
AcDbEntity
  8
LC-001-100-D00-0
 62
     7
370
    50
100
AcDbLine
 10
-343.135596
 20
-38.417977
 30
0.0
 11
-343.135596
 21
-38.044279
 31
0.0
  0
LINE
  5
1C3
330
1F
100
AcDbEntity
  8
LC-001-100-D00-0
 62
     7
370
    50
100
AcDbLine
 10
-341.951401
 20
-37.572424
 30
0.0
 11
-343.135596
 21
-38.417977
 31
0.0
  0
LINE
  5
1C4
330
1F
100
AcDbEntity
  8
LC-001-100-D00-0
 62
     7
370
    50
100
AcDbLine
 10
-340.577901
 20
-38.552592
 30
0.0
 11
-341.951401
 21
-37.572424
 31
0.0
  0
LINE
  5
1C5
330
1F
100
AcDbEntity
  8
LC-001-100-D00-0
 62
     7
370
    50
100
AcDbLine
 10
-340.577901
 20
-33.512228
 30
0.0
 11
-340.569758
 21
-33.88012
 31
0.0
  0
LINE
  5
1C6
330
1F
100
AcDbEntity
  8
LC-001-100-D00-0
 62
     7
370
    50
100
AcDbLine
 10
-341.689178
 20
-32.719259
 30
0.0
 11
-340.577901
 21
-33.512228
 31
0.0
  0
LINE
  5
1C7
330
1F
100
AcDbEntity
  8
LC-001-100-D00-0
 62
     7
370
    50
100
AcDbLine
 10
-340.577901
 20
-31.92629
 30
0.0
 11
-341.689178
 21
-32.719259
 31
0.0
  0
LINE
  5
1C8
330
1F
100
AcDbEntity
  8
LC-001-100-D00-0
 62
     7
370
    50
100
AcDbLine
 10
-340.577901
 20
-31.552592
 30
0.0
 11
-340.577901
 21
-31.92629
 31
0.0
  0
LINE
  5
1C9
330
1F
100
AcDbEntity
  8
LC-001-100-D00-0
 62
     7
370
    50
100
AcDbLine
 10
-341.951401
 20
-32.532059
 30
0.0
 11
-340.577901
 21
-31.552592
 31
0.0
  0
LINE
  5
1CA
330
1F
100
AcDbEntity
  8
LC-001-100-D00-0
 62
     7
370
    50
100
AcDbLine
 10
-343.135596
 20
-31.687208
 30
0.0
 11
-341.951401
 21
-32.532059
 31
0.0
  0
LINE
  5
1CB
330
1F
100
AcDbEntity
  8
LC-001-100-D00-0
 62
     7
370
    50
100
AcDbLine
 10
-343.135596
 20
-32.060906
 30
0.0
 11
-343.135596
 21
-31.687208
 31
0.0
  0
LINE
  5
1CC
330
1F
100
AcDbEntity
  8
LC-001-100-D00-0
 62
     7
370
    50
100
AcDbLine
 10
-342.212916
 20
-32.719259
 30
0.0
 11
-343.135596
 21
-32.060906
 31
0.0
  0
LINE
  5
1CD
330
1F
100
AcDbEntity
  8
LC-001-100-D00-0
 62
     7
370
    50
100
AcDbLine
 10
-343.135596
 20
-33.377612
 30
0.0
 11
-342.212916
 21
-32.719259
 31
0.0
  0
LINE
  5
1CE
330
1F
100
AcDbEntity
  8
LC-001-100-D00-0
 62
     7
370
    50
100
AcDbLine
 10
-343.135596
 20
-33.75131
 30
0.0
 11
-343.135596
 21
-33.377612
 31
0.0
  0
LINE
  5
1CF
330
1F
100
AcDbEntity
  8
LC-001-100-D00-0
 62
     7
370
    50
100
AcDbLine
 10
-341.951401
 20
-32.905757
 30
0.0
 11
-343.135596
 21
-33.75131
 31
0.0
  0
LINE
  5
1D0
330
1F
100
AcDbEntity
  8
LC-001-100-D00-0
 62
     7
370
    50
100
AcDbLine
 10
-340.569758
 20
-33.88012
 30
0.0
 11
-341.951401
 21
-32.905757
 31
0.0
  0
LINE
  5
1D1
330
1F
100
AcDbEntity
  8
LC-001-100-D00-0
 62
     7
370
    50
100
AcDbLine
 10
-340.577901
 20
-28.845561
 30
0.0
 11
-340.569758
 21
-29.213453
 31
0.0
  0
LINE
  5
1D2
330
1F
100
AcDbEntity
  8
LC-001-100-D00-0
 62
     7
370
    50
100
AcDbLine
 10
-341.689178
 20
-28.052592
 30
0.0
 11
-340.577901
 21
-28.845561
 31
0.0
  0
LINE
  5
1D3
330
1F
100
AcDbEntity
  8
LC-001-100-D00-0
 62
     7
370
    50
100
AcDbLine
 10
-340.577901
 20
-27.259624
 30
0.0
 11
-341.689178
 21
-28.052592
 31
0.0
  0
LINE
  5
1D4
330
1F
100
AcDbEntity
  8
LC-001-100-D00-0
 62
     7
370
    50
100
AcDbLine
 10
-340.577901
 20
-26.885926
 30
0.0
 11
-340.577901
 21
-27.259624
 31
0.0
  0
LINE
  5
1D5
330
1F
100
AcDbEntity
  8
LC-001-100-D00-0
 62
     7
370
    50
100
AcDbLine
 10
-341.951401
 20
-27.865393
 30
0.0
 11
-340.577901
 21
-26.885926
 31
0.0
  0
LINE
  5
1D6
330
1F
100
AcDbEntity
  8
LC-001-100-D00-0
 62
     7
370
    50
100
AcDbLine
 10
-343.135596
 20
-27.020541
 30
0.0
 11
-341.951401
 21
-27.865393
 31
0.0
  0
LINE
  5
1D7
330
1F
100
AcDbEntity
  8
LC-001-100-D00-0
 62
     7
370
    50
100
AcDbLine
 10
-343.135596
 20
-27.394239
 30
0.0
 11
-343.135596
 21
-27.020541
 31
0.0
  0
LINE
  5
1D8
330
1F
100
AcDbEntity
  8
LC-001-100-D00-0
 62
     7
370
    50
100
AcDbLine
 10
-342.212916
 20
-28.052592
 30
0.0
 11
-343.135596
 21
-27.394239
 31
0.0
  0
LINE
  5
1D9
330
1F
100
AcDbEntity
  8
LC-001-100-D00-0
 62
     7
370
    50
100
AcDbLine
 10
-343.135596
 20
-28.710946
 30
0.0
 11
-342.212916
 21
-28.052592
 31
0.0
  0
LINE
  5
1DA
330
1F
100
AcDbEntity
  8
LC-001-100-D00-0
 62
     7
370
    50
100
AcDbLine
 10
-343.135596
 20
-29.084644
 30
0.0
 11
-343.135596
 21
-28.710946
 31
0.0
  0
LINE
  5
1DB
330
1F
100
AcDbEntity
  8
LC-001-100-D00-0
 62
     7
370
    50
100
AcDbLine
 10
-341.951401
 20
-28.239091
 30
0.0
 11
-343.135596
 21
-29.084644
 31
0.0
  0
LINE
  5
1DC
330
1F
100
AcDbEntity
  8
LC-001-100-D00-0
 62
     7
370
    50
100
AcDbLine
 10
-340.569758
 20
-29.213453
 30
0.0
 11
-341.951401
 21
-28.239091
 31
0.0
  0
ARC
  5
1DD
330
1F
100
AcDbEntity
  8
LC-001-100-D00-0
 62
     7
370
    50
100
AcDbCircle
 10
-243.245068
 20
-29.951131
 30
0.0
 40
24.79999999999453
100
AcDbArc
 50
300.592814
 51
59.407186
  0
ARC
  5
1DE
330
1F
100
AcDbEntity
  8
LC-001-100-D00-0
 62
     7
370
    50
100
AcDbCircle
 10
-304.245068
 20
-29.951131
 30
0.0
 40
24.79999999999453
100
AcDbArc
 50
120.592814
 51
239.407186
  0
ARC
  5
1DF
330
1F
100
AcDbEntity
  8
LC-001-100-D00-0
 62
     7
370
    50
100
AcDbCircle
 10
-495.495068
 20
-16.701131
 30
0.0
 40
5.0
100
AcDbArc
 50
0.0
 51
90.0
  0
ARC
  5
1E0
330
1F
100
AcDbEntity
  8
LC-001-100-D00-0
 62
     7
370
    50
100
AcDbCircle
 10
-495.495068
 20
-43.201131
 30
0.0
 40
5.0
100
AcDbArc
 50
270.0
 51
0.0
  0
LINE
  5
1E1
330
1F
100
AcDbEntity
  8
LC-001-100-D00-0
 62
     7
370
    50
100
AcDbLine
 10
-490.495068
 20
-16.701131
 30
0.0
 11
-490.495068
 21
-43.201131
 31
0.0
  0
CIRCLE
  5
1E2
330
1F
100
AcDbEntity
  8
LC-001-100-D00-0
 62
     7
370
    50
100
AcDbCircle
 10
-508.745068
 20
-29.951131
 30
0.0
 40
3.899999999999864
  0
LINE
  5
1E3
330
1F
100
AcDbEntity
  8
LC-001-100-D00-0
 62
     7
370
    50
100
AcDbLine
 10
-521.995068
 20
-11.701131
 30
0.0
 11
-495.495068
 21
-11.701131
 31
0.0
  0
LINE
  5
1E4
330
1F
100
AcDbEntity
  8
LC-001-100-D00-0
 62
     7
370
    50
100
AcDbLine
 10
-495.495068
 20
-48.201131
 30
0.0
 11
-521.995068
 21
-48.201131
 31
0.0
  0
ARC
  5
1E5
330
1F
100
AcDbEntity
  8
LC-001-100-D00-0
 62
     7
370
    50
100
AcDbCircle
 10
-521.995068
 20
-16.701131
 30
0.0
 40
5.0
100
AcDbArc
 50
90.0
 51
180.0
  0
ARC
  5
1E6
330
1F
100
AcDbEntity
  8
LC-001-100-D00-0
 62
     7
370
    50
100
AcDbCircle
 10
-521.995068
 20
-43.201131
 30
0.0
 40
5.0
100
AcDbArc
 50
180.0
 51
270.0
  0
LINE
  5
1E7
330
1F
100
AcDbEntity
  8
LC-001-100-D00-0
 62
     7
370
    50
100
AcDbLine
 10
-526.995068
 20
-43.201131
 30
0.0
 11
-526.995068
 21
-16.701131
 31
0.0
  0
ARC
  5
1E8
330
1F
100
AcDbEntity
  8
LC-001-100-D00-0
 62
     7
370
    50
100
AcDbCircle
 10
109.504932
 20
-43.201131
 30
0.0
 40
5.0
100
AcDbArc
 50
270.0
 51
0.0
  0
ARC
  5
1E9
330
1F
100
AcDbEntity
  8
LC-001-100-D00-0
 62
     7
370
    50
100
AcDbCircle
 10
109.504932
 20
-16.701131
 30
0.0
 40
5.0
100
AcDbArc
 50
0.0
 51
90.0
  0
LINE
  5
1EA
330
1F
100
AcDbEntity
  8
LC-001-100-D00-0
 62
     7
370
    50
100
AcDbLine
 10
114.504932
 20
-16.701131
 30
0.0
 11
114.504932
 21
-43.201131
 31
0.0
  0
CIRCLE
  5
1EB
330
1F
100
AcDbEntity
  8
LC-001-100-D00-0
 62
     7
370
    50
100
AcDbCircle
 10
96.254932
 20
-29.951131
 30
0.0
 40
3.899999999999864
  0
LINE
  5
1EC
330
1F
100
AcDbEntity
  8
LC-001-100-D00-0
 62
     7
370
    50
100
AcDbLine
 10
109.504932
 20
-48.201131
 30
0.0
 11
83.004932
 21
-48.201131
 31
0.0
  0
LINE
  5
1ED
330
1F
100
AcDbEntity
  8
LC-001-100-D00-0
 62
     7
370
    50
100
AcDbLine
 10
83.004932
 20
-11.701131
 30
0.0
 11
109.504932
 21
-11.701131
 31
0.0
  0
ARC
  5
1EE
330
1F
100
AcDbEntity
  8
LC-001-100-D00-0
 62
     7
370
    50
100
AcDbCircle
 10
83.004932
 20
-16.701131
 30
0.0
 40
5.0
100
AcDbArc
 50
90.0
 51
180.0
  0
ARC
  5
1EF
330
1F
100
AcDbEntity
  8
LC-001-100-D00-0
 62
     7
370
    50
100
AcDbCircle
 10
83.004932
 20
-43.201131
 30
0.0
 40
5.0
100
AcDbArc
 50
180.0
 51
270.0
  0
LINE
  5
1F0
330
1F
100
AcDbEntity
  8
LC-001-100-D00-0
 62
     7
370
    50
100
AcDbLine
 10
78.004932
 20
-43.201131
 30
0.0
 11
78.004932
 21
-16.701131
 31
0.0
  0
LINE
  5
1F1
330
1F
100
AcDbEntity
  8
LC-001-100-D00-0
 62
     7
370
    50
100
AcDbLine
 10
-625.495068
 20
-16.701131
 30
0.0
 11
-625.495068
 21
-43.201131
 31
0.0
  0
ARC
  5
1F2
330
1F
100
AcDbEntity
  8
LC-001-100-D00-0
 62
     7
370
    50
100
AcDbCircle
 10
-630.495068
 20
-43.201131
 30
0.0
 40
5.0
100
AcDbArc
 50
270.0
 51
0.0
  0
ARC
  5
1F3
330
1F
100
AcDbEntity
  8
LC-001-100-D00-0
 62
     7
370
    50
100
AcDbCircle
 10
-630.495068
 20
-16.701131
 30
0.0
 40
5.0
100
AcDbArc
 50
0.0
 51
90.0
  0
CIRCLE
  5
1F4
330
1F
100
AcDbEntity
  8
LC-001-100-D00-0
 62
     7
370
    50
100
AcDbCircle
 10
-643.745068
 20
-29.951131
 30
0.0
 40
3.899999999999864
  0
LINE
  5
1F5
330
1F
100
AcDbEntity
  8
LC-001-100-D00-0
 62
     7
370
    50
100
AcDbLine
 10
-656.995068
 20
-11.701131
 30
0.0
 11
-630.495068
 21
-11.701131
 31
0.0
  0
LINE
  5
1F6
330
1F
100
AcDbEntity
  8
LC-001-100-D00-0
 62
     7
370
    50
100
AcDbLine
 10
-630.495068
 20
-48.201131
 30
0.0
 11
-656.995068
 21
-48.201131
 31
0.0
  0
ARC
  5
1F7
330
1F
100
AcDbEntity
  8
LC-001-100-D00-0
 62
     7
370
    50
100
AcDbCircle
 10
-656.995068
 20
-43.201131
 30
0.0
 40
5.0
100
AcDbArc
 50
180.0
 51
270.0
  0
ARC
  5
1F8
330
1F
100
AcDbEntity
  8
LC-001-100-D00-0
 62
     7
370
    50
100
AcDbCircle
 10
-656.995068
 20
-16.701131
 30
0.0
 40
5.0
100
AcDbArc
 50
90.0
 51
180.0
  0
LINE
  5
1F9
330
1F
100
AcDbEntity
  8
LC-001-100-D00-0
 62
     7
370
    50
100
AcDbLine
 10
-661.995068
 20
-43.201131
 30
0.0
 11
-661.995068
 21
-16.701131
 31
0.0
  0
LINE
  5
1FA
330
1F
100
AcDbEntity
  8
LC-001-100-D00-0
 62
     7
370
    50
100
AcDbLine
 10
-355.495068
 20
-16.701131
 30
0.0
 11
-355.495068
 21
-43.201131
 31
0.0
  0
ARC
  5
1FB
330
1F
100
AcDbEntity
  8
LC-001-100-D00-0
 62
     7
370
    50
100
AcDbCircle
 10
-360.495068
 20
-16.701131
 30
0.0
 40
5.0
100
AcDbArc
 50
0.0
 51
90.0
  0
ARC
  5
1FC
330
1F
100
AcDbEntity
  8
LC-001-100-D00-0
 62
     7
370
    50
100
AcDbCircle
 10
-360.495068
 20
-43.201131
 30
0.0
 40
5.0
100
AcDbArc
 50
270.0
 51
0.0
  0
CIRCLE
  5
1FD
330
1F
100
AcDbEntity
  8
LC-001-100-D00-0
 62
     7
370
    50
100
AcDbCircle
 10
-373.745068
 20
-29.951131
 30
0.0
 40
3.900000000000205
  0
LINE
  5
1FE
330
1F
100
AcDbEntity
  8
LC-001-100-D00-0
 62
     7
370
    50
100
AcDbLine
 10
-386.995068
 20
-11.701131
 30
0.0
 11
-360.495068
 21
-11.701131
 31
0.0
  0
LINE
  5
1FF
330
1F
100
AcDbEntity
  8
LC-001-100-D00-0
 62
     7
370
    50
100
AcDbLine
 10
-360.495068
 20
-48.201131
 30
0.0
 11
-386.995068
 21
-48.201131
 31
0.0
  0
ARC
  5
200
330
1F
100
AcDbEntity
  8
LC-001-100-D00-0
 62
     7
370
    50
100
AcDbCircle
 10
-386.995068
 20
-16.701131
 30
0.0
 40
5.0
100
AcDbArc
 50
90.0
 51
180.0
  0
ARC
  5
201
330
1F
100
AcDbEntity
  8
LC-001-100-D00-0
 62
     7
370
    50
100
AcDbCircle
 10
-386.995068
 20
-43.201131
 30
0.0
 40
5.0
100
AcDbArc
 50
180.0
 51
270.0
  0
LINE
  5
202
330
1F
100
AcDbEntity
  8
LC-001-100-D00-0
 62
     7
370
    50
100
AcDbLine
 10
-391.995068
 20
-43.201131
 30
0.0
 11
-391.995068
 21
-16.701131
 31
0.0
  0
LINE
  5
203
330
1F
100
AcDbEntity
  8
LC-001-100-D00-0
 62
     7
370
    50
100
AcDbLine
 10
-155.495068
 20
-16.701131
 30
0.0
 11
-155.495068
 21
-43.201131
 31
0.0
  0
ARC
  5
204
330
1F
100
AcDbEntity
  8
LC-001-100-D00-0
 62
     7
370
    50
100
AcDbCircle
 10
-160.495068
 20
-43.201131
 30
0.0
 40
5.0
100
AcDbArc
 50
270.0
 51
0.0
  0
ARC
  5
205
330
1F
100
AcDbEntity
  8
LC-001-100-D00-0
 62
     7
370
    50
100
AcDbCircle
 10
-160.495068
 20
-16.701131
 30
0.0
 40
5.0
100
AcDbArc
 50
0.0
 51
90.0
  0
CIRCLE
  5
206
330
1F
100
AcDbEntity
  8
LC-001-100-D00-0
 62
     7
370
    50
100
AcDbCircle
 10
-173.745068
 20
-29.951131
 30
0.0
 40
3.899999999999864
  0
LINE
  5
207
330
1F
100
AcDbEntity
  8
LC-001-100-D00-0
 62
     7
370
    50
100
AcDbLine
 10
-160.495068
 20
-48.201131
 30
0.0
 11
-186.995068
 21
-48.201131
 31
0.0
  0
LINE
  5
208
330
1F
100
AcDbEntity
  8
LC-001-100-D00-0
 62
     7
370
    50
100
AcDbLine
 10
-186.995068
 20
-11.701131
 30
0.0
 11
-160.495068
 21
-11.701131
 31
0.0
  0
ARC
  5
209
330
1F
100
AcDbEntity
  8
LC-001-100-D00-0
 62
     7
370
    50
100
AcDbCircle
 10
-186.995068
 20
-43.201131
 30
0.0
 40
5.0
100
AcDbArc
 50
180.0
 51
270.0
  0
ARC
  5
20A
330
1F
100
AcDbEntity
  8
LC-001-100-D00-0
 62
     7
370
    50
100
AcDbCircle
 10
-186.995068
 20
-16.701131
 30
0.0
 40
5.0
100
AcDbArc
 50
90.0
 51
180.0
  0
LINE
  5
20B
330
1F
100
AcDbEntity
  8
LC-001-100-D00-0
 62
     7
370
    50
100
AcDbLine
 10
-191.995068
 20
-43.201131
 30
0.0
 11
-191.995068
 21
-16.701131
 31
0.0
  0
ARC
  5
20C
330
1F
100
AcDbEntity
  8
LC-001-100-D00-0
 62
     7
370
    50
100
AcDbCircle
 10
-25.495068
 20
-16.701131
 30
0.0
 40
5.0
100
AcDbArc
 50
0.0
 51
90.0
  0
LINE
  5
20D
330
1F
100
AcDbEntity
  8
LC-001-100-D00-0
 62
     7
370
    50
100
AcDbLine
 10
-20.495068
 20
-16.701131
 30
0.0
 11
-20.495068
 21
-43.201131
 31
0.0
  0
ARC
  5
20E
330
1F
100
AcDbEntity
  8
LC-001-100-D00-0
 62
     7
370
    50
100
AcDbCircle
 10
-25.495068
 20
-43.201131
 30
0.0
 40
5.0
100
AcDbArc
 50
270.0
 51
0.0
  0
CIRCLE
  5
20F
330
1F
100
AcDbEntity
  8
LC-001-100-D00-0
 62
     7
370
    50
100
AcDbCircle
 10
-38.745068
 20
-29.951131
 30
0.0
 40
3.899999999999864
  0
LINE
  5
210
330
1F
100
AcDbEntity
  8
LC-001-100-D00-0
 62
     7
370
    50
100
AcDbLine
 10
-25.495068
 20
-48.201131
 30
0.0
 11
-51.995068
 21
-48.201131
 31
0.0
  0
LINE
  5
211
330
1F
100
AcDbEntity
  8
LC-001-100-D00-0
 62
     7
370
    50
100
AcDbLine
 10
-51.995068
 20
-11.701131
 30
0.0
 11
-25.495068
 21
-11.701131
 31
0.0
  0
ARC
  5
212
330
1F
100
AcDbEntity
  8
LC-001-100-D00-0
 62
     7
370
    50
100
AcDbCircle
 10
-51.995068
 20
-43.201131
 30
0.0
 40
5.0
100
AcDbArc
 50
180.0
 51
270.0
  0
ARC
  5
213
330
1F
100
AcDbEntity
  8
LC-001-100-D00-0
 62
     7
370
    50
100
AcDbCircle
 10
-51.995068
 20
-16.701131
 30
0.0
 40
5.0
100
AcDbArc
 50
90.0
 51
180.0
  0
LINE
  5
214
330
1F
100
AcDbEntity
  8
LC-001-100-D00-0
 62
     7
370
    50
100
AcDbLine
 10
-56.995068
 20
-43.201131
 30
0.0
 11
-56.995068
 21
-16.701131
 31
0.0
  0
LINE
  5
215
330
1F
100
AcDbEntity
  8
LC-001-100-D00-0
 62
     7
370
    50
100
AcDbLine
 10
-304.245068
 20
-53.951131
 30
0.0
 11
-243.245068
 21
-53.951131
 31
0.0
  0
ARC
  5
216
330
1F
100
AcDbEntity
  8
LC-001-100-D00-0
 62
     7
370
    50
100
AcDbCircle
 10
-304.245068
 20
-29.951131
 30
0.0
 40
24.0
100
AcDbArc
 50
90.0
 51
270.0
  0
LINE
  5
217
330
1F
100
AcDbEntity
  8
LC-001-100-D00-0
 62
     7
370
    50
100
AcDbLine
 10
-243.245068
 20
-5.951131
 30
0.0
 11
-304.245068
 21
-5.951131
 31
0.0
  0
ARC
  5
218
330
1F
100
AcDbEntity
  8
LC-001-100-D00-0
 62
     7
370
    50
100
AcDbCircle
 10
-243.245068
 20
-29.951131
 30
0.0
 40
24.00000000000011
100
AcDbArc
 50
270.0
 51
90.0
  0
ARC
  5
219
330
1F
100
AcDbEntity
  8
LC-001-100-D00-0
 62
     7
370
    50
100
AcDbCircle
 10
-262.245068
 20
-29.951131
 30
0.0
 40
16.0
100
AcDbArc
 50
270.0
 51
90.0
  0
LINE
  5
21A
330
1F
100
AcDbEntity
  8
LC-001-100-D00-0
 62
     7
370
    50
100
AcDbLine
 10
-285.245068
 20
-45.951131
 30
0.0
 11
-262.245068
 21
-45.951131
 31
0.0
  0
LINE
  5
21B
330
1F
100
AcDbEntity
  8
LC-001-100-D00-0
 62
     7
370
    50
100
AcDbLine
 10
-262.245068
 20
-13.951131
 30
0.0
 11
-285.245068
 21
-13.951131
 31
0.0
  0
ARC
  5
21C
330
1F
100
AcDbEntity
  8
LC-001-100-D00-0
 62
     7
370
    50
100
AcDbCircle
 10
-285.245068
 20
-29.951131
 30
0.0
 40
15.99999999999989
100
AcDbArc
 50
90.0
 51
270.0
  0
DIMENSION
  5
21D
330
1F
100
AcDbEntity
  8
LC-001-100-D00-0
 62
     7
370
    25
100
AcDbDimension
  2
*D18
 10
266.889979
 20
14.548869
 30
0.0
 11
211.889979
 21
-34.441131
 31
0.0
 70
   160
  1
1,5
 71
     5
 42
1.5
 53
90.0
  3
LC-DIM-L-0100-02-02
100
AcDbAlignedDimension
 13
171.254932
 23
16.048869
 33
0.0
 14
171.254932
 24
14.548869
 34
0.0
 50
90.0
100
AcDbRotatedDimension
  0
DIMENSION
  5
22B
330
1F
100
AcDbEntity
  8
LC-001-100-D00-0
 62
     7
370
    25
100
AcDbDimension
  2
*D19
 10
355.537411
 20
-3.951131
 30
0.0
 11
300.537411
 21
-83.446131
 31
0.0
 70
   160
  1
18,5
 71
     5
 42
18.5
 53
90.0
  3
LC-DIM-L-0100-02-02
100
AcDbAlignedDimension
 13
171.254932
 23
14.548869
 33
0.0
 14
123.754932
 24
-3.951131
 34
0.0
 50
90.0
100
AcDbRotatedDimension
  0
DIMENSION
  5
239
330
1F
100
AcDbEntity
  8
LC-001-100-D00-0
 62
     7
370
    25
100
AcDbDimension
  2
*D20
 10
422.022984
 20
-107.451131
 30
0.0
 11
367.022984
 21
-68.596131
 31
0.0
 70
   160
  1
123,5
 71
     5
 42
123.5
 53
90.0
  3
LC-DIM-L-0100-02-02
100
AcDbAlignedDimension
 13
171.254932
 23
16.048869
 33
0.0
 14
171.254932
 24
-107.451131
 34
0.0
 50
90.0
100
AcDbRotatedDimension
  0
LINE
  5
246
330
1F
100
AcDbEntity
  8
LC-001-100-D00-0
  6
DASHDOT
 62
     7
370
    25
100
AcDbLine
 10
133.754932
 20
-29.951131
 30
0.0
 11
-681.245068
 21
-29.951131
 31
0.0
  0
LINE
  5
247
330
1F
100
AcDbEntity
  8
LC-001-100-D00-0
  6
DASHDOT
 62
     7
370
    25
100
AcDbLine
 10
-273.745068
 20
26.048869
 30
0.0
 11
-273.745068
 21
-112.451131
 31
0.0
  0
LINE
  5
248
330
1F
100
AcDbEntity
  8
LC-001-100-D00-0
 62
     7
370
    50
100
AcDbLine
 10
-160.497284
 20
203.07866
 30
0.0
 11
-160.497284
 21
204.861581
 31
0.0
  0
LINE
  5
249
330
1F
100
AcDbEntity
  8
LC-001-100-D00-0
 62
     7
370
    50
100
AcDbLine
 10
-160.497284
 20
255.295739
 30
0.0
 11
-160.497284
 21
257.07866
 31
0.0
  0
LINE
  5
24A
330
1F
100
AcDbEntity
  8
LC-001-100-D00-0
 62
     7
370
    50
100
AcDbLine
 10
-164.497284
 20
257.07866
 30
0.0
 11
-164.497284
 21
255.295739
 31
0.0
  0
LINE
  5
24B
330
1F
100
AcDbEntity
  8
LC-001-100-D00-0
 62
     7
370
    50
100
AcDbLine
 10
-164.497284
 20
204.861581
 30
0.0
 11
-164.497284
 21
203.07866
 31
0.0
  0
LINE
  5
24C
330
1F
100
AcDbEntity
  8
LC-001-100-D00-0
 62
     7
370
    50
100
AcDbLine
 10
-234.030665
 20
253.57866
 30
0.0
 11
-234.030665
 21
252.07866
 31
0.0
  0
LINE
  5
24D
330
1F
100
AcDbEntity
  8
LC-001-100-D00-0
 62
     7
370
    50
100
AcDbLine
 10
-313.459495
 20
252.07866
 30
0.0
 11
-313.459495
 21
253.57866
 31
0.0
  0
LINE
  5
24E
330
1F
100
AcDbEntity
  8
LC-001-100-D00-0
 62
     7
370
    50
100
AcDbLine
 10
-177.145077
 20
275.57866
 30
0.0
 11
-178.145079
 21
276.57866
 31
0.0
  0
LINE
  5
24F
330
1F
100
AcDbEntity
  8
LC-001-100-D00-0
 62
     7
370
    50
100
AcDbLine
 10
-177.145077
 20
275.57866
 30
0.0
 11
-177.14508
 21
269.57866
 31
0.0
  0
LINE
  5
250
330
1F
100
AcDbEntity
  8
LC-001-100-D00-0
 62
     7
370
    50
100
AcDbLine
 10
-178.14508
 20
268.57866
 30
0.0
 11
-177.14508
 21
269.57866
 31
0.0
  0
LINE
  5
251
330
1F
100
AcDbEntity
  8
LC-001-100-D00-0
 62
     7
370
    50
100
AcDbLine
 10
-180.095931
 20
270.578659
 30
0.0
 11
-180.095931
 21
268.578661
 31
0.0
  0
LINE
  5
252
330
1F
100
AcDbEntity
  8
LC-001-100-D00-0
 62
     7
370
    50
100
AcDbLine
 10
-179.389789
 20
270.767871
 30
0.0
 11
-180.095931
 21
270.578659
 31
0.0
  0
ARC
  5
253
330
1F
100
AcDbEntity
  8
LC-001-100-D00-0
 62
     7
370
    50
100
AcDbCircle
 10
-179.54508
 20
271.347427
 30
0.0
 40
0.600000000000118
100
AcDbArc
 50
285.0
 51
0.0
  0
LINE
  5
254
330
1F
100
AcDbEntity
  8
LC-001-100-D00-0
 62
     7
370
    50
100
AcDbLine
 10
-178.94508
 20
273.809894
 30
0.0
 11
-178.94508
 21
271.347427
 31
0.0
  0
ARC
  5
255
330
1F
100
AcDbEntity
  8
LC-001-100-D00-0
 62
     7
370
    50
100
AcDbCircle
 10
-179.54508
 20
273.809894
 30
0.0
 40
0.6000000000000227
100
AcDbArc
 50
0.0
 51
75.0
  0
LINE
  5
256
330
1F
100
AcDbEntity
  8
LC-001-100-D00-0
 62
     7
370
    50
100
AcDbLine
 10
-180.095931
 20
274.57866
 30
0.0
 11
-179.389789
 21
274.38945
 31
0.0
  0
LINE
  5
257
330
1F
100
AcDbEntity
  8
LC-001-100-D00-0
 62
     7
370
    50
100
AcDbLine
 10
-180.095931
 20
276.57866
 30
0.0
 11
-180.095931
 21
274.57866
 31
0.0
  0
LINE
  5
258
330
1F
100
AcDbEntity
  8
LC-001-100-D00-0
 62
     7
370
    50
100
AcDbLine
 10
-180.095931
 20
268.578661
 30
0.0
 11
-178.14508
 21
268.57866
 31
0.0
  0
LINE
  5
259
330
1F
100
AcDbEntity
  8
LC-001-100-D00-0
 62
     7
370
    50
100
AcDbLine
 10
-180.095931
 20
276.57866
 30
0.0
 11
-178.145079
 21
276.57866
 31
0.0
  0
LINE
  5
25A
330
1F
100
AcDbEntity
  8
LC-001-100-D00-0
 62
     7
370
    50
100
AcDbLine
 10
-168.54508
 20
271.347427
 30
0.0
 11
-168.54508
 21
273.809894
 31
0.0
  0
ARC
  5
25B
330
1F
100
AcDbEntity
  8
LC-001-100-D00-0
 62
     7
370
    50
100
AcDbCircle
 10
-167.94508
 20
271.347427
 30
0.0
 40
0.6000000000000227
100
AcDbArc
 50
180.0
 51
255.0
  0
LINE
  5
25C
330
1F
100
AcDbEntity
  8
LC-001-100-D00-0
 62
     7
370
    50
100
AcDbLine
 10
-167.394226
 20
270.578659
 30
0.0
 11
-168.100372
 21
270.767871
 31
0.0
  0
LINE
  5
25D
330
1F
100
AcDbEntity
  8
LC-001-100-D00-0
 62
     7
370
    50
100
AcDbLine
 10
-167.394226
 20
270.578659
 30
0.0
 11
-167.394226
 21
268.578661
 31
0.0
  0
LINE
  5
25E
330
1F
100
AcDbEntity
  8
LC-001-100-D00-0
 62
     7
370
    50
100
AcDbLine
 10
-170.34508
 20
269.57866
 30
0.0
 11
-169.34508
 21
268.57866
 31
0.0
  0
LINE
  5
25F
330
1F
100
AcDbEntity
  8
LC-001-100-D00-0
 62
     7
370
    50
100
AcDbLine
 10
-170.34508
 20
269.57866
 30
0.0
 11
-170.345081
 21
275.57866
 31
0.0
  0
LINE
  5
260
330
1F
100
AcDbEntity
  8
LC-001-100-D00-0
 62
     7
370
    50
100
AcDbLine
 10
-169.345079
 20
276.57866
 30
0.0
 11
-170.345081
 21
275.57866
 31
0.0
  0
LINE
  5
261
330
1F
100
AcDbEntity
  8
LC-001-100-D00-0
 62
     7
370
    50
100
AcDbLine
 10
-167.394226
 20
276.57866
 30
0.0
 11
-167.394226
 21
274.57866
 31
0.0
  0
LINE
  5
262
330
1F
100
AcDbEntity
  8
LC-001-100-D00-0
 62
     7
370
    50
100
AcDbLine
 10
-168.100372
 20
274.38945
 30
0.0
 11
-167.394226
 21
274.57866
 31
0.0
  0
ARC
  5
263
330
1F
100
AcDbEntity
  8
LC-001-100-D00-0
 62
     7
370
    50
100
AcDbCircle
 10
-167.94508
 20
273.809894
 30
0.0
 40
0.600000000000118
100
AcDbArc
 50
105.0
 51
180.0
  0
LINE
  5
264
330
1F
100
AcDbEntity
  8
LC-001-100-D00-0
 62
     7
370
    50
100
AcDbLine
 10
-169.34508
 20
268.57866
 30
0.0
 11
-167.394226
 21
268.578661
 31
0.0
  0
LINE
  5
265
330
1F
100
AcDbEntity
  8
LC-001-100-D00-0
 62
     7
370
    50
100
AcDbLine
 10
-169.345079
 20
276.57866
 30
0.0
 11
-167.394226
 21
276.57866
 31
0.0
  0
LINE
  5
266
330
1F
100
AcDbEntity
  8
LC-001-100-D00-0
 62
     7
370
    50
100
AcDbLine
 10
-177.14508
 20
269.57866
 30
0.0
 11
-176.987241
 21
269.57866
 31
0.0
  0
LINE
  5
267
330
1F
100
AcDbEntity
  8
LC-001-100-D00-0
 62
     7
370
    50
100
AcDbLine
 10
-170.50292
 20
269.57866
 30
0.0
 11
-170.34508
 21
269.57866
 31
0.0
  0
LINE
  5
268
330
1F
100
AcDbEntity
  8
LC-001-100-D00-0
 62
     7
370
    50
100
AcDbLine
 10
-169.34508
 20
268.57866
 30
0.0
 11
-169.880862
 21
268.57866
 31
0.0
  0
LINE
  5
269
330
1F
100
AcDbEntity
  8
LC-001-100-D00-0
 62
     7
370
    50
100
AcDbLine
 10
-177.609298
 20
268.57866
 30
0.0
 11
-178.14508
 21
268.57866
 31
0.0
  0
LINE
  5
26A
330
1F
100
AcDbEntity
  8
LC-001-100-D00-0
 62
     7
370
    50
100
AcDbLine
 10
-167.394226
 20
276.57866
 30
0.0
 11
-169.84508
 21
276.57866
 31
0.0
  0
LINE
  5
26B
330
1F
100
AcDbEntity
  8
LC-001-100-D00-0
 62
     7
370
    50
100
AcDbLine
 10
-169.84508
 20
276.57866
 30
0.0
 11
-169.84508
 21
287.57866
 31
0.0
  0
LINE
  5
26C
330
1F
100
AcDbEntity
  8
LC-001-100-D00-0
 62
     7
370
    50
100
AcDbLine
 10
-169.84508
 20
287.57866
 30
0.0
 11
-156.49508
 21
287.57866
 31
0.0
  0
ARC
  5
26D
330
1F
100
AcDbEntity
  8
LC-001-100-D00-0
 62
     7
370
    50
100
AcDbCircle
 10
-156.49508
 20
286.57866
 30
0.0
 40
1.000000000000227
100
AcDbArc
 50
0.0
 51
90.0
  0
LINE
  5
26E
330
1F
100
AcDbEntity
  8
LC-001-100-D00-0
 62
     7
370
    50
100
AcDbLine
 10
-155.49508
 20
286.57866
 30
0.0
 11
-155.495083
 21
280.57866
 31
0.0
  0
LINE
  5
26F
330
1F
100
AcDbEntity
  8
LC-001-100-D00-0
 62
     7
370
    50
100
AcDbLine
 10
-158.49508
 20
280.57866
 30
0.0
 11
-155.495083
 21
280.57866
 31
0.0
  0
LINE
  5
270
330
1F
100
AcDbEntity
  8
LC-001-100-D00-0
 62
     7
370
    50
100
AcDbLine
 10
-158.49508
 20
280.57866
 30
0.0
 11
-158.495081
 21
284.57866
 31
0.0
  0
LINE
  5
271
330
1F
100
AcDbEntity
  8
LC-001-100-D00-0
 62
     7
370
    50
100
AcDbLine
 10
-162.99508
 20
284.57866
 30
0.0
 11
-158.495081
 21
284.57866
 31
0.0
  0
ARC
  5
272
330
1F
100
AcDbEntity
  8
LC-001-100-D00-0
 62
     7
370
    50
100
AcDbCircle
 10
-162.99508
 20
283.57866
 30
0.0
 40
1.000000000000227
100
AcDbArc
 50
90.0
 51
180.0
  0
LINE
  5
273
330
1F
100
AcDbEntity
  8
LC-001-100-D00-0
 62
     7
370
    50
100
AcDbLine
 10
-163.99508
 20
269.57866
 30
0.0
 11
-163.99508
 21
283.57866
 31
0.0
  0
ARC
  5
274
330
1F
100
AcDbEntity
  8
LC-001-100-D00-0
 62
     7
370
    50
100
AcDbCircle
 10
-164.99508
 20
269.57866
 30
0.0
 40
1.0
100
AcDbArc
 50
270.0
 51
0.0
  0
LINE
  5
275
330
1F
100
AcDbEntity
  8
LC-001-100-D00-0
 62
     7
370
    50
100
AcDbLine
 10
-164.99508
 20
268.57866
 30
0.0
 11
-167.394226
 21
268.578661
 31
0.0
  0
LINE
  5
276
330
1F
100
AcDbEntity
  8
LC-001-100-D00-0
 62
     7
370
    50
100
AcDbLine
 10
-167.394226
 20
270.578659
 30
0.0
 11
-167.394226
 21
268.578661
 31
0.0
  0
LINE
  5
277
330
1F
100
AcDbEntity
  8
LC-001-100-D00-0
 62
     7
370
    50
100
AcDbLine
 10
-168.04508
 20
270.57866
 30
0.0
 11
-167.394226
 21
270.578659
 31
0.0
  0
ARC
  5
278
330
1F
100
AcDbEntity
  8
LC-001-100-D00-0
 62
     7
370
    50
100
AcDbCircle
 10
-168.04508
 20
271.07866
 30
0.0
 40
0.4999999999998863
100
AcDbArc
 50
180.0
 51
270.0
  0
LINE
  5
279
330
1F
100
AcDbEntity
  8
LC-001-100-D00-0
 62
     7
370
    50
100
AcDbLine
 10
-168.54508
 20
274.07866
 30
0.0
 11
-168.54508
 21
271.07866
 31
0.0
  0
ARC
  5
27A
330
1F
100
AcDbEntity
  8
LC-001-100-D00-0
 62
     7
370
    50
100
AcDbCircle
 10
-168.04508
 20
274.07866
 30
0.0
 40
0.4999999999997726
100
AcDbArc
 50
90.0
 51
180.0
  0
LINE
  5
27B
330
1F
100
AcDbEntity
  8
LC-001-100-D00-0
 62
     7
370
    50
100
AcDbLine
 10
-167.394226
 20
274.57866
 30
0.0
 11
-168.04508
 21
274.57866
 31
0.0
  0
LINE
  5
27C
330
1F
100
AcDbEntity
  8
LC-001-100-D00-0
 62
     7
370
    50
100
AcDbLine
 10
-167.394226
 20
276.57866
 30
0.0
 11
-167.394226
 21
274.57866
 31
0.0
  0
ARC
  5
27D
330
1F
100
AcDbEntity
  8
LC-001-100-D00-0
 62
     7
370
    50
100
AcDbCircle
 10
-184.49508
 20
283.57866
 30
0.0
 40
1.000000000000227
100
AcDbArc
 50
0.0
 51
90.0
  0
LINE
  5
27E
330
1F
100
AcDbEntity
  8
LC-001-100-D00-0
 62
     7
370
    50
100
AcDbLine
 10
-183.49508
 20
283.57866
 30
0.0
 11
-183.49508
 21
269.57866
 31
0.0
  0
ARC
  5
27F
330
1F
100
AcDbEntity
  8
LC-001-100-D00-0
 62
     7
370
    50
100
AcDbCircle
 10
-182.49508
 20
269.57866
 30
0.0
 40
1.000000000000114
100
AcDbArc
 50
180.0
 51
270.0
  0
LINE
  5
280
330
1F
100
AcDbEntity
  8
LC-001-100-D00-0
 62
     7
370
    50
100
AcDbLine
 10
-178.94508
 20
271.07866
 30
0.0
 11
-178.94508
 21
274.07866
 31
0.0
  0
LINE
  5
281
330
1F
100
AcDbEntity
  8
LC-001-100-D00-0
 62
     7
370
    50
100
AcDbLine
 10
-177.64508
 20
287.57866
 30
0.0
 11
-177.645078
 21
276.57866
 31
0.0
  0
LINE
  5
282
330
1F
100
AcDbEntity
  8
LC-001-100-D00-0
 62
     7
370
    50
100
AcDbLine
 10
-177.64508
 20
287.57866
 30
0.0
 11
-169.84508
 21
287.57866
 31
0.0
  0
LINE
  5
283
330
1F
100
AcDbEntity
  8
LC-001-100-D00-0
 62
     7
370
    50
100
AcDbLine
 10
-180.095931
 20
276.57866
 30
0.0
 11
-180.095931
 21
274.57866
 31
0.0
  0
LINE
  5
284
330
1F
100
AcDbEntity
  8
LC-001-100-D00-0
 62
     7
370
    50
100
AcDbLine
 10
-180.095931
 20
270.578659
 30
0.0
 11
-180.095931
 21
268.578661
 31
0.0
  0
ARC
  5
285
330
1F
100
AcDbEntity
  8
LC-001-100-D00-0
 62
     7
370
    50
100
AcDbCircle
 10
-179.44508
 20
271.07866
 30
0.0
 40
0.5000000000002274
100
AcDbArc
 50
270.0
 51
0.0
  0
LINE
  5
286
330
1F
100
AcDbEntity
  8
LC-001-100-D00-0
 62
     7
370
    50
100
AcDbLine
 10
-180.095931
 20
270.578659
 30
0.0
 11
-179.44508
 21
270.57866
 31
0.0
  0
LINE
  5
287
330
1F
100
AcDbEntity
  8
LC-001-100-D00-0
 62
     7
370
    50
100
AcDbLine
 10
-188.995083
 20
284.57866
 30
0.0
 11
-188.99508
 21
280.57866
 31
0.0
  0
LINE
  5
288
330
1F
100
AcDbEntity
  8
LC-001-100-D00-0
 62
     7
370
    50
100
AcDbLine
 10
-191.995082
 20
280.57866
 30
0.0
 11
-191.99508
 21
286.57866
 31
0.0
  0
ARC
  5
289
330
1F
100
AcDbEntity
  8
LC-001-100-D00-0
 62
     7
370
    50
100
AcDbCircle
 10
-190.99508
 20
286.57866
 30
0.0
 40
1.000000000000227
100
AcDbArc
 50
90.0
 51
180.0
  0
LINE
  5
28A
330
1F
100
AcDbEntity
  8
LC-001-100-D00-0
 62
     7
370
    50
100
AcDbLine
 10
-179.44508
 20
274.57866
 30
0.0
 11
-180.095931
 21
274.57866
 31
0.0
  0
ARC
  5
28B
330
1F
100
AcDbEntity
  8
LC-001-100-D00-0
 62
     7
370
    50
100
AcDbCircle
 10
-179.44508
 20
274.07866
 30
0.0
 40
0.5000000000001137
100
AcDbArc
 50
0.0
 51
90.0
  0
LINE
  5
28C
330
1F
100
AcDbEntity
  8
LC-001-100-D00-0
 62
     7
370
    50
100
AcDbLine
 10
-177.645078
 20
276.57866
 30
0.0
 11
-180.095931
 21
276.57866
 31
0.0
  0
LINE
  5
28D
330
1F
100
AcDbEntity
  8
LC-001-100-D00-0
 62
     7
370
    50
100
AcDbLine
 10
-180.095931
 20
268.578661
 30
0.0
 11
-182.49508
 21
268.57866
 31
0.0
  0
LINE
  5
28E
330
1F
100
AcDbEntity
  8
LC-001-100-D00-0
 62
     7
370
    50
100
AcDbLine
 10
-188.995083
 20
284.57866
 30
0.0
 11
-184.49508
 21
284.57866
 31
0.0
  0
LINE
  5
28F
330
1F
100
AcDbEntity
  8
LC-001-100-D00-0
 62
     7
370
    50
100
AcDbLine
 10
-190.99508
 20
287.57866
 30
0.0
 11
-177.64508
 21
287.57866
 31
0.0
  0
LINE
  5
290
330
1F
100
AcDbEntity
  8
LC-001-100-D00-0
 62
     7
370
    50
100
AcDbLine
 10
-191.995082
 20
280.57866
 30
0.0
 11
-188.99508
 21
280.57866
 31
0.0
  0
LINE
  5
291
330
1F
100
AcDbEntity
  8
LC-001-100-D00-0
 62
     7
370
    50
100
AcDbLine
 10
-160.49508
 20
280.57866
 30
0.0
 11
-158.49508
 21
280.57866
 31
0.0
  0
LINE
  5
292
330
1F
100
AcDbEntity
  8
LC-001-100-D00-0
 62
     7
370
    50
100
AcDbLine
 10
-188.99508
 20
280.57866
 30
0.0
 11
-186.99508
 21
280.57866
 31
0.0
  0
LINE
  5
293
330
1F
100
AcDbEntity
  8
LC-001-100-D00-0
 62
     7
370
    50
100
AcDbLine
 10
-186.99508
 20
280.57866
 30
0.0
 11
-183.49508
 21
280.57866
 31
0.0
  0
LINE
  5
294
330
1F
100
AcDbEntity
  8
LC-001-100-D00-0
 62
     7
370
    50
100
AcDbLine
 10
-163.995078
 20
280.57866
 30
0.0
 11
-160.49508
 21
280.57866
 31
0.0
  0
LINE
  5
295
330
1F
100
AcDbEntity
  8
LC-001-100-D00-0
 62
     7
370
    50
100
AcDbLine
 10
-377.14508
 20
275.57866
 30
0.0
 11
-378.145082
 21
276.57866
 31
0.0
  0
LINE
  5
296
330
1F
100
AcDbEntity
  8
LC-001-100-D00-0
 62
     7
370
    50
100
AcDbLine
 10
-377.14508
 20
275.57866
 30
0.0
 11
-377.14508
 21
269.57866
 31
0.0
  0
LINE
  5
297
330
1F
100
AcDbEntity
  8
LC-001-100-D00-0
 62
     7
370
    50
100
AcDbLine
 10
-378.14508
 20
268.57866
 30
0.0
 11
-377.14508
 21
269.57866
 31
0.0
  0
LINE
  5
298
330
1F
100
AcDbEntity
  8
LC-001-100-D00-0
 62
     7
370
    50
100
AcDbLine
 10
-380.095934
 20
270.578659
 30
0.0
 11
-380.095934
 21
268.578661
 31
0.0
  0
LINE
  5
299
330
1F
100
AcDbEntity
  8
LC-001-100-D00-0
 62
     7
370
    50
100
AcDbLine
 10
-379.389789
 20
270.767871
 30
0.0
 11
-380.095934
 21
270.578659
 31
0.0
  0
ARC
  5
29A
330
1F
100
AcDbEntity
  8
LC-001-100-D00-0
 62
     7
370
    50
100
AcDbCircle
 10
-379.54508
 20
271.347427
 30
0.0
 40
0.6000000000000886
100
AcDbArc
 50
285.0
 51
0.0
  0
LINE
  5
29B
330
1F
100
AcDbEntity
  8
LC-001-100-D00-0
 62
     7
370
    50
100
AcDbLine
 10
-378.94508
 20
273.809894
 30
0.0
 11
-378.94508
 21
271.347427
 31
0.0
  0
ARC
  5
29C
330
1F
100
AcDbEntity
  8
LC-001-100-D00-0
 62
     7
370
    50
100
AcDbCircle
 10
-379.54508
 20
273.809894
 30
0.0
 40
0.6000000000000227
100
AcDbArc
 50
0.0
 51
75.0
  0
LINE
  5
29D
330
1F
100
AcDbEntity
  8
LC-001-100-D00-0
 62
     7
370
    50
100
AcDbLine
 10
-380.095934
 20
274.57866
 30
0.0
 11
-379.389789
 21
274.38945
 31
0.0
  0
LINE
  5
29E
330
1F
100
AcDbEntity
  8
LC-001-100-D00-0
 62
     7
370
    50
100
AcDbLine
 10
-380.095934
 20
276.57866
 30
0.0
 11
-380.095934
 21
274.57866
 31
0.0
  0
LINE
  5
29F
330
1F
100
AcDbEntity
  8
LC-001-100-D00-0
 62
     7
370
    50
100
AcDbLine
 10
-380.095934
 20
268.578661
 30
0.0
 11
-378.14508
 21
268.57866
 31
0.0
  0
LINE
  5
2A0
330
1F
100
AcDbEntity
  8
LC-001-100-D00-0
 62
     7
370
    50
100
AcDbLine
 10
-380.095934
 20
276.57866
 30
0.0
 11
-378.145082
 21
276.57866
 31
0.0
  0
LINE
  5
2A1
330
1F
100
AcDbEntity
  8
LC-001-100-D00-0
 62
     7
370
    50
100
AcDbLine
 10
-368.54508
 20
271.347427
 30
0.0
 11
-368.54508
 21
273.809894
 31
0.0
  0
ARC
  5
2A2
330
1F
100
AcDbEntity
  8
LC-001-100-D00-0
 62
     7
370
    50
100
AcDbCircle
 10
-367.94508
 20
271.347427
 30
0.0
 40
0.6000000000000227
100
AcDbArc
 50
180.0
 51
255.0
  0
LINE
  5
2A3
330
1F
100
AcDbEntity
  8
LC-001-100-D00-0
 62
     7
370
    50
100
AcDbLine
 10
-367.394229
 20
270.578659
 30
0.0
 11
-368.100372
 21
270.767871
 31
0.0
  0
LINE
  5
2A4
330
1F
100
AcDbEntity
  8
LC-001-100-D00-0
 62
     7
370
    50
100
AcDbLine
 10
-367.394229
 20
270.578659
 30
0.0
 11
-367.394229
 21
268.578661
 31
0.0
  0
LINE
  5
2A5
330
1F
100
AcDbEntity
  8
LC-001-100-D00-0
 62
     7
370
    50
100
AcDbLine
 10
-370.34508
 20
269.57866
 30
0.0
 11
-369.34508
 21
268.57866
 31
0.0
  0
LINE
  5
2A6
330
1F
100
AcDbEntity
  8
LC-001-100-D00-0
 62
     7
370
    50
100
AcDbLine
 10
-370.34508
 20
269.57866
 30
0.0
 11
-370.345084
 21
275.57866
 31
0.0
  0
LINE
  5
2A7
330
1F
100
AcDbEntity
  8
LC-001-100-D00-0
 62
     7
370
    50
100
AcDbLine
 10
-369.345082
 20
276.57866
 30
0.0
 11
-370.345084
 21
275.57866
 31
0.0
  0
LINE
  5
2A8
330
1F
100
AcDbEntity
  8
LC-001-100-D00-0
 62
     7
370
    50
100
AcDbLine
 10
-367.394229
 20
276.57866
 30
0.0
 11
-367.394229
 21
274.57866
 31
0.0
  0
LINE
  5
2A9
330
1F
100
AcDbEntity
  8
LC-001-100-D00-0
 62
     7
370
    50
100
AcDbLine
 10
-368.100372
 20
274.38945
 30
0.0
 11
-367.394229
 21
274.57866
 31
0.0
  0
ARC
  5
2AA
330
1F
100
AcDbEntity
  8
LC-001-100-D00-0
 62
     7
370
    50
100
AcDbCircle
 10
-367.94508
 20
273.809894
 30
0.0
 40
0.6000000000000886
100
AcDbArc
 50
105.0
 51
180.0
  0
LINE
  5
2AB
330
1F
100
AcDbEntity
  8
LC-001-100-D00-0
 62
     7
370
    50
100
AcDbLine
 10
-369.34508
 20
268.57866
 30
0.0
 11
-367.394229
 21
268.578661
 31
0.0
  0
LINE
  5
2AC
330
1F
100
AcDbEntity
  8
LC-001-100-D00-0
 62
     7
370
    50
100
AcDbLine
 10
-369.345082
 20
276.57866
 30
0.0
 11
-367.394229
 21
276.57866
 31
0.0
  0
LINE
  5
2AD
330
1F
100
AcDbEntity
  8
LC-001-100-D00-0
 62
     7
370
    50
100
AcDbLine
 10
-377.14508
 20
269.57866
 30
0.0
 11
-376.987241
 21
269.57866
 31
0.0
  0
LINE
  5
2AE
330
1F
100
AcDbEntity
  8
LC-001-100-D00-0
 62
     7
370
    50
100
AcDbLine
 10
-370.50292
 20
269.57866
 30
0.0
 11
-370.34508
 21
269.57866
 31
0.0
  0
LINE
  5
2AF
330
1F
100
AcDbEntity
  8
LC-001-100-D00-0
 62
     7
370
    50
100
AcDbLine
 10
-369.34508
 20
268.57866
 30
0.0
 11
-369.880862
 21
268.57866
 31
0.0
  0
LINE
  5
2B0
330
1F
100
AcDbEntity
  8
LC-001-100-D00-0
 62
     7
370
    50
100
AcDbLine
 10
-377.609298
 20
268.57866
 30
0.0
 11
-378.14508
 21
268.57866
 31
0.0
  0
LINE
  5
2B1
330
1F
100
AcDbEntity
  8
LC-001-100-D00-0
 62
     7
370
    50
100
AcDbLine
 10
-367.394229
 20
276.57866
 30
0.0
 11
-369.845083
 21
276.57866
 31
0.0
  0
LINE
  5
2B2
330
1F
100
AcDbEntity
  8
LC-001-100-D00-0
 62
     7
370
    50
100
AcDbLine
 10
-369.845083
 20
276.57866
 30
0.0
 11
-369.84508
 21
287.57866
 31
0.0
  0
LINE
  5
2B3
330
1F
100
AcDbEntity
  8
LC-001-100-D00-0
 62
     7
370
    50
100
AcDbLine
 10
-369.84508
 20
287.57866
 30
0.0
 11
-356.49508
 21
287.57866
 31
0.0
  0
ARC
  5
2B4
330
1F
100
AcDbEntity
  8
LC-001-100-D00-0
 62
     7
370
    50
100
AcDbCircle
 10
-356.49508
 20
286.57866
 30
0.0
 40
1.000000000000227
100
AcDbArc
 50
0.0
 51
90.0
  0
LINE
  5
2B5
330
1F
100
AcDbEntity
  8
LC-001-100-D00-0
 62
     7
370
    50
100
AcDbLine
 10
-355.49508
 20
286.57866
 30
0.0
 11
-355.495078
 21
280.57866
 31
0.0
  0
LINE
  5
2B6
330
1F
100
AcDbEntity
  8
LC-001-100-D00-0
 62
     7
370
    50
100
AcDbLine
 10
-358.49508
 20
280.57866
 30
0.0
 11
-355.495078
 21
280.57866
 31
0.0
  0
LINE
  5
2B7
330
1F
100
AcDbEntity
  8
LC-001-100-D00-0
 62
     7
370
    50
100
AcDbLine
 10
-358.49508
 20
280.57866
 30
0.0
 11
-358.495077
 21
284.57866
 31
0.0
  0
LINE
  5
2B8
330
1F
100
AcDbEntity
  8
LC-001-100-D00-0
 62
     7
370
    50
100
AcDbLine
 10
-362.99508
 20
284.57866
 30
0.0
 11
-358.495077
 21
284.57866
 31
0.0
  0
ARC
  5
2B9
330
1F
100
AcDbEntity
  8
LC-001-100-D00-0
 62
     7
370
    50
100
AcDbCircle
 10
-362.99508
 20
283.57866
 30
0.0
 40
1.000000000000227
100
AcDbArc
 50
90.0
 51
180.0
  0
LINE
  5
2BA
330
1F
100
AcDbEntity
  8
LC-001-100-D00-0
 62
     7
370
    50
100
AcDbLine
 10
-363.99508
 20
269.57866
 30
0.0
 11
-363.99508
 21
283.57866
 31
0.0
  0
ARC
  5
2BB
330
1F
100
AcDbEntity
  8
LC-001-100-D00-0
 62
     7
370
    50
100
AcDbCircle
 10
-364.99508
 20
269.57866
 30
0.0
 40
1.0
100
AcDbArc
 50
270.0
 51
0.0
  0
LINE
  5
2BC
330
1F
100
AcDbEntity
  8
LC-001-100-D00-0
 62
     7
370
    50
100
AcDbLine
 10
-364.99508
 20
268.57866
 30
0.0
 11
-367.394229
 21
268.578661
 31
0.0
  0
LINE
  5
2BD
330
1F
100
AcDbEntity
  8
LC-001-100-D00-0
 62
     7
370
    50
100
AcDbLine
 10
-367.394229
 20
270.578659
 30
0.0
 11
-367.394229
 21
268.578661
 31
0.0
  0
LINE
  5
2BE
330
1F
100
AcDbEntity
  8
LC-001-100-D00-0
 62
     7
370
    50
100
AcDbLine
 10
-368.04508
 20
270.57866
 30
0.0
 11
-367.394229
 21
270.578659
 31
0.0
  0
ARC
  5
2BF
330
1F
100
AcDbEntity
  8
LC-001-100-D00-0
 62
     7
370
    50
100
AcDbCircle
 10
-368.04508
 20
271.07866
 30
0.0
 40
0.5
100
AcDbArc
 50
180.0
 51
270.0
  0
LINE
  5
2C0
330
1F
100
AcDbEntity
  8
LC-001-100-D00-0
 62
     7
370
    50
100
AcDbLine
 10
-368.54508
 20
274.07866
 30
0.0
 11
-368.54508
 21
271.07866
 31
0.0
  0
ARC
  5
2C1
330
1F
100
AcDbEntity
  8
LC-001-100-D00-0
 62
     7
370
    50
100
AcDbCircle
 10
-368.04508
 20
274.07866
 30
0.0
 40
0.4999999999997726
100
AcDbArc
 50
90.0
 51
180.0
  0
LINE
  5
2C2
330
1F
100
AcDbEntity
  8
LC-001-100-D00-0
 62
     7
370
    50
100
AcDbLine
 10
-367.394229
 20
274.57866
 30
0.0
 11
-368.04508
 21
274.57866
 31
0.0
  0
LINE
  5
2C3
330
1F
100
AcDbEntity
  8
LC-001-100-D00-0
 62
     7
370
    50
100
AcDbLine
 10
-367.394229
 20
276.57866
 30
0.0
 11
-367.394229
 21
274.57866
 31
0.0
  0
ARC
  5
2C4
330
1F
100
AcDbEntity
  8
LC-001-100-D00-0
 62
     7
370
    50
100
AcDbCircle
 10
-384.49508
 20
283.57866
 30
0.0
 40
1.000000000000227
100
AcDbArc
 50
0.0
 51
90.0
  0
ARC
  5
2C5
330
1F
100
AcDbEntity
  8
LC-001-100-D00-0
 62
     7
370
    50
100
AcDbCircle
 10
-382.49508
 20
269.57866
 30
0.0
 40
1.000000000000114
100
AcDbArc
 50
180.0
 51
270.0
  0
LINE
  5
2C6
330
1F
100
AcDbEntity
  8
LC-001-100-D00-0
 62
     7
370
    50
100
AcDbLine
 10
-383.49508
 20
283.57866
 30
0.0
 11
-383.49508
 21
269.57866
 31
0.0
  0
LINE
  5
2C7
330
1F
100
AcDbEntity
  8
LC-001-100-D00-0
 62
     7
370
    50
100
AcDbLine
 10
-378.94508
 20
271.07866
 30
0.0
 11
-378.94508
 21
274.07866
 31
0.0
  0
LINE
  5
2C8
330
1F
100
AcDbEntity
  8
LC-001-100-D00-0
 62
     7
370
    50
100
AcDbLine
 10
-377.64508
 20
287.57866
 30
0.0
 11
-377.645081
 21
276.57866
 31
0.0
  0
LINE
  5
2C9
330
1F
100
AcDbEntity
  8
LC-001-100-D00-0
 62
     7
370
    50
100
AcDbLine
 10
-377.64508
 20
287.57866
 30
0.0
 11
-369.84508
 21
287.57866
 31
0.0
  0
LINE
  5
2CA
330
1F
100
AcDbEntity
  8
LC-001-100-D00-0
 62
     7
370
    50
100
AcDbLine
 10
-380.095934
 20
276.57866
 30
0.0
 11
-380.095934
 21
274.57866
 31
0.0
  0
LINE
  5
2CB
330
1F
100
AcDbEntity
  8
LC-001-100-D00-0
 62
     7
370
    50
100
AcDbLine
 10
-380.095934
 20
270.578659
 30
0.0
 11
-380.095934
 21
268.578661
 31
0.0
  0
ARC
  5
2CC
330
1F
100
AcDbEntity
  8
LC-001-100-D00-0
 62
     7
370
    50
100
AcDbCircle
 10
-379.44508
 20
271.07866
 30
0.0
 40
0.5000000000002274
100
AcDbArc
 50
270.0
 51
0.0
  0
LINE
  5
2CD
330
1F
100
AcDbEntity
  8
LC-001-100-D00-0
 62
     7
370
    50
100
AcDbLine
 10
-380.095934
 20
270.578659
 30
0.0
 11
-379.44508
 21
270.57866
 31
0.0
  0
LINE
  5
2CE
330
1F
100
AcDbEntity
  8
LC-001-100-D00-0
 62
     7
370
    50
100
AcDbLine
 10
-388.995079
 20
284.57866
 30
0.0
 11
-388.99508
 21
280.57866
 31
0.0
  0
LINE
  5
2CF
330
1F
100
AcDbEntity
  8
LC-001-100-D00-0
 62
     7
370
    50
100
AcDbLine
 10
-391.995078
 20
280.57866
 30
0.0
 11
-391.99508
 21
286.57866
 31
0.0
  0
ARC
  5
2D0
330
1F
100
AcDbEntity
  8
LC-001-100-D00-0
 62
     7
370
    50
100
AcDbCircle
 10
-390.99508
 20
286.57866
 30
0.0
 40
1.000000000000227
100
AcDbArc
 50
90.0
 51
180.0
  0
LINE
  5
2D1
330
1F
100
AcDbEntity
  8
LC-001-100-D00-0
 62
     7
370
    50
100
AcDbLine
 10
-379.44508
 20
274.57866
 30
0.0
 11
-380.095934
 21
274.57866
 31
0.0
  0
ARC
  5
2D2
330
1F
100
AcDbEntity
  8
LC-001-100-D00-0
 62
     7
370
    50
100
AcDbCircle
 10
-379.44508
 20
274.07866
 30
0.0
 40
0.5000000000001137
100
AcDbArc
 50
0.0
 51
90.0
  0
LINE
  5
2D3
330
1F
100
AcDbEntity
  8
LC-001-100-D00-0
 62
     7
370
    50
100
AcDbLine
 10
-377.645081
 20
276.57866
 30
0.0
 11
-380.095934
 21
276.57866
 31
0.0
  0
LINE
  5
2D4
330
1F
100
AcDbEntity
  8
LC-001-100-D00-0
 62
     7
370
    50
100
AcDbLine
 10
-380.095934
 20
268.578661
 30
0.0
 11
-382.49508
 21
268.57866
 31
0.0
  0
LINE
  5
2D5
330
1F
100
AcDbEntity
  8
LC-001-100-D00-0
 62
     7
370
    50
100
AcDbLine
 10
-388.995079
 20
284.57866
 30
0.0
 11
-384.49508
 21
284.57866
 31
0.0
  0
LINE
  5
2D6
330
1F
100
AcDbEntity
  8
LC-001-100-D00-0
 62
     7
370
    50
100
AcDbLine
 10
-390.99508
 20
287.57866
 30
0.0
 11
-377.64508
 21
287.57866
 31
0.0
  0
LINE
  5
2D7
330
1F
100
AcDbEntity
  8
LC-001-100-D00-0
 62
     7
370
    50
100
AcDbLine
 10
-391.995078
 20
280.57866
 30
0.0
 11
-388.99508
 21
280.57866
 31
0.0
  0
LINE
  5
2D8
330
1F
100
AcDbEntity
  8
LC-001-100-D00-0
 62
     7
370
    50
100
AcDbLine
 10
-360.49508
 20
280.57866
 30
0.0
 11
-358.49508
 21
280.57866
 31
0.0
  0
LINE
  5
2D9
330
1F
100
AcDbEntity
  8
LC-001-100-D00-0
 62
     7
370
    50
100
AcDbLine
 10
-388.99508
 20
280.57866
 30
0.0
 11
-386.99508
 21
280.57866
 31
0.0
  0
LINE
  5
2DA
330
1F
100
AcDbEntity
  8
LC-001-100-D00-0
 62
     7
370
    50
100
AcDbLine
 10
-386.99508
 20
280.57866
 30
0.0
 11
-383.495083
 21
280.57866
 31
0.0
  0
LINE
  5
2DB
330
1F
100
AcDbEntity
  8
LC-001-100-D00-0
 62
     7
370
    50
100
AcDbLine
 10
-363.995081
 20
280.57866
 30
0.0
 11
-360.49508
 21
280.57866
 31
0.0
  0
LINE
  5
2DC
330
1F
100
AcDbEntity
  8
LC-001-100-D00-0
 62
     7
370
    50
100
AcDbLine
 10
92.854927
 20
275.57866
 30
0.0
 11
91.85491
 21
276.57866
 31
0.0
  0
LINE
  5
2DD
330
1F
100
AcDbEntity
  8
LC-001-100-D00-0
 62
     7
370
    50
100
AcDbLine
 10
92.854927
 20
275.57866
 30
0.0
 11
92.85492
 21
269.57866
 31
0.0
  0
LINE
  5
2DE
330
1F
100
AcDbEntity
  8
LC-001-100-D00-0
 62
     7
370
    50
100
AcDbLine
 10
91.85492
 20
268.57866
 30
0.0
 11
92.85492
 21
269.57866
 31
0.0
  0
LINE
  5
2DF
330
1F
100
AcDbEntity
  8
LC-001-100-D00-0
 62
     7
370
    50
100
AcDbLine
 10
89.90408
 20
270.578659
 30
0.0
 11
89.90408
 21
268.578661
 31
0.0
  0
LINE
  5
2E0
330
1F
100
AcDbEntity
  8
LC-001-100-D00-0
 62
     7
370
    50
100
AcDbLine
 10
90.610211
 20
270.767871
 30
0.0
 11
89.90408
 21
270.578659
 31
0.0
  0
ARC
  5
2E1
330
1F
100
AcDbEntity
  8
LC-001-100-D00-0
 62
     7
370
    50
100
AcDbCircle
 10
90.45492
 20
271.347427
 30
0.0
 40
0.6000000000001474
100
AcDbArc
 50
285.0
 51
0.0
  0
LINE
  5
2E2
330
1F
100
AcDbEntity
  8
LC-001-100-D00-0
 62
     7
370
    50
100
AcDbLine
 10
91.05492
 20
273.809894
 30
0.0
 11
91.05492
 21
271.347427
 31
0.0
  0
ARC
  5
2E3
330
1F
100
AcDbEntity
  8
LC-001-100-D00-0
 62
     7
370
    50
100
AcDbCircle
 10
90.45492
 20
273.809894
 30
0.0
 40
0.6000000000001364
100
AcDbArc
 50
0.0
 51
75.0
  0
LINE
  5
2E4
330
1F
100
AcDbEntity
  8
LC-001-100-D00-0
 62
     7
370
    50
100
AcDbLine
 10
89.90408
 20
274.57866
 30
0.0
 11
90.610211
 21
274.38945
 31
0.0
  0
LINE
  5
2E5
330
1F
100
AcDbEntity
  8
LC-001-100-D00-0
 62
     7
370
    50
100
AcDbLine
 10
89.90408
 20
276.57866
 30
0.0
 11
89.90408
 21
274.57866
 31
0.0
  0
LINE
  5
2E6
330
1F
100
AcDbEntity
  8
LC-001-100-D00-0
 62
     7
370
    50
100
AcDbLine
 10
89.90408
 20
268.578661
 30
0.0
 11
91.85492
 21
268.57866
 31
0.0
  0
LINE
  5
2E7
330
1F
100
AcDbEntity
  8
LC-001-100-D00-0
 62
     7
370
    50
100
AcDbLine
 10
89.90408
 20
276.57866
 30
0.0
 11
91.85491
 21
276.57866
 31
0.0
  0
LINE
  5
2E8
330
1F
100
AcDbEntity
  8
LC-001-100-D00-0
 62
     7
370
    50
100
AcDbLine
 10
101.45492
 20
271.347427
 30
0.0
 11
101.45492
 21
273.809894
 31
0.0
  0
ARC
  5
2E9
330
1F
100
AcDbEntity
  8
LC-001-100-D00-0
 62
     7
370
    50
100
AcDbCircle
 10
102.05492
 20
271.347427
 30
0.0
 40
0.6000000000003638
100
AcDbArc
 50
180.0
 51
255.0
  0
LINE
  5
2EA
330
1F
100
AcDbEntity
  8
LC-001-100-D00-0
 62
     7
370
    50
100
AcDbLine
 10
102.60577
 20
270.578659
 30
0.0
 11
101.899628
 21
270.767871
 31
0.0
  0
LINE
  5
2EB
330
1F
100
AcDbEntity
  8
LC-001-100-D00-0
 62
     7
370
    50
100
AcDbLine
 10
102.60577
 20
270.578659
 30
0.0
 11
102.60577
 21
268.578661
 31
0.0
  0
LINE
  5
2EC
330
1F
100
AcDbEntity
  8
LC-001-100-D00-0
 62
     7
370
    50
100
AcDbLine
 10
99.65492
 20
269.57866
 30
0.0
 11
100.65492
 21
268.57866
 31
0.0
  0
LINE
  5
2ED
330
1F
100
AcDbEntity
  8
LC-001-100-D00-0
 62
     7
370
    50
100
AcDbLine
 10
99.65492
 20
269.57866
 30
0.0
 11
99.654923
 21
275.57866
 31
0.0
  0
LINE
  5
2EE
330
1F
100
AcDbEntity
  8
LC-001-100-D00-0
 62
     7
370
    50
100
AcDbLine
 10
100.65491
 20
276.57866
 30
0.0
 11
99.654923
 21
275.57866
 31
0.0
  0
LINE
  5
2EF
330
1F
100
AcDbEntity
  8
LC-001-100-D00-0
 62
     7
370
    50
100
AcDbLine
 10
102.60577
 20
276.57866
 30
0.0
 11
102.60577
 21
274.57866
 31
0.0
  0
LINE
  5
2F0
330
1F
100
AcDbEntity
  8
LC-001-100-D00-0
 62
     7
370
    50
100
AcDbLine
 10
101.899628
 20
274.38945
 30
0.0
 11
102.60577
 21
274.57866
 31
0.0
  0
ARC
  5
2F1
330
1F
100
AcDbEntity
  8
LC-001-100-D00-0
 62
     7
370
    50
100
AcDbCircle
 10
102.05492
 20
273.809894
 30
0.0
 40
0.600000000000367
100
AcDbArc
 50
105.0
 51
180.0
  0
LINE
  5
2F2
330
1F
100
AcDbEntity
  8
LC-001-100-D00-0
 62
     7
370
    50
100
AcDbLine
 10
100.65492
 20
268.57866
 30
0.0
 11
102.60577
 21
268.578661
 31
0.0
  0
LINE
  5
2F3
330
1F
100
AcDbEntity
  8
LC-001-100-D00-0
 62
     7
370
    50
100
AcDbLine
 10
100.65491
 20
276.57866
 30
0.0
 11
102.60577
 21
276.57866
 31
0.0
  0
LINE
  5
2F4
330
1F
100
AcDbEntity
  8
LC-001-100-D00-0
 62
     7
370
    50
100
AcDbLine
 10
92.85492
 20
269.57866
 30
0.0
 11
93.012759
 21
269.57866
 31
0.0
  0
LINE
  5
2F5
330
1F
100
AcDbEntity
  8
LC-001-100-D00-0
 62
     7
370
    50
100
AcDbLine
 10
99.49708
 20
269.57866
 30
0.0
 11
99.65492
 21
269.57866
 31
0.0
  0
LINE
  5
2F6
330
1F
100
AcDbEntity
  8
LC-001-100-D00-0
 62
     7
370
    50
100
AcDbLine
 10
100.65492
 20
268.57866
 30
0.0
 11
100.119138
 21
268.57866
 31
0.0
  0
LINE
  5
2F7
330
1F
100
AcDbEntity
  8
LC-001-100-D00-0
 62
     7
370
    50
100
AcDbLine
 10
92.390702
 20
268.57866
 30
0.0
 11
91.85492
 21
268.57866
 31
0.0
  0
LINE
  5
2F8
330
1F
100
AcDbEntity
  8
LC-001-100-D00-0
 62
     7
370
    50
100
AcDbLine
 10
102.60577
 20
276.57866
 30
0.0
 11
100.154916
 21
276.57866
 31
0.0
  0
LINE
  5
2F9
330
1F
100
AcDbEntity
  8
LC-001-100-D00-0
 62
     7
370
    50
100
AcDbLine
 10
100.154916
 20
276.57866
 30
0.0
 11
100.15492
 21
287.57866
 31
0.0
  0
LINE
  5
2FA
330
1F
100
AcDbEntity
  8
LC-001-100-D00-0
 62
     7
370
    50
100
AcDbLine
 10
100.15492
 20
287.57866
 30
0.0
 11
113.50492
 21
287.57866
 31
0.0
  0
ARC
  5
2FB
330
1F
100
AcDbEntity
  8
LC-001-100-D00-0
 62
     7
370
    50
100
AcDbCircle
 10
113.50492
 20
286.57866
 30
0.0
 40
1.000000000000227
100
AcDbArc
 50
0.0
 51
90.0
  0
LINE
  5
2FC
330
1F
100
AcDbEntity
  8
LC-001-100-D00-0
 62
     7
370
    50
100
AcDbLine
 10
114.50492
 20
286.57866
 30
0.0
 11
114.504913
 21
280.57866
 31
0.0
  0
LINE
  5
2FD
330
1F
100
AcDbEntity
  8
LC-001-100-D00-0
 62
     7
370
    50
100
AcDbLine
 10
111.50492
 20
280.57866
 30
0.0
 11
114.504913
 21
280.57866
 31
0.0
  0
LINE
  5
2FE
330
1F
100
AcDbEntity
  8
LC-001-100-D00-0
 62
     7
370
    50
100
AcDbLine
 10
111.50492
 20
280.57866
 30
0.0
 11
111.504922
 21
284.57866
 31
0.0
  0
LINE
  5
2FF
330
1F
100
AcDbEntity
  8
LC-001-100-D00-0
 62
     7
370
    50
100
AcDbLine
 10
107.00492
 20
284.57866
 30
0.0
 11
111.504922
 21
284.57866
 31
0.0
  0
ARC
  5
300
330
1F
100
AcDbEntity
  8
LC-001-100-D00-0
 62
     7
370
    50
100
AcDbCircle
 10
107.00492
 20
283.57866
 30
0.0
 40
1.000000000000227
100
AcDbArc
 50
90.0
 51
180.0
  0
LINE
  5
301
330
1F
100
AcDbEntity
  8
LC-001-100-D00-0
 62
     7
370
    50
100
AcDbLine
 10
106.00492
 20
269.57866
 30
0.0
 11
106.00492
 21
283.57866
 31
0.0
  0
ARC
  5
302
330
1F
100
AcDbEntity
  8
LC-001-100-D00-0
 62
     7
370
    50
100
AcDbCircle
 10
105.00492
 20
269.57866
 30
0.0
 40
1.0
100
AcDbArc
 50
270.0
 51
0.0
  0
LINE
  5
303
330
1F
100
AcDbEntity
  8
LC-001-100-D00-0
 62
     7
370
    50
100
AcDbLine
 10
105.00492
 20
268.57866
 30
0.0
 11
102.60577
 21
268.578661
 31
0.0
  0
LINE
  5
304
330
1F
100
AcDbEntity
  8
LC-001-100-D00-0
 62
     7
370
    50
100
AcDbLine
 10
102.60577
 20
270.578659
 30
0.0
 11
102.60577
 21
268.578661
 31
0.0
  0
LINE
  5
305
330
1F
100
AcDbEntity
  8
LC-001-100-D00-0
 62
     7
370
    50
100
AcDbLine
 10
101.95492
 20
270.57866
 30
0.0
 11
102.60577
 21
270.578659
 31
0.0
  0
ARC
  5
306
330
1F
100
AcDbEntity
  8
LC-001-100-D00-0
 62
     7
370
    50
100
AcDbCircle
 10
101.95492
 20
271.07866
 30
0.0
 40
0.5
100
AcDbArc
 50
180.0
 51
270.0
  0
LINE
  5
307
330
1F
100
AcDbEntity
  8
LC-001-100-D00-0
 62
     7
370
    50
100
AcDbLine
 10
101.45492
 20
274.07866
 30
0.0
 11
101.45492
 21
271.07866
 31
0.0
  0
ARC
  5
308
330
1F
100
AcDbEntity
  8
LC-001-100-D00-0
 62
     7
370
    50
100
AcDbCircle
 10
101.95492
 20
274.07866
 30
0.0
 40
0.4999999999997726
100
AcDbArc
 50
90.0
 51
180.0
  0
LINE
  5
309
330
1F
100
AcDbEntity
  8
LC-001-100-D00-0
 62
     7
370
    50
100
AcDbLine
 10
102.60577
 20
274.57866
 30
0.0
 11
101.95492
 21
274.57866
 31
0.0
  0
LINE
  5
30A
330
1F
100
AcDbEntity
  8
LC-001-100-D00-0
 62
     7
370
    50
100
AcDbLine
 10
102.60577
 20
276.57866
 30
0.0
 11
102.60577
 21
274.57866
 31
0.0
  0
ARC
  5
30B
330
1F
100
AcDbEntity
  8
LC-001-100-D00-0
 62
     7
370
    50
100
AcDbCircle
 10
85.50492
 20
283.57866
 30
0.0
 40
1.000000000000227
100
AcDbArc
 50
0.0
 51
90.0
  0
ARC
  5
30C
330
1F
100
AcDbEntity
  8
LC-001-100-D00-0
 62
     7
370
    50
100
AcDbCircle
 10
87.50492
 20
269.57866
 30
0.0
 40
1.0
100
AcDbArc
 50
180.0
 51
270.0
  0
LINE
  5
30D
330
1F
100
AcDbEntity
  8
LC-001-100-D00-0
 62
     7
370
    50
100
AcDbLine
 10
86.50492
 20
283.57866
 30
0.0
 11
86.50492
 21
269.57866
 31
0.0
  0
LINE
  5
30E
330
1F
100
AcDbEntity
  8
LC-001-100-D00-0
 62
     7
370
    50
100
AcDbLine
 10
91.05492
 20
271.07866
 30
0.0
 11
91.05492
 21
274.07866
 31
0.0
  0
LINE
  5
30F
330
1F
100
AcDbEntity
  8
LC-001-100-D00-0
 62
     7
370
    50
100
AcDbLine
 10
92.35492
 20
287.57866
 30
0.0
 11
92.354933
 21
276.57866
 31
0.0
  0
LINE
  5
310
330
1F
100
AcDbEntity
  8
LC-001-100-D00-0
 62
     7
370
    50
100
AcDbLine
 10
92.35492
 20
287.57866
 30
0.0
 11
100.15492
 21
287.57866
 31
0.0
  0
LINE
  5
311
330
1F
100
AcDbEntity
  8
LC-001-100-D00-0
 62
     7
370
    50
100
AcDbLine
 10
89.90408
 20
276.57866
 30
0.0
 11
89.90408
 21
274.57866
 31
0.0
  0
LINE
  5
312
330
1F
100
AcDbEntity
  8
LC-001-100-D00-0
 62
     7
370
    50
100
AcDbLine
 10
89.90408
 20
270.578659
 30
0.0
 11
89.90408
 21
268.578661
 31
0.0
  0
ARC
  5
313
330
1F
100
AcDbEntity
  8
LC-001-100-D00-0
 62
     7
370
    50
100
AcDbCircle
 10
90.55492
 20
271.07866
 30
0.0
 40
0.5000000000002274
100
AcDbArc
 50
270.0
 51
0.0
  0
LINE
  5
314
330
1F
100
AcDbEntity
  8
LC-001-100-D00-0
 62
     7
370
    50
100
AcDbLine
 10
89.90408
 20
270.578659
 30
0.0
 11
90.55492
 21
270.57866
 31
0.0
  0
LINE
  5
315
330
1F
100
AcDbEntity
  8
LC-001-100-D00-0
 62
     7
370
    50
100
AcDbLine
 10
81.004927
 20
284.57866
 30
0.0
 11
81.00492
 21
280.57866
 31
0.0
  0
LINE
  5
316
330
1F
100
AcDbEntity
  8
LC-001-100-D00-0
 62
     7
370
    50
100
AcDbLine
 10
78.004906
 20
280.57866
 30
0.0
 11
78.00492
 21
286.57866
 31
0.0
  0
ARC
  5
317
330
1F
100
AcDbEntity
  8
LC-001-100-D00-0
 62
     7
370
    50
100
AcDbCircle
 10
79.00492
 20
286.57866
 30
0.0
 40
1.000000000000227
100
AcDbArc
 50
90.0
 51
180.0
  0
LINE
  5
318
330
1F
100
AcDbEntity
  8
LC-001-100-D00-0
 62
     7
370
    50
100
AcDbLine
 10
90.55492
 20
274.57866
 30
0.0
 11
89.90408
 21
274.57866
 31
0.0
  0
ARC
  5
319
330
1F
100
AcDbEntity
  8
LC-001-100-D00-0
 62
     7
370
    50
100
AcDbCircle
 10
90.55492
 20
274.07866
 30
0.0
 40
0.5
100
AcDbArc
 50
0.0
 51
90.0
  0
LINE
  5
31A
330
1F
100
AcDbEntity
  8
LC-001-100-D00-0
 62
     7
370
    50
100
AcDbLine
 10
78.004906
 20
280.57866
 30
0.0
 11
81.00492
 21
280.57866
 31
0.0
  0
LINE
  5
31B
330
1F
100
AcDbEntity
  8
LC-001-100-D00-0
 62
     7
370
    50
100
AcDbLine
 10
92.354933
 20
276.57866
 30
0.0
 11
89.90408
 21
276.57866
 31
0.0
  0
LINE
  5
31C
330
1F
100
AcDbEntity
  8
LC-001-100-D00-0
 62
     7
370
    50
100
AcDbLine
 10
89.90408
 20
268.578661
 30
0.0
 11
87.50492
 21
268.57866
 31
0.0
  0
LINE
  5
31D
330
1F
100
AcDbEntity
  8
LC-001-100-D00-0
 62
     7
370
    50
100
AcDbLine
 10
81.004927
 20
284.57866
 30
0.0
 11
85.50492
 21
284.57866
 31
0.0
  0
LINE
  5
31E
330
1F
100
AcDbEntity
  8
LC-001-100-D00-0
 62
     7
370
    50
100
AcDbLine
 10
79.00492
 20
287.57866
 30
0.0
 11
92.35492
 21
287.57866
 31
0.0
  0
LINE
  5
31F
330
1F
100
AcDbEntity
  8
LC-001-100-D00-0
 62
     7
370
    50
100
AcDbLine
 10
109.50492
 20
280.57866
 30
0.0
 11
111.50492
 21
280.57866
 31
0.0
  0
LINE
  5
320
330
1F
100
AcDbEntity
  8
LC-001-100-D00-0
 62
     7
370
    50
100
AcDbLine
 10
81.00492
 20
280.57866
 30
0.0
 11
83.00492
 21
280.57866
 31
0.0
  0
LINE
  5
321
330
1F
100
AcDbEntity
  8
LC-001-100-D00-0
 62
     7
370
    50
100
AcDbLine
 10
83.00492
 20
280.57866
 30
0.0
 11
86.504916
 21
280.57866
 31
0.0
  0
LINE
  5
322
330
1F
100
AcDbEntity
  8
LC-001-100-D00-0
 62
     7
370
    50
100
AcDbLine
 10
106.004933
 20
280.57866
 30
0.0
 11
109.50492
 21
280.57866
 31
0.0
  0
LINE
  5
323
330
1F
100
AcDbEntity
  8
LC-001-100-D00-0
 62
     7
370
    50
100
AcDbLine
 10
-512.145077
 20
275.57866
 30
0.0
 11
-513.14508
 21
276.57866
 31
0.0
  0
LINE
  5
324
330
1F
100
AcDbEntity
  8
LC-001-100-D00-0
 62
     7
370
    50
100
AcDbLine
 10
-512.145077
 20
275.57866
 30
0.0
 11
-512.14508
 21
269.57866
 31
0.0
  0
LINE
  5
325
330
1F
100
AcDbEntity
  8
LC-001-100-D00-0
 62
     7
370
    50
100
AcDbLine
 10
-513.14508
 20
268.57866
 30
0.0
 11
-512.14508
 21
269.57866
 31
0.0
  0
LINE
  5
326
330
1F
100
AcDbEntity
  8
LC-001-100-D00-0
 62
     7
370
    50
100
AcDbLine
 10
-515.09594
 20
270.578659
 30
0.0
 11
-515.09594
 21
268.578661
 31
0.0
  0
LINE
  5
327
330
1F
100
AcDbEntity
  8
LC-001-100-D00-0
 62
     7
370
    50
100
AcDbLine
 10
-514.389789
 20
270.767871
 30
0.0
 11
-515.09594
 21
270.578659
 31
0.0
  0
ARC
  5
328
330
1F
100
AcDbEntity
  8
LC-001-100-D00-0
 62
     7
370
    50
100
AcDbCircle
 10
-514.54508
 20
271.347427
 30
0.0
 40
0.6000000000000886
100
AcDbArc
 50
285.0
 51
0.0
  0
LINE
  5
329
330
1F
100
AcDbEntity
  8
LC-001-100-D00-0
 62
     7
370
    50
100
AcDbLine
 10
-513.94508
 20
273.809894
 30
0.0
 11
-513.94508
 21
271.347427
 31
0.0
  0
ARC
  5
32A
330
1F
100
AcDbEntity
  8
LC-001-100-D00-0
 62
     7
370
    50
100
AcDbCircle
 10
-514.54508
 20
273.809894
 30
0.0
 40
0.6000000000000227
100
AcDbArc
 50
0.0
 51
75.0
  0
LINE
  5
32B
330
1F
100
AcDbEntity
  8
LC-001-100-D00-0
 62
     7
370
    50
100
AcDbLine
 10
-515.09594
 20
274.57866
 30
0.0
 11
-514.389789
 21
274.38945
 31
0.0
  0
LINE
  5
32C
330
1F
100
AcDbEntity
  8
LC-001-100-D00-0
 62
     7
370
    50
100
AcDbLine
 10
-515.09594
 20
276.57866
 30
0.0
 11
-515.09594
 21
274.57866
 31
0.0
  0
LINE
  5
32D
330
1F
100
AcDbEntity
  8
LC-001-100-D00-0
 62
     7
370
    50
100
AcDbLine
 10
-515.09594
 20
268.578661
 30
0.0
 11
-513.14508
 21
268.57866
 31
0.0
  0
LINE
  5
32E
330
1F
100
AcDbEntity
  8
LC-001-100-D00-0
 62
     7
370
    50
100
AcDbLine
 10
-515.09594
 20
276.57866
 30
0.0
 11
-513.14508
 21
276.57866
 31
0.0
  0
LINE
  5
32F
330
1F
100
AcDbEntity
  8
LC-001-100-D00-0
 62
     7
370
    50
100
AcDbLine
 10
-503.54508
 20
271.347427
 30
0.0
 11
-503.54508
 21
273.809894
 31
0.0
  0
ARC
  5
330
330
1F
100
AcDbEntity
  8
LC-001-100-D00-0
 62
     7
370
    50
100
AcDbCircle
 10
-502.94508
 20
271.347427
 30
0.0
 40
0.6000000000000227
100
AcDbArc
 50
180.0
 51
255.0
  0
LINE
  5
331
330
1F
100
AcDbEntity
  8
LC-001-100-D00-0
 62
     7
370
    50
100
AcDbLine
 10
-502.394234
 20
270.578659
 30
0.0
 11
-503.100372
 21
270.767871
 31
0.0
  0
LINE
  5
332
330
1F
100
AcDbEntity
  8
LC-001-100-D00-0
 62
     7
370
    50
100
AcDbLine
 10
-502.394234
 20
270.578659
 30
0.0
 11
-502.394234
 21
268.578661
 31
0.0
  0
LINE
  5
333
330
1F
100
AcDbEntity
  8
LC-001-100-D00-0
 62
     7
370
    50
100
AcDbLine
 10
-505.34508
 20
269.57866
 30
0.0
 11
-504.34508
 21
268.57866
 31
0.0
  0
LINE
  5
334
330
1F
100
AcDbEntity
  8
LC-001-100-D00-0
 62
     7
370
    50
100
AcDbLine
 10
-505.34508
 20
269.57866
 30
0.0
 11
-505.345082
 21
275.57866
 31
0.0
  0
LINE
  5
335
330
1F
100
AcDbEntity
  8
LC-001-100-D00-0
 62
     7
370
    50
100
AcDbLine
 10
-504.34508
 20
276.57866
 30
0.0
 11
-505.345082
 21
275.57866
 31
0.0
  0
LINE
  5
336
330
1F
100
AcDbEntity
  8
LC-001-100-D00-0
 62
     7
370
    50
100
AcDbLine
 10
-502.394234
 20
276.57866
 30
0.0
 11
-502.394234
 21
274.57866
 31
0.0
  0
LINE
  5
337
330
1F
100
AcDbEntity
  8
LC-001-100-D00-0
 62
     7
370
    50
100
AcDbLine
 10
-503.100372
 20
274.38945
 30
0.0
 11
-502.394234
 21
274.57866
 31
0.0
  0
ARC
  5
338
330
1F
100
AcDbEntity
  8
LC-001-100-D00-0
 62
     7
370
    50
100
AcDbCircle
 10
-502.94508
 20
273.809894
 30
0.0
 40
0.6000000000001032
100
AcDbArc
 50
105.0
 51
180.0
  0
LINE
  5
339
330
1F
100
AcDbEntity
  8
LC-001-100-D00-0
 62
     7
370
    50
100
AcDbLine
 10
-504.34508
 20
268.57866
 30
0.0
 11
-502.394234
 21
268.578661
 31
0.0
  0
LINE
  5
33A
330
1F
100
AcDbEntity
  8
LC-001-100-D00-0
 62
     7
370
    50
100
AcDbLine
 10
-504.34508
 20
276.57866
 30
0.0
 11
-502.394234
 21
276.57866
 31
0.0
  0
LINE
  5
33B
330
1F
100
AcDbEntity
  8
LC-001-100-D00-0
 62
     7
370
    50
100
AcDbLine
 10
-512.14508
 20
269.57866
 30
0.0
 11
-511.987241
 21
269.57866
 31
0.0
  0
LINE
  5
33C
330
1F
100
AcDbEntity
  8
LC-001-100-D00-0
 62
     7
370
    50
100
AcDbLine
 10
-505.50292
 20
269.57866
 30
0.0
 11
-505.34508
 21
269.57866
 31
0.0
  0
LINE
  5
33D
330
1F
100
AcDbEntity
  8
LC-001-100-D00-0
 62
     7
370
    50
100
AcDbLine
 10
-504.34508
 20
268.57866
 30
0.0
 11
-504.880862
 21
268.57866
 31
0.0
  0
LINE
  5
33E
330
1F
100
AcDbEntity
  8
LC-001-100-D00-0
 62
     7
370
    50
100
AcDbLine
 10
-512.609298
 20
268.57866
 30
0.0
 11
-513.14508
 21
268.57866
 31
0.0
  0
LINE
  5
33F
330
1F
100
AcDbEntity
  8
LC-001-100-D00-0
 62
     7
370
    50
100
AcDbLine
 10
-502.394234
 20
276.57866
 30
0.0
 11
-504.845073
 21
276.57866
 31
0.0
  0
LINE
  5
340
330
1F
100
AcDbEntity
  8
LC-001-100-D00-0
 62
     7
370
    50
100
AcDbLine
 10
-504.845073
 20
276.57866
 30
0.0
 11
-504.84508
 21
287.57866
 31
0.0
  0
LINE
  5
341
330
1F
100
AcDbEntity
  8
LC-001-100-D00-0
 62
     7
370
    50
100
AcDbLine
 10
-504.84508
 20
287.57866
 30
0.0
 11
-491.49508
 21
287.57866
 31
0.0
  0
ARC
  5
342
330
1F
100
AcDbEntity
  8
LC-001-100-D00-0
 62
     7
370
    50
100
AcDbCircle
 10
-491.49508
 20
286.57866
 30
0.0
 40
1.000000000000227
100
AcDbArc
 50
0.0
 51
90.0
  0
LINE
  5
343
330
1F
100
AcDbEntity
  8
LC-001-100-D00-0
 62
     7
370
    50
100
AcDbLine
 10
-490.49508
 20
286.57866
 30
0.0
 11
-490.495076
 21
280.57866
 31
0.0
  0
LINE
  5
344
330
1F
100
AcDbEntity
  8
LC-001-100-D00-0
 62
     7
370
    50
100
AcDbLine
 10
-493.49508
 20
280.57866
 30
0.0
 11
-490.495076
 21
280.57866
 31
0.0
  0
LINE
  5
345
330
1F
100
AcDbEntity
  8
LC-001-100-D00-0
 62
     7
370
    50
100
AcDbLine
 10
-493.49508
 20
280.57866
 30
0.0
 11
-493.495082
 21
284.57866
 31
0.0
  0
LINE
  5
346
330
1F
100
AcDbEntity
  8
LC-001-100-D00-0
 62
     7
370
    50
100
AcDbLine
 10
-497.99508
 20
284.57866
 30
0.0
 11
-493.495082
 21
284.57866
 31
0.0
  0
ARC
  5
347
330
1F
100
AcDbEntity
  8
LC-001-100-D00-0
 62
     7
370
    50
100
AcDbCircle
 10
-497.99508
 20
283.57866
 30
0.0
 40
1.000000000000227
100
AcDbArc
 50
90.0
 51
180.0
  0
LINE
  5
348
330
1F
100
AcDbEntity
  8
LC-001-100-D00-0
 62
     7
370
    50
100
AcDbLine
 10
-498.99508
 20
269.57866
 30
0.0
 11
-498.99508
 21
283.57866
 31
0.0
  0
ARC
  5
349
330
1F
100
AcDbEntity
  8
LC-001-100-D00-0
 62
     7
370
    50
100
AcDbCircle
 10
-499.99508
 20
269.57866
 30
0.0
 40
1.0
100
AcDbArc
 50
270.0
 51
0.0
  0
LINE
  5
34A
330
1F
100
AcDbEntity
  8
LC-001-100-D00-0
 62
     7
370
    50
100
AcDbLine
 10
-499.99508
 20
268.57866
 30
0.0
 11
-502.394234
 21
268.578661
 31
0.0
  0
LINE
  5
34B
330
1F
100
AcDbEntity
  8
LC-001-100-D00-0
 62
     7
370
    50
100
AcDbLine
 10
-502.394234
 20
270.578659
 30
0.0
 11
-502.394234
 21
268.578661
 31
0.0
  0
LINE
  5
34C
330
1F
100
AcDbEntity
  8
LC-001-100-D00-0
 62
     7
370
    50
100
AcDbLine
 10
-503.04508
 20
270.57866
 30
0.0
 11
-502.394234
 21
270.578659
 31
0.0
  0
ARC
  5
34D
330
1F
100
AcDbEntity
  8
LC-001-100-D00-0
 62
     7
370
    50
100
AcDbCircle
 10
-503.04508
 20
271.07866
 30
0.0
 40
0.4999999999999432
100
AcDbArc
 50
180.0
 51
270.0
  0
LINE
  5
34E
330
1F
100
AcDbEntity
  8
LC-001-100-D00-0
 62
     7
370
    50
100
AcDbLine
 10
-503.54508
 20
274.07866
 30
0.0
 11
-503.54508
 21
271.07866
 31
0.0
  0
ARC
  5
34F
330
1F
100
AcDbEntity
  8
LC-001-100-D00-0
 62
     7
370
    50
100
AcDbCircle
 10
-503.04508
 20
274.07866
 30
0.0
 40
0.4999999999997726
100
AcDbArc
 50
90.0
 51
180.0
  0
LINE
  5
350
330
1F
100
AcDbEntity
  8
LC-001-100-D00-0
 62
     7
370
    50
100
AcDbLine
 10
-502.394234
 20
274.57866
 30
0.0
 11
-503.04508
 21
274.57866
 31
0.0
  0
LINE
  5
351
330
1F
100
AcDbEntity
  8
LC-001-100-D00-0
 62
     7
370
    50
100
AcDbLine
 10
-502.394234
 20
276.57866
 30
0.0
 11
-502.394234
 21
274.57866
 31
0.0
  0
ARC
  5
352
330
1F
100
AcDbEntity
  8
LC-001-100-D00-0
 62
     7
370
    50
100
AcDbCircle
 10
-519.49508
 20
283.57866
 30
0.0
 40
1.000000000000227
100
AcDbArc
 50
0.0
 51
90.0
  0
ARC
  5
353
330
1F
100
AcDbEntity
  8
LC-001-100-D00-0
 62
     7
370
    50
100
AcDbCircle
 10
-517.49508
 20
269.57866
 30
0.0
 40
1.000000000000114
100
AcDbArc
 50
180.0
 51
270.0
  0
LINE
  5
354
330
1F
100
AcDbEntity
  8
LC-001-100-D00-0
 62
     7
370
    50
100
AcDbLine
 10
-518.49508
 20
283.57866
 30
0.0
 11
-518.49508
 21
269.57866
 31
0.0
  0
LINE
  5
355
330
1F
100
AcDbEntity
  8
LC-001-100-D00-0
 62
     7
370
    50
100
AcDbLine
 10
-513.94508
 20
271.07866
 30
0.0
 11
-513.94508
 21
274.07866
 31
0.0
  0
LINE
  5
356
330
1F
100
AcDbEntity
  8
LC-001-100-D00-0
 62
     7
370
    50
100
AcDbLine
 10
-512.64508
 20
287.57866
 30
0.0
 11
-512.645086
 21
276.57866
 31
0.0
  0
LINE
  5
357
330
1F
100
AcDbEntity
  8
LC-001-100-D00-0
 62
     7
370
    50
100
AcDbLine
 10
-512.64508
 20
287.57866
 30
0.0
 11
-504.84508
 21
287.57866
 31
0.0
  0
LINE
  5
358
330
1F
100
AcDbEntity
  8
LC-001-100-D00-0
 62
     7
370
    50
100
AcDbLine
 10
-515.09594
 20
276.57866
 30
0.0
 11
-515.09594
 21
274.57866
 31
0.0
  0
LINE
  5
359
330
1F
100
AcDbEntity
  8
LC-001-100-D00-0
 62
     7
370
    50
100
AcDbLine
 10
-515.09594
 20
270.578659
 30
0.0
 11
-515.09594
 21
268.578661
 31
0.0
  0
ARC
  5
35A
330
1F
100
AcDbEntity
  8
LC-001-100-D00-0
 62
     7
370
    50
100
AcDbCircle
 10
-514.44508
 20
271.07866
 30
0.0
 40
0.5000000000002274
100
AcDbArc
 50
270.0
 51
0.0
  0
LINE
  5
35B
330
1F
100
AcDbEntity
  8
LC-001-100-D00-0
 62
     7
370
    50
100
AcDbLine
 10
-515.09594
 20
270.578659
 30
0.0
 11
-514.44508
 21
270.57866
 31
0.0
  0
LINE
  5
35C
330
1F
100
AcDbEntity
  8
LC-001-100-D00-0
 62
     7
370
    50
100
AcDbLine
 10
-523.995092
 20
284.57866
 30
0.0
 11
-523.99508
 21
280.57866
 31
0.0
  0
LINE
  5
35D
330
1F
100
AcDbEntity
  8
LC-001-100-D00-0
 62
     7
370
    50
100
AcDbLine
 10
-526.995083
 20
280.57866
 30
0.0
 11
-526.99508
 21
286.57866
 31
0.0
  0
ARC
  5
35E
330
1F
100
AcDbEntity
  8
LC-001-100-D00-0
 62
     7
370
    50
100
AcDbCircle
 10
-525.99508
 20
286.57866
 30
0.0
 40
1.000000000000227
100
AcDbArc
 50
90.0
 51
180.0
  0
LINE
  5
35F
330
1F
100
AcDbEntity
  8
LC-001-100-D00-0
 62
     7
370
    50
100
AcDbLine
 10
-514.44508
 20
274.57866
 30
0.0
 11
-515.09594
 21
274.57866
 31
0.0
  0
ARC
  5
360
330
1F
100
AcDbEntity
  8
LC-001-100-D00-0
 62
     7
370
    50
100
AcDbCircle
 10
-514.44508
 20
274.07866
 30
0.0
 40
0.5
100
AcDbArc
 50
0.0
 51
90.0
  0
LINE
  5
361
330
1F
100
AcDbEntity
  8
LC-001-100-D00-0
 62
     7
370
    50
100
AcDbLine
 10
-512.645086
 20
276.57866
 30
0.0
 11
-515.09594
 21
276.57866
 31
0.0
  0
LINE
  5
362
330
1F
100
AcDbEntity
  8
LC-001-100-D00-0
 62
     7
370
    50
100
AcDbLine
 10
-515.09594
 20
268.578661
 30
0.0
 11
-517.49508
 21
268.57866
 31
0.0
  0
LINE
  5
363
330
1F
100
AcDbEntity
  8
LC-001-100-D00-0
 62
     7
370
    50
100
AcDbLine
 10
-523.995092
 20
284.57866
 30
0.0
 11
-519.49508
 21
284.57866
 31
0.0
  0
LINE
  5
364
330
1F
100
AcDbEntity
  8
LC-001-100-D00-0
 62
     7
370
    50
100
AcDbLine
 10
-525.99508
 20
287.57866
 30
0.0
 11
-512.64508
 21
287.57866
 31
0.0
  0
LINE
  5
365
330
1F
100
AcDbEntity
  8
LC-001-100-D00-0
 62
     7
370
    50
100
AcDbLine
 10
-526.995083
 20
280.57866
 30
0.0
 11
-523.99508
 21
280.57866
 31
0.0
  0
LINE
  5
366
330
1F
100
AcDbEntity
  8
LC-001-100-D00-0
 62
     7
370
    50
100
AcDbLine
 10
-495.49508
 20
280.57866
 30
0.0
 11
-493.49508
 21
280.57866
 31
0.0
  0
LINE
  5
367
330
1F
100
AcDbEntity
  8
LC-001-100-D00-0
 62
     7
370
    50
100
AcDbLine
 10
-523.99508
 20
280.57866
 30
0.0
 11
-521.99508
 21
280.57866
 31
0.0
  0
LINE
  5
368
330
1F
100
AcDbEntity
  8
LC-001-100-D00-0
 62
     7
370
    50
100
AcDbLine
 10
-521.99508
 20
280.57866
 30
0.0
 11
-518.495073
 21
280.57866
 31
0.0
  0
LINE
  5
369
330
1F
100
AcDbEntity
  8
LC-001-100-D00-0
 62
     7
370
    50
100
AcDbLine
 10
-498.995086
 20
280.57866
 30
0.0
 11
-495.49508
 21
280.57866
 31
0.0
  0
LINE
  5
36A
330
1F
100
AcDbEntity
  8
LC-001-100-D00-0
 62
     7
370
    50
100
AcDbLine
 10
-647.145083
 20
275.57866
 30
0.0
 11
-648.14507
 21
276.57866
 31
0.0
  0
LINE
  5
36B
330
1F
100
AcDbEntity
  8
LC-001-100-D00-0
 62
     7
370
    50
100
AcDbLine
 10
-647.145083
 20
275.57866
 30
0.0
 11
-647.14508
 21
269.57866
 31
0.0
  0
LINE
  5
36C
330
1F
100
AcDbEntity
  8
LC-001-100-D00-0
 62
     7
370
    50
100
AcDbLine
 10
-648.14508
 20
268.57866
 30
0.0
 11
-647.14508
 21
269.57866
 31
0.0
  0
LINE
  5
36D
330
1F
100
AcDbEntity
  8
LC-001-100-D00-0
 62
     7
370
    50
100
AcDbLine
 10
-650.09593
 20
270.578659
 30
0.0
 11
-650.09593
 21
268.578661
 31
0.0
  0
LINE
  5
36E
330
1F
100
AcDbEntity
  8
LC-001-100-D00-0
 62
     7
370
    50
100
AcDbLine
 10
-649.389789
 20
270.767871
 30
0.0
 11
-650.09593
 21
270.578659
 31
0.0
  0
ARC
  5
36F
330
1F
100
AcDbEntity
  8
LC-001-100-D00-0
 62
     7
370
    50
100
AcDbCircle
 10
-649.54508
 20
271.347427
 30
0.0
 40
0.6000000000000886
100
AcDbArc
 50
285.0
 51
0.0
  0
LINE
  5
370
330
1F
100
AcDbEntity
  8
LC-001-100-D00-0
 62
     7
370
    50
100
AcDbLine
 10
-648.94508
 20
273.809894
 30
0.0
 11
-648.94508
 21
271.347427
 31
0.0
  0
ARC
  5
371
330
1F
100
AcDbEntity
  8
LC-001-100-D00-0
 62
     7
370
    50
100
AcDbCircle
 10
-649.54508
 20
273.809894
 30
0.0
 40
0.6000000000000227
100
AcDbArc
 50
0.0
 51
75.0
  0
LINE
  5
372
330
1F
100
AcDbEntity
  8
LC-001-100-D00-0
 62
     7
370
    50
100
AcDbLine
 10
-650.09593
 20
274.57866
 30
0.0
 11
-649.389789
 21
274.38945
 31
0.0
  0
LINE
  5
373
330
1F
100
AcDbEntity
  8
LC-001-100-D00-0
 62
     7
370
    50
100
AcDbLine
 10
-650.09593
 20
276.57866
 30
0.0
 11
-650.09593
 21
274.57866
 31
0.0
  0
LINE
  5
374
330
1F
100
AcDbEntity
  8
LC-001-100-D00-0
 62
     7
370
    50
100
AcDbLine
 10
-650.09593
 20
268.578661
 30
0.0
 11
-648.14508
 21
268.57866
 31
0.0
  0
LINE
  5
375
330
1F
100
AcDbEntity
  8
LC-001-100-D00-0
 62
     7
370
    50
100
AcDbLine
 10
-650.09593
 20
276.57866
 30
0.0
 11
-648.14507
 21
276.57866
 31
0.0
  0
LINE
  5
376
330
1F
100
AcDbEntity
  8
LC-001-100-D00-0
 62
     7
370
    50
100
AcDbLine
 10
-638.54508
 20
271.347427
 30
0.0
 11
-638.54508
 21
273.809894
 31
0.0
  0
ARC
  5
377
330
1F
100
AcDbEntity
  8
LC-001-100-D00-0
 62
     7
370
    50
100
AcDbCircle
 10
-637.94508
 20
271.347427
 30
0.0
 40
0.6000000000001364
100
AcDbArc
 50
180.0
 51
255.0
  0
LINE
  5
378
330
1F
100
AcDbEntity
  8
LC-001-100-D00-0
 62
     7
370
    50
100
AcDbLine
 10
-637.39424
 20
270.578659
 30
0.0
 11
-638.100372
 21
270.767871
 31
0.0
  0
LINE
  5
379
330
1F
100
AcDbEntity
  8
LC-001-100-D00-0
 62
     7
370
    50
100
AcDbLine
 10
-637.39424
 20
270.578659
 30
0.0
 11
-637.39424
 21
268.578661
 31
0.0
  0
LINE
  5
37A
330
1F
100
AcDbEntity
  8
LC-001-100-D00-0
 62
     7
370
    50
100
AcDbLine
 10
-640.34508
 20
269.57866
 30
0.0
 11
-639.34508
 21
268.57866
 31
0.0
  0
LINE
  5
37B
330
1F
100
AcDbEntity
  8
LC-001-100-D00-0
 62
     7
370
    50
100
AcDbLine
 10
-640.34508
 20
269.57866
 30
0.0
 11
-640.345087
 21
275.57866
 31
0.0
  0
LINE
  5
37C
330
1F
100
AcDbEntity
  8
LC-001-100-D00-0
 62
     7
370
    50
100
AcDbLine
 10
-639.34507
 20
276.57866
 30
0.0
 11
-640.345087
 21
275.57866
 31
0.0
  0
LINE
  5
37D
330
1F
100
AcDbEntity
  8
LC-001-100-D00-0
 62
     7
370
    50
100
AcDbLine
 10
-637.39424
 20
276.57866
 30
0.0
 11
-637.39424
 21
274.57866
 31
0.0
  0
LINE
  5
37E
330
1F
100
AcDbEntity
  8
LC-001-100-D00-0
 62
     7
370
    50
100
AcDbLine
 10
-638.100372
 20
274.38945
 30
0.0
 11
-637.39424
 21
274.57866
 31
0.0
  0
ARC
  5
37F
330
1F
100
AcDbEntity
  8
LC-001-100-D00-0
 62
     7
370
    50
100
AcDbCircle
 10
-637.94508
 20
273.809894
 30
0.0
 40
0.600000000000118
100
AcDbArc
 50
105.0
 51
180.0
  0
LINE
  5
380
330
1F
100
AcDbEntity
  8
LC-001-100-D00-0
 62
     7
370
    50
100
AcDbLine
 10
-639.34508
 20
268.57866
 30
0.0
 11
-637.39424
 21
268.578661
 31
0.0
  0
LINE
  5
381
330
1F
100
AcDbEntity
  8
LC-001-100-D00-0
 62
     7
370
    50
100
AcDbLine
 10
-639.34507
 20
276.57866
 30
0.0
 11
-637.39424
 21
276.57866
 31
0.0
  0
LINE
  5
382
330
1F
100
AcDbEntity
  8
LC-001-100-D00-0
 62
     7
370
    50
100
AcDbLine
 10
-647.14508
 20
269.57866
 30
0.0
 11
-646.987241
 21
269.57866
 31
0.0
  0
LINE
  5
383
330
1F
100
AcDbEntity
  8
LC-001-100-D00-0
 62
     7
370
    50
100
AcDbLine
 10
-640.50292
 20
269.57866
 30
0.0
 11
-640.34508
 21
269.57866
 31
0.0
  0
LINE
  5
384
330
1F
100
AcDbEntity
  8
LC-001-100-D00-0
 62
     7
370
    50
100
AcDbLine
 10
-639.34508
 20
268.57866
 30
0.0
 11
-639.880862
 21
268.57866
 31
0.0
  0
LINE
  5
385
330
1F
100
AcDbEntity
  8
LC-001-100-D00-0
 62
     7
370
    50
100
AcDbLine
 10
-647.609298
 20
268.57866
 30
0.0
 11
-648.14508
 21
268.57866
 31
0.0
  0
LINE
  5
386
330
1F
100
AcDbEntity
  8
LC-001-100-D00-0
 62
     7
370
    50
100
AcDbLine
 10
-637.39424
 20
276.57866
 30
0.0
 11
-639.845093
 21
276.57866
 31
0.0
  0
LINE
  5
387
330
1F
100
AcDbEntity
  8
LC-001-100-D00-0
 62
     7
370
    50
100
AcDbLine
 10
-639.845093
 20
276.57866
 30
0.0
 11
-639.84508
 21
287.57866
 31
0.0
  0
LINE
  5
388
330
1F
100
AcDbEntity
  8
LC-001-100-D00-0
 62
     7
370
    50
100
AcDbLine
 10
-639.84508
 20
287.57866
 30
0.0
 11
-626.49508
 21
287.57866
 31
0.0
  0
ARC
  5
389
330
1F
100
AcDbEntity
  8
LC-001-100-D00-0
 62
     7
370
    50
100
AcDbCircle
 10
-626.49508
 20
286.57866
 30
0.0
 40
1.000000000000227
100
AcDbArc
 50
0.0
 51
90.0
  0
LINE
  5
38A
330
1F
100
AcDbEntity
  8
LC-001-100-D00-0
 62
     7
370
    50
100
AcDbLine
 10
-625.49508
 20
286.57866
 30
0.0
 11
-625.495067
 21
280.57866
 31
0.0
  0
LINE
  5
38B
330
1F
100
AcDbEntity
  8
LC-001-100-D00-0
 62
     7
370
    50
100
AcDbLine
 10
-628.49508
 20
280.57866
 30
0.0
 11
-625.495067
 21
280.57866
 31
0.0
  0
LINE
  5
38C
330
1F
100
AcDbEntity
  8
LC-001-100-D00-0
 62
     7
370
    50
100
AcDbLine
 10
-628.49508
 20
280.57866
 30
0.0
 11
-628.495088
 21
284.57866
 31
0.0
  0
LINE
  5
38D
330
1F
100
AcDbEntity
  8
LC-001-100-D00-0
 62
     7
370
    50
100
AcDbLine
 10
-632.99508
 20
284.57866
 30
0.0
 11
-628.495088
 21
284.57866
 31
0.0
  0
ARC
  5
38E
330
1F
100
AcDbEntity
  8
LC-001-100-D00-0
 62
     7
370
    50
100
AcDbCircle
 10
-632.99508
 20
283.57866
 30
0.0
 40
1.000000000000227
100
AcDbArc
 50
90.0
 51
180.0
  0
LINE
  5
38F
330
1F
100
AcDbEntity
  8
LC-001-100-D00-0
 62
     7
370
    50
100
AcDbLine
 10
-633.99508
 20
269.57866
 30
0.0
 11
-633.99508
 21
283.57866
 31
0.0
  0
ARC
  5
390
330
1F
100
AcDbEntity
  8
LC-001-100-D00-0
 62
     7
370
    50
100
AcDbCircle
 10
-634.99508
 20
269.57866
 30
0.0
 40
1.0
100
AcDbArc
 50
270.0
 51
0.0
  0
LINE
  5
391
330
1F
100
AcDbEntity
  8
LC-001-100-D00-0
 62
     7
370
    50
100
AcDbLine
 10
-634.99508
 20
268.57866
 30
0.0
 11
-637.39424
 21
268.578661
 31
0.0
  0
LINE
  5
392
330
1F
100
AcDbEntity
  8
LC-001-100-D00-0
 62
     7
370
    50
100
AcDbLine
 10
-637.39424
 20
270.578659
 30
0.0
 11
-637.39424
 21
268.578661
 31
0.0
  0
LINE
  5
393
330
1F
100
AcDbEntity
  8
LC-001-100-D00-0
 62
     7
370
    50
100
AcDbLine
 10
-638.04508
 20
270.57866
 30
0.0
 11
-637.39424
 21
270.578659
 31
0.0
  0
ARC
  5
394
330
1F
100
AcDbEntity
  8
LC-001-100-D00-0
 62
     7
370
    50
100
AcDbCircle
 10
-638.04508
 20
271.07866
 30
0.0
 40
0.4999999999998863
100
AcDbArc
 50
180.0
 51
270.0
  0
LINE
  5
395
330
1F
100
AcDbEntity
  8
LC-001-100-D00-0
 62
     7
370
    50
100
AcDbLine
 10
-638.54508
 20
274.07866
 30
0.0
 11
-638.54508
 21
271.07866
 31
0.0
  0
ARC
  5
396
330
1F
100
AcDbEntity
  8
LC-001-100-D00-0
 62
     7
370
    50
100
AcDbCircle
 10
-638.04508
 20
274.07866
 30
0.0
 40
0.4999999999997726
100
AcDbArc
 50
90.0
 51
180.0
  0
LINE
  5
397
330
1F
100
AcDbEntity
  8
LC-001-100-D00-0
 62
     7
370
    50
100
AcDbLine
 10
-637.39424
 20
274.57866
 30
0.0
 11
-638.04508
 21
274.57866
 31
0.0
  0
LINE
  5
398
330
1F
100
AcDbEntity
  8
LC-001-100-D00-0
 62
     7
370
    50
100
AcDbLine
 10
-637.39424
 20
276.57866
 30
0.0
 11
-637.39424
 21
274.57866
 31
0.0
  0
ARC
  5
399
330
1F
100
AcDbEntity
  8
LC-001-100-D00-0
 62
     7
370
    50
100
AcDbCircle
 10
-654.49508
 20
283.57866
 30
0.0
 40
1.000000000000227
100
AcDbArc
 50
0.0
 51
90.0
  0
ARC
  5
39A
330
1F
100
AcDbEntity
  8
LC-001-100-D00-0
 62
     7
370
    50
100
AcDbCircle
 10
-652.49508
 20
269.57866
 30
0.0
 40
1.000000000000114
100
AcDbArc
 50
180.0
 51
270.0
  0
LINE
  5
39B
330
1F
100
AcDbEntity
  8
LC-001-100-D00-0
 62
     7
370
    50
100
AcDbLine
 10
-653.49508
 20
283.57866
 30
0.0
 11
-653.49508
 21
269.57866
 31
0.0
  0
LINE
  5
39C
330
1F
100
AcDbEntity
  8
LC-001-100-D00-0
 62
     7
370
    50
100
AcDbLine
 10
-648.94508
 20
271.07866
 30
0.0
 11
-648.94508
 21
274.07866
 31
0.0
  0
LINE
  5
39D
330
1F
100
AcDbEntity
  8
LC-001-100-D00-0
 62
     7
370
    50
100
AcDbLine
 10
-647.64508
 20
287.57866
 30
0.0
 11
-647.645076
 21
276.57866
 31
0.0
  0
LINE
  5
39E
330
1F
100
AcDbEntity
  8
LC-001-100-D00-0
 62
     7
370
    50
100
AcDbLine
 10
-647.64508
 20
287.57866
 30
0.0
 11
-639.84508
 21
287.57866
 31
0.0
  0
LINE
  5
39F
330
1F
100
AcDbEntity
  8
LC-001-100-D00-0
 62
     7
370
    50
100
AcDbLine
 10
-650.09593
 20
270.578659
 30
0.0
 11
-650.09593
 21
268.578661
 31
0.0
  0
LINE
  5
3A0
330
1F
100
AcDbEntity
  8
LC-001-100-D00-0
 62
     7
370
    50
100
AcDbLine
 10
-650.09593
 20
276.57866
 30
0.0
 11
-650.09593
 21
274.57866
 31
0.0
  0
ARC
  5
3A1
330
1F
100
AcDbEntity
  8
LC-001-100-D00-0
 62
     7
370
    50
100
AcDbCircle
 10
-649.44508
 20
271.07866
 30
0.0
 40
0.4999999999997726
100
AcDbArc
 50
270.0
 51
0.0
  0
LINE
  5
3A2
330
1F
100
AcDbEntity
  8
LC-001-100-D00-0
 62
     7
370
    50
100
AcDbLine
 10
-650.09593
 20
270.578659
 30
0.0
 11
-649.44508
 21
270.57866
 31
0.0
  0
LINE
  5
3A3
330
1F
100
AcDbEntity
  8
LC-001-100-D00-0
 62
     7
370
    50
100
AcDbLine
 10
-658.995082
 20
284.57866
 30
0.0
 11
-658.99508
 21
280.57866
 31
0.0
  0
LINE
  5
3A4
330
1F
100
AcDbEntity
  8
LC-001-100-D00-0
 62
     7
370
    50
100
AcDbLine
 10
-661.995073
 20
280.57866
 30
0.0
 11
-661.99508
 21
286.57866
 31
0.0
  0
ARC
  5
3A5
330
1F
100
AcDbEntity
  8
LC-001-100-D00-0
 62
     7
370
    50
100
AcDbCircle
 10
-660.99508
 20
286.57866
 30
0.0
 40
1.000000000000227
100
AcDbArc
 50
90.0
 51
180.0
  0
LINE
  5
3A6
330
1F
100
AcDbEntity
  8
LC-001-100-D00-0
 62
     7
370
    50
100
AcDbLine
 10
-649.44508
 20
274.57866
 30
0.0
 11
-650.09593
 21
274.57866
 31
0.0
  0
ARC
  5
3A7
330
1F
100
AcDbEntity
  8
LC-001-100-D00-0
 62
     7
370
    50
100
AcDbCircle
 10
-649.44508
 20
274.07866
 30
0.0
 40
0.4999999999998863
100
AcDbArc
 50
0.0
 51
90.0
  0
LINE
  5
3A8
330
1F
100
AcDbEntity
  8
LC-001-100-D00-0
 62
     7
370
    50
100
AcDbLine
 10
-661.995073
 20
280.57866
 30
0.0
 11
-658.99508
 21
280.57866
 31
0.0
  0
LINE
  5
3A9
330
1F
100
AcDbEntity
  8
LC-001-100-D00-0
 62
     7
370
    50
100
AcDbLine
 10
-647.645076
 20
276.57866
 30
0.0
 11
-650.09593
 21
276.57866
 31
0.0
  0
LINE
  5
3AA
330
1F
100
AcDbEntity
  8
LC-001-100-D00-0
 62
     7
370
    50
100
AcDbLine
 10
-650.09593
 20
268.578661
 30
0.0
 11
-652.49508
 21
268.57866
 31
0.0
  0
LINE
  5
3AB
330
1F
100
AcDbEntity
  8
LC-001-100-D00-0
 62
     7
370
    50
100
AcDbLine
 10
-658.995082
 20
284.57866
 30
0.0
 11
-654.49508
 21
284.57866
 31
0.0
  0
LINE
  5
3AC
330
1F
100
AcDbEntity
  8
LC-001-100-D00-0
 62
     7
370
    50
100
AcDbLine
 10
-660.99508
 20
287.57866
 30
0.0
 11
-647.64508
 21
287.57866
 31
0.0
  0
LINE
  5
3AD
330
1F
100
AcDbEntity
  8
LC-001-100-D00-0
 62
     7
370
    50
100
AcDbLine
 10
-630.49508
 20
280.57866
 30
0.0
 11
-628.49508
 21
280.57866
 31
0.0
  0
LINE
  5
3AE
330
1F
100
AcDbEntity
  8
LC-001-100-D00-0
 62
     7
370
    50
100
AcDbLine
 10
-658.99508
 20
280.57866
 30
0.0
 11
-656.99508
 21
280.57866
 31
0.0
  0
LINE
  5
3AF
330
1F
100
AcDbEntity
  8
LC-001-100-D00-0
 62
     7
370
    50
100
AcDbLine
 10
-656.99508
 20
280.57866
 30
0.0
 11
-653.495093
 21
280.57866
 31
0.0
  0
LINE
  5
3B0
330
1F
100
AcDbEntity
  8
LC-001-100-D00-0
 62
     7
370
    50
100
AcDbLine
 10
-633.995076
 20
280.57866
 30
0.0
 11
-630.49508
 21
280.57866
 31
0.0
  0
LINE
  5
3B1
330
1F
100
AcDbEntity
  8
LC-001-100-D00-0
 62
     7
370
    50
100
AcDbLine
 10
-42.145079
 20
275.57866
 30
0.0
 11
-43.145081
 21
276.57866
 31
0.0
  0
LINE
  5
3B2
330
1F
100
AcDbEntity
  8
LC-001-100-D00-0
 62
     7
370
    50
100
AcDbLine
 10
-42.145079
 20
275.57866
 30
0.0
 11
-42.14508
 21
269.57866
 31
0.0
  0
LINE
  5
3B3
330
1F
100
AcDbEntity
  8
LC-001-100-D00-0
 62
     7
370
    50
100
AcDbLine
 10
-43.14508
 20
268.57866
 30
0.0
 11
-42.14508
 21
269.57866
 31
0.0
  0
LINE
  5
3B4
330
1F
100
AcDbEntity
  8
LC-001-100-D00-0
 62
     7
370
    50
100
AcDbLine
 10
-45.095926
 20
270.578659
 30
0.0
 11
-45.095926
 21
268.578661
 31
0.0
  0
LINE
  5
3B5
330
1F
100
AcDbEntity
  8
LC-001-100-D00-0
 62
     7
370
    50
100
AcDbLine
 10
-44.389789
 20
270.767871
 30
0.0
 11
-45.095926
 21
270.578659
 31
0.0
  0
ARC
  5
3B6
330
1F
100
AcDbEntity
  8
LC-001-100-D00-0
 62
     7
370
    50
100
AcDbCircle
 10
-44.54508
 20
271.347427
 30
0.0
 40
0.600000000000118
100
AcDbArc
 50
285.0
 51
0.0
  0
LINE
  5
3B7
330
1F
100
AcDbEntity
  8
LC-001-100-D00-0
 62
     7
370
    50
100
AcDbLine
 10
-43.94508
 20
273.809894
 30
0.0
 11
-43.94508
 21
271.347427
 31
0.0
  0
ARC
  5
3B8
330
1F
100
AcDbEntity
  8
LC-001-100-D00-0
 62
     7
370
    50
100
AcDbCircle
 10
-44.54508
 20
273.809894
 30
0.0
 40
0.6000000000000227
100
AcDbArc
 50
0.0
 51
75.0
  0
LINE
  5
3B9
330
1F
100
AcDbEntity
  8
LC-001-100-D00-0
 62
     7
370
    50
100
AcDbLine
 10
-45.095926
 20
274.57866
 30
0.0
 11
-44.389789
 21
274.38945
 31
0.0
  0
LINE
  5
3BA
330
1F
100
AcDbEntity
  8
LC-001-100-D00-0
 62
     7
370
    50
100
AcDbLine
 10
-45.095926
 20
276.57866
 30
0.0
 11
-45.095926
 21
274.57866
 31
0.0
  0
LINE
  5
3BB
330
1F
100
AcDbEntity
  8
LC-001-100-D00-0
 62
     7
370
    50
100
AcDbLine
 10
-45.095926
 20
268.578661
 30
0.0
 11
-43.14508
 21
268.57866
 31
0.0
  0
LINE
  5
3BC
330
1F
100
AcDbEntity
  8
LC-001-100-D00-0
 62
     7
370
    50
100
AcDbLine
 10
-45.095926
 20
276.57866
 30
0.0
 11
-43.145081
 21
276.57866
 31
0.0
  0
LINE
  5
3BD
330
1F
100
AcDbEntity
  8
LC-001-100-D00-0
 62
     7
370
    50
100
AcDbLine
 10
-33.54508
 20
271.347427
 30
0.0
 11
-33.54508
 21
273.809894
 31
0.0
  0
ARC
  5
3BE
330
1F
100
AcDbEntity
  8
LC-001-100-D00-0
 62
     7
370
    50
100
AcDbCircle
 10
-32.94508
 20
271.347427
 30
0.0
 40
0.6000000000000227
100
AcDbArc
 50
180.0
 51
255.0
  0
LINE
  5
3BF
330
1F
100
AcDbEntity
  8
LC-001-100-D00-0
 62
     7
370
    50
100
AcDbLine
 10
-32.394221
 20
270.578659
 30
0.0
 11
-33.100372
 21
270.767871
 31
0.0
  0
LINE
  5
3C0
330
1F
100
AcDbEntity
  8
LC-001-100-D00-0
 62
     7
370
    50
100
AcDbLine
 10
-32.394221
 20
270.578659
 30
0.0
 11
-32.394221
 21
268.578661
 31
0.0
  0
LINE
  5
3C1
330
1F
100
AcDbEntity
  8
LC-001-100-D00-0
 62
     7
370
    50
100
AcDbLine
 10
-35.34508
 20
269.57866
 30
0.0
 11
-34.34508
 21
268.57866
 31
0.0
  0
LINE
  5
3C2
330
1F
100
AcDbEntity
  8
LC-001-100-D00-0
 62
     7
370
    50
100
AcDbLine
 10
-35.34508
 20
269.57866
 30
0.0
 11
-35.345083
 21
275.57866
 31
0.0
  0
LINE
  5
3C3
330
1F
100
AcDbEntity
  8
LC-001-100-D00-0
 62
     7
370
    50
100
AcDbLine
 10
-34.345081
 20
276.57866
 30
0.0
 11
-35.345083
 21
275.57866
 31
0.0
  0
LINE
  5
3C4
330
1F
100
AcDbEntity
  8
LC-001-100-D00-0
 62
     7
370
    50
100
AcDbLine
 10
-32.394221
 20
276.57866
 30
0.0
 11
-32.394221
 21
274.57866
 31
0.0
  0
LINE
  5
3C5
330
1F
100
AcDbEntity
  8
LC-001-100-D00-0
 62
     7
370
    50
100
AcDbLine
 10
-33.100372
 20
274.38945
 30
0.0
 11
-32.394221
 21
274.57866
 31
0.0
  0
ARC
  5
3C6
330
1F
100
AcDbEntity
  8
LC-001-100-D00-0
 62
     7
370
    50
100
AcDbCircle
 10
-32.94508
 20
273.809894
 30
0.0
 40
0.600000000000118
100
AcDbArc
 50
105.0
 51
180.0
  0
LINE
  5
3C7
330
1F
100
AcDbEntity
  8
LC-001-100-D00-0
 62
     7
370
    50
100
AcDbLine
 10
-34.34508
 20
268.57866
 30
0.0
 11
-32.394221
 21
268.578661
 31
0.0
  0
LINE
  5
3C8
330
1F
100
AcDbEntity
  8
LC-001-100-D00-0
 62
     7
370
    50
100
AcDbLine
 10
-34.345081
 20
276.57866
 30
0.0
 11
-32.394221
 21
276.57866
 31
0.0
  0
LINE
  5
3C9
330
1F
100
AcDbEntity
  8
LC-001-100-D00-0
 62
     7
370
    50
100
AcDbLine
 10
-42.14508
 20
269.57866
 30
0.0
 11
-41.987241
 21
269.57866
 31
0.0
  0
LINE
  5
3CA
330
1F
100
AcDbEntity
  8
LC-001-100-D00-0
 62
     7
370
    50
100
AcDbLine
 10
-35.50292
 20
269.57866
 30
0.0
 11
-35.34508
 21
269.57866
 31
0.0
  0
LINE
  5
3CB
330
1F
100
AcDbEntity
  8
LC-001-100-D00-0
 62
     7
370
    50
100
AcDbLine
 10
-34.34508
 20
268.57866
 30
0.0
 11
-34.880862
 21
268.57866
 31
0.0
  0
LINE
  5
3CC
330
1F
100
AcDbEntity
  8
LC-001-100-D00-0
 62
     7
370
    50
100
AcDbLine
 10
-42.609298
 20
268.57866
 30
0.0
 11
-43.14508
 21
268.57866
 31
0.0
  0
LINE
  5
3CD
330
1F
100
AcDbEntity
  8
LC-001-100-D00-0
 62
     7
370
    50
100
AcDbLine
 10
-32.394221
 20
276.57866
 30
0.0
 11
-34.845074
 21
276.57866
 31
0.0
  0
LINE
  5
3CE
330
1F
100
AcDbEntity
  8
LC-001-100-D00-0
 62
     7
370
    50
100
AcDbLine
 10
-34.845074
 20
276.57866
 30
0.0
 11
-34.84508
 21
287.57866
 31
0.0
  0
LINE
  5
3CF
330
1F
100
AcDbEntity
  8
LC-001-100-D00-0
 62
     7
370
    50
100
AcDbLine
 10
-34.84508
 20
287.57866
 30
0.0
 11
-21.49508
 21
287.57866
 31
0.0
  0
ARC
  5
3D0
330
1F
100
AcDbEntity
  8
LC-001-100-D00-0
 62
     7
370
    50
100
AcDbCircle
 10
-21.49508
 20
286.57866
 30
0.0
 40
1.000000000000227
100
AcDbArc
 50
0.0
 51
90.0
  0
LINE
  5
3D1
330
1F
100
AcDbEntity
  8
LC-001-100-D00-0
 62
     7
370
    50
100
AcDbLine
 10
-20.49508
 20
286.57866
 30
0.0
 11
-20.495077
 21
280.57866
 31
0.0
  0
LINE
  5
3D2
330
1F
100
AcDbEntity
  8
LC-001-100-D00-0
 62
     7
370
    50
100
AcDbLine
 10
-23.49508
 20
280.57866
 30
0.0
 11
-20.495077
 21
280.57866
 31
0.0
  0
LINE
  5
3D3
330
1F
100
AcDbEntity
  8
LC-001-100-D00-0
 62
     7
370
    50
100
AcDbLine
 10
-23.49508
 20
280.57866
 30
0.0
 11
-23.495068
 21
284.57866
 31
0.0
  0
LINE
  5
3D4
330
1F
100
AcDbEntity
  8
LC-001-100-D00-0
 62
     7
370
    50
100
AcDbLine
 10
-27.99508
 20
284.57866
 30
0.0
 11
-23.495068
 21
284.57866
 31
0.0
  0
ARC
  5
3D5
330
1F
100
AcDbEntity
  8
LC-001-100-D00-0
 62
     7
370
    50
100
AcDbCircle
 10
-27.99508
 20
283.57866
 30
0.0
 40
1.000000000000227
100
AcDbArc
 50
90.0
 51
180.0
  0
LINE
  5
3D6
330
1F
100
AcDbEntity
  8
LC-001-100-D00-0
 62
     7
370
    50
100
AcDbLine
 10
-28.99508
 20
269.57866
 30
0.0
 11
-28.99508
 21
283.57866
 31
0.0
  0
ARC
  5
3D7
330
1F
100
AcDbEntity
  8
LC-001-100-D00-0
 62
     7
370
    50
100
AcDbCircle
 10
-29.99508
 20
269.57866
 30
0.0
 40
1.0
100
AcDbArc
 50
270.0
 51
0.0
  0
LINE
  5
3D8
330
1F
100
AcDbEntity
  8
LC-001-100-D00-0
 62
     7
370
    50
100
AcDbLine
 10
-29.99508
 20
268.57866
 30
0.0
 11
-32.394221
 21
268.578661
 31
0.0
  0
LINE
  5
3D9
330
1F
100
AcDbEntity
  8
LC-001-100-D00-0
 62
     7
370
    50
100
AcDbLine
 10
-32.394221
 20
270.578659
 30
0.0
 11
-32.394221
 21
268.578661
 31
0.0
  0
LINE
  5
3DA
330
1F
100
AcDbEntity
  8
LC-001-100-D00-0
 62
     7
370
    50
100
AcDbLine
 10
-33.04508
 20
270.57866
 30
0.0
 11
-32.394221
 21
270.578659
 31
0.0
  0
ARC
  5
3DB
330
1F
100
AcDbEntity
  8
LC-001-100-D00-0
 62
     7
370
    50
100
AcDbCircle
 10
-33.04508
 20
271.07866
 30
0.0
 40
0.4999999999997726
100
AcDbArc
 50
180.0
 51
270.0
  0
LINE
  5
3DC
330
1F
100
AcDbEntity
  8
LC-001-100-D00-0
 62
     7
370
    50
100
AcDbLine
 10
-33.54508
 20
274.07866
 30
0.0
 11
-33.54508
 21
271.07866
 31
0.0
  0
ARC
  5
3DD
330
1F
100
AcDbEntity
  8
LC-001-100-D00-0
 62
     7
370
    50
100
AcDbCircle
 10
-33.04508
 20
274.07866
 30
0.0
 40
0.4999999999997726
100
AcDbArc
 50
90.0
 51
180.0
  0
LINE
  5
3DE
330
1F
100
AcDbEntity
  8
LC-001-100-D00-0
 62
     7
370
    50
100
AcDbLine
 10
-32.394221
 20
274.57866
 30
0.0
 11
-33.04508
 21
274.57866
 31
0.0
  0
LINE
  5
3DF
330
1F
100
AcDbEntity
  8
LC-001-100-D00-0
 62
     7
370
    50
100
AcDbLine
 10
-32.394221
 20
276.57866
 30
0.0
 11
-32.394221
 21
274.57866
 31
0.0
  0
ARC
  5
3E0
330
1F
100
AcDbEntity
  8
LC-001-100-D00-0
 62
     7
370
    50
100
AcDbCircle
 10
-49.49508
 20
283.57866
 30
0.0
 40
1.000000000000227
100
AcDbArc
 50
0.0
 51
90.0
  0
LINE
  5
3E1
330
1F
100
AcDbEntity
  8
LC-001-100-D00-0
 62
     7
370
    50
100
AcDbLine
 10
-48.49508
 20
283.57866
 30
0.0
 11
-48.49508
 21
269.57866
 31
0.0
  0
ARC
  5
3E2
330
1F
100
AcDbEntity
  8
LC-001-100-D00-0
 62
     7
370
    50
100
AcDbCircle
 10
-47.49508
 20
269.57866
 30
0.0
 40
1.000000000000114
100
AcDbArc
 50
180.0
 51
270.0
  0
LINE
  5
3E3
330
1F
100
AcDbEntity
  8
LC-001-100-D00-0
 62
     7
370
    50
100
AcDbLine
 10
-43.94508
 20
271.07866
 30
0.0
 11
-43.94508
 21
274.07866
 31
0.0
  0
LINE
  5
3E4
330
1F
100
AcDbEntity
  8
LC-001-100-D00-0
 62
     7
370
    50
100
AcDbLine
 10
-42.64508
 20
287.57866
 30
0.0
 11
-42.645087
 21
276.57866
 31
0.0
  0
LINE
  5
3E5
330
1F
100
AcDbEntity
  8
LC-001-100-D00-0
 62
     7
370
    50
100
AcDbLine
 10
-42.64508
 20
287.57866
 30
0.0
 11
-34.84508
 21
287.57866
 31
0.0
  0
LINE
  5
3E6
330
1F
100
AcDbEntity
  8
LC-001-100-D00-0
 62
     7
370
    50
100
AcDbLine
 10
-45.095926
 20
276.57866
 30
0.0
 11
-45.095926
 21
274.57866
 31
0.0
  0
LINE
  5
3E7
330
1F
100
AcDbEntity
  8
LC-001-100-D00-0
 62
     7
370
    50
100
AcDbLine
 10
-45.095926
 20
270.578659
 30
0.0
 11
-45.095926
 21
268.578661
 31
0.0
  0
ARC
  5
3E8
330
1F
100
AcDbEntity
  8
LC-001-100-D00-0
 62
     7
370
    50
100
AcDbCircle
 10
-44.44508
 20
271.07866
 30
0.0
 40
0.5000000000002274
100
AcDbArc
 50
270.0
 51
0.0
  0
LINE
  5
3E9
330
1F
100
AcDbEntity
  8
LC-001-100-D00-0
 62
     7
370
    50
100
AcDbLine
 10
-45.095926
 20
270.578659
 30
0.0
 11
-44.44508
 21
270.57866
 31
0.0
  0
LINE
  5
3EA
330
1F
100
AcDbEntity
  8
LC-001-100-D00-0
 62
     7
370
    50
100
AcDbLine
 10
-53.995078
 20
284.57866
 30
0.0
 11
-53.99508
 21
280.57866
 31
0.0
  0
LINE
  5
3EB
330
1F
100
AcDbEntity
  8
LC-001-100-D00-0
 62
     7
370
    50
100
AcDbLine
 10
-56.995084
 20
280.57866
 30
0.0
 11
-56.99508
 21
286.57866
 31
0.0
  0
ARC
  5
3EC
330
1F
100
AcDbEntity
  8
LC-001-100-D00-0
 62
     7
370
    50
100
AcDbCircle
 10
-55.99508
 20
286.57866
 30
0.0
 40
1.000000000000227
100
AcDbArc
 50
90.0
 51
180.0
  0
LINE
  5
3ED
330
1F
100
AcDbEntity
  8
LC-001-100-D00-0
 62
     7
370
    50
100
AcDbLine
 10
-44.44508
 20
274.57866
 30
0.0
 11
-45.095926
 21
274.57866
 31
0.0
  0
ARC
  5
3EE
330
1F
100
AcDbEntity
  8
LC-001-100-D00-0
 62
     7
370
    50
100
AcDbCircle
 10
-44.44508
 20
274.07866
 30
0.0
 40
0.5000000000001137
100
AcDbArc
 50
0.0
 51
90.0
  0
LINE
  5
3EF
330
1F
100
AcDbEntity
  8
LC-001-100-D00-0
 62
     7
370
    50
100
AcDbLine
 10
-42.645087
 20
276.57866
 30
0.0
 11
-45.095926
 21
276.57866
 31
0.0
  0
LINE
  5
3F0
330
1F
100
AcDbEntity
  8
LC-001-100-D00-0
 62
     7
370
    50
100
AcDbLine
 10
-45.095926
 20
268.578661
 30
0.0
 11
-47.49508
 21
268.57866
 31
0.0
  0
LINE
  5
3F1
330
1F
100
AcDbEntity
  8
LC-001-100-D00-0
 62
     7
370
    50
100
AcDbLine
 10
-53.995078
 20
284.57866
 30
0.0
 11
-49.49508
 21
284.57866
 31
0.0
  0
LINE
  5
3F2
330
1F
100
AcDbEntity
  8
LC-001-100-D00-0
 62
     7
370
    50
100
AcDbLine
 10
-55.99508
 20
287.57866
 30
0.0
 11
-42.64508
 21
287.57866
 31
0.0
  0
LINE
  5
3F3
330
1F
100
AcDbEntity
  8
LC-001-100-D00-0
 62
     7
370
    50
100
AcDbLine
 10
-56.995084
 20
280.57866
 30
0.0
 11
-53.99508
 21
280.57866
 31
0.0
  0
LINE
  5
3F4
330
1F
100
AcDbEntity
  8
LC-001-100-D00-0
 62
     7
370
    50
100
AcDbLine
 10
-25.49508
 20
280.57866
 30
0.0
 11
-23.49508
 21
280.57866
 31
0.0
  0
LINE
  5
3F5
330
1F
100
AcDbEntity
  8
LC-001-100-D00-0
 62
     7
370
    50
100
AcDbLine
 10
-53.99508
 20
280.57866
 30
0.0
 11
-51.99508
 21
280.57866
 31
0.0
  0
LINE
  5
3F6
330
1F
100
AcDbEntity
  8
LC-001-100-D00-0
 62
     7
370
    50
100
AcDbLine
 10
-51.99508
 20
280.57866
 30
0.0
 11
-48.495074
 21
280.57866
 31
0.0
  0
LINE
  5
3F7
330
1F
100
AcDbEntity
  8
LC-001-100-D00-0
 62
     7
370
    50
100
AcDbLine
 10
-28.995087
 20
280.57866
 30
0.0
 11
-25.49508
 21
280.57866
 31
0.0
  0
LINE
  5
3F8
330
1F
100
AcDbEntity
  8
LC-001-100-D00-0
 62
     7
370
    50
100
AcDbLine
 10
-218.116944
 20
256.829357
 30
0.0
 11
-215.110159
 21
257.497532
 31
0.0
  0
ARC
  5
3F9
330
1F
100
AcDbEntity
  8
LC-001-100-D00-0
 62
     7
370
    50
100
AcDbCircle
 10
-218.182023
 20
257.122213
 30
0.0
 40
0.2999999999999266
100
AcDbArc
 50
131.633539
 51
282.528808
  0
LINE
  5
3FA
330
1F
100
AcDbEntity
  8
LC-001-100-D00-0
 62
     7
370
    25
100
AcDbLine
 10
-215.029245
 20
260.32607
 30
0.0
 11
-218.381332
 21
257.346436
 31
0.0
  0
ARC
  5
3FB
330
1F
100
AcDbEntity
  8
LC-001-100-D00-0
 62
     7
370
    50
100
AcDbCircle
 10
-214.364881
 20
259.57866
 30
0.0
 40
1.0
100
AcDbArc
 50
90.0
 51
131.633539
  0
LINE
  5
3FC
330
1F
100
AcDbEntity
  8
LC-001-100-D00-0
 62
     7
370
    50
100
AcDbLine
 10
-208.745083
 20
260.57866
 30
0.0
 11
-208.745083
 21
256.578661
 31
0.0
  0
LINE
  5
3FD
330
1F
100
AcDbEntity
  8
LC-001-100-D00-0
 62
     7
370
    50
100
AcDbLine
 10
-214.74508
 20
257.204676
 30
0.0
 11
-214.74508
 21
256.57866
 31
0.0
  0
ARC
  5
3FE
330
1F
100
AcDbEntity
  8
LC-001-100-D00-0
 62
     7
370
    50
100
AcDbCircle
 10
-215.04508
 20
257.204676
 30
0.0
 40
0.3000000000001819
100
AcDbArc
 50
0.0
 51
102.528808
  0
LINE
  5
3FF
330
1F
100
AcDbEntity
  8
LC-001-100-D00-0
 62
     7
370
    50
100
AcDbLine
 10
-208.745083
 20
256.578661
 30
0.0
 11
-214.74508
 21
256.57866
 31
0.0
  0
LINE
  5
400
330
1F
100
AcDbEntity
  8
LC-001-100-D00-0
 62
     7
370
    50
100
AcDbLine
 10
-208.745083
 20
260.57866
 30
0.0
 11
-214.364881
 21
260.57866
 31
0.0
  0
LINE
  5
401
330
1F
100
AcDbEntity
  8
LC-001-100-D00-0
 62
     7
370
    50
100
AcDbLine
 10
-214.74508
 20
256.57866
 30
0.0
 11
-216.94508
 21
256.57866
 31
0.0
  0
LINE
  5
402
330
1F
100
AcDbEntity
  8
LC-001-100-D00-0
 62
     7
370
    50
100
AcDbLine
 10
-332.74508
 20
256.57866
 30
0.0
 11
-332.74508
 21
257.204676
 31
0.0
  0
LINE
  5
403
330
1F
100
AcDbEntity
  8
LC-001-100-D00-0
 62
     7
370
    50
100
AcDbLine
 10
-330.54508
 20
256.57866
 30
0.0
 11
-332.74508
 21
256.57866
 31
0.0
  0
ARC
  5
404
330
1F
100
AcDbEntity
  8
LC-001-100-D00-0
 62
     7
370
    50
100
AcDbCircle
 10
-332.44508
 20
257.204676
 30
0.0
 40
0.3000000000001588
100
AcDbArc
 50
77.471192
 51
180.0
  0
LINE
  5
405
330
1F
100
AcDbEntity
  8
LC-001-100-D00-0
 62
     7
370
    50
100
AcDbLine
 10
-329.108828
 20
257.346436
 30
0.0
 11
-332.460916
 21
260.32607
 31
0.0
  0
ARC
  5
406
330
1F
100
AcDbEntity
  8
LC-001-100-D00-0
 62
     7
370
    50
100
AcDbCircle
 10
-333.125279
 20
259.57866
 30
0.0
 40
1.00000000000007
100
AcDbArc
 50
48.366461
 51
90.0
  0
LINE
  5
407
330
1F
100
AcDbEntity
  8
LC-001-100-D00-0
 62
     7
370
    50
100
AcDbLine
 10
-332.380001
 20
257.497532
 30
0.0
 11
-329.373216
 21
256.829357
 31
0.0
  0
ARC
  5
408
330
1F
100
AcDbEntity
  8
LC-001-100-D00-0
 62
     7
370
    50
100
AcDbCircle
 10
-329.308137
 20
257.122213
 30
0.0
 40
0.3000000000000355
100
AcDbArc
 50
257.471192
 51
48.366461
  0
LINE
  5
409
330
1F
100
AcDbEntity
  8
LC-001-100-D00-0
 62
     7
370
    50
100
AcDbLine
 10
-338.745078
 20
256.578661
 30
0.0
 11
-338.745078
 21
260.57866
 31
0.0
  0
LINE
  5
40A
330
1F
100
AcDbEntity
  8
LC-001-100-D00-0
 62
     7
370
    50
100
AcDbLine
 10
-332.74508
 20
256.57866
 30
0.0
 11
-338.745078
 21
256.578661
 31
0.0
  0
LINE
  5
40B
330
1F
100
AcDbEntity
  8
LC-001-100-D00-0
 62
     7
370
    50
100
AcDbLine
 10
-333.125279
 20
260.57866
 30
0.0
 11
-338.745078
 21
260.57866
 31
0.0
  0
LINE
  5
40C
330
1F
100
AcDbEntity
  8
LC-001-100-D00-0
 62
     7
370
    50
100
AcDbLine
 10
-199.745079
 20
260.57866
 30
0.0
 11
-199.745079
 21
256.82866
 31
0.0
  0
LINE
  5
40D
330
1F
100
AcDbEntity
  8
LC-001-100-D00-0
 62
     7
370
    50
100
AcDbLine
 10
-202.745078
 20
257.578661
 30
0.0
 11
-202.74508
 21
256.82866
 31
0.0
  0
LINE
  5
40E
330
1F
100
AcDbEntity
  8
LC-001-100-D00-0
 62
     7
370
    50
100
AcDbLine
 10
-205.745076
 20
257.578661
 30
0.0
 11
-205.745076
 21
253.578659
 31
0.0
  0
LINE
  5
40F
330
1F
100
AcDbEntity
  8
LC-001-100-D00-0
 62
     7
370
    50
100
AcDbLine
 10
-211.74508
 20
253.57866
 30
0.0
 11
-205.745076
 21
253.578659
 31
0.0
  0
LINE
  5
410
330
1F
100
AcDbEntity
  8
LC-001-100-D00-0
 62
     7
370
    50
100
AcDbLine
 10
-211.745081
 20
256.578661
 30
0.0
 11
-211.74508
 21
253.57866
 31
0.0
  0
LINE
  5
411
330
1F
100
AcDbEntity
  8
LC-001-100-D00-0
 62
     7
370
    50
100
AcDbLine
 10
-208.745083
 20
256.578661
 30
0.0
 11
-211.745081
 21
256.578661
 31
0.0
  0
LINE
  5
412
330
1F
100
AcDbEntity
  8
LC-001-100-D00-0
 62
     7
370
    50
100
AcDbLine
 10
-208.745083
 20
256.578661
 30
0.0
 11
-208.745083
 21
260.57866
 31
0.0
  0
LINE
  5
413
330
1F
100
AcDbEntity
  8
LC-001-100-D00-0
 62
     7
370
    50
100
AcDbLine
 10
-205.745076
 20
257.578661
 30
0.0
 11
-202.745078
 21
257.578661
 31
0.0
  0
LINE
  5
414
330
1F
100
AcDbEntity
  8
LC-001-100-D00-0
 62
     7
370
    50
100
AcDbLine
 10
-202.74508
 20
256.82866
 30
0.0
 11
-199.745079
 21
256.82866
 31
0.0
  0
LINE
  5
415
330
1F
100
AcDbEntity
  8
LC-001-100-D00-0
 62
     7
370
    50
100
AcDbLine
 10
-199.745079
 20
260.57866
 30
0.0
 11
-208.745083
 21
260.57866
 31
0.0
  0
LINE
  5
416
330
1F
100
AcDbEntity
  8
LC-001-100-D00-0
 62
     7
370
    50
100
AcDbLine
 10
-205.74508
 20
256.82866
 30
0.0
 11
-202.74508
 21
256.82866
 31
0.0
  0
LINE
  5
417
330
1F
100
AcDbEntity
  8
LC-001-100-D00-0
 62
     7
370
    50
100
AcDbLine
 10
-218.64508
 20
253.57866
 30
0.0
 11
-211.74508
 21
253.57866
 31
0.0
  0
LINE
  5
418
330
1F
100
AcDbEntity
  8
LC-001-100-D00-0
 62
     7
370
    50
100
AcDbLine
 10
-335.74508
 20
253.57866
 30
0.0
 11
-335.745079
 21
256.578661
 31
0.0
  0
LINE
  5
419
330
1F
100
AcDbEntity
  8
LC-001-100-D00-0
 62
     7
370
    50
100
AcDbLine
 10
-335.74508
 20
253.57866
 30
0.0
 11
-328.84508
 21
253.57866
 31
0.0
  0
LINE
  5
41A
330
1F
100
AcDbEntity
  8
LC-001-100-D00-0
 62
     7
370
    50
100
AcDbLine
 10
-338.745078
 20
260.57866
 30
0.0
 11
-338.745078
 21
256.578661
 31
0.0
  0
LINE
  5
41B
330
1F
100
AcDbEntity
  8
LC-001-100-D00-0
 62
     7
370
    50
100
AcDbLine
 10
-341.745084
 20
253.578659
 30
0.0
 11
-341.745084
 21
257.578661
 31
0.0
  0
LINE
  5
41C
330
1F
100
AcDbEntity
  8
LC-001-100-D00-0
 62
     7
370
    50
100
AcDbLine
 10
-344.74508
 20
256.82866
 30
0.0
 11
-344.745082
 21
257.578661
 31
0.0
  0
LINE
  5
41D
330
1F
100
AcDbEntity
  8
LC-001-100-D00-0
 62
     7
370
    50
100
AcDbLine
 10
-344.74508
 20
256.82866
 30
0.0
 11
-341.74508
 21
256.82866
 31
0.0
  0
LINE
  5
41E
330
1F
100
AcDbEntity
  8
LC-001-100-D00-0
 62
     7
370
    50
100
AcDbLine
 10
-347.745081
 20
256.82866
 30
0.0
 11
-347.745081
 21
260.57866
 31
0.0
  0
LINE
  5
41F
330
1F
100
AcDbEntity
  8
LC-001-100-D00-0
 62
     7
370
    50
100
AcDbLine
 10
-335.745079
 20
256.578661
 30
0.0
 11
-338.745078
 21
256.578661
 31
0.0
  0
LINE
  5
420
330
1F
100
AcDbEntity
  8
LC-001-100-D00-0
 62
     7
370
    50
100
AcDbLine
 10
-341.745084
 20
253.578659
 30
0.0
 11
-335.74508
 21
253.57866
 31
0.0
  0
LINE
  5
421
330
1F
100
AcDbEntity
  8
LC-001-100-D00-0
 62
     7
370
    50
100
AcDbLine
 10
-344.745082
 20
257.578661
 30
0.0
 11
-341.745084
 21
257.578661
 31
0.0
  0
LINE
  5
422
330
1F
100
AcDbEntity
  8
LC-001-100-D00-0
 62
     7
370
    50
100
AcDbLine
 10
-347.745081
 20
256.82866
 30
0.0
 11
-344.74508
 21
256.82866
 31
0.0
  0
LINE
  5
423
330
1F
100
AcDbEntity
  8
LC-001-100-D00-0
 62
     7
370
    50
100
AcDbLine
 10
-338.745078
 20
260.57866
 30
0.0
 11
-347.745081
 21
260.57866
 31
0.0
  0
LINE
  5
424
330
1F
100
AcDbEntity
  8
LC-001-100-D00-0
 62
     7
370
    50
100
AcDbLine
 10
-199.745079
 20
256.07866
 30
0.0
 11
-188.745079
 21
256.07866
 31
0.0
  0
LINE
  5
425
330
1F
100
AcDbEntity
  8
LC-001-100-D00-0
 62
     7
370
    50
100
AcDbLine
 10
-188.745079
 20
204.078663
 30
0.0
 11
-199.745079
 21
204.078663
 31
0.0
  0
LINE
  5
426
330
1F
100
AcDbEntity
  8
LC-001-100-D00-0
 62
     7
370
    50
100
AcDbLine
 10
-199.745079
 20
256.82866
 30
0.0
 11
-199.745079
 21
256.07866
 31
0.0
  0
INSERT
  5
437
330
1F
100
AcDbEntity
  8
LC-001-100-D00-0
 62
     7
370
    50
100
AcDbBlockReference
  2
KLON17
 10
0.0
 20
0.0
 30
0.0
  0
INSERT
  5
44B
330
1F
100
AcDbEntity
  8
LC-001-100-D00-0
 62
     7
370
    50
100
AcDbBlockReference
  2
KLON18
 10
0.0
 20
0.0
 30
0.0
  0
LINE
  5
44C
330
1F
100
AcDbEntity
  8
LC-001-100-D00-0
 62
     7
370
    50
100
AcDbLine
 10
-202.745078
 20
253.078661
 30
0.0
 11
-160.847894
 21
253.07866
 31
0.0
  0
LINE
  5
44D
330
1F
100
AcDbEntity
  8
LC-001-100-D00-0
 62
     7
370
    50
100
AcDbLine
 10
-160.847894
 20
207.07866
 30
0.0
 11
-160.847894
 21
253.07866
 31
0.0
  0
LINE
  5
44E
330
1F
100
AcDbEntity
  8
LC-001-100-D00-0
 62
     7
370
    50
100
AcDbLine
 10
-160.847894
 20
207.07866
 30
0.0
 11
-199.745079
 21
207.078661
 31
0.0
  0
INSERT
  5
454
330
1F
100
AcDbEntity
  8
LC-001-100-D00-0
 62
     7
370
    50
100
AcDbBlockReference
  2
KLON19
 10
0.0
 20
0.0
 30
0.0
  0
LINE
  5
455
330
1F
100
AcDbEntity
  8
LC-001-100-D00-0
 62
     7
370
    50
100
AcDbLine
 10
-202.74508
 20
256.82866
 30
0.0
 11
-205.74508
 21
256.82866
 31
0.0
  0
LINE
  5
456
330
1F
100
AcDbEntity
  8
LC-001-100-D00-0
 62
     7
370
    50
100
AcDbLine
 10
-202.74508
 20
256.82866
 30
0.0
 11
-202.745078
 21
253.078661
 31
0.0
  0
LINE
  5
457
330
1F
100
AcDbEntity
  8
LC-001-100-D00-0
 62
     7
370
    50
100
AcDbLine
 10
-212.74508
 20
204.07866
 30
0.0
 11
-199.745079
 21
204.078663
 31
0.0
  0
ARC
  5
458
330
1F
100
AcDbEntity
  8
LC-001-100-D00-0
 62
     7
370
    50
100
AcDbCircle
 10
-219.7272
 20
204.57866
 30
0.0
 40
7.0
100
AcDbArc
 50
270.0
 51
355.903956
  0
LINE
  5
459
330
1F
100
AcDbEntity
  8
LC-001-100-D00-0
 62
     7
370
    50
100
AcDbLine
 10
-219.7272
 20
197.57866
 30
0.0
 11
-327.76296
 21
197.57866
 31
0.0
  0
ARC
  5
45A
330
1F
100
AcDbEntity
  8
LC-001-100-D00-0
 62
     7
370
    50
100
AcDbCircle
 10
-327.76296
 20
204.57866
 30
0.0
 40
7.00000000000017
100
AcDbArc
 50
184.096044
 51
270.0
  0
LINE
  5
45B
330
1F
100
AcDbEntity
  8
LC-001-100-D00-0
 62
     7
370
    50
100
AcDbLine
 10
-335.24508
 20
204.07866
 30
0.0
 11
-334.74508
 21
204.07866
 31
0.0
  0
ARC
  5
45C
330
1F
100
AcDbEntity
  8
LC-001-100-D00-0
 62
     7
370
    50
100
AcDbCircle
 10
-335.24508
 20
216.57866
 30
0.0
 40
12.50000000000011
100
AcDbArc
 50
180.0
 51
270.0
  0
LINE
  5
45D
330
1F
100
AcDbEntity
  8
LC-001-100-D00-0
 62
     7
370
    50
100
AcDbLine
 10
-347.74508
 20
216.57866
 30
0.0
 11
-347.745081
 21
256.82866
 31
0.0
  0
LINE
  5
45E
330
1F
100
AcDbEntity
  8
LC-001-100-D00-0
 62
     7
370
    50
100
AcDbLine
 10
-347.745081
 20
256.82866
 30
0.0
 11
-344.74508
 21
256.82866
 31
0.0
  0
LINE
  5
45F
330
1F
100
AcDbEntity
  8
LC-001-100-D00-0
 62
     7
370
    50
100
AcDbLine
 10
-344.74508
 20
216.57866
 30
0.0
 11
-344.74508
 21
256.82866
 31
0.0
  0
ARC
  5
460
330
1F
100
AcDbEntity
  8
LC-001-100-D00-0
 62
     7
370
    50
100
AcDbCircle
 10
-335.24508
 20
216.57866
 30
0.0
 40
9.500000000000114
100
AcDbArc
 50
180.0
 51
270.0
  0
LINE
  5
461
330
1F
100
AcDbEntity
  8
LC-001-100-D00-0
 62
     7
370
    50
100
AcDbLine
 10
-335.24508
 20
207.07866
 30
0.0
 11
-332.74508
 21
207.07866
 31
0.0
  0
ARC
  5
462
330
1F
100
AcDbEntity
  8
LC-001-100-D00-0
 62
     7
370
    50
100
AcDbCircle
 10
-332.74508
 20
206.07866
 30
0.0
 40
1.0
100
AcDbArc
 50
0.0
 51
90.0
  0
LINE
  5
463
330
1F
100
AcDbEntity
  8
LC-001-100-D00-0
 62
     7
370
    50
100
AcDbLine
 10
-331.74508
 20
206.07866
 30
0.0
 11
-331.74508
 21
204.57866
 31
0.0
  0
ARC
  5
464
330
1F
100
AcDbEntity
  8
LC-001-100-D00-0
 62
     7
370
    50
100
AcDbCircle
 10
-327.74508
 20
204.57866
 30
0.0
 40
4.000000000000114
100
AcDbArc
 50
180.0
 51
270.0
  0
LINE
  5
465
330
1F
100
AcDbEntity
  8
LC-001-100-D00-0
 62
     7
370
    50
100
AcDbLine
 10
-219.74508
 20
200.57866
 30
0.0
 11
-327.74508
 21
200.57866
 31
0.0
  0
ARC
  5
466
330
1F
100
AcDbEntity
  8
LC-001-100-D00-0
 62
     7
370
    50
100
AcDbCircle
 10
-219.74508
 20
204.57866
 30
0.0
 40
4.0
100
AcDbArc
 50
270.0
 51
0.0
  0
LINE
  5
467
330
1F
100
AcDbEntity
  8
LC-001-100-D00-0
 62
     7
370
    50
100
AcDbLine
 10
-215.74508
 20
204.57866
 30
0.0
 11
-215.74508
 21
206.07866
 31
0.0
  0
ARC
  5
468
330
1F
100
AcDbEntity
  8
LC-001-100-D00-0
 62
     7
370
    50
100
AcDbCircle
 10
-214.74508
 20
206.07866
 30
0.0
 40
1.0
100
AcDbArc
 50
90.0
 51
180.0
  0
LINE
  5
469
330
1F
100
AcDbEntity
  8
LC-001-100-D00-0
 62
     7
370
    50
100
AcDbLine
 10
-214.74508
 20
207.07866
 30
0.0
 11
-199.745079
 21
207.078661
 31
0.0
  0
LINE
  5
46A
330
1F
100
AcDbEntity
  8
LC-001-100-D00-0
 62
     7
370
    50
100
AcDbLine
 10
-155.247894
 20
205.578145
 30
0.0
 11
-160.847894
 21
207.07866
 31
0.0
  0
LINE
  5
46B
330
1F
100
AcDbEntity
  8
LC-001-100-D00-0
 62
     7
370
    50
100
AcDbLine
 10
-155.247894
 20
205.144405
 30
0.0
 11
-155.247894
 21
205.578145
 31
0.0
  0
ARC
  5
46C
330
1F
100
AcDbEntity
  8
LC-001-100-D00-0
 62
     7
370
    50
100
AcDbCircle
 10
-155.747852
 20
205.144405
 30
0.0
 40
0.4999578796800281
100
AcDbArc
 50
301.198872
 51
0.0
  0
ARC
  5
46D
330
1F
100
AcDbEntity
  8
LC-001-100-D00-0
 62
     7
370
    50
100
AcDbCircle
 10
-170.846577
 20
230.07647
 30
0.0
 40
29.64750216706078
100
AcDbArc
 50
292.382556
 51
301.198872
  0
ARC
  5
46E
330
1F
100
AcDbEntity
  8
LC-001-100-D00-0
 62
     7
370
    50
100
AcDbCircle
 10
-159.747516
 20
203.124844
 30
0.0
 40
0.4999578796802098
100
AcDbArc
 50
180.0
 51
292.382556
  0
LINE
  5
46F
330
1F
100
AcDbEntity
  8
LC-001-100-D00-0
 62
     7
370
    50
100
AcDbLine
 10
-160.247474
 20
204.428703
 30
0.0
 11
-160.247474
 21
203.124844
 31
0.0
  0
ARC
  5
470
330
1F
100
AcDbEntity
  8
LC-001-100-D00-0
 62
     7
370
    50
100
AcDbCircle
 10
-160.747432
 20
204.428703
 30
0.0
 40
0.4999578796799824
100
AcDbArc
 50
0.0
 51
90.0
  0
LINE
  5
471
330
1F
100
AcDbEntity
  8
LC-001-100-D00-0
 62
     7
370
    50
100
AcDbLine
 10
-164.247137
 20
204.92866
 30
0.0
 11
-160.747432
 21
204.92866
 31
0.0
  0
ARC
  5
472
330
1F
100
AcDbEntity
  8
LC-001-100-D00-0
 62
     7
370
    50
100
AcDbCircle
 10
-164.247137
 20
204.428703
 30
0.0
 40
0.4999578796800961
100
AcDbArc
 50
90.0
 51
180.0
  0
LINE
  5
473
330
1F
100
AcDbEntity
  8
LC-001-100-D00-0
 62
     7
370
    50
100
AcDbLine
 10
-164.747095
 20
201.471841
 30
0.0
 11
-164.747095
 21
204.428703
 31
0.0
  0
ARC
  5
474
330
1F
100
AcDbEntity
  8
LC-001-100-D00-0
 62
     7
370
    50
100
AcDbCircle
 10
-165.247053
 20
201.471841
 30
0.0
 40
0.4999578796801373
100
AcDbArc
 50
281.075925
 51
0.0
  0
ARC
  5
475
330
1F
100
AcDbEntity
  8
LC-001-100-D00-0
 62
     7
370
    50
100
AcDbCircle
 10
-170.846577
 20
230.07647
 30
0.0
 40
29.64750432250043
100
AcDbArc
 50
241.270296
 51
281.075925
  0
LINE
  5
476
330
1F
100
AcDbEntity
  8
LC-001-100-D00-0
 62
     7
370
    50
100
AcDbLine
 10
-186.245283
 20
204.078663
 30
0.0
 11
-185.097485
 21
204.07866
 31
0.0
  0
LINE
  5
477
330
1F
100
AcDbEntity
  8
LC-001-100-D00-0
 62
     7
370
    50
100
AcDbLine
 10
-186.245283
 20
202.578659
 30
0.0
 11
-186.245283
 21
204.078663
 31
0.0
  0
LINE
  5
478
330
1F
100
AcDbEntity
  8
LC-001-100-D00-0
 62
     7
370
    50
100
AcDbLine
 10
-188.745079
 20
202.578659
 30
0.0
 11
-186.245283
 21
202.578659
 31
0.0
  0
LINE
  5
479
330
1F
100
AcDbEntity
  8
LC-001-100-D00-0
 62
     7
370
    50
100
AcDbLine
 10
-188.745079
 20
204.078663
 30
0.0
 11
-188.745079
 21
202.578659
 31
0.0
  0
ARC
  5
47A
330
1F
100
AcDbEntity
  8
LC-001-100-D00-0
 62
     7
370
    50
100
AcDbCircle
 10
-170.846577
 20
230.08085
 30
0.0
 40
29.64750216706081
100
AcDbArc
 50
58.801128
 51
67.617444
  0
ARC
  5
47B
330
1F
100
AcDbEntity
  8
LC-001-100-D00-0
 62
     7
370
    50
100
AcDbCircle
 10
-155.747852
 20
255.012915
 30
0.0
 40
0.4999578796798687
100
AcDbArc
 50
0.0
 51
58.801128
  0
ARC
  5
47C
330
1F
100
AcDbEntity
  8
LC-001-100-D00-0
 62
     7
370
    50
100
AcDbCircle
 10
-160.747432
 20
255.728618
 30
0.0
 40
0.4999578796800961
100
AcDbArc
 50
270.0
 51
0.0
  0
LINE
  5
47D
330
1F
100
AcDbEntity
  8
LC-001-100-D00-0
 62
     7
370
    50
100
AcDbLine
 10
-160.247474
 20
257.032477
 30
0.0
 11
-160.247474
 21
255.728618
 31
0.0
  0
ARC
  5
47E
330
1F
100
AcDbEntity
  8
LC-001-100-D00-0
 62
     7
370
    50
100
AcDbCircle
 10
-159.747516
 20
257.032477
 30
0.0
 40
0.4999578796801971
100
AcDbArc
 50
67.617444
 51
180.0
  0
LINE
  5
47F
330
1F
100
AcDbEntity
  8
LC-001-100-D00-0
 62
     7
370
    50
100
AcDbLine
 10
-155.247894
 20
254.579176
 30
0.0
 11
-155.247894
 21
255.012915
 31
0.0
  0
LINE
  5
480
330
1F
100
AcDbEntity
  8
LC-001-100-D00-0
 62
     7
370
    50
100
AcDbLine
 10
-160.847894
 20
253.07866
 30
0.0
 11
-155.247894
 21
254.579176
 31
0.0
  0
LINE
  5
481
330
1F
100
AcDbEntity
  8
LC-001-100-D00-0
 62
     7
370
    50
100
AcDbLine
 10
-202.74508
 20
256.82866
 30
0.0
 11
-199.745079
 21
256.82866
 31
0.0
  0
LINE
  5
482
330
1F
100
AcDbEntity
  8
LC-001-100-D00-0
 62
     7
370
    50
100
AcDbLine
 10
-188.745079
 20
257.578661
 30
0.0
 11
-188.745079
 21
256.07866
 31
0.0
  0
LINE
  5
483
330
1F
100
AcDbEntity
  8
LC-001-100-D00-0
 62
     7
370
    50
100
AcDbLine
 10
-186.245283
 20
257.57866
 30
0.0
 11
-188.745079
 21
257.578661
 31
0.0
  0
ARC
  5
484
330
1F
100
AcDbEntity
  8
LC-001-100-D00-0
 62
     7
370
    50
100
AcDbCircle
 10
-170.882992
 20
230.07866
 30
0.0
 40
31.5000000000002
100
AcDbArc
 50
105.394857
 51
119.188982
  0
LINE
  5
485
330
1F
100
AcDbEntity
  8
LC-001-100-D00-0
 62
     7
370
    50
100
AcDbLine
 10
-179.245283
 20
260.448416
 30
0.0
 11
-179.245283
 21
258.513864
 31
0.0
  0
ARC
  5
486
330
1F
100
AcDbEntity
  8
LC-001-100-D00-0
 62
     7
370
    50
100
AcDbCircle
 10
-170.846577
 20
230.08085
 30
0.0
 40
29.64750432250008
100
AcDbArc
 50
78.924075
 51
106.456389
  0
ARC
  5
487
330
1F
100
AcDbEntity
  8
LC-001-100-D00-0
 62
     7
370
    50
100
AcDbCircle
 10
-165.247053
 20
258.685479
 30
0.0
 40
0.4999578796800961
100
AcDbArc
 50
0.0
 51
78.924075
  0
LINE
  5
488
330
1F
100
AcDbEntity
  8
LC-001-100-D00-0
 62
     7
370
    50
100
AcDbLine
 10
-164.747095
 20
255.728618
 30
0.0
 11
-164.747095
 21
258.685479
 31
0.0
  0
ARC
  5
489
330
1F
100
AcDbEntity
  8
LC-001-100-D00-0
 62
     7
370
    50
100
AcDbCircle
 10
-164.247137
 20
255.728618
 30
0.0
 40
0.4999578796803235
100
AcDbArc
 50
180.0
 51
270.0
  0
LINE
  5
48A
330
1F
100
AcDbEntity
  8
LC-001-100-D00-0
 62
     7
370
    50
100
AcDbLine
 10
-160.747432
 20
255.22866
 30
0.0
 11
-164.247137
 21
255.22866
 31
0.0
  0
LINE
  5
48B
330
1F
100
AcDbEntity
  8
LC-001-100-D00-0
 62
     7
370
    50
100
AcDbLine
 10
-155.247894
 20
254.579176
 30
0.0
 11
-155.247894
 21
205.578145
 31
0.0
  0
LINE
  5
48C
330
1F
100
AcDbEntity
  8
LC-001-100-D00-0
 62
     7
370
    50
100
AcDbLine
 10
-229.31146
 20
207.07866
 30
0.0
 11
-214.74508
 21
207.07866
 31
0.0
  0
LINE
  5
48D
330
1F
100
AcDbEntity
  8
LC-001-100-D00-0
 62
     7
370
    50
100
AcDbLine
 10
-332.74508
 20
207.07866
 30
0.0
 11
-318.1787
 21
207.07866
 31
0.0
  0
LINE
  5
48E
330
1F
100
AcDbEntity
  8
LC-001-100-D00-0
 62
     7
370
    50
100
AcDbLine
 10
-341.74508
 20
256.82866
 30
0.0
 11
-344.74508
 21
256.82866
 31
0.0
  0
LINE
  5
48F
330
1F
100
AcDbEntity
  8
LC-001-100-D00-0
 62
     7
370
    50
100
AcDbLine
 10
-231.755955
 20
207.07866
 30
0.0
 11
-229.31146
 21
207.07866
 31
0.0
  0
LINE
  5
490
330
1F
100
AcDbEntity
  8
LC-001-100-D00-0
 62
     7
370
    50
100
AcDbLine
 10
-318.1787
 20
207.07866
 30
0.0
 11
-315.734205
 21
207.07866
 31
0.0
  0
LINE
  5
491
330
1F
100
AcDbEntity
  8
LC-001-100-D00-0
 62
     7
370
    50
100
AcDbLine
 10
-315.734205
 20
207.07866
 30
0.0
 11
-314.745081
 21
207.078661
 31
0.0
  0
LINE
  5
492
330
1F
100
AcDbEntity
  8
LC-001-100-D00-0
 62
     7
370
    50
100
AcDbLine
 10
-232.745079
 20
207.078661
 30
0.0
 11
-231.755955
 21
207.07866
 31
0.0
  0
CIRCLE
  5
493
330
1F
100
AcDbEntity
  8
LC-001-100-D00-0
 62
     7
370
    50
100
AcDbCircle
 10
-219.49508
 20
258.32866
 30
0.0
 40
1.749999999999886
  0
CIRCLE
  5
494
330
1F
100
AcDbEntity
  8
LC-001-100-D00-0
 62
     7
370
    50
100
AcDbCircle
 10
-327.99508
 20
258.32866
 30
0.0
 40
1.750000000000114
  0
LINE
  5
495
330
1F
100
AcDbEntity
  8
LC-001-100-D00-0
 62
     7
370
    50
100
AcDbLine
 10
-219.245081
 20
260.078661
 30
0.0
 11
-219.245081
 21
261.57866
 31
0.0
  0
LINE
  5
496
330
1F
100
AcDbEntity
  8
LC-001-100-D00-0
 62
     7
370
    50
100
AcDbLine
 10
-221.245082
 20
260.078661
 30
0.0
 11
-219.245081
 21
260.078661
 31
0.0
  0
LINE
  5
497
330
1F
100
AcDbEntity
  8
LC-001-100-D00-0
 62
     7
370
    50
100
AcDbLine
 10
-221.245082
 20
260.078661
 30
0.0
 11
-221.245082
 21
256.578661
 31
0.0
  0
LINE
  5
498
330
1F
100
AcDbEntity
  8
LC-001-100-D00-0
 62
     7
370
    50
100
AcDbLine
 10
-221.245082
 20
256.578661
 30
0.0
 11
-219.245081
 21
256.578661
 31
0.0
  0
LINE
  5
499
330
1F
100
AcDbEntity
  8
LC-001-100-D00-0
 62
     7
370
    50
100
AcDbLine
 10
-219.245081
 20
256.578661
 30
0.0
 11
-219.245081
 21
255.578659
 31
0.0
  0
LINE
  5
49A
330
1F
100
AcDbEntity
  8
LC-001-100-D00-0
 62
     7
370
    50
100
AcDbLine
 10
-234.74508
 20
255.57866
 30
0.0
 11
-219.245081
 21
255.578659
 31
0.0
  0
ARC
  5
49B
330
1F
100
AcDbEntity
  8
LC-001-100-D00-0
 62
     7
370
    50
100
AcDbCircle
 10
-234.74508
 20
245.57866
 30
0.0
 40
10.0
100
AcDbArc
 50
90.0
 51
180.0
  0
LINE
  5
49C
330
1F
100
AcDbEntity
  8
LC-001-100-D00-0
 62
     7
370
    50
100
AcDbLine
 10
-244.74508
 20
245.57866
 30
0.0
 11
-244.745081
 21
216.078657
 31
0.0
  0
LINE
  5
49D
330
1F
100
AcDbEntity
  8
LC-001-100-D00-0
 62
     7
370
    50
100
AcDbLine
 10
-246.24508
 20
216.07866
 30
0.0
 11
-244.745081
 21
216.078657
 31
0.0
  0
LINE
  5
49E
330
1F
100
AcDbEntity
  8
LC-001-100-D00-0
 62
     7
370
    50
100
AcDbLine
 10
-246.24508
 20
259.57866
 30
0.0
 11
-246.24508
 21
216.07866
 31
0.0
  0
ARC
  5
49F
330
1F
100
AcDbEntity
  8
LC-001-100-D00-0
 62
     7
370
    50
100
AcDbCircle
 10
-244.24508
 20
259.57866
 30
0.0
 40
2.000000000000227
100
AcDbArc
 50
90.0
 51
180.0
  0
LINE
  5
4A0
330
1F
100
AcDbEntity
  8
LC-001-100-D00-0
 62
     7
370
    50
100
AcDbLine
 10
-244.24508
 20
261.57866
 30
0.0
 11
-219.245081
 21
261.57866
 31
0.0
  0
LINE
  5
4A1
330
1F
100
AcDbEntity
  8
LC-001-100-D00-0
 62
     7
370
    50
100
AcDbLine
 10
-262.24508
 20
261.57866
 30
0.0
 11
-244.24508
 21
261.57866
 31
0.0
  0
LINE
  5
4A2
330
1F
100
AcDbEntity
  8
LC-001-100-D00-0
 62
     7
370
    50
100
AcDbLine
 10
-262.24508
 20
216.07866
 30
0.0
 11
-246.24508
 21
216.07866
 31
0.0
  0
LINE
  5
4A3
330
1F
100
AcDbEntity
  8
LC-001-100-D00-0
 62
     7
370
    50
100
AcDbLine
 10
-302.745079
 20
216.078657
 30
0.0
 11
-302.74508
 21
245.57866
 31
0.0
  0
ARC
  5
4A4
330
1F
100
AcDbEntity
  8
LC-001-100-D00-0
 62
     7
370
    50
100
AcDbCircle
 10
-303.24508
 20
259.57866
 30
0.0
 40
2.0
100
AcDbArc
 50
0.0
 51
90.0
  0
LINE
  5
4A5
330
1F
100
AcDbEntity
  8
LC-001-100-D00-0
 62
     7
370
    50
100
AcDbLine
 10
-303.24508
 20
261.57866
 30
0.0
 11
-285.24508
 21
261.57866
 31
0.0
  0
LINE
  5
4A6
330
1F
100
AcDbEntity
  8
LC-001-100-D00-0
 62
     7
370
    50
100
AcDbLine
 10
-301.24508
 20
216.07866
 30
0.0
 11
-301.24508
 21
259.57866
 31
0.0
  0
LINE
  5
4A7
330
1F
100
AcDbEntity
  8
LC-001-100-D00-0
 62
     7
370
    50
100
AcDbLine
 10
-301.24508
 20
216.07866
 30
0.0
 11
-285.24508
 21
216.07866
 31
0.0
  0
ARC
  5
4A8
330
1F
100
AcDbEntity
  8
LC-001-100-D00-0
 62
     7
370
    50
100
AcDbCircle
 10
-312.74508
 20
245.57866
 30
0.0
 40
10.0
100
AcDbArc
 50
0.0
 51
90.0
  0
LINE
  5
4A9
330
1F
100
AcDbEntity
  8
LC-001-100-D00-0
 62
     7
370
    50
100
AcDbLine
 10
-328.245079
 20
255.578659
 30
0.0
 11
-328.245079
 21
256.578661
 31
0.0
  0
LINE
  5
4AA
330
1F
100
AcDbEntity
  8
LC-001-100-D00-0
 62
     7
370
    50
100
AcDbLine
 10
-326.245079
 20
256.578661
 30
0.0
 11
-326.245079
 21
260.078661
 31
0.0
  0
LINE
  5
4AB
330
1F
100
AcDbEntity
  8
LC-001-100-D00-0
 62
     7
370
    50
100
AcDbLine
 10
-328.245079
 20
261.57866
 30
0.0
 11
-328.245079
 21
260.078661
 31
0.0
  0
LINE
  5
4AC
330
1F
100
AcDbEntity
  8
LC-001-100-D00-0
 62
     7
370
    50
100
AcDbLine
 10
-302.745079
 20
216.078657
 30
0.0
 11
-301.24508
 21
216.07866
 31
0.0
  0
LINE
  5
4AD
330
1F
100
AcDbEntity
  8
LC-001-100-D00-0
 62
     7
370
    50
100
AcDbLine
 10
-328.245079
 20
256.578661
 30
0.0
 11
-326.245079
 21
256.578661
 31
0.0
  0
LINE
  5
4AE
330
1F
100
AcDbEntity
  8
LC-001-100-D00-0
 62
     7
370
    50
100
AcDbLine
 10
-328.245079
 20
260.078661
 30
0.0
 11
-326.245079
 21
260.078661
 31
0.0
  0
LINE
  5
4AF
330
1F
100
AcDbEntity
  8
LC-001-100-D00-0
 62
     7
370
    50
100
AcDbLine
 10
-328.245079
 20
261.57866
 30
0.0
 11
-303.24508
 21
261.57866
 31
0.0
  0
LINE
  5
4B0
330
1F
100
AcDbEntity
  8
LC-001-100-D00-0
 62
     7
370
    50
100
AcDbLine
 10
-328.245079
 20
255.578659
 30
0.0
 11
-312.74508
 21
255.57866
 31
0.0
  0
LINE
  5
4B1
330
1F
100
AcDbEntity
  8
LC-001-100-D00-0
 62
     7
370
    50
100
AcDbLine
 10
-285.24508
 20
216.07866
 30
0.0
 11
-262.24508
 21
216.07866
 31
0.0
  0
LINE
  5
4B2
330
1F
100
AcDbEntity
  8
LC-001-100-D00-0
 62
     7
370
    50
100
AcDbLine
 10
-285.24508
 20
261.57866
 30
0.0
 11
-262.24508
 21
261.57866
 31
0.0
  0
LINE
  5
4B3
330
1F
100
AcDbEntity
  8
LC-001-100-D00-0
 62
     7
370
    50
100
AcDbLine
 10
-232.745079
 20
246.078662
 30
0.0
 11
-222.809395
 21
253.384311
 31
0.0
  0
LINE
  5
4B4
330
1F
100
AcDbEntity
  8
LC-001-100-D00-0
 62
     7
370
    50
100
AcDbLine
 10
-232.745079
 20
246.078662
 30
0.0
 11
-232.74508
 21
205.07866
 31
0.0
  0
ARC
  5
4B5
330
1F
100
AcDbEntity
  8
LC-001-100-D00-0
 62
     7
370
    50
100
AcDbCircle
 10
-237.74508
 20
205.07866
 30
0.0
 40
5.0
100
AcDbArc
 50
270.0
 51
0.0
  0
LINE
  5
4B6
330
1F
100
AcDbEntity
  8
LC-001-100-D00-0
 62
     7
370
    50
100
AcDbLine
 10
-237.74508
 20
200.07866
 30
0.0
 11
-309.74508
 21
200.07866
 31
0.0
  0
ARC
  5
4B7
330
1F
100
AcDbEntity
  8
LC-001-100-D00-0
 62
     7
370
    50
100
AcDbCircle
 10
-309.74508
 20
205.07866
 30
0.0
 40
5.0
100
AcDbArc
 50
180.0
 51
270.0
  0
LINE
  5
4B8
330
1F
100
AcDbEntity
  8
LC-001-100-D00-0
 62
     7
370
    50
100
AcDbLine
 10
-314.74508
 20
205.07866
 30
0.0
 11
-314.745081
 21
246.078662
 31
0.0
  0
LINE
  5
4B9
330
1F
100
AcDbEntity
  8
LC-001-100-D00-0
 62
     7
370
    50
100
AcDbLine
 10
-314.745081
 20
246.078662
 30
0.0
 11
-324.680766
 21
253.384311
 31
0.0
  0
ARC
  5
4BA
330
1F
100
AcDbEntity
  8
LC-001-100-D00-0
 62
     7
370
    50
100
AcDbCircle
 10
-325.273156
 20
252.57866
 30
0.0
 40
1.000000000000197
100
AcDbArc
 50
53.673174
 51
90.0
  0
LINE
  5
4BB
330
1F
100
AcDbEntity
  8
LC-001-100-D00-0
 62
     7
370
    50
100
AcDbLine
 10
-328.84508
 20
253.57866
 30
0.0
 11
-325.273156
 21
253.57866
 31
0.0
  0
LINE
  5
4BC
330
1F
100
AcDbEntity
  8
LC-001-100-D00-0
 62
     7
370
    50
100
AcDbLine
 10
-328.84508
 20
253.57866
 30
0.0
 11
-328.84508
 21
255.57866
 31
0.0
  0
LINE
  5
4BD
330
1F
100
AcDbEntity
  8
LC-001-100-D00-0
 62
     7
370
    50
100
AcDbLine
 10
-328.84508
 20
255.57866
 30
0.0
 11
-325.273156
 21
255.57866
 31
0.0
  0
ARC
  5
4BE
330
1F
100
AcDbEntity
  8
LC-001-100-D00-0
 62
     7
370
    50
100
AcDbCircle
 10
-325.273156
 20
252.57866
 30
0.0
 40
3.000000000000158
100
AcDbArc
 50
53.673174
 51
90.0
  0
LINE
  5
4BF
330
1F
100
AcDbEntity
  8
LC-001-100-D00-0
 62
     7
370
    50
100
AcDbLine
 10
-323.495985
 20
254.995613
 30
0.0
 11
-313.65269
 21
247.757897
 31
0.0
  0
ARC
  5
4C0
330
1F
100
AcDbEntity
  8
LC-001-100-D00-0
 62
     7
370
    50
100
AcDbCircle
 10
-314.24508
 20
246.952246
 30
0.0
 40
1.000000000000114
100
AcDbArc
 50
0.0
 51
53.673174
  0
LINE
  5
4C1
330
1F
100
AcDbEntity
  8
LC-001-100-D00-0
 62
     7
370
    50
100
AcDbLine
 10
-313.24508
 20
205.07866
 30
0.0
 11
-313.24508
 21
246.952246
 31
0.0
  0
ARC
  5
4C2
330
1F
100
AcDbEntity
  8
LC-001-100-D00-0
 62
     7
370
    50
100
AcDbCircle
 10
-309.74508
 20
205.07866
 30
0.0
 40
3.500000000000114
100
AcDbArc
 50
180.0
 51
270.0
  0
LINE
  5
4C3
330
1F
100
AcDbEntity
  8
LC-001-100-D00-0
 62
     7
370
    50
100
AcDbLine
 10
-237.74508
 20
201.57866
 30
0.0
 11
-309.74508
 21
201.57866
 31
0.0
  0
ARC
  5
4C4
330
1F
100
AcDbEntity
  8
LC-001-100-D00-0
 62
     7
370
    50
100
AcDbCircle
 10
-237.74508
 20
205.07866
 30
0.0
 40
3.5
100
AcDbArc
 50
270.0
 51
0.0
  0
LINE
  5
4C5
330
1F
100
AcDbEntity
  8
LC-001-100-D00-0
 62
     7
370
    50
100
AcDbLine
 10
-234.24508
 20
246.952246
 30
0.0
 11
-234.24508
 21
205.07866
 31
0.0
  0
ARC
  5
4C6
330
1F
100
AcDbEntity
  8
LC-001-100-D00-0
 62
     7
370
    50
100
AcDbCircle
 10
-233.24508
 20
246.952246
 30
0.0
 40
1.000000000000265
100
AcDbArc
 50
126.326826
 51
180.0
  0
LINE
  5
4C7
330
1F
100
AcDbEntity
  8
LC-001-100-D00-0
 62
     7
370
    50
100
AcDbLine
 10
-223.994176
 20
254.995613
 30
0.0
 11
-233.837471
 21
247.757897
 31
0.0
  0
ARC
  5
4C8
330
1F
100
AcDbEntity
  8
LC-001-100-D00-0
 62
     7
370
    50
100
AcDbCircle
 10
-222.217004
 20
252.57866
 30
0.0
 40
3.0
100
AcDbArc
 50
90.0
 51
126.326826
  0
LINE
  5
4C9
330
1F
100
AcDbEntity
  8
LC-001-100-D00-0
 62
     7
370
    50
100
AcDbLine
 10
-222.217004
 20
255.57866
 30
0.0
 11
-218.64508
 21
255.57866
 31
0.0
  0
LINE
  5
4CA
330
1F
100
AcDbEntity
  8
LC-001-100-D00-0
 62
     7
370
    50
100
AcDbLine
 10
-218.64508
 20
255.57866
 30
0.0
 11
-218.64508
 21
253.57866
 31
0.0
  0
LINE
  5
4CB
330
1F
100
AcDbEntity
  8
LC-001-100-D00-0
 62
     7
370
    50
100
AcDbLine
 10
-222.217004
 20
253.57866
 30
0.0
 11
-218.64508
 21
253.57866
 31
0.0
  0
ARC
  5
4CC
330
1F
100
AcDbEntity
  8
LC-001-100-D00-0
 62
     7
370
    50
100
AcDbCircle
 10
-222.217004
 20
252.57866
 30
0.0
 40
1.0
100
AcDbArc
 50
90.0
 51
126.326826
  0
ARC
  5
4CD
330
1F
100
AcDbEntity
  8
LC-001-100-D00-0
 62
     7
370
    50
100
AcDbCircle
 10
-233.251828
 20
246.94682
 30
0.0
 40
1.000373573444632
100
AcDbArc
 50
126.325165
 51
180.0
  0
LINE
  5
4CE
330
1F
100
AcDbEntity
  8
LC-001-100-D00-0
 62
     7
370
    50
100
AcDbLine
 10
-233.844416
 20
247.752789
 30
0.0
 11
-233.837471
 21
247.757897
 31
0.0
  0
LINE
  5
4CF
330
1F
100
AcDbEntity
  8
LC-001-100-D00-0
 62
     7
370
    50
100
AcDbLine
 10
-234.252201
 20
246.07866
 30
0.0
 11
-238.665685
 21
246.07866
 31
0.0
  0
LINE
  5
4D0
330
1F
100
AcDbEntity
  8
LC-001-100-D00-0
 62
     7
370
    50
100
AcDbLine
 10
-234.252201
 20
246.946878
 30
0.0
 11
-234.252201
 21
246.07866
 31
0.0
  0
LINE
  5
4D1
330
1F
100
AcDbEntity
  8
LC-001-100-D00-0
 62
     7
370
    50
100
AcDbLine
 10
-313.237959
 20
246.946878
 30
0.0
 11
-313.237959
 21
246.07866
 31
0.0
  0
LINE
  5
4D2
330
1F
100
AcDbEntity
  8
LC-001-100-D00-0
 62
     7
370
    50
100
AcDbLine
 10
-308.824476
 20
246.07866
 30
0.0
 11
-313.237959
 21
246.07866
 31
0.0
  0
ARC
  5
4D3
330
1F
100
AcDbEntity
  8
LC-001-100-D00-0
 62
     7
370
    50
100
AcDbCircle
 10
-314.238306
 20
246.946833
 30
0.0
 40
1.000347039120697
100
AcDbArc
 50
0.0
 51
53.675603
  0
LINE
  5
4D4
330
1F
100
AcDbEntity
  8
LC-001-100-D00-0
 62
     7
370
    50
100
AcDbLine
 10
-240.792645
 20
253.542765
 30
0.0
 11
-240.792645
 21
246.078662
 31
0.0
  0
LINE
  5
4D5
330
1F
100
AcDbEntity
  8
LC-001-100-D00-0
 62
     7
370
    50
100
AcDbLine
 10
-240.792647
 20
253.57866
 30
0.0
 11
-234.030665
 21
253.57866
 31
0.0
  0
LINE
  5
4D6
330
1F
100
AcDbEntity
  8
LC-001-100-D00-0
 62
     7
370
    50
100
AcDbLine
 10
-229.657214
 20
253.57866
 30
0.0
 11
-225.921232
 21
253.57866
 31
0.0
  0
LINE
  5
4D7
330
1F
100
AcDbEntity
  8
LC-001-100-D00-0
 62
     7
370
    50
100
AcDbLine
 10
-306.697515
 20
253.542765
 30
0.0
 11
-306.697515
 21
246.078662
 31
0.0
  0
LINE
  5
4D8
330
1F
100
AcDbEntity
  8
LC-001-100-D00-0
 62
     7
370
    50
100
AcDbLine
 10
-321.568928
 20
253.57866
 30
0.0
 11
-317.832947
 21
253.57866
 31
0.0
  0
LINE
  5
4D9
330
1F
100
AcDbEntity
  8
LC-001-100-D00-0
 62
     7
370
    50
100
AcDbLine
 10
-313.459495
 20
253.57866
 30
0.0
 11
-306.697514
 21
253.57866
 31
0.0
  0
LINE
  5
4DA
330
1F
100
AcDbEntity
  8
LC-001-100-D00-0
 62
     7
370
    50
100
AcDbLine
 10
-238.665685
 20
246.07866
 30
0.0
 11
-244.732572
 21
246.07866
 31
0.0
  0
LINE
  5
4DB
330
1F
100
AcDbEntity
  8
LC-001-100-D00-0
 62
     7
370
    50
100
AcDbLine
 10
-302.757588
 20
246.07866
 30
0.0
 11
-308.824476
 21
246.07866
 31
0.0
  0
ARC
  5
4DC
330
1F
100
AcDbEntity
  8
LC-001-100-D00-0
 62
     7
370
    50
100
AcDbCircle
 10
-170.745283
 20
230.07866
 30
0.0
 40
32.00000000000007
100
AcDbArc
 50
51.375167
 51
90.0
  0
LINE
  5
4DD
330
1F
100
AcDbEntity
  8
LC-001-100-D00-0
 62
     7
370
    50
100
AcDbLine
 10
-150.770299
 20
255.07866
 30
0.0
 11
-67.745289
 21
255.078662
 31
0.0
  0
LINE
  5
4DE
330
1F
100
AcDbEntity
  8
LC-001-100-D00-0
 62
     7
370
    50
100
AcDbLine
 10
-67.745289
 20
255.078662
 30
0.0
 11
-64.245289
 21
254.140838
 31
0.0
  0
LINE
  5
4DF
330
1F
100
AcDbEntity
  8
LC-001-100-D00-0
 62
     7
370
    50
100
AcDbLine
 10
-64.245289
 20
254.140838
 30
0.0
 11
-64.245283
 21
252.82866
 31
0.0
  0
LINE
  5
4E0
330
1F
100
AcDbEntity
  8
LC-001-100-D00-0
 62
     7
370
    50
100
AcDbLine
 10
-64.245283
 20
252.82866
 30
0.0
 11
-151.965307
 21
252.82866
 31
0.0
  0
ARC
  5
4E1
330
1F
100
AcDbEntity
  8
LC-001-100-D00-0
 62
     7
370
    50
100
AcDbCircle
 10
-170.745283
 20
230.07866
 30
0.0
 40
29.50000000000015
100
AcDbArc
 50
50.46055
 51
104.235124
  0
ARC
  5
4E2
330
1F
100
AcDbEntity
  8
LC-001-100-D00-0
 62
     7
370
    50
100
AcDbCircle
 10
-178.245283
 20
259.642151
 30
0.0
 40
1.000000000000114
100
AcDbArc
 50
180.0
 51
284.235124
  0
LINE
  5
4E3
330
1F
100
AcDbEntity
  8
LC-001-100-D00-0
 62
     7
370
    50
100
AcDbLine
 10
-179.245283
 20
259.642151
 30
0.0
 11
-179.245284
 21
262.078661
 31
0.0
  0
LINE
  5
4E4
330
1F
100
AcDbEntity
  8
LC-001-100-D00-0
 62
     7
370
    50
100
AcDbLine
 10
-179.245284
 20
262.078661
 30
0.0
 11
-170.745283
 21
262.07866
 31
0.0
  0
LINE
  5
4E5
330
1F
100
AcDbEntity
  8
LC-001-100-D00-0
 62
     7
370
    50
100
AcDbLine
 10
-179.245284
 20
198.078658
 30
0.0
 11
-179.245283
 21
200.515169
 31
0.0
  0
ARC
  5
4E6
330
1F
100
AcDbEntity
  8
LC-001-100-D00-0
 62
     7
370
    50
100
AcDbCircle
 10
-178.245283
 20
200.515169
 30
0.0
 40
0.9999999999998909
100
AcDbArc
 50
75.764876
 51
180.0
  0
ARC
  5
4E7
330
1F
100
AcDbEntity
  8
LC-001-100-D00-0
 62
     7
370
    50
100
AcDbCircle
 10
-170.745283
 20
230.07866
 30
0.0
 40
29.5
100
AcDbArc
 50
255.764876
 51
309.53945
  0
LINE
  5
4E8
330
1F
100
AcDbEntity
  8
LC-001-100-D00-0
 62
     7
370
    50
100
AcDbLine
 10
-151.965307
 20
207.32866
 30
0.0
 11
-64.245283
 21
207.32866
 31
0.0
  0
LINE
  5
4E9
330
1F
100
AcDbEntity
  8
LC-001-100-D00-0
 62
     7
370
    50
100
AcDbLine
 10
-64.245283
 20
207.32866
 30
0.0
 11
-64.245289
 21
206.016484
 31
0.0
  0
LINE
  5
4EA
330
1F
100
AcDbEntity
  8
LC-001-100-D00-0
 62
     7
370
    50
100
AcDbLine
 10
-64.245289
 20
206.016484
 30
0.0
 11
-67.745289
 21
205.078657
 31
0.0
  0
LINE
  5
4EB
330
1F
100
AcDbEntity
  8
LC-001-100-D00-0
 62
     7
370
    50
100
AcDbLine
 10
-67.745289
 20
205.078657
 30
0.0
 11
-150.770299
 21
205.07866
 31
0.0
  0
ARC
  5
4EC
330
1F
100
AcDbEntity
  8
LC-001-100-D00-0
 62
     7
370
    50
100
AcDbCircle
 10
-170.745283
 20
230.07866
 30
0.0
 40
31.99999999999977
100
AcDbArc
 50
270.0
 51
308.624833
  0
LINE
  5
4ED
330
1F
100
AcDbEntity
  8
LC-001-100-D00-0
 62
     7
370
    50
100
AcDbLine
 10
-170.745283
 20
198.07866
 30
0.0
 11
-179.245284
 21
198.078658
 31
0.0
  0
LINE
  5
4EE
330
1F
100
AcDbEntity
  8
LC-001-100-D00-0
 62
     7
370
    50
100
AcDbLine
 10
-64.245283
 20
252.82866
 30
0.0
 11
-64.245283
 21
207.32866
 31
0.0
  0
LINE
  5
4EF
330
1F
100
AcDbEntity
  8
LC-001-100-D00-0
 62
     7
370
    50
100
AcDbLine
 10
-151.965307
 20
252.82866
 30
0.0
 11
-151.965307
 21
207.32866
 31
0.0
  0
LINE
  5
4F0
330
1F
100
AcDbEntity
  8
LC-001-100-D00-0
 62
     7
370
    50
100
AcDbLine
 10
-179.245283
 20
201.643457
 30
0.0
 11
-179.245283
 21
200.515169
 31
0.0
  0
CIRCLE
  5
4F1
330
1F
100
AcDbEntity
  8
LC-001-100-D00-0
 62
     7
370
    50
100
AcDbCircle
 10
-162.497284
 20
257.07866
 30
0.0
 40
2.0
  0
CIRCLE
  5
4F2
330
1F
100
AcDbEntity
  8
LC-001-100-D00-0
 62
     7
370
    50
100
AcDbCircle
 10
-162.497284
 20
203.07866
 30
0.0
 40
2.0
  0
LINE
  5
4F3
330
1F
100
AcDbEntity
  8
LC-001-100-D00-0
 62
     7
370
    50
100
AcDbLine
 10
-180.402742
 20
265.493475
 30
0.0
 11
-198.236414
 21
260.714957
 31
0.0
  0
ARC
  5
4F4
330
1F
100
AcDbEntity
  8
LC-001-100-D00-0
 62
     7
370
    50
100
AcDbCircle
 10
-199.27169
 20
264.57866
 30
0.0
 40
4.0
100
AcDbArc
 50
270.0
 51
285.0
  0
LINE
  5
4F5
330
1F
100
AcDbEntity
  8
LC-001-100-D00-0
 62
     7
370
    50
100
AcDbLine
 10
-199.27169
 20
260.57866
 30
0.0
 11
-215.94508
 21
260.57866
 31
0.0
  0
ARC
  5
4F6
330
1F
100
AcDbEntity
  8
LC-001-100-D00-0
 62
     7
370
    50
100
AcDbCircle
 10
-215.94508
 20
259.57866
 30
0.0
 40
1.000000000000227
100
AcDbArc
 50
90.0
 51
180.0
  0
LINE
  5
4F7
330
1F
100
AcDbEntity
  8
LC-001-100-D00-0
 62
     7
370
    50
100
AcDbLine
 10
-216.94508
 20
259.57866
 30
0.0
 11
-216.94508
 21
255.578659
 31
0.0
  0
LINE
  5
4F8
330
1F
100
AcDbEntity
  8
LC-001-100-D00-0
 62
     7
370
    50
100
AcDbLine
 10
-216.94508
 20
255.578659
 30
0.0
 11
-218.44508
 21
255.57866
 31
0.0
  0
LINE
  5
4F9
330
1F
100
AcDbEntity
  8
LC-001-100-D00-0
 62
     7
370
    50
100
AcDbLine
 10
-218.44508
 20
259.57866
 30
0.0
 11
-218.44508
 21
255.57866
 31
0.0
  0
ARC
  5
4FA
330
1F
100
AcDbEntity
  8
LC-001-100-D00-0
 62
     7
370
    50
100
AcDbCircle
 10
-215.94508
 20
259.57866
 30
0.0
 40
2.5
100
AcDbArc
 50
90.0
 51
180.0
  0
LINE
  5
4FB
330
1F
100
AcDbEntity
  8
LC-001-100-D00-0
 62
     7
370
    50
100
AcDbLine
 10
-199.27169
 20
262.07866
 30
0.0
 11
-215.94508
 21
262.07866
 31
0.0
  0
ARC
  5
4FC
330
1F
100
AcDbEntity
  8
LC-001-100-D00-0
 62
     7
370
    50
100
AcDbCircle
 10
-199.27169
 20
264.57866
 30
0.0
 40
2.5
100
AcDbArc
 50
270.0
 51
285.0
  0
LINE
  5
4FD
330
1F
100
AcDbEntity
  8
LC-001-100-D00-0
 62
     7
370
    50
100
AcDbLine
 10
-180.790971
 20
266.942364
 30
0.0
 11
-198.624643
 21
262.163846
 31
0.0
  0
ARC
  5
4FE
330
1F
100
AcDbEntity
  8
LC-001-100-D00-0
 62
     7
370
    50
100
AcDbCircle
 10
-179.755695
 20
263.07866
 30
0.0
 40
3.999999999999773
100
AcDbArc
 50
90.0
 51
105.0
  0
LINE
  5
4FF
330
1F
100
AcDbEntity
  8
LC-001-100-D00-0
 62
     7
370
    50
100
AcDbLine
 10
-179.755695
 20
267.07866
 30
0.0
 11
-178.24508
 21
267.07866
 31
0.0
  0
LINE
  5
500
330
1F
100
AcDbEntity
  8
LC-001-100-D00-0
 62
     7
370
    50
100
AcDbLine
 10
-178.24508
 20
267.07866
 30
0.0
 11
-178.24508
 21
268.478661
 31
0.0
  0
LINE
  5
501
330
1F
100
AcDbEntity
  8
LC-001-100-D00-0
 62
     7
370
    50
100
AcDbLine
 10
-177.74508
 20
268.47866
 30
0.0
 11
-178.24508
 21
268.478661
 31
0.0
  0
ARC
  5
502
330
1F
100
AcDbEntity
  8
LC-001-100-D00-0
 62
     7
370
    50
100
AcDbCircle
 10
-178.74508
 20
269.97866
 30
0.0
 40
1.802775637732184
100
AcDbArc
 50
303.690068
 51
56.309932
  0
LINE
  5
503
330
1F
100
AcDbEntity
  8
LC-001-100-D00-0
 62
     7
370
    50
100
AcDbLine
 10
-177.745079
 20
286.07866
 30
0.0
 11
-177.74508
 21
271.47866
 31
0.0
  0
LINE
  5
504
330
1F
100
AcDbEntity
  8
LC-001-100-D00-0
 62
     7
370
    50
100
AcDbLine
 10
-176.745077
 20
287.07866
 30
0.0
 11
-177.745079
 21
286.07866
 31
0.0
  0
LINE
  5
505
330
1F
100
AcDbEntity
  8
LC-001-100-D00-0
 62
     7
370
    50
100
AcDbLine
 10
-170.74508
 20
287.07866
 30
0.0
 11
-176.745077
 21
287.07866
 31
0.0
  0
LINE
  5
506
330
1F
100
AcDbEntity
  8
LC-001-100-D00-0
 62
     7
370
    50
100
AcDbLine
 10
-169.745078
 20
286.07866
 30
0.0
 11
-170.74508
 21
287.07866
 31
0.0
  0
LINE
  5
507
330
1F
100
AcDbEntity
  8
LC-001-100-D00-0
 62
     7
370
    50
100
AcDbLine
 10
-169.74508
 20
271.47866
 30
0.0
 11
-169.745078
 21
286.07866
 31
0.0
  0
ARC
  5
508
330
1F
100
AcDbEntity
  8
LC-001-100-D00-0
 62
     7
370
    50
100
AcDbCircle
 10
-168.74508
 20
269.97866
 30
0.0
 40
1.802775637732184
100
AcDbArc
 50
123.690068
 51
236.309932
  0
LINE
  5
509
330
1F
100
AcDbEntity
  8
LC-001-100-D00-0
 62
     7
370
    50
100
AcDbLine
 10
-169.245077
 20
268.478661
 30
0.0
 11
-169.74508
 21
268.47866
 31
0.0
  0
LINE
  5
50A
330
1F
100
AcDbEntity
  8
LC-001-100-D00-0
 62
     7
370
    50
100
AcDbLine
 10
-169.245077
 20
268.478661
 30
0.0
 11
-169.245077
 21
267.07866
 31
0.0
  0
LINE
  5
50B
330
1F
100
AcDbEntity
  8
LC-001-100-D00-0
 62
     7
370
    50
100
AcDbLine
 10
-169.245077
 20
267.07866
 30
0.0
 11
-43.245082
 21
267.07866
 31
0.0
  0
LINE
  5
50C
330
1F
100
AcDbEntity
  8
LC-001-100-D00-0
 62
     7
370
    50
100
AcDbLine
 10
-43.245082
 20
267.07866
 30
0.0
 11
-43.245082
 21
268.478661
 31
0.0
  0
LINE
  5
50D
330
1F
100
AcDbEntity
  8
LC-001-100-D00-0
 62
     7
370
    50
100
AcDbLine
 10
-42.74508
 20
268.47866
 30
0.0
 11
-43.245082
 21
268.478661
 31
0.0
  0
ARC
  5
50E
330
1F
100
AcDbEntity
  8
LC-001-100-D00-0
 62
     7
370
    50
100
AcDbCircle
 10
-43.74508
 20
269.97866
 30
0.0
 40
1.802775637732184
100
AcDbArc
 50
303.690068
 51
56.309932
  0
LINE
  5
50F
330
1F
100
AcDbEntity
  8
LC-001-100-D00-0
 62
     7
370
    50
100
AcDbLine
 10
-42.745074
 20
286.07866
 30
0.0
 11
-42.74508
 21
271.47866
 31
0.0
  0
LINE
  5
510
330
1F
100
AcDbEntity
  8
LC-001-100-D00-0
 62
     7
370
    50
100
AcDbLine
 10
-41.745087
 20
287.07866
 30
0.0
 11
-42.745074
 21
286.07866
 31
0.0
  0
LINE
  5
511
330
1F
100
AcDbEntity
  8
LC-001-100-D00-0
 62
     7
370
    50
100
AcDbLine
 10
-35.745075
 20
287.07866
 30
0.0
 11
-41.745087
 21
287.07866
 31
0.0
  0
LINE
  5
512
330
1F
100
AcDbEntity
  8
LC-001-100-D00-0
 62
     7
370
    50
100
AcDbLine
 10
-34.745088
 20
286.07866
 30
0.0
 11
-35.745075
 21
287.07866
 31
0.0
  0
LINE
  5
513
330
1F
100
AcDbEntity
  8
LC-001-100-D00-0
 62
     7
370
    50
100
AcDbLine
 10
-34.74508
 20
271.47866
 30
0.0
 11
-34.745088
 21
286.07866
 31
0.0
  0
ARC
  5
514
330
1F
100
AcDbEntity
  8
LC-001-100-D00-0
 62
     7
370
    50
100
AcDbCircle
 10
-33.74508
 20
269.97866
 30
0.0
 40
1.802775637732184
100
AcDbArc
 50
123.690068
 51
236.309932
  0
LINE
  5
515
330
1F
100
AcDbEntity
  8
LC-001-100-D00-0
 62
     7
370
    50
100
AcDbLine
 10
-34.245079
 20
268.478661
 30
0.0
 11
-34.74508
 21
268.47866
 31
0.0
  0
LINE
  5
516
330
1F
100
AcDbEntity
  8
LC-001-100-D00-0
 62
     7
370
    50
100
AcDbLine
 10
-34.245079
 20
268.478661
 30
0.0
 11
-34.245079
 21
267.07866
 31
0.0
  0
LINE
  5
517
330
1F
100
AcDbEntity
  8
LC-001-100-D00-0
 62
     7
370
    50
100
AcDbLine
 10
-34.245079
 20
267.07866
 30
0.0
 11
91.754923
 21
267.07866
 31
0.0
  0
LINE
  5
518
330
1F
100
AcDbEntity
  8
LC-001-100-D00-0
 62
     7
370
    50
100
AcDbLine
 10
91.754923
 20
267.07866
 30
0.0
 11
91.754923
 21
268.478661
 31
0.0
  0
LINE
  5
519
330
1F
100
AcDbEntity
  8
LC-001-100-D00-0
 62
     7
370
    50
100
AcDbLine
 10
92.25492
 20
268.47866
 30
0.0
 11
91.754923
 21
268.478661
 31
0.0
  0
ARC
  5
51A
330
1F
100
AcDbEntity
  8
LC-001-100-D00-0
 62
     7
370
    50
100
AcDbCircle
 10
91.25492
 20
269.97866
 30
0.0
 40
1.802775637731868
100
AcDbArc
 50
303.690068
 51
56.309932
  0
LINE
  5
51B
330
1F
100
AcDbEntity
  8
LC-001-100-D00-0
 62
     7
370
    50
100
AcDbLine
 10
92.254917
 20
286.07866
 30
0.0
 11
92.25492
 21
271.47866
 31
0.0
  0
LINE
  5
51C
330
1F
100
AcDbEntity
  8
LC-001-100-D00-0
 62
     7
370
    50
100
AcDbLine
 10
93.254933
 20
287.07866
 30
0.0
 11
92.254917
 21
286.07866
 31
0.0
  0
LINE
  5
51D
330
1F
100
AcDbEntity
  8
LC-001-100-D00-0
 62
     7
370
    50
100
AcDbLine
 10
99.254916
 20
287.07866
 30
0.0
 11
93.254933
 21
287.07866
 31
0.0
  0
LINE
  5
51E
330
1F
100
AcDbEntity
  8
LC-001-100-D00-0
 62
     7
370
    50
100
AcDbLine
 10
100.254933
 20
286.07866
 30
0.0
 11
99.254916
 21
287.07866
 31
0.0
  0
LINE
  5
51F
330
1F
100
AcDbEntity
  8
LC-001-100-D00-0
 62
     7
370
    50
100
AcDbLine
 10
100.25492
 20
271.47866
 30
0.0
 11
100.254933
 21
286.07866
 31
0.0
  0
ARC
  5
520
330
1F
100
AcDbEntity
  8
LC-001-100-D00-0
 62
     7
370
    50
100
AcDbCircle
 10
101.25492
 20
269.97866
 30
0.0
 40
1.802775637732058
100
AcDbArc
 50
123.690068
 51
236.309932
  0
LINE
  5
521
330
1F
100
AcDbEntity
  8
LC-001-100-D00-0
 62
     7
370
    50
100
AcDbLine
 10
100.754926
 20
268.478661
 30
0.0
 11
100.25492
 21
268.47866
 31
0.0
  0
LINE
  5
522
330
1F
100
AcDbEntity
  8
LC-001-100-D00-0
 62
     7
370
    50
100
AcDbLine
 10
100.754926
 20
268.478661
 30
0.0
 11
100.754926
 21
267.07866
 31
0.0
  0
LINE
  5
523
330
1F
100
AcDbEntity
  8
LC-001-100-D00-0
 62
     7
370
    50
100
AcDbLine
 10
100.754926
 20
267.07866
 30
0.0
 11
118.25492
 21
267.07866
 31
0.0
  0
ARC
  5
524
330
1F
100
AcDbEntity
  8
LC-001-100-D00-0
 62
     7
370
    50
100
AcDbCircle
 10
118.25492
 20
275.07866
 30
0.0
 40
8.000000000000227
100
AcDbArc
 50
270.0
 51
0.0
  0
LINE
  5
525
330
1F
100
AcDbEntity
  8
LC-001-100-D00-0
 62
     7
370
    50
100
AcDbLine
 10
126.25492
 20
275.07866
 30
0.0
 11
126.25492
 21
284.57866
 31
0.0
  0
ARC
  5
526
330
1F
100
AcDbEntity
  8
LC-001-100-D00-0
 62
     7
370
    50
100
AcDbCircle
 10
129.25492
 20
284.57866
 30
0.0
 40
3.000000000000227
100
AcDbArc
 50
90.0
 51
180.0
  0
LINE
  5
527
330
1F
100
AcDbEntity
  8
LC-001-100-D00-0
 62
     7
370
    50
100
AcDbLine
 10
176.25492
 20
287.57866
 30
0.0
 11
129.25492
 21
287.57866
 31
0.0
  0
LINE
  5
528
330
1F
100
AcDbEntity
  8
LC-001-100-D00-0
 62
     7
370
    50
100
AcDbLine
 10
176.254908
 20
286.07866
 30
0.0
 11
176.25492
 21
287.57866
 31
0.0
  0
LINE
  5
529
330
1F
100
AcDbEntity
  8
LC-001-100-D00-0
 62
     7
370
    50
100
AcDbLine
 10
176.254908
 20
286.07866
 30
0.0
 11
129.25492
 21
286.07866
 31
0.0
  0
ARC
  5
52A
330
1F
100
AcDbEntity
  8
LC-001-100-D00-0
 62
     7
370
    50
100
AcDbCircle
 10
129.25492
 20
284.57866
 30
0.0
 40
1.500000000000455
100
AcDbArc
 50
90.0
 51
180.0
  0
LINE
  5
52B
330
1F
100
AcDbEntity
  8
LC-001-100-D00-0
 62
     7
370
    50
100
AcDbLine
 10
127.75492
 20
275.07866
 30
0.0
 11
127.75492
 21
284.57866
 31
0.0
  0
ARC
  5
52C
330
1F
100
AcDbEntity
  8
LC-001-100-D00-0
 62
     7
370
    50
100
AcDbCircle
 10
118.25492
 20
275.07866
 30
0.0
 40
9.499999999999773
100
AcDbArc
 50
270.0
 51
0.0
  0
LINE
  5
52D
330
1F
100
AcDbEntity
  8
LC-001-100-D00-0
 62
     7
370
    50
100
AcDbLine
 10
-179.755695
 20
265.57866
 30
0.0
 11
118.25492
 21
265.57866
 31
0.0
  0
ARC
  5
52E
330
1F
100
AcDbEntity
  8
LC-001-100-D00-0
 62
     7
370
    50
100
AcDbCircle
 10
-179.755695
 20
263.07866
 30
0.0
 40
2.5
100
AcDbArc
 50
90.0
 51
105.0
  0
LINE
  5
52F
330
1F
100
AcDbEntity
  8
LC-001-100-D00-0
 62
     7
370
    50
100
AcDbLine
 10
-229.351197
 20
262.07866
 30
0.0
 11
-215.94508
 21
262.07866
 31
0.0
  0
LINE
  5
530
330
1F
100
AcDbEntity
  8
LC-001-100-D00-0
 62
     7
370
    50
100
AcDbLine
 10
-218.44508
 20
255.57866
 30
0.0
 11
-218.64508
 21
255.57866
 31
0.0
  0
LINE
  5
531
330
1F
100
AcDbEntity
  8
LC-001-100-D00-0
 62
     7
370
    50
100
AcDbLine
 10
-330.545081
 20
255.578659
 30
0.0
 11
-330.54508
 21
259.57866
 31
0.0
  0
LINE
  5
532
330
1F
100
AcDbEntity
  8
LC-001-100-D00-0
 62
     7
370
    50
100
AcDbLine
 10
-328.84508
 20
255.57866
 30
0.0
 11
-329.04508
 21
255.57866
 31
0.0
  0
LINE
  5
533
330
1F
100
AcDbEntity
  8
LC-001-100-D00-0
 62
     7
370
    50
100
AcDbLine
 10
-329.04508
 20
255.57866
 30
0.0
 11
-329.04508
 21
259.57866
 31
0.0
  0
LINE
  5
534
330
1F
100
AcDbEntity
  8
LC-001-100-D00-0
 62
     7
370
    50
100
AcDbLine
 10
-639.245083
 20
268.478661
 30
0.0
 11
-639.74508
 21
268.47866
 31
0.0
  0
LINE
  5
535
330
1F
100
AcDbEntity
  8
LC-001-100-D00-0
 62
     7
370
    50
100
AcDbLine
 10
-639.245083
 20
268.478661
 30
0.0
 11
-639.245083
 21
267.07866
 31
0.0
  0
LINE
  5
536
330
1F
100
AcDbEntity
  8
LC-001-100-D00-0
 62
     7
370
    50
100
AcDbLine
 10
-639.245083
 20
267.07866
 30
0.0
 11
-513.245081
 21
267.07866
 31
0.0
  0
LINE
  5
537
330
1F
100
AcDbEntity
  8
LC-001-100-D00-0
 62
     7
370
    50
100
AcDbLine
 10
-513.245081
 20
267.07866
 30
0.0
 11
-513.245081
 21
268.478661
 31
0.0
  0
LINE
  5
538
330
1F
100
AcDbEntity
  8
LC-001-100-D00-0
 62
     7
370
    50
100
AcDbLine
 10
-512.74508
 20
268.47866
 30
0.0
 11
-513.245081
 21
268.478661
 31
0.0
  0
ARC
  5
539
330
1F
100
AcDbEntity
  8
LC-001-100-D00-0
 62
     7
370
    50
100
AcDbCircle
 10
-513.74508
 20
269.97866
 30
0.0
 40
1.802775637732184
100
AcDbArc
 50
303.690068
 51
56.309932
  0
LINE
  5
53A
330
1F
100
AcDbEntity
  8
LC-001-100-D00-0
 62
     7
370
    50
100
AcDbLine
 10
-512.745073
 20
286.07866
 30
0.0
 11
-512.74508
 21
271.47866
 31
0.0
  0
LINE
  5
53B
330
1F
100
AcDbEntity
  8
LC-001-100-D00-0
 62
     7
370
    50
100
AcDbLine
 10
-511.745086
 20
287.07866
 30
0.0
 11
-512.745073
 21
286.07866
 31
0.0
  0
LINE
  5
53C
330
1F
100
AcDbEntity
  8
LC-001-100-D00-0
 62
     7
370
    50
100
AcDbLine
 10
-505.745073
 20
287.07866
 30
0.0
 11
-511.745086
 21
287.07866
 31
0.0
  0
LINE
  5
53D
330
1F
100
AcDbEntity
  8
LC-001-100-D00-0
 62
     7
370
    50
100
AcDbLine
 10
-504.745086
 20
286.07866
 30
0.0
 11
-505.745073
 21
287.07866
 31
0.0
  0
LINE
  5
53E
330
1F
100
AcDbEntity
  8
LC-001-100-D00-0
 62
     7
370
    50
100
AcDbLine
 10
-504.74508
 20
271.47866
 30
0.0
 11
-504.745086
 21
286.07866
 31
0.0
  0
ARC
  5
53F
330
1F
100
AcDbEntity
  8
LC-001-100-D00-0
 62
     7
370
    50
100
AcDbCircle
 10
-503.74508
 20
269.97866
 30
0.0
 40
1.802775637732184
100
AcDbArc
 50
123.690068
 51
236.309932
  0
LINE
  5
540
330
1F
100
AcDbEntity
  8
LC-001-100-D00-0
 62
     7
370
    50
100
AcDbLine
 10
-504.245078
 20
268.478661
 30
0.0
 11
-504.74508
 21
268.47866
 31
0.0
  0
LINE
  5
541
330
1F
100
AcDbEntity
  8
LC-001-100-D00-0
 62
     7
370
    50
100
AcDbLine
 10
-504.245078
 20
268.478661
 30
0.0
 11
-504.245078
 21
267.07866
 31
0.0
  0
LINE
  5
542
330
1F
100
AcDbEntity
  8
LC-001-100-D00-0
 62
     7
370
    50
100
AcDbLine
 10
-504.245078
 20
267.07866
 30
0.0
 11
-378.245083
 21
267.07866
 31
0.0
  0
LINE
  5
543
330
1F
100
AcDbEntity
  8
LC-001-100-D00-0
 62
     7
370
    50
100
AcDbLine
 10
-378.245083
 20
267.07866
 30
0.0
 11
-378.245083
 21
268.478661
 31
0.0
  0
LINE
  5
544
330
1F
100
AcDbEntity
  8
LC-001-100-D00-0
 62
     7
370
    50
100
AcDbLine
 10
-377.74508
 20
268.47866
 30
0.0
 11
-378.245083
 21
268.478661
 31
0.0
  0
ARC
  5
545
330
1F
100
AcDbEntity
  8
LC-001-100-D00-0
 62
     7
370
    50
100
AcDbCircle
 10
-378.74508
 20
269.97866
 30
0.0
 40
1.802775637732184
100
AcDbArc
 50
303.690068
 51
56.309932
  0
LINE
  5
546
330
1F
100
AcDbEntity
  8
LC-001-100-D00-0
 62
     7
370
    50
100
AcDbLine
 10
-377.745082
 20
286.07866
 30
0.0
 11
-377.74508
 21
271.47866
 31
0.0
  0
LINE
  5
547
330
1F
100
AcDbEntity
  8
LC-001-100-D00-0
 62
     7
370
    50
100
AcDbLine
 10
-376.74508
 20
287.07866
 30
0.0
 11
-377.745082
 21
286.07866
 31
0.0
  0
LINE
  5
548
330
1F
100
AcDbEntity
  8
LC-001-100-D00-0
 62
     7
370
    50
100
AcDbLine
 10
-370.745083
 20
287.07866
 30
0.0
 11
-376.74508
 21
287.07866
 31
0.0
  0
LINE
  5
549
330
1F
100
AcDbEntity
  8
LC-001-100-D00-0
 62
     7
370
    50
100
AcDbLine
 10
-369.745081
 20
286.07866
 30
0.0
 11
-370.745083
 21
287.07866
 31
0.0
  0
LINE
  5
54A
330
1F
100
AcDbEntity
  8
LC-001-100-D00-0
 62
     7
370
    50
100
AcDbLine
 10
-369.74508
 20
271.47866
 30
0.0
 11
-369.745081
 21
286.07866
 31
0.0
  0
ARC
  5
54B
330
1F
100
AcDbEntity
  8
LC-001-100-D00-0
 62
     7
370
    50
100
AcDbCircle
 10
-368.74508
 20
269.97866
 30
0.0
 40
1.802775637732121
100
AcDbArc
 50
123.690068
 51
236.309932
  0
LINE
  5
54C
330
1F
100
AcDbEntity
  8
LC-001-100-D00-0
 62
     7
370
    50
100
AcDbLine
 10
-369.24508
 20
268.478661
 30
0.0
 11
-369.74508
 21
268.47866
 31
0.0
  0
LINE
  5
54D
330
1F
100
AcDbEntity
  8
LC-001-100-D00-0
 62
     7
370
    50
100
AcDbLine
 10
-369.24508
 20
268.478661
 30
0.0
 11
-369.24508
 21
267.07866
 31
0.0
  0
LINE
  5
54E
330
1F
100
AcDbEntity
  8
LC-001-100-D00-0
 62
     7
370
    50
100
AcDbLine
 10
-369.24508
 20
267.07866
 30
0.0
 11
-367.734465
 21
267.07866
 31
0.0
  0
ARC
  5
54F
330
1F
100
AcDbEntity
  8
LC-001-100-D00-0
 62
     7
370
    50
100
AcDbCircle
 10
-367.734465
 20
263.07866
 30
0.0
 40
3.999999999999624
100
AcDbArc
 50
75.0
 51
90.0
  0
LINE
  5
550
330
1F
100
AcDbEntity
  8
LC-001-100-D00-0
 62
     7
370
    50
100
AcDbLine
 10
-348.865518
 20
262.163846
 30
0.0
 11
-366.699189
 21
266.942364
 31
0.0
  0
ARC
  5
551
330
1F
100
AcDbEntity
  8
LC-001-100-D00-0
 62
     7
370
    50
100
AcDbCircle
 10
-348.21847
 20
264.57866
 30
0.0
 40
2.500000000000062
100
AcDbArc
 50
255.0
 51
270.0
  0
LINE
  5
552
330
1F
100
AcDbEntity
  8
LC-001-100-D00-0
 62
     7
370
    50
100
AcDbLine
 10
-342.822289
 20
262.078661
 30
0.0
 11
-348.21847
 21
262.07866
 31
0.0
  0
LINE
  5
553
330
1F
100
AcDbEntity
  8
LC-001-100-D00-0
 62
     7
370
    50
100
AcDbLine
 10
-342.822289
 20
261.978661
 30
0.0
 11
-342.822289
 21
262.078661
 31
0.0
  0
LINE
  5
554
330
1F
100
AcDbEntity
  8
LC-001-100-D00-0
 62
     7
370
    50
100
AcDbLine
 10
-342.298453
 20
261.978661
 30
0.0
 11
-342.822289
 21
261.978661
 31
0.0
  0
LINE
  5
555
330
1F
100
AcDbEntity
  8
LC-001-100-D00-0
 62
     7
370
    50
100
AcDbLine
 10
-342.298453
 20
262.078661
 30
0.0
 11
-342.298453
 21
261.978661
 31
0.0
  0
LINE
  5
556
330
1F
100
AcDbEntity
  8
LC-001-100-D00-0
 62
     7
370
    50
100
AcDbLine
 10
-341.604208
 20
262.078661
 30
0.0
 11
-342.298453
 21
262.078661
 31
0.0
  0
LINE
  5
557
330
1F
100
AcDbEntity
  8
LC-001-100-D00-0
 62
     7
370
    50
100
AcDbLine
 10
-341.604208
 20
261.978661
 30
0.0
 11
-341.604208
 21
262.078661
 31
0.0
  0
LINE
  5
558
330
1F
100
AcDbEntity
  8
LC-001-100-D00-0
 62
     7
370
    50
100
AcDbLine
 10
-341.079859
 20
261.978661
 30
0.0
 11
-341.604208
 21
261.978661
 31
0.0
  0
LINE
  5
559
330
1F
100
AcDbEntity
  8
LC-001-100-D00-0
 62
     7
370
    50
100
AcDbLine
 10
-341.079859
 20
262.078661
 30
0.0
 11
-341.079859
 21
261.978661
 31
0.0
  0
LINE
  5
55A
330
1F
100
AcDbEntity
  8
LC-001-100-D00-0
 62
     7
370
    50
100
AcDbLine
 10
-331.54508
 20
262.07866
 30
0.0
 11
-341.079859
 21
262.078661
 31
0.0
  0
ARC
  5
55B
330
1F
100
AcDbEntity
  8
LC-001-100-D00-0
 62
     7
370
    50
100
AcDbCircle
 10
-331.54508
 20
259.57866
 30
0.0
 40
2.5
100
AcDbArc
 50
0.0
 51
90.0
  0
LINE
  5
55C
330
1F
100
AcDbEntity
  8
LC-001-100-D00-0
 62
     7
370
    50
100
AcDbLine
 10
-329.04508
 20
255.57866
 30
0.0
 11
-330.545081
 21
255.578659
 31
0.0
  0
ARC
  5
55D
330
1F
100
AcDbEntity
  8
LC-001-100-D00-0
 62
     7
370
    50
100
AcDbCircle
 10
-331.54508
 20
259.57866
 30
0.0
 40
1.0
100
AcDbArc
 50
0.0
 51
90.0
  0
LINE
  5
55E
330
1F
100
AcDbEntity
  8
LC-001-100-D00-0
 62
     7
370
    50
100
AcDbLine
 10
-331.54508
 20
260.57866
 30
0.0
 11
-348.21847
 21
260.57866
 31
0.0
  0
ARC
  5
55F
330
1F
100
AcDbEntity
  8
LC-001-100-D00-0
 62
     7
370
    50
100
AcDbCircle
 10
-348.21847
 20
264.57866
 30
0.0
 40
3.999999999999902
100
AcDbArc
 50
255.0
 51
270.0
  0
LINE
  5
560
330
1F
100
AcDbEntity
  8
LC-001-100-D00-0
 62
     7
370
    50
100
AcDbLine
 10
-349.253746
 20
260.714957
 30
0.0
 11
-367.087418
 21
265.493475
 31
0.0
  0
ARC
  5
561
330
1F
100
AcDbEntity
  8
LC-001-100-D00-0
 62
     7
370
    50
100
AcDbCircle
 10
-367.734465
 20
263.07866
 30
0.0
 40
2.500000000000062
100
AcDbArc
 50
75.0
 51
90.0
  0
LINE
  5
562
330
1F
100
AcDbEntity
  8
LC-001-100-D00-0
 62
     7
370
    50
100
AcDbLine
 10
-665.74508
 20
265.57866
 30
0.0
 11
-367.734465
 21
265.57866
 31
0.0
  0
ARC
  5
563
330
1F
100
AcDbEntity
  8
LC-001-100-D00-0
 62
     7
370
    50
100
AcDbCircle
 10
-665.74508
 20
275.07866
 30
0.0
 40
9.5
100
AcDbArc
 50
180.0
 51
270.0
  0
LINE
  5
564
330
1F
100
AcDbEntity
  8
LC-001-100-D00-0
 62
     7
370
    50
100
AcDbLine
 10
-675.24508
 20
284.57866
 30
0.0
 11
-675.24508
 21
275.07866
 31
0.0
  0
ARC
  5
565
330
1F
100
AcDbEntity
  8
LC-001-100-D00-0
 62
     7
370
    50
100
AcDbCircle
 10
-676.74508
 20
284.57866
 30
0.0
 40
1.5
100
AcDbArc
 50
0.0
 51
90.0
  0
LINE
  5
566
330
1F
100
AcDbEntity
  8
LC-001-100-D00-0
 62
     7
370
    50
100
AcDbLine
 10
-723.74508
 20
287.57866
 30
0.0
 11
-723.745068
 21
286.07866
 31
0.0
  0
ARC
  5
567
330
1F
100
AcDbEntity
  8
LC-001-100-D00-0
 62
     7
370
    50
100
AcDbCircle
 10
-676.74508
 20
284.57866
 30
0.0
 40
3.000000000000114
100
AcDbArc
 50
0.0
 51
90.0
  0
LINE
  5
568
330
1F
100
AcDbEntity
  8
LC-001-100-D00-0
 62
     7
370
    50
100
AcDbLine
 10
-673.74508
 20
284.57866
 30
0.0
 11
-673.74508
 21
275.07866
 31
0.0
  0
ARC
  5
569
330
1F
100
AcDbEntity
  8
LC-001-100-D00-0
 62
     7
370
    50
100
AcDbCircle
 10
-665.74508
 20
275.07866
 30
0.0
 40
8.000000000000227
100
AcDbArc
 50
180.0
 51
270.0
  0
LINE
  5
56A
330
1F
100
AcDbEntity
  8
LC-001-100-D00-0
 62
     7
370
    50
100
AcDbLine
 10
-665.74508
 20
267.07866
 30
0.0
 11
-648.245087
 21
267.07866
 31
0.0
  0
LINE
  5
56B
330
1F
100
AcDbEntity
  8
LC-001-100-D00-0
 62
     7
370
    50
100
AcDbLine
 10
-648.245087
 20
267.07866
 30
0.0
 11
-648.245087
 21
268.478661
 31
0.0
  0
LINE
  5
56C
330
1F
100
AcDbEntity
  8
LC-001-100-D00-0
 62
     7
370
    50
100
AcDbLine
 10
-647.74508
 20
268.47866
 30
0.0
 11
-648.245087
 21
268.478661
 31
0.0
  0
ARC
  5
56D
330
1F
100
AcDbEntity
  8
LC-001-100-D00-0
 62
     7
370
    50
100
AcDbCircle
 10
-648.74508
 20
269.97866
 30
0.0
 40
1.802775637732058
100
AcDbArc
 50
303.690068
 51
56.309932
  0
LINE
  5
56E
330
1F
100
AcDbEntity
  8
LC-001-100-D00-0
 62
     7
370
    50
100
AcDbLine
 10
-647.745093
 20
286.07866
 30
0.0
 11
-647.74508
 21
271.47866
 31
0.0
  0
LINE
  5
56F
330
1F
100
AcDbEntity
  8
LC-001-100-D00-0
 62
     7
370
    50
100
AcDbLine
 10
-646.745076
 20
287.07866
 30
0.0
 11
-647.745093
 21
286.07866
 31
0.0
  0
LINE
  5
570
330
1F
100
AcDbEntity
  8
LC-001-100-D00-0
 62
     7
370
    50
100
AcDbLine
 10
-640.745094
 20
287.07866
 30
0.0
 11
-646.745076
 21
287.07866
 31
0.0
  0
LINE
  5
571
330
1F
100
AcDbEntity
  8
LC-001-100-D00-0
 62
     7
370
    50
100
AcDbLine
 10
-639.745077
 20
286.07866
 30
0.0
 11
-640.745094
 21
287.07866
 31
0.0
  0
LINE
  5
572
330
1F
100
AcDbEntity
  8
LC-001-100-D00-0
 62
     7
370
    50
100
AcDbLine
 10
-639.74508
 20
271.47866
 30
0.0
 11
-639.745077
 21
286.07866
 31
0.0
  0
ARC
  5
573
330
1F
100
AcDbEntity
  8
LC-001-100-D00-0
 62
     7
370
    50
100
AcDbCircle
 10
-638.74508
 20
269.97866
 30
0.0
 40
1.802775637731932
100
AcDbArc
 50
123.690068
 51
236.309932
  0
LINE
  5
574
330
1F
100
AcDbEntity
  8
LC-001-100-D00-0
 62
     7
370
    50
100
AcDbLine
 10
-676.74508
 20
287.57866
 30
0.0
 11
-723.74508
 21
287.57866
 31
0.0
  0
LINE
  5
575
330
1F
100
AcDbEntity
  8
LC-001-100-D00-0
 62
     7
370
    50
100
AcDbLine
 10
-676.74508
 20
286.07866
 30
0.0
 11
-723.745068
 21
286.07866
 31
0.0
  0
LINE
  5
576
330
1F
100
AcDbEntity
  8
LC-001-100-D00-0
 62
     7
370
    50
100
AcDbLine
 10
-318.138964
 20
262.07866
 30
0.0
 11
-331.54508
 21
262.07866
 31
0.0
  0
LINE
  5
577
330
1F
100
AcDbEntity
  8
LC-001-100-D00-0
 62
     7
370
    50
100
AcDbLine
 10
-341.604208
 20
262.078661
 30
0.0
 11
-341.079859
 21
262.078661
 31
0.0
  0
LINE
  5
578
330
1F
100
AcDbEntity
  8
LC-001-100-D00-0
 62
     7
370
    50
100
AcDbLine
 10
-342.822289
 20
262.078661
 30
0.0
 11
-342.298453
 21
262.078661
 31
0.0
  0
ELLIPSE
  5
579
330
1F
100
AcDbEntity
  8
LC-001-100-D00-0
 62
     7
370
    50
100
AcDbEllipse
 10
-18.723263
 20
263.07866
 30
0.0
 11
0.0
 21
-2.500000152587886
 31
0.0
210
0.0
220
0.0
230
0.9999999999999999
 40
0.027578
 41
0.0000000000015974
 42
0.3217505544023558
  0
ELLIPSE
  5
57A
330
1F
100
AcDbEntity
  8
LC-001-100-D00-0
 62
     7
370
    50
100
AcDbEllipse
 10
-528.766897
 20
263.07866
 30
0.0
 11
0.0
 21
-2.5
 31
0.0
210
0.0
220
0.0
230
0.9999999999999999
 40
0.027578
 41
5.961434752784173
 42
6.283185307182884
  0
LINE
  5
57B
330
1F
100
AcDbEntity
  8
LC-001-100-D00-0
 62
     7
370
    50
100
AcDbLine
 10
-18.745085
 20
265.450008
 30
0.0
 11
-18.745085
 21
260.78462
 31
0.0
  0
LINE
  5
57C
330
1F
100
AcDbEntity
  8
LC-001-100-D00-0
 62
     7
370
    50
100
AcDbLine
 10
-528.745075
 20
265.450008
 30
0.0
 11
-528.745075
 21
260.78462
 31
0.0
  0
INSERT
  5
586
330
1F
100
AcDbEntity
  8
LC-001-100-D00-0
 62
     7
370
    50
100
AcDbBlockReference
  2
KLON20
 10
0.0
 20
0.0
 30
0.0
  0
INSERT
  5
590
330
1F
100
AcDbEntity
  8
LC-001-100-D00-0
 62
     7
370
    50
100
AcDbBlockReference
  2
KLON21
 10
0.0
 20
0.0
 30
0.0
  0
LINE
  5
591
330
1F
100
AcDbEntity
  8
LC-001-100-D00-0
 62
     7
370
    50
100
AcDbLine
 10
-18.745085
 20
260.57866
 30
0.0
 11
-18.745115
 21
260.783927
 31
0.0
  0
LINE
  5
592
330
1F
100
AcDbEntity
  8
LC-001-100-D00-0
 62
     7
370
    50
100
AcDbLine
 10
-18.745085
 20
260.57866
 30
0.0
 11
109.162608
 21
265.246825
 31
0.0
  0
LINE
  5
593
330
1F
100
AcDbEntity
  8
LC-001-100-D00-0
 62
     7
370
    50
100
AcDbLine
 10
-528.745075
 20
260.57866
 30
0.0
 11
-528.745046
 21
260.783927
 31
0.0
  0
LINE
  5
594
330
1F
100
AcDbEntity
  8
LC-001-100-D00-0
 62
     7
370
    50
100
AcDbLine
 10
-528.745075
 20
260.57866
 30
0.0
 11
-656.652769
 21
265.246825
 31
0.0
  0
LINE
  5
595
330
1F
100
AcDbEntity
  8
LC-001-100-D00-0
 62
     7
370
    50
100
AcDbLine
 10
-231.958924
 20
253.57866
 30
0.0
 11
-229.657214
 21
253.57866
 31
0.0
  0
LINE
  5
596
330
1F
100
AcDbEntity
  8
LC-001-100-D00-0
 62
     7
370
    50
100
AcDbLine
 10
-228.595165
 20
252.07866
 30
0.0
 11
-228.499578
 21
252.086721
 31
0.0
  0
LINE
  5
597
330
1F
100
AcDbEntity
  8
LC-001-100-D00-0
 62
     7
370
    50
100
AcDbLine
 10
-228.595165
 20
252.07866
 30
0.0
 11
-231.958924
 21
252.07866
 31
0.0
  0
LINE
  5
598
330
1F
100
AcDbEntity
  8
LC-001-100-D00-0
 62
     7
370
    50
100
AcDbLine
 10
-318.990582
 20
252.086721
 30
0.0
 11
-318.894995
 21
252.07866
 31
0.0
  0
LINE
  5
599
330
1F
100
AcDbEntity
  8
LC-001-100-D00-0
 62
     7
370
    50
100
AcDbLine
 10
-315.531237
 20
252.07866
 30
0.0
 11
-318.894995
 21
252.07866
 31
0.0
  0
LINE
  5
59A
330
1F
100
AcDbEntity
  8
LC-001-100-D00-0
 62
     7
370
    50
100
AcDbLine
 10
-317.832947
 20
253.57866
 30
0.0
 11
-315.531237
 21
253.57866
 31
0.0
  0
LINE
  5
59B
330
1F
100
AcDbEntity
  8
LC-001-100-D00-0
 62
     7
370
    50
100
AcDbLine
 10
-231.958924
 20
253.57866
 30
0.0
 11
-232.735852
 21
253.57866
 31
0.0
  0
LINE
  5
59C
330
1F
100
AcDbEntity
  8
LC-001-100-D00-0
 62
     7
370
    50
100
AcDbLine
 10
-231.958924
 20
252.07866
 30
0.0
 11
-232.735852
 21
252.07866
 31
0.0
  0
LINE
  5
59D
330
1F
100
AcDbEntity
  8
LC-001-100-D00-0
 62
     7
370
    50
100
AcDbLine
 10
-315.531237
 20
252.07866
 30
0.0
 11
-314.754308
 21
252.07866
 31
0.0
  0
LINE
  5
59E
330
1F
100
AcDbEntity
  8
LC-001-100-D00-0
 62
     7
370
    50
100
AcDbLine
 10
-315.531237
 20
253.57866
 30
0.0
 11
-314.754308
 21
253.57866
 31
0.0
  0
LINE
  5
59F
330
1F
100
AcDbEntity
  8
LC-001-100-D00-0
 62
     7
370
    50
100
AcDbLine
 10
-199.27169
 20
260.57866
 30
0.0
 11
-197.17109
 21
260.57866
 31
0.0
  0
LINE
  5
5A0
330
1F
100
AcDbEntity
  8
LC-001-100-D00-0
 62
     7
370
    50
100
AcDbLine
 10
-348.21847
 20
260.57866
 30
0.0
 11
-350.31907
 21
260.57866
 31
0.0
  0
LINE
  5
5A1
330
1F
100
AcDbEntity
  8
LC-001-100-D00-0
 62
     7
370
    50
100
AcDbLine
 10
-234.006279
 20
253.57866
 30
0.0
 11
-232.735852
 21
253.57866
 31
0.0
  0
LINE
  5
5A2
330
1F
100
AcDbEntity
  8
LC-001-100-D00-0
 62
     7
370
    50
100
AcDbLine
 10
-232.735852
 20
252.07866
 30
0.0
 11
-234.030665
 21
252.07866
 31
0.0
  0
LINE
  5
5A3
330
1F
100
AcDbEntity
  8
LC-001-100-D00-0
 62
     7
370
    50
100
AcDbLine
 10
-313.459495
 20
252.07866
 30
0.0
 11
-314.754308
 21
252.07866
 31
0.0
  0
LINE
  5
5A4
330
1F
100
AcDbEntity
  8
LC-001-100-D00-0
 62
     7
370
    50
100
AcDbLine
 10
-314.754308
 20
253.57866
 30
0.0
 11
-313.483882
 21
253.57866
 31
0.0
  0
LINE
  5
5A5
330
1F
100
AcDbEntity
  8
LC-001-100-D00-0
 62
     7
370
    50
100
AcDbLine
 10
-197.17109
 20
260.57866
 30
0.0
 11
-179.245284
 21
260.57866
 31
0.0
  0
LINE
  5
5A6
330
1F
100
AcDbEntity
  8
LC-001-100-D00-0
 62
     7
370
    50
100
AcDbLine
 10
-161.062827
 20
260.57866
 30
0.0
 11
-18.745085
 21
260.57866
 31
0.0
  0
LINE
  5
5A7
330
1F
100
AcDbEntity
  8
LC-001-100-D00-0
 62
     7
370
    50
100
AcDbLine
 10
-350.31907
 20
260.57866
 30
0.0
 11
-528.745075
 21
260.57866
 31
0.0
  0
ARC
  5
5A8
330
1F
100
AcDbEntity
  8
LC-001-100-D00-0
 62
     7
370
    50
100
AcDbCircle
 10
-229.229453
 20
253.512812
 30
0.0
 40
1.602014939990142
100
AcDbArc
 50
297.103406
 51
2.355668
  0
INSERT
  5
5B1
330
1F
100
AcDbEntity
  8
LC-001-100-D00-0
 62
     7
370
    50
100
AcDbBlockReference
  2
KLON22
 10
0.0
 20
0.0
 30
0.0
  0
INSERT
  5
5BE
330
1F
100
AcDbEntity
  8
LC-001-100-D00-0
 62
     7
370
    50
100
AcDbBlockReference
  2
KLON23
 10
0.0
 20
0.0
 30
0.0
  0
INSERT
  5
5CB
330
1F
100
AcDbEntity
  8
LC-001-100-D00-0
 62
     7
370
    50
100
AcDbBlockReference
  2
KLON24
 10
0.0
 20
0.0
 30
0.0
  0
LINE
  5
5CC
330
1F
100
AcDbEntity
  8
LC-001-100-D00-0
 62
     7
370
    50
100
AcDbLine
 10
123.75492
 20
287.57866
 30
0.0
 11
129.25492
 21
287.57866
 31
0.0
  0
LINE
  5
5CD
330
1F
100
AcDbEntity
  8
LC-001-100-D00-0
 62
     7
370
    50
100
AcDbLine
 10
-671.24508
 20
287.57866
 30
0.0
 11
-676.74508
 21
287.57866
 31
0.0
  0
LINE
  5
5CE
330
1F
100
AcDbEntity
  8
LC-001-100-D00-0
 62
     7
370
    50
100
AcDbLine
 10
123.75492
 20
287.57866
 30
0.0
 11
113.50492
 21
287.57866
 31
0.0
  0
LINE
  5
5CF
330
1F
100
AcDbEntity
  8
LC-001-100-D00-0
 62
     7
370
    50
100
AcDbLine
 10
79.00492
 20
287.57866
 30
0.0
 11
-21.49508
 21
287.57866
 31
0.0
  0
LINE
  5
5D0
330
1F
100
AcDbEntity
  8
LC-001-100-D00-0
 62
     7
370
    50
100
AcDbLine
 10
-55.99508
 20
287.57866
 30
0.0
 11
-156.49508
 21
287.57866
 31
0.0
  0
LINE
  5
5D1
330
1F
100
AcDbEntity
  8
LC-001-100-D00-0
 62
     7
370
    50
100
AcDbLine
 10
-190.99508
 20
287.57866
 30
0.0
 11
-356.49508
 21
287.57866
 31
0.0
  0
LINE
  5
5D2
330
1F
100
AcDbEntity
  8
LC-001-100-D00-0
 62
     7
370
    50
100
AcDbLine
 10
-390.99508
 20
287.57866
 30
0.0
 11
-491.49508
 21
287.57866
 31
0.0
  0
LINE
  5
5D3
330
1F
100
AcDbEntity
  8
LC-001-100-D00-0
 62
     7
370
    50
100
AcDbLine
 10
-525.99508
 20
287.57866
 30
0.0
 11
-626.49508
 21
287.57866
 31
0.0
  0
LINE
  5
5D4
330
1F
100
AcDbEntity
  8
LC-001-100-D00-0
 62
     7
370
    50
100
AcDbLine
 10
-660.99508
 20
287.57866
 30
0.0
 11
-671.24508
 21
287.57866
 31
0.0
  0
LINE
  5
5D5
330
1F
100
AcDbEntity
  8
LC-001-100-D00-0
 62
     7
370
    50
100
AcDbLine
 10
-723.74508
 20
287.57866
 30
0.0
 11
-723.74508
 21
289.07866
 31
0.0
  0
LINE
  5
5D6
330
1F
100
AcDbEntity
  8
LC-001-100-D00-0
 62
     7
370
    50
100
AcDbLine
 10
176.25492
 20
289.07866
 30
0.0
 11
176.25492
 21
287.57866
 31
0.0
  0
ARC
  5
5D7
330
1F
100
AcDbEntity
  8
LC-001-100-D00-0
 62
     7
370
    50
100
AcDbCircle
 10
-718.74508
 20
327.57866
 30
0.0
 40
5.0
100
AcDbArc
 50
90.0
 51
180.0
  0
LINE
  5
5D8
330
1F
100
AcDbEntity
  8
LC-001-100-D00-0
 62
     7
370
    50
100
AcDbLine
 10
-718.74508
 20
332.57866
 30
0.0
 11
171.25492
 21
332.57866
 31
0.0
  0
ARC
  5
5D9
330
1F
100
AcDbEntity
  8
LC-001-100-D00-0
 62
     7
370
    50
100
AcDbCircle
 10
171.25492
 20
327.57866
 30
0.0
 40
5.0
100
AcDbArc
 50
0.0
 51
90.0
  0
LINE
  5
5DA
330
1F
100
AcDbEntity
  8
LC-001-100-D00-0
 62
     7
370
    50
100
AcDbLine
 10
-723.74508
 20
327.57866
 30
0.0
 11
-723.74508
 21
289.07866
 31
0.0
  0
LINE
  5
5DB
330
1F
100
AcDbEntity
  8
LC-001-100-D00-0
 62
     7
370
    50
100
AcDbLine
 10
176.25492
 20
327.57866
 30
0.0
 11
176.25492
 21
289.07866
 31
0.0
  0
DIMENSION
  5
5DC
330
1F
100
AcDbEntity
  8
LC-001-100-D00-0
 62
     7
370
    25
100
AcDbDimension
  2
*D29
 10
-756.891555
 20
332.57866
 30
0.0
 11
-811.891555
 21
312.38369
 31
0.0
 70
   160
  1
46
 71
     5
 42
45.0
 53
90.0
  3
LC-DIM-L-0100-02-02
100
AcDbAlignedDimension
 13
-723.74508
 23
287.57866
 33
0.0
 14
-718.74508
 24
332.57866
 34
0.0
 50
90.0
100
AcDbRotatedDimension
  0
DIMENSION
  5
5EB
330
1F
100
AcDbEntity
  8
LC-001-100-D00-0
 62
     7
370
    25
100
AcDbDimension
  2
*D30
 10
-64.245283
 20
106.633869
 30
0.0
 11
-225.103266
 21
161.633869
 31
0.0
 70
   160
  1
284
 71
     5
 42
283.499797
  3
LC-DIM-L-0100-02-02
100
AcDbAlignedDimension
 13
-347.74508
 23
216.57866
 33
0.0
 14
-64.245283
 24
206.016483
 34
0.0
100
AcDbRotatedDimension
  0
DIMENSION
  5
5F8
330
1F
100
AcDbEntity
  8
LC-001-100-D00-0
 62
     7
370
    25
100
AcDbDimension
  2
*D31
 10
-413.479058
 20
246.07866
 30
0.0
 11
-468.479058
 21
157.123869
 31
0.0
 70
   160
  1
30
 71
     5
 42
30.0
 53
90.0
  3
LC-DIM-L-0100-02-02
100
AcDbAlignedDimension
 13
-302.74508
 23
216.07866
 33
0.0
 14
-308.824476
 24
246.07866
 34
0.0
 50
90.0
100
AcDbRotatedDimension
  0
DIMENSION
  5
606
330
1F
100
AcDbEntity
  8
LC-001-100-D00-0
 62
     7
370
    25
100
AcDbDimension
  2
*D32
 10
176.25492
 20
428.878869
 30
0.0
 11
-278.291725
 21
483.878869
 31
0.0
 70
   160
  1
900
 71
     5
 42
900.0
  3
LC-DIM-L-0100-02-02
100
AcDbAlignedDimension
 13
-723.74508
 23
327.57866
 33
0.0
 14
176.25492
 24
327.57866
 34
0.0
100
AcDbRotatedDimension
  0
DIMENSION
  5
613
330
1F
100
AcDbEntity
  8
LC-001-100-D00-0
 62
     7
370
    25
100
AcDbDimension
  2
*D33
 10
126.25492
 20
352.774204
 30
0.0
 11
-273.702127
 21
407.774204
 31
0.0
 70
   160
  1
800
 71
     5
 42
800.0
  3
LC-DIM-L-0100-02-02
100
AcDbAlignedDimension
 13
-673.74508
 23
284.57866
 33
0.0
 14
126.25492
 24
284.57866
 34
0.0
100
AcDbRotatedDimension
  0
DIMENSION
  5
620
330
1F
100
AcDbEntity
  8
LC-001-100-D00-0
 62
     7
370
    25
100
AcDbDimension
  2
*D34
 10
244.728121
 20
205.07866
 30
0.0
 11
189.728121
 21
320.473869
 31
0.0
 70
   160
  1
DN50
 71
     5
 42
50.0
 53
90.0
  3
LC-DIM-L-0100-02-02
100
AcDbAlignedDimension
 13
-67.745283
 23
255.07866
 33
0.0
 14
-67.745283
 24
205.07866
 34
0.0
 50
90.0
100
AcDbRotatedDimension
  0
DIMENSION
  5
62E
330
1F
100
AcDbEntity
  8
LC-001-100-D00-0
 62
     7
370
    25
100
AcDbDimension
  2
*D35
 10
315.646067
 20
230.07866
 30
0.0
 11
260.646067
 21
289.288869
 31
0.0
 70
   160
  1
57,5
 71
     5
 42
57.5
 53
90.0
  3
LC-DIM-L-0100-02-02
100
AcDbAlignedDimension
 13
176.25492
 23
287.57866
 33
0.0
 14
-57.745283
 24
230.07866
 34
0.0
 50
90.0
100
AcDbRotatedDimension
  0
DIMENSION
  5
63C
330
1F
100
AcDbEntity
  8
LC-001-100-D00-0
 62
     7
370
    25
100
AcDbDimension
  2
*D36
 10
382.13164
 20
197.57866
 30
0.0
 11
327.13164
 21
210.583869
 31
0.0
 70
   160
  1
90
 71
     5
 42
90.0
 53
90.0
  3
LC-DIM-L-0100-02-02
100
AcDbAlignedDimension
 13
176.25492
 23
287.57866
 33
0.0
 14
-219.7272
 24
197.57866
 34
0.0
 50
90.0
100
AcDbRotatedDimension
  0
INSERT
  5
657
330
1F
100
AcDbEntity
  8
LC-001-100-D00-0
 62
     7
370
    25
100
AcDbBlockReference
  2
KLON25
 10
0.0
 20
0.0
 30
0.0
  0
INSERT
  5
65F
330
1F
100
AcDbEntity
  8
LC-001-100-D00-0
 62
     7
370
    25
100
AcDbBlockReference
  2
KLON26
 10
0.0
 20
0.0
 30
0.0
  0
INSERT
  5
667
330
1F
100
AcDbEntity
  8
LC-001-100-D00-0
 62
     7
370
    25
100
AcDbBlockReference
  2
KLON27
 10
0.0
 20
0.0
 30
0.0
  0
INSERT
  5
680
330
1F
100
AcDbEntity
  8
LC-001-100-D00-0
 62
     7
370
    25
100
AcDbBlockReference
  2
KLON28
 10
0.0
 20
0.0
 30
0.0
  0
INSERT
  5
69A
330
1F
100
AcDbEntity
  8
LC-001-100-D00-0
 62
     7
370
    25
100
AcDbBlockReference
  2
KLON29
 10
0.0
 20
0.0
 30
0.0
  0
INSERT
  5
6A1
330
1F
100
AcDbEntity
  8
LC-001-100-D00-0
 62
     7
370
    25
100
AcDbBlockReference
  2
KLON30
 10
0.0
 20
0.0
 30
0.0
  0
INSERT
  5
6A8
330
1F
100
AcDbEntity
  8
LC-001-100-D00-0
 62
     7
370
    25
100
AcDbBlockReference
  2
KLON31
 10
0.0
 20
0.0
 30
0.0
  0
INSERT
  5
6B7
330
1F
100
AcDbEntity
  8
LC-001-100-D00-0
 62
     7
370
    25
100
AcDbBlockReference
  2
KLON32
 10
0.0
 20
0.0
 30
0.0
  0
INSERT
  5
6BE
330
1F
100
AcDbEntity
  8
LC-001-100-D00-0
 62
     7
370
    25
100
AcDbBlockReference
  2
KLON33
 10
0.0
 20
0.0
 30
0.0
  0
LINE
  5
6BF
330
1F
100
AcDbEntity
  8
LC-001-100-D00-0
 62
     7
370
    25
100
AcDbLine
 10
-338.74508
 20
257.915303
 30
0.0
 11
-336.081723
 21
260.57866
 31
0.0
  0
INSERT
  5
6C5
330
1F
100
AcDbEntity
  8
LC-001-100-D00-0
 62
     7
370
    25
100
AcDbBlockReference
  2
KLON34
 10
0.0
 20
0.0
 30
0.0
  0
LINE
  5
6C6
330
1F
100
AcDbEntity
  8
LC-001-100-D00-0
 62
     7
370
    50
100
AcDbLine
 10
-341.74508
 20
254.915303
 30
0.0
 11
-338.74508
 21
257.915303
 31
0.0
  0
LINE
  5
6C7
330
1F
100
AcDbEntity
  8
LC-001-100-D00-0
 62
     7
370
    25
100
AcDbLine
 10
-183.49508
 20
278.461467
 30
0.0
 11
-177.64508
 21
284.311468
 31
0.0
  0
INSERT
  5
6CD
330
1F
100
AcDbEntity
  8
LC-001-100-D00-0
 62
     7
370
    25
100
AcDbBlockReference
  2
KLON35
 10
0.0
 20
0.0
 30
0.0
  0
LINE
  5
6CE
330
1F
100
AcDbEntity
  8
LC-001-100-D00-0
 62
     7
370
    50
100
AcDbLine
 10
-170.136164
 20
269.369744
 30
0.0
 11
-168.462408
 21
271.043499
 31
0.0
  0
LINE
  5
6CF
330
1F
100
AcDbEntity
  8
LC-001-100-D00-0
 62
     7
370
    25
100
AcDbLine
 10
-383.49508
 20
280.517223
 30
0.0
 11
-377.64508
 21
286.367223
 31
0.0
  0
INSERT
  5
6D5
330
1F
100
AcDbEntity
  8
LC-001-100-D00-0
 62
     7
370
    25
100
AcDbBlockReference
  2
KLON36
 10
0.0
 20
0.0
 30
0.0
  0
LINE
  5
6D6
330
1F
100
AcDbEntity
  8
LC-001-100-D00-0
 62
     7
370
    50
100
AcDbLine
 10
-370.34508
 20
271.216583
 30
0.0
 11
-368.54508
 21
273.016583
 31
0.0
  0
LINE
  5
6D7
330
1F
100
AcDbEntity
  8
LC-001-100-D00-0
 62
     7
370
    50
100
AcDbLine
 10
86.50492
 20
279.053794
 30
0.0
 11
92.35492
 21
284.903794
 31
0.0
  0
INSERT
  5
6DD
330
1F
100
AcDbEntity
  8
LC-001-100-D00-0
 62
     7
370
    50
100
AcDbBlockReference
  2
KLON37
 10
0.0
 20
0.0
 30
0.0
  0
LINE
  5
6DE
330
1F
100
AcDbEntity
  8
LC-001-100-D00-0
 62
     7
370
    50
100
AcDbLine
 10
99.65492
 20
269.753154
 30
0.0
 11
101.45492
 21
271.553154
 31
0.0
  0
LINE
  5
6DF
330
1F
100
AcDbEntity
  8
LC-001-100-D00-0
 62
     7
370
    25
100
AcDbLine
 10
-518.49508
 20
280.22106
 30
0.0
 11
-512.64508
 21
286.07106
 31
0.0
  0
INSERT
  5
6E5
330
1F
100
AcDbEntity
  8
LC-001-100-D00-0
 62
     7
370
    25
100
AcDbBlockReference
  2
KLON38
 10
0.0
 20
0.0
 30
0.0
  0
LINE
  5
6E6
330
1F
100
AcDbEntity
  8
LC-001-100-D00-0
 62
     7
370
    50
100
AcDbLine
 10
-505.34508
 20
270.92042
 30
0.0
 11
-503.54508
 21
272.72042
 31
0.0
  0
LINE
  5
6E7
330
1F
100
AcDbEntity
  8
LC-001-100-D00-0
 62
     7
370
    25
100
AcDbLine
 10
-653.49508
 20
279.924897
 30
0.0
 11
-647.64508
 21
285.774897
 31
0.0
  0
INSERT
  5
6ED
330
1F
100
AcDbEntity
  8
LC-001-100-D00-0
 62
     7
370
    25
100
AcDbBlockReference
  2
KLON39
 10
0.0
 20
0.0
 30
0.0
  0
LINE
  5
6EE
330
1F
100
AcDbEntity
  8
LC-001-100-D00-0
 62
     7
370
    50
100
AcDbLine
 10
-640.34508
 20
270.624257
 30
0.0
 11
-638.54508
 21
272.424257
 31
0.0
  0
LINE
  5
6EF
330
1F
100
AcDbEntity
  8
LC-001-100-D00-0
 62
     7
370
    50
100
AcDbLine
 10
-48.49508
 20
278.757631
 30
0.0
 11
-42.64508
 21
284.607631
 31
0.0
  0
INSERT
  5
6F5
330
1F
100
AcDbEntity
  8
LC-001-100-D00-0
 62
     7
370
    50
100
AcDbBlockReference
  2
KLON40
 10
0.0
 20
0.0
 30
0.0
  0
LINE
  5
6F6
330
1F
100
AcDbEntity
  8
LC-001-100-D00-0
 62
     7
370
    50
100
AcDbLine
 10
-35.284245
 20
269.517825
 30
0.0
 11
-33.539106
 21
271.262965
 31
0.0
  0
LINE
  5
6F7
330
1F
100
AcDbEntity
  8
LC-001-100-D00-0
  6
DASHDOT
 62
     7
370
    25
100
AcDbLine
 10
-57.745283
 20
230.07866
 30
0.0
 11
-160.770299
 21
230.07866
 31
0.0
  0
LINE
  5
6F8
330
1F
100
AcDbEntity
  8
LC-001-100-D00-0
  6
DASHDOT
 62
     7
370
    25
100
AcDbLine
 10
-273.74508
 20
332.57866
 30
0.0
 11
-273.74508
 21
195.07866
 31
0.0
  0
LINE
  5
6F9
330
1F
100
AcDbEntity
  8
LC-001-100-D00-0
  6
DASHDOT
 62
     7
370
    25
100
AcDbLine
 10
-373.74508
 20
259.57866
 30
0.0
 11
-373.74508
 21
293.57866
 31
0.0
  0
LINE
  5
6FA
330
1F
100
AcDbEntity
  8
LC-001-100-D00-0
  6
DASHDOT
 62
     7
370
    25
100
AcDbLine
 10
-173.74508
 20
259.57866
 30
0.0
 11
-173.74508
 21
293.57866
 31
0.0
  0
LINE
  5
6FB
330
1F
100
AcDbEntity
  8
LC-001-100-D00-0
  6
DASHDOT
 62
     7
370
    25
100
AcDbLine
 10
-38.74508
 20
259.57866
 30
0.0
 11
-38.74508
 21
293.57866
 31
0.0
  0
LINE
  5
6FC
330
1F
100
AcDbEntity
  8
LC-001-100-D00-0
  6
DASHDOT
 62
     7
370
    25
100
AcDbLine
 10
96.25492
 20
259.57866
 30
0.0
 11
96.25492
 21
293.57866
 31
0.0
  0
LINE
  5
6FD
330
1F
100
AcDbEntity
  8
LC-001-100-D00-0
  6
DASHDOT
 62
     7
370
    25
100
AcDbLine
 10
-508.74508
 20
259.57866
 30
0.0
 11
-508.74508
 21
293.57866
 31
0.0
  0
LINE
  5
6FE
330
1F
100
AcDbEntity
  8
LC-001-100-D00-0
  6
DASHDOT
 62
     7
370
    25
100
AcDbLine
 10
-643.74508
 20
259.57866
 30
0.0
 11
-643.74508
 21
293.57866
 31
0.0
  0
ENDSEC
  0
SECTION
  2
OBJECTS
  0
DICTIONARY
  5
C
330
0
100
AcDbDictionary
281
     1
  3
ACAD_GROUP
350
D
  3
ACAD_LAYOUT
350
1A
  3
ACAD_MLINESTYLE
350
17
  3
ACAD_PLOTSETTINGS
350
19
  3
ACAD_PLOTSTYLENAME
350
E
  0
DICTIONARY
  5
D
102
{ACAD_REACTORS
330
C
102
}
330
C
100
AcDbDictionary
281
     1
  0
DICTIONARY
  5
1A
102
{ACAD_REACTORS
330
C
102
}
330
C
100
AcDbDictionary
281
     1
  3
Layout1
350
1E
  3
Layout2
350
26
  3
Model
350
22
  0
DICTIONARY
  5
17
102
{ACAD_REACTORS
330
C
102
}
330
C
100
AcDbDictionary
281
     1
  3
Standard
350
18
  0
DICTIONARY
  5
19
102
{ACAD_REACTORS
330
C
102
}
330
C
100
AcDbDictionary
281
     1
  0
ACDBDICTIONARYWDFLT
  5
E
102
{ACAD_REACTORS
330
C
102
}
330
C
100
AcDbDictionary
281
     1
  3
Normal
350
F
100
AcDbDictionaryWithDefault
340
F
  0
LAYOUT
  5
1E
102
{ACAD_REACTORS
330
1A
102
}
330
1A
100
AcDbPlotSettings
  1

  2

  4

  6

 40
0.0
 41
0.0
 42
0.0
 43
0.0
 44
0.0
 45
0.0
 46
0.0
 47
0.0
 48
0.0
 49
0.0
140
0.0
141
0.0
142
1.0
143
1.0
 70
   688
 72
     0
 73
     0
 74
     5
  7

 75
    16
147
1.0
148
0.0
149
0.0
100
AcDbLayout
  1
Layout1
 70
     1
 71
     1
 10
-860.676523
 20
-615.076131
 11
1239.323477
 21
869.923869
 12
0.0
 22
0.0
 32
0.0
 14
-860.676523
 24
-615.076131
 34
0.0
 15
1239.323477
 25
869.923869
 35
0.0
146
0.0
 13
0.0
 23
0.0
 33
0.0
 16
1.0
 26
0.0
 36
0.0
 17
0.0
 27
1.0
 37
0.0
 76
     0
330
1B
  0
LAYOUT
  5
26
102
{ACAD_REACTORS
330
1A
102
}
330
1A
100
AcDbPlotSettings
  1

  2

  4

  6

 40
0.0
 41
0.0
 42
0.0
 43
0.0
 44
0.0
 45
0.0
 46
0.0
 47
0.0
 48
0.0
 49
0.0
140
0.0
141
0.0
142
1.0
143
1.0
 70
   688
 72
     0
 73
     0
 74
     5
  7

 75
    16
147
1.0
148
0.0
149
0.0
100
AcDbLayout
  1
Layout2
 70
     1
 71
     2
 10
0.0
 20
0.0
 11
0.0
 21
0.0
 12
0.0
 22
0.0
 32
0.0
 14
0.0
 24
0.0
 34
0.0
 15
0.0
 25
0.0
 35
0.0
146
0.0
 13
0.0
 23
0.0
 33
0.0
 16
1.0
 26
0.0
 36
0.0
 17
0.0
 27
1.0
 37
0.0
 76
     0
330
23
  0
LAYOUT
  5
22
102
{ACAD_REACTORS
330
1A
102
}
330
1A
100
AcDbPlotSettings
  1

  2

  4

  6

 40
0.0
 41
0.0
 42
0.0
 43
0.0
 44
0.0
 45
0.0
 46
0.0
 47
0.0
 48
0.0
 49
0.0
140
0.0
141
0.0
142
1.0
143
1.0
 70
  1776
 72
     0
 73
     0
 74
     0
  7

 75
     0
147
1.0
148
0.0
149
0.0
100
AcDbLayout
  1
Model
 70
     1
 71
     0
 10
-860.676523
 20
-615.076131
 11
1239.323477
 21
869.923869
 12
0.0
 22
0.0
 32
0.0
 14
-860.676523
 24
-615.076131
 34
0.0
 15
1239.323477
 25
869.923869
 35
0.0
146
0.0
 13
0.0
 23
0.0
 33
0.0
 16
1.0
 26
0.0
 36
0.0
 17
0.0
 27
1.0
 37
0.0
 76
     0
330
1F
  0
MLINESTYLE
  5
18
102
{ACAD_REACTORS
330
17
102
}
330
17
100
AcDbMlineStyle
  2
Standard
 70
     0
  3

 62
   256
 51
90.0
 52
90.0
 71
     2
 49
0.5
 62
   256
  6
BYLAYER
 49
-0.5
 62
   256
  6
BYLAYER
  0
ACDBPLACEHOLDER
  5
F
102
{ACAD_REACTORS
330
E
102
}
330
E
  0
ENDSEC
  0
EOF
