  0
SECTION
  2
HEADER
  9
$ACADVER
  1
AC1015
  9
$ACADMAINTVER
 70
     6
  9
$DWGCODEPAGE
  3
ANSI_1252
  9
$INSBASE
 10
0.0
 20
0.0
 30
0.0
  9
$EXTMIN
 10
-273.215976
 20
-178.033028
 30
0.0
  9
$EXTMAX
 10
566.784024
 20
415.966972
 30
0.0
  9
$LIMMIN
 10
-273.215976
 20
-178.033028
  9
$LIMMAX
 10
566.784024
 20
415.966972
  9
$ORTHOMODE
 70
     0
  9
$REGENMODE
 70
     1
  9
$FILLMODE
 70
     1
  9
$QTEXTMODE
 70
     0
  9
$MIRRTEXT
 70
     1
  9
$LTSCALE
 40
2.0
  9
$ATTMODE
 70
     1
  9
$TEXTSIZE
 40
2.5
  9
$TRACEWID
 40
1.0
  9
$TEXTSTYLE
  7
Standard
  9
$CLAYER
  8
0
  9
$CELTYPE
  6
ByLayer
  9
$CECOLOR
 62
     7
  9
$CELTSCALE
 40
1.0
  9
$DISPSILH
 70
     0
  9
$DIMSCALE
 40
2.0
  9
$DIMASZ
 40
3.5
  9
$DIMEXO
 40
0.625
  9
$DIMDLI
 40
3.75
  9
$DIMRND
 40
0.0
  9
$DIMDLE
 40
0.0
  9
$DIMEXE
 40
1.25
  9
$DIMTP
 40
0.0
  9
$DIMTM
 40
0.0
  9
$DIMTXT
 40
3.5
  9
$DIMCEN
 40
2.5
  9
$DIMTSZ
 40
0.0
  9
$DIMTOL
 70
     0
  9
$DIMLIM
 70
     0
  9
$DIMTIH
 70
     0
  9
$DIMTOH
 70
     0
  9
$DIMSE1
 70
     0
  9
$DIMSE2
 70
     0
  9
$DIMTAD
 70
     1
  9
$DIMZIN
 70
     8
  9
$DIMBLK
  1

  9
$DIMASO
 70
     1
  9
$DIMSHO
 70
     1
  9
$DIMPOST
  1

  9
$DIMAPOST
  1

  9
$DIMALT
 70
     0
  9
$DIMALTD
 70
     3
  9
$DIMALTF
 40
0.03937
  9
$DIMLFAC
 40
1.0
  9
$DIMTOFL
 70
     1
  9
$DIMTVP
 40
0.0
  9
$DIMTIX
 70
     0
  9
$DIMSOXD
 70
     0
  9
$DIMSAH
 70
     0
  9
$DIMBLK1
  1

  9
$DIMBLK2
  1

  9
$DIMSTYLE
  2
ISO-25
  9
$DIMCLRD
 70
     0
  9
$DIMCLRE
 70
     0
  9
$DIMCLRT
 70
     0
  9
$DIMTFAC
 40
1.0
  9
$DIMGAP
 40
0.625
  9
$DIMJUST
 70
     0
  9
$DIMSD1
 70
     0
  9
$DIMSD2
 70
     0
  9
$DIMTOLJ
 70
     0
  9
$DIMTZIN
 70
     8
  9
$DIMALTZ
 70
     0
  9
$DIMALTTZ
 70
     0
  9
$DIMUPT
 70
     0
  9
$DIMDEC
 70
     2
  9
$DIMTDEC
 70
     2
  9
$DIMALTU
 70
     2
  9
$DIMALTTD
 70
     3
  9
$DIMTXSTY
  7
Standard
  9
$DIMAUNIT
 70
     0
  9
$DIMADEC
 70
     0
  9
$DIMALTRND
 40
0.0
  9
$DIMAZIN
 70
     0
  9
$DIMDSEP
 70
    44
  9
$DIMATFIT
 70
     3
  9
$DIMFRAC
 70
     0
  9
$DIMLDRBLK
  1

  9
$DIMLUNIT
 70
     2
  9
$DIMLWD
 70
    -2
  9
$DIMLWE
 70
    -2
  9
$DIMTMOVE
 70
     0
  9
$LUNITS
 70
     2
  9
$LUPREC
 70
     4
  9
$SKETCHINC
 40
1.0
  9
$FILLETRAD
 40
10.0
  9
$AUNITS
 70
     0
  9
$AUPREC
 70
     0
  9
$MENU
  1
.
  9
$ELEVATION
 40
0.0
  9
$PELEVATION
 40
0.0
  9
$THICKNESS
 40
0.0
  9
$LIMCHECK
 70
     0
  9
$CHAMFERA
 40
10.0
  9
$CHAMFERB
 40
10.0
  9
$CHAMFERC
 40
20.0
  9
$CHAMFERD
 40
0.0
  9
$SKPOLY
 70
     0
  9
$TDCREATE
 40
2455897.309822708
  9
$TDUCREATE
 40
2455897.268156042
  9
$TDUPDATE
 40
2455897.30982272
  9
$TDUUPDATE
 40
2455897.268156053
  9
$TDINDWG
 40
0.0000000116
  9
$TDUSRTIMER
 40
0.0000000116
  9
$USRTIMER
 70
     1
  9
$ANGBASE
 50
0.0
  9
$ANGDIR
 70
     0
  9
$PDMODE
 70
     0
  9
$PDSIZE
 40
0.0
  9
$PLINEWID
 40
0.0
  9
$SPLFRAME
 70
     0
  9
$SPLINETYPE
 70
     6
  9
$SPLINESEGS
 70
     8
  9
$HANDSEED
  5
755
  9
$SURFTAB1
 70
     6
  9
$SURFTAB2
 70
     6
  9
$SURFTYPE
 70
     6
  9
$SURFU
 70
     6
  9
$SURFV
 70
     6
  9
$UCSBASE
  2

  9
$UCSNAME
  2

  9
$UCSORG
 10
0.0
 20
0.0
 30
0.0
  9
$UCSXDIR
 10
1.0
 20
0.0
 30
0.0
  9
$UCSYDIR
 10
0.0
 20
1.0
 30
0.0
  9
$UCSORTHOREF
  2

  9
$UCSORTHOVIEW
 70
     0
  9
$UCSORGTOP
 10
0.0
 20
0.0
 30
0.0
  9
$UCSORGBOTTOM
 10
0.0
 20
0.0
 30
0.0
  9
$UCSORGLEFT
 10
0.0
 20
0.0
 30
0.0
  9
$UCSORGRIGHT
 10
0.0
 20
0.0
 30
0.0
  9
$UCSORGFRONT
 10
0.0
 20
0.0
 30
0.0
  9
$UCSORGBACK
 10
0.0
 20
0.0
 30
0.0
  9
$PUCSBASE
  2

  9
$PUCSNAME
  2

  9
$PUCSORG
 10
0.0
 20
0.0
 30
0.0
  9
$PUCSXDIR
 10
1.0
 20
0.0
 30
0.0
  9
$PUCSYDIR
 10
0.0
 20
1.0
 30
0.0
  9
$PUCSORTHOREF
  2

  9
$PUCSORTHOVIEW
 70
     0
  9
$PUCSORGTOP
 10
0.0
 20
0.0
 30
0.0
  9
$PUCSORGBOTTOM
 10
0.0
 20
0.0
 30
0.0
  9
$PUCSORGLEFT
 10
0.0
 20
0.0
 30
0.0
  9
$PUCSORGRIGHT
 10
0.0
 20
0.0
 30
0.0
  9
$PUCSORGFRONT
 10
0.0
 20
0.0
 30
0.0
  9
$PUCSORGBACK
 10
0.0
 20
0.0
 30
0.0
  9
$USERI1
 70
     0
  9
$USERI2
 70
     0
  9
$USERI3
 70
     0
  9
$USERI4
 70
     0
  9
$USERI5
 70
     0
  9
$USERR1
 40
0.0
  9
$USERR2
 40
0.0
  9
$USERR3
 40
0.0
  9
$USERR4
 40
0.0
  9
$USERR5
 40
0.0
  9
$WORLDVIEW
 70
     1
  9
$SHADEDGE
 70
     3
  9
$SHADEDIF
 70
    70
  9
$TILEMODE
 70
     1
  9
$MAXACTVP
 70
    64
  9
$PINSBASE
 10
0.0
 20
0.0
 30
0.0
  9
$PLIMCHECK
 70
     0
  9
$PEXTMIN
 10
-273.215976
 20
-178.033028
 30
0.0
  9
$PEXTMAX
 10
566.784024
 20
415.966972
 30
0.0
  9
$PLIMMIN
 10
-273.215976
 20
-178.033028
  9
$PLIMMAX
 10
566.784024
 20
415.966972
  9
$UNITMODE
 70
     0
  9
$VISRETAIN
 70
     1
  9
$PLINEGEN
 70
     0
  9
$PSLTSCALE
 70
     1
  9
$TREEDEPTH
 70
  3020
  9
$CMLSTYLE
  2
Standard
  9
$CMLJUST
 70
     0
  9
$CMLSCALE
 40
20.0
  9
$PROXYGRAPHICS
 70
     1
  9
$MEASUREMENT
 70
     1
  9
$CELWEIGHT
370
    -1
  9
$ENDCAPS
280
     0
  9
$JOINSTYLE
280
     0
  9
$LWDISPLAY
290
     0
  9
$INSUNITS
 70
     4
  9
$HYPERLINKBASE
  1

  9
$STYLESHEET
  1

  9
$XEDIT
290
     1
  9
$CEPSNTYPE
380
     0
  9
$PSTYLEMODE
290
     1
  9
$FINGERPRINTGUID
  2
{FAEB1C30-E019-11D5-929B-00C0DF256EC4}
  9
$VERSIONGUID
  2
{FAEB1C32-E019-11D5-929B-00C0DF256EC4}
  9
$EXTNAMES
290
     1
  9
$PSVPSCALE
 40
0.0
  9
$OLESTARTUP
290
     0
  0
ENDSEC
  0
SECTION
  2
CLASSES
  0
CLASS
  1
ACDBDICTIONARYWDFLT
  2
AcDbDictionaryWithDefault
  3
ObjectDBX Classes
 90
        0
280
     0
281
     0
  0
CLASS
  1
ACDBPLACEHOLDER
  2
AcDbPlaceHolder
  3
ObjectDBX Classes
 90
        0
280
     0
281
     0
  0
CLASS
  1
LAYOUT
  2
AcDbLayout
  3
ObjectDBX Classes
 90
        0
280
     0
281
     0
  0
ENDSEC
  0
SECTION
  2
TABLES
  0
TABLE
  2
VPORT
  5
8
330
0
100
AcDbSymbolTable
 70
     2
  0
VPORT
  5
29
330
8
100
AcDbSymbolTableRecord
100
AcDbViewportTableRecord
  2
*ACTIVE
 70
     0
 10
0.0
 20
0.0
 11
1.0
 21
1.0
 12
146.784024
 22
118.966972
 13
0.0
 23
0.0
 14
1.0
 24
1.0
 15
0.0
 25
0.0
 16
0.0
 26
0.0
 36
1.0
 17
0.0
 27
0.0
 37
0.0
 40
594.0
 41
1.414141
 42
50.0
 43
0.0
 44
0.0
 50
0.0
 51
0.0
 71
    16
 72
   100
 73
     1
 74
     0
 75
     0
 76
     0
 77
     0
 78
     0
281
     0
 65
     0
110
0.0
120
0.0
130
0.0
111
1.0
121
0.0
131
0.0
112
0.0
122
1.0
132
0.0
 79
     0
146
0.0
  0
ENDTAB
  0
TABLE
  2
LTYPE
  5
5
330
0
100
AcDbSymbolTable
 70
     3
  0
LTYPE
  5
14
330
5
100
AcDbSymbolTableRecord
100
AcDbLinetypeTableRecord
  2
ByBlock
 70
     0
  3

 72
    65
 73
     0
 40
0.0
  0
LTYPE
  5
15
330
5
100
AcDbSymbolTableRecord
100
AcDbLinetypeTableRecord
  2
ByLayer
 70
     0
  3

 72
    65
 73
     0
 40
0.0
  0
LTYPE
  5
16
330
5
100
AcDbSymbolTableRecord
100
AcDbLinetypeTableRecord
  2
Continuous
 70
     0
  3
Solid line
 72
    65
 73
     0
 40
0.0
  0
LTYPE
  5
2A
330
5
100
AcDbSymbolTableRecord
100
AcDbLinetypeTableRecord
  2
DASHED
 70
     0
  3
__ __ __ __ __
 72
    65
 73
     2
 40
6.25
 49
5.0
 74
     4
 75
     0
340
0
 46
1.0
 50
0.0
 44
0.0
 45
0.0
 49
-1.25
 74
     4
 75
     0
340
0
 46
1.0
 50
0.0
 44
0.0
 45
0.0
  0
LTYPE
  5
62E
330
5
100
AcDbSymbolTableRecord
100
AcDbLinetypeTableRecord
  2
DASHDOT
 70
     0
  3
__ . __ . __ . __ . __
 72
    65
 73
     4
 40
7.5
 49
5.0
 74
     4
 75
     0
340
0
 46
1.0
 50
0.0
 44
0.0
 45
0.0
 49
-1.25
 74
     4
 75
     0
340
0
 46
1.0
 50
0.0
 44
0.0
 45
0.0
 49
0.0
 74
     4
 75
     0
340
0
 46
1.0
 50
0.0
 44
0.0
 45
0.0
 49
-1.25
 74
     4
 75
     0
340
0
 46
1.0
 50
0.0
 44
0.0
 45
0.0
  0
ENDTAB
  0
TABLE
  2
LAYER
  5
2
330
0
100
AcDbSymbolTable
 70
    11
  0
LAYER
  5
10
330
2
100
AcDbSymbolTableRecord
100
AcDbLayerTableRecord
  2
0
 70
     0
 62
     7
  6
Continuous
370
    -3
390
F
  0
LAYER
  5
2B
330
2
100
AcDbSymbolTableRecord
100
AcDbLayerTableRecord
  2
LC-INFO-1-2-mm-A3-0
 70
     1
 62
     7
  6
ByBlock
370
    -3
390
F
  0
LAYER
  5
2C
330
2
100
AcDbSymbolTableRecord
100
AcDbLayerTableRecord
  2
LC-CUT-HIDDEN
 70
     0
 62
     7
  6
DASHED
370
    -3
390
F
  0
LAYER
  5
2D
330
2
100
AcDbSymbolTableRecord
100
AcDbLayerTableRecord
  2
LC-VIEWPORT
 70
     0
 62
     7
  6
ByBlock
370
    -3
390
F
  0
LAYER
  5
2E
330
2
100
AcDbSymbolTableRecord
100
AcDbLayerTableRecord
  2
LC-3D-HIDDEN
 70
     0
 62
     9
  6
DASHED
370
    -3
390
F
  0
LAYER
  5
30
330
2
100
AcDbSymbolTableRecord
100
AcDbLayerTableRecord
  2
LC-001-100-D00-0
 70
     0
 62
     1
  6
ByBlock
370
    -3
390
F
  0
LAYER
  5
354
330
2
100
AcDbSymbolTableRecord
100
AcDbLayerTableRecord
  2
LC-002-002-----0
 70
     0
 62
     2
  6
ByBlock
370
    -3
390
F
  0
LAYER
  5
633
330
2
100
AcDbSymbolTableRecord
100
AcDbLayerTableRecord
  2
LC-003-003-----0
 70
     0
 62
     2
  6
ByBlock
370
    -3
390
F
  0
LAYER
  5
635
330
2
100
AcDbSymbolTableRecord
100
AcDbLayerTableRecord
  2
Defpoints
 70
     0
 62
     7
  6
Continuous
290
     0
370
    -3
390
F
  0
LAYER
  5
6AA
330
2
100
AcDbSymbolTableRecord
100
AcDbLayerTableRecord
  2
LC-004-003-MTG-0
 70
     0
 62
     2
  6
ByBlock
370
    -3
390
F
  0
LAYER
  5
6AE
330
2
100
AcDbSymbolTableRecord
100
AcDbLayerTableRecord
  2
LC-005-003-MTH-0
 70
     0
 62
     2
  6
ByBlock
370
    -3
390
F
  0
ENDTAB
  0
TABLE
  2
STYLE
  5
3
330
0
100
AcDbSymbolTable
 70
     3
  0
STYLE
  5
11
330
3
100
AcDbSymbolTableRecord
100
AcDbTextStyleTableRecord
  2
Standard
 70
     0
 40
0.0
 41
1.0
 50
0.0
 71
     0
 42
2.5
  3
txt
  4

  0
STYLE
  5
2F
330
3
100
AcDbSymbolTableRecord
100
AcDbTextStyleTableRecord
  2
LCTX15-400-0-0-Arial
 70
     0
 40
0.0
 41
0.8
 50
0.0
 71
     0
 42
3.5
  3
ARIAL.TTF
  4

1001
ACAD
1000
Arial
1071
 16777218
  0
STYLE
  5
631
330
3
100
AcDbSymbolTableRecord
100
AcDbTextStyleTableRecord
  2
LCTX15-400-0-0pDIN-Schrift
 70
     0
 40
2.5
 41
0.8
 50
15.0
 71
     0
 42
3.5
  3
STANDARD
  4

  0
ENDTAB
  0
TABLE
  2
VIEW
  5
6
330
0
100
AcDbSymbolTable
 70
     0
  0
ENDTAB
  0
TABLE
  2
UCS
  5
7
330
0
100
AcDbSymbolTable
 70
     0
  0
ENDTAB
  0
TABLE
  2
APPID
  5
9
330
0
100
AcDbSymbolTable
 70
     1
  0
APPID
  5
12
330
9
100
AcDbSymbolTableRecord
100
AcDbRegAppTableRecord
  2
ACAD
 70
     0
  0
ENDTAB
  0
TABLE
  2
DIMSTYLE
  5
A
330
0
100
AcDbSymbolTable
 70
     3
100
AcDbDimStyleTable
  0
DIMSTYLE
105
27
330
A
100
AcDbSymbolTableRecord
100
AcDbDimStyleTableRecord
  2
ISO-25
 70
     0
 41
2.5
 42
0.625
 43
3.75
 44
1.25
 73
     0
 74
     0
 77
     1
 78
     8
140
2.5
141
2.5
143
0.03937
147
0.625
171
     3
172
     1
271
     2
272
     2
274
     3
278
    44
283
     0
284
     8
340
11
  0
DIMSTYLE
105
632
102
{ACAD_REACTORS
330
634
330
642
330
64F
330
65C
330
66A
330
677
330
685
330
6FC
102
}
330
A
100
AcDbSymbolTableRecord
100
AcDbDimStyleTableRecord
  2
LC-DIM-L-0140-02-02
 70
     0
 40
2.0
 41
14.0
 42
0.0
 43
7.5
 44
1.8
 73
     0
 74
     0
 77
     1
 78
     8
 79
     2
140
14.0
141
0.0
146
0.71
147
1.5
176
     2
177
     2
178
     2
179
     2
271
     2
278
    44
289
     1
340
631
  0
DIMSTYLE
105
693
330
A
100
AcDbSymbolTableRecord
100
AcDbDimStyleTableRecord
  2
LC-DIM-W-0140-02-02
 70
     0
 40
2.0
 41
14.0
 42
0.0
 43
7.5
 44
1.8
 73
     0
 74
     0
 77
     1
 78
     8
 79
     2
140
14.0
141
0.0
146
0.71
147
1.5
176
     2
177
     2
178
     2
179
     2
271
     2
278
    44
289
     1
340
631
  0
ENDTAB
  0
TABLE
  2
BLOCK_RECORD
  5
1
330
0
100
AcDbSymbolTable
 70
    58
  0
BLOCK_RECORD
  5
1F
330
1
100
AcDbSymbolTableRecord
100
AcDbBlockTableRecord
  2
*Model_Space
340
22
  0
BLOCK_RECORD
  5
1B
330
1
100
AcDbSymbolTableRecord
100
AcDbBlockTableRecord
  2
*Paper_Space
340
1E
  0
BLOCK_RECORD
  5
23
330
1
100
AcDbSymbolTableRecord
100
AcDbBlockTableRecord
  2
*Paper_Space0
340
26
  0
BLOCK_RECORD
  5
1ED
330
1
100
AcDbSymbolTableRecord
100
AcDbBlockTableRecord
  2
POLY1
340
0
102
{BLKREFS
331
1FC
102
}
  0
BLOCK_RECORD
  5
1FE
330
1
100
AcDbSymbolTableRecord
100
AcDbBlockTableRecord
  2
POLY2
340
0
102
{BLKREFS
331
20D
102
}
  0
BLOCK_RECORD
  5
210
330
1
100
AcDbSymbolTableRecord
100
AcDbBlockTableRecord
  2
POLY3
340
0
102
{BLKREFS
331
21F
102
}
  0
BLOCK_RECORD
  5
223
330
1
100
AcDbSymbolTableRecord
100
AcDbBlockTableRecord
  2
POLY4
340
0
102
{BLKREFS
331
232
102
}
  0
BLOCK_RECORD
  5
234
330
1
100
AcDbSymbolTableRecord
100
AcDbBlockTableRecord
  2
POLY5
340
0
102
{BLKREFS
331
243
102
}
  0
BLOCK_RECORD
  5
246
330
1
100
AcDbSymbolTableRecord
100
AcDbBlockTableRecord
  2
POLY6
340
0
102
{BLKREFS
331
255
102
}
  0
BLOCK_RECORD
  5
259
330
1
100
AcDbSymbolTableRecord
100
AcDbBlockTableRecord
  2
POLY7
340
0
102
{BLKREFS
331
268
102
}
  0
BLOCK_RECORD
  5
26A
330
1
100
AcDbSymbolTableRecord
100
AcDbBlockTableRecord
  2
POLY8
340
0
102
{BLKREFS
331
279
102
}
  0
BLOCK_RECORD
  5
27C
330
1
100
AcDbSymbolTableRecord
100
AcDbBlockTableRecord
  2
POLY9
340
0
102
{BLKREFS
331
28B
102
}
  0
BLOCK_RECORD
  5
28E
330
1
100
AcDbSymbolTableRecord
100
AcDbBlockTableRecord
  2
POLY10
340
0
102
{BLKREFS
331
29D
102
}
  0
BLOCK_RECORD
  5
2A0
330
1
100
AcDbSymbolTableRecord
100
AcDbBlockTableRecord
  2
POLY11
340
0
102
{BLKREFS
331
2AF
102
}
  0
BLOCK_RECORD
  5
2B2
330
1
100
AcDbSymbolTableRecord
100
AcDbBlockTableRecord
  2
POLY12
340
0
102
{BLKREFS
331
2C1
102
}
  0
BLOCK_RECORD
  5
2D4
330
1
100
AcDbSymbolTableRecord
100
AcDbBlockTableRecord
  2
POLY13
340
0
102
{BLKREFS
331
2DF
102
}
  0
BLOCK_RECORD
  5
2E1
330
1
100
AcDbSymbolTableRecord
100
AcDbBlockTableRecord
  2
POLY14
340
0
102
{BLKREFS
331
2EC
102
}
  0
BLOCK_RECORD
  5
2EF
330
1
100
AcDbSymbolTableRecord
100
AcDbBlockTableRecord
  2
POLY15
340
0
102
{BLKREFS
331
2FA
102
}
  0
BLOCK_RECORD
  5
2FB
330
1
100
AcDbSymbolTableRecord
100
AcDbBlockTableRecord
  2
POLY16
340
0
102
{BLKREFS
331
306
102
}
  0
BLOCK_RECORD
  5
30E
330
1
100
AcDbSymbolTableRecord
100
AcDbBlockTableRecord
  2
POLY17
340
0
102
{BLKREFS
331
319
102
}
  0
BLOCK_RECORD
  5
31A
330
1
100
AcDbSymbolTableRecord
100
AcDbBlockTableRecord
  2
POLY18
340
0
102
{BLKREFS
331
325
102
}
  0
BLOCK_RECORD
  5
326
330
1
100
AcDbSymbolTableRecord
100
AcDbBlockTableRecord
  2
POLY19
340
0
102
{BLKREFS
331
333
102
}
  0
BLOCK_RECORD
  5
334
330
1
100
AcDbSymbolTableRecord
100
AcDbBlockTableRecord
  2
POLY20
340
0
102
{BLKREFS
331
341
102
}
  0
BLOCK_RECORD
  5
45D
330
1
100
AcDbSymbolTableRecord
100
AcDbBlockTableRecord
  2
POLY21
340
0
102
{BLKREFS
331
468
102
}
  0
BLOCK_RECORD
  5
469
330
1
100
AcDbSymbolTableRecord
100
AcDbBlockTableRecord
  2
POLY22
340
0
102
{BLKREFS
331
474
102
}
  0
BLOCK_RECORD
  5
475
330
1
100
AcDbSymbolTableRecord
100
AcDbBlockTableRecord
  2
POLY23
340
0
102
{BLKREFS
331
480
102
}
  0
BLOCK_RECORD
  5
481
330
1
100
AcDbSymbolTableRecord
100
AcDbBlockTableRecord
  2
POLY24
340
0
102
{BLKREFS
331
48C
102
}
  0
BLOCK_RECORD
  5
49E
330
1
100
AcDbSymbolTableRecord
100
AcDbBlockTableRecord
  2
POLY25
340
0
102
{BLKREFS
331
4C3
102
}
  0
BLOCK_RECORD
  5
4C4
330
1
100
AcDbSymbolTableRecord
100
AcDbBlockTableRecord
  2
POLY26
340
0
102
{BLKREFS
331
4E7
102
}
  0
BLOCK_RECORD
  5
4EC
330
1
100
AcDbSymbolTableRecord
100
AcDbBlockTableRecord
  2
POLY27
340
0
102
{BLKREFS
331
4F7
102
}
  0
BLOCK_RECORD
  5
53A
330
1
100
AcDbSymbolTableRecord
100
AcDbBlockTableRecord
  2
KLON1
340
0
102
{BLKREFS
331
542
102
}
  0
BLOCK_RECORD
  5
543
330
1
100
AcDbSymbolTableRecord
100
AcDbBlockTableRecord
  2
KLON2
340
0
102
{BLKREFS
331
563
102
}
  0
BLOCK_RECORD
  5
564
330
1
100
AcDbSymbolTableRecord
100
AcDbBlockTableRecord
  2
KLON3
340
0
102
{BLKREFS
331
57D
102
}
  0
BLOCK_RECORD
  5
57F
330
1
100
AcDbSymbolTableRecord
100
AcDbBlockTableRecord
  2
KLON4
340
0
102
{BLKREFS
331
584
102
}
  0
BLOCK_RECORD
  5
585
330
1
100
AcDbSymbolTableRecord
100
AcDbBlockTableRecord
  2
KLON5
340
0
102
{BLKREFS
331
59C
102
}
  0
BLOCK_RECORD
  5
59D
330
1
100
AcDbSymbolTableRecord
100
AcDbBlockTableRecord
  2
KLON6
340
0
102
{BLKREFS
331
5A3
102
}
  0
BLOCK_RECORD
  5
5A4
330
1
100
AcDbSymbolTableRecord
100
AcDbBlockTableRecord
  2
KLON7
340
0
102
{BLKREFS
331
5AA
102
}
  0
BLOCK_RECORD
  5
5AB
330
1
100
AcDbSymbolTableRecord
100
AcDbBlockTableRecord
  2
KLON8
340
0
102
{BLKREFS
331
5B4
102
}
  0
BLOCK_RECORD
  5
5B5
330
1
100
AcDbSymbolTableRecord
100
AcDbBlockTableRecord
  2
KLON9
340
0
102
{BLKREFS
331
5BD
102
}
  0
BLOCK_RECORD
  5
5BE
330
1
100
AcDbSymbolTableRecord
100
AcDbBlockTableRecord
  2
KLON10
340
0
102
{BLKREFS
331
5C9
102
}
  0
BLOCK_RECORD
  5
5CA
330
1
100
AcDbSymbolTableRecord
100
AcDbBlockTableRecord
  2
KLON11
340
0
102
{BLKREFS
331
5D6
102
}
  0
BLOCK_RECORD
  5
5D7
330
1
100
AcDbSymbolTableRecord
100
AcDbBlockTableRecord
  2
KLON12
340
0
102
{BLKREFS
331
5E2
102
}
  0
BLOCK_RECORD
  5
5E3
330
1
100
AcDbSymbolTableRecord
100
AcDbBlockTableRecord
  2
KLON13
340
0
102
{BLKREFS
331
5EE
102
}
  0
BLOCK_RECORD
  5
5EF
330
1
100
AcDbSymbolTableRecord
100
AcDbBlockTableRecord
  2
KLON14
340
0
102
{BLKREFS
331
607
102
}
  0
BLOCK_RECORD
  5
609
330
1
100
AcDbSymbolTableRecord
100
AcDbBlockTableRecord
  2
KLON15
340
0
102
{BLKREFS
331
62D
102
}
  0
BLOCK_RECORD
  5
636
330
1
100
AcDbSymbolTableRecord
100
AcDbBlockTableRecord
  2
*D43
340
0
  0
BLOCK_RECORD
  5
643
330
1
100
AcDbSymbolTableRecord
100
AcDbBlockTableRecord
  2
*D44
340
0
  0
BLOCK_RECORD
  5
650
330
1
100
AcDbSymbolTableRecord
100
AcDbBlockTableRecord
  2
*D45
340
0
  0
BLOCK_RECORD
  5
65D
330
1
100
AcDbSymbolTableRecord
100
AcDbBlockTableRecord
  2
*D46
340
0
  0
BLOCK_RECORD
  5
66B
330
1
100
AcDbSymbolTableRecord
100
AcDbBlockTableRecord
  2
*D47
340
0
  0
BLOCK_RECORD
  5
678
330
1
100
AcDbSymbolTableRecord
100
AcDbBlockTableRecord
  2
*D48
340
0
  0
BLOCK_RECORD
  5
686
330
1
100
AcDbSymbolTableRecord
100
AcDbBlockTableRecord
  2
*D49
340
0
  0
BLOCK_RECORD
  5
694
330
1
100
AcDbSymbolTableRecord
100
AcDbBlockTableRecord
  2
LCDIM1
340
0
102
{BLKREFS
331
6B1
102
}
  0
BLOCK_RECORD
  5
6BE
330
1
100
AcDbSymbolTableRecord
100
AcDbBlockTableRecord
  2
POLY28
340
0
102
{BLKREFS
331
6D1
102
}
  0
BLOCK_RECORD
  5
6D4
330
1
100
AcDbSymbolTableRecord
100
AcDbBlockTableRecord
  2
POLY29
340
0
102
{BLKREFS
331
6DF
102
}
  0
BLOCK_RECORD
  5
6E2
330
1
100
AcDbSymbolTableRecord
100
AcDbBlockTableRecord
  2
POLY30
340
0
102
{BLKREFS
331
6F5
102
}
  0
BLOCK_RECORD
  5
6FD
330
1
100
AcDbSymbolTableRecord
100
AcDbBlockTableRecord
  2
*D54
340
0
  0
BLOCK_RECORD
  5
717
330
1
100
AcDbSymbolTableRecord
100
AcDbBlockTableRecord
  2
POLY31
340
0
102
{BLKREFS
331
72A
102
}
  0
BLOCK_RECORD
  5
72D
330
1
100
AcDbSymbolTableRecord
100
AcDbBlockTableRecord
  2
POLY32
340
0
102
{BLKREFS
331
738
102
}
  0
BLOCK_RECORD
  5
73B
330
1
100
AcDbSymbolTableRecord
100
AcDbBlockTableRecord
  2
POLY33
340
0
102
{BLKREFS
331
74E
102
}
  0
ENDTAB
  0
ENDSEC
  0
SECTION
  2
BLOCKS
  0
BLOCK
  5
20
330
1F
100
AcDbEntity
  8
0
100
AcDbBlockBegin
  2
*Model_Space
 70
     0
 71
     0
 10
0.0
 20
0.0
 30
0.0
  3
*Model_Space
  1

  0
ENDBLK
  5
21
330
1F
100
AcDbEntity
  8
0
100
AcDbBlockEnd
  0
BLOCK
  5
1C
330
1B
100
AcDbEntity
 67
     1
  8
0
100
AcDbBlockBegin
  2
*Paper_Space
 70
     0
 71
     0
 10
0.0
 20
0.0
 30
0.0
  3
*Paper_Space
  1

  0
ENDBLK
  5
1D
330
1B
100
AcDbEntity
 67
     1
  8
0
100
AcDbBlockEnd
  0
BLOCK
  5
24
330
23
100
AcDbEntity
  8
0
100
AcDbBlockBegin
  2
*Paper_Space0
 70
     0
 71
     0
 10
0.0
 20
0.0
 30
0.0
  3
*Paper_Space0
  1

  0
ENDBLK
  5
25
330
23
100
AcDbEntity
  8
0
100
AcDbBlockEnd
  0
BLOCK
  5
1EE
330
1ED
100
AcDbEntity
  8
0
100
AcDbBlockBegin
  2
POLY1
 70
     0
 71
     0
 10
0.0
 20
0.0
 30
0.0
  3
POLY1
  1

  4
POLY1
  0
LINE
  5
1F0
330
1ED
100
AcDbEntity
  8
LC-001-100-D00-0
 62
     7
370
    50
100
AcDbLine
 10
-51.953057
 20
-22.213024
 30
0.0
 11
-51.953057
 21
-22.213024
 31
0.0
  0
LINE
  5
1F1
330
1ED
100
AcDbEntity
  8
LC-001-100-D00-0
 62
     7
370
    50
100
AcDbLine
 10
-51.953057
 20
-22.213024
 30
0.0
 11
-51.71828
 21
-21.708964
 31
0.0
  0
LINE
  5
1F2
330
1ED
100
AcDbEntity
  8
LC-001-100-D00-0
 62
     7
370
    50
100
AcDbLine
 10
-51.71828
 20
-21.708964
 30
0.0
 11
-51.71828
 21
-21.708964
 31
0.0
  0
LINE
  5
1F3
330
1ED
100
AcDbEntity
  8
LC-001-100-D00-0
 62
     7
370
    50
100
AcDbLine
 10
-51.71828
 20
-21.708964
 30
0.0
 11
-51.248688
 21
-20.700763
 31
0.0
  0
LINE
  5
1F4
330
1ED
100
AcDbEntity
  8
LC-001-100-D00-0
 62
     7
370
    50
100
AcDbLine
 10
-51.248688
 20
-20.700763
 30
0.0
 11
-51.248688
 21
-20.700763
 31
0.0
  0
LINE
  5
1F5
330
1ED
100
AcDbEntity
  8
LC-001-100-D00-0
 62
     7
370
    50
100
AcDbLine
 10
-51.248688
 20
-20.700763
 30
0.0
 11
-51.232225
 21
-19.005009
 31
0.0
  0
LINE
  5
1F6
330
1ED
100
AcDbEntity
  8
LC-001-100-D00-0
 62
     7
370
    50
100
AcDbLine
 10
-51.232225
 20
-19.005009
 30
0.0
 11
-51.232225
 21
-19.005009
 31
0.0
  0
LINE
  5
1F7
330
1ED
100
AcDbEntity
  8
LC-001-100-D00-0
 62
     7
370
    50
100
AcDbLine
 10
-51.232225
 20
-19.005009
 30
0.0
 11
-51.592867
 21
-17.84787
 31
0.0
  0
LINE
  5
1F8
330
1ED
100
AcDbEntity
  8
LC-001-100-D00-0
 62
     7
370
    50
100
AcDbLine
 10
-51.592867
 20
-17.84787
 30
0.0
 11
-51.592867
 21
-17.84787
 31
0.0
  0
LINE
  5
1F9
330
1ED
100
AcDbEntity
  8
LC-001-100-D00-0
 62
     7
370
    50
100
AcDbLine
 10
-51.592867
 20
-17.84787
 30
0.0
 11
-51.908436
 21
-17.291668
 31
0.0
  0
LINE
  5
1FA
330
1ED
100
AcDbEntity
  8
LC-001-100-D00-0
 62
     7
370
    50
100
AcDbLine
 10
-51.908436
 20
-17.291668
 30
0.0
 11
-51.908436
 21
-17.291668
 31
0.0
  0
LINE
  5
1FB
330
1ED
100
AcDbEntity
  8
LC-001-100-D00-0
 62
     7
370
    50
100
AcDbLine
 10
-51.908436
 20
-17.291668
 30
0.0
 11
-51.953057
 21
-17.213022
 31
0.0
  0
ENDBLK
  5
1EF
330
1ED
100
AcDbEntity
  8
0
100
AcDbBlockEnd
  0
BLOCK
  5
1FF
330
1FE
100
AcDbEntity
  8
0
100
AcDbBlockBegin
  2
POLY2
 70
     0
 71
     0
 10
0.0
 20
0.0
 30
0.0
  3
POLY2
  1

  4
POLY2
  0
LINE
  5
201
330
1FE
100
AcDbEntity
  8
LC-001-100-D00-0
 62
     7
370
    50
100
AcDbLine
 10
-51.953057
 20
-117.213027
 30
0.0
 11
-51.953057
 21
-117.213027
 31
0.0
  0
LINE
  5
202
330
1FE
100
AcDbEntity
  8
LC-001-100-D00-0
 62
     7
370
    50
100
AcDbLine
 10
-51.953057
 20
-117.213027
 30
0.0
 11
-51.718279
 21
-117.717086
 31
0.0
  0
LINE
  5
203
330
1FE
100
AcDbEntity
  8
LC-001-100-D00-0
 62
     7
370
    50
100
AcDbLine
 10
-51.718279
 20
-117.717086
 30
0.0
 11
-51.718279
 21
-117.717086
 31
0.0
  0
LINE
  5
204
330
1FE
100
AcDbEntity
  8
LC-001-100-D00-0
 62
     7
370
    50
100
AcDbLine
 10
-51.718279
 20
-117.717086
 30
0.0
 11
-51.248687
 21
-118.725286
 31
0.0
  0
LINE
  5
205
330
1FE
100
AcDbEntity
  8
LC-001-100-D00-0
 62
     7
370
    50
100
AcDbLine
 10
-51.248687
 20
-118.725286
 30
0.0
 11
-51.248687
 21
-118.725286
 31
0.0
  0
LINE
  5
206
330
1FE
100
AcDbEntity
  8
LC-001-100-D00-0
 62
     7
370
    50
100
AcDbLine
 10
-51.248687
 20
-118.725286
 30
0.0
 11
-51.232228
 21
-120.421039
 31
0.0
  0
LINE
  5
207
330
1FE
100
AcDbEntity
  8
LC-001-100-D00-0
 62
     7
370
    50
100
AcDbLine
 10
-51.232228
 20
-120.421039
 30
0.0
 11
-51.232228
 21
-120.421039
 31
0.0
  0
LINE
  5
208
330
1FE
100
AcDbEntity
  8
LC-001-100-D00-0
 62
     7
370
    50
100
AcDbLine
 10
-51.232228
 20
-120.421039
 30
0.0
 11
-51.592859
 21
-121.578184
 31
0.0
  0
LINE
  5
209
330
1FE
100
AcDbEntity
  8
LC-001-100-D00-0
 62
     7
370
    50
100
AcDbLine
 10
-51.592859
 20
-121.578184
 30
0.0
 11
-51.592859
 21
-121.578184
 31
0.0
  0
LINE
  5
20A
330
1FE
100
AcDbEntity
  8
LC-001-100-D00-0
 62
     7
370
    50
100
AcDbLine
 10
-51.592859
 20
-121.578184
 30
0.0
 11
-51.908435
 21
-122.134382
 31
0.0
  0
LINE
  5
20B
330
1FE
100
AcDbEntity
  8
LC-001-100-D00-0
 62
     7
370
    50
100
AcDbLine
 10
-51.908435
 20
-122.134382
 30
0.0
 11
-51.908435
 21
-122.134382
 31
0.0
  0
LINE
  5
20C
330
1FE
100
AcDbEntity
  8
LC-001-100-D00-0
 62
     7
370
    50
100
AcDbLine
 10
-51.908435
 20
-122.134382
 30
0.0
 11
-51.953057
 21
-122.213026
 31
0.0
  0
ENDBLK
  5
200
330
1FE
100
AcDbEntity
  8
0
100
AcDbBlockEnd
  0
BLOCK
  5
211
330
210
100
AcDbEntity
  8
0
100
AcDbBlockBegin
  2
POLY3
 70
     0
 71
     0
 10
0.0
 20
0.0
 30
0.0
  3
POLY3
  1

  4
POLY3
  0
LINE
  5
213
330
210
100
AcDbEntity
  8
LC-001-100-D00-0
 62
     7
370
    50
100
AcDbLine
 10
330.170503
 20
5.910533
 30
0.0
 11
330.170503
 21
5.910533
 31
0.0
  0
LINE
  5
214
330
210
100
AcDbEntity
  8
LC-001-100-D00-0
 62
     7
370
    50
100
AcDbLine
 10
330.170503
 20
5.910533
 30
0.0
 11
329.666442
 21
5.675756
 31
0.0
  0
LINE
  5
215
330
210
100
AcDbEntity
  8
LC-001-100-D00-0
 62
     7
370
    50
100
AcDbLine
 10
329.666442
 20
5.675756
 30
0.0
 11
329.666442
 21
5.675756
 31
0.0
  0
LINE
  5
216
330
210
100
AcDbEntity
  8
LC-001-100-D00-0
 62
     7
370
    50
100
AcDbLine
 10
329.666442
 20
5.675756
 30
0.0
 11
328.658242
 21
5.206166
 31
0.0
  0
LINE
  5
217
330
210
100
AcDbEntity
  8
LC-001-100-D00-0
 62
     7
370
    50
100
AcDbLine
 10
328.658242
 20
5.206166
 30
0.0
 11
328.658242
 21
5.206166
 31
0.0
  0
LINE
  5
218
330
210
100
AcDbEntity
  8
LC-001-100-D00-0
 62
     7
370
    50
100
AcDbLine
 10
328.658242
 20
5.206166
 30
0.0
 11
326.962485
 21
5.189696
 31
0.0
  0
LINE
  5
219
330
210
100
AcDbEntity
  8
LC-001-100-D00-0
 62
     7
370
    50
100
AcDbLine
 10
326.962485
 20
5.189696
 30
0.0
 11
326.962485
 21
5.189696
 31
0.0
  0
LINE
  5
21A
330
210
100
AcDbEntity
  8
LC-001-100-D00-0
 62
     7
370
    50
100
AcDbLine
 10
326.962485
 20
5.189696
 30
0.0
 11
325.805355
 21
5.550354
 31
0.0
  0
LINE
  5
21B
330
210
100
AcDbEntity
  8
LC-001-100-D00-0
 62
     7
370
    50
100
AcDbLine
 10
325.805355
 20
5.550354
 30
0.0
 11
325.805355
 21
5.550354
 31
0.0
  0
LINE
  5
21C
330
210
100
AcDbEntity
  8
LC-001-100-D00-0
 62
     7
370
    50
100
AcDbLine
 10
325.805355
 20
5.550354
 30
0.0
 11
325.249152
 21
5.865915
 31
0.0
  0
LINE
  5
21D
330
210
100
AcDbEntity
  8
LC-001-100-D00-0
 62
     7
370
    50
100
AcDbLine
 10
325.249152
 20
5.865915
 30
0.0
 11
325.249152
 21
5.865915
 31
0.0
  0
LINE
  5
21E
330
210
100
AcDbEntity
  8
LC-001-100-D00-0
 62
     7
370
    50
100
AcDbLine
 10
325.249152
 20
5.865915
 30
0.0
 11
325.170508
 21
5.910533
 31
0.0
  0
ENDBLK
  5
212
330
210
100
AcDbEntity
  8
0
100
AcDbBlockEnd
  0
BLOCK
  5
224
330
223
100
AcDbEntity
  8
0
100
AcDbBlockBegin
  2
POLY4
 70
     0
 71
     0
 10
0.0
 20
0.0
 30
0.0
  3
POLY4
  1

  4
POLY4
  0
LINE
  5
226
330
223
100
AcDbEntity
  8
LC-001-100-D00-0
 62
     7
370
    50
100
AcDbLine
 10
-29.829496
 20
-145.336581
 30
0.0
 11
-29.829496
 21
-145.336581
 31
0.0
  0
LINE
  5
227
330
223
100
AcDbEntity
  8
LC-001-100-D00-0
 62
     7
370
    50
100
AcDbLine
 10
-29.829496
 20
-145.336581
 30
0.0
 11
-30.333557
 21
-145.101806
 31
0.0
  0
LINE
  5
228
330
223
100
AcDbEntity
  8
LC-001-100-D00-0
 62
     7
370
    50
100
AcDbLine
 10
-30.333557
 20
-145.101806
 30
0.0
 11
-30.333557
 21
-145.101806
 31
0.0
  0
LINE
  5
229
330
223
100
AcDbEntity
  8
LC-001-100-D00-0
 62
     7
370
    50
100
AcDbLine
 10
-30.333557
 20
-145.101806
 30
0.0
 11
-31.341758
 21
-144.632219
 31
0.0
  0
LINE
  5
22A
330
223
100
AcDbEntity
  8
LC-001-100-D00-0
 62
     7
370
    50
100
AcDbLine
 10
-31.341758
 20
-144.632219
 30
0.0
 11
-31.341758
 21
-144.632219
 31
0.0
  0
LINE
  5
22B
330
223
100
AcDbEntity
  8
LC-001-100-D00-0
 62
     7
370
    50
100
AcDbLine
 10
-31.341758
 20
-144.632219
 30
0.0
 11
-33.037514
 21
-144.615742
 31
0.0
  0
LINE
  5
22C
330
223
100
AcDbEntity
  8
LC-001-100-D00-0
 62
     7
370
    50
100
AcDbLine
 10
-33.037514
 20
-144.615742
 30
0.0
 11
-33.037514
 21
-144.615742
 31
0.0
  0
LINE
  5
22D
330
223
100
AcDbEntity
  8
LC-001-100-D00-0
 62
     7
370
    50
100
AcDbLine
 10
-33.037514
 20
-144.615742
 30
0.0
 11
-34.194644
 21
-144.976402
 31
0.0
  0
LINE
  5
22E
330
223
100
AcDbEntity
  8
LC-001-100-D00-0
 62
     7
370
    50
100
AcDbLine
 10
-34.194644
 20
-144.976402
 30
0.0
 11
-34.194644
 21
-144.976402
 31
0.0
  0
LINE
  5
22F
330
223
100
AcDbEntity
  8
LC-001-100-D00-0
 62
     7
370
    50
100
AcDbLine
 10
-34.194644
 20
-144.976402
 30
0.0
 11
-34.750848
 21
-145.291962
 31
0.0
  0
LINE
  5
230
330
223
100
AcDbEntity
  8
LC-001-100-D00-0
 62
     7
370
    50
100
AcDbLine
 10
-34.750848
 20
-145.291962
 30
0.0
 11
-34.750848
 21
-145.291962
 31
0.0
  0
LINE
  5
231
330
223
100
AcDbEntity
  8
LC-001-100-D00-0
 62
     7
370
    50
100
AcDbLine
 10
-34.750848
 20
-145.291962
 30
0.0
 11
-34.829492
 21
-145.336581
 31
0.0
  0
ENDBLK
  5
225
330
223
100
AcDbEntity
  8
0
100
AcDbBlockEnd
  0
BLOCK
  5
235
330
234
100
AcDbEntity
  8
0
100
AcDbBlockBegin
  2
POLY5
 70
     0
 71
     0
 10
0.0
 20
0.0
 30
0.0
  3
POLY5
  1

  4
POLY5
  0
LINE
  5
237
330
234
100
AcDbEntity
  8
LC-001-100-D00-0
 62
     7
370
    50
100
AcDbLine
 10
210.170498
 20
5.910533
 30
0.0
 11
210.170498
 21
5.910533
 31
0.0
  0
LINE
  5
238
330
234
100
AcDbEntity
  8
LC-001-100-D00-0
 62
     7
370
    50
100
AcDbLine
 10
210.170498
 20
5.910533
 30
0.0
 11
209.66644
 21
5.675756
 31
0.0
  0
LINE
  5
239
330
234
100
AcDbEntity
  8
LC-001-100-D00-0
 62
     7
370
    50
100
AcDbLine
 10
209.66644
 20
5.675756
 30
0.0
 11
209.66644
 21
5.675756
 31
0.0
  0
LINE
  5
23A
330
234
100
AcDbEntity
  8
LC-001-100-D00-0
 62
     7
370
    50
100
AcDbLine
 10
209.66644
 20
5.675756
 30
0.0
 11
208.658242
 21
5.206165
 31
0.0
  0
LINE
  5
23B
330
234
100
AcDbEntity
  8
LC-001-100-D00-0
 62
     7
370
    50
100
AcDbLine
 10
208.658242
 20
5.206165
 30
0.0
 11
208.658242
 21
5.206165
 31
0.0
  0
LINE
  5
23C
330
234
100
AcDbEntity
  8
LC-001-100-D00-0
 62
     7
370
    50
100
AcDbLine
 10
208.658242
 20
5.206165
 30
0.0
 11
206.962486
 21
5.189698
 31
0.0
  0
LINE
  5
23D
330
234
100
AcDbEntity
  8
LC-001-100-D00-0
 62
     7
370
    50
100
AcDbLine
 10
206.962486
 20
5.189698
 30
0.0
 11
206.962486
 21
5.189698
 31
0.0
  0
LINE
  5
23E
330
234
100
AcDbEntity
  8
LC-001-100-D00-0
 62
     7
370
    50
100
AcDbLine
 10
206.962486
 20
5.189698
 30
0.0
 11
205.805352
 21
5.550353
 31
0.0
  0
LINE
  5
23F
330
234
100
AcDbEntity
  8
LC-001-100-D00-0
 62
     7
370
    50
100
AcDbLine
 10
205.805352
 20
5.550353
 30
0.0
 11
205.805352
 21
5.550353
 31
0.0
  0
LINE
  5
240
330
234
100
AcDbEntity
  8
LC-001-100-D00-0
 62
     7
370
    50
100
AcDbLine
 10
205.805352
 20
5.550353
 30
0.0
 11
205.249147
 21
5.865915
 31
0.0
  0
LINE
  5
241
330
234
100
AcDbEntity
  8
LC-001-100-D00-0
 62
     7
370
    50
100
AcDbLine
 10
205.249147
 20
5.865915
 30
0.0
 11
205.249147
 21
5.865915
 31
0.0
  0
LINE
  5
242
330
234
100
AcDbEntity
  8
LC-001-100-D00-0
 62
     7
370
    50
100
AcDbLine
 10
205.249147
 20
5.865915
 30
0.0
 11
205.170503
 21
5.910533
 31
0.0
  0
ENDBLK
  5
236
330
234
100
AcDbEntity
  8
0
100
AcDbBlockEnd
  0
BLOCK
  5
247
330
246
100
AcDbEntity
  8
0
100
AcDbBlockBegin
  2
POLY6
 70
     0
 71
     0
 10
0.0
 20
0.0
 30
0.0
  3
POLY6
  1

  4
POLY6
  0
LINE
  5
249
330
246
100
AcDbEntity
  8
LC-001-100-D00-0
 62
     7
370
    50
100
AcDbLine
 10
330.170503
 20
-145.336581
 30
0.0
 11
330.170503
 21
-145.336581
 31
0.0
  0
LINE
  5
24A
330
246
100
AcDbEntity
  8
LC-001-100-D00-0
 62
     7
370
    50
100
AcDbLine
 10
330.170503
 20
-145.336581
 30
0.0
 11
329.666442
 21
-145.101806
 31
0.0
  0
LINE
  5
24B
330
246
100
AcDbEntity
  8
LC-001-100-D00-0
 62
     7
370
    50
100
AcDbLine
 10
329.666442
 20
-145.101806
 30
0.0
 11
329.666442
 21
-145.101806
 31
0.0
  0
LINE
  5
24C
330
246
100
AcDbEntity
  8
LC-001-100-D00-0
 62
     7
370
    50
100
AcDbLine
 10
329.666442
 20
-145.101806
 30
0.0
 11
328.658241
 21
-144.632219
 31
0.0
  0
LINE
  5
24D
330
246
100
AcDbEntity
  8
LC-001-100-D00-0
 62
     7
370
    50
100
AcDbLine
 10
328.658241
 20
-144.632219
 30
0.0
 11
328.658241
 21
-144.632219
 31
0.0
  0
LINE
  5
24E
330
246
100
AcDbEntity
  8
LC-001-100-D00-0
 62
     7
370
    50
100
AcDbLine
 10
328.658241
 20
-144.632219
 30
0.0
 11
326.962485
 21
-144.615742
 31
0.0
  0
LINE
  5
24F
330
246
100
AcDbEntity
  8
LC-001-100-D00-0
 62
     7
370
    50
100
AcDbLine
 10
326.962485
 20
-144.615742
 30
0.0
 11
326.962485
 21
-144.615742
 31
0.0
  0
LINE
  5
250
330
246
100
AcDbEntity
  8
LC-001-100-D00-0
 62
     7
370
    50
100
AcDbLine
 10
326.962485
 20
-144.615742
 30
0.0
 11
325.805355
 21
-144.976402
 31
0.0
  0
LINE
  5
251
330
246
100
AcDbEntity
  8
LC-001-100-D00-0
 62
     7
370
    50
100
AcDbLine
 10
325.805355
 20
-144.976402
 30
0.0
 11
325.805355
 21
-144.976402
 31
0.0
  0
LINE
  5
252
330
246
100
AcDbEntity
  8
LC-001-100-D00-0
 62
     7
370
    50
100
AcDbLine
 10
325.805355
 20
-144.976402
 30
0.0
 11
325.249152
 21
-145.291962
 31
0.0
  0
LINE
  5
253
330
246
100
AcDbEntity
  8
LC-001-100-D00-0
 62
     7
370
    50
100
AcDbLine
 10
325.249152
 20
-145.291962
 30
0.0
 11
325.249152
 21
-145.291962
 31
0.0
  0
LINE
  5
254
330
246
100
AcDbEntity
  8
LC-001-100-D00-0
 62
     7
370
    50
100
AcDbLine
 10
325.249152
 20
-145.291962
 30
0.0
 11
325.170508
 21
-145.336581
 31
0.0
  0
ENDBLK
  5
248
330
246
100
AcDbEntity
  8
0
100
AcDbBlockEnd
  0
BLOCK
  5
25A
330
259
100
AcDbEntity
  8
0
100
AcDbBlockBegin
  2
POLY7
 70
     0
 71
     0
 10
0.0
 20
0.0
 30
0.0
  3
POLY7
  1

  4
POLY7
  0
LINE
  5
25C
330
259
100
AcDbEntity
  8
LC-001-100-D00-0
 62
     7
370
    50
100
AcDbLine
 10
347.294053
 20
-117.213027
 30
0.0
 11
347.294053
 21
-117.213027
 31
0.0
  0
LINE
  5
25D
330
259
100
AcDbEntity
  8
LC-001-100-D00-0
 62
     7
370
    50
100
AcDbLine
 10
347.294053
 20
-117.213027
 30
0.0
 11
347.059285
 21
-117.717086
 31
0.0
  0
LINE
  5
25E
330
259
100
AcDbEntity
  8
LC-001-100-D00-0
 62
     7
370
    50
100
AcDbLine
 10
347.059285
 20
-117.717086
 30
0.0
 11
347.059285
 21
-117.717086
 31
0.0
  0
LINE
  5
25F
330
259
100
AcDbEntity
  8
LC-001-100-D00-0
 62
     7
370
    50
100
AcDbLine
 10
347.059285
 20
-117.717086
 30
0.0
 11
346.58971
 21
-118.725288
 31
0.0
  0
LINE
  5
260
330
259
100
AcDbEntity
  8
LC-001-100-D00-0
 62
     7
370
    50
100
AcDbLine
 10
346.58971
 20
-118.725288
 30
0.0
 11
346.58971
 21
-118.725288
 31
0.0
  0
LINE
  5
261
330
259
100
AcDbEntity
  8
LC-001-100-D00-0
 62
     7
370
    50
100
AcDbLine
 10
346.58971
 20
-118.725288
 30
0.0
 11
346.573204
 21
-120.421047
 31
0.0
  0
LINE
  5
262
330
259
100
AcDbEntity
  8
LC-001-100-D00-0
 62
     7
370
    50
100
AcDbLine
 10
346.573204
 20
-120.421047
 30
0.0
 11
346.573204
 21
-120.421047
 31
0.0
  0
LINE
  5
263
330
259
100
AcDbEntity
  8
LC-001-100-D00-0
 62
     7
370
    50
100
AcDbLine
 10
346.573204
 20
-120.421047
 30
0.0
 11
346.933891
 21
-121.578169
 31
0.0
  0
LINE
  5
264
330
259
100
AcDbEntity
  8
LC-001-100-D00-0
 62
     7
370
    50
100
AcDbLine
 10
346.933891
 20
-121.578169
 30
0.0
 11
346.933891
 21
-121.578169
 31
0.0
  0
LINE
  5
265
330
259
100
AcDbEntity
  8
LC-001-100-D00-0
 62
     7
370
    50
100
AcDbLine
 10
346.933891
 20
-121.578169
 30
0.0
 11
347.249437
 21
-122.134381
 31
0.0
  0
LINE
  5
266
330
259
100
AcDbEntity
  8
LC-001-100-D00-0
 62
     7
370
    50
100
AcDbLine
 10
347.249437
 20
-122.134381
 30
0.0
 11
347.249437
 21
-122.134381
 31
0.0
  0
LINE
  5
267
330
259
100
AcDbEntity
  8
LC-001-100-D00-0
 62
     7
370
    50
100
AcDbLine
 10
347.249437
 20
-122.134381
 30
0.0
 11
347.294053
 21
-122.213026
 31
0.0
  0
ENDBLK
  5
25B
330
259
100
AcDbEntity
  8
0
100
AcDbBlockEnd
  0
BLOCK
  5
26B
330
26A
100
AcDbEntity
  8
0
100
AcDbBlockBegin
  2
POLY8
 70
     0
 71
     0
 10
0.0
 20
0.0
 30
0.0
  3
POLY8
  1

  4
POLY8
  0
LINE
  5
26D
330
26A
100
AcDbEntity
  8
LC-001-100-D00-0
 62
     7
370
    50
100
AcDbLine
 10
90.170501
 20
-145.336581
 30
0.0
 11
90.170501
 21
-145.336581
 31
0.0
  0
LINE
  5
26E
330
26A
100
AcDbEntity
  8
LC-001-100-D00-0
 62
     7
370
    50
100
AcDbLine
 10
90.170501
 20
-145.336581
 30
0.0
 11
89.666441
 21
-145.101806
 31
0.0
  0
LINE
  5
26F
330
26A
100
AcDbEntity
  8
LC-001-100-D00-0
 62
     7
370
    50
100
AcDbLine
 10
89.666441
 20
-145.101806
 30
0.0
 11
89.666441
 21
-145.101806
 31
0.0
  0
LINE
  5
270
330
26A
100
AcDbEntity
  8
LC-001-100-D00-0
 62
     7
370
    50
100
AcDbLine
 10
89.666441
 20
-145.101806
 30
0.0
 11
88.65824
 21
-144.632219
 31
0.0
  0
LINE
  5
271
330
26A
100
AcDbEntity
  8
LC-001-100-D00-0
 62
     7
370
    50
100
AcDbLine
 10
88.65824
 20
-144.632219
 30
0.0
 11
88.65824
 21
-144.632219
 31
0.0
  0
LINE
  5
272
330
26A
100
AcDbEntity
  8
LC-001-100-D00-0
 62
     7
370
    50
100
AcDbLine
 10
88.65824
 20
-144.632219
 30
0.0
 11
86.962483
 21
-144.615743
 31
0.0
  0
LINE
  5
273
330
26A
100
AcDbEntity
  8
LC-001-100-D00-0
 62
     7
370
    50
100
AcDbLine
 10
86.962483
 20
-144.615743
 30
0.0
 11
86.962483
 21
-144.615743
 31
0.0
  0
LINE
  5
274
330
26A
100
AcDbEntity
  8
LC-001-100-D00-0
 62
     7
370
    50
100
AcDbLine
 10
86.962483
 20
-144.615743
 30
0.0
 11
85.805351
 21
-144.976401
 31
0.0
  0
LINE
  5
275
330
26A
100
AcDbEntity
  8
LC-001-100-D00-0
 62
     7
370
    50
100
AcDbLine
 10
85.805351
 20
-144.976401
 30
0.0
 11
85.805351
 21
-144.976401
 31
0.0
  0
LINE
  5
276
330
26A
100
AcDbEntity
  8
LC-001-100-D00-0
 62
     7
370
    50
100
AcDbLine
 10
85.805351
 20
-144.976401
 30
0.0
 11
85.249146
 21
-145.291962
 31
0.0
  0
LINE
  5
277
330
26A
100
AcDbEntity
  8
LC-001-100-D00-0
 62
     7
370
    50
100
AcDbLine
 10
85.249146
 20
-145.291962
 30
0.0
 11
85.249146
 21
-145.291962
 31
0.0
  0
LINE
  5
278
330
26A
100
AcDbEntity
  8
LC-001-100-D00-0
 62
     7
370
    50
100
AcDbLine
 10
85.249146
 20
-145.291962
 30
0.0
 11
85.170502
 21
-145.336581
 31
0.0
  0
ENDBLK
  5
26C
330
26A
100
AcDbEntity
  8
0
100
AcDbBlockEnd
  0
BLOCK
  5
27D
330
27C
100
AcDbEntity
  8
0
100
AcDbBlockBegin
  2
POLY9
 70
     0
 71
     0
 10
0.0
 20
0.0
 30
0.0
  3
POLY9
  1

  4
POLY9
  0
LINE
  5
27F
330
27C
100
AcDbEntity
  8
LC-001-100-D00-0
 62
     7
370
    50
100
AcDbLine
 10
347.294053
 20
-22.213024
 30
0.0
 11
347.294053
 21
-22.213024
 31
0.0
  0
LINE
  5
280
330
27C
100
AcDbEntity
  8
LC-001-100-D00-0
 62
     7
370
    50
100
AcDbLine
 10
347.294053
 20
-22.213024
 30
0.0
 11
347.059285
 21
-21.708964
 31
0.0
  0
LINE
  5
281
330
27C
100
AcDbEntity
  8
LC-001-100-D00-0
 62
     7
370
    50
100
AcDbLine
 10
347.059285
 20
-21.708964
 30
0.0
 11
347.059285
 21
-21.708964
 31
0.0
  0
LINE
  5
282
330
27C
100
AcDbEntity
  8
LC-001-100-D00-0
 62
     7
370
    50
100
AcDbLine
 10
347.059285
 20
-21.708964
 30
0.0
 11
346.589711
 21
-20.700761
 31
0.0
  0
LINE
  5
283
330
27C
100
AcDbEntity
  8
LC-001-100-D00-0
 62
     7
370
    50
100
AcDbLine
 10
346.589711
 20
-20.700761
 30
0.0
 11
346.589711
 21
-20.700761
 31
0.0
  0
LINE
  5
284
330
27C
100
AcDbEntity
  8
LC-001-100-D00-0
 62
     7
370
    50
100
AcDbLine
 10
346.589711
 20
-20.700761
 30
0.0
 11
346.5732
 21
-19.005001
 31
0.0
  0
LINE
  5
285
330
27C
100
AcDbEntity
  8
LC-001-100-D00-0
 62
     7
370
    50
100
AcDbLine
 10
346.5732
 20
-19.005001
 30
0.0
 11
346.5732
 21
-19.005001
 31
0.0
  0
LINE
  5
286
330
27C
100
AcDbEntity
  8
LC-001-100-D00-0
 62
     7
370
    50
100
AcDbLine
 10
346.5732
 20
-19.005001
 30
0.0
 11
346.933899
 21
-17.847886
 31
0.0
  0
LINE
  5
287
330
27C
100
AcDbEntity
  8
LC-001-100-D00-0
 62
     7
370
    50
100
AcDbLine
 10
346.933899
 20
-17.847886
 30
0.0
 11
346.933899
 21
-17.847886
 31
0.0
  0
LINE
  5
288
330
27C
100
AcDbEntity
  8
LC-001-100-D00-0
 62
     7
370
    50
100
AcDbLine
 10
346.933899
 20
-17.847886
 30
0.0
 11
347.249437
 21
-17.291668
 31
0.0
  0
LINE
  5
289
330
27C
100
AcDbEntity
  8
LC-001-100-D00-0
 62
     7
370
    50
100
AcDbLine
 10
347.249437
 20
-17.291668
 30
0.0
 11
347.249437
 21
-17.291668
 31
0.0
  0
LINE
  5
28A
330
27C
100
AcDbEntity
  8
LC-001-100-D00-0
 62
     7
370
    50
100
AcDbLine
 10
347.249437
 20
-17.291668
 30
0.0
 11
347.294053
 21
-17.213022
 31
0.0
  0
ENDBLK
  5
27E
330
27C
100
AcDbEntity
  8
0
100
AcDbBlockEnd
  0
BLOCK
  5
28F
330
28E
100
AcDbEntity
  8
0
100
AcDbBlockBegin
  2
POLY10
 70
     0
 71
     0
 10
0.0
 20
0.0
 30
0.0
  3
POLY10
  1

  4
POLY10
  0
LINE
  5
291
330
28E
100
AcDbEntity
  8
LC-001-100-D00-0
 62
     7
370
    50
100
AcDbLine
 10
-29.829496
 20
5.910533
 30
0.0
 11
-29.829496
 21
5.910533
 31
0.0
  0
LINE
  5
292
330
28E
100
AcDbEntity
  8
LC-001-100-D00-0
 62
     7
370
    50
100
AcDbLine
 10
-29.829496
 20
5.910533
 30
0.0
 11
-30.333557
 21
5.675756
 31
0.0
  0
LINE
  5
293
330
28E
100
AcDbEntity
  8
LC-001-100-D00-0
 62
     7
370
    50
100
AcDbLine
 10
-30.333557
 20
5.675756
 30
0.0
 11
-30.333557
 21
5.675756
 31
0.0
  0
LINE
  5
294
330
28E
100
AcDbEntity
  8
LC-001-100-D00-0
 62
     7
370
    50
100
AcDbLine
 10
-30.333557
 20
5.675756
 30
0.0
 11
-31.341758
 21
5.206166
 31
0.0
  0
LINE
  5
295
330
28E
100
AcDbEntity
  8
LC-001-100-D00-0
 62
     7
370
    50
100
AcDbLine
 10
-31.341758
 20
5.206166
 30
0.0
 11
-31.341758
 21
5.206166
 31
0.0
  0
LINE
  5
296
330
28E
100
AcDbEntity
  8
LC-001-100-D00-0
 62
     7
370
    50
100
AcDbLine
 10
-31.341758
 20
5.206166
 30
0.0
 11
-33.037514
 21
5.189696
 31
0.0
  0
LINE
  5
297
330
28E
100
AcDbEntity
  8
LC-001-100-D00-0
 62
     7
370
    50
100
AcDbLine
 10
-33.037514
 20
5.189696
 30
0.0
 11
-33.037514
 21
5.189696
 31
0.0
  0
LINE
  5
298
330
28E
100
AcDbEntity
  8
LC-001-100-D00-0
 62
     7
370
    50
100
AcDbLine
 10
-33.037514
 20
5.189696
 30
0.0
 11
-34.194644
 21
5.550354
 31
0.0
  0
LINE
  5
299
330
28E
100
AcDbEntity
  8
LC-001-100-D00-0
 62
     7
370
    50
100
AcDbLine
 10
-34.194644
 20
5.550354
 30
0.0
 11
-34.194644
 21
5.550354
 31
0.0
  0
LINE
  5
29A
330
28E
100
AcDbEntity
  8
LC-001-100-D00-0
 62
     7
370
    50
100
AcDbLine
 10
-34.194644
 20
5.550354
 30
0.0
 11
-34.750848
 21
5.865915
 31
0.0
  0
LINE
  5
29B
330
28E
100
AcDbEntity
  8
LC-001-100-D00-0
 62
     7
370
    50
100
AcDbLine
 10
-34.750848
 20
5.865915
 30
0.0
 11
-34.750848
 21
5.865915
 31
0.0
  0
LINE
  5
29C
330
28E
100
AcDbEntity
  8
LC-001-100-D00-0
 62
     7
370
    50
100
AcDbLine
 10
-34.750848
 20
5.865915
 30
0.0
 11
-34.829492
 21
5.910533
 31
0.0
  0
ENDBLK
  5
290
330
28E
100
AcDbEntity
  8
0
100
AcDbBlockEnd
  0
BLOCK
  5
2A1
330
2A0
100
AcDbEntity
  8
0
100
AcDbBlockBegin
  2
POLY11
 70
     0
 71
     0
 10
0.0
 20
0.0
 30
0.0
  3
POLY11
  1

  4
POLY11
  0
LINE
  5
2A3
330
2A0
100
AcDbEntity
  8
LC-001-100-D00-0
 62
     7
370
    50
100
AcDbLine
 10
210.170498
 20
-145.336581
 30
0.0
 11
210.170498
 21
-145.336581
 31
0.0
  0
LINE
  5
2A4
330
2A0
100
AcDbEntity
  8
LC-001-100-D00-0
 62
     7
370
    50
100
AcDbLine
 10
210.170498
 20
-145.336581
 30
0.0
 11
209.66644
 21
-145.101806
 31
0.0
  0
LINE
  5
2A5
330
2A0
100
AcDbEntity
  8
LC-001-100-D00-0
 62
     7
370
    50
100
AcDbLine
 10
209.66644
 20
-145.101806
 30
0.0
 11
209.66644
 21
-145.101806
 31
0.0
  0
LINE
  5
2A6
330
2A0
100
AcDbEntity
  8
LC-001-100-D00-0
 62
     7
370
    50
100
AcDbLine
 10
209.66644
 20
-145.101806
 30
0.0
 11
208.658241
 21
-144.632218
 31
0.0
  0
LINE
  5
2A7
330
2A0
100
AcDbEntity
  8
LC-001-100-D00-0
 62
     7
370
    50
100
AcDbLine
 10
208.658241
 20
-144.632218
 30
0.0
 11
208.658241
 21
-144.632218
 31
0.0
  0
LINE
  5
2A8
330
2A0
100
AcDbEntity
  8
LC-001-100-D00-0
 62
     7
370
    50
100
AcDbLine
 10
208.658241
 20
-144.632218
 30
0.0
 11
206.962486
 21
-144.615744
 31
0.0
  0
LINE
  5
2A9
330
2A0
100
AcDbEntity
  8
LC-001-100-D00-0
 62
     7
370
    50
100
AcDbLine
 10
206.962486
 20
-144.615744
 30
0.0
 11
206.962486
 21
-144.615744
 31
0.0
  0
LINE
  5
2AA
330
2A0
100
AcDbEntity
  8
LC-001-100-D00-0
 62
     7
370
    50
100
AcDbLine
 10
206.962486
 20
-144.615744
 30
0.0
 11
205.805352
 21
-144.9764
 31
0.0
  0
LINE
  5
2AB
330
2A0
100
AcDbEntity
  8
LC-001-100-D00-0
 62
     7
370
    50
100
AcDbLine
 10
205.805352
 20
-144.9764
 30
0.0
 11
205.805352
 21
-144.9764
 31
0.0
  0
LINE
  5
2AC
330
2A0
100
AcDbEntity
  8
LC-001-100-D00-0
 62
     7
370
    50
100
AcDbLine
 10
205.805352
 20
-144.9764
 30
0.0
 11
205.249147
 21
-145.291962
 31
0.0
  0
LINE
  5
2AD
330
2A0
100
AcDbEntity
  8
LC-001-100-D00-0
 62
     7
370
    50
100
AcDbLine
 10
205.249147
 20
-145.291962
 30
0.0
 11
205.249147
 21
-145.291962
 31
0.0
  0
LINE
  5
2AE
330
2A0
100
AcDbEntity
  8
LC-001-100-D00-0
 62
     7
370
    50
100
AcDbLine
 10
205.249147
 20
-145.291962
 30
0.0
 11
205.170503
 21
-145.336581
 31
0.0
  0
ENDBLK
  5
2A2
330
2A0
100
AcDbEntity
  8
0
100
AcDbBlockEnd
  0
BLOCK
  5
2B3
330
2B2
100
AcDbEntity
  8
0
100
AcDbBlockBegin
  2
POLY12
 70
     0
 71
     0
 10
0.0
 20
0.0
 30
0.0
  3
POLY12
  1

  4
POLY12
  0
LINE
  5
2B5
330
2B2
100
AcDbEntity
  8
LC-001-100-D00-0
 62
     7
370
    50
100
AcDbLine
 10
90.170501
 20
5.910533
 30
0.0
 11
90.170501
 21
5.910533
 31
0.0
  0
LINE
  5
2B6
330
2B2
100
AcDbEntity
  8
LC-001-100-D00-0
 62
     7
370
    50
100
AcDbLine
 10
90.170501
 20
5.910533
 30
0.0
 11
89.666441
 21
5.675756
 31
0.0
  0
LINE
  5
2B7
330
2B2
100
AcDbEntity
  8
LC-001-100-D00-0
 62
     7
370
    50
100
AcDbLine
 10
89.666441
 20
5.675756
 30
0.0
 11
89.666441
 21
5.675756
 31
0.0
  0
LINE
  5
2B8
330
2B2
100
AcDbEntity
  8
LC-001-100-D00-0
 62
     7
370
    50
100
AcDbLine
 10
89.666441
 20
5.675756
 30
0.0
 11
88.658241
 21
5.206165
 31
0.0
  0
LINE
  5
2B9
330
2B2
100
AcDbEntity
  8
LC-001-100-D00-0
 62
     7
370
    50
100
AcDbLine
 10
88.658241
 20
5.206165
 30
0.0
 11
88.658241
 21
5.206165
 31
0.0
  0
LINE
  5
2BA
330
2B2
100
AcDbEntity
  8
LC-001-100-D00-0
 62
     7
370
    50
100
AcDbLine
 10
88.658241
 20
5.206165
 30
0.0
 11
86.962483
 21
5.189697
 31
0.0
  0
LINE
  5
2BB
330
2B2
100
AcDbEntity
  8
LC-001-100-D00-0
 62
     7
370
    50
100
AcDbLine
 10
86.962483
 20
5.189697
 30
0.0
 11
86.962483
 21
5.189697
 31
0.0
  0
LINE
  5
2BC
330
2B2
100
AcDbEntity
  8
LC-001-100-D00-0
 62
     7
370
    50
100
AcDbLine
 10
86.962483
 20
5.189697
 30
0.0
 11
85.805351
 21
5.550353
 31
0.0
  0
LINE
  5
2BD
330
2B2
100
AcDbEntity
  8
LC-001-100-D00-0
 62
     7
370
    50
100
AcDbLine
 10
85.805351
 20
5.550353
 30
0.0
 11
85.805351
 21
5.550353
 31
0.0
  0
LINE
  5
2BE
330
2B2
100
AcDbEntity
  8
LC-001-100-D00-0
 62
     7
370
    50
100
AcDbLine
 10
85.805351
 20
5.550353
 30
0.0
 11
85.249146
 21
5.865915
 31
0.0
  0
LINE
  5
2BF
330
2B2
100
AcDbEntity
  8
LC-001-100-D00-0
 62
     7
370
    50
100
AcDbLine
 10
85.249146
 20
5.865915
 30
0.0
 11
85.249146
 21
5.865915
 31
0.0
  0
LINE
  5
2C0
330
2B2
100
AcDbEntity
  8
LC-001-100-D00-0
 62
     7
370
    50
100
AcDbLine
 10
85.249146
 20
5.865915
 30
0.0
 11
85.170502
 21
5.910533
 31
0.0
  0
ENDBLK
  5
2B4
330
2B2
100
AcDbEntity
  8
0
100
AcDbBlockEnd
  0
BLOCK
  5
2D5
330
2D4
100
AcDbEntity
  8
0
100
AcDbBlockBegin
  2
POLY13
 70
     0
 71
     0
 10
0.0
 20
0.0
 30
0.0
  3
POLY13
  1

  4
POLY13
  0
LINE
  5
2D7
330
2D4
100
AcDbEntity
  8
LC-001-100-D00-0
 62
     7
370
    50
100
AcDbLine
 10
67.728629
 20
-49.532418
 30
0.0
 11
67.728629
 21
-49.532418
 31
0.0
  0
LINE
  5
2D8
330
2D4
100
AcDbEntity
  8
LC-001-100-D00-0
 62
     7
370
    50
100
AcDbLine
 10
67.728629
 20
-49.532418
 30
0.0
 11
67.685099
 21
-49.57677
 31
0.0
  0
LINE
  5
2D9
330
2D4
100
AcDbEntity
  8
LC-001-100-D00-0
 62
     7
370
    50
100
AcDbLine
 10
67.685099
 20
-49.57677
 30
0.0
 11
67.685099
 21
-49.57677
 31
0.0
  0
LINE
  5
2DA
330
2D4
100
AcDbEntity
  8
LC-001-100-D00-0
 62
     7
370
    50
100
AcDbLine
 10
67.685099
 20
-49.57677
 30
0.0
 11
67.638614
 21
-49.624132
 31
0.0
  0
LINE
  5
2DB
330
2D4
100
AcDbEntity
  8
LC-001-100-D00-0
 62
     7
370
    50
100
AcDbLine
 10
67.638614
 20
-49.624132
 30
0.0
 11
67.638614
 21
-49.624132
 31
0.0
  0
LINE
  5
2DC
330
2D4
100
AcDbEntity
  8
LC-001-100-D00-0
 62
     7
370
    50
100
AcDbLine
 10
67.638614
 20
-49.624132
 30
0.0
 11
67.588594
 21
-49.667648
 31
0.0
  0
LINE
  5
2DD
330
2D4
100
AcDbEntity
  8
LC-001-100-D00-0
 62
     7
370
    50
100
AcDbLine
 10
67.588594
 20
-49.667648
 30
0.0
 11
67.588594
 21
-49.667648
 31
0.0
  0
LINE
  5
2DE
330
2D4
100
AcDbEntity
  8
LC-001-100-D00-0
 62
     7
370
    50
100
AcDbLine
 10
67.588594
 20
-49.667648
 30
0.0
 11
67.585414
 21
-49.670414
 31
0.0
  0
ENDBLK
  5
2D6
330
2D4
100
AcDbEntity
  8
0
100
AcDbBlockEnd
  0
BLOCK
  5
2E2
330
2E1
100
AcDbEntity
  8
0
100
AcDbBlockBegin
  2
POLY14
 70
     0
 71
     0
 10
0.0
 20
0.0
 30
0.0
  3
POLY14
  1

  4
POLY14
  0
LINE
  5
2E4
330
2E1
100
AcDbEntity
  8
LC-001-100-D00-0
 62
     7
370
    50
100
AcDbLine
 10
227.612374
 20
-49.532418
 30
0.0
 11
227.612374
 21
-49.532418
 31
0.0
  0
LINE
  5
2E5
330
2E1
100
AcDbEntity
  8
LC-001-100-D00-0
 62
     7
370
    50
100
AcDbLine
 10
227.612374
 20
-49.532418
 30
0.0
 11
227.655909
 21
-49.576765
 31
0.0
  0
LINE
  5
2E6
330
2E1
100
AcDbEntity
  8
LC-001-100-D00-0
 62
     7
370
    50
100
AcDbLine
 10
227.655909
 20
-49.576765
 30
0.0
 11
227.655909
 21
-49.576765
 31
0.0
  0
LINE
  5
2E7
330
2E1
100
AcDbEntity
  8
LC-001-100-D00-0
 62
     7
370
    50
100
AcDbLine
 10
227.655909
 20
-49.576765
 30
0.0
 11
227.702399
 21
-49.624122
 31
0.0
  0
LINE
  5
2E8
330
2E1
100
AcDbEntity
  8
LC-001-100-D00-0
 62
     7
370
    50
100
AcDbLine
 10
227.702399
 20
-49.624122
 30
0.0
 11
227.702399
 21
-49.624122
 31
0.0
  0
LINE
  5
2E9
330
2E1
100
AcDbEntity
  8
LC-001-100-D00-0
 62
     7
370
    50
100
AcDbLine
 10
227.702399
 20
-49.624122
 30
0.0
 11
227.752411
 21
-49.667648
 31
0.0
  0
LINE
  5
2EA
330
2E1
100
AcDbEntity
  8
LC-001-100-D00-0
 62
     7
370
    50
100
AcDbLine
 10
227.752411
 20
-49.667648
 30
0.0
 11
227.752411
 21
-49.667648
 31
0.0
  0
LINE
  5
2EB
330
2E1
100
AcDbEntity
  8
LC-001-100-D00-0
 62
     7
370
    50
100
AcDbLine
 10
227.752411
 20
-49.667648
 30
0.0
 11
227.755589
 21
-49.670414
 31
0.0
  0
ENDBLK
  5
2E3
330
2E1
100
AcDbEntity
  8
0
100
AcDbBlockEnd
  0
BLOCK
  5
2F0
330
2EF
100
AcDbEntity
  8
0
100
AcDbBlockBegin
  2
POLY15
 70
     0
 71
     0
 10
0.0
 20
0.0
 30
0.0
  3
POLY15
  1

  4
POLY15
  0
LINE
  5
2F2
330
2EF
100
AcDbEntity
  8
LC-001-100-D00-0
 62
     7
370
    50
100
AcDbLine
 10
67.585414
 20
-89.755634
 30
0.0
 11
67.585414
 21
-89.755634
 31
0.0
  0
LINE
  5
2F3
330
2EF
100
AcDbEntity
  8
LC-001-100-D00-0
 62
     7
370
    50
100
AcDbLine
 10
67.585414
 20
-89.755634
 30
0.0
 11
67.588594
 21
-89.758401
 31
0.0
  0
LINE
  5
2F4
330
2EF
100
AcDbEntity
  8
LC-001-100-D00-0
 62
     7
370
    50
100
AcDbLine
 10
67.588594
 20
-89.758401
 30
0.0
 11
67.588594
 21
-89.758401
 31
0.0
  0
LINE
  5
2F5
330
2EF
100
AcDbEntity
  8
LC-001-100-D00-0
 62
     7
370
    50
100
AcDbLine
 10
67.588594
 20
-89.758401
 30
0.0
 11
67.638614
 21
-89.801918
 31
0.0
  0
LINE
  5
2F6
330
2EF
100
AcDbEntity
  8
LC-001-100-D00-0
 62
     7
370
    50
100
AcDbLine
 10
67.638614
 20
-89.801918
 30
0.0
 11
67.638614
 21
-89.801918
 31
0.0
  0
LINE
  5
2F7
330
2EF
100
AcDbEntity
  8
LC-001-100-D00-0
 62
     7
370
    50
100
AcDbLine
 10
67.638614
 20
-89.801918
 30
0.0
 11
67.685099
 21
-89.849281
 31
0.0
  0
LINE
  5
2F8
330
2EF
100
AcDbEntity
  8
LC-001-100-D00-0
 62
     7
370
    50
100
AcDbLine
 10
67.685099
 20
-89.849281
 30
0.0
 11
67.685099
 21
-89.849281
 31
0.0
  0
LINE
  5
2F9
330
2EF
100
AcDbEntity
  8
LC-001-100-D00-0
 62
     7
370
    50
100
AcDbLine
 10
67.685099
 20
-89.849281
 30
0.0
 11
67.728629
 21
-89.893632
 31
0.0
  0
ENDBLK
  5
2F1
330
2EF
100
AcDbEntity
  8
0
100
AcDbBlockEnd
  0
BLOCK
  5
2FC
330
2FB
100
AcDbEntity
  8
0
100
AcDbBlockBegin
  2
POLY16
 70
     0
 71
     0
 10
0.0
 20
0.0
 30
0.0
  3
POLY16
  1

  4
POLY16
  0
LINE
  5
2FE
330
2FB
100
AcDbEntity
  8
LC-001-100-D00-0
 62
     7
370
    50
100
AcDbLine
 10
227.755589
 20
-89.755634
 30
0.0
 11
227.755589
 21
-89.755634
 31
0.0
  0
LINE
  5
2FF
330
2FB
100
AcDbEntity
  8
LC-001-100-D00-0
 62
     7
370
    50
100
AcDbLine
 10
227.755589
 20
-89.755634
 30
0.0
 11
227.752411
 21
-89.758401
 31
0.0
  0
LINE
  5
300
330
2FB
100
AcDbEntity
  8
LC-001-100-D00-0
 62
     7
370
    50
100
AcDbLine
 10
227.752411
 20
-89.758401
 30
0.0
 11
227.752411
 21
-89.758401
 31
0.0
  0
LINE
  5
301
330
2FB
100
AcDbEntity
  8
LC-001-100-D00-0
 62
     7
370
    50
100
AcDbLine
 10
227.752411
 20
-89.758401
 30
0.0
 11
227.7024
 21
-89.801928
 31
0.0
  0
LINE
  5
302
330
2FB
100
AcDbEntity
  8
LC-001-100-D00-0
 62
     7
370
    50
100
AcDbLine
 10
227.7024
 20
-89.801928
 30
0.0
 11
227.7024
 21
-89.801928
 31
0.0
  0
LINE
  5
303
330
2FB
100
AcDbEntity
  8
LC-001-100-D00-0
 62
     7
370
    50
100
AcDbLine
 10
227.7024
 20
-89.801928
 30
0.0
 11
227.65591
 21
-89.849285
 31
0.0
  0
LINE
  5
304
330
2FB
100
AcDbEntity
  8
LC-001-100-D00-0
 62
     7
370
    50
100
AcDbLine
 10
227.65591
 20
-89.849285
 30
0.0
 11
227.65591
 21
-89.849285
 31
0.0
  0
LINE
  5
305
330
2FB
100
AcDbEntity
  8
LC-001-100-D00-0
 62
     7
370
    50
100
AcDbLine
 10
227.65591
 20
-89.849285
 30
0.0
 11
227.612374
 21
-89.893632
 31
0.0
  0
ENDBLK
  5
2FD
330
2FB
100
AcDbEntity
  8
0
100
AcDbBlockEnd
  0
BLOCK
  5
30F
330
30E
100
AcDbEntity
  8
0
100
AcDbBlockBegin
  2
POLY17
 70
     0
 71
     0
 10
0.0
 20
0.0
 30
0.0
  3
POLY17
  1

  4
POLY17
  0
LINE
  5
311
330
30E
100
AcDbEntity
  8
LC-001-100-D00-0
 62
     7
370
    50
100
AcDbLine
 10
67.728629
 20
-89.893632
 30
0.0
 11
67.728629
 21
-89.893632
 31
0.0
  0
LINE
  5
312
330
30E
100
AcDbEntity
  8
LC-001-100-D00-0
 62
     7
370
    50
100
AcDbLine
 10
67.728629
 20
-89.893632
 30
0.0
 11
67.713803
 21
-89.860129
 31
0.0
  0
LINE
  5
313
330
30E
100
AcDbEntity
  8
LC-001-100-D00-0
 62
     7
370
    50
100
AcDbLine
 10
67.713803
 20
-89.860129
 30
0.0
 11
67.713803
 21
-89.860129
 31
0.0
  0
LINE
  5
314
330
30E
100
AcDbEntity
  8
LC-001-100-D00-0
 62
     7
370
    50
100
AcDbLine
 10
67.713803
 20
-89.860129
 30
0.0
 11
67.68815
 21
-89.802161
 31
0.0
  0
LINE
  5
315
330
30E
100
AcDbEntity
  8
LC-001-100-D00-0
 62
     7
370
    50
100
AcDbLine
 10
67.68815
 20
-89.802161
 30
0.0
 11
67.68815
 21
-89.802161
 31
0.0
  0
LINE
  5
316
330
30E
100
AcDbEntity
  8
LC-001-100-D00-0
 62
     7
370
    50
100
AcDbLine
 10
67.68815
 20
-89.802161
 30
0.0
 11
67.694167
 21
-89.73948
 31
0.0
  0
LINE
  5
317
330
30E
100
AcDbEntity
  8
LC-001-100-D00-0
 62
     7
370
    50
100
AcDbLine
 10
67.694167
 20
-89.73948
 30
0.0
 11
67.694167
 21
-89.73948
 31
0.0
  0
LINE
  5
318
330
30E
100
AcDbEntity
  8
LC-001-100-D00-0
 62
     7
370
    50
100
AcDbLine
 10
67.694167
 20
-89.73948
 30
0.0
 11
67.696707
 21
-89.713025
 31
0.0
  0
ENDBLK
  5
310
330
30E
100
AcDbEntity
  8
0
100
AcDbBlockEnd
  0
BLOCK
  5
31B
330
31A
100
AcDbEntity
  8
0
100
AcDbBlockBegin
  2
POLY18
 70
     0
 71
     0
 10
0.0
 20
0.0
 30
0.0
  3
POLY18
  1

  4
POLY18
  0
LINE
  5
31D
330
31A
100
AcDbEntity
  8
LC-001-100-D00-0
 62
     7
370
    50
100
AcDbLine
 10
227.612374
 20
-89.893632
 30
0.0
 11
227.612374
 21
-89.893632
 31
0.0
  0
LINE
  5
31E
330
31A
100
AcDbEntity
  8
LC-001-100-D00-0
 62
     7
370
    50
100
AcDbLine
 10
227.612374
 20
-89.893632
 30
0.0
 11
227.627201
 21
-89.860129
 31
0.0
  0
LINE
  5
31F
330
31A
100
AcDbEntity
  8
LC-001-100-D00-0
 62
     7
370
    50
100
AcDbLine
 10
227.627201
 20
-89.860129
 30
0.0
 11
227.627201
 21
-89.860129
 31
0.0
  0
LINE
  5
320
330
31A
100
AcDbEntity
  8
LC-001-100-D00-0
 62
     7
370
    50
100
AcDbLine
 10
227.627201
 20
-89.860129
 30
0.0
 11
227.652856
 21
-89.802161
 31
0.0
  0
LINE
  5
321
330
31A
100
AcDbEntity
  8
LC-001-100-D00-0
 62
     7
370
    50
100
AcDbLine
 10
227.652856
 20
-89.802161
 30
0.0
 11
227.652856
 21
-89.802161
 31
0.0
  0
LINE
  5
322
330
31A
100
AcDbEntity
  8
LC-001-100-D00-0
 62
     7
370
    50
100
AcDbLine
 10
227.652856
 20
-89.802161
 30
0.0
 11
227.646834
 21
-89.73948
 31
0.0
  0
LINE
  5
323
330
31A
100
AcDbEntity
  8
LC-001-100-D00-0
 62
     7
370
    50
100
AcDbLine
 10
227.646834
 20
-89.73948
 30
0.0
 11
227.646834
 21
-89.73948
 31
0.0
  0
LINE
  5
324
330
31A
100
AcDbEntity
  8
LC-001-100-D00-0
 62
     7
370
    50
100
AcDbLine
 10
227.646834
 20
-89.73948
 30
0.0
 11
227.644293
 21
-89.713025
 31
0.0
  0
ENDBLK
  5
31C
330
31A
100
AcDbEntity
  8
0
100
AcDbBlockEnd
  0
BLOCK
  5
327
330
326
100
AcDbEntity
  8
0
100
AcDbBlockBegin
  2
POLY19
 70
     0
 71
     0
 10
0.0
 20
0.0
 30
0.0
  3
POLY19
  1

  4
POLY19
  0
LINE
  5
329
330
326
100
AcDbEntity
  8
LC-001-100-D00-0
 62
     7
370
    50
100
AcDbLine
 10
227.640977
 20
-49.713024
 30
0.0
 11
227.640977
 21
-49.713024
 31
0.0
  0
LINE
  5
32A
330
326
100
AcDbEntity
  8
LC-001-100-D00-0
 62
     7
370
    50
100
AcDbLine
 10
227.640977
 20
-49.713024
 30
0.0
 11
227.644692
 21
-49.695993
 31
0.0
  0
LINE
  5
32B
330
326
100
AcDbEntity
  8
LC-001-100-D00-0
 62
     7
370
    50
100
AcDbLine
 10
227.644692
 20
-49.695993
 30
0.0
 11
227.644692
 21
-49.695993
 31
0.0
  0
LINE
  5
32C
330
326
100
AcDbEntity
  8
LC-001-100-D00-0
 62
     7
370
    50
100
AcDbLine
 10
227.644692
 20
-49.695993
 30
0.0
 11
227.655044
 21
-49.648529
 31
0.0
  0
LINE
  5
32D
330
326
100
AcDbEntity
  8
LC-001-100-D00-0
 62
     7
370
    50
100
AcDbLine
 10
227.655044
 20
-49.648529
 30
0.0
 11
227.655044
 21
-49.648529
 31
0.0
  0
LINE
  5
32E
330
326
100
AcDbEntity
  8
LC-001-100-D00-0
 62
     7
370
    50
100
AcDbLine
 10
227.655044
 20
-49.648529
 30
0.0
 11
227.636261
 21
-49.586249
 31
0.0
  0
LINE
  5
32F
330
326
100
AcDbEntity
  8
LC-001-100-D00-0
 62
     7
370
    50
100
AcDbLine
 10
227.636261
 20
-49.586249
 30
0.0
 11
227.636261
 21
-49.586249
 31
0.0
  0
LINE
  5
330
330
326
100
AcDbEntity
  8
LC-001-100-D00-0
 62
     7
370
    50
100
AcDbLine
 10
227.636261
 20
-49.586249
 30
0.0
 11
227.618089
 21
-49.545297
 31
0.0
  0
LINE
  5
331
330
326
100
AcDbEntity
  8
LC-001-100-D00-0
 62
     7
370
    50
100
AcDbLine
 10
227.618089
 20
-49.545297
 30
0.0
 11
227.618089
 21
-49.545297
 31
0.0
  0
LINE
  5
332
330
326
100
AcDbEntity
  8
LC-001-100-D00-0
 62
     7
370
    50
100
AcDbLine
 10
227.618089
 20
-49.545297
 30
0.0
 11
227.612374
 21
-49.532418
 31
0.0
  0
ENDBLK
  5
328
330
326
100
AcDbEntity
  8
0
100
AcDbBlockEnd
  0
BLOCK
  5
335
330
334
100
AcDbEntity
  8
0
100
AcDbBlockBegin
  2
POLY20
 70
     0
 71
     0
 10
0.0
 20
0.0
 30
0.0
  3
POLY20
  1

  4
POLY20
  0
LINE
  5
337
330
334
100
AcDbEntity
  8
LC-001-100-D00-0
 62
     7
370
    50
100
AcDbLine
 10
67.70003
 20
-49.713024
 30
0.0
 11
67.70003
 21
-49.713024
 31
0.0
  0
LINE
  5
338
330
334
100
AcDbEntity
  8
LC-001-100-D00-0
 62
     7
370
    50
100
AcDbLine
 10
67.70003
 20
-49.713024
 30
0.0
 11
67.696314
 21
-49.695993
 31
0.0
  0
LINE
  5
339
330
334
100
AcDbEntity
  8
LC-001-100-D00-0
 62
     7
370
    50
100
AcDbLine
 10
67.696314
 20
-49.695993
 30
0.0
 11
67.696314
 21
-49.695993
 31
0.0
  0
LINE
  5
33A
330
334
100
AcDbEntity
  8
LC-001-100-D00-0
 62
     7
370
    50
100
AcDbLine
 10
67.696314
 20
-49.695993
 30
0.0
 11
67.685959
 21
-49.64853
 31
0.0
  0
LINE
  5
33B
330
334
100
AcDbEntity
  8
LC-001-100-D00-0
 62
     7
370
    50
100
AcDbLine
 10
67.685959
 20
-49.64853
 30
0.0
 11
67.685959
 21
-49.64853
 31
0.0
  0
LINE
  5
33C
330
334
100
AcDbEntity
  8
LC-001-100-D00-0
 62
     7
370
    50
100
AcDbLine
 10
67.685959
 20
-49.64853
 30
0.0
 11
67.704737
 21
-49.586247
 31
0.0
  0
LINE
  5
33D
330
334
100
AcDbEntity
  8
LC-001-100-D00-0
 62
     7
370
    50
100
AcDbLine
 10
67.704737
 20
-49.586247
 30
0.0
 11
67.704737
 21
-49.586247
 31
0.0
  0
LINE
  5
33E
330
334
100
AcDbEntity
  8
LC-001-100-D00-0
 62
     7
370
    50
100
AcDbLine
 10
67.704737
 20
-49.586247
 30
0.0
 11
67.722913
 21
-49.545297
 31
0.0
  0
LINE
  5
33F
330
334
100
AcDbEntity
  8
LC-001-100-D00-0
 62
     7
370
    50
100
AcDbLine
 10
67.722913
 20
-49.545297
 30
0.0
 11
67.722913
 21
-49.545297
 31
0.0
  0
LINE
  5
340
330
334
100
AcDbEntity
  8
LC-001-100-D00-0
 62
     7
370
    50
100
AcDbLine
 10
67.722913
 20
-49.545297
 30
0.0
 11
67.728629
 21
-49.532418
 31
0.0
  0
ENDBLK
  5
336
330
334
100
AcDbEntity
  8
0
100
AcDbBlockEnd
  0
BLOCK
  5
45E
330
45D
100
AcDbEntity
  8
0
100
AcDbBlockBegin
  2
POLY21
 70
     0
 71
     0
 10
0.0
 20
0.0
 30
0.0
  3
POLY21
  1

  4
POLY21
  0
LINE
  5
460
330
45D
100
AcDbEntity
  8
LC-001-100-D00-0
 62
     7
370
    50
100
AcDbLine
 10
227.871803
 20
217.107302
 30
0.0
 11
227.871803
 21
217.107302
 31
0.0
  0
LINE
  5
461
330
45D
100
AcDbEntity
  8
LC-001-100-D00-0
 62
     7
370
    50
100
AcDbLine
 10
227.871803
 20
217.107302
 30
0.0
 11
230.020941
 21
217.190618
 31
0.0
  0
LINE
  5
462
330
45D
100
AcDbEntity
  8
LC-001-100-D00-0
 62
     7
370
    50
100
AcDbLine
 10
230.020941
 20
217.190618
 30
0.0
 11
235.799777
 21
217.414646
 31
0.0
  0
LINE
  5
463
330
45D
100
AcDbEntity
  8
LC-001-100-D00-0
 62
     7
370
    50
100
AcDbLine
 10
235.799777
 20
217.414646
 30
0.0
 11
240.037145
 21
217.578917
 31
0.0
  0
LINE
  5
464
330
45D
100
AcDbEntity
  8
LC-001-100-D00-0
 62
     7
370
    50
100
AcDbLine
 10
240.037145
 20
217.578917
 30
0.0
 11
244.408455
 21
217.74838
 31
0.0
  0
LINE
  5
465
330
45D
100
AcDbEntity
  8
LC-001-100-D00-0
 62
     7
370
    50
100
AcDbLine
 10
244.408455
 20
217.74838
 30
0.0
 11
250.053397
 21
217.967218
 31
0.0
  0
LINE
  5
466
330
45D
100
AcDbEntity
  8
LC-001-100-D00-0
 62
     7
370
    50
100
AcDbLine
 10
250.053397
 20
217.967218
 30
0.0
 11
250.053397
 21
217.967218
 31
0.0
  0
LINE
  5
467
330
45D
100
AcDbEntity
  8
LC-001-100-D00-0
 62
     7
370
    50
100
AcDbLine
 10
250.053397
 20
217.967218
 30
0.0
 11
257.920502
 21
218.272203
 31
0.0
  0
ENDBLK
  5
45F
330
45D
100
AcDbEntity
  8
0
100
AcDbBlockEnd
  0
BLOCK
  5
46A
330
469
100
AcDbEntity
  8
0
100
AcDbBlockBegin
  2
POLY22
 70
     0
 71
     0
 10
0.0
 20
0.0
 30
0.0
  3
POLY22
  1

  4
POLY22
  0
LINE
  5
46C
330
469
100
AcDbEntity
  8
LC-001-100-D00-0
 62
     7
370
    50
100
AcDbLine
 10
67.4692
 20
217.107302
 30
0.0
 11
67.4692
 21
217.107302
 31
0.0
  0
LINE
  5
46D
330
469
100
AcDbEntity
  8
LC-001-100-D00-0
 62
     7
370
    50
100
AcDbLine
 10
67.4692
 20
217.107302
 30
0.0
 11
65.320063
 21
217.190618
 31
0.0
  0
LINE
  5
46E
330
469
100
AcDbEntity
  8
LC-001-100-D00-0
 62
     7
370
    50
100
AcDbLine
 10
65.320063
 20
217.190618
 30
0.0
 11
59.541227
 21
217.414646
 31
0.0
  0
LINE
  5
46F
330
469
100
AcDbEntity
  8
LC-001-100-D00-0
 62
     7
370
    50
100
AcDbLine
 10
59.541227
 20
217.414646
 30
0.0
 11
55.303858
 21
217.578917
 31
0.0
  0
LINE
  5
470
330
469
100
AcDbEntity
  8
LC-001-100-D00-0
 62
     7
370
    50
100
AcDbLine
 10
55.303858
 20
217.578917
 30
0.0
 11
50.932548
 21
217.74838
 31
0.0
  0
LINE
  5
471
330
469
100
AcDbEntity
  8
LC-001-100-D00-0
 62
     7
370
    50
100
AcDbLine
 10
50.932548
 20
217.74838
 30
0.0
 11
45.287606
 21
217.967218
 31
0.0
  0
LINE
  5
472
330
469
100
AcDbEntity
  8
LC-001-100-D00-0
 62
     7
370
    50
100
AcDbLine
 10
45.287606
 20
217.967218
 30
0.0
 11
45.287606
 21
217.967218
 31
0.0
  0
LINE
  5
473
330
469
100
AcDbEntity
  8
LC-001-100-D00-0
 62
     7
370
    50
100
AcDbLine
 10
45.287606
 20
217.967218
 30
0.0
 11
37.420502
 21
218.272203
 31
0.0
  0
ENDBLK
  5
46B
330
469
100
AcDbEntity
  8
0
100
AcDbBlockEnd
  0
BLOCK
  5
476
330
475
100
AcDbEntity
  8
0
100
AcDbBlockBegin
  2
POLY23
 70
     0
 71
     0
 10
0.0
 20
0.0
 30
0.0
  3
POLY23
  1

  4
POLY23
  0
LINE
  5
478
330
475
100
AcDbEntity
  8
LC-001-100-D00-0
 62
     7
370
    50
100
AcDbLine
 10
17.920502
 20
219.028162
 30
0.0
 11
17.920502
 21
219.028162
 31
0.0
  0
LINE
  5
479
330
475
100
AcDbEntity
  8
LC-001-100-D00-0
 62
     7
370
    50
100
AcDbLine
 10
17.920502
 20
219.028162
 30
0.0
 11
12.399839
 21
219.242182
 31
0.0
  0
LINE
  5
47A
330
475
100
AcDbEntity
  8
LC-001-100-D00-0
 62
     7
370
    50
100
AcDbLine
 10
12.399839
 20
219.242182
 30
0.0
 11
12.399839
 21
219.242182
 31
0.0
  0
LINE
  5
47B
330
475
100
AcDbEntity
  8
LC-001-100-D00-0
 62
     7
370
    50
100
AcDbLine
 10
12.399839
 20
219.242182
 30
0.0
 11
5.931556
 21
219.492939
 31
0.0
  0
LINE
  5
47C
330
475
100
AcDbEntity
  8
LC-001-100-D00-0
 62
     7
370
    50
100
AcDbLine
 10
5.931556
 20
219.492939
 30
0.0
 11
5.931556
 21
219.492939
 31
0.0
  0
LINE
  5
47D
330
475
100
AcDbEntity
  8
LC-001-100-D00-0
 62
     7
370
    50
100
AcDbLine
 10
5.931556
 20
219.492939
 30
0.0
 11
-0.536816
 21
219.743699
 31
0.0
  0
LINE
  5
47E
330
475
100
AcDbEntity
  8
LC-001-100-D00-0
 62
     7
370
    50
100
AcDbLine
 10
-0.536816
 20
219.743699
 30
0.0
 11
-0.536816
 21
219.743699
 31
0.0
  0
LINE
  5
47F
330
475
100
AcDbEntity
  8
LC-001-100-D00-0
 62
     7
370
    50
100
AcDbLine
 10
-0.536816
 20
219.743699
 30
0.0
 11
-1.48445
 21
219.780436
 31
0.0
  0
ENDBLK
  5
477
330
475
100
AcDbEntity
  8
0
100
AcDbBlockEnd
  0
BLOCK
  5
482
330
481
100
AcDbEntity
  8
0
100
AcDbBlockBegin
  2
POLY24
 70
     0
 71
     0
 10
0.0
 20
0.0
 30
0.0
  3
POLY24
  1

  4
POLY24
  0
LINE
  5
484
330
481
100
AcDbEntity
  8
LC-001-100-D00-0
 62
     7
370
    50
100
AcDbLine
 10
277.420502
 20
219.028162
 30
0.0
 11
277.420502
 21
219.028162
 31
0.0
  0
LINE
  5
485
330
481
100
AcDbEntity
  8
LC-001-100-D00-0
 62
     7
370
    50
100
AcDbLine
 10
277.420502
 20
219.028162
 30
0.0
 11
282.941164
 21
219.242182
 31
0.0
  0
LINE
  5
486
330
481
100
AcDbEntity
  8
LC-001-100-D00-0
 62
     7
370
    50
100
AcDbLine
 10
282.941164
 20
219.242182
 30
0.0
 11
282.941164
 21
219.242182
 31
0.0
  0
LINE
  5
487
330
481
100
AcDbEntity
  8
LC-001-100-D00-0
 62
     7
370
    50
100
AcDbLine
 10
282.941164
 20
219.242182
 30
0.0
 11
289.409448
 21
219.492939
 31
0.0
  0
LINE
  5
488
330
481
100
AcDbEntity
  8
LC-001-100-D00-0
 62
     7
370
    50
100
AcDbLine
 10
289.409448
 20
219.492939
 30
0.0
 11
289.409448
 21
219.492939
 31
0.0
  0
LINE
  5
489
330
481
100
AcDbEntity
  8
LC-001-100-D00-0
 62
     7
370
    50
100
AcDbLine
 10
289.409448
 20
219.492939
 30
0.0
 11
295.877819
 21
219.743699
 31
0.0
  0
LINE
  5
48A
330
481
100
AcDbEntity
  8
LC-001-100-D00-0
 62
     7
370
    50
100
AcDbLine
 10
295.877819
 20
219.743699
 30
0.0
 11
295.877819
 21
219.743699
 31
0.0
  0
LINE
  5
48B
330
481
100
AcDbEntity
  8
LC-001-100-D00-0
 62
     7
370
    50
100
AcDbLine
 10
295.877819
 20
219.743699
 30
0.0
 11
296.825454
 21
219.780436
 31
0.0
  0
ENDBLK
  5
483
330
481
100
AcDbEntity
  8
0
100
AcDbBlockEnd
  0
BLOCK
  5
49F
330
49E
100
AcDbEntity
  8
0
100
AcDbBlockBegin
  2
POLY25
 70
     0
 71
     0
 10
0.0
 20
0.0
 30
0.0
  3
POLY25
  1

  4
POLY25
  0
LINE
  5
4A1
330
49E
100
AcDbEntity
  8
LC-001-100-D00-0
 62
     7
370
    50
100
AcDbLine
 10
218.170502
 20
205.599498
 30
0.0
 11
218.170502
 21
205.599498
 31
0.0
  0
LINE
  5
4A2
330
49E
100
AcDbEntity
  8
LC-001-100-D00-0
 62
     7
370
    50
100
AcDbLine
 10
218.170502
 20
205.599498
 30
0.0
 11
218.142164
 21
205.549785
 31
0.0
  0
LINE
  5
4A3
330
49E
100
AcDbEntity
  8
LC-001-100-D00-0
 62
     7
370
    50
100
AcDbLine
 10
218.142164
 20
205.549785
 30
0.0
 11
218.142164
 21
205.549785
 31
0.0
  0
LINE
  5
4A4
330
49E
100
AcDbEntity
  8
LC-001-100-D00-0
 62
     7
370
    50
100
AcDbLine
 10
218.142164
 20
205.549785
 30
0.0
 11
218.084636
 21
205.44886
 31
0.0
  0
LINE
  5
4A5
330
49E
100
AcDbEntity
  8
LC-001-100-D00-0
 62
     7
370
    50
100
AcDbLine
 10
218.084636
 20
205.44886
 30
0.0
 11
218.084636
 21
205.44886
 31
0.0
  0
LINE
  5
4A6
330
49E
100
AcDbEntity
  8
LC-001-100-D00-0
 62
     7
370
    50
100
AcDbLine
 10
218.084636
 20
205.44886
 30
0.0
 11
217.629094
 21
204.637856
 31
0.0
  0
LINE
  5
4A7
330
49E
100
AcDbEntity
  8
LC-001-100-D00-0
 62
     7
370
    50
100
AcDbLine
 10
217.629094
 20
204.637856
 30
0.0
 11
217.629094
 21
204.637856
 31
0.0
  0
LINE
  5
4A8
330
49E
100
AcDbEntity
  8
LC-001-100-D00-0
 62
     7
370
    50
100
AcDbLine
 10
217.629094
 20
204.637856
 30
0.0
 11
216.935079
 21
203.359832
 31
0.0
  0
LINE
  5
4A9
330
49E
100
AcDbEntity
  8
LC-001-100-D00-0
 62
     7
370
    50
100
AcDbLine
 10
216.935079
 20
203.359832
 30
0.0
 11
216.935079
 21
203.359832
 31
0.0
  0
LINE
  5
4AA
330
49E
100
AcDbEntity
  8
LC-001-100-D00-0
 62
     7
370
    50
100
AcDbLine
 10
216.935079
 20
203.359832
 30
0.0
 11
216.021628
 21
201.588056
 31
0.0
  0
LINE
  5
4AB
330
49E
100
AcDbEntity
  8
LC-001-100-D00-0
 62
     7
370
    50
100
AcDbLine
 10
216.021628
 20
201.588056
 30
0.0
 11
216.021628
 21
201.588056
 31
0.0
  0
LINE
  5
4AC
330
49E
100
AcDbEntity
  8
LC-001-100-D00-0
 62
     7
370
    50
100
AcDbLine
 10
216.021628
 20
201.588056
 30
0.0
 11
214.946613
 21
199.330125
 31
0.0
  0
LINE
  5
4AD
330
49E
100
AcDbEntity
  8
LC-001-100-D00-0
 62
     7
370
    50
100
AcDbLine
 10
214.946613
 20
199.330125
 30
0.0
 11
214.946613
 21
199.330125
 31
0.0
  0
LINE
  5
4AE
330
49E
100
AcDbEntity
  8
LC-001-100-D00-0
 62
     7
370
    50
100
AcDbLine
 10
214.946613
 20
199.330125
 30
0.0
 11
213.768365
 21
196.542286
 31
0.0
  0
LINE
  5
4AF
330
49E
100
AcDbEntity
  8
LC-001-100-D00-0
 62
     7
370
    50
100
AcDbLine
 10
213.768365
 20
196.542286
 30
0.0
 11
213.768365
 21
196.542286
 31
0.0
  0
LINE
  5
4B0
330
49E
100
AcDbEntity
  8
LC-001-100-D00-0
 62
     7
370
    50
100
AcDbLine
 10
213.768365
 20
196.542286
 30
0.0
 11
212.600228
 21
193.219969
 31
0.0
  0
LINE
  5
4B1
330
49E
100
AcDbEntity
  8
LC-001-100-D00-0
 62
     7
370
    50
100
AcDbLine
 10
212.600228
 20
193.219969
 30
0.0
 11
212.600228
 21
193.219969
 31
0.0
  0
LINE
  5
4B2
330
49E
100
AcDbEntity
  8
LC-001-100-D00-0
 62
     7
370
    50
100
AcDbLine
 10
212.600228
 20
193.219969
 30
0.0
 11
211.692788
 21
189.69601
 31
0.0
  0
LINE
  5
4B3
330
49E
100
AcDbEntity
  8
LC-001-100-D00-0
 62
     7
370
    50
100
AcDbLine
 10
211.692788
 20
189.69601
 30
0.0
 11
211.692788
 21
189.69601
 31
0.0
  0
LINE
  5
4B4
330
49E
100
AcDbEntity
  8
LC-001-100-D00-0
 62
     7
370
    50
100
AcDbLine
 10
211.692788
 20
189.69601
 30
0.0
 11
211.14676
 21
186.191754
 31
0.0
  0
LINE
  5
4B5
330
49E
100
AcDbEntity
  8
LC-001-100-D00-0
 62
     7
370
    50
100
AcDbLine
 10
211.14676
 20
186.191754
 30
0.0
 11
211.14676
 21
186.191754
 31
0.0
  0
LINE
  5
4B6
330
49E
100
AcDbEntity
  8
LC-001-100-D00-0
 62
     7
370
    50
100
AcDbLine
 10
211.14676
 20
186.191754
 30
0.0
 11
210.952154
 21
182.909737
 31
0.0
  0
LINE
  5
4B7
330
49E
100
AcDbEntity
  8
LC-001-100-D00-0
 62
     7
370
    50
100
AcDbLine
 10
210.952154
 20
182.909737
 30
0.0
 11
210.952154
 21
182.909737
 31
0.0
  0
LINE
  5
4B8
330
49E
100
AcDbEntity
  8
LC-001-100-D00-0
 62
     7
370
    50
100
AcDbLine
 10
210.952154
 20
182.909737
 30
0.0
 11
211.088498
 21
179.586858
 31
0.0
  0
LINE
  5
4B9
330
49E
100
AcDbEntity
  8
LC-001-100-D00-0
 62
     7
370
    50
100
AcDbLine
 10
211.088498
 20
179.586858
 30
0.0
 11
211.088498
 21
179.586858
 31
0.0
  0
LINE
  5
4BA
330
49E
100
AcDbEntity
  8
LC-001-100-D00-0
 62
     7
370
    50
100
AcDbLine
 10
211.088498
 20
179.586858
 30
0.0
 11
211.533176
 21
176.386477
 31
0.0
  0
LINE
  5
4BB
330
49E
100
AcDbEntity
  8
LC-001-100-D00-0
 62
     7
370
    50
100
AcDbLine
 10
211.533176
 20
176.386477
 30
0.0
 11
211.533176
 21
176.386477
 31
0.0
  0
LINE
  5
4BC
330
49E
100
AcDbEntity
  8
LC-001-100-D00-0
 62
     7
370
    50
100
AcDbLine
 10
211.533176
 20
176.386477
 30
0.0
 11
212.230465
 21
173.33779
 31
0.0
  0
LINE
  5
4BD
330
49E
100
AcDbEntity
  8
LC-001-100-D00-0
 62
     7
370
    50
100
AcDbLine
 10
212.230465
 20
173.33779
 30
0.0
 11
212.230465
 21
173.33779
 31
0.0
  0
LINE
  5
4BE
330
49E
100
AcDbEntity
  8
LC-001-100-D00-0
 62
     7
370
    50
100
AcDbLine
 10
212.230465
 20
173.33779
 30
0.0
 11
212.816616
 21
171.429524
 31
0.0
  0
LINE
  5
4BF
330
49E
100
AcDbEntity
  8
LC-001-100-D00-0
 62
     7
370
    50
100
AcDbLine
 10
212.816616
 20
171.429524
 30
0.0
 11
212.816616
 21
171.429524
 31
0.0
  0
LINE
  5
4C0
330
49E
100
AcDbEntity
  8
LC-001-100-D00-0
 62
     7
370
    50
100
AcDbLine
 10
212.816616
 20
171.429524
 30
0.0
 11
213.135048
 21
170.496475
 31
0.0
  0
LINE
  5
4C1
330
49E
100
AcDbEntity
  8
LC-001-100-D00-0
 62
     7
370
    50
100
AcDbLine
 10
213.135048
 20
170.496475
 30
0.0
 11
213.135048
 21
170.496475
 31
0.0
  0
LINE
  5
4C2
330
49E
100
AcDbEntity
  8
LC-001-100-D00-0
 62
     7
370
    50
100
AcDbLine
 10
213.135048
 20
170.496475
 30
0.0
 11
213.145793
 21
170.464991
 31
0.0
  0
ENDBLK
  5
4A0
330
49E
100
AcDbEntity
  8
0
100
AcDbBlockEnd
  0
BLOCK
  5
4C5
330
4C4
100
AcDbEntity
  8
0
100
AcDbBlockBegin
  2
POLY26
 70
     0
 71
     0
 10
0.0
 20
0.0
 30
0.0
  3
POLY26
  1

  4
POLY26
  0
LINE
  5
4C7
330
4C4
100
AcDbEntity
  8
LC-001-100-D00-0
 62
     7
370
    50
100
AcDbLine
 10
213.145793
 20
170.464991
 30
0.0
 11
213.145793
 21
170.464991
 31
0.0
  0
LINE
  5
4C8
330
4C4
100
AcDbEntity
  8
LC-001-100-D00-0
 62
     7
370
    50
100
AcDbLine
 10
213.145793
 20
170.464991
 30
0.0
 11
213.742461
 21
169.538735
 31
0.0
  0
LINE
  5
4C9
330
4C4
100
AcDbEntity
  8
LC-001-100-D00-0
 62
     7
370
    50
100
AcDbLine
 10
213.742461
 20
169.538735
 30
0.0
 11
213.742461
 21
169.538735
 31
0.0
  0
LINE
  5
4CA
330
4C4
100
AcDbEntity
  8
LC-001-100-D00-0
 62
     7
370
    50
100
AcDbLine
 10
213.742461
 20
169.538735
 30
0.0
 11
214.947374
 21
167.668253
 31
0.0
  0
LINE
  5
4CB
330
4C4
100
AcDbEntity
  8
LC-001-100-D00-0
 62
     7
370
    50
100
AcDbLine
 10
214.947374
 20
167.668253
 30
0.0
 11
214.947374
 21
167.668253
 31
0.0
  0
LINE
  5
4CC
330
4C4
100
AcDbEntity
  8
LC-001-100-D00-0
 62
     7
370
    50
100
AcDbLine
 10
214.947374
 20
167.668253
 30
0.0
 11
216.295249
 21
165.648659
 31
0.0
  0
LINE
  5
4CD
330
4C4
100
AcDbEntity
  8
LC-001-100-D00-0
 62
     7
370
    50
100
AcDbLine
 10
216.295249
 20
165.648659
 30
0.0
 11
216.295249
 21
165.648659
 31
0.0
  0
LINE
  5
4CE
330
4C4
100
AcDbEntity
  8
LC-001-100-D00-0
 62
     7
370
    50
100
AcDbLine
 10
216.295249
 20
165.648659
 30
0.0
 11
217.599517
 21
163.784947
 31
0.0
  0
LINE
  5
4CF
330
4C4
100
AcDbEntity
  8
LC-001-100-D00-0
 62
     7
370
    50
100
AcDbLine
 10
217.599517
 20
163.784947
 30
0.0
 11
217.599517
 21
163.784947
 31
0.0
  0
LINE
  5
4D0
330
4C4
100
AcDbEntity
  8
LC-001-100-D00-0
 62
     7
370
    50
100
AcDbLine
 10
217.599517
 20
163.784947
 30
0.0
 11
218.831351
 21
162.113501
 31
0.0
  0
LINE
  5
4D1
330
4C4
100
AcDbEntity
  8
LC-001-100-D00-0
 62
     7
370
    50
100
AcDbLine
 10
218.831351
 20
162.113501
 30
0.0
 11
218.831351
 21
162.113501
 31
0.0
  0
LINE
  5
4D2
330
4C4
100
AcDbEntity
  8
LC-001-100-D00-0
 62
     7
370
    50
100
AcDbLine
 10
218.831351
 20
162.113501
 30
0.0
 11
219.922122
 21
160.755222
 31
0.0
  0
LINE
  5
4D3
330
4C4
100
AcDbEntity
  8
LC-001-100-D00-0
 62
     7
370
    50
100
AcDbLine
 10
219.922122
 20
160.755222
 30
0.0
 11
219.922122
 21
160.755222
 31
0.0
  0
LINE
  5
4D4
330
4C4
100
AcDbEntity
  8
LC-001-100-D00-0
 62
     7
370
    50
100
AcDbLine
 10
219.922122
 20
160.755222
 30
0.0
 11
220.629451
 21
159.973416
 31
0.0
  0
LINE
  5
4D5
330
4C4
100
AcDbEntity
  8
LC-001-100-D00-0
 62
     7
370
    50
100
AcDbLine
 10
220.629451
 20
159.973416
 30
0.0
 11
220.629451
 21
159.973416
 31
0.0
  0
LINE
  5
4D6
330
4C4
100
AcDbEntity
  8
LC-001-100-D00-0
 62
     7
370
    50
100
AcDbLine
 10
220.629451
 20
159.973416
 30
0.0
 11
220.976673
 21
159.668657
 31
0.0
  0
LINE
  5
4D7
330
4C4
100
AcDbEntity
  8
LC-001-100-D00-0
 62
     7
370
    50
100
AcDbLine
 10
220.976673
 20
159.668657
 30
0.0
 11
220.976673
 21
159.668657
 31
0.0
  0
LINE
  5
4D8
330
4C4
100
AcDbEntity
  8
LC-001-100-D00-0
 62
     7
370
    50
100
AcDbLine
 10
220.976673
 20
159.668657
 30
0.0
 11
221.11099
 21
159.607724
 31
0.0
  0
LINE
  5
4D9
330
4C4
100
AcDbEntity
  8
LC-001-100-D00-0
 62
     7
370
    50
100
AcDbLine
 10
221.11099
 20
159.607724
 30
0.0
 11
221.11099
 21
159.607724
 31
0.0
  0
LINE
  5
4DA
330
4C4
100
AcDbEntity
  8
LC-001-100-D00-0
 62
     7
370
    50
100
AcDbLine
 10
221.11099
 20
159.607724
 30
0.0
 11
221.148075
 21
159.601478
 31
0.0
  0
LINE
  5
4DB
330
4C4
100
AcDbEntity
  8
LC-001-100-D00-0
 62
     7
370
    50
100
AcDbLine
 10
221.148075
 20
159.601478
 30
0.0
 11
221.148075
 21
159.601478
 31
0.0
  0
LINE
  5
4DC
330
4C4
100
AcDbEntity
  8
LC-001-100-D00-0
 62
     7
370
    50
100
AcDbLine
 10
221.148075
 20
159.601478
 30
0.0
 11
221.148667
 21
159.601379
 31
0.0
  0
LINE
  5
4DD
330
4C4
100
AcDbEntity
  8
LC-001-100-D00-0
 62
     7
370
    50
100
AcDbLine
 10
221.148667
 20
159.601379
 30
0.0
 11
221.148667
 21
159.601379
 31
0.0
  0
LINE
  5
4DE
330
4C4
100
AcDbEntity
  8
LC-001-100-D00-0
 62
     7
370
    50
100
AcDbLine
 10
221.148667
 20
159.601379
 30
0.0
 11
221.151024
 21
159.600998
 31
0.0
  0
LINE
  5
4DF
330
4C4
100
AcDbEntity
  8
LC-001-100-D00-0
 62
     7
370
    50
100
AcDbLine
 10
221.151024
 20
159.600998
 30
0.0
 11
221.151024
 21
159.600998
 31
0.0
  0
LINE
  5
4E0
330
4C4
100
AcDbEntity
  8
LC-001-100-D00-0
 62
     7
370
    50
100
AcDbLine
 10
221.151024
 20
159.600998
 30
0.0
 11
221.157682
 21
159.60007
 31
0.0
  0
LINE
  5
4E1
330
4C4
100
AcDbEntity
  8
LC-001-100-D00-0
 62
     7
370
    50
100
AcDbLine
 10
221.157682
 20
159.60007
 30
0.0
 11
221.157682
 21
159.60007
 31
0.0
  0
LINE
  5
4E2
330
4C4
100
AcDbEntity
  8
LC-001-100-D00-0
 62
     7
370
    50
100
AcDbLine
 10
221.157682
 20
159.60007
 30
0.0
 11
221.164596
 21
159.599542
 31
0.0
  0
LINE
  5
4E3
330
4C4
100
AcDbEntity
  8
LC-001-100-D00-0
 62
     7
370
    50
100
AcDbLine
 10
221.164596
 20
159.599542
 30
0.0
 11
221.164596
 21
159.599542
 31
0.0
  0
LINE
  5
4E4
330
4C4
100
AcDbEntity
  8
LC-001-100-D00-0
 62
     7
370
    50
100
AcDbLine
 10
221.164596
 20
159.599542
 30
0.0
 11
221.169595
 21
159.599505
 31
0.0
  0
LINE
  5
4E5
330
4C4
100
AcDbEntity
  8
LC-001-100-D00-0
 62
     7
370
    50
100
AcDbLine
 10
221.169595
 20
159.599505
 30
0.0
 11
221.169595
 21
159.599505
 31
0.0
  0
LINE
  5
4E6
330
4C4
100
AcDbEntity
  8
LC-001-100-D00-0
 62
     7
370
    50
100
AcDbLine
 10
221.169595
 20
159.599505
 30
0.0
 11
221.170502
 21
159.599498
 31
0.0
  0
ENDBLK
  5
4C6
330
4C4
100
AcDbEntity
  8
0
100
AcDbBlockEnd
  0
BLOCK
  5
4ED
330
4EC
100
AcDbEntity
  8
0
100
AcDbBlockBegin
  2
POLY27
 70
     0
 71
     0
 10
0.0
 20
0.0
 30
0.0
  3
POLY27
  1

  4
POLY27
  0
LINE
  5
4EF
330
4EC
100
AcDbEntity
  8
LC-001-100-D00-0
 62
     7
370
    50
100
AcDbLine
 10
212.487955
 20
169.099498
 30
0.0
 11
212.487955
 21
169.099498
 31
0.0
  0
LINE
  5
4F0
330
4EC
100
AcDbEntity
  8
LC-001-100-D00-0
 62
     7
370
    50
100
AcDbLine
 10
212.487955
 20
169.099498
 30
0.0
 11
212.490214
 21
169.104257
 31
0.0
  0
LINE
  5
4F1
330
4EC
100
AcDbEntity
  8
LC-001-100-D00-0
 62
     7
370
    50
100
AcDbLine
 10
212.490214
 20
169.104257
 30
0.0
 11
212.490214
 21
169.104257
 31
0.0
  0
LINE
  5
4F2
330
4EC
100
AcDbEntity
  8
LC-001-100-D00-0
 62
     7
370
    50
100
AcDbLine
 10
212.490214
 20
169.104257
 30
0.0
 11
212.710707
 21
169.568708
 31
0.0
  0
LINE
  5
4F3
330
4EC
100
AcDbEntity
  8
LC-001-100-D00-0
 62
     7
370
    50
100
AcDbLine
 10
212.710707
 20
169.568708
 30
0.0
 11
212.710707
 21
169.568708
 31
0.0
  0
LINE
  5
4F4
330
4EC
100
AcDbEntity
  8
LC-001-100-D00-0
 62
     7
370
    50
100
AcDbLine
 10
212.710707
 20
169.568708
 30
0.0
 11
212.92937
 21
170.019157
 31
0.0
  0
LINE
  5
4F5
330
4EC
100
AcDbEntity
  8
LC-001-100-D00-0
 62
     7
370
    50
100
AcDbLine
 10
212.92937
 20
170.019157
 30
0.0
 11
212.92937
 21
170.019157
 31
0.0
  0
LINE
  5
4F6
330
4EC
100
AcDbEntity
  8
LC-001-100-D00-0
 62
     7
370
    50
100
AcDbLine
 10
212.92937
 20
170.019157
 30
0.0
 11
213.145793
 21
170.464991
 31
0.0
  0
ENDBLK
  5
4EE
330
4EC
100
AcDbEntity
  8
0
100
AcDbBlockEnd
  0
BLOCK
  5
53B
330
53A
100
AcDbEntity
  8
0
100
AcDbBlockBegin
  2
KLON1
 70
     0
 71
     0
 10
0.0
 20
0.0
 30
0.0
  3
KLON1
  1

  4
KLON1
  0
LINE
  5
53D
330
53A
100
AcDbEntity
  8
LC-001-100-D00-0
 62
     7
370
    25
100
AcDbLine
 10
223.29124
 20
205.599498
 30
0.0
 11
226.29124
 21
208.599498
 31
0.0
  0
LINE
  5
53E
330
53A
100
AcDbEntity
  8
LC-001-100-D00-0
 62
     7
370
    25
100
AcDbLine
 10
232.271496
 20
205.599498
 30
0.0
 11
239.649181
 21
212.977183
 31
0.0
  0
LINE
  5
53F
330
53A
100
AcDbEntity
  8
LC-001-100-D00-0
 62
     7
370
    25
100
AcDbLine
 10
241.251752
 20
205.599498
 30
0.0
 11
247.776069
 21
212.123814
 31
0.0
  0
LINE
  5
540
330
53A
100
AcDbEntity
  8
LC-001-100-D00-0
 62
     7
370
    25
100
AcDbLine
 10
250.232008
 20
205.599498
 30
0.0
 11
256.320809
 21
211.688298
 31
0.0
  0
LINE
  5
541
330
53A
100
AcDbEntity
  8
LC-001-100-D00-0
 62
     7
370
    25
100
AcDbLine
 10
259.212264
 20
205.599498
 30
0.0
 11
263.089992
 21
209.477225
 31
0.0
  0
ENDBLK
  5
53C
330
53A
100
AcDbEntity
  8
0
100
AcDbBlockEnd
  0
BLOCK
  5
544
330
543
100
AcDbEntity
  8
0
100
AcDbBlockBegin
  2
KLON2
 70
     0
 71
     0
 10
0.0
 20
0.0
 30
0.0
  3
KLON2
  1

  4
KLON2
  0
LINE
  5
546
330
543
100
AcDbEntity
  8
LC-001-100-D00-0
 62
     7
370
    25
100
AcDbLine
 10
74.170502
 20
209.143114
 30
0.0
 11
74.376886
 21
209.349498
 31
0.0
  0
LINE
  5
547
330
543
100
AcDbEntity
  8
LC-001-100-D00-0
 62
     7
370
    25
100
AcDbLine
 10
74.170502
 20
200.162857
 30
0.0
 11
77.170502
 21
203.162857
 31
0.0
  0
LINE
  5
548
330
543
100
AcDbEntity
  8
LC-001-100-D00-0
 62
     7
370
    25
100
AcDbLine
 10
74.170502
 20
191.182601
 30
0.0
 11
77.170502
 21
194.182601
 31
0.0
  0
LINE
  5
549
330
543
100
AcDbEntity
  8
LC-001-100-D00-0
 62
     7
370
    25
100
AcDbLine
 10
74.170502
 20
182.202345
 30
0.0
 11
77.170502
 21
185.202345
 31
0.0
  0
LINE
  5
54A
330
543
100
AcDbEntity
  8
LC-001-100-D00-0
 62
     7
370
    25
100
AcDbLine
 10
74.170502
 20
173.222089
 30
0.0
 11
77.170502
 21
176.222089
 31
0.0
  0
LINE
  5
54B
330
543
100
AcDbEntity
  8
LC-001-100-D00-0
 62
     7
370
    25
100
AcDbLine
 10
74.87916
 20
164.950491
 30
0.0
 11
77.32451
 21
167.395842
 31
0.0
  0
LINE
  5
54C
330
543
100
AcDbEntity
  8
LC-001-100-D00-0
 62
     7
370
    25
100
AcDbLine
 10
78.525979
 20
159.617054
 30
0.0
 11
80.65534
 21
161.746415
 31
0.0
  0
LINE
  5
54D
330
543
100
AcDbEntity
  8
LC-001-100-D00-0
 62
     7
370
    25
100
AcDbLine
 10
84.652627
 20
156.763446
 30
0.0
 11
87.488679
 21
159.599498
 31
0.0
  0
LINE
  5
54E
330
543
100
AcDbEntity
  8
LC-001-100-D00-0
 62
     7
370
    25
100
AcDbLine
 10
89.111883
 20
152.242446
 30
0.0
 11
91.243087
 21
154.37365
 31
0.0
  0
LINE
  5
54F
330
543
100
AcDbEntity
  8
LC-001-100-D00-0
 62
     7
370
    25
100
AcDbLine
 10
95.949191
 20
150.099498
 30
0.0
 11
98.949191
 21
153.099498
 31
0.0
  0
LINE
  5
550
330
543
100
AcDbEntity
  8
LC-001-100-D00-0
 62
     7
370
    25
100
AcDbLine
 10
104.929447
 20
150.099498
 30
0.0
 11
107.929447
 21
153.099498
 31
0.0
  0
LINE
  5
551
330
543
100
AcDbEntity
  8
LC-001-100-D00-0
 62
     7
370
    25
100
AcDbLine
 10
113.909703
 20
150.099498
 30
0.0
 11
116.909703
 21
153.099498
 31
0.0
  0
LINE
  5
552
330
543
100
AcDbEntity
  8
LC-001-100-D00-0
 62
     7
370
    25
100
AcDbLine
 10
122.889959
 20
150.099498
 30
0.0
 11
125.889959
 21
153.099498
 31
0.0
  0
LINE
  5
553
330
543
100
AcDbEntity
  8
LC-001-100-D00-0
 62
     7
370
    25
100
AcDbLine
 10
131.870216
 20
150.099498
 30
0.0
 11
134.870216
 21
153.099498
 31
0.0
  0
LINE
  5
554
330
543
100
AcDbEntity
  8
LC-001-100-D00-0
 62
     7
370
    25
100
AcDbLine
 10
140.850472
 20
150.099498
 30
0.0
 11
143.850472
 21
153.099498
 31
0.0
  0
LINE
  5
555
330
543
100
AcDbEntity
  8
LC-001-100-D00-0
 62
     7
370
    25
100
AcDbLine
 10
149.830728
 20
150.099498
 30
0.0
 11
152.830728
 21
153.099498
 31
0.0
  0
LINE
  5
556
330
543
100
AcDbEntity
  8
LC-001-100-D00-0
 62
     7
370
    25
100
AcDbLine
 10
158.810984
 20
150.099498
 30
0.0
 11
161.810984
 21
153.099498
 31
0.0
  0
LINE
  5
557
330
543
100
AcDbEntity
  8
LC-001-100-D00-0
 62
     7
370
    25
100
AcDbLine
 10
167.79124
 20
150.099498
 30
0.0
 11
170.79124
 21
153.099498
 31
0.0
  0
LINE
  5
558
330
543
100
AcDbEntity
  8
LC-001-100-D00-0
 62
     7
370
    25
100
AcDbLine
 10
176.771496
 20
150.099498
 30
0.0
 11
179.771496
 21
153.099498
 31
0.0
  0
LINE
  5
559
330
543
100
AcDbEntity
  8
LC-001-100-D00-0
 62
     7
370
    25
100
AcDbLine
 10
185.751752
 20
150.099498
 30
0.0
 11
188.751752
 21
153.099498
 31
0.0
  0
LINE
  5
55A
330
543
100
AcDbEntity
  8
LC-001-100-D00-0
 62
     7
370
    25
100
AcDbLine
 10
194.732008
 20
150.099498
 30
0.0
 11
197.732008
 21
153.099498
 31
0.0
  0
LINE
  5
55B
330
543
100
AcDbEntity
  8
LC-001-100-D00-0
 62
     7
370
    25
100
AcDbLine
 10
204.599799
 20
150.987033
 30
0.0
 11
207.300847
 21
153.68808
 31
0.0
  0
LINE
  5
55C
330
543
100
AcDbEntity
  8
LC-001-100-D00-0
 62
     7
370
    25
100
AcDbLine
 10
210.212264
 20
156.599498
 30
0.0
 11
213.212264
 21
159.599498
 31
0.0
  0
LINE
  5
55D
330
543
100
AcDbEntity
  8
LC-001-100-D00-0
 62
     7
370
    25
100
AcDbLine
 10
219.192521
 20
156.599498
 30
0.0
 11
222.192521
 21
159.599498
 31
0.0
  0
LINE
  5
55E
330
543
100
AcDbEntity
  8
LC-001-100-D00-0
 62
     7
370
    25
100
AcDbLine
 10
228.172777
 20
156.599498
 30
0.0
 11
231.172777
 21
159.599498
 31
0.0
  0
LINE
  5
55F
330
543
100
AcDbEntity
  8
LC-001-100-D00-0
 62
     7
370
    25
100
AcDbLine
 10
236.86174
 20
156.308205
 30
0.0
 11
240.153033
 21
159.599498
 31
0.0
  0
LINE
  5
560
330
543
100
AcDbEntity
  8
LC-001-100-D00-0
 62
     7
370
    25
100
AcDbLine
 10
243.366554
 20
153.832763
 30
0.0
 11
249.133289
 21
159.599498
 31
0.0
  0
LINE
  5
561
330
543
100
AcDbEntity
  8
LC-001-100-D00-0
 62
     7
370
    25
100
AcDbLine
 10
251.589019
 20
153.074972
 30
0.0
 11
258.113545
 21
159.599498
 31
0.0
  0
LINE
  5
562
330
543
100
AcDbEntity
  8
LC-001-100-D00-0
 62
     7
370
    25
100
AcDbLine
 10
263.328908
 20
155.834604
 30
0.0
 11
265.714671
 21
158.220368
 31
0.0
  0
ENDBLK
  5
545
330
543
100
AcDbEntity
  8
0
100
AcDbBlockEnd
  0
BLOCK
  5
565
330
564
100
AcDbEntity
  8
0
100
AcDbBlockBegin
  2
KLON3
 70
     0
 71
     0
 10
0.0
 20
0.0
 30
0.0
  3
KLON3
  1

  4
KLON3
  0
LINE
  5
567
330
564
100
AcDbEntity
  8
LC-001-100-D00-0
 62
     7
370
    25
100
AcDbLine
 10
-50.537468
 20
237.099498
 30
0.0
 11
-48.037468
 21
239.599498
 31
0.0
  0
LINE
  5
568
330
564
100
AcDbEntity
  8
LC-001-100-D00-0
 62
     7
370
    25
100
AcDbLine
 10
-41.557212
 20
237.099498
 30
0.0
 11
-39.057212
 21
239.599498
 31
0.0
  0
LINE
  5
569
330
564
100
AcDbEntity
  8
LC-001-100-D00-0
 62
     7
370
    25
100
AcDbLine
 10
-32.576956
 20
237.099498
 30
0.0
 11
-30.076956
 21
239.599498
 31
0.0
  0
LINE
  5
56A
330
564
100
AcDbEntity
  8
LC-001-100-D00-0
 62
     7
370
    25
100
AcDbLine
 10
-23.5967
 20
237.099498
 30
0.0
 11
-21.0967
 21
239.599498
 31
0.0
  0
LINE
  5
56B
330
564
100
AcDbEntity
  8
LC-001-100-D00-0
 62
     7
370
    25
100
AcDbLine
 10
-14.616444
 20
237.099498
 30
0.0
 11
-12.116444
 21
239.599498
 31
0.0
  0
LINE
  5
56C
330
564
100
AcDbEntity
  8
LC-001-100-D00-0
 62
     7
370
    25
100
AcDbLine
 10
-5.933326
 20
236.802359
 30
0.0
 11
-3.136188
 21
239.599498
 31
0.0
  0
LINE
  5
56D
330
564
100
AcDbEntity
  8
LC-001-100-D00-0
 62
     7
370
    25
100
AcDbLine
 10
-5.329498
 20
228.425931
 30
0.0
 11
-2.329498
 21
231.425931
 31
0.0
  0
LINE
  5
56E
330
564
100
AcDbEntity
  8
LC-001-100-D00-0
 62
     7
370
    25
100
AcDbLine
 10
-2.500447
 20
222.274726
 30
0.0
 11
0.324325
 21
225.099498
 31
0.0
  0
LINE
  5
56F
330
564
100
AcDbEntity
  8
LC-001-100-D00-0
 62
     7
370
    25
100
AcDbLine
 10
6.304581
 20
222.099498
 30
0.0
 11
9.304581
 21
225.099498
 31
0.0
  0
LINE
  5
570
330
564
100
AcDbEntity
  8
LC-001-100-D00-0
 62
     7
370
    25
100
AcDbLine
 10
15.284837
 20
222.099498
 30
0.0
 11
18.284837
 21
225.099498
 31
0.0
  0
LINE
  5
571
330
564
100
AcDbEntity
  8
LC-001-100-D00-0
 62
     7
370
    25
100
AcDbLine
 10
18.592797
 20
216.427202
 30
0.0
 11
21.319649
 21
219.154053
 31
0.0
  0
LINE
  5
572
330
564
100
AcDbEntity
  8
LC-001-100-D00-0
 62
     7
370
    25
100
AcDbLine
 10
26.245349
 20
215.099498
 30
0.0
 11
29.745349
 21
218.599498
 31
0.0
  0
LINE
  5
573
330
564
100
AcDbEntity
  8
LC-001-100-D00-0
 62
     7
370
    25
100
AcDbLine
 10
34.021355
 20
222.875503
 30
0.0
 11
36.245349
 21
225.099498
 31
0.0
  0
LINE
  5
574
330
564
100
AcDbEntity
  8
LC-001-100-D00-0
 62
     7
370
    25
100
AcDbLine
 10
35.225605
 20
215.099498
 30
0.0
 11
37.420502
 21
217.294394
 31
0.0
  0
LINE
  5
575
330
564
100
AcDbEntity
  8
LC-001-100-D00-0
 62
     7
370
    25
100
AcDbLine
 10
42.225605
 20
222.099498
 30
0.0
 11
45.225605
 21
225.099498
 31
0.0
  0
LINE
  5
576
330
564
100
AcDbEntity
  8
LC-001-100-D00-0
 62
     7
370
    25
100
AcDbLine
 10
51.205861
 20
222.099498
 30
0.0
 11
54.205861
 21
225.099498
 31
0.0
  0
LINE
  5
577
330
564
100
AcDbEntity
  8
LC-001-100-D00-0
 62
     7
370
    25
100
AcDbLine
 10
59.156338
 20
221.069718
 30
0.0
 11
61.413799
 21
223.32718
 31
0.0
  0
LINE
  5
578
330
564
100
AcDbEntity
  8
LC-001-100-D00-0
 62
     7
370
    25
100
AcDbLine
 10
65.280739
 20
218.213863
 30
0.0
 11
67.538201
 21
220.471325
 31
0.0
  0
LINE
  5
579
330
564
100
AcDbEntity
  8
LC-001-100-D00-0
 62
     7
370
    25
100
AcDbLine
 10
73.14663
 20
217.099498
 30
0.0
 11
76.14663
 21
220.099498
 31
0.0
  0
LINE
  5
57A
330
564
100
AcDbEntity
  8
LC-001-100-D00-0
 62
     7
370
    25
100
AcDbLine
 10
74.170502
 20
209.143114
 30
0.0
 11
77.170502
 21
212.143114
 31
0.0
  0
LINE
  5
57B
330
564
100
AcDbEntity
  8
LC-001-100-D00-0
 62
     7
370
    25
100
AcDbLine
 10
82.126886
 20
217.099498
 30
0.0
 11
85.126886
 21
220.099498
 31
0.0
  0
LINE
  5
57C
330
564
100
AcDbEntity
  8
LC-001-100-D00-0
 62
     7
370
    25
100
AcDbLine
 10
88.170502
 20
214.162857
 30
0.0
 11
92.370502
 21
218.362857
 31
0.0
  0
ENDBLK
  5
566
330
564
100
AcDbEntity
  8
0
100
AcDbBlockEnd
  0
BLOCK
  5
580
330
57F
100
AcDbEntity
  8
0
100
AcDbBlockBegin
  2
KLON4
 70
     0
 71
     0
 10
0.0
 20
0.0
 30
0.0
  3
KLON4
  1

  4
KLON4
  0
LINE
  5
582
330
57F
100
AcDbEntity
  8
LC-001-100-D00-0
 62
     7
370
    50
100
AcDbLine
 10
355.939566
 20
239.465006
 30
0.0
 11
356.574057
 21
240.099498
 31
0.0
  0
LINE
  5
583
330
57F
100
AcDbEntity
  8
LC-001-100-D00-0
 62
     7
370
    50
100
AcDbLine
 10
362.554313
 20
237.099498
 30
0.0
 11
362.670502
 21
237.215686
 31
0.0
  0
ENDBLK
  5
581
330
57F
100
AcDbEntity
  8
0
100
AcDbBlockEnd
  0
BLOCK
  5
586
330
585
100
AcDbEntity
  8
0
100
AcDbBlockBegin
  2
KLON5
 70
     0
 71
     0
 10
0.0
 20
0.0
 30
0.0
  3
KLON5
  1

  4
KLON5
  0
LINE
  5
588
330
585
100
AcDbEntity
  8
LC-001-100-D00-0
 62
     7
370
    25
100
AcDbLine
 10
202.970502
 20
212.219528
 30
0.0
 11
207.170502
 21
216.419528
 31
0.0
  0
LINE
  5
589
330
585
100
AcDbEntity
  8
LC-001-100-D00-0
 62
     7
370
    25
100
AcDbLine
 10
207.850472
 20
217.099498
 30
0.0
 11
210.850472
 21
220.099498
 31
0.0
  0
LINE
  5
58A
330
585
100
AcDbEntity
  8
LC-001-100-D00-0
 62
     7
370
    25
100
AcDbLine
 10
216.830728
 20
217.099498
 30
0.0
 11
219.830728
 21
220.099498
 31
0.0
  0
LINE
  5
58B
330
585
100
AcDbEntity
  8
LC-001-100-D00-0
 62
     7
370
    25
100
AcDbLine
 10
218.170502
 20
209.459016
 30
0.0
 11
221.170502
 21
212.459016
 31
0.0
  0
LINE
  5
58C
330
585
100
AcDbEntity
  8
LC-001-100-D00-0
 62
     7
370
    25
100
AcDbLine
 10
225.810984
 20
217.099498
 30
0.0
 11
230.388577
 21
221.677091
 31
0.0
  0
LINE
  5
58D
330
585
100
AcDbEntity
  8
LC-001-100-D00-0
 62
     7
370
    25
100
AcDbLine
 10
239.79124
 20
222.099498
 30
0.0
 11
242.79124
 21
225.099498
 31
0.0
  0
LINE
  5
58E
330
585
100
AcDbEntity
  8
LC-001-100-D00-0
 62
     7
370
    25
100
AcDbLine
 10
248.771496
 20
222.099498
 30
0.0
 11
251.771496
 21
225.099498
 31
0.0
  0
LINE
  5
58F
330
585
100
AcDbEntity
  8
LC-001-100-D00-0
 62
     7
370
    25
100
AcDbLine
 10
257.751752
 20
222.099498
 30
0.0
 11
260.751752
 21
225.099498
 31
0.0
  0
LINE
  5
590
330
585
100
AcDbEntity
  8
LC-001-100-D00-0
 62
     7
370
    25
100
AcDbLine
 10
259.826255
 20
215.193744
 30
0.0
 11
263.232008
 21
218.599498
 31
0.0
  0
LINE
  5
591
330
585
100
AcDbEntity
  8
LC-001-100-D00-0
 62
     7
370
    25
100
AcDbLine
 10
268.712264
 20
215.099498
 30
0.0
 11
272.212264
 21
218.599498
 31
0.0
  0
LINE
  5
592
330
585
100
AcDbEntity
  8
LC-001-100-D00-0
 62
     7
370
    25
100
AcDbLine
 10
274.021355
 20
220.408588
 30
0.0
 11
278.712264
 21
225.099498
 31
0.0
  0
LINE
  5
593
330
585
100
AcDbEntity
  8
LC-001-100-D00-0
 62
     7
370
    25
100
AcDbLine
 10
284.692521
 20
222.099498
 30
0.0
 11
287.692521
 21
225.099498
 31
0.0
  0
LINE
  5
594
330
585
100
AcDbEntity
  8
LC-001-100-D00-0
 62
     7
370
    25
100
AcDbLine
 10
297.670502
 20
235.077479
 30
0.0
 11
302.192521
 21
239.599498
 31
0.0
  0
LINE
  5
595
330
585
100
AcDbEntity
  8
LC-001-100-D00-0
 62
     7
370
    25
100
AcDbLine
 10
293.672777
 20
222.099498
 30
0.0
 11
296.672779
 21
225.0995
 31
0.0
  0
LINE
  5
596
330
585
100
AcDbEntity
  8
LC-001-100-D00-0
 62
     7
370
    25
100
AcDbLine
 10
297.670499
 20
226.09722
 30
0.0
 11
300.670502
 21
229.097223
 31
0.0
  0
LINE
  5
597
330
585
100
AcDbEntity
  8
LC-001-100-D00-0
 62
     7
370
    25
100
AcDbLine
 10
308.672777
 20
237.099498
 30
0.0
 11
311.172777
 21
239.599498
 31
0.0
  0
LINE
  5
598
330
585
100
AcDbEntity
  8
LC-001-100-D00-0
 62
     7
370
    25
100
AcDbLine
 10
317.653033
 20
237.099498
 30
0.0
 11
320.153033
 21
239.599498
 31
0.0
  0
LINE
  5
599
330
585
100
AcDbEntity
  8
LC-001-100-D00-0
 62
     7
370
    25
100
AcDbLine
 10
326.633289
 20
237.099498
 30
0.0
 11
329.133289
 21
239.599498
 31
0.0
  0
LINE
  5
59A
330
585
100
AcDbEntity
  8
LC-001-100-D00-0
 62
     7
370
    25
100
AcDbLine
 10
335.613545
 20
237.099498
 30
0.0
 11
338.113545
 21
239.599498
 31
0.0
  0
LINE
  5
59B
330
585
100
AcDbEntity
  8
LC-001-100-D00-0
 62
     7
370
    25
100
AcDbLine
 10
344.593801
 20
237.099498
 30
0.0
 11
347.593801
 21
240.099498
 31
0.0
  0
ENDBLK
  5
587
330
585
100
AcDbEntity
  8
0
100
AcDbBlockEnd
  0
BLOCK
  5
59E
330
59D
100
AcDbEntity
  8
0
100
AcDbBlockBegin
  2
KLON6
 70
     0
 71
     0
 10
0.0
 20
0.0
 30
0.0
  3
KLON6
  1

  4
KLON6
  0
LINE
  5
5A0
330
59D
100
AcDbEntity
  8
LC-001-100-D00-0
 62
     7
370
    50
100
AcDbLine
 10
261.966598
 20
218.599498
 30
0.0
 11
261.966598
 21
220.799498
 31
0.0
  0
LINE
  5
5A1
330
59D
100
AcDbEntity
  8
LC-001-100-D00-0
 62
     7
370
    50
100
AcDbLine
 10
261.966598
 20
223.599498
 30
0.0
 11
261.966598
 21
225.099498
 31
0.0
  0
LINE
  5
5A2
330
59D
100
AcDbEntity
  8
LC-001-100-D00-0
  6
DASHED
 62
     7
370
    50
100
AcDbLine
 10
268.316598
 20
218.599498
 30
0.0
 11
268.316598
 21
240.099498
 31
0.0
  0
ENDBLK
  5
59F
330
59D
100
AcDbEntity
  8
0
100
AcDbBlockEnd
  0
BLOCK
  5
5A5
330
5A4
100
AcDbEntity
  8
0
100
AcDbBlockBegin
  2
KLON7
 70
     0
 71
     0
 10
0.0
 20
0.0
 30
0.0
  3
KLON7
  1

  4
KLON7
  0
LINE
  5
5A7
330
5A4
100
AcDbEntity
  8
LC-001-100-D00-0
 62
     7
370
    50
100
AcDbLine
 10
33.366598
 20
218.599498
 30
0.0
 11
33.366598
 21
220.799498
 31
0.0
  0
LINE
  5
5A8
330
5A4
100
AcDbEntity
  8
LC-001-100-D00-0
 62
     7
370
    50
100
AcDbLine
 10
33.366598
 20
223.599498
 30
0.0
 11
33.366598
 21
225.099498
 31
0.0
  0
LINE
  5
5A9
330
5A4
100
AcDbEntity
  8
LC-001-100-D00-0
  6
DASHED
 62
     7
370
    50
100
AcDbLine
 10
27.016598
 20
218.599498
 30
0.0
 11
27.016598
 21
240.099498
 31
0.0
  0
ENDBLK
  5
5A6
330
5A4
100
AcDbEntity
  8
0
100
AcDbBlockEnd
  0
BLOCK
  5
5AC
330
5AB
100
AcDbEntity
  8
0
100
AcDbBlockBegin
  2
KLON8
 70
     0
 71
     0
 10
0.0
 20
0.0
 30
0.0
  3
KLON8
  1

  4
KLON8
  0
LINE
  5
5AE
330
5AB
100
AcDbEntity
  8
LC-001-100-D00-0
 62
     7
370
    50
100
AcDbLine
 10
-48.037468
 20
239.599498
 30
0.0
 11
-47.537468
 21
240.099498
 31
0.0
  0
LINE
  5
5AF
330
5AB
100
AcDbEntity
  8
LC-001-100-D00-0
 62
     7
370
    50
100
AcDbLine
 10
-39.057212
 20
239.599498
 30
0.0
 11
-38.557212
 21
240.099498
 31
0.0
  0
LINE
  5
5B0
330
5AB
100
AcDbEntity
  8
LC-001-100-D00-0
 62
     7
370
    50
100
AcDbLine
 10
-30.076956
 20
239.599498
 30
0.0
 11
-29.576956
 21
240.099498
 31
0.0
  0
LINE
  5
5B1
330
5AB
100
AcDbEntity
  8
LC-001-100-D00-0
 62
     7
370
    50
100
AcDbLine
 10
-21.0967
 20
239.599498
 30
0.0
 11
-20.5967
 21
240.099498
 31
0.0
  0
LINE
  5
5B2
330
5AB
100
AcDbEntity
  8
LC-001-100-D00-0
 62
     7
370
    50
100
AcDbLine
 10
-12.116444
 20
239.599498
 30
0.0
 11
-11.616444
 21
240.099498
 31
0.0
  0
LINE
  5
5B3
330
5AB
100
AcDbEntity
  8
LC-001-100-D00-0
 62
     7
370
    50
100
AcDbLine
 10
-3.136188
 20
239.599498
 30
0.0
 11
-2.636188
 21
240.099498
 31
0.0
  0
ENDBLK
  5
5AD
330
5AB
100
AcDbEntity
  8
0
100
AcDbBlockEnd
  0
BLOCK
  5
5B6
330
5B5
100
AcDbEntity
  8
0
100
AcDbBlockBegin
  2
KLON9
 70
     0
 71
     0
 10
0.0
 20
0.0
 30
0.0
  3
KLON9
  1

  4
KLON9
  0
LINE
  5
5B8
330
5B5
100
AcDbEntity
  8
LC-001-100-D00-0
 62
     7
370
    50
100
AcDbLine
 10
302.192521
 20
239.599498
 30
0.0
 11
302.692521
 21
240.099498
 31
0.0
  0
LINE
  5
5B9
330
5B5
100
AcDbEntity
  8
LC-001-100-D00-0
 62
     7
370
    50
100
AcDbLine
 10
311.172777
 20
239.599498
 30
0.0
 11
311.672777
 21
240.099498
 31
0.0
  0
LINE
  5
5BA
330
5B5
100
AcDbEntity
  8
LC-001-100-D00-0
 62
     7
370
    50
100
AcDbLine
 10
320.153033
 20
239.599498
 30
0.0
 11
320.653033
 21
240.099498
 31
0.0
  0
LINE
  5
5BB
330
5B5
100
AcDbEntity
  8
LC-001-100-D00-0
 62
     7
370
    50
100
AcDbLine
 10
329.133289
 20
239.599498
 30
0.0
 11
329.633289
 21
240.099498
 31
0.0
  0
LINE
  5
5BC
330
5B5
100
AcDbEntity
  8
LC-001-100-D00-0
 62
     7
370
    50
100
AcDbLine
 10
338.113545
 20
239.599498
 30
0.0
 11
338.613545
 21
240.099498
 31
0.0
  0
ENDBLK
  5
5B7
330
5B5
100
AcDbEntity
  8
0
100
AcDbBlockEnd
  0
BLOCK
  5
5BF
330
5BE
100
AcDbEntity
  8
0
100
AcDbBlockBegin
  2
KLON10
 70
     0
 71
     0
 10
0.0
 20
0.0
 30
0.0
  3
KLON10
  1

  4
KLON10
  0
LINE
  5
5C1
330
5BE
100
AcDbEntity
  8
LC-001-100-D00-0
 62
     7
370
    25
100
AcDbLine
 10
301.014826
 20
157.599498
 30
0.0
 11
303.264826
 21
159.849498
 31
0.0
  0
LINE
  5
5C2
330
5BE
100
AcDbEntity
  8
LC-001-100-D00-0
 62
     7
370
    25
100
AcDbLine
 10
355.345133
 20
158.048268
 30
0.0
 11
357.146362
 21
159.849498
 31
0.0
  0
LINE
  5
5C3
330
5BE
100
AcDbEntity
  8
LC-001-100-D00-0
 62
     7
370
    25
100
AcDbLine
 10
292.034566
 20
157.599498
 30
0.0
 11
294.284566
 21
159.849498
 31
0.0
  0
LINE
  5
5C4
330
5BE
100
AcDbEntity
  8
LC-001-100-D00-0
 62
     7
370
    25
100
AcDbLine
 10
345.916102
 20
157.599498
 30
0.0
 11
348.166102
 21
159.849498
 31
0.0
  0
LINE
  5
5C5
330
5BE
100
AcDbEntity
  8
LC-001-100-D00-0
 62
     7
370
    25
100
AcDbLine
 10
283.054306
 20
157.599498
 30
0.0
 11
285.304306
 21
159.849498
 31
0.0
  0
LINE
  5
5C6
330
5BE
100
AcDbEntity
  8
LC-001-100-D00-0
 62
     7
370
    25
100
AcDbLine
 10
336.935842
 20
157.599498
 30
0.0
 11
339.185842
 21
159.849498
 31
0.0
  0
LINE
  5
5C7
330
5BE
100
AcDbEntity
  8
LC-001-100-D00-0
 62
     7
370
    25
100
AcDbLine
 10
274.074026
 20
157.599498
 30
0.0
 11
276.324026
 21
159.849498
 31
0.0
  0
LINE
  5
5C8
330
5BE
100
AcDbEntity
  8
LC-001-100-D00-0
 62
     7
370
    25
100
AcDbLine
 10
327.955562
 20
157.599498
 30
0.0
 11
330.205562
 21
159.849498
 31
0.0
  0
ENDBLK
  5
5C0
330
5BE
100
AcDbEntity
  8
0
100
AcDbBlockEnd
  0
BLOCK
  5
5CB
330
5CA
100
AcDbEntity
  8
0
100
AcDbBlockBegin
  2
KLON11
 70
     0
 71
     0
 10
0.0
 20
0.0
 30
0.0
  3
KLON11
  1

  4
KLON11
  0
LINE
  5
5CD
330
5CA
100
AcDbEntity
  8
LC-001-100-D00-0
 62
     7
370
    25
100
AcDbLine
 10
247.590552
 20
211.938297
 30
0.0
 11
250.251752
 21
214.599498
 31
0.0
  0
LINE
  5
5CE
330
5CA
100
AcDbEntity
  8
LC-001-100-D00-0
 62
     7
370
    25
100
AcDbLine
 10
294.883289
 20
205.349498
 30
0.0
 11
297.133289
 21
207.599498
 31
0.0
  0
LINE
  5
5CF
330
5CA
100
AcDbEntity
  8
LC-001-100-D00-0
 62
     7
370
    25
100
AcDbLine
 10
348.764826
 20
205.349498
 30
0.0
 11
351.014826
 21
207.599498
 31
0.0
  0
LINE
  5
5D0
330
5CA
100
AcDbEntity
  8
LC-001-100-D00-0
 62
     7
370
    25
100
AcDbLine
 10
285.903029
 20
205.349498
 30
0.0
 11
288.153029
 21
207.599498
 31
0.0
  0
LINE
  5
5D1
330
5CA
100
AcDbEntity
  8
LC-001-100-D00-0
 62
     7
370
    25
100
AcDbLine
 10
339.784566
 20
205.349498
 30
0.0
 11
342.034566
 21
207.599498
 31
0.0
  0
LINE
  5
5D2
330
5CA
100
AcDbEntity
  8
LC-001-100-D00-0
 62
     7
370
    25
100
AcDbLine
 10
276.922769
 20
205.349498
 30
0.0
 11
279.172769
 21
207.599498
 31
0.0
  0
LINE
  5
5D3
330
5CA
100
AcDbEntity
  8
LC-001-100-D00-0
 62
     7
370
    25
100
AcDbLine
 10
330.804306
 20
205.349498
 30
0.0
 11
333.054306
 21
207.599498
 31
0.0
  0
LINE
  5
5D4
330
5CA
100
AcDbEntity
  8
LC-001-100-D00-0
 62
     7
370
    25
100
AcDbLine
 10
268.610451
 20
206.01746
 30
0.0
 11
270.392436
 21
207.799444
 31
0.0
  0
LINE
  5
5D5
330
5CA
100
AcDbEntity
  8
LC-001-100-D00-0
 62
     7
370
    25
100
AcDbLine
 10
321.824026
 20
205.349498
 30
0.0
 11
324.074026
 21
207.599498
 31
0.0
  0
ENDBLK
  5
5CC
330
5CA
100
AcDbEntity
  8
0
100
AcDbBlockEnd
  0
BLOCK
  5
5D8
330
5D7
100
AcDbEntity
  8
0
100
AcDbBlockBegin
  2
KLON12
 70
     0
 71
     0
 10
0.0
 20
0.0
 30
0.0
  3
KLON12
  1

  4
KLON12
  0
LINE
  5
5DA
330
5D7
100
AcDbEntity
  8
LC-001-100-D00-0
 62
     7
370
    25
100
AcDbLine
 10
175.170502
 20
211.360296
 30
0.0
 11
184.409703
 21
220.599498
 31
0.0
  0
LINE
  5
5DB
330
5D7
100
AcDbEntity
  8
LC-001-100-D00-0
 62
     7
370
    25
100
AcDbLine
 10
175.170502
 20
202.38004
 30
0.0
 11
176.670502
 21
203.88004
 31
0.0
  0
LINE
  5
5DC
330
5D7
100
AcDbEntity
  8
LC-001-100-D00-0
 62
     7
370
    25
100
AcDbLine
 10
187.389959
 20
214.599498
 30
0.0
 11
193.389959
 21
220.599498
 31
0.0
  0
LINE
  5
5DD
330
5D7
100
AcDbEntity
  8
LC-001-100-D00-0
 62
     7
370
    25
100
AcDbLine
 10
175.170502
 20
193.399784
 30
0.0
 11
176.670502
 21
194.899784
 31
0.0
  0
LINE
  5
5DE
330
5D7
100
AcDbEntity
  8
LC-001-100-D00-0
 62
     7
370
    25
100
AcDbLine
 10
196.370216
 20
214.599498
 30
0.0
 11
200.170502
 21
218.399784
 31
0.0
  0
LINE
  5
5DF
330
5D7
100
AcDbEntity
  8
LC-001-100-D00-0
 62
     7
370
    25
100
AcDbLine
 10
200.870216
 20
219.099498
 30
0.0
 11
202.170502
 21
220.399784
 31
0.0
  0
LINE
  5
5E0
330
5D7
100
AcDbEntity
  8
LC-001-100-D00-0
 62
     7
370
    25
100
AcDbLine
 10
175.170502
 20
184.419528
 30
0.0
 11
176.670502
 21
185.919528
 31
0.0
  0
LINE
  5
5E1
330
5D7
100
AcDbEntity
  8
LC-001-100-D00-0
 62
     7
370
    25
100
AcDbLine
 10
175.170502
 20
175.439272
 30
0.0
 11
176.670502
 21
176.939272
 31
0.0
  0
ENDBLK
  5
5D9
330
5D7
100
AcDbEntity
  8
0
100
AcDbBlockEnd
  0
BLOCK
  5
5E4
330
5E3
100
AcDbEntity
  8
0
100
AcDbBlockBegin
  2
KLON13
 70
     0
 71
     0
 10
0.0
 20
0.0
 30
0.0
  3
KLON13
  1

  4
KLON13
  0
LINE
  5
5E6
330
5E3
100
AcDbEntity
  8
LC-001-100-D00-0
 62
     7
370
    25
100
AcDbLine
 10
93.170502
 20
219.162857
 30
0.0
 11
94.607142
 21
220.599498
 31
0.0
  0
LINE
  5
5E7
330
5E3
100
AcDbEntity
  8
LC-001-100-D00-0
 62
     7
370
    25
100
AcDbLine
 10
97.587398
 20
214.599498
 30
0.0
 11
103.587398
 21
220.599498
 31
0.0
  0
LINE
  5
5E8
330
5E3
100
AcDbEntity
  8
LC-001-100-D00-0
 62
     7
370
    25
100
AcDbLine
 10
106.567654
 20
214.599498
 30
0.0
 11
112.567654
 21
220.599498
 31
0.0
  0
LINE
  5
5E9
330
5E3
100
AcDbEntity
  8
LC-001-100-D00-0
 62
     7
370
    25
100
AcDbLine
 10
114.005753
 20
213.05734
 30
0.0
 11
120.094393
 21
219.14598
 31
0.0
  0
LINE
  5
5EA
330
5E3
100
AcDbEntity
  8
LC-001-100-D00-0
 62
     7
370
    25
100
AcDbLine
 10
118.035322
 20
208.106653
 30
0.0
 11
120.170502
 21
210.241833
 31
0.0
  0
LINE
  5
5EB
330
5E3
100
AcDbEntity
  8
LC-001-100-D00-0
 62
     7
370
    25
100
AcDbLine
 10
118.670502
 20
199.761577
 30
0.0
 11
120.170502
 21
201.261577
 31
0.0
  0
LINE
  5
5EC
330
5E3
100
AcDbEntity
  8
LC-001-100-D00-0
 62
     7
370
    25
100
AcDbLine
 10
118.670502
 20
190.781321
 30
0.0
 11
120.170502
 21
192.281321
 31
0.0
  0
LINE
  5
5ED
330
5E3
100
AcDbEntity
  8
LC-001-100-D00-0
 62
     7
370
    25
100
AcDbLine
 10
118.670502
 20
181.801065
 30
0.0
 11
120.170502
 21
183.301065
 31
0.0
  0
ENDBLK
  5
5E5
330
5E3
100
AcDbEntity
  8
0
100
AcDbBlockEnd
  0
BLOCK
  5
5F0
330
5EF
100
AcDbEntity
  8
0
100
AcDbBlockBegin
  2
KLON14
 70
     0
 71
     0
 10
0.0
 20
0.0
 30
0.0
  3
KLON14
  1

  4
KLON14
  0
LINE
  5
5F2
330
5EF
100
AcDbEntity
  8
LC-001-100-D00-0
 62
     7
370
    25
100
AcDbLine
 10
94.070502
 20
211.082601
 30
0.0
 11
97.350816
 21
214.362916
 31
0.0
  0
LINE
  5
5F3
330
5EF
100
AcDbEntity
  8
LC-001-100-D00-0
 62
     7
370
    25
100
AcDbLine
 10
95.794762
 20
203.826605
 30
0.0
 11
102.576679
 21
210.608522
 31
0.0
  0
LINE
  5
5F4
330
5EF
100
AcDbEntity
  8
LC-001-100-D00-0
 62
     7
370
    25
100
AcDbLine
 10
100.961099
 20
200.012686
 30
0.0
 11
107.743015
 21
206.794602
 31
0.0
  0
LINE
  5
5F5
330
5EF
100
AcDbEntity
  8
LC-001-100-D00-0
 62
     7
370
    25
100
AcDbLine
 10
106.127435
 20
196.198766
 30
0.0
 11
108.170502
 21
198.241833
 31
0.0
  0
LINE
  5
5F6
330
5EF
100
AcDbEntity
  8
LC-001-100-D00-0
 62
     7
370
    25
100
AcDbLine
 10
106.670502
 20
187.761577
 30
0.0
 11
108.170502
 21
189.261577
 31
0.0
  0
LINE
  5
5F7
330
5EF
100
AcDbEntity
  8
LC-001-100-D00-0
 62
     7
370
    25
100
AcDbLine
 10
106.670502
 20
178.781321
 30
0.0
 11
108.170502
 21
180.281321
 31
0.0
  0
LINE
  5
5F8
330
5EF
100
AcDbEntity
  8
LC-001-100-D00-0
 62
     7
370
    25
100
AcDbLine
 10
106.670502
 20
169.801065
 30
0.0
 11
108.170502
 21
171.301065
 31
0.0
  0
LINE
  5
5F9
330
5EF
100
AcDbEntity
  8
LC-001-100-D00-0
 62
     7
370
    25
100
AcDbLine
 10
107.380667
 20
161.530974
 30
0.0
 11
108.489443
 21
162.63975
 31
0.0
  0
LINE
  5
5FA
330
5EF
100
AcDbEntity
  8
LC-001-100-D00-0
 62
     7
370
    25
100
AcDbLine
 10
113.929447
 20
159.099498
 30
0.0
 11
115.429447
 21
160.599498
 31
0.0
  0
LINE
  5
5FB
330
5EF
100
AcDbEntity
  8
LC-001-100-D00-0
 62
     7
370
    25
100
AcDbLine
 10
122.909703
 20
159.099498
 30
0.0
 11
124.409703
 21
160.599498
 31
0.0
  0
LINE
  5
5FC
330
5EF
100
AcDbEntity
  8
LC-001-100-D00-0
 62
     7
370
    25
100
AcDbLine
 10
131.889959
 20
159.099498
 30
0.0
 11
133.389959
 21
160.599498
 31
0.0
  0
LINE
  5
5FD
330
5EF
100
AcDbEntity
  8
LC-001-100-D00-0
 62
     7
370
    25
100
AcDbLine
 10
140.870216
 20
159.099498
 30
0.0
 11
142.370216
 21
160.599498
 31
0.0
  0
LINE
  5
5FE
330
5EF
100
AcDbEntity
  8
LC-001-100-D00-0
 62
     7
370
    25
100
AcDbLine
 10
187.170502
 20
205.399784
 30
0.0
 11
191.29327
 21
209.522553
 31
0.0
  0
LINE
  5
5FF
330
5EF
100
AcDbEntity
  8
LC-001-100-D00-0
 62
     7
370
    25
100
AcDbLine
 10
149.850472
 20
159.099498
 30
0.0
 11
151.350472
 21
160.599498
 31
0.0
  0
LINE
  5
600
330
5EF
100
AcDbEntity
  8
LC-001-100-D00-0
 62
     7
370
    25
100
AcDbLine
 10
187.170502
 20
196.419528
 30
0.0
 11
201.270502
 21
210.519528
 31
0.0
  0
LINE
  5
601
330
5EF
100
AcDbEntity
  8
LC-001-100-D00-0
 62
     7
370
    25
100
AcDbLine
 10
158.830728
 20
159.099498
 30
0.0
 11
160.330728
 21
160.599498
 31
0.0
  0
LINE
  5
602
330
5EF
100
AcDbEntity
  8
LC-001-100-D00-0
 62
     7
370
    25
100
AcDbLine
 10
187.170502
 20
187.439272
 30
0.0
 11
188.670502
 21
188.939272
 31
0.0
  0
LINE
  5
603
330
5EF
100
AcDbEntity
  8
LC-001-100-D00-0
 62
     7
370
    25
100
AcDbLine
 10
167.810984
 20
159.099498
 30
0.0
 11
169.310984
 21
160.599498
 31
0.0
  0
LINE
  5
604
330
5EF
100
AcDbEntity
  8
LC-001-100-D00-0
 62
     7
370
    25
100
AcDbLine
 10
187.170502
 20
178.459016
 30
0.0
 11
188.670502
 21
179.959016
 31
0.0
  0
LINE
  5
605
330
5EF
100
AcDbEntity
  8
LC-001-100-D00-0
 62
     7
370
    25
100
AcDbLine
 10
176.79124
 20
159.099498
 30
0.0
 11
178.29124
 21
160.599498
 31
0.0
  0
LINE
  5
606
330
5EF
100
AcDbEntity
  8
LC-001-100-D00-0
 62
     7
370
    25
100
AcDbLine
 10
187.170502
 20
169.478759
 30
0.0
 11
188.670502
 21
170.978759
 31
0.0
  0
ENDBLK
  5
5F1
330
5EF
100
AcDbEntity
  8
0
100
AcDbBlockEnd
  0
BLOCK
  5
60A
330
609
100
AcDbEntity
  8
0
100
AcDbBlockBegin
  2
KLON15
 70
     0
 71
     0
 10
0.0
 20
0.0
 30
0.0
  3
KLON15
  1

  4
KLON15
  0
LINE
  5
60C
330
609
100
AcDbEntity
  8
LC-001-100-D00-0
 62
     7
370
    25
100
AcDbLine
 10
-0.136188
 20
242.599498
 30
0.0
 11
1.363812
 21
244.099498
 31
0.0
  0
LINE
  5
60D
330
609
100
AcDbEntity
  8
LC-001-100-D00-0
 62
     7
370
    25
100
AcDbLine
 10
8.844069
 20
242.599498
 30
0.0
 11
10.344069
 21
244.099498
 31
0.0
  0
LINE
  5
60E
330
609
100
AcDbEntity
  8
LC-001-100-D00-0
 62
     7
370
    25
100
AcDbLine
 10
17.824325
 20
242.599498
 30
0.0
 11
19.324325
 21
244.099498
 31
0.0
  0
LINE
  5
60F
330
609
100
AcDbEntity
  8
LC-001-100-D00-0
 62
     7
370
    25
100
AcDbLine
 10
26.804581
 20
242.599498
 30
0.0
 11
28.304581
 21
244.099498
 31
0.0
  0
LINE
  5
610
330
609
100
AcDbEntity
  8
LC-001-100-D00-0
 62
     7
370
    25
100
AcDbLine
 10
35.784837
 20
242.599498
 30
0.0
 11
37.284837
 21
244.099498
 31
0.0
  0
LINE
  5
611
330
609
100
AcDbEntity
  8
LC-001-100-D00-0
 62
     7
370
    25
100
AcDbLine
 10
44.765093
 20
242.599498
 30
0.0
 11
46.265093
 21
244.099498
 31
0.0
  0
LINE
  5
612
330
609
100
AcDbEntity
  8
LC-001-100-D00-0
 62
     7
370
    25
100
AcDbLine
 10
53.745349
 20
242.599498
 30
0.0
 11
55.245349
 21
244.099498
 31
0.0
  0
LINE
  5
613
330
609
100
AcDbEntity
  8
LC-001-100-D00-0
 62
     7
370
    25
100
AcDbLine
 10
62.725605
 20
242.599498
 30
0.0
 11
64.225605
 21
244.099498
 31
0.0
  0
LINE
  5
614
330
609
100
AcDbEntity
  8
LC-001-100-D00-0
 62
     7
370
    25
100
AcDbLine
 10
71.705861
 20
242.599498
 30
0.0
 11
73.205861
 21
244.099498
 31
0.0
  0
LINE
  5
615
330
609
100
AcDbEntity
  8
LC-001-100-D00-0
 62
     7
370
    25
100
AcDbLine
 10
80.686118
 20
242.599498
 30
0.0
 11
82.186118
 21
244.099498
 31
0.0
  0
LINE
  5
616
330
609
100
AcDbEntity
  8
LC-001-100-D00-0
 62
     7
370
    25
100
AcDbLine
 10
89.666374
 20
242.599498
 30
0.0
 11
91.166374
 21
244.099498
 31
0.0
  0
LINE
  5
617
330
609
100
AcDbEntity
  8
LC-001-100-D00-0
 62
     7
370
    25
100
AcDbLine
 10
98.64663
 20
242.599498
 30
0.0
 11
100.14663
 21
244.099498
 31
0.0
  0
LINE
  5
618
330
609
100
AcDbEntity
  8
LC-001-100-D00-0
 62
     7
370
    25
100
AcDbLine
 10
107.626886
 20
242.599498
 30
0.0
 11
109.126886
 21
244.099498
 31
0.0
  0
LINE
  5
619
330
609
100
AcDbEntity
  8
LC-001-100-D00-0
 62
     7
370
    25
100
AcDbLine
 10
116.607142
 20
242.599498
 30
0.0
 11
118.107142
 21
244.099498
 31
0.0
  0
LINE
  5
61A
330
609
100
AcDbEntity
  8
LC-001-100-D00-0
 62
     7
370
    25
100
AcDbLine
 10
125.587398
 20
242.599498
 30
0.0
 11
127.087398
 21
244.099498
 31
0.0
  0
LINE
  5
61B
330
609
100
AcDbEntity
  8
LC-001-100-D00-0
 62
     7
370
    25
100
AcDbLine
 10
134.567654
 20
242.599498
 30
0.0
 11
136.067654
 21
244.099498
 31
0.0
  0
LINE
  5
61C
330
609
100
AcDbEntity
  8
LC-001-100-D00-0
 62
     7
370
    25
100
AcDbLine
 10
143.54791
 20
242.599498
 30
0.0
 11
145.04791
 21
244.099498
 31
0.0
  0
LINE
  5
61D
330
609
100
AcDbEntity
  8
LC-001-100-D00-0
 62
     7
370
    25
100
AcDbLine
 10
152.528167
 20
242.599498
 30
0.0
 11
154.028167
 21
244.099498
 31
0.0
  0
LINE
  5
61E
330
609
100
AcDbEntity
  8
LC-001-100-D00-0
 62
     7
370
    25
100
AcDbLine
 10
161.508423
 20
242.599498
 30
0.0
 11
163.008423
 21
244.099498
 31
0.0
  0
LINE
  5
61F
330
609
100
AcDbEntity
  8
LC-001-100-D00-0
 62
     7
370
    25
100
AcDbLine
 10
170.488679
 20
242.599498
 30
0.0
 11
171.988679
 21
244.099498
 31
0.0
  0
LINE
  5
620
330
609
100
AcDbEntity
  8
LC-001-100-D00-0
 62
     7
370
    25
100
AcDbLine
 10
179.468935
 20
242.599498
 30
0.0
 11
180.968935
 21
244.099498
 31
0.0
  0
LINE
  5
621
330
609
100
AcDbEntity
  8
LC-001-100-D00-0
 62
     7
370
    25
100
AcDbLine
 10
188.449191
 20
242.599498
 30
0.0
 11
189.949191
 21
244.099498
 31
0.0
  0
LINE
  5
622
330
609
100
AcDbEntity
  8
LC-001-100-D00-0
 62
     7
370
    25
100
AcDbLine
 10
197.429447
 20
242.599498
 30
0.0
 11
198.929447
 21
244.099498
 31
0.0
  0
LINE
  5
623
330
609
100
AcDbEntity
  8
LC-001-100-D00-0
 62
     7
370
    25
100
AcDbLine
 10
206.409703
 20
242.599498
 30
0.0
 11
207.909703
 21
244.099498
 31
0.0
  0
LINE
  5
624
330
609
100
AcDbEntity
  8
LC-001-100-D00-0
 62
     7
370
    25
100
AcDbLine
 10
215.389959
 20
242.599498
 30
0.0
 11
216.889959
 21
244.099498
 31
0.0
  0
LINE
  5
625
330
609
100
AcDbEntity
  8
LC-001-100-D00-0
 62
     7
370
    25
100
AcDbLine
 10
224.370216
 20
242.599498
 30
0.0
 11
225.870216
 21
244.099498
 31
0.0
  0
LINE
  5
626
330
609
100
AcDbEntity
  8
LC-001-100-D00-0
 62
     7
370
    25
100
AcDbLine
 10
233.350472
 20
242.599498
 30
0.0
 11
234.850472
 21
244.099498
 31
0.0
  0
LINE
  5
627
330
609
100
AcDbEntity
  8
LC-001-100-D00-0
 62
     7
370
    25
100
AcDbLine
 10
242.330728
 20
242.599498
 30
0.0
 11
243.830728
 21
244.099498
 31
0.0
  0
LINE
  5
628
330
609
100
AcDbEntity
  8
LC-001-100-D00-0
 62
     7
370
    25
100
AcDbLine
 10
251.310984
 20
242.599498
 30
0.0
 11
252.810984
 21
244.099498
 31
0.0
  0
LINE
  5
629
330
609
100
AcDbEntity
  8
LC-001-100-D00-0
 62
     7
370
    25
100
AcDbLine
 10
260.29124
 20
242.599498
 30
0.0
 11
261.79124
 21
244.099498
 31
0.0
  0
LINE
  5
62A
330
609
100
AcDbEntity
  8
LC-001-100-D00-0
 62
     7
370
    25
100
AcDbLine
 10
269.271496
 20
242.599498
 30
0.0
 11
270.771496
 21
244.099498
 31
0.0
  0
LINE
  5
62B
330
609
100
AcDbEntity
  8
LC-001-100-D00-0
 62
     7
370
    25
100
AcDbLine
 10
278.251752
 20
242.599498
 30
0.0
 11
279.751752
 21
244.099498
 31
0.0
  0
LINE
  5
62C
330
609
100
AcDbEntity
  8
LC-001-100-D00-0
 62
     7
370
    25
100
AcDbLine
 10
287.232008
 20
242.599498
 30
0.0
 11
288.732008
 21
244.099498
 31
0.0
  0
ENDBLK
  5
60B
330
609
100
AcDbEntity
  8
0
100
AcDbBlockEnd
  0
BLOCK
  5
640
330
636
100
AcDbEntity
  8
0
100
AcDbBlockBegin
  2
*D43
 70
     1
 71
     0
 10
0.0
 20
0.0
 30
0.0
  3
*D43
  1

  0
LINE
  5
637
330
636
100
AcDbEntity
  8
LC-003-003-----0
 62
     2
370
    -2
100
AcDbLine
 10
-67.329498
 20
237.099498
 30
0.0
 11
-67.355513
 21
333.377673
 31
0.0
  0
LINE
  5
638
330
636
100
AcDbEntity
  8
LC-003-003-----0
 62
     2
370
    -2
100
AcDbLine
 10
362.670502
 20
237.215686
 30
0.0
 11
362.644487
 21
333.493861
 31
0.0
  0
LINE
  5
639
330
636
100
AcDbEntity
  8
LC-003-003-----0
 62
     2
370
    -2
100
AcDbLine
 10
-39.354541
 20
329.785239
 30
0.0
 11
334.645461
 21
329.886296
 31
0.0
  0
SOLID
  5
63A
330
636
100
AcDbEntity
  8
LC-003-003-----0
 62
     2
100
AcDbTrace
 10
-39.355802
 20
334.451905
 30
0.0
 11
-39.35328
 21
325.118572
 31
0.0
 12
-67.35454
 22
329.777673
 32
0.0
 13
-67.35454
 23
329.777673
 33
0.0
  0
SOLID
  5
63B
330
636
100
AcDbEntity
  8
LC-003-003-----0
 62
     2
100
AcDbTrace
 10
334.646722
 20
325.219629
 30
0.0
 11
334.6442
 21
334.552962
 31
0.0
 12
362.64546
 22
329.893861
 32
0.0
 13
362.64546
 23
329.893861
 33
0.0
  0
MTEXT
  5
63C
330
636
100
AcDbEntity
  8
LC-003-003-----0
 62
     2
100
AcDbMText
 10
152.094547
 20
360.636971
 30
0.0
 40
28.0
 41
0.0
 71
     5
 72
     1
  1
\A1;430x182
  7
LCTX15-400-0-0pDIN-Schrift
 11
0.999999963494572
 21
0.0002702052084150886
 31
0.0
 73
     1
 44
1.0
  0
POINT
  5
63D
330
636
100
AcDbEntity
  8
Defpoints
 62
     0
100
AcDbPoint
 10
-67.329498
 20
237.099498
 30
0.0
  0
POINT
  5
63E
330
636
100
AcDbEntity
  8
Defpoints
 62
     0
100
AcDbPoint
 10
362.670502
 20
237.215686
 30
0.0
  0
POINT
  5
63F
330
636
100
AcDbEntity
  8
Defpoints
 62
     0
100
AcDbPoint
 10
362.64546
 20
329.893861
 30
0.0
  0
ENDBLK
  5
641
330
636
100
AcDbEntity
  8
0
100
AcDbBlockEnd
  0
BLOCK
  5
64D
330
643
100
AcDbEntity
  8
0
100
AcDbBlockBegin
  2
*D44
 70
     1
 71
     0
 10
0.0
 20
0.0
 30
0.0
  3
*D44
  1

  0
LINE
  5
644
330
643
100
AcDbEntity
  8
LC-003-003-----0
 62
     2
370
    -2
100
AcDbLine
 10
-0.329498
 20
247.099498
 30
0.0
 11
-0.329498
 21
284.134972
 31
0.0
  0
LINE
  5
645
330
643
100
AcDbEntity
  8
LC-003-003-----0
 62
     2
370
    -2
100
AcDbLine
 10
295.670502
 20
247.099498
 30
0.0
 11
295.670502
 21
284.134972
 31
0.0
  0
LINE
  5
646
330
643
100
AcDbEntity
  8
LC-003-003-----0
 62
     2
370
    -2
100
AcDbLine
 10
27.670502
 20
280.534972
 30
0.0
 11
267.670502
 21
280.534972
 31
0.0
  0
SOLID
  5
647
330
643
100
AcDbEntity
  8
LC-003-003-----0
 62
     2
100
AcDbTrace
 10
27.670502
 20
285.201638
 30
0.0
 11
27.670502
 21
275.868305
 31
0.0
 12
-0.329498
 22
280.534972
 32
0.0
 13
-0.329498
 23
280.534972
 33
0.0
  0
SOLID
  5
648
330
643
100
AcDbEntity
  8
LC-003-003-----0
 62
     2
100
AcDbTrace
 10
267.670502
 20
275.868305
 30
0.0
 11
267.670502
 21
285.201638
 31
0.0
 12
295.670502
 22
280.534972
 32
0.0
 13
295.670502
 23
280.534972
 33
0.0
  0
MTEXT
  5
649
330
643
100
AcDbEntity
  8
LC-003-003-----0
 62
     2
100
AcDbMText
 10
149.443447
 20
311.334972
 30
0.0
 40
28.0
 41
0.0
 71
     5
 72
     1
  1
\A1;296x40
  7
LCTX15-400-0-0pDIN-Schrift
 73
     1
 44
1.0
  0
POINT
  5
64A
330
643
100
AcDbEntity
  8
Defpoints
 62
     0
100
AcDbPoint
 10
-0.329498
 20
247.099498
 30
0.0
  0
POINT
  5
64B
330
643
100
AcDbEntity
  8
Defpoints
 62
     0
100
AcDbPoint
 10
295.670502
 20
247.099498
 30
0.0
  0
POINT
  5
64C
330
643
100
AcDbEntity
  8
Defpoints
 62
     0
100
AcDbPoint
 10
295.670502
 20
280.534972
 30
0.0
  0
ENDBLK
  5
64E
330
643
100
AcDbEntity
  8
0
100
AcDbBlockEnd
  0
BLOCK
  5
65A
330
650
100
AcDbEntity
  8
0
100
AcDbBlockBegin
  2
*D45
 70
     1
 71
     0
 10
0.0
 20
0.0
 30
0.0
  3
*D45
  1

  0
LINE
  5
651
330
650
100
AcDbEntity
  8
LC-003-003-----0
 62
     2
370
    -2
100
AcDbLine
 10
-67.329498
 20
240.099498
 30
0.0
 11
-152.898398
 21
240.099498
 31
0.0
  0
LINE
  5
652
330
650
100
AcDbEntity
  8
LC-003-003-----0
 62
     2
370
    -2
100
AcDbLine
 10
94.152622
 20
150.099498
 30
0.0
 11
-152.898398
 21
150.099498
 31
0.0
  0
LINE
  5
653
330
650
100
AcDbEntity
  8
LC-003-003-----0
 62
     2
370
    -2
100
AcDbLine
 10
-149.298398
 20
212.099498
 30
0.0
 11
-149.298398
 21
178.099498
 31
0.0
  0
SOLID
  5
654
330
650
100
AcDbEntity
  8
LC-003-003-----0
 62
     2
100
AcDbTrace
 10
-144.631731
 20
212.099498
 30
0.0
 11
-153.965064
 21
212.099498
 31
0.0
 12
-149.298398
 22
240.099498
 32
0.0
 13
-149.298398
 23
240.099498
 33
0.0
  0
SOLID
  5
655
330
650
100
AcDbEntity
  8
LC-003-003-----0
 62
     2
100
AcDbTrace
 10
-153.965064
 20
178.099498
 30
0.0
 11
-144.631731
 21
178.099498
 31
0.0
 12
-149.298398
 22
150.099498
 32
0.0
 13
-149.298398
 23
150.099498
 33
0.0
  0
MTEXT
  5
656
330
650
100
AcDbEntity
  8
LC-003-003-----0
 62
     2
100
AcDbMText
 10
-180.098398
 20
193.216972
 30
0.0
 40
28.0
 41
0.0
 71
     5
 72
     1
  1
\A1;90
  7
LCTX15-400-0-0pDIN-Schrift
 11
6.123031769111886E-17
 21
1.0
 31
0.0
 73
     1
 44
1.0
  0
POINT
  5
657
330
650
100
AcDbEntity
  8
Defpoints
 62
     0
100
AcDbPoint
 10
-67.329498
 20
240.099498
 30
0.0
  0
POINT
  5
658
330
650
100
AcDbEntity
  8
Defpoints
 62
     0
100
AcDbPoint
 10
94.152622
 20
150.099498
 30
0.0
  0
POINT
  5
659
330
650
100
AcDbEntity
  8
Defpoints
 62
     0
100
AcDbPoint
 10
-149.298398
 20
150.099498
 30
0.0
  0
ENDBLK
  5
65B
330
650
100
AcDbEntity
  8
0
100
AcDbBlockEnd
  0
BLOCK
  5
668
330
65D
100
AcDbEntity
  8
0
100
AcDbBlockBegin
  2
*D46
 70
     1
 71
     0
 10
0.0
 20
0.0
 30
0.0
  3
*D46
  1

  0
LINE
  5
65E
330
65D
100
AcDbEntity
  8
LC-003-003-----0
 62
     2
370
    -2
100
AcDbLine
 10
118.670502
 20
175.099498
 30
0.0
 11
-17.267827
 21
175.099498
 31
0.0
  0
LINE
  5
65F
330
65D
100
AcDbEntity
  8
LC-003-003-----0
 62
     2
370
    -2
100
AcDbLine
 10
108.670502
 20
204.599498
 30
0.0
 11
-17.267827
 21
204.599498
 31
0.0
  0
LINE
  5
660
330
65D
100
AcDbEntity
  8
LC-003-003-----0
 62
     2
370
    -2
100
AcDbLine
 10
-13.667827
 20
232.599498
 30
0.0
 11
-13.667827
 21
260.599498
 31
0.0
  0
LINE
  5
661
330
65D
100
AcDbEntity
  8
LC-003-003-----0
 62
     2
370
    -2
100
AcDbLine
 10
-13.667827
 20
147.099498
 30
0.0
 11
-13.667827
 21
134.654745
 31
0.0
  0
SOLID
  5
662
330
65D
100
AcDbEntity
  8
LC-003-003-----0
 62
     2
100
AcDbTrace
 10
-9.001161
 20
147.099498
 30
0.0
 11
-18.334494
 21
147.099498
 31
0.0
 12
-13.667827
 22
175.099498
 32
0.0
 13
-13.667827
 23
175.099498
 33
0.0
  0
SOLID
  5
663
330
65D
100
AcDbEntity
  8
LC-003-003-----0
 62
     2
100
AcDbTrace
 10
-18.334494
 20
232.599498
 30
0.0
 11
-9.001161
 21
232.599498
 31
0.0
 12
-13.667827
 22
204.599498
 32
0.0
 13
-13.667827
 23
204.599498
 33
0.0
  0
MTEXT
  5
664
330
65D
100
AcDbEntity
  8
LC-003-003-----0
 62
     2
100
AcDbMText
 10
-44.467827
 20
157.576972
 30
0.0
 40
28.0
 41
0.0
 71
     5
 72
     1
  1
\A1;30
  7
LCTX15-400-0-0pDIN-Schrift
 11
6.123031769111886E-17
 21
1.0
 31
0.0
 73
     1
 44
1.0
  0
POINT
  5
665
330
65D
100
AcDbEntity
  8
Defpoints
 62
     0
100
AcDbPoint
 10
118.670502
 20
175.099498
 30
0.0
  0
POINT
  5
666
330
65D
100
AcDbEntity
  8
Defpoints
 62
     0
100
AcDbPoint
 10
108.670502
 20
204.599498
 30
0.0
  0
POINT
  5
667
330
65D
100
AcDbEntity
  8
Defpoints
 62
     0
100
AcDbPoint
 10
-13.667827
 20
204.599498
 30
0.0
  0
ENDBLK
  5
669
330
65D
100
AcDbEntity
  8
0
100
AcDbBlockEnd
  0
BLOCK
  5
675
330
66B
100
AcDbEntity
  8
0
100
AcDbBlockBegin
  2
*D47
 70
     1
 71
     0
 10
0.0
 20
0.0
 30
0.0
  3
*D47
  1

  0
LINE
  5
66C
330
66B
100
AcDbEntity
  8
LC-003-003-----0
 62
     2
370
    -2
100
AcDbLine
 10
147.670502
 20
148.165004
 30
0.0
 11
147.670502
 21
104.674972
 31
0.0
  0
LINE
  5
66D
330
66B
100
AcDbEntity
  8
LC-003-003-----0
 62
     2
370
    -2
100
AcDbLine
 10
357.170299
 20
182.599498
 30
0.0
 11
357.170299
 21
104.674972
 31
0.0
  0
LINE
  5
66E
330
66B
100
AcDbEntity
  8
LC-003-003-----0
 62
     2
370
    -2
100
AcDbLine
 10
175.670502
 20
108.274972
 30
0.0
 11
329.170299
 21
108.274972
 31
0.0
  0
SOLID
  5
66F
330
66B
100
AcDbEntity
  8
LC-003-003-----0
 62
     2
100
AcDbTrace
 10
175.670502
 20
112.941638
 30
0.0
 11
175.670502
 21
103.608305
 31
0.0
 12
147.670502
 22
108.274972
 32
0.0
 13
147.670502
 23
108.274972
 33
0.0
  0
SOLID
  5
670
330
66B
100
AcDbEntity
  8
LC-003-003-----0
 62
     2
100
AcDbTrace
 10
329.170299
 20
103.608305
 30
0.0
 11
329.170299
 21
112.941638
 31
0.0
 12
357.170299
 22
108.274972
 32
0.0
 13
357.170299
 23
108.274972
 33
0.0
  0
MTEXT
  5
671
330
66B
100
AcDbEntity
  8
LC-003-003-----0
 62
     2
100
AcDbMText
 10
247.842096
 20
139.074972
 30
0.0
 40
28.0
 41
0.0
 71
     5
 72
     1
  1
\A1;210
  7
LCTX15-400-0-0pDIN-Schrift
 73
     1
 44
1.0
  0
POINT
  5
672
330
66B
100
AcDbEntity
  8
Defpoints
 62
     0
100
AcDbPoint
 10
147.670502
 20
148.165004
 30
0.0
  0
POINT
  5
673
330
66B
100
AcDbEntity
  8
Defpoints
 62
     0
100
AcDbPoint
 10
357.170299
 20
182.599498
 30
0.0
  0
POINT
  5
674
330
66B
100
AcDbEntity
  8
Defpoints
 62
     0
100
AcDbPoint
 10
357.170299
 20
108.274972
 30
0.0
  0
ENDBLK
  5
676
330
66B
100
AcDbEntity
  8
0
100
AcDbBlockEnd
  0
BLOCK
  5
683
330
678
100
AcDbEntity
  8
0
100
AcDbBlockBegin
  2
*D48
 70
     1
 71
     0
 10
0.0
 20
0.0
 30
0.0
  3
*D48
  1

  0
LINE
  5
679
330
678
100
AcDbEntity
  8
LC-003-003-----0
 62
     2
370
    -2
100
AcDbLine
 10
362.670502
 20
240.099498
 30
0.0
 11
424.304587
 21
240.099498
 31
0.0
  0
LINE
  5
67A
330
678
100
AcDbEntity
  8
LC-003-003-----0
 62
     2
370
    -2
100
AcDbLine
 10
357.170299
 20
182.599498
 30
0.0
 11
424.304587
 21
182.599498
 31
0.0
  0
LINE
  5
67B
330
678
100
AcDbEntity
  8
LC-003-003-----0
 62
     2
370
    -2
100
AcDbLine
 10
420.704587
 20
154.599498
 30
0.0
 11
420.704587
 21
126.599498
 31
0.0
  0
LINE
  5
67C
330
678
100
AcDbEntity
  8
LC-003-003-----0
 62
     2
370
    -2
100
AcDbLine
 10
420.704587
 20
268.099498
 30
0.0
 11
420.704587
 21
282.251831
 31
0.0
  0
SOLID
  5
67D
330
678
100
AcDbEntity
  8
LC-003-003-----0
 62
     2
100
AcDbTrace
 10
416.037921
 20
268.099498
 30
0.0
 11
425.371254
 21
268.099498
 31
0.0
 12
420.704587
 22
240.099498
 32
0.0
 13
420.704587
 23
240.099498
 33
0.0
  0
SOLID
  5
67E
330
678
100
AcDbEntity
  8
LC-003-003-----0
 62
     2
100
AcDbTrace
 10
425.371254
 20
154.599498
 30
0.0
 11
416.037921
 21
154.599498
 31
0.0
 12
420.704587
 22
182.599498
 32
0.0
 13
420.704587
 23
182.599498
 33
0.0
  0
MTEXT
  5
67F
330
678
100
AcDbEntity
  8
LC-003-003-----0
 62
     2
100
AcDbMText
 10
389.904587
 20
259.150972
 30
0.0
 40
28.0
 41
0.0
 71
     5
 72
     1
  1
\A1;58
  7
LCTX15-400-0-0pDIN-Schrift
 11
6.123031769111886E-17
 21
1.0
 31
0.0
 73
     1
 44
1.0
  0
POINT
  5
680
330
678
100
AcDbEntity
  8
Defpoints
 62
     0
100
AcDbPoint
 10
362.670502
 20
240.099498
 30
0.0
  0
POINT
  5
681
330
678
100
AcDbEntity
  8
Defpoints
 62
     0
100
AcDbPoint
 10
357.170299
 20
182.599498
 30
0.0
  0
POINT
  5
682
330
678
100
AcDbEntity
  8
Defpoints
 62
     0
100
AcDbPoint
 10
420.704587
 20
182.599498
 30
0.0
  0
ENDBLK
  5
684
330
678
100
AcDbEntity
  8
0
100
AcDbBlockEnd
  0
BLOCK
  5
691
330
686
100
AcDbEntity
  8
0
100
AcDbBlockBegin
  2
*D49
 70
     1
 71
     0
 10
0.0
 20
0.0
 30
0.0
  3
*D49
  1

  0
LINE
  5
687
330
686
100
AcDbEntity
  8
LC-003-003-----0
 62
     2
370
    -2
100
AcDbLine
 10
353.670299
 20
207.599498
 30
0.0
 11
478.37952
 21
207.599498
 31
0.0
  0
LINE
  5
688
330
686
100
AcDbEntity
  8
LC-003-003-----0
 62
     2
370
    -2
100
AcDbLine
 10
353.670299
 20
157.599498
 30
0.0
 11
478.37952
 21
157.599498
 31
0.0
  0
LINE
  5
689
330
686
100
AcDbEntity
  8
LC-003-003-----0
 62
     2
370
    -2
100
AcDbLine
 10
474.77952
 20
129.599498
 30
0.0
 11
474.77952
 21
101.599498
 31
0.0
  0
LINE
  5
68A
330
686
100
AcDbEntity
  8
LC-003-003-----0
 62
     2
370
    -2
100
AcDbLine
 10
474.77952
 20
235.599498
 30
0.0
 11
474.77952
 21
278.457729
 31
0.0
  0
SOLID
  5
68B
330
686
100
AcDbEntity
  8
LC-003-003-----0
 62
     2
100
AcDbTrace
 10
470.112854
 20
235.599498
 30
0.0
 11
479.446187
 21
235.599498
 31
0.0
 12
474.77952
 22
207.599498
 32
0.0
 13
474.77952
 23
207.599498
 33
0.0
  0
SOLID
  5
68C
330
686
100
AcDbEntity
  8
LC-003-003-----0
 62
     2
100
AcDbTrace
 10
479.446187
 20
129.599498
 30
0.0
 11
470.112854
 21
129.599498
 31
0.0
 12
474.77952
 22
157.599498
 32
0.0
 13
474.77952
 23
157.599498
 33
0.0
  0
MTEXT
  5
68D
330
686
100
AcDbEntity
  8
LC-003-003-----0
 62
     2
100
AcDbMText
 10
443.97952
 20
232.420972
 30
0.0
 40
28.0
 41
0.0
 71
     5
 72
     1
  1
\A1;DN50
  7
LCTX15-400-0-0pDIN-Schrift
 11
6.123031769111886E-17
 21
1.0
 31
0.0
 73
     1
 44
1.0
  0
POINT
  5
68E
330
686
100
AcDbEntity
  8
Defpoints
 62
     0
100
AcDbPoint
 10
353.670299
 20
207.599498
 30
0.0
  0
POINT
  5
68F
330
686
100
AcDbEntity
  8
Defpoints
 62
     0
100
AcDbPoint
 10
353.670299
 20
157.599498
 30
0.0
  0
POINT
  5
690
330
686
100
AcDbEntity
  8
Defpoints
 62
     0
100
AcDbPoint
 10
474.77952
 20
157.599498
 30
0.0
  0
ENDBLK
  5
692
330
686
100
AcDbEntity
  8
0
100
AcDbBlockEnd
  0
BLOCK
  5
695
330
694
100
AcDbEntity
  8
0
100
AcDbBlockBegin
  2
LCDIM1
 70
     0
 71
     0
 10
0.0
 20
0.0
 30
0.0
  3
LCDIM1
  1

  4
LCDIM1
  0
TEXT
  5
697
330
694
100
AcDbEntity
  8
LC-003-003-----0
 62
     7
370
   140
100
AcDbText
 10
268.27385
 20
46.075911
 30
0.0
 40
28.0
  1
 15%%d
 50
17.215881
 41
0.8
 51
15.0
  7
LCTX15-400-0-0-Arial
 72
     1
 11
295.06214
 21
54.37641
 31
0.0
100
AcDbText
  0
LINE
  5
698
330
694
100
AcDbEntity
  8
LC-003-003-----0
 62
     7
370
    25
100
AcDbLine
 10
391.230274
 20
116.000043
 30
0.0
 11
397.418795
 21
143.307592
 31
0.0
  0
LINE
  5
699
330
694
100
AcDbEntity
  8
LC-003-003-----0
 62
     7
370
    25
100
AcDbLine
 10
397.418795
 20
143.307592
 30
0.0
 11
384.373429
 21
118.532232
 31
0.0
  0
LINE
  5
69A
330
694
100
AcDbEntity
  8
LC-003-003-----0
 62
     7
370
    25
100
AcDbLine
 10
384.373429
 20
118.532232
 30
0.0
 11
391.230274
 21
116.000043
 31
0.0
  0
LINE
  5
69B
330
694
100
AcDbEntity
  8
LC-003-003-----0
 62
     7
370
    25
100
AcDbLine
 10
390.317309
 20
116.270803
 30
0.0
 11
394.896814
 21
136.478389
 31
0.0
  0
LINE
  5
69C
330
694
100
AcDbEntity
  8
LC-003-003-----0
 62
     7
370
    25
100
AcDbLine
 10
394.896814
 20
136.478389
 30
0.0
 11
385.243243
 21
118.144623
 31
0.0
  0
LINE
  5
69D
330
694
100
AcDbEntity
  8
LC-003-003-----0
 62
     7
370
    25
100
AcDbLine
 10
389.404343
 20
116.541563
 30
0.0
 11
392.374833
 21
129.649186
 31
0.0
  0
LINE
  5
69E
330
694
100
AcDbEntity
  8
LC-003-003-----0
 62
     7
370
    25
100
AcDbLine
 10
392.374833
 20
129.649186
 30
0.0
 11
386.113057
 21
117.757013
 31
0.0
  0
LINE
  5
69F
330
694
100
AcDbEntity
  8
LC-003-003-----0
 62
     7
370
    25
100
AcDbLine
 10
388.491377
 20
116.812322
 30
0.0
 11
389.852852
 21
122.819983
 31
0.0
  0
LINE
  5
6A0
330
694
100
AcDbEntity
  8
LC-003-003-----0
 62
     7
370
    25
100
AcDbLine
 10
389.852852
 20
122.819983
 30
0.0
 11
386.982871
 21
117.369404
 31
0.0
  0
LINE
  5
6A1
330
694
100
AcDbEntity
  8
LC-003-003-----0
 62
     7
370
    25
100
AcDbLine
 10
396.403152
 20
209.907047
 30
0.0
 11
402.591672
 21
182.599498
 31
0.0
  0
LINE
  5
6A2
330
694
100
AcDbEntity
  8
LC-003-003-----0
 62
     7
370
    25
100
AcDbLine
 10
402.591672
 20
182.599498
 30
0.0
 11
403.681734
 21
210.578271
 31
0.0
  0
LINE
  5
6A3
330
694
100
AcDbEntity
  8
LC-003-003-----0
 62
     7
370
    25
100
AcDbLine
 10
403.681734
 20
210.578271
 30
0.0
 11
396.403152
 21
209.907047
 31
0.0
  0
LINE
  5
6A4
330
694
100
AcDbEntity
  8
LC-003-003-----0
 62
     7
370
    25
100
AcDbLine
 10
397.343648
 20
210.056324
 30
0.0
 11
401.923153
 21
189.848738
 31
0.0
  0
LINE
  5
6A5
330
694
100
AcDbEntity
  8
LC-003-003-----0
 62
     7
370
    25
100
AcDbLine
 10
401.923153
 20
189.848738
 30
0.0
 11
402.729799
 21
210.55303
 31
0.0
  0
LINE
  5
6A6
330
694
100
AcDbEntity
  8
LC-003-003-----0
 62
     7
370
    25
100
AcDbLine
 10
398.284145
 20
210.205601
 30
0.0
 11
401.254635
 21
197.097978
 31
0.0
  0
LINE
  5
6A7
330
694
100
AcDbEntity
  8
LC-003-003-----0
 62
     7
370
    25
100
AcDbLine
 10
401.254635
 20
197.097978
 30
0.0
 11
401.777864
 21
210.527789
 31
0.0
  0
LINE
  5
6A8
330
694
100
AcDbEntity
  8
LC-003-003-----0
 62
     7
370
    25
100
AcDbLine
 10
399.224641
 20
210.354879
 30
0.0
 11
400.586116
 21
204.347218
 31
0.0
  0
LINE
  5
6A9
330
694
100
AcDbEntity
  8
LC-003-003-----0
 62
     7
370
    25
100
AcDbLine
 10
400.586116
 20
204.347218
 30
0.0
 11
400.825929
 21
210.502548
 31
0.0
  0
ARC
  5
6AB
330
694
100
AcDbEntity
  8
LC-004-003-MTG-0
 62
     7
370
    25
100
AcDbCircle
 10
250.779404
 20
182.599498
 30
0.0
 40
151.8122678334587
100
AcDbArc
 50
273.642388
 51
274.649667
  0
ARC
  5
6AC
330
694
100
AcDbEntity
  8
LC-004-003-MTG-0
 62
     7
370
    25
100
AcDbCircle
 10
250.779404
 20
182.599498
 30
0.0
 40
151.8122678334587
100
AcDbArc
 50
276.194577
 51
298.237185
  0
ARC
  5
6AD
330
694
100
AcDbEntity
  8
LC-004-003-MTG-0
 62
     7
370
    25
100
AcDbCircle
 10
250.779404
 20
182.599498
 30
0.0
 40
151.8122678334587
100
AcDbArc
 50
305.458413
 51
14.478305
  0
LINE
  5
6AF
330
694
100
AcDbEntity
  8
LC-005-003-MTH-0
 62
     7
370
    25
100
AcDbLine
 10
404.783713
 20
141.334168
 30
0.0
 11
393.555091
 21
144.342868
 31
0.0
  0
LINE
  5
6B0
330
694
100
AcDbEntity
  8
LC-005-003-MTH-0
 62
     7
370
    25
100
AcDbLine
 10
361.170299
 20
182.599498
 30
0.0
 11
406.591672
 21
182.599498
 31
0.0
  0
ENDBLK
  5
696
330
694
100
AcDbEntity
  8
0
100
AcDbBlockEnd
  0
BLOCK
  5
6BF
330
6BE
100
AcDbEntity
  8
0
100
AcDbBlockBegin
  2
POLY28
 70
     0
 71
     0
 10
0.0
 20
0.0
 30
0.0
  3
POLY28
  1

  4
POLY28
  0
LINE
  5
6C1
330
6BE
100
AcDbEntity
  8
LC-001-100-D00-0
 62
     7
370
    50
100
AcDbLine
 10
-53.072322
 20
222.92585
 30
0.0
 11
-53.072322
 21
222.92585
 31
0.0
  0
LINE
  5
6C2
330
6BE
100
AcDbEntity
  8
LC-001-100-D00-0
 62
     7
370
    50
100
AcDbLine
 10
-53.072322
 20
222.92585
 30
0.0
 11
-53.087808
 21
222.823957
 31
0.0
  0
LINE
  5
6C3
330
6BE
100
AcDbEntity
  8
LC-001-100-D00-0
 62
     7
370
    50
100
AcDbLine
 10
-53.087808
 20
222.823957
 30
0.0
 11
-53.087808
 21
222.823957
 31
0.0
  0
LINE
  5
6C4
330
6BE
100
AcDbEntity
  8
LC-001-100-D00-0
 62
     7
370
    50
100
AcDbLine
 10
-53.087808
 20
222.823957
 30
0.0
 11
-53.118738
 21
222.620456
 31
0.0
  0
LINE
  5
6C5
330
6BE
100
AcDbEntity
  8
LC-001-100-D00-0
 62
     7
370
    50
100
AcDbLine
 10
-53.118738
 20
222.620456
 30
0.0
 11
-53.118738
 21
222.620456
 31
0.0
  0
LINE
  5
6C6
330
6BE
100
AcDbEntity
  8
LC-001-100-D00-0
 62
     7
370
    50
100
AcDbLine
 10
-53.118738
 20
222.620456
 30
0.0
 11
-53.228075
 21
222.372572
 31
0.0
  0
LINE
  5
6C7
330
6BE
100
AcDbEntity
  8
LC-001-100-D00-0
 62
     7
370
    50
100
AcDbLine
 10
-53.228075
 20
222.372572
 30
0.0
 11
-53.228075
 21
222.372572
 31
0.0
  0
LINE
  5
6C8
330
6BE
100
AcDbEntity
  8
LC-001-100-D00-0
 62
     7
370
    50
100
AcDbLine
 10
-53.228075
 20
222.372572
 30
0.0
 11
-53.378233
 21
222.18734
 31
0.0
  0
LINE
  5
6C9
330
6BE
100
AcDbEntity
  8
LC-001-100-D00-0
 62
     7
370
    50
100
AcDbLine
 10
-53.378233
 20
222.18734
 30
0.0
 11
-53.378233
 21
222.18734
 31
0.0
  0
LINE
  5
6CA
330
6BE
100
AcDbEntity
  8
LC-001-100-D00-0
 62
     7
370
    50
100
AcDbLine
 10
-53.378233
 20
222.18734
 30
0.0
 11
-53.530041
 21
222.110919
 31
0.0
  0
LINE
  5
6CB
330
6BE
100
AcDbEntity
  8
LC-001-100-D00-0
 62
     7
370
    50
100
AcDbLine
 10
-53.530041
 20
222.110919
 30
0.0
 11
-53.530041
 21
222.110919
 31
0.0
  0
LINE
  5
6CC
330
6BE
100
AcDbEntity
  8
LC-001-100-D00-0
 62
     7
370
    50
100
AcDbLine
 10
-53.530041
 20
222.110919
 30
0.0
 11
-53.6293
 21
222.099587
 31
0.0
  0
LINE
  5
6CD
330
6BE
100
AcDbEntity
  8
LC-001-100-D00-0
 62
     7
370
    50
100
AcDbLine
 10
-53.6293
 20
222.099587
 30
0.0
 11
-53.6293
 21
222.099587
 31
0.0
  0
LINE
  5
6CE
330
6BE
100
AcDbEntity
  8
LC-001-100-D00-0
 62
     7
370
    50
100
AcDbLine
 10
-53.6293
 20
222.099587
 30
0.0
 11
-53.659698
 21
222.099501
 31
0.0
  0
LINE
  5
6CF
330
6BE
100
AcDbEntity
  8
LC-001-100-D00-0
 62
     7
370
    50
100
AcDbLine
 10
-53.659698
 20
222.099501
 30
0.0
 11
-53.659698
 21
222.099501
 31
0.0
  0
LINE
  5
6D0
330
6BE
100
AcDbEntity
  8
LC-001-100-D00-0
 62
     7
370
    50
100
AcDbLine
 10
-53.659698
 20
222.099501
 30
0.0
 11
-53.6609
 21
222.099498
 31
0.0
  0
ENDBLK
  5
6C0
330
6BE
100
AcDbEntity
  8
0
100
AcDbBlockEnd
  0
BLOCK
  5
6D5
330
6D4
100
AcDbEntity
  8
0
100
AcDbBlockBegin
  2
POLY29
 70
     0
 71
     0
 10
0.0
 20
0.0
 30
0.0
  3
POLY29
  1

  4
POLY29
  0
LINE
  5
6D7
330
6D4
100
AcDbEntity
  8
LC-001-100-D00-0
 62
     7
370
    50
100
AcDbLine
 10
-50.513545
 20
222.099498
 30
0.0
 11
-50.513545
 21
222.099498
 31
0.0
  0
LINE
  5
6D8
330
6D4
100
AcDbEntity
  8
LC-001-100-D00-0
 62
     7
370
    50
100
AcDbLine
 10
-50.513545
 20
222.099498
 30
0.0
 11
-50.484946
 21
222.099498
 31
0.0
  0
LINE
  5
6D9
330
6D4
100
AcDbEntity
  8
LC-001-100-D00-0
 62
     7
370
    50
100
AcDbLine
 10
-50.484946
 20
222.099498
 30
0.0
 11
-50.484946
 21
222.099498
 31
0.0
  0
LINE
  5
6DA
330
6D4
100
AcDbEntity
  8
LC-001-100-D00-0
 62
     7
370
    50
100
AcDbLine
 10
-50.484946
 20
222.099498
 30
0.0
 11
-50.43059
 21
222.099498
 31
0.0
  0
LINE
  5
6DB
330
6D4
100
AcDbEntity
  8
LC-001-100-D00-0
 62
     7
370
    50
100
AcDbLine
 10
-50.43059
 20
222.099498
 30
0.0
 11
-50.43059
 21
222.099498
 31
0.0
  0
LINE
  5
6DC
330
6D4
100
AcDbEntity
  8
LC-001-100-D00-0
 62
     7
370
    50
100
AcDbLine
 10
-50.43059
 20
222.099498
 30
0.0
 11
-50.416591
 21
222.099498
 31
0.0
  0
LINE
  5
6DD
330
6D4
100
AcDbEntity
  8
LC-001-100-D00-0
 62
     7
370
    50
100
AcDbLine
 10
-50.416591
 20
222.099498
 30
0.0
 11
-50.416591
 21
222.099498
 31
0.0
  0
LINE
  5
6DE
330
6D4
100
AcDbEntity
  8
LC-001-100-D00-0
 62
     7
370
    50
100
AcDbLine
 10
-50.416591
 20
222.099498
 30
0.0
 11
-50.409958
 21
222.099498
 31
0.0
  0
ENDBLK
  5
6D6
330
6D4
100
AcDbEntity
  8
0
100
AcDbBlockEnd
  0
BLOCK
  5
6E3
330
6E2
100
AcDbEntity
  8
0
100
AcDbBlockBegin
  2
POLY30
 70
     0
 71
     0
 10
0.0
 20
0.0
 30
0.0
  3
POLY30
  1

  4
POLY30
  0
LINE
  5
6E5
330
6E2
100
AcDbEntity
  8
LC-001-100-D00-0
 62
     7
370
    50
100
AcDbLine
 10
-30.829498
 20
222.099498
 30
0.0
 11
-30.829498
 21
222.099498
 31
0.0
  0
LINE
  5
6E6
330
6E2
100
AcDbEntity
  8
LC-001-100-D00-0
 62
     7
370
    50
100
AcDbLine
 10
-30.829498
 20
222.099498
 30
0.0
 11
-30.890984
 21
222.099498
 31
0.0
  0
LINE
  5
6E7
330
6E2
100
AcDbEntity
  8
LC-001-100-D00-0
 62
     7
370
    50
100
AcDbLine
 10
-30.890984
 20
222.099498
 30
0.0
 11
-30.890984
 21
222.099498
 31
0.0
  0
LINE
  5
6E8
330
6E2
100
AcDbEntity
  8
LC-001-100-D00-0
 62
     7
370
    50
100
AcDbLine
 10
-30.890984
 20
222.099498
 30
0.0
 11
-31.014005
 21
222.099498
 31
0.0
  0
LINE
  5
6E9
330
6E2
100
AcDbEntity
  8
LC-001-100-D00-0
 62
     7
370
    50
100
AcDbLine
 10
-31.014005
 20
222.099498
 30
0.0
 11
-31.014005
 21
222.099498
 31
0.0
  0
LINE
  5
6EA
330
6E2
100
AcDbEntity
  8
LC-001-100-D00-0
 62
     7
370
    50
100
AcDbLine
 10
-31.014005
 20
222.099498
 30
0.0
 11
-31.32322
 21
222.099498
 31
0.0
  0
LINE
  5
6EB
330
6E2
100
AcDbEntity
  8
LC-001-100-D00-0
 62
     7
370
    50
100
AcDbLine
 10
-31.32322
 20
222.099498
 30
0.0
 11
-31.32322
 21
222.099498
 31
0.0
  0
LINE
  5
6EC
330
6E2
100
AcDbEntity
  8
LC-001-100-D00-0
 62
     7
370
    50
100
AcDbLine
 10
-31.32322
 20
222.099498
 30
0.0
 11
-31.761432
 21
222.099498
 31
0.0
  0
LINE
  5
6ED
330
6E2
100
AcDbEntity
  8
LC-001-100-D00-0
 62
     7
370
    50
100
AcDbLine
 10
-31.761432
 20
222.099498
 30
0.0
 11
-31.761432
 21
222.099498
 31
0.0
  0
LINE
  5
6EE
330
6E2
100
AcDbEntity
  8
LC-001-100-D00-0
 62
     7
370
    50
100
AcDbLine
 10
-31.761432
 20
222.099498
 30
0.0
 11
-32.389964
 21
222.099498
 31
0.0
  0
LINE
  5
6EF
330
6E2
100
AcDbEntity
  8
LC-001-100-D00-0
 62
     7
370
    50
100
AcDbLine
 10
-32.389964
 20
222.099498
 30
0.0
 11
-32.389964
 21
222.099498
 31
0.0
  0
LINE
  5
6F0
330
6E2
100
AcDbEntity
  8
LC-001-100-D00-0
 62
     7
370
    50
100
AcDbLine
 10
-32.389964
 20
222.099498
 30
0.0
 11
-33.085258
 21
222.099498
 31
0.0
  0
LINE
  5
6F1
330
6E2
100
AcDbEntity
  8
LC-001-100-D00-0
 62
     7
370
    50
100
AcDbLine
 10
-33.085258
 20
222.099498
 30
0.0
 11
-33.085258
 21
222.099498
 31
0.0
  0
LINE
  5
6F2
330
6E2
100
AcDbEntity
  8
LC-001-100-D00-0
 62
     7
370
    50
100
AcDbLine
 10
-33.085258
 20
222.099498
 30
0.0
 11
-33.580352
 21
222.099498
 31
0.0
  0
LINE
  5
6F3
330
6E2
100
AcDbEntity
  8
LC-001-100-D00-0
 62
     7
370
    50
100
AcDbLine
 10
-33.580352
 20
222.099498
 30
0.0
 11
-33.580352
 21
222.099498
 31
0.0
  0
LINE
  5
6F4
330
6E2
100
AcDbEntity
  8
LC-001-100-D00-0
 62
     7
370
    50
100
AcDbLine
 10
-33.580352
 20
222.099498
 30
0.0
 11
-33.829498
 21
222.099498
 31
0.0
  0
ENDBLK
  5
6E4
330
6E2
100
AcDbEntity
  8
0
100
AcDbBlockEnd
  0
BLOCK
  5
709
330
6FD
100
AcDbEntity
  8
0
100
AcDbBlockBegin
  2
*D54
 70
     1
 71
     0
 10
0.0
 20
0.0
 30
0.0
  3
*D54
  1

  0
LINE
  5
6FE
330
6FD
100
AcDbEntity
  8
LC-003-003-----0
 62
     2
370
    -2
100
AcDbLine
 10
-67.329498
 20
240.099498
 30
0.0
 11
-97.050516
 21
240.099498
 31
0.0
  0
LINE
  5
6FF
330
6FD
100
AcDbEntity
  8
LC-003-003-----0
 62
     2
370
    -2
100
AcDbLine
 10
-60.727129
 20
222.099498
 30
0.0
 11
-97.050516
 21
222.099498
 31
0.0
  0
LINE
  5
700
330
6FD
100
AcDbEntity
  8
LC-003-003-----0
 62
     2
370
    -2
100
AcDbLine
 10
-93.450516
 20
268.099498
 30
0.0
 11
-93.450516
 21
296.099498
 31
0.0
  0
LINE
  5
701
330
6FD
100
AcDbEntity
  8
LC-003-003-----0
 62
     2
370
    -2
100
AcDbLine
 10
-93.450516
 20
194.099498
 30
0.0
 11
-93.450516
 21
166.099498
 31
0.0
  0
LINE
  5
702
330
6FD
100
AcDbEntity
  8
LC-003-003-----0
 62
     2
370
    -2
100
AcDbLine
 10
-93.450516
 20
240.099498
 30
0.0
 11
-93.450516
 21
222.099498
 31
0.0
  0
SOLID
  5
703
330
6FD
100
AcDbEntity
  8
LC-003-003-----0
 62
     2
100
AcDbTrace
 10
-98.117182
 20
268.099498
 30
0.0
 11
-88.783849
 21
268.099498
 31
0.0
 12
-93.450516
 22
240.099498
 32
0.0
 13
-93.450516
 23
240.099498
 33
0.0
  0
SOLID
  5
704
330
6FD
100
AcDbEntity
  8
LC-003-003-----0
 62
     2
100
AcDbTrace
 10
-88.783849
 20
194.099498
 30
0.0
 11
-98.117182
 21
194.099498
 31
0.0
 12
-93.450516
 22
222.099498
 32
0.0
 13
-93.450516
 23
222.099498
 33
0.0
  0
MTEXT
  5
705
330
6FD
100
AcDbEntity
  8
LC-003-003-----0
 62
     2
100
AcDbMText
 10
-124.250516
 20
230.227107
 30
0.0
 40
28.0
 41
0.0
 71
     5
 72
     1
  1
\A1;18
  7
LCTX15-400-0-0pDIN-Schrift
 11
6.123031769111886E-17
 21
1.0
 31
0.0
 73
     1
 44
1.0
  0
POINT
  5
706
330
6FD
100
AcDbEntity
  8
Defpoints
 62
     0
100
AcDbPoint
 10
-67.329498
 20
240.099498
 30
0.0
  0
POINT
  5
707
330
6FD
100
AcDbEntity
  8
Defpoints
 62
     0
100
AcDbPoint
 10
-60.727129
 20
222.099498
 30
0.0
  0
POINT
  5
708
330
6FD
100
AcDbEntity
  8
Defpoints
 62
     0
100
AcDbPoint
 10
-93.450516
 20
222.099498
 30
0.0
  0
ENDBLK
  5
70A
330
6FD
100
AcDbEntity
  8
0
100
AcDbBlockEnd
  0
BLOCK
  5
718
330
717
100
AcDbEntity
  8
0
100
AcDbBlockBegin
  2
POLY31
 70
     0
 71
     0
 10
0.0
 20
0.0
 30
0.0
  3
POLY31
  1

  4
POLY31
  0
LINE
  5
71A
330
717
100
AcDbEntity
  8
LC-001-100-D00-0
 62
     7
370
    50
100
AcDbLine
 10
348.413326
 20
222.92585
 30
0.0
 11
348.413326
 21
222.92585
 31
0.0
  0
LINE
  5
71B
330
717
100
AcDbEntity
  8
LC-001-100-D00-0
 62
     7
370
    50
100
AcDbLine
 10
348.413326
 20
222.92585
 30
0.0
 11
348.428812
 21
222.823957
 31
0.0
  0
LINE
  5
71C
330
717
100
AcDbEntity
  8
LC-001-100-D00-0
 62
     7
370
    50
100
AcDbLine
 10
348.428812
 20
222.823957
 30
0.0
 11
348.428812
 21
222.823957
 31
0.0
  0
LINE
  5
71D
330
717
100
AcDbEntity
  8
LC-001-100-D00-0
 62
     7
370
    50
100
AcDbLine
 10
348.428812
 20
222.823957
 30
0.0
 11
348.459741
 21
222.620456
 31
0.0
  0
LINE
  5
71E
330
717
100
AcDbEntity
  8
LC-001-100-D00-0
 62
     7
370
    50
100
AcDbLine
 10
348.459741
 20
222.620456
 30
0.0
 11
348.459741
 21
222.620456
 31
0.0
  0
LINE
  5
71F
330
717
100
AcDbEntity
  8
LC-001-100-D00-0
 62
     7
370
    50
100
AcDbLine
 10
348.459741
 20
222.620456
 30
0.0
 11
348.569079
 21
222.372572
 31
0.0
  0
LINE
  5
720
330
717
100
AcDbEntity
  8
LC-001-100-D00-0
 62
     7
370
    50
100
AcDbLine
 10
348.569079
 20
222.372572
 30
0.0
 11
348.569079
 21
222.372572
 31
0.0
  0
LINE
  5
721
330
717
100
AcDbEntity
  8
LC-001-100-D00-0
 62
     7
370
    50
100
AcDbLine
 10
348.569079
 20
222.372572
 30
0.0
 11
348.719236
 21
222.18734
 31
0.0
  0
LINE
  5
722
330
717
100
AcDbEntity
  8
LC-001-100-D00-0
 62
     7
370
    50
100
AcDbLine
 10
348.719236
 20
222.18734
 30
0.0
 11
348.719236
 21
222.18734
 31
0.0
  0
LINE
  5
723
330
717
100
AcDbEntity
  8
LC-001-100-D00-0
 62
     7
370
    50
100
AcDbLine
 10
348.719236
 20
222.18734
 30
0.0
 11
348.871044
 21
222.110919
 31
0.0
  0
LINE
  5
724
330
717
100
AcDbEntity
  8
LC-001-100-D00-0
 62
     7
370
    50
100
AcDbLine
 10
348.871044
 20
222.110919
 30
0.0
 11
348.871044
 21
222.110919
 31
0.0
  0
LINE
  5
725
330
717
100
AcDbEntity
  8
LC-001-100-D00-0
 62
     7
370
    50
100
AcDbLine
 10
348.871044
 20
222.110919
 30
0.0
 11
348.970304
 21
222.099587
 31
0.0
  0
LINE
  5
726
330
717
100
AcDbEntity
  8
LC-001-100-D00-0
 62
     7
370
    50
100
AcDbLine
 10
348.970304
 20
222.099587
 30
0.0
 11
348.970304
 21
222.099587
 31
0.0
  0
LINE
  5
727
330
717
100
AcDbEntity
  8
LC-001-100-D00-0
 62
     7
370
    50
100
AcDbLine
 10
348.970304
 20
222.099587
 30
0.0
 11
349.000702
 21
222.099501
 31
0.0
  0
LINE
  5
728
330
717
100
AcDbEntity
  8
LC-001-100-D00-0
 62
     7
370
    50
100
AcDbLine
 10
349.000702
 20
222.099501
 30
0.0
 11
349.000702
 21
222.099501
 31
0.0
  0
LINE
  5
729
330
717
100
AcDbEntity
  8
LC-001-100-D00-0
 62
     7
370
    50
100
AcDbLine
 10
349.000702
 20
222.099501
 30
0.0
 11
349.001903
 21
222.099498
 31
0.0
  0
ENDBLK
  5
719
330
717
100
AcDbEntity
  8
0
100
AcDbBlockEnd
  0
BLOCK
  5
72E
330
72D
100
AcDbEntity
  8
0
100
AcDbBlockBegin
  2
POLY32
 70
     0
 71
     0
 10
0.0
 20
0.0
 30
0.0
  3
POLY32
  1

  4
POLY32
  0
LINE
  5
730
330
72D
100
AcDbEntity
  8
LC-001-100-D00-0
 62
     7
370
    50
100
AcDbLine
 10
345.854549
 20
222.099498
 30
0.0
 11
345.854549
 21
222.099498
 31
0.0
  0
LINE
  5
731
330
72D
100
AcDbEntity
  8
LC-001-100-D00-0
 62
     7
370
    50
100
AcDbLine
 10
345.854549
 20
222.099498
 30
0.0
 11
345.825949
 21
222.099498
 31
0.0
  0
LINE
  5
732
330
72D
100
AcDbEntity
  8
LC-001-100-D00-0
 62
     7
370
    50
100
AcDbLine
 10
345.825949
 20
222.099498
 30
0.0
 11
345.825949
 21
222.099498
 31
0.0
  0
LINE
  5
733
330
72D
100
AcDbEntity
  8
LC-001-100-D00-0
 62
     7
370
    50
100
AcDbLine
 10
345.825949
 20
222.099498
 30
0.0
 11
345.771593
 21
222.099498
 31
0.0
  0
LINE
  5
734
330
72D
100
AcDbEntity
  8
LC-001-100-D00-0
 62
     7
370
    50
100
AcDbLine
 10
345.771593
 20
222.099498
 30
0.0
 11
345.771593
 21
222.099498
 31
0.0
  0
LINE
  5
735
330
72D
100
AcDbEntity
  8
LC-001-100-D00-0
 62
     7
370
    50
100
AcDbLine
 10
345.771593
 20
222.099498
 30
0.0
 11
345.757595
 21
222.099498
 31
0.0
  0
LINE
  5
736
330
72D
100
AcDbEntity
  8
LC-001-100-D00-0
 62
     7
370
    50
100
AcDbLine
 10
345.757595
 20
222.099498
 30
0.0
 11
345.757595
 21
222.099498
 31
0.0
  0
LINE
  5
737
330
72D
100
AcDbEntity
  8
LC-001-100-D00-0
 62
     7
370
    50
100
AcDbLine
 10
345.757595
 20
222.099498
 30
0.0
 11
345.750962
 21
222.099498
 31
0.0
  0
ENDBLK
  5
72F
330
72D
100
AcDbEntity
  8
0
100
AcDbBlockEnd
  0
BLOCK
  5
73C
330
73B
100
AcDbEntity
  8
0
100
AcDbBlockBegin
  2
POLY33
 70
     0
 71
     0
 10
0.0
 20
0.0
 30
0.0
  3
POLY33
  1

  4
POLY33
  0
LINE
  5
73E
330
73B
100
AcDbEntity
  8
LC-001-100-D00-0
 62
     7
370
    50
100
AcDbLine
 10
326.170502
 20
222.099498
 30
0.0
 11
326.170502
 21
222.099498
 31
0.0
  0
LINE
  5
73F
330
73B
100
AcDbEntity
  8
LC-001-100-D00-0
 62
     7
370
    50
100
AcDbLine
 10
326.170502
 20
222.099498
 30
0.0
 11
326.231988
 21
222.099498
 31
0.0
  0
LINE
  5
740
330
73B
100
AcDbEntity
  8
LC-001-100-D00-0
 62
     7
370
    50
100
AcDbLine
 10
326.231988
 20
222.099498
 30
0.0
 11
326.231988
 21
222.099498
 31
0.0
  0
LINE
  5
741
330
73B
100
AcDbEntity
  8
LC-001-100-D00-0
 62
     7
370
    50
100
AcDbLine
 10
326.231988
 20
222.099498
 30
0.0
 11
326.355009
 21
222.099498
 31
0.0
  0
LINE
  5
742
330
73B
100
AcDbEntity
  8
LC-001-100-D00-0
 62
     7
370
    50
100
AcDbLine
 10
326.355009
 20
222.099498
 30
0.0
 11
326.355009
 21
222.099498
 31
0.0
  0
LINE
  5
743
330
73B
100
AcDbEntity
  8
LC-001-100-D00-0
 62
     7
370
    50
100
AcDbLine
 10
326.355009
 20
222.099498
 30
0.0
 11
326.664224
 21
222.099498
 31
0.0
  0
LINE
  5
744
330
73B
100
AcDbEntity
  8
LC-001-100-D00-0
 62
     7
370
    50
100
AcDbLine
 10
326.664224
 20
222.099498
 30
0.0
 11
326.664224
 21
222.099498
 31
0.0
  0
LINE
  5
745
330
73B
100
AcDbEntity
  8
LC-001-100-D00-0
 62
     7
370
    50
100
AcDbLine
 10
326.664224
 20
222.099498
 30
0.0
 11
327.102436
 21
222.099498
 31
0.0
  0
LINE
  5
746
330
73B
100
AcDbEntity
  8
LC-001-100-D00-0
 62
     7
370
    50
100
AcDbLine
 10
327.102436
 20
222.099498
 30
0.0
 11
327.102436
 21
222.099498
 31
0.0
  0
LINE
  5
747
330
73B
100
AcDbEntity
  8
LC-001-100-D00-0
 62
     7
370
    50
100
AcDbLine
 10
327.102436
 20
222.099498
 30
0.0
 11
327.730967
 21
222.099498
 31
0.0
  0
LINE
  5
748
330
73B
100
AcDbEntity
  8
LC-001-100-D00-0
 62
     7
370
    50
100
AcDbLine
 10
327.730967
 20
222.099498
 30
0.0
 11
327.730967
 21
222.099498
 31
0.0
  0
LINE
  5
749
330
73B
100
AcDbEntity
  8
LC-001-100-D00-0
 62
     7
370
    50
100
AcDbLine
 10
327.730967
 20
222.099498
 30
0.0
 11
328.426262
 21
222.099498
 31
0.0
  0
LINE
  5
74A
330
73B
100
AcDbEntity
  8
LC-001-100-D00-0
 62
     7
370
    50
100
AcDbLine
 10
328.426262
 20
222.099498
 30
0.0
 11
328.426262
 21
222.099498
 31
0.0
  0
LINE
  5
74B
330
73B
100
AcDbEntity
  8
LC-001-100-D00-0
 62
     7
370
    50
100
AcDbLine
 10
328.426262
 20
222.099498
 30
0.0
 11
328.921356
 21
222.099498
 31
0.0
  0
LINE
  5
74C
330
73B
100
AcDbEntity
  8
LC-001-100-D00-0
 62
     7
370
    50
100
AcDbLine
 10
328.921356
 20
222.099498
 30
0.0
 11
328.921356
 21
222.099498
 31
0.0
  0
LINE
  5
74D
330
73B
100
AcDbEntity
  8
LC-001-100-D00-0
 62
     7
370
    50
100
AcDbLine
 10
328.921356
 20
222.099498
 30
0.0
 11
329.170502
 21
222.099498
 31
0.0
  0
ENDBLK
  5
73D
330
73B
100
AcDbEntity
  8
0
100
AcDbBlockEnd
  0
ENDSEC
  0
SECTION
  2
ENTITIES
  0
ARC
  5
31
330
1F
100
AcDbEntity
  8
LC-001-100-D00-0
 62
     7
370
    50
100
AcDbCircle
 10
268.19202
 20
-58.912941
 30
0.0
 40
0.7999800020905343
100
AcDbArc
 50
269.999993
 51
0.0
  0
LINE
  5
32
330
1F
100
AcDbEntity
  8
LC-001-100-D00-0
 62
     7
370
    50
100
AcDbLine
 10
266.134938
 20
-59.712922
 30
0.0
 11
268.192014
 21
-59.712922
 31
0.0
  0
LINE
  5
33
330
1F
100
AcDbEntity
  8
LC-001-100-D00-0
 62
     7
370
    50
100
AcDbLine
 10
266.134938
 20
-59.712922
 30
0.0
 11
266.134938
 21
-55.713025
 31
0.0
  0
LINE
  5
34
330
1F
100
AcDbEntity
  8
LC-001-100-D00-0
 62
     7
370
    50
100
AcDbLine
 10
266.134938
 20
-55.713025
 30
0.0
 11
268.192014
 21
-55.713023
 31
0.0
  0
ARC
  5
35
330
1F
100
AcDbEntity
  8
LC-001-100-D00-0
 62
     7
370
    50
100
AcDbCircle
 10
268.192021
 20
-56.513003
 30
0.0
 40
0.7999792512193267
100
AcDbArc
 50
0.0
 51
90.000007
  0
LINE
  5
36
330
1F
100
AcDbEntity
  8
LC-001-100-D00-0
 62
     7
370
    50
100
AcDbLine
 10
268.991997
 20
-58.912941
 30
0.0
 11
268.991997
 21
-56.513003
 31
0.0
  0
LINE
  5
37
330
1F
100
AcDbEntity
  8
LC-001-100-D00-0
 62
     7
370
    50
100
AcDbLine
 10
273.207193
 20
-59.71292
 30
0.0
 11
273.207193
 21
-55.713025
 31
0.0
  0
LINE
  5
38
330
1F
100
AcDbEntity
  8
LC-001-100-D00-0
 62
     7
370
    50
100
AcDbLine
 10
273.207193
 20
-55.713025
 30
0.0
 11
275.525978
 21
-55.713025
 31
0.0
  0
LINE
  5
39
330
1F
100
AcDbEntity
  8
LC-001-100-D00-0
 62
     7
370
    50
100
AcDbLine
 10
275.525978
 20
-56.756473
 30
0.0
 11
275.525978
 21
-55.713025
 31
0.0
  0
LINE
  5
3A
330
1F
100
AcDbEntity
  8
LC-001-100-D00-0
 62
     7
370
    50
100
AcDbLine
 10
274.250647
 20
-56.756473
 30
0.0
 11
275.525978
 21
-56.756473
 31
0.0
  0
LINE
  5
3B
330
1F
100
AcDbEntity
  8
LC-001-100-D00-0
 62
     7
370
    50
100
AcDbLine
 10
274.250647
 20
-59.71292
 30
0.0
 11
274.250647
 21
-56.756473
 31
0.0
  0
LINE
  5
3C
330
1F
100
AcDbEntity
  8
LC-001-100-D00-0
 62
     7
370
    50
100
AcDbLine
 10
273.207193
 20
-59.71292
 30
0.0
 11
274.250647
 21
-59.71292
 31
0.0
  0
LINE
  5
3D
330
1F
100
AcDbEntity
  8
LC-001-100-D00-0
 62
     7
370
    50
100
AcDbLine
 10
281.844636
 20
-58.553533
 30
0.0
 11
281.844636
 21
-55.713025
 31
0.0
  0
LINE
  5
3E
330
1F
100
AcDbEntity
  8
LC-001-100-D00-0
 62
     7
370
    50
100
AcDbLine
 10
281.844636
 20
-55.713025
 30
0.0
 11
282.88809
 21
-55.713025
 31
0.0
  0
LINE
  5
3F
330
1F
100
AcDbEntity
  8
LC-001-100-D00-0
 62
     7
370
    50
100
AcDbLine
 10
282.88809
 20
-58.912941
 30
0.0
 11
282.88809
 21
-55.713025
 31
0.0
  0
ARC
  5
40
330
1F
100
AcDbEntity
  8
LC-001-100-D00-0
 62
     7
370
    50
100
AcDbCircle
 10
282.088105
 20
-58.912942
 30
0.0
 40
0.7999793452699464
100
AcDbArc
 50
270.0
 51
0.0
  0
LINE
  5
41
330
1F
100
AcDbEntity
  8
LC-001-100-D00-0
 62
     7
370
    50
100
AcDbLine
 10
281.100189
 20
-59.712922
 30
0.0
 11
282.088107
 21
-59.712922
 31
0.0
  0
ARC
  5
42
330
1F
100
AcDbEntity
  8
LC-001-100-D00-0
 62
     7
370
    50
100
AcDbCircle
 10
281.100193
 20
-58.912942
 30
0.0
 40
0.7999794705313549
100
AcDbArc
 50
225.584657
 51
270.0
  0
ARC
  5
43
330
1F
100
AcDbEntity
  8
LC-001-100-D00-0
 62
     7
370
    50
100
AcDbCircle
 10
279.980455
 20
-58.912941
 30
0.0
 40
0.7999790289935521
100
AcDbArc
 50
270.000015
 51
314.415283
  0
LINE
  5
44
330
1F
100
AcDbEntity
  8
LC-001-100-D00-0
 62
     7
370
    50
100
AcDbLine
 10
278.992539
 20
-59.71292
 30
0.0
 11
279.980456
 21
-59.71292
 31
0.0
  0
ARC
  5
45
330
1F
100
AcDbEntity
  8
LC-001-100-D00-0
 62
     7
370
    50
100
AcDbCircle
 10
278.992543
 20
-58.912941
 30
0.0
 40
0.7999792512194429
100
AcDbArc
 50
179.999996
 51
270.000015
  0
LINE
  5
46
330
1F
100
AcDbEntity
  8
LC-001-100-D00-0
 62
     7
370
    50
100
AcDbLine
 10
278.19257
 20
-58.912941
 30
0.0
 11
278.19257
 21
-55.713025
 31
0.0
  0
LINE
  5
47
330
1F
100
AcDbEntity
  8
LC-001-100-D00-0
 62
     7
370
    50
100
AcDbLine
 10
278.19257
 20
-55.713025
 30
0.0
 11
279.236009
 21
-55.713025
 31
0.0
  0
LINE
  5
48
330
1F
100
AcDbEntity
  8
LC-001-100-D00-0
 62
     7
370
    50
100
AcDbLine
 10
279.236009
 20
-58.553533
 30
0.0
 11
279.236009
 21
-55.713025
 31
0.0
  0
ARC
  5
49
330
1F
100
AcDbEntity
  8
LC-001-100-D00-0
 62
     7
370
    50
100
AcDbCircle
 10
279.351951
 20
-58.553533
 30
0.0
 40
0.1159387737142808
100
AcDbArc
 50
179.999984
 51
270.0
  0
LINE
  5
4A
330
1F
100
AcDbEntity
  8
LC-001-100-D00-0
 62
     7
370
    50
100
AcDbLine
 10
279.351955
 20
-58.669471
 30
0.0
 11
279.873675
 21
-58.669471
 31
0.0
  0
ARC
  5
4B
330
1F
100
AcDbEntity
  8
LC-001-100-D00-0
 62
     7
370
    50
100
AcDbCircle
 10
279.873676
 20
-58.553533
 30
0.0
 40
0.1159387737141628
100
AcDbArc
 50
270.0
 51
359.999995
  0
LINE
  5
4C
330
1F
100
AcDbEntity
  8
LC-001-100-D00-0
 62
     7
370
    50
100
AcDbLine
 10
279.989621
 20
-58.553533
 30
0.0
 11
279.989621
 21
-55.713025
 31
0.0
  0
LINE
  5
4D
330
1F
100
AcDbEntity
  8
LC-001-100-D00-0
 62
     7
370
    50
100
AcDbLine
 10
279.989621
 20
-55.713025
 30
0.0
 11
281.09104
 21
-55.713025
 31
0.0
  0
LINE
  5
4E
330
1F
100
AcDbEntity
  8
LC-001-100-D00-0
 62
     7
370
    50
100
AcDbLine
 10
281.09104
 20
-58.553533
 30
0.0
 11
281.09104
 21
-55.713025
 31
0.0
  0
ARC
  5
4F
330
1F
100
AcDbEntity
  8
LC-001-100-D00-0
 62
     7
370
    50
100
AcDbCircle
 10
281.206971
 20
-58.553533
 30
0.0
 40
0.1159387737127418
100
AcDbArc
 50
180.0
 51
270.0
  0
LINE
  5
50
330
1F
100
AcDbEntity
  8
LC-001-100-D00-0
 62
     7
370
    50
100
AcDbLine
 10
281.206971
 20
-58.669471
 30
0.0
 11
281.728691
 21
-58.669471
 31
0.0
  0
ARC
  5
51
330
1F
100
AcDbEntity
  8
LC-001-100-D00-0
 62
     7
370
    50
100
AcDbCircle
 10
281.728696
 20
-58.553533
 30
0.0
 40
0.1159387737128554
100
AcDbArc
 50
270.0
 51
0.0
  0
LINE
  5
52
330
1F
100
AcDbEntity
  8
LC-001-100-D00-0
 62
     7
370
    50
100
AcDbLine
 10
288.627049
 20
-56.582566
 30
0.0
 11
288.627049
 21
-55.713025
 31
0.0
  0
LINE
  5
53
330
1F
100
AcDbEntity
  8
LC-001-100-D00-0
 62
     7
370
    50
100
AcDbLine
 10
288.627049
 20
-55.713025
 30
0.0
 11
289.670503
 21
-55.713025
 31
0.0
  0
LINE
  5
54
330
1F
100
AcDbEntity
  8
LC-001-100-D00-0
 62
     7
370
    50
100
AcDbLine
 10
289.670503
 20
-56.866891
 30
0.0
 11
289.670503
 21
-55.713025
 31
0.0
  0
ARC
  5
55
330
1F
100
AcDbEntity
  8
LC-001-100-D00-0
 62
     7
370
    50
100
AcDbCircle
 10
288.870523
 20
-56.866891
 30
0.0
 40
0.7999792512173969
100
AcDbArc
 50
318.770695
 51
0.000012
  0
ARC
  5
56
330
1F
100
AcDbEntity
  8
LC-001-100-D00-0
 62
     7
370
    50
100
AcDbCircle
 10
288.870522
 20
-57.921383
 30
0.0
 40
0.7999794823737972
100
AcDbArc
 50
0.000015
 51
41.229293
  0
LINE
  5
57
330
1F
100
AcDbEntity
  8
LC-001-100-D00-0
 62
     7
370
    50
100
AcDbLine
 10
289.670503
 20
-58.912941
 30
0.0
 11
289.670503
 21
-57.921383
 31
0.0
  0
ARC
  5
58
330
1F
100
AcDbEntity
  8
LC-001-100-D00-0
 62
     7
370
    50
100
AcDbCircle
 10
288.870522
 20
-58.912941
 30
0.0
 40
0.799979696675706
100
AcDbArc
 50
270.0
 51
0.000015
  0
LINE
  5
59
330
1F
100
AcDbEntity
  8
LC-001-100-D00-0
 62
     7
370
    50
100
AcDbLine
 10
286.540156
 20
-59.712922
 30
0.0
 11
288.870519
 21
-59.712922
 31
0.0
  0
LINE
  5
5A
330
1F
100
AcDbEntity
  8
LC-001-100-D00-0
 62
     7
370
    50
100
AcDbLine
 10
286.540156
 20
-59.712922
 30
0.0
 11
286.540156
 21
-55.713025
 31
0.0
  0
LINE
  5
5B
330
1F
100
AcDbEntity
  8
LC-001-100-D00-0
 62
     7
370
    50
100
AcDbLine
 10
286.540156
 20
-55.713025
 30
0.0
 11
287.58361
 21
-55.713025
 31
0.0
  0
LINE
  5
5C
330
1F
100
AcDbEntity
  8
LC-001-100-D00-0
 62
     7
370
    50
100
AcDbLine
 10
287.58361
 20
-56.756473
 30
0.0
 11
287.58361
 21
-55.713025
 31
0.0
  0
LINE
  5
5D
330
1F
100
AcDbEntity
  8
LC-001-100-D00-0
 62
     7
370
    50
100
AcDbLine
 10
287.58361
 20
-56.756473
 30
0.0
 11
288.453138
 21
-56.756473
 31
0.0
  0
ARC
  5
5E
330
1F
100
AcDbEntity
  8
LC-001-100-D00-0
 62
     7
370
    50
100
AcDbCircle
 10
288.453144
 20
-56.582566
 30
0.0
 40
0.1739081605712158
100
AcDbArc
 50
270.0
 51
0.0
  0
LINE
  5
5F
330
1F
100
AcDbEntity
  8
LC-001-100-D00-0
 62
     7
370
    50
100
AcDbLine
 10
295.6705
 20
-89.713025
 30
0.0
 11
-0.329496
 21
-89.713025
 31
0.0
  0
LINE
  5
60
330
1F
100
AcDbEntity
  8
LC-001-100-D00-0
 62
     7
370
    50
100
AcDbLine
 10
295.6705
 20
-49.713024
 30
0.0
 11
295.6705
 21
-89.713025
 31
0.0
  0
LINE
  5
61
330
1F
100
AcDbEntity
  8
LC-001-100-D00-0
 62
     7
370
    50
100
AcDbLine
 10
285.902491
 20
-58.205708
 30
0.0
 11
284.395283
 21
-58.205708
 31
0.0
  0
LINE
  5
62
330
1F
100
AcDbEntity
  8
LC-001-100-D00-0
 62
     7
370
    50
100
AcDbLine
 10
284.395283
 20
-58.669464
 30
0.0
 11
284.395283
 21
-58.205708
 31
0.0
  0
LINE
  5
63
330
1F
100
AcDbEntity
  8
LC-001-100-D00-0
 62
     7
370
    50
100
AcDbLine
 10
284.395283
 20
-58.669464
 30
0.0
 11
285.902491
 21
-58.669464
 31
0.0
  0
LINE
  5
64
330
1F
100
AcDbEntity
  8
LC-001-100-D00-0
 62
     7
370
    50
100
AcDbLine
 10
285.902491
 20
-59.71292
 30
0.0
 11
285.902491
 21
-58.669464
 31
0.0
  0
LINE
  5
65
330
1F
100
AcDbEntity
  8
LC-001-100-D00-0
 62
     7
370
    50
100
AcDbLine
 10
283.351844
 20
-59.71292
 30
0.0
 11
285.902491
 21
-59.71292
 31
0.0
  0
LINE
  5
66
330
1F
100
AcDbEntity
  8
LC-001-100-D00-0
 62
     7
370
    50
100
AcDbLine
 10
283.351844
 20
-59.71292
 30
0.0
 11
283.351844
 21
-55.713025
 31
0.0
  0
LINE
  5
67
330
1F
100
AcDbEntity
  8
LC-001-100-D00-0
 62
     7
370
    50
100
AcDbLine
 10
283.351844
 20
-55.713025
 30
0.0
 11
285.902491
 21
-55.713025
 31
0.0
  0
LINE
  5
68
330
1F
100
AcDbEntity
  8
LC-001-100-D00-0
 62
     7
370
    50
100
AcDbLine
 10
285.902491
 20
-56.756473
 30
0.0
 11
285.902491
 21
-55.713025
 31
0.0
  0
LINE
  5
69
330
1F
100
AcDbEntity
  8
LC-001-100-D00-0
 62
     7
370
    50
100
AcDbLine
 10
284.395283
 20
-56.756473
 30
0.0
 11
285.902491
 21
-56.756473
 31
0.0
  0
LINE
  5
6A
330
1F
100
AcDbEntity
  8
LC-001-100-D00-0
 62
     7
370
    50
100
AcDbLine
 10
284.395283
 20
-57.215686
 30
0.0
 11
284.395283
 21
-56.756473
 31
0.0
  0
LINE
  5
6B
330
1F
100
AcDbEntity
  8
LC-001-100-D00-0
 62
     7
370
    50
100
AcDbLine
 10
285.902491
 20
-57.215686
 30
0.0
 11
284.395283
 21
-57.215686
 31
0.0
  0
LINE
  5
6C
330
1F
100
AcDbEntity
  8
LC-001-100-D00-0
 62
     7
370
    50
100
AcDbLine
 10
285.902491
 20
-58.205708
 30
0.0
 11
285.902491
 21
-57.215686
 31
0.0
  0
LINE
  5
6D
330
1F
100
AcDbEntity
  8
LC-001-100-D00-0
 62
     7
370
    50
100
AcDbLine
 10
275.699874
 20
-59.71292
 30
0.0
 11
275.699874
 21
-55.713025
 31
0.0
  0
LINE
  5
6E
330
1F
100
AcDbEntity
  8
LC-001-100-D00-0
 62
     7
370
    50
100
AcDbLine
 10
275.699874
 20
-55.713025
 30
0.0
 11
278.018659
 21
-55.713025
 31
0.0
  0
LINE
  5
6F
330
1F
100
AcDbEntity
  8
LC-001-100-D00-0
 62
     7
370
    50
100
AcDbLine
 10
278.018659
 20
-56.756473
 30
0.0
 11
278.018659
 21
-55.713025
 31
0.0
  0
LINE
  5
70
330
1F
100
AcDbEntity
  8
LC-001-100-D00-0
 62
     7
370
    50
100
AcDbLine
 10
276.743328
 20
-56.756473
 30
0.0
 11
278.018659
 21
-56.756473
 31
0.0
  0
LINE
  5
71
330
1F
100
AcDbEntity
  8
LC-001-100-D00-0
 62
     7
370
    50
100
AcDbLine
 10
276.743328
 20
-59.71292
 30
0.0
 11
276.743328
 21
-56.756473
 31
0.0
  0
LINE
  5
72
330
1F
100
AcDbEntity
  8
LC-001-100-D00-0
 62
     7
370
    50
100
AcDbLine
 10
275.699874
 20
-59.71292
 30
0.0
 11
276.743328
 21
-59.71292
 31
0.0
  0
ARC
  5
73
330
1F
100
AcDbEntity
  8
LC-001-100-D00-0
 62
     7
370
    50
100
AcDbCircle
 10
271.827522
 20
-58.912941
 30
0.0
 40
0.7999793757836073
100
AcDbArc
 50
270.0
 51
0.0
  0
LINE
  5
74
330
1F
100
AcDbEntity
  8
LC-001-100-D00-0
 62
     7
370
    50
100
AcDbLine
 10
270.297131
 20
-59.71292
 30
0.0
 11
271.827525
 21
-59.71292
 31
0.0
  0
ARC
  5
75
330
1F
100
AcDbEntity
  8
LC-001-100-D00-0
 62
     7
370
    50
100
AcDbCircle
 10
270.297135
 20
-58.912941
 30
0.0
 40
0.7999792512193267
100
AcDbArc
 50
180.0
 51
270.0
  0
LINE
  5
76
330
1F
100
AcDbEntity
  8
LC-001-100-D00-0
 62
     7
370
    50
100
AcDbLine
 10
269.497162
 20
-58.912941
 30
0.0
 11
269.497162
 21
-55.713025
 31
0.0
  0
LINE
  5
77
330
1F
100
AcDbEntity
  8
LC-001-100-D00-0
 62
     7
370
    50
100
AcDbLine
 10
269.497162
 20
-55.713025
 30
0.0
 11
270.540601
 21
-55.713025
 31
0.0
  0
LINE
  5
78
330
1F
100
AcDbEntity
  8
LC-001-100-D00-0
 62
     7
370
    50
100
AcDbLine
 10
270.540601
 20
-56.872421
 30
0.0
 11
270.540601
 21
-55.713025
 31
0.0
  0
LINE
  5
79
330
1F
100
AcDbEntity
  8
LC-001-100-D00-0
 62
     7
370
    50
100
AcDbLine
 10
270.540601
 20
-56.872421
 30
0.0
 11
271.584054
 21
-56.872421
 31
0.0
  0
LINE
  5
7A
330
1F
100
AcDbEntity
  8
LC-001-100-D00-0
 62
     7
370
    50
100
AcDbLine
 10
271.584054
 20
-56.872421
 30
0.0
 11
271.584054
 21
-55.713025
 31
0.0
  0
LINE
  5
7B
330
1F
100
AcDbEntity
  8
LC-001-100-D00-0
 62
     7
370
    50
100
AcDbLine
 10
271.584054
 20
-55.713025
 30
0.0
 11
272.627508
 21
-55.713025
 31
0.0
  0
LINE
  5
7C
330
1F
100
AcDbEntity
  8
LC-001-100-D00-0
 62
     7
370
    50
100
AcDbLine
 10
272.627508
 20
-58.912941
 30
0.0
 11
272.627508
 21
-55.713025
 31
0.0
  0
LINE
  5
7D
330
1F
100
AcDbEntity
  8
LC-001-100-D00-0
 62
     7
370
    50
100
AcDbLine
 10
259.849122
 20
-58.617258
 30
0.0
 11
263.558542
 21
-60.426462
 31
0.0
  0
ARC
  5
7E
330
1F
100
AcDbEntity
  8
LC-001-100-D00-0
 62
     7
370
    50
100
AcDbCircle
 10
259.897458
 20
-58.518151
 30
0.0
 40
0.1102658895153504
100
AcDbArc
 50
154.000025
 51
243.999988
  0
LINE
  5
7F
330
1F
100
AcDbEntity
  8
LC-001-100-D00-0
 62
     7
370
    50
100
AcDbLine
 10
260.702958
 20
-56.615106
 30
0.0
 11
259.798354
 21
-58.469814
 31
0.0
  0
LINE
  5
80
330
1F
100
AcDbEntity
  8
LC-001-100-D00-0
 62
     7
370
    50
100
AcDbLine
 10
260.702958
 20
-56.615106
 30
0.0
 11
261.607548
 21
-54.760398
 31
0.0
  0
ARC
  5
81
330
1F
100
AcDbEntity
  8
LC-001-100-D00-0
 62
     7
370
    50
100
AcDbCircle
 10
261.706661
 20
-54.808735
 30
0.0
 40
0.1102658895162057
100
AcDbArc
 50
63.999988
 51
153.999988
  0
LINE
  5
82
330
1F
100
AcDbEntity
  8
LC-001-100-D00-0
 62
     7
370
    50
100
AcDbLine
 10
263.609713
 20
-55.61423
 30
0.0
 11
261.754995
 21
-54.709628
 31
0.0
  0
LINE
  5
83
330
1F
100
AcDbEntity
  8
LC-001-100-D00-0
 62
     7
370
    50
100
AcDbLine
 10
263.609713
 20
-55.61423
 30
0.0
 11
265.464416
 21
-56.518832
 31
0.0
  0
ARC
  5
84
330
1F
100
AcDbEntity
  8
LC-001-100-D00-0
 62
     7
370
    50
100
AcDbCircle
 10
265.416077
 20
-56.617938
 30
0.0
 40
0.1102658895162649
100
AcDbArc
 50
334.000013
 51
64.000013
  0
LINE
  5
85
330
1F
100
AcDbEntity
  8
LC-001-100-D00-0
 62
     7
370
    50
100
AcDbLine
 10
265.515184
 20
-56.666275
 30
0.0
 11
263.705974
 21
-60.375692
 31
0.0
  0
ARC
  5
86
330
1F
100
AcDbEntity
  8
LC-001-100-D00-0
 62
     7
370
    50
100
AcDbCircle
 10
263.606874
 20
-60.327355
 30
0.0
 40
0.1102658895163283
100
AcDbArc
 50
243.999988
 51
334.000001
  0
LINE
  5
87
330
1F
100
AcDbEntity
  8
LC-001-100-D00-0
 62
     7
370
    50
100
AcDbLine
 10
-0.329496
 20
-89.713025
 30
0.0
 11
-0.329496
 21
-49.713024
 31
0.0
  0
LINE
  5
88
330
1F
100
AcDbEntity
  8
LC-001-100-D00-0
 62
     7
370
    50
100
AcDbLine
 10
-0.329496
 20
-49.713024
 30
0.0
 11
295.6705
 21
-49.713024
 31
0.0
  0
LINE
  5
89
330
1F
100
AcDbEntity
  8
LC-001-100-D00-0
 62
     7
370
    50
100
AcDbLine
 10
264.024442
 20
-58.235103
 30
0.0
 11
264.548561
 21
-57.160505
 31
0.0
  0
ARC
  5
8A
330
1F
100
AcDbEntity
  8
LC-001-100-D00-0
 62
     7
370
    50
100
AcDbCircle
 10
264.646245
 20
-57.208151
 30
0.0
 40
0.1086907098111593
100
AcDbArc
 50
334.00002
 51
153.999977
  0
LINE
  5
8B
330
1F
100
AcDbEntity
  8
LC-001-100-D00-0
 62
     7
370
    50
100
AcDbLine
 10
264.219826
 20
-58.330396
 30
0.0
 11
264.74393
 21
-57.255798
 31
0.0
  0
LINE
  5
8C
330
1F
100
AcDbEntity
  8
LC-001-100-D00-0
 62
     7
370
    50
100
AcDbLine
 10
264.219826
 20
-58.330396
 30
0.0
 11
263.695708
 21
-59.404995
 31
0.0
  0
ARC
  5
8D
330
1F
100
AcDbEntity
  8
LC-001-100-D00-0
 62
     7
370
    50
100
AcDbCircle
 10
263.598012
 20
-59.357348
 30
0.0
 40
0.108690709811109
100
AcDbArc
 50
153.999998
 51
333.999998
  0
LINE
  5
8E
330
1F
100
AcDbEntity
  8
LC-001-100-D00-0
 62
     7
370
    50
100
AcDbLine
 10
264.024442
 20
-58.235103
 30
0.0
 11
263.500324
 21
-59.3097
 31
0.0
  0
LINE
  5
8F
330
1F
100
AcDbEntity
  8
LC-001-100-D00-0
 62
     7
370
    50
100
AcDbLine
 10
263.829058
 20
-58.139808
 30
0.0
 11
264.138764
 21
-57.504819
 31
0.0
  0
LINE
  5
90
330
1F
100
AcDbEntity
  8
LC-001-100-D00-0
 62
     7
370
    50
100
AcDbLine
 10
263.829058
 20
-58.139808
 30
0.0
 11
263.519352
 21
-58.774798
 31
0.0
  0
ARC
  5
91
330
1F
100
AcDbEntity
  8
LC-001-100-D00-0
 62
     7
370
    50
100
AcDbCircle
 10
263.42166
 20
-58.727151
 30
0.0
 40
0.1086907098111698
100
AcDbArc
 50
153.999987
 51
333.999987
  0
LINE
  5
92
330
1F
100
AcDbEntity
  8
LC-001-100-D00-0
 62
     7
370
    50
100
AcDbLine
 10
263.323968
 20
-58.679504
 30
0.0
 11
263.94338
 21
-57.409524
 31
0.0
  0
ARC
  5
93
330
1F
100
AcDbEntity
  8
LC-001-100-D00-0
 62
     7
370
    50
100
AcDbCircle
 10
264.041071
 20
-57.457171
 30
0.0
 40
0.1086911592081966
100
AcDbArc
 50
334.000023
 51
154.000023
  0
ARC
  5
94
330
1F
100
AcDbEntity
  8
LC-001-100-D00-0
 62
     7
370
    50
100
AcDbCircle
 10
263.245308
 20
-58.096955
 30
0.0
 40
0.1086908952051726
100
AcDbArc
 50
153.999982
 51
333.999982
  0
LINE
  5
95
330
1F
100
AcDbEntity
  8
LC-001-100-D00-0
 62
     7
370
    50
100
AcDbLine
 10
263.338199
 20
-57.658545
 30
0.0
 11
263.147613
 21
-58.049309
 31
0.0
  0
ARC
  5
96
330
1F
100
AcDbEntity
  8
LC-001-100-D00-0
 62
     7
370
    50
100
AcDbCircle
 10
263.435897
 20
-57.706192
 30
0.0
 40
0.1086911143911826
100
AcDbArc
 50
333.999924
 51
153.999924
  0
LINE
  5
97
330
1F
100
AcDbEntity
  8
LC-001-100-D00-0
 62
     7
370
    50
100
AcDbLine
 10
263.342997
 20
-58.144602
 30
0.0
 11
263.533583
 21
-57.75384
 31
0.0
  0
LINE
  5
98
330
1F
100
AcDbEntity
  8
LC-001-100-D00-0
 62
     7
370
    50
100
AcDbLine
 10
261.679864
 20
-57.091576
 30
0.0
 11
261.370158
 21
-57.726565
 31
0.0
  0
ARC
  5
99
330
1F
100
AcDbEntity
  8
LC-001-100-D00-0
 62
     7
370
    50
100
AcDbCircle
 10
261.272464
 20
-57.678918
 30
0.0
 40
0.1086908952080595
100
AcDbArc
 50
153.999987
 51
333.999987
  0
LINE
  5
9A
330
1F
100
AcDbEntity
  8
LC-001-100-D00-0
 62
     7
370
    50
100
AcDbLine
 10
261.794185
 20
-56.361291
 30
0.0
 11
261.174774
 21
-57.631272
 31
0.0
  0
ARC
  5
9B
330
1F
100
AcDbEntity
  8
LC-001-100-D00-0
 62
     7
370
    50
100
AcDbCircle
 10
261.891875
 20
-56.408938
 30
0.0
 40
0.1086913446049387
100
AcDbArc
 50
334.000023
 51
154.000023
  0
LINE
  5
9C
330
1F
100
AcDbEntity
  8
LC-001-100-D00-0
 62
     7
370
    50
100
AcDbLine
 10
261.679864
 20
-57.091576
 30
0.0
 11
261.989569
 21
-56.456586
 31
0.0
  0
LINE
  5
9D
330
1F
100
AcDbEntity
  8
LC-001-100-D00-0
 62
     7
370
    50
100
AcDbLine
 10
265.224507
 20
-56.766364
 30
0.0
 11
263.605898
 21
-60.085017
 31
0.0
  0
ARC
  5
9E
330
1F
100
AcDbEntity
  8
LC-001-100-D00-0
 62
     7
370
    50
100
AcDbCircle
 10
265.125402
 20
-56.718026
 30
0.0
 40
0.1102658895161576
100
AcDbArc
 50
333.999996
 51
63.999996
  0
LINE
  5
9F
330
1F
100
AcDbEntity
  8
LC-001-100-D00-0
 62
     7
370
    50
100
AcDbLine
 10
261.855086
 20
-55.000304
 30
0.0
 11
265.173739
 21
-56.618919
 31
0.0
  0
ARC
  5
A0
330
1F
100
AcDbEntity
  8
LC-001-100-D00-0
 62
     7
370
    50
100
AcDbCircle
 10
261.806749
 20
-55.09941
 30
0.0
 40
0.110265889515184
100
AcDbArc
 50
63.999996
 51
153.999996
  0
LINE
  5
A1
330
1F
100
AcDbEntity
  8
LC-001-100-D00-0
 62
     7
370
    50
100
AcDbLine
 10
260.089031
 20
-58.369727
 30
0.0
 11
261.707639
 21
-55.051073
 31
0.0
  0
ARC
  5
A2
330
1F
100
AcDbEntity
  8
LC-001-100-D00-0
 62
     7
370
    50
100
AcDbCircle
 10
260.188133
 20
-58.418064
 30
0.0
 40
0.1102658895161028
100
AcDbArc
 50
153.999996
 51
243.999996
  0
LINE
  5
A3
330
1F
100
AcDbEntity
  8
LC-001-100-D00-0
 62
     7
370
    50
100
AcDbLine
 10
261.799118
 20
-59.326479
 30
0.0
 11
260.139799
 21
-58.51717
 31
0.0
  0
LINE
  5
A4
330
1F
100
AcDbEntity
  8
LC-001-100-D00-0
 62
     7
370
    50
100
AcDbLine
 10
261.799118
 20
-59.326479
 30
0.0
 11
263.458451
 21
-60.135785
 31
0.0
  0
ARC
  5
A5
330
1F
100
AcDbEntity
  8
LC-001-100-D00-0
 62
     7
370
    50
100
AcDbCircle
 10
263.506786
 20
-60.036679
 30
0.0
 40
0.1102658895155075
100
AcDbArc
 50
244.000024
 51
333.999982
  0
LINE
  5
A6
330
1F
100
AcDbEntity
  8
LC-001-100-D00-0
 62
     7
370
    50
100
AcDbLine
 10
261.289096
 20
-56.900987
 30
0.0
 11
260.764977
 21
-57.975586
 31
0.0
  0
ARC
  5
A7
330
1F
100
AcDbEntity
  8
LC-001-100-D00-0
 62
     7
370
    50
100
AcDbCircle
 10
260.66729
 20
-57.927938
 30
0.0
 40
0.1086908952079676
100
AcDbArc
 50
153.999998
 51
333.999998
  0
LINE
  5
A8
330
1F
100
AcDbEntity
  8
LC-001-100-D00-0
 62
     7
370
    50
100
AcDbLine
 10
261.093711
 20
-56.805694
 30
0.0
 11
260.569593
 21
-57.880291
 31
0.0
  0
LINE
  5
A9
330
1F
100
AcDbEntity
  8
LC-001-100-D00-0
 62
     7
370
    50
100
AcDbLine
 10
261.093711
 20
-56.805694
 30
0.0
 11
261.61783
 21
-55.731095
 31
0.0
  0
ARC
  5
AA
330
1F
100
AcDbEntity
  8
LC-001-100-D00-0
 62
     7
370
    50
100
AcDbCircle
 10
261.715523
 20
-55.778742
 30
0.0
 40
0.1086908952080472
100
AcDbArc
 50
334.00002
 51
153.999977
  0
LINE
  5
AB
330
1F
100
AcDbEntity
  8
LC-001-100-D00-0
 62
     7
370
    50
100
AcDbLine
 10
261.289096
 20
-56.900987
 30
0.0
 11
261.813214
 21
-55.826389
 31
0.0
  0
ARC
  5
AC
330
1F
100
AcDbEntity
  8
LC-001-100-D00-0
 62
     7
370
    50
100
AcDbCircle
 10
262.068226
 20
-57.039134
 30
0.0
 40
0.1086907098091875
100
AcDbArc
 50
334.000277
 51
154.00004
  0
LINE
  5
AD
330
1F
100
AcDbEntity
  8
LC-001-100-D00-0
 62
     7
370
    50
100
AcDbLine
 10
262.070617
 20
-57.282164
 30
0.0
 11
262.165925
 21
-57.08678
 31
0.0
  0
LINE
  5
AE
330
1F
100
AcDbEntity
  8
LC-001-100-D00-0
 62
     7
370
    50
100
AcDbLine
 10
262.070617
 20
-57.282164
 30
0.0
 11
261.975324
 21
-57.477544
 31
0.0
  0
ARC
  5
AF
330
1F
100
AcDbEntity
  8
LC-001-100-D00-0
 62
     7
370
    50
100
AcDbCircle
 10
261.877639
 20
-57.429897
 30
0.0
 40
0.108691159208104
100
AcDbArc
 50
153.999924
 51
333.999924
  0
LINE
  5
B0
330
1F
100
AcDbEntity
  8
LC-001-100-D00-0
 62
     7
370
    50
100
AcDbLine
 10
261.970541
 20
-56.991487
 30
0.0
 11
261.779955
 21
-57.38225
 31
0.0
  0
LINE
  5
B1
330
1F
100
AcDbEntity
  8
LC-001-100-D00-0
 62
     7
370
    50
100
AcDbLine
 10
263.233325
 20
-56.881813
 30
0.0
 11
262.842556
 21
-56.691225
 31
0.0
  0
ARC
  5
B2
330
1F
100
AcDbEntity
  8
LC-001-100-D00-0
 62
     7
370
    50
100
AcDbCircle
 10
263.185678
 20
-56.979503
 30
0.0
 40
0.1086911592077244
100
AcDbArc
 50
243.999924
 51
64.000161
  0
LINE
  5
B3
330
1F
100
AcDbEntity
  8
LC-001-100-D00-0
 62
     7
370
    50
100
AcDbLine
 10
263.138032
 20
-57.077195
 30
0.0
 11
262.747264
 21
-56.886607
 31
0.0
  0
ARC
  5
B4
330
1F
100
AcDbEntity
  8
LC-001-100-D00-0
 62
     7
370
    50
100
AcDbCircle
 10
262.794915
 20
-56.788916
 30
0.0
 40
0.1086907098109731
100
AcDbArc
 50
64.00004
 51
244.00004
  0
LINE
  5
B5
330
1F
100
AcDbEntity
  8
LC-001-100-D00-0
 62
     7
370
    50
100
AcDbLine
 10
263.228526
 20
-56.395757
 30
0.0
 11
262.593543
 21
-56.08605
 31
0.0
  0
LINE
  5
B6
330
1F
100
AcDbEntity
  8
LC-001-100-D00-0
 62
     7
370
    50
100
AcDbLine
 10
263.228526
 20
-56.395757
 30
0.0
 11
263.863524
 21
-56.705461
 31
0.0
  0
ARC
  5
B7
330
1F
100
AcDbEntity
  8
LC-001-100-D00-0
 62
     7
370
    50
100
AcDbCircle
 10
263.815874
 20
-56.803152
 30
0.0
 40
0.1086907098109937
100
AcDbArc
 50
244.000023
 51
64.000023
  0
LINE
  5
B8
330
1F
100
AcDbEntity
  8
LC-001-100-D00-0
 62
     7
370
    50
100
AcDbLine
 10
263.768232
 20
-56.900843
 30
0.0
 11
262.49825
 21
-56.281432
 31
0.0
  0
ARC
  5
B9
330
1F
100
AcDbEntity
  8
LC-001-100-D00-0
 62
     7
370
    50
100
AcDbCircle
 10
262.545895
 20
-56.183741
 30
0.0
 40
0.1086911592079929
100
AcDbArc
 50
63.999951
 51
243.999951
  0
LINE
  5
BA
330
1F
100
AcDbEntity
  8
LC-001-100-D00-0
 62
     7
370
    50
100
AcDbLine
 10
263.419112
 20
-56.004993
 30
0.0
 11
264.493709
 21
-56.52911
 31
0.0
  0
ARC
  5
BB
330
1F
100
AcDbEntity
  8
LC-001-100-D00-0
 62
     7
370
    50
100
AcDbCircle
 10
264.44607
 20
-56.626801
 30
0.0
 40
0.1086908952082523
100
AcDbArc
 50
243.999977
 51
64.00002
  0
LINE
  5
BC
330
1F
100
AcDbEntity
  8
LC-001-100-D00-0
 62
     7
370
    50
100
AcDbLine
 10
263.323819
 20
-56.200375
 30
0.0
 11
264.398417
 21
-56.724492
 31
0.0
  0
LINE
  5
BD
330
1F
100
AcDbEntity
  8
LC-001-100-D00-0
 62
     7
370
    50
100
AcDbLine
 10
263.323819
 20
-56.200375
 30
0.0
 11
262.249222
 21
-55.676258
 31
0.0
  0
ARC
  5
BE
330
1F
100
AcDbEntity
  8
LC-001-100-D00-0
 62
     7
370
    50
100
AcDbCircle
 10
262.296874
 20
-55.578568
 30
0.0
 40
0.1086908952082182
100
AcDbArc
 50
63.999767
 51
243.999998
  0
LINE
  5
BF
330
1F
100
AcDbEntity
  8
LC-001-100-D00-0
 62
     7
370
    50
100
AcDbLine
 10
263.419112
 20
-56.004993
 30
0.0
 11
262.344515
 21
-55.480878
 31
0.0
  0
ARC
  5
C0
330
1F
100
AcDbEntity
  8
LC-001-100-D00-0
 62
     7
370
    50
100
AcDbCircle
 10
262.518621
 20
-58.347174
 30
0.0
 40
0.1086908952078697
100
AcDbArc
 50
244.00004
 51
64.00004
  0
LINE
  5
C1
330
1F
100
AcDbEntity
  8
LC-001-100-D00-0
 62
     7
370
    50
100
AcDbLine
 10
262.080213
 20
-58.254277
 30
0.0
 11
262.470981
 21
-58.444864
 31
0.0
  0
ARC
  5
C2
330
1F
100
AcDbEntity
  8
LC-001-100-D00-0
 62
     7
370
    50
100
AcDbCircle
 10
262.127858
 20
-58.156586
 30
0.0
 40
0.1086908952080558
100
AcDbArc
 50
63.999924
 51
243.999924
  0
LINE
  5
C3
330
1F
100
AcDbEntity
  8
LC-001-100-D00-0
 62
     7
370
    50
100
AcDbLine
 10
262.566274
 20
-58.249482
 30
0.0
 11
262.175506
 21
-58.058894
 31
0.0
  0
LINE
  5
C4
330
1F
100
AcDbEntity
  8
LC-001-100-D00-0
 62
     7
370
    50
100
AcDbLine
 10
262.180304
 20
-58.544954
 30
0.0
 11
262.815287
 21
-58.854657
 31
0.0
  0
ARC
  5
C5
330
1F
100
AcDbEntity
  8
LC-001-100-D00-0
 62
     7
370
    50
100
AcDbCircle
 10
262.76764
 20
-58.952348
 30
0.0
 40
0.1086904458112103
100
AcDbArc
 50
244.000023
 51
64.000023
  0
LINE
  5
C6
330
1F
100
AcDbEntity
  8
LC-001-100-D00-0
 62
     7
370
    50
100
AcDbLine
 10
261.450013
 20
-58.430628
 30
0.0
 11
262.719994
 21
-59.050038
 31
0.0
  0
ARC
  5
C7
330
1F
100
AcDbEntity
  8
LC-001-100-D00-0
 62
     7
370
    50
100
AcDbCircle
 10
261.497662
 20
-58.332938
 30
0.0
 40
0.1086908952078538
100
AcDbArc
 50
63.999607
 51
243.999951
  0
LINE
  5
C8
330
1F
100
AcDbEntity
  8
LC-001-100-D00-0
 62
     7
370
    50
100
AcDbLine
 10
262.180304
 20
-58.544954
 30
0.0
 11
261.545306
 21
-58.235248
 31
0.0
  0
LINE
  5
C9
330
1F
100
AcDbEntity
  8
LC-001-100-D00-0
 62
     7
370
    50
100
AcDbLine
 10
261.89441
 20
-59.131096
 30
0.0
 11
260.819813
 21
-58.60698
 31
0.0
  0
ARC
  5
CA
330
1F
100
AcDbEntity
  8
LC-001-100-D00-0
 62
     7
370
    50
100
AcDbCircle
 10
260.867466
 20
-58.509289
 30
0.0
 40
0.1086911592080539
100
AcDbArc
 50
63.999998
 51
243.999998
  0
LINE
  5
CB
330
1F
100
AcDbEntity
  8
LC-001-100-D00-0
 62
     7
370
    50
100
AcDbLine
 10
261.989703
 20
-58.935716
 30
0.0
 11
260.915106
 21
-58.411598
 31
0.0
  0
LINE
  5
CC
330
1F
100
AcDbEntity
  8
LC-001-100-D00-0
 62
     7
370
    50
100
AcDbLine
 10
261.989703
 20
-58.935716
 30
0.0
 11
263.064316
 21
-59.459831
 31
0.0
  0
ARC
  5
CD
330
1F
100
AcDbEntity
  8
LC-001-100-D00-0
 62
     7
370
    50
100
AcDbCircle
 10
263.016662
 20
-59.557522
 30
0.0
 40
0.1086911592081373
100
AcDbArc
 50
243.999977
 51
64.00002
  0
LINE
  5
CE
330
1F
100
AcDbEntity
  8
LC-001-100-D00-0
 62
     7
370
    50
100
AcDbLine
 10
261.89441
 20
-59.131096
 30
0.0
 11
262.969008
 21
-59.655213
 31
0.0
  0
ARC
  5
CF
330
1F
100
AcDbEntity
  8
LC-001-100-D00-0
 62
     7
370
    50
100
AcDbCircle
 10
267.8293
 20
-56.933693
 30
0.0
 40
0.4057857079998826
100
AcDbArc
 50
0.0
 51
89.99998
  0
LINE
  5
D0
330
1F
100
AcDbEntity
  8
LC-001-100-D00-0
 62
     7
370
    50
100
AcDbLine
 10
268.235078
 20
-58.457461
 30
0.0
 11
268.235078
 21
-56.933693
 31
0.0
  0
ARC
  5
D1
330
1F
100
AcDbEntity
  8
LC-001-100-D00-0
 62
     7
370
    50
100
AcDbCircle
 10
267.8293
 20
-58.457461
 30
0.0
 40
0.4057857079996524
100
AcDbArc
 50
270.00002
 51
0.0
  0
LINE
  5
D2
330
1F
100
AcDbEntity
  8
LC-001-100-D00-0
 62
     7
370
    50
100
AcDbLine
 10
267.007789
 20
-58.863248
 30
0.0
 11
267.829305
 21
-58.863246
 31
0.0
  0
LINE
  5
D3
330
1F
100
AcDbEntity
  8
LC-001-100-D00-0
 62
     7
370
    50
100
AcDbLine
 10
267.007789
 20
-56.527908
 30
0.0
 11
267.007789
 21
-58.863248
 31
0.0
  0
LINE
  5
D4
330
1F
100
AcDbEntity
  8
LC-001-100-D00-0
 62
     7
370
    50
100
AcDbLine
 10
267.829305
 20
-56.527908
 30
0.0
 11
267.007789
 21
-56.527908
 31
0.0
  0
LINE
  5
D5
330
1F
100
AcDbEntity
  8
LC-001-100-D00-0
 62
     7
370
    50
100
AcDbLine
 10
268.763429
 20
-56.513003
 30
0.0
 11
268.763429
 21
-58.912941
 31
0.0
  0
ARC
  5
D6
330
1F
100
AcDbEntity
  8
LC-001-100-D00-0
 62
     7
370
    50
100
AcDbCircle
 10
268.192021
 20
-56.513003
 30
0.0
 40
0.5714135010452135
100
AcDbArc
 50
359.999982
 51
90.0
  0
LINE
  5
D7
330
1F
100
AcDbEntity
  8
LC-001-100-D00-0
 62
     7
370
    50
100
AcDbLine
 10
266.363492
 20
-55.94159
 30
0.0
 11
268.192014
 21
-55.94159
 31
0.0
  0
LINE
  5
D8
330
1F
100
AcDbEntity
  8
LC-001-100-D00-0
 62
     7
370
    50
100
AcDbLine
 10
266.363492
 20
-59.484354
 30
0.0
 11
266.363492
 21
-55.94159
 31
0.0
  0
LINE
  5
D9
330
1F
100
AcDbEntity
  8
LC-001-100-D00-0
 62
     7
370
    50
100
AcDbLine
 10
268.192014
 20
-59.484354
 30
0.0
 11
266.363492
 21
-59.484354
 31
0.0
  0
ARC
  5
DA
330
1F
100
AcDbEntity
  8
LC-001-100-D00-0
 62
     7
370
    50
100
AcDbCircle
 10
268.19202
 20
-58.912941
 30
0.0
 40
0.5714135010453827
100
AcDbArc
 50
270.000008
 51
359.999982
  0
LINE
  5
DB
330
1F
100
AcDbEntity
  8
LC-001-100-D00-0
 62
     7
370
    50
100
AcDbLine
 10
267.236343
 20
-56.756473
 30
0.0
 11
267.832613
 21
-56.756473
 31
0.0
  0
LINE
  5
DC
330
1F
100
AcDbEntity
  8
LC-001-100-D00-0
 62
     7
370
    50
100
AcDbLine
 10
267.236343
 20
-58.634681
 30
0.0
 11
267.236343
 21
-56.756473
 31
0.0
  0
LINE
  5
DD
330
1F
100
AcDbEntity
  8
LC-001-100-D00-0
 62
     7
370
    50
100
AcDbLine
 10
267.236343
 20
-58.634681
 30
0.0
 11
267.832613
 21
-58.634681
 31
0.0
  0
ARC
  5
DE
330
1F
100
AcDbEntity
  8
LC-001-100-D00-0
 62
     7
370
    50
100
AcDbCircle
 10
267.832612
 20
-58.460773
 30
0.0
 40
0.1739081605712727
100
AcDbArc
 50
270.0
 51
0.0
  0
LINE
  5
DF
330
1F
100
AcDbEntity
  8
LC-001-100-D00-0
 62
     7
370
    50
100
AcDbLine
 10
268.006524
 20
-58.460773
 30
0.0
 11
268.006524
 21
-56.930381
 31
0.0
  0
ARC
  5
E0
330
1F
100
AcDbEntity
  8
LC-001-100-D00-0
 62
     7
370
    50
100
AcDbCircle
 10
267.832612
 20
-56.930381
 30
0.0
 40
0.1739081605712727
100
AcDbArc
 50
0.0
 51
90.0
  0
ARC
  5
E1
330
1F
100
AcDbEntity
  8
LC-001-100-D00-0
 62
     7
370
    50
100
AcDbCircle
 10
270.717825
 20
-58.492251
 30
0.0
 40
0.4057857079996824
100
AcDbArc
 50
180.000021
 51
270.0
  0
LINE
  5
E2
330
1F
100
AcDbEntity
  8
LC-001-100-D00-0
 62
     7
370
    50
100
AcDbLine
 10
270.312032
 20
-57.694345
 30
0.0
 11
270.312032
 21
-58.492252
 31
0.0
  0
LINE
  5
E3
330
1F
100
AcDbEntity
  8
LC-001-100-D00-0
 62
     7
370
    50
100
AcDbLine
 10
271.812623
 20
-57.694345
 30
0.0
 11
270.312032
 21
-57.694345
 31
0.0
  0
LINE
  5
E4
330
1F
100
AcDbEntity
  8
LC-001-100-D00-0
 62
     7
370
    50
100
AcDbLine
 10
271.812623
 20
-58.492252
 30
0.0
 11
271.812623
 21
-57.694345
 31
0.0
  0
ARC
  5
E5
330
1F
100
AcDbEntity
  8
LC-001-100-D00-0
 62
     7
370
    50
100
AcDbCircle
 10
271.406833
 20
-58.492251
 30
0.0
 40
0.4057857079997973
100
AcDbArc
 50
270.0
 51
359.999979
  0
LINE
  5
E6
330
1F
100
AcDbEntity
  8
LC-001-100-D00-0
 62
     7
370
    50
100
AcDbLine
 10
270.71782
 20
-58.898037
 30
0.0
 11
271.406835
 21
-58.898037
 31
0.0
  0
LINE
  5
E7
330
1F
100
AcDbEntity
  8
LC-001-100-D00-0
 62
     7
370
    50
100
AcDbLine
 10
271.827525
 20
-59.484354
 30
0.0
 11
270.297131
 21
-59.484356
 31
0.0
  0
ARC
  5
E8
330
1F
100
AcDbEntity
  8
LC-001-100-D00-0
 62
     7
370
    50
100
AcDbCircle
 10
271.827522
 20
-58.912941
 30
0.0
 40
0.5714140010452415
100
AcDbArc
 50
270.000009
 51
0.0
  0
LINE
  5
E9
330
1F
100
AcDbEntity
  8
LC-001-100-D00-0
 62
     7
370
    50
100
AcDbLine
 10
272.398939
 20
-55.94159
 30
0.0
 11
272.398939
 21
-58.912941
 31
0.0
  0
LINE
  5
EA
330
1F
100
AcDbEntity
  8
LC-001-100-D00-0
 62
     7
370
    50
100
AcDbLine
 10
271.812623
 20
-55.94159
 30
0.0
 11
272.398939
 21
-55.94159
 31
0.0
  0
LINE
  5
EB
330
1F
100
AcDbEntity
  8
LC-001-100-D00-0
 62
     7
370
    50
100
AcDbLine
 10
271.812623
 20
-57.100986
 30
0.0
 11
271.812623
 21
-55.94159
 31
0.0
  0
LINE
  5
EC
330
1F
100
AcDbEntity
  8
LC-001-100-D00-0
 62
     7
370
    50
100
AcDbLine
 10
270.312032
 20
-57.100986
 30
0.0
 11
271.812623
 21
-57.100986
 31
0.0
  0
LINE
  5
ED
330
1F
100
AcDbEntity
  8
LC-001-100-D00-0
 62
     7
370
    50
100
AcDbLine
 10
270.312032
 20
-55.94159
 30
0.0
 11
270.312032
 21
-57.100986
 31
0.0
  0
LINE
  5
EE
330
1F
100
AcDbEntity
  8
LC-001-100-D00-0
 62
     7
370
    50
100
AcDbLine
 10
269.725716
 20
-55.94159
 30
0.0
 11
270.312032
 21
-55.94159
 31
0.0
  0
LINE
  5
EF
330
1F
100
AcDbEntity
  8
LC-001-100-D00-0
 62
     7
370
    50
100
AcDbLine
 10
269.725716
 20
-58.912941
 30
0.0
 11
269.725716
 21
-55.94159
 31
0.0
  0
ARC
  5
F0
330
1F
100
AcDbEntity
  8
LC-001-100-D00-0
 62
     7
370
    50
100
AcDbCircle
 10
270.297135
 20
-58.912941
 30
0.0
 40
0.5714141256096923
100
AcDbArc
 50
180.0
 51
270.000009
  0
LINE
  5
F1
330
1F
100
AcDbEntity
  8
LC-001-100-D00-0
 62
     7
370
    50
100
AcDbLine
 10
276.514759
 20
-56.527908
 30
0.0
 11
276.514759
 21
-59.484354
 31
0.0
  0
LINE
  5
F2
330
1F
100
AcDbEntity
  8
LC-001-100-D00-0
 62
     7
370
    50
100
AcDbLine
 10
277.79009
 20
-56.527908
 30
0.0
 11
276.514759
 21
-56.527908
 31
0.0
  0
LINE
  5
F3
330
1F
100
AcDbEntity
  8
LC-001-100-D00-0
 62
     7
370
    50
100
AcDbLine
 10
277.79009
 20
-55.94159
 30
0.0
 11
277.79009
 21
-56.527908
 31
0.0
  0
LINE
  5
F4
330
1F
100
AcDbEntity
  8
LC-001-100-D00-0
 62
     7
370
    50
100
AcDbLine
 10
275.928443
 20
-55.94159
 30
0.0
 11
277.79009
 21
-55.94159
 31
0.0
  0
LINE
  5
F5
330
1F
100
AcDbEntity
  8
LC-001-100-D00-0
 62
     7
370
    50
100
AcDbLine
 10
275.928443
 20
-59.484354
 30
0.0
 11
275.928443
 21
-55.94159
 31
0.0
  0
LINE
  5
F6
330
1F
100
AcDbEntity
  8
LC-001-100-D00-0
 62
     7
370
    50
100
AcDbLine
 10
276.514759
 20
-59.484354
 30
0.0
 11
275.928443
 21
-59.484354
 31
0.0
  0
LINE
  5
F7
330
1F
100
AcDbEntity
  8
LC-001-100-D00-0
 62
     7
370
    50
100
AcDbLine
 10
270.540601
 20
-57.922912
 30
0.0
 11
271.584054
 21
-57.922912
 31
0.0
  0
LINE
  5
F8
330
1F
100
AcDbEntity
  8
LC-001-100-D00-0
 62
     7
370
    50
100
AcDbLine
 10
270.540601
 20
-58.495564
 30
0.0
 11
270.540601
 21
-57.922912
 31
0.0
  0
ARC
  5
F9
330
1F
100
AcDbEntity
  8
LC-001-100-D00-0
 62
     7
370
    50
100
AcDbCircle
 10
270.714513
 20
-58.495563
 30
0.0
 40
0.1739081605712727
100
AcDbArc
 50
180.0
 51
270.0
  0
LINE
  5
FA
330
1F
100
AcDbEntity
  8
LC-001-100-D00-0
 62
     7
370
    50
100
AcDbLine
 10
270.714512
 20
-58.669471
 30
0.0
 11
271.410143
 21
-58.669471
 31
0.0
  0
ARC
  5
FB
330
1F
100
AcDbEntity
  8
LC-001-100-D00-0
 62
     7
370
    50
100
AcDbCircle
 10
271.410145
 20
-58.495563
 30
0.0
 40
0.173908160571159
100
AcDbArc
 50
270.0
 51
0.0
  0
LINE
  5
FC
330
1F
100
AcDbEntity
  8
LC-001-100-D00-0
 62
     7
370
    50
100
AcDbLine
 10
271.584054
 20
-58.495564
 30
0.0
 11
271.584054
 21
-57.922912
 31
0.0
  0
LINE
  5
FD
330
1F
100
AcDbEntity
  8
LC-001-100-D00-0
 62
     7
370
    50
100
AcDbLine
 10
275.297409
 20
-56.527908
 30
0.0
 11
274.022078
 21
-56.527908
 31
0.0
  0
LINE
  5
FE
330
1F
100
AcDbEntity
  8
LC-001-100-D00-0
 62
     7
370
    50
100
AcDbLine
 10
275.297409
 20
-55.94159
 30
0.0
 11
275.297409
 21
-56.527908
 31
0.0
  0
LINE
  5
FF
330
1F
100
AcDbEntity
  8
LC-001-100-D00-0
 62
     7
370
    50
100
AcDbLine
 10
273.435762
 20
-55.94159
 30
0.0
 11
275.297409
 21
-55.94159
 31
0.0
  0
LINE
  5
100
330
1F
100
AcDbEntity
  8
LC-001-100-D00-0
 62
     7
370
    50
100
AcDbLine
 10
273.435762
 20
-59.484354
 30
0.0
 11
273.435762
 21
-55.94159
 31
0.0
  0
LINE
  5
101
330
1F
100
AcDbEntity
  8
LC-001-100-D00-0
 62
     7
370
    50
100
AcDbLine
 10
274.022078
 20
-59.484354
 30
0.0
 11
273.435762
 21
-59.484354
 31
0.0
  0
LINE
  5
102
330
1F
100
AcDbEntity
  8
LC-001-100-D00-0
 62
     7
370
    50
100
AcDbLine
 10
274.022078
 20
-56.527908
 30
0.0
 11
274.022078
 21
-59.484354
 31
0.0
  0
LINE
  5
103
330
1F
100
AcDbEntity
  8
LC-001-100-D00-0
 62
     7
370
    50
100
AcDbLine
 10
279.980456
 20
-59.484354
 30
0.0
 11
278.992539
 21
-59.484354
 31
0.0
  0
ARC
  5
104
330
1F
100
AcDbEntity
  8
LC-001-100-D00-0
 62
     7
370
    50
100
AcDbCircle
 10
279.980455
 20
-58.912941
 30
0.0
 40
0.5714137798644255
100
AcDbArc
 50
270.000014
 51
348.463011
  0
ARC
  5
105
330
1F
100
AcDbEntity
  8
LC-001-100-D00-0
 62
     7
370
    50
100
AcDbCircle
 10
281.100193
 20
-58.912942
 30
0.0
 40
0.5714138754355466
100
AcDbArc
 50
191.536959
 51
270.000014
  0
LINE
  5
106
330
1F
100
AcDbEntity
  8
LC-001-100-D00-0
 62
     7
370
    50
100
AcDbLine
 10
282.088107
 20
-59.484354
 30
0.0
 11
281.100189
 21
-59.484356
 31
0.0
  0
ARC
  5
107
330
1F
100
AcDbEntity
  8
LC-001-100-D00-0
 62
     7
370
    50
100
AcDbCircle
 10
282.088105
 20
-58.912942
 30
0.0
 40
0.571413501045296
100
AcDbArc
 50
270.000014
 51
0.0
  0
LINE
  5
108
330
1F
100
AcDbEntity
  8
LC-001-100-D00-0
 62
     7
370
    50
100
AcDbLine
 10
282.659521
 20
-55.94159
 30
0.0
 11
282.659521
 21
-58.912941
 31
0.0
  0
LINE
  5
109
330
1F
100
AcDbEntity
  8
LC-001-100-D00-0
 62
     7
370
    50
100
AcDbLine
 10
282.073205
 20
-55.94159
 30
0.0
 11
282.659521
 21
-55.94159
 31
0.0
  0
LINE
  5
10A
330
1F
100
AcDbEntity
  8
LC-001-100-D00-0
 62
     7
370
    50
100
AcDbLine
 10
282.073205
 20
-58.550221
 30
0.0
 11
282.073205
 21
-55.94159
 31
0.0
  0
ARC
  5
10B
330
1F
100
AcDbEntity
  8
LC-001-100-D00-0
 62
     7
370
    50
100
AcDbCircle
 10
281.725384
 20
-58.550221
 30
0.0
 40
0.3478163211423216
100
AcDbArc
 50
269.999924
 51
0.000007
  0
LINE
  5
10C
330
1F
100
AcDbEntity
  8
LC-001-100-D00-0
 62
     7
370
    50
100
AcDbLine
 10
281.210279
 20
-58.898037
 30
0.0
 11
281.725382
 21
-58.898037
 31
0.0
  0
ARC
  5
10D
330
1F
100
AcDbEntity
  8
LC-001-100-D00-0
 62
     7
370
    50
100
AcDbCircle
 10
281.210283
 20
-58.55022
 30
0.0
 40
0.3478163211416927
100
AcDbArc
 50
180.0
 51
269.999924
  0
LINE
  5
10E
330
1F
100
AcDbEntity
  8
LC-001-100-D00-0
 62
     7
370
    50
100
AcDbLine
 10
280.862471
 20
-55.94159
 30
0.0
 11
280.862471
 21
-58.550221
 31
0.0
  0
LINE
  5
10F
330
1F
100
AcDbEntity
  8
LC-001-100-D00-0
 62
     7
370
    50
100
AcDbLine
 10
280.218175
 20
-55.94159
 30
0.0
 11
280.862471
 21
-55.94159
 31
0.0
  0
LINE
  5
110
330
1F
100
AcDbEntity
  8
LC-001-100-D00-0
 62
     7
370
    50
100
AcDbLine
 10
280.218175
 20
-58.550221
 30
0.0
 11
280.218175
 21
-55.94159
 31
0.0
  0
ARC
  5
111
330
1F
100
AcDbEntity
  8
LC-001-100-D00-0
 62
     7
370
    50
100
AcDbCircle
 10
279.870364
 20
-58.550221
 30
0.0
 40
0.347816321142208
100
AcDbArc
 50
269.999924
 51
0.000007
  0
LINE
  5
112
330
1F
100
AcDbEntity
  8
LC-001-100-D00-0
 62
     7
370
    50
100
AcDbLine
 10
279.355263
 20
-58.898037
 30
0.0
 11
279.870367
 21
-58.898037
 31
0.0
  0
ARC
  5
113
330
1F
100
AcDbEntity
  8
LC-001-100-D00-0
 62
     7
370
    50
100
AcDbCircle
 10
279.355263
 20
-58.55022
 30
0.0
 40
0.3478163211426022
100
AcDbArc
 50
180.0
 51
269.999924
  0
LINE
  5
114
330
1F
100
AcDbEntity
  8
LC-001-100-D00-0
 62
     7
370
    50
100
AcDbLine
 10
279.00744
 20
-55.94159
 30
0.0
 11
279.00744
 21
-58.550221
 31
0.0
  0
LINE
  5
115
330
1F
100
AcDbEntity
  8
LC-001-100-D00-0
 62
     7
370
    50
100
AcDbLine
 10
278.421124
 20
-55.94159
 30
0.0
 11
279.00744
 21
-55.94159
 31
0.0
  0
LINE
  5
116
330
1F
100
AcDbEntity
  8
LC-001-100-D00-0
 62
     7
370
    50
100
AcDbLine
 10
278.421124
 20
-58.912941
 30
0.0
 11
278.421124
 21
-55.94159
 31
0.0
  0
ARC
  5
117
330
1F
100
AcDbEntity
  8
LC-001-100-D00-0
 62
     7
370
    50
100
AcDbCircle
 10
278.992543
 20
-58.912941
 30
0.0
 40
0.5714140000000043
100
AcDbArc
 50
180.0
 51
270.000014
  0
LINE
  5
118
330
1F
100
AcDbEntity
  8
LC-001-100-D00-0
 62
     7
370
    50
100
AcDbLine
 10
285.673922
 20
-58.898029
 30
0.0
 11
285.673922
 21
-59.484354
 31
0.0
  0
LINE
  5
119
330
1F
100
AcDbEntity
  8
LC-001-100-D00-0
 62
     7
370
    50
100
AcDbLine
 10
284.166729
 20
-58.898029
 30
0.0
 11
285.673922
 21
-58.898029
 31
0.0
  0
LINE
  5
11A
330
1F
100
AcDbEntity
  8
LC-001-100-D00-0
 62
     7
370
    50
100
AcDbLine
 10
284.166729
 20
-57.977143
 30
0.0
 11
284.166729
 21
-58.898029
 31
0.0
  0
LINE
  5
11B
330
1F
100
AcDbEntity
  8
LC-001-100-D00-0
 62
     7
370
    50
100
AcDbLine
 10
285.673922
 20
-57.977143
 30
0.0
 11
284.166729
 21
-57.977143
 31
0.0
  0
LINE
  5
11C
330
1F
100
AcDbEntity
  8
LC-001-100-D00-0
 62
     7
370
    50
100
AcDbLine
 10
285.673922
 20
-57.444253
 30
0.0
 11
285.673922
 21
-57.977143
 31
0.0
  0
LINE
  5
11D
330
1F
100
AcDbEntity
  8
LC-001-100-D00-0
 62
     7
370
    50
100
AcDbLine
 10
284.166729
 20
-57.444253
 30
0.0
 11
285.673922
 21
-57.444253
 31
0.0
  0
LINE
  5
11E
330
1F
100
AcDbEntity
  8
LC-001-100-D00-0
 62
     7
370
    50
100
AcDbLine
 10
284.166729
 20
-56.527908
 30
0.0
 11
284.166729
 21
-57.444253
 31
0.0
  0
LINE
  5
11F
330
1F
100
AcDbEntity
  8
LC-001-100-D00-0
 62
     7
370
    50
100
AcDbLine
 10
285.673922
 20
-56.527908
 30
0.0
 11
284.166729
 21
-56.527908
 31
0.0
  0
LINE
  5
120
330
1F
100
AcDbEntity
  8
LC-001-100-D00-0
 62
     7
370
    50
100
AcDbLine
 10
285.673922
 20
-55.94159
 30
0.0
 11
285.673922
 21
-56.527908
 31
0.0
  0
LINE
  5
121
330
1F
100
AcDbEntity
  8
LC-001-100-D00-0
 62
     7
370
    50
100
AcDbLine
 10
283.580398
 20
-55.94159
 30
0.0
 11
285.673922
 21
-55.94159
 31
0.0
  0
LINE
  5
122
330
1F
100
AcDbEntity
  8
LC-001-100-D00-0
 62
     7
370
    50
100
AcDbLine
 10
283.580398
 20
-59.484354
 30
0.0
 11
283.580398
 21
-55.94159
 31
0.0
  0
LINE
  5
123
330
1F
100
AcDbEntity
  8
LC-001-100-D00-0
 62
     7
370
    50
100
AcDbLine
 10
285.673922
 20
-59.484354
 30
0.0
 11
283.580398
 21
-59.484354
 31
0.0
  0
ARC
  5
124
330
1F
100
AcDbEntity
  8
LC-001-100-D00-0
 62
     7
370
    50
100
AcDbCircle
 10
288.449833
 20
-58.093081
 30
0.0
 40
0.4057857079997689
100
AcDbArc
 50
0.0
 51
90.0
  0
LINE
  5
125
330
1F
100
AcDbEntity
  8
LC-001-100-D00-0
 62
     7
370
    50
100
AcDbLine
 10
288.855618
 20
-58.492243
 30
0.0
 11
288.855618
 21
-58.093081
 31
0.0
  0
ARC
  5
126
330
1F
100
AcDbEntity
  8
LC-001-100-D00-0
 62
     7
370
    50
100
AcDbCircle
 10
288.449833
 20
-58.492243
 30
0.0
 40
0.4057857079994278
100
AcDbArc
 50
270.0
 51
0.0
  0
LINE
  5
127
330
1F
100
AcDbEntity
  8
LC-001-100-D00-0
 62
     7
370
    50
100
AcDbLine
 10
287.355041
 20
-58.898029
 30
0.0
 11
288.449829
 21
-58.898029
 31
0.0
  0
LINE
  5
128
330
1F
100
AcDbEntity
  8
LC-001-100-D00-0
 62
     7
370
    50
100
AcDbLine
 10
287.355041
 20
-57.687295
 30
0.0
 11
287.355041
 21
-58.898029
 31
0.0
  0
LINE
  5
129
330
1F
100
AcDbEntity
  8
LC-001-100-D00-0
 62
     7
370
    50
100
AcDbLine
 10
288.449829
 20
-57.687295
 30
0.0
 11
287.355041
 21
-57.687295
 31
0.0
  0
ARC
  5
12A
330
1F
100
AcDbEntity
  8
LC-001-100-D00-0
 62
     7
370
    50
100
AcDbCircle
 10
288.449833
 20
-56.579253
 30
0.0
 40
0.405785707999371
100
AcDbArc
 50
270.0
 51
0.0
  0
LINE
  5
12B
330
1F
100
AcDbEntity
  8
LC-001-100-D00-0
 62
     7
370
    50
100
AcDbLine
 10
287.355041
 20
-56.985039
 30
0.0
 11
288.449829
 21
-56.985039
 31
0.0
  0
LINE
  5
12C
330
1F
100
AcDbEntity
  8
LC-001-100-D00-0
 62
     7
370
    50
100
AcDbLine
 10
287.355041
 20
-55.94159
 30
0.0
 11
287.355041
 21
-56.985039
 31
0.0
  0
LINE
  5
12D
330
1F
100
AcDbEntity
  8
LC-001-100-D00-0
 62
     7
370
    50
100
AcDbLine
 10
286.768725
 20
-55.94159
 30
0.0
 11
287.355041
 21
-55.94159
 31
0.0
  0
LINE
  5
12E
330
1F
100
AcDbEntity
  8
LC-001-100-D00-0
 62
     7
370
    50
100
AcDbLine
 10
286.768725
 20
-59.484356
 30
0.0
 11
286.768725
 21
-55.94159
 31
0.0
  0
LINE
  5
12F
330
1F
100
AcDbEntity
  8
LC-001-100-D00-0
 62
     7
370
    50
100
AcDbLine
 10
288.870519
 20
-59.484354
 30
0.0
 11
286.768725
 21
-59.484356
 31
0.0
  0
ARC
  5
130
330
1F
100
AcDbEntity
  8
LC-001-100-D00-0
 62
     7
370
    50
100
AcDbCircle
 10
288.870522
 20
-58.912941
 30
0.0
 40
0.5714140010452593
100
AcDbArc
 50
270.000007
 51
0.000014
  0
LINE
  5
131
330
1F
100
AcDbEntity
  8
LC-001-100-D00-0
 62
     7
370
    50
100
AcDbLine
 10
289.441934
 20
-57.921383
 30
0.0
 11
289.441934
 21
-58.912941
 31
0.0
  0
ARC
  5
132
330
1F
100
AcDbEntity
  8
LC-001-100-D00-0
 62
     7
370
    50
100
AcDbCircle
 10
288.870522
 20
-57.921383
 30
0.0
 40
0.5714137888341109
100
AcDbArc
 50
0.000014
 51
67.324596
  0
ARC
  5
133
330
1F
100
AcDbEntity
  8
LC-001-100-D00-0
 62
     7
370
    50
100
AcDbCircle
 10
288.870523
 20
-56.866891
 30
0.0
 40
0.5714138754353826
100
AcDbArc
 50
292.675369
 51
0.0
  0
LINE
  5
134
330
1F
100
AcDbEntity
  8
LC-001-100-D00-0
 62
     7
370
    50
100
AcDbLine
 10
289.441934
 20
-55.94159
 30
0.0
 11
289.441934
 21
-56.866891
 31
0.0
  0
LINE
  5
135
330
1F
100
AcDbEntity
  8
LC-001-100-D00-0
 62
     7
370
    50
100
AcDbLine
 10
288.855618
 20
-55.94159
 30
0.0
 11
289.441934
 21
-55.94159
 31
0.0
  0
LINE
  5
136
330
1F
100
AcDbEntity
  8
LC-001-100-D00-0
 62
     7
370
    50
100
AcDbLine
 10
288.855618
 20
-56.579252
 30
0.0
 11
288.855618
 21
-55.94159
 31
0.0
  0
LINE
  5
137
330
1F
100
AcDbEntity
  8
LC-001-100-D00-0
 62
     7
370
    50
100
AcDbLine
 10
287.58361
 20
-57.915862
 30
0.0
 11
288.453138
 21
-57.915862
 31
0.0
  0
LINE
  5
138
330
1F
100
AcDbEntity
  8
LC-001-100-D00-0
 62
     7
370
    50
100
AcDbLine
 10
287.58361
 20
-58.669464
 30
0.0
 11
287.58361
 21
-57.915862
 31
0.0
  0
LINE
  5
139
330
1F
100
AcDbEntity
  8
LC-001-100-D00-0
 62
     7
370
    50
100
AcDbLine
 10
287.58361
 20
-58.669464
 30
0.0
 11
288.453138
 21
-58.669464
 31
0.0
  0
ARC
  5
13A
330
1F
100
AcDbEntity
  8
LC-001-100-D00-0
 62
     7
370
    50
100
AcDbCircle
 10
288.453145
 20
-58.495555
 30
0.0
 40
0.1739081605712158
100
AcDbArc
 50
270.0
 51
0.0
  0
LINE
  5
13B
330
1F
100
AcDbEntity
  8
LC-001-100-D00-0
 62
     7
370
    50
100
AcDbLine
 10
288.627049
 20
-58.495554
 30
0.0
 11
288.627049
 21
-58.08977
 31
0.0
  0
ARC
  5
13C
330
1F
100
AcDbEntity
  8
LC-001-100-D00-0
 62
     7
370
    50
100
AcDbCircle
 10
288.453145
 20
-58.089769
 30
0.0
 40
0.1739081605713864
100
AcDbArc
 50
0.0
 51
90.0
  0
LINE
  5
13D
330
1F
100
AcDbEntity
  8
LC-001-100-D00-0
 62
     7
370
    50
100
AcDbLine
 10
117.170502
 20
-45.713024
 30
0.0
 11
178.1705
 21
-45.713024
 31
0.0
  0
LINE
  5
13E
330
1F
100
AcDbEntity
  8
LC-001-100-D00-0
 62
     7
370
    50
100
AcDbLine
 10
178.1705
 20
-93.713025
 30
0.0
 11
117.170502
 21
-93.713025
 31
0.0
  0
ARC
  5
13F
330
1F
100
AcDbEntity
  8
LC-001-100-D00-0
 62
     7
370
    50
100
AcDbCircle
 10
178.170502
 20
-69.713025
 30
0.0
 40
24.0
100
AcDbArc
 50
56.44269
 51
90.0
  0
ARC
  5
140
330
1F
100
AcDbEntity
  8
LC-001-100-D00-0
 62
     7
370
    50
100
AcDbCircle
 10
178.170502
 20
-69.713025
 30
0.0
 40
24.0
100
AcDbArc
 50
270.0
 51
303.55731
  0
ARC
  5
141
330
1F
100
AcDbEntity
  8
LC-001-100-D00-0
 62
     7
370
    50
100
AcDbCircle
 10
117.170502
 20
-69.713025
 30
0.0
 40
24.00000000000001
100
AcDbArc
 50
236.44269
 51
270.0
  0
ARC
  5
142
330
1F
100
AcDbEntity
  8
LC-001-100-D00-0
 62
     7
370
    50
100
AcDbCircle
 10
117.170502
 20
-69.713025
 30
0.0
 40
24.00000000000002
100
AcDbArc
 50
90.0
 51
123.55731
  0
LINE
  5
143
330
1F
100
AcDbEntity
  8
LC-001-100-D00-0
 62
     7
370
    50
100
AcDbLine
 10
353.670305
 20
-51.221521
 30
0.0
 11
353.670305
 21
-88.204529
 31
0.0
  0
LINE
  5
144
330
1F
100
AcDbEntity
  8
LC-001-100-D00-0
 62
     7
370
    50
100
AcDbLine
 10
-48.329497
 20
-141.213023
 30
0.0
 11
343.670508
 21
-141.213023
 31
0.0
  0
LINE
  5
145
330
1F
100
AcDbEntity
  8
LC-001-100-D00-0
 62
     7
370
    50
100
AcDbLine
 10
343.670508
 20
-141.213023
 30
0.0
 11
343.670508
 21
1.786972
 31
0.0
  0
LINE
  5
146
330
1F
100
AcDbEntity
  8
LC-001-100-D00-0
 62
     7
370
    50
100
AcDbLine
 10
343.670508
 20
1.786972
 30
0.0
 11
-48.329497
 21
1.786972
 31
0.0
  0
LINE
  5
147
330
1F
100
AcDbEntity
  8
LC-001-100-D00-0
 62
     7
370
    50
100
AcDbLine
 10
297.670504
 20
-43.713027
 30
0.0
 11
-2.3295
 21
-43.713027
 31
0.0
  0
LINE
  5
148
330
1F
100
AcDbEntity
  8
LC-001-100-D00-0
 62
     7
370
    50
100
AcDbLine
 10
-2.3295
 20
-95.713025
 30
0.0
 11
297.670504
 21
-95.713025
 31
0.0
  0
LINE
  5
149
330
1F
100
AcDbEntity
  8
LC-001-100-D00-0
 62
     7
370
    50
100
AcDbLine
 10
-2.3295
 20
-43.713027
 30
0.0
 11
-2.3295
 21
-95.713025
 31
0.0
  0
LINE
  5
14A
330
1F
100
AcDbEntity
  8
LC-001-100-D00-0
 62
     7
370
    50
100
AcDbLine
 10
-48.329497
 20
1.786972
 30
0.0
 11
-48.329497
 21
-141.213023
 31
0.0
  0
LINE
  5
14B
330
1F
100
AcDbEntity
  8
LC-001-100-D00-0
 62
     7
370
    50
100
AcDbLine
 10
297.670504
 20
-95.713025
 30
0.0
 11
297.670504
 21
-43.713027
 31
0.0
  0
ARC
  5
14C
330
1F
100
AcDbEntity
  8
LC-001-100-D00-0
 62
     7
370
    50
100
AcDbCircle
 10
-13.329498
 20
-149.713025
 30
0.0
 40
2.908089297201514
100
AcDbArc
 50
90.0
 51
270.0
  0
ARC
  5
14D
330
1F
100
AcDbEntity
  8
LC-001-100-D00-0
 62
     7
370
    50
100
AcDbCircle
 10
-13.329498
 20
-149.713025
 30
0.0
 40
4.000000000000114
100
AcDbArc
 50
90.0
 51
270.0
  0
LINE
  5
14E
330
1F
100
AcDbEntity
  8
LC-001-100-D00-0
 62
     7
370
    50
100
AcDbLine
 10
18.670505
 20
-152.621118
 30
0.0
 11
-13.3295
 21
-152.621118
 31
0.0
  0
LINE
  5
14F
330
1F
100
AcDbEntity
  8
LC-001-100-D00-0
 62
     7
370
    50
100
AcDbLine
 10
18.670505
 20
-153.713023
 30
0.0
 11
-13.3295
 21
-153.713023
 31
0.0
  0
CIRCLE
  5
150
330
1F
100
AcDbEntity
  8
LC-001-100-D00-0
 62
     7
370
    50
100
AcDbCircle
 10
-32.329498
 20
10.286975
 30
0.0
 40
7.0
  0
ARC
  5
151
330
1F
100
AcDbEntity
  8
LC-001-100-D00-0
 62
     7
370
    50
100
AcDbCircle
 10
-32.329498
 20
10.286975
 30
0.0
 40
6.471019057874602
100
AcDbArc
 50
292.726825
 51
247.273175
  0
ARC
  5
152
330
1F
100
AcDbEntity
  8
LC-001-100-D00-0
 62
     7
370
    50
100
AcDbCircle
 10
188.670502
 20
-149.713025
 30
0.0
 40
2.908089297201371
100
AcDbArc
 50
270.0
 51
90.0
  0
ARC
  5
153
330
1F
100
AcDbEntity
  8
LC-001-100-D00-0
 62
     7
370
    50
100
AcDbCircle
 10
188.670502
 20
-149.713025
 30
0.0
 40
4.0
100
AcDbArc
 50
270.0
 51
90.0
  0
LINE
  5
154
330
1F
100
AcDbEntity
  8
LC-001-100-D00-0
 62
     7
370
    50
100
AcDbLine
 10
68.670502
 20
-152.621118
 30
0.0
 11
36.670504
 21
-152.621118
 31
0.0
  0
LINE
  5
155
330
1F
100
AcDbEntity
  8
LC-001-100-D00-0
 62
     7
370
    50
100
AcDbLine
 10
68.670502
 20
-153.713023
 30
0.0
 11
36.670504
 21
-153.713023
 31
0.0
  0
ARC
  5
156
330
1F
100
AcDbEntity
  8
LC-001-100-D00-0
 62
     7
370
    50
100
AcDbCircle
 10
138.670502
 20
-149.713025
 30
0.0
 40
2.908089297201371
100
AcDbArc
 50
270.0
 51
90.0
  0
ARC
  5
157
330
1F
100
AcDbEntity
  8
LC-001-100-D00-0
 62
     7
370
    50
100
AcDbCircle
 10
138.670502
 20
-149.713025
 30
0.0
 40
4.0
100
AcDbArc
 50
270.0
 51
90.0
  0
LINE
  5
158
330
1F
100
AcDbEntity
  8
LC-001-100-D00-0
 62
     7
370
    50
100
AcDbLine
 10
156.670501
 20
-146.804934
 30
0.0
 11
188.670499
 21
-146.804934
 31
0.0
  0
LINE
  5
159
330
1F
100
AcDbEntity
  8
LC-001-100-D00-0
 62
     7
370
    50
100
AcDbLine
 10
156.670501
 20
-145.713029
 30
0.0
 11
188.670499
 21
-145.713029
 31
0.0
  0
ARC
  5
15A
330
1F
100
AcDbEntity
  8
LC-001-100-D00-0
 62
     7
370
    50
100
AcDbCircle
 10
106.670502
 20
-149.713025
 30
0.0
 40
2.908089297201371
100
AcDbArc
 50
90.0
 51
270.0
  0
ARC
  5
15B
330
1F
100
AcDbEntity
  8
LC-001-100-D00-0
 62
     7
370
    50
100
AcDbCircle
 10
106.670502
 20
-149.713025
 30
0.0
 40
4.0
100
AcDbArc
 50
90.0
 51
270.0
  0
LINE
  5
15C
330
1F
100
AcDbEntity
  8
LC-001-100-D00-0
 62
     7
370
    50
100
AcDbLine
 10
138.670502
 20
-152.621118
 30
0.0
 11
106.670502
 21
-152.621118
 31
0.0
  0
LINE
  5
15D
330
1F
100
AcDbEntity
  8
LC-001-100-D00-0
 62
     7
370
    50
100
AcDbLine
 10
138.670502
 20
-153.713023
 30
0.0
 11
106.670502
 21
-153.713023
 31
0.0
  0
ARC
  5
15E
330
1F
100
AcDbEntity
  8
LC-001-100-D00-0
 62
     7
370
    50
100
AcDbCircle
 10
258.670502
 20
-149.713025
 30
0.0
 40
2.9080892972014
100
AcDbArc
 50
270.0
 51
90.0
  0
ARC
  5
15F
330
1F
100
AcDbEntity
  8
LC-001-100-D00-0
 62
     7
370
    50
100
AcDbCircle
 10
258.670502
 20
-149.713025
 30
0.0
 40
4.000000000000028
100
AcDbArc
 50
270.0
 51
90.0
  0
LINE
  5
160
330
1F
100
AcDbEntity
  8
LC-001-100-D00-0
 62
     7
370
    50
100
AcDbLine
 10
226.670502
 20
-146.804934
 30
0.0
 11
258.6705
 21
-146.804934
 31
0.0
  0
LINE
  5
161
330
1F
100
AcDbEntity
  8
LC-001-100-D00-0
 62
     7
370
    50
100
AcDbLine
 10
226.670502
 20
-145.713029
 30
0.0
 11
258.6705
 21
-145.713029
 31
0.0
  0
LINE
  5
162
330
1F
100
AcDbEntity
  8
LC-001-100-D00-0
 62
     7
370
    50
100
AcDbLine
 10
106.670502
 20
-146.804934
 30
0.0
 11
138.670502
 21
-146.804934
 31
0.0
  0
LINE
  5
163
330
1F
100
AcDbEntity
  8
LC-001-100-D00-0
 62
     7
370
    50
100
AcDbLine
 10
106.670502
 20
-145.713029
 30
0.0
 11
138.670502
 21
-145.713029
 31
0.0
  0
CIRCLE
  5
164
330
1F
100
AcDbEntity
  8
LC-001-100-D00-0
 62
     7
370
    50
100
AcDbCircle
 10
327.670502
 20
-149.713025
 30
0.0
 40
7.000000000000028
  0
ARC
  5
165
330
1F
100
AcDbEntity
  8
LC-001-100-D00-0
 62
     7
370
    50
100
AcDbCircle
 10
327.670502
 20
-149.713025
 30
0.0
 40
6.471019057874655
100
AcDbArc
 50
112.726825
 51
67.273175
  0
ARC
  5
166
330
1F
100
AcDbEntity
  8
LC-001-100-D00-0
 62
     7
370
    50
100
AcDbCircle
 10
308.670502
 20
-149.713025
 30
0.0
 40
2.908089297201514
100
AcDbArc
 50
270.0
 51
90.0
  0
ARC
  5
167
330
1F
100
AcDbEntity
  8
LC-001-100-D00-0
 62
     7
370
    50
100
AcDbCircle
 10
308.670502
 20
-149.713025
 30
0.0
 40
4.000000000000114
100
AcDbArc
 50
270.0
 51
90.0
  0
LINE
  5
168
330
1F
100
AcDbEntity
  8
LC-001-100-D00-0
 62
     7
370
    50
100
AcDbLine
 10
276.670506
 20
-146.804934
 30
0.0
 11
308.670497
 21
-146.804934
 31
0.0
  0
LINE
  5
169
330
1F
100
AcDbEntity
  8
LC-001-100-D00-0
 62
     7
370
    50
100
AcDbLine
 10
276.670506
 20
-145.713029
 30
0.0
 11
308.670497
 21
-145.713029
 31
0.0
  0
ARC
  5
16A
330
1F
100
AcDbEntity
  8
LC-001-100-D00-0
 62
     7
370
    50
100
AcDbCircle
 10
18.670502
 20
-149.713025
 30
0.0
 40
2.908089297201485
100
AcDbArc
 50
270.0
 51
90.0
  0
ARC
  5
16B
330
1F
100
AcDbEntity
  8
LC-001-100-D00-0
 62
     7
370
    50
100
AcDbCircle
 10
18.670502
 20
-149.713025
 30
0.0
 40
4.000000000000057
100
AcDbArc
 50
270.0
 51
90.0
  0
LINE
  5
16C
330
1F
100
AcDbEntity
  8
LC-001-100-D00-0
 62
     7
370
    50
100
AcDbLine
 10
-13.3295
 20
-146.804934
 30
0.0
 11
18.670505
 21
-146.804934
 31
0.0
  0
LINE
  5
16D
330
1F
100
AcDbEntity
  8
LC-001-100-D00-0
 62
     7
370
    50
100
AcDbLine
 10
-13.3295
 20
-145.713029
 30
0.0
 11
18.670505
 21
-145.713029
 31
0.0
  0
CIRCLE
  5
16E
330
1F
100
AcDbEntity
  8
LC-001-100-D00-0
 62
     7
370
    50
100
AcDbCircle
 10
87.670502
 20
10.286975
 30
0.0
 40
7.0
  0
ARC
  5
16F
330
1F
100
AcDbEntity
  8
LC-001-100-D00-0
 62
     7
370
    50
100
AcDbCircle
 10
87.670502
 20
10.286975
 30
0.0
 40
6.471019057874602
100
AcDbArc
 50
292.726825
 51
247.273175
  0
LINE
  5
170
330
1F
100
AcDbEntity
  8
LC-001-100-D00-0
 62
     7
370
    50
100
AcDbLine
 10
258.6705
 20
-152.621118
 30
0.0
 11
226.670502
 21
-152.621118
 31
0.0
  0
LINE
  5
171
330
1F
100
AcDbEntity
  8
LC-001-100-D00-0
 62
     7
370
    50
100
AcDbLine
 10
258.6705
 20
-153.713023
 30
0.0
 11
226.670502
 21
-153.713023
 31
0.0
  0
ARC
  5
172
330
1F
100
AcDbEntity
  8
LC-001-100-D00-0
 62
     7
370
    50
100
AcDbCircle
 10
68.670502
 20
-149.713025
 30
0.0
 40
2.9080892972014
100
AcDbArc
 50
270.0
 51
90.0
  0
ARC
  5
173
330
1F
100
AcDbEntity
  8
LC-001-100-D00-0
 62
     7
370
    50
100
AcDbCircle
 10
68.670502
 20
-149.713025
 30
0.0
 40
4.000000000000028
100
AcDbArc
 50
270.0
 51
90.0
  0
LINE
  5
174
330
1F
100
AcDbEntity
  8
LC-001-100-D00-0
 62
     7
370
    50
100
AcDbLine
 10
36.670504
 20
-146.804934
 30
0.0
 11
68.670502
 21
-146.804934
 31
0.0
  0
LINE
  5
175
330
1F
100
AcDbEntity
  8
LC-001-100-D00-0
 62
     7
370
    50
100
AcDbLine
 10
36.670504
 20
-145.713029
 30
0.0
 11
68.670502
 21
-145.713029
 31
0.0
  0
CIRCLE
  5
176
330
1F
100
AcDbEntity
  8
LC-001-100-D00-0
 62
     7
370
    50
100
AcDbCircle
 10
-32.329498
 20
-149.713025
 30
0.0
 40
6.999999999999972
  0
CIRCLE
  5
177
330
1F
100
AcDbEntity
  8
LC-001-100-D00-0
 62
     7
370
    50
100
AcDbCircle
 10
87.670502
 20
-149.713025
 30
0.0
 40
6.999999999999972
  0
ARC
  5
178
330
1F
100
AcDbEntity
  8
LC-001-100-D00-0
 62
     7
370
    50
100
AcDbCircle
 10
352.670502
 20
-150.213025
 30
0.0
 40
10.0
100
AcDbArc
 50
270.0
 51
0.0
  0
LINE
  5
179
330
1F
100
AcDbEntity
  8
LC-001-100-D00-0
 62
     7
370
    50
100
AcDbLine
 10
362.670502
 20
10.786975
 30
0.0
 11
362.670502
 21
-150.213023
 31
0.0
  0
ARC
  5
17A
330
1F
100
AcDbEntity
  8
LC-001-100-D00-0
 62
     7
370
    50
100
AcDbCircle
 10
352.670502
 20
10.786975
 30
0.0
 40
10.0
100
AcDbArc
 50
0.0
 51
90.0
  0
LINE
  5
17B
330
1F
100
AcDbEntity
  8
LC-001-100-D00-0
 62
     7
370
    50
100
AcDbLine
 10
-57.3295
 20
20.786973
 30
0.0
 11
352.670496
 21
20.786973
 31
0.0
  0
ARC
  5
17C
330
1F
100
AcDbEntity
  8
LC-001-100-D00-0
 62
     7
370
    50
100
AcDbCircle
 10
-57.329498
 20
10.786975
 30
0.0
 40
10.00000000000005
100
AcDbArc
 50
90.0
 51
180.0
  0
LINE
  5
17D
330
1F
100
AcDbEntity
  8
LC-001-100-D00-0
 62
     7
370
    50
100
AcDbLine
 10
-67.329505
 20
10.786975
 30
0.0
 11
-67.329505
 21
-150.213023
 31
0.0
  0
ARC
  5
17E
330
1F
100
AcDbEntity
  8
LC-001-100-D00-0
 62
     7
370
    50
100
AcDbCircle
 10
-57.329498
 20
-150.213025
 30
0.0
 40
10.0
100
AcDbArc
 50
180.0
 51
270.0
  0
LINE
  5
17F
330
1F
100
AcDbEntity
  8
LC-001-100-D00-0
 62
     7
370
    50
100
AcDbLine
 10
352.670496
 20
-160.213028
 30
0.0
 11
-57.3295
 21
-160.213028
 31
0.0
  0
ARC
  5
180
330
1F
100
AcDbEntity
  8
LC-001-100-D00-0
 62
     7
370
    50
100
AcDbCircle
 10
352.170502
 20
-85.713025
 30
0.0
 40
4.0
100
AcDbArc
 50
180.0
 51
0.0
  0
LINE
  5
181
330
1F
100
AcDbEntity
  8
LC-001-100-D00-0
 62
     7
370
    50
100
AcDbLine
 10
348.170495
 20
-85.713025
 30
0.0
 11
348.170495
 21
-53.713025
 31
0.0
  0
ARC
  5
182
330
1F
100
AcDbEntity
  8
LC-001-100-D00-0
 62
     7
370
    50
100
AcDbCircle
 10
352.170502
 20
-53.713025
 30
0.0
 40
4.0
100
AcDbArc
 50
0.0
 51
180.0
  0
LINE
  5
183
330
1F
100
AcDbEntity
  8
LC-001-100-D00-0
 62
     7
370
    50
100
AcDbLine
 10
356.170496
 20
-53.713025
 30
0.0
 11
356.170496
 21
-85.713025
 31
0.0
  0
ARC
  5
184
330
1F
100
AcDbEntity
  8
LC-001-100-D00-0
 62
     7
370
    50
100
AcDbCircle
 10
276.670502
 20
10.286975
 30
0.0
 40
4.000000000000057
100
AcDbArc
 50
90.0
 51
270.0
  0
LINE
  5
185
330
1F
100
AcDbEntity
  8
LC-001-100-D00-0
 62
     7
370
    50
100
AcDbLine
 10
276.670506
 20
14.286975
 30
0.0
 11
308.670497
 21
14.286975
 31
0.0
  0
ARC
  5
186
330
1F
100
AcDbEntity
  8
LC-001-100-D00-0
 62
     7
370
    50
100
AcDbCircle
 10
308.670502
 20
10.286975
 30
0.0
 40
4.000000000000057
100
AcDbArc
 50
270.0
 51
90.0
  0
LINE
  5
187
330
1F
100
AcDbEntity
  8
LC-001-100-D00-0
 62
     7
370
    50
100
AcDbLine
 10
308.670497
 20
6.286974
 30
0.0
 11
276.670506
 21
6.286974
 31
0.0
  0
ARC
  5
188
330
1F
100
AcDbEntity
  8
LC-001-100-D00-0
 62
     7
370
    50
100
AcDbCircle
 10
258.670502
 20
10.286975
 30
0.0
 40
4.000000000000057
100
AcDbArc
 50
270.0
 51
90.0
  0
LINE
  5
189
330
1F
100
AcDbEntity
  8
LC-001-100-D00-0
 62
     7
370
    50
100
AcDbLine
 10
258.6705
 20
6.286974
 30
0.0
 11
226.670502
 21
6.286974
 31
0.0
  0
ARC
  5
18A
330
1F
100
AcDbEntity
  8
LC-001-100-D00-0
 62
     7
370
    50
100
AcDbCircle
 10
226.670502
 20
10.286975
 30
0.0
 40
4.000000000000057
100
AcDbArc
 50
90.0
 51
270.0
  0
LINE
  5
18B
330
1F
100
AcDbEntity
  8
LC-001-100-D00-0
 62
     7
370
    50
100
AcDbLine
 10
226.670502
 20
14.286975
 30
0.0
 11
258.6705
 21
14.286975
 31
0.0
  0
ARC
  5
18C
330
1F
100
AcDbEntity
  8
LC-001-100-D00-0
 62
     7
370
    50
100
AcDbCircle
 10
106.670502
 20
10.286975
 30
0.0
 40
4.0
100
AcDbArc
 50
90.0
 51
270.0
  0
LINE
  5
18D
330
1F
100
AcDbEntity
  8
LC-001-100-D00-0
 62
     7
370
    50
100
AcDbLine
 10
106.670502
 20
14.286975
 30
0.0
 11
138.670502
 21
14.286975
 31
0.0
  0
ARC
  5
18E
330
1F
100
AcDbEntity
  8
LC-001-100-D00-0
 62
     7
370
    50
100
AcDbCircle
 10
138.670502
 20
10.286975
 30
0.0
 40
4.0
100
AcDbArc
 50
270.0
 51
90.0
  0
LINE
  5
18F
330
1F
100
AcDbEntity
  8
LC-001-100-D00-0
 62
     7
370
    50
100
AcDbLine
 10
138.670502
 20
6.286974
 30
0.0
 11
106.670502
 21
6.286974
 31
0.0
  0
ARC
  5
190
330
1F
100
AcDbEntity
  8
LC-001-100-D00-0
 62
     7
370
    50
100
AcDbCircle
 10
188.670502
 20
10.286975
 30
0.0
 40
4.0
100
AcDbArc
 50
270.0
 51
90.0
  0
LINE
  5
191
330
1F
100
AcDbEntity
  8
LC-001-100-D00-0
 62
     7
370
    50
100
AcDbLine
 10
188.670499
 20
6.286974
 30
0.0
 11
156.670501
 21
6.286974
 31
0.0
  0
ARC
  5
192
330
1F
100
AcDbEntity
  8
LC-001-100-D00-0
 62
     7
370
    50
100
AcDbCircle
 10
156.670502
 20
10.286975
 30
0.0
 40
4.0
100
AcDbArc
 50
90.0
 51
270.0
  0
LINE
  5
193
330
1F
100
AcDbEntity
  8
LC-001-100-D00-0
 62
     7
370
    50
100
AcDbLine
 10
156.670501
 20
14.286975
 30
0.0
 11
188.670499
 21
14.286975
 31
0.0
  0
ARC
  5
194
330
1F
100
AcDbEntity
  8
LC-001-100-D00-0
 62
     7
370
    50
100
AcDbCircle
 10
36.670502
 20
10.286975
 30
0.0
 40
4.000000000000057
100
AcDbArc
 50
90.0
 51
270.0
  0
LINE
  5
195
330
1F
100
AcDbEntity
  8
LC-001-100-D00-0
 62
     7
370
    50
100
AcDbLine
 10
36.670504
 20
14.286975
 30
0.0
 11
68.670502
 21
14.286975
 31
0.0
  0
ARC
  5
196
330
1F
100
AcDbEntity
  8
LC-001-100-D00-0
 62
     7
370
    50
100
AcDbCircle
 10
68.670502
 20
10.286975
 30
0.0
 40
4.000000000000057
100
AcDbArc
 50
270.0
 51
90.0
  0
LINE
  5
197
330
1F
100
AcDbEntity
  8
LC-001-100-D00-0
 62
     7
370
    50
100
AcDbLine
 10
68.670502
 20
6.286974
 30
0.0
 11
36.670504
 21
6.286974
 31
0.0
  0
ARC
  5
198
330
1F
100
AcDbEntity
  8
LC-001-100-D00-0
 62
     7
370
    50
100
AcDbCircle
 10
18.670502
 20
10.286975
 30
0.0
 40
4.000000000000057
100
AcDbArc
 50
270.0
 51
90.0
  0
LINE
  5
199
330
1F
100
AcDbEntity
  8
LC-001-100-D00-0
 62
     7
370
    50
100
AcDbLine
 10
18.670505
 20
6.286974
 30
0.0
 11
-13.3295
 21
6.286974
 31
0.0
  0
ARC
  5
19A
330
1F
100
AcDbEntity
  8
LC-001-100-D00-0
 62
     7
370
    50
100
AcDbCircle
 10
-13.329498
 20
10.286975
 30
0.0
 40
4.000000000000057
100
AcDbArc
 50
90.0
 51
270.0
  0
LINE
  5
19B
330
1F
100
AcDbEntity
  8
LC-001-100-D00-0
 62
     7
370
    50
100
AcDbLine
 10
-13.3295
 20
14.286975
 30
0.0
 11
18.670505
 21
14.286975
 31
0.0
  0
ARC
  5
19C
330
1F
100
AcDbEntity
  8
LC-001-100-D00-0
 62
     7
370
    50
100
AcDbCircle
 10
-56.829498
 20
-85.713025
 30
0.0
 40
4.0
100
AcDbArc
 50
180.0
 51
0.0
  0
LINE
  5
19D
330
1F
100
AcDbEntity
  8
LC-001-100-D00-0
 62
     7
370
    50
100
AcDbLine
 10
-60.8295
 20
-85.713025
 30
0.0
 11
-60.8295
 21
-53.713025
 31
0.0
  0
ARC
  5
19E
330
1F
100
AcDbEntity
  8
LC-001-100-D00-0
 62
     7
370
    50
100
AcDbCircle
 10
-56.829498
 20
-53.713025
 30
0.0
 40
4.000000000000057
100
AcDbArc
 50
0.0
 51
180.0
  0
LINE
  5
19F
330
1F
100
AcDbEntity
  8
LC-001-100-D00-0
 62
     7
370
    50
100
AcDbLine
 10
-52.829498
 20
-53.713025
 30
0.0
 11
-52.829498
 21
-85.713025
 31
0.0
  0
ARC
  5
1A0
330
1F
100
AcDbEntity
  8
LC-001-100-D00-0
 62
     7
370
    50
100
AcDbCircle
 10
276.670502
 20
-149.713025
 30
0.0
 40
4.000000000000057
100
AcDbArc
 50
90.0
 51
270.0
  0
LINE
  5
1A1
330
1F
100
AcDbEntity
  8
LC-001-100-D00-0
 62
     7
370
    50
100
AcDbLine
 10
308.670497
 20
-153.713023
 30
0.0
 11
276.670506
 21
-153.713023
 31
0.0
  0
ARC
  5
1A2
330
1F
100
AcDbEntity
  8
LC-001-100-D00-0
 62
     7
370
    50
100
AcDbCircle
 10
226.670502
 20
-149.713025
 30
0.0
 40
4.0
100
AcDbArc
 50
90.0
 51
270.0
  0
LINE
  5
1A3
330
1F
100
AcDbEntity
  8
LC-001-100-D00-0
 62
     7
370
    50
100
AcDbLine
 10
188.670499
 20
-153.713023
 30
0.0
 11
156.670501
 21
-153.713023
 31
0.0
  0
ARC
  5
1A4
330
1F
100
AcDbEntity
  8
LC-001-100-D00-0
 62
     7
370
    50
100
AcDbCircle
 10
156.670502
 20
-149.713025
 30
0.0
 40
3.999999999999972
100
AcDbArc
 50
90.0
 51
270.0
  0
ARC
  5
1A5
330
1F
100
AcDbEntity
  8
LC-001-100-D00-0
 62
     7
370
    50
100
AcDbCircle
 10
36.670502
 20
-149.713025
 30
0.0
 40
4.0
100
AcDbArc
 50
90.0
 51
270.0
  0
CIRCLE
  5
1A6
330
1F
100
AcDbEntity
  8
LC-001-100-D00-0
 62
     7
370
    50
100
AcDbCircle
 10
351.670502
 20
-119.713025
 30
0.0
 40
7.000000000000028
  0
CIRCLE
  5
1A7
330
1F
100
AcDbEntity
  8
LC-001-100-D00-0
 62
     7
370
    50
100
AcDbCircle
 10
207.670502
 20
-149.713025
 30
0.0
 40
7.0
  0
CIRCLE
  5
1A8
330
1F
100
AcDbEntity
  8
LC-001-100-D00-0
 62
     7
370
    50
100
AcDbCircle
 10
327.670502
 20
10.286975
 30
0.0
 40
7.0
  0
CIRCLE
  5
1A9
330
1F
100
AcDbEntity
  8
LC-001-100-D00-0
 62
     7
370
    50
100
AcDbCircle
 10
207.670502
 20
10.286975
 30
0.0
 40
7.0
  0
CIRCLE
  5
1AA
330
1F
100
AcDbEntity
  8
LC-001-100-D00-0
 62
     7
370
    50
100
AcDbCircle
 10
351.670502
 20
-19.713025
 30
0.0
 40
7.000000000000028
  0
CIRCLE
  5
1AB
330
1F
100
AcDbEntity
  8
LC-001-100-D00-0
 62
     7
370
    50
100
AcDbCircle
 10
-56.329498
 20
-119.713025
 30
0.0
 40
7.000000000000028
  0
CIRCLE
  5
1AC
330
1F
100
AcDbEntity
  8
LC-001-100-D00-0
 62
     7
370
    50
100
AcDbCircle
 10
-56.329498
 20
-19.713025
 30
0.0
 40
7.000000000000028
  0
CIRCLE
  5
1AD
330
1F
100
AcDbEntity
  8
LC-001-100-D00-0
 62
     7
370
    50
100
AcDbCircle
 10
351.670502
 20
-149.213025
 30
0.0
 40
5.00000000000037
  0
CIRCLE
  5
1AE
330
1F
100
AcDbEntity
  8
LC-001-100-D00-0
 62
     7
370
    50
100
AcDbCircle
 10
351.670502
 20
9.786975
 30
0.0
 40
4.99999999999983
  0
CIRCLE
  5
1AF
330
1F
100
AcDbEntity
  8
LC-001-100-D00-0
 62
     7
370
    50
100
AcDbCircle
 10
-56.329498
 20
9.786975
 30
0.0
 40
5.000000000000398
  0
CIRCLE
  5
1B0
330
1F
100
AcDbEntity
  8
LC-001-100-D00-0
 62
     7
370
    50
100
AcDbCircle
 10
-56.329498
 20
-149.213025
 30
0.0
 40
4.999999999999773
  0
ARC
  5
1B1
330
1F
100
AcDbEntity
  8
LC-001-100-D00-0
 62
     7
370
    50
100
AcDbCircle
 10
156.670502
 20
-149.713025
 30
0.0
 40
2.908089297201371
100
AcDbArc
 50
90.0
 51
270.0
  0
LINE
  5
1B2
330
1F
100
AcDbEntity
  8
LC-001-100-D00-0
 62
     7
370
    50
100
AcDbLine
 10
188.670499
 20
-152.621118
 30
0.0
 11
156.670501
 21
-152.621118
 31
0.0
  0
ARC
  5
1B3
330
1F
100
AcDbEntity
  8
LC-001-100-D00-0
 62
     7
370
    50
100
AcDbCircle
 10
-32.329498
 20
-149.713025
 30
0.0
 40
6.471019057874576
100
AcDbArc
 50
112.726825
 51
67.273175
  0
ARC
  5
1B4
330
1F
100
AcDbEntity
  8
LC-001-100-D00-0
 62
     7
370
    50
100
AcDbCircle
 10
327.670502
 20
10.286975
 30
0.0
 40
6.471019057874602
100
AcDbArc
 50
292.726825
 51
247.273175
  0
ARC
  5
1B5
330
1F
100
AcDbEntity
  8
LC-001-100-D00-0
 62
     7
370
    50
100
AcDbCircle
 10
207.670502
 20
10.286975
 30
0.0
 40
6.471019057874577
100
AcDbArc
 50
292.726825
 51
247.273175
  0
ARC
  5
1B6
330
1F
100
AcDbEntity
  8
LC-001-100-D00-0
 62
     7
370
    50
100
AcDbCircle
 10
207.670502
 20
-149.713025
 30
0.0
 40
6.471019057874602
100
AcDbArc
 50
112.726825
 51
67.273175
  0
ARC
  5
1B7
330
1F
100
AcDbEntity
  8
LC-001-100-D00-0
 62
     7
370
    50
100
AcDbCircle
 10
87.670502
 20
-149.713025
 30
0.0
 40
6.471019057874576
100
AcDbArc
 50
112.726825
 51
67.273175
  0
ARC
  5
1B8
330
1F
100
AcDbEntity
  8
LC-001-100-D00-0
 62
     7
370
    50
100
AcDbCircle
 10
36.670502
 20
-149.713025
 30
0.0
 40
2.9080892972014
100
AcDbArc
 50
90.0
 51
270.0
  0
CIRCLE
  5
1B9
330
1F
100
AcDbEntity
  8
LC-001-100-D00-0
 62
     7
370
    50
100
AcDbCircle
 10
351.670502
 20
-149.213025
 30
0.0
 40
3.0
  0
ARC
  5
1BA
330
1F
100
AcDbEntity
  8
LC-001-100-D00-0
 62
     7
370
    50
100
AcDbCircle
 10
226.670502
 20
-149.713025
 30
0.0
 40
2.9080892972014
100
AcDbArc
 50
90.0
 51
270.0
  0
LINE
  5
1BB
330
1F
100
AcDbEntity
  8
LC-001-100-D00-0
 62
     7
370
    50
100
AcDbLine
 10
308.670497
 20
-152.621118
 30
0.0
 11
276.670506
 21
-152.621118
 31
0.0
  0
CIRCLE
  5
1BC
330
1F
100
AcDbEntity
  8
LC-001-100-D00-0
 62
     7
370
    50
100
AcDbCircle
 10
-56.329498
 20
-149.213025
 30
0.0
 40
3.0
  0
ARC
  5
1BD
330
1F
100
AcDbEntity
  8
LC-001-100-D00-0
 62
     7
370
    50
100
AcDbCircle
 10
276.670502
 20
-149.713025
 30
0.0
 40
2.908089297201457
100
AcDbArc
 50
90.0
 51
270.0
  0
ARC
  5
1BE
330
1F
100
AcDbEntity
  8
LC-001-100-D00-0
 62
     7
370
    50
100
AcDbCircle
 10
351.670502
 20
-19.713025
 30
0.0
 40
6.471019057874718
100
AcDbArc
 50
202.726825
 51
157.273175
  0
ARC
  5
1BF
330
1F
100
AcDbEntity
  8
LC-001-100-D00-0
 62
     7
370
    50
100
AcDbCircle
 10
-56.329498
 20
-119.713025
 30
0.0
 40
6.471019057874602
100
AcDbArc
 50
22.726825
 51
337.273175
  0
ARC
  5
1C0
330
1F
100
AcDbEntity
  8
LC-001-100-D00-0
 62
     7
370
    50
100
AcDbCircle
 10
-56.329498
 20
-19.713025
 30
0.0
 40
6.471019057874611
100
AcDbArc
 50
22.726825
 51
337.273175
  0
ARC
  5
1C1
330
1F
100
AcDbEntity
  8
LC-001-100-D00-0
 62
     7
370
    50
100
AcDbCircle
 10
351.670502
 20
-119.713025
 30
0.0
 40
6.471019057874724
100
AcDbArc
 50
202.726825
 51
157.273175
  0
LINE
  5
1C2
330
1F
100
AcDbEntity
  8
LC-001-100-D00-0
 62
     7
370
    50
100
AcDbLine
 10
349.262407
 20
-85.713025
 30
0.0
 11
349.262407
 21
-53.713025
 31
0.0
  0
ARC
  5
1C3
330
1F
100
AcDbEntity
  8
LC-001-100-D00-0
 62
     7
370
    50
100
AcDbCircle
 10
352.170502
 20
-53.713025
 30
0.0
 40
2.908089297201457
100
AcDbArc
 50
0.0
 51
180.0
  0
ARC
  5
1C4
330
1F
100
AcDbEntity
  8
LC-001-100-D00-0
 62
     7
370
    50
100
AcDbCircle
 10
352.170502
 20
-85.713025
 30
0.0
 40
2.908089297201457
100
AcDbArc
 50
180.0
 51
0.0
  0
LINE
  5
1C5
330
1F
100
AcDbEntity
  8
LC-001-100-D00-0
 62
     7
370
    50
100
AcDbLine
 10
-53.921411
 20
-53.713025
 30
0.0
 11
-53.921411
 21
-85.713025
 31
0.0
  0
ARC
  5
1C6
330
1F
100
AcDbEntity
  8
LC-001-100-D00-0
 62
     7
370
    50
100
AcDbCircle
 10
-56.829498
 20
-85.713025
 30
0.0
 40
2.9080892972014
100
AcDbArc
 50
180.0
 51
0.0
  0
LINE
  5
1C7
330
1F
100
AcDbEntity
  8
LC-001-100-D00-0
 62
     7
370
    50
100
AcDbLine
 10
-59.737587
 20
-85.713025
 30
0.0
 11
-59.737587
 21
-53.713025
 31
0.0
  0
LINE
  5
1C8
330
1F
100
AcDbEntity
  8
LC-001-100-D00-0
 62
     7
370
    50
100
AcDbLine
 10
355.078584
 20
-53.713025
 30
0.0
 11
355.078584
 21
-85.713025
 31
0.0
  0
ARC
  5
1C9
330
1F
100
AcDbEntity
  8
LC-001-100-D00-0
 62
     7
370
    50
100
AcDbCircle
 10
-56.829498
 20
-53.713025
 30
0.0
 40
2.908089297201457
100
AcDbArc
 50
0.0
 51
180.0
  0
LINE
  5
1CA
330
1F
100
AcDbEntity
  8
LC-001-100-D00-0
 62
     7
370
    50
100
AcDbLine
 10
68.670502
 20
7.378886
 30
0.0
 11
36.670504
 21
7.378886
 31
0.0
  0
LINE
  5
1CB
330
1F
100
AcDbEntity
  8
LC-001-100-D00-0
 62
     7
370
    50
100
AcDbLine
 10
36.670504
 20
13.195063
 30
0.0
 11
68.670502
 21
13.195063
 31
0.0
  0
ARC
  5
1CC
330
1F
100
AcDbEntity
  8
LC-001-100-D00-0
 62
     7
370
    50
100
AcDbCircle
 10
36.670502
 20
10.286975
 30
0.0
 40
2.908089297201457
100
AcDbArc
 50
90.0
 51
270.0
  0
LINE
  5
1CD
330
1F
100
AcDbEntity
  8
LC-001-100-D00-0
 62
     7
370
    50
100
AcDbLine
 10
106.670502
 20
13.195063
 30
0.0
 11
138.670502
 21
13.195063
 31
0.0
  0
LINE
  5
1CE
330
1F
100
AcDbEntity
  8
LC-001-100-D00-0
 62
     7
370
    50
100
AcDbLine
 10
226.670502
 20
13.195063
 30
0.0
 11
258.6705
 21
13.195063
 31
0.0
  0
ARC
  5
1CF
330
1F
100
AcDbEntity
  8
LC-001-100-D00-0
 62
     7
370
    50
100
AcDbCircle
 10
138.670502
 20
10.286975
 30
0.0
 40
2.9080892972014
100
AcDbArc
 50
270.0
 51
90.0
  0
ARC
  5
1D0
330
1F
100
AcDbEntity
  8
LC-001-100-D00-0
 62
     7
370
    50
100
AcDbCircle
 10
276.670502
 20
10.286975
 30
0.0
 40
2.908089297201514
100
AcDbArc
 50
90.0
 51
270.0
  0
ARC
  5
1D1
330
1F
100
AcDbEntity
  8
LC-001-100-D00-0
 62
     7
370
    50
100
AcDbCircle
 10
-13.329498
 20
10.286975
 30
0.0
 40
2.908089297201457
100
AcDbArc
 50
90.0
 51
270.0
  0
ARC
  5
1D2
330
1F
100
AcDbEntity
  8
LC-001-100-D00-0
 62
     7
370
    50
100
AcDbCircle
 10
68.670502
 20
10.286975
 30
0.0
 40
2.908089297201457
100
AcDbArc
 50
270.0
 51
90.0
  0
LINE
  5
1D3
330
1F
100
AcDbEntity
  8
LC-001-100-D00-0
 62
     7
370
    50
100
AcDbLine
 10
258.6705
 20
7.378886
 30
0.0
 11
226.670502
 21
7.378886
 31
0.0
  0
LINE
  5
1D4
330
1F
100
AcDbEntity
  8
LC-001-100-D00-0
 62
     7
370
    50
100
AcDbLine
 10
-13.3295
 20
13.195063
 30
0.0
 11
18.670505
 21
13.195063
 31
0.0
  0
CIRCLE
  5
1D5
330
1F
100
AcDbEntity
  8
LC-001-100-D00-0
 62
     7
370
    50
100
AcDbCircle
 10
351.670502
 20
9.786975
 30
0.0
 40
3.0
  0
LINE
  5
1D6
330
1F
100
AcDbEntity
  8
LC-001-100-D00-0
 62
     7
370
    50
100
AcDbLine
 10
156.670501
 20
13.195063
 30
0.0
 11
188.670499
 21
13.195063
 31
0.0
  0
ARC
  5
1D7
330
1F
100
AcDbEntity
  8
LC-001-100-D00-0
 62
     7
370
    50
100
AcDbCircle
 10
226.670502
 20
10.286975
 30
0.0
 40
2.908089297201457
100
AcDbArc
 50
90.0
 51
270.0
  0
ARC
  5
1D8
330
1F
100
AcDbEntity
  8
LC-001-100-D00-0
 62
     7
370
    50
100
AcDbCircle
 10
18.670502
 20
10.286975
 30
0.0
 40
2.908089297201514
100
AcDbArc
 50
270.0
 51
90.0
  0
ARC
  5
1D9
330
1F
100
AcDbEntity
  8
LC-001-100-D00-0
 62
     7
370
    50
100
AcDbCircle
 10
258.670502
 20
10.286975
 30
0.0
 40
2.908089297201457
100
AcDbArc
 50
270.0
 51
90.0
  0
ARC
  5
1DA
330
1F
100
AcDbEntity
  8
LC-001-100-D00-0
 62
     7
370
    50
100
AcDbCircle
 10
188.670502
 20
10.286975
 30
0.0
 40
2.9080892972014
100
AcDbArc
 50
270.0
 51
90.0
  0
ARC
  5
1DB
330
1F
100
AcDbEntity
  8
LC-001-100-D00-0
 62
     7
370
    50
100
AcDbCircle
 10
106.670502
 20
10.286975
 30
0.0
 40
2.9080892972014
100
AcDbArc
 50
90.0
 51
270.0
  0
ARC
  5
1DC
330
1F
100
AcDbEntity
  8
LC-001-100-D00-0
 62
     7
370
    50
100
AcDbCircle
 10
308.670502
 20
10.286975
 30
0.0
 40
2.908089297201457
100
AcDbArc
 50
270.0
 51
90.0
  0
LINE
  5
1DD
330
1F
100
AcDbEntity
  8
LC-001-100-D00-0
 62
     7
370
    50
100
AcDbLine
 10
276.670506
 20
13.195063
 30
0.0
 11
308.670497
 21
13.195063
 31
0.0
  0
LINE
  5
1DE
330
1F
100
AcDbEntity
  8
LC-001-100-D00-0
 62
     7
370
    50
100
AcDbLine
 10
18.670505
 20
7.378886
 30
0.0
 11
-13.3295
 21
7.378886
 31
0.0
  0
LINE
  5
1DF
330
1F
100
AcDbEntity
  8
LC-001-100-D00-0
 62
     7
370
    50
100
AcDbLine
 10
308.670497
 20
7.378886
 30
0.0
 11
276.670506
 21
7.378886
 31
0.0
  0
CIRCLE
  5
1E0
330
1F
100
AcDbEntity
  8
LC-001-100-D00-0
 62
     7
370
    50
100
AcDbCircle
 10
-56.329498
 20
9.786975
 30
0.0
 40
3.0
  0
ARC
  5
1E1
330
1F
100
AcDbEntity
  8
LC-001-100-D00-0
 62
     7
370
    50
100
AcDbCircle
 10
156.670502
 20
10.286975
 30
0.0
 40
2.9080892972014
100
AcDbArc
 50
90.0
 51
270.0
  0
LINE
  5
1E2
330
1F
100
AcDbEntity
  8
LC-001-100-D00-0
 62
     7
370
    50
100
AcDbLine
 10
138.670502
 20
7.378886
 30
0.0
 11
106.670502
 21
7.378886
 31
0.0
  0
LINE
  5
1E3
330
1F
100
AcDbEntity
  8
LC-001-100-D00-0
 62
     7
370
    50
100
AcDbLine
 10
188.670499
 20
7.378886
 30
0.0
 11
156.670501
 21
7.378886
 31
0.0
  0
ARC
  5
1E4
330
1F
100
AcDbEntity
  8
LC-001-100-D00-0
 62
     7
370
    50
100
AcDbCircle
 10
-1.329498
 20
-44.713025
 30
0.0
 40
1.133974596215543
100
AcDbArc
 50
118.133178
 51
151.866822
  0
ARC
  5
1E5
330
1F
100
AcDbEntity
  8
LC-001-100-D00-0
 62
     7
370
    50
100
AcDbCircle
 10
296.670502
 20
-44.713025
 30
0.0
 40
1.133974596215615
100
AcDbArc
 50
28.133178
 51
61.866822
  0
ARC
  5
1E6
330
1F
100
AcDbEntity
  8
LC-001-100-D00-0
 62
     7
370
    50
100
AcDbCircle
 10
296.670502
 20
-94.713025
 30
0.0
 40
1.133974596215595
100
AcDbArc
 50
298.133178
 51
331.866822
  0
ARC
  5
1E7
330
1F
100
AcDbEntity
  8
LC-001-100-D00-0
 62
     7
370
    50
100
AcDbCircle
 10
-1.329498
 20
-94.713025
 30
0.0
 40
1.133974596215531
100
AcDbArc
 50
208.133178
 51
241.866822
  0
ARC
  5
1E8
330
1F
100
AcDbEntity
  8
LC-001-100-D00-0
 62
     7
370
    50
100
AcDbCircle
 10
-1.329498
 20
-94.713025
 30
0.0
 40
1.0
100
AcDbArc
 50
180.0
 51
270.0
  0
ARC
  5
1E9
330
1F
100
AcDbEntity
  8
LC-001-100-D00-0
 62
     7
370
    50
100
AcDbCircle
 10
-1.329498
 20
-44.713025
 30
0.0
 40
1.0
100
AcDbArc
 50
90.0
 51
180.0
  0
ARC
  5
1EA
330
1F
100
AcDbEntity
  8
LC-001-100-D00-0
 62
     7
370
    50
100
AcDbCircle
 10
296.670502
 20
-94.713025
 30
0.0
 40
1.0
100
AcDbArc
 50
270.0
 51
0.0
  0
ARC
  5
1EB
330
1F
100
AcDbEntity
  8
LC-001-100-D00-0
 62
     7
370
    50
100
AcDbCircle
 10
296.670502
 20
-44.713025
 30
0.0
 40
1.0
100
AcDbArc
 50
0.0
 51
90.0
  0
LINE
  5
1EC
330
1F
100
AcDbEntity
  8
LC-001-100-D00-0
 62
     7
370
    50
100
AcDbLine
 10
-51.953057
 20
-17.213022
 30
0.0
 11
-50.360912
 21
-17.213022
 31
0.0
  0
INSERT
  5
1FC
330
1F
100
AcDbEntity
  8
LC-001-100-D00-0
 62
     7
370
    50
100
AcDbBlockReference
  2
POLY1
 10
0.0
 20
0.0
 30
0.0
  0
LINE
  5
1FD
330
1F
100
AcDbEntity
  8
LC-001-100-D00-0
 62
     7
370
    50
100
AcDbLine
 10
-51.953057
 20
-22.213024
 30
0.0
 11
-50.360912
 21
-22.213024
 31
0.0
  0
INSERT
  5
20D
330
1F
100
AcDbEntity
  8
LC-001-100-D00-0
 62
     7
370
    50
100
AcDbBlockReference
  2
POLY2
 10
0.0
 20
0.0
 30
0.0
  0
LINE
  5
20E
330
1F
100
AcDbEntity
  8
LC-001-100-D00-0
 62
     7
370
    50
100
AcDbLine
 10
-51.953057
 20
-122.213026
 30
0.0
 11
-50.360912
 21
-122.213026
 31
0.0
  0
LINE
  5
20F
330
1F
100
AcDbEntity
  8
LC-001-100-D00-0
 62
     7
370
    50
100
AcDbLine
 10
-51.953057
 20
-117.213027
 30
0.0
 11
-50.360912
 21
-117.213027
 31
0.0
  0
INSERT
  5
21F
330
1F
100
AcDbEntity
  8
LC-001-100-D00-0
 62
     7
370
    50
100
AcDbBlockReference
  2
POLY3
 10
0.0
 20
0.0
 30
0.0
  0
LINE
  5
220
330
1F
100
AcDbEntity
  8
LC-001-100-D00-0
 62
     7
370
    50
100
AcDbLine
 10
325.170508
 20
5.910533
 30
0.0
 11
325.170508
 21
4.318381
 31
0.0
  0
LINE
  5
221
330
1F
100
AcDbEntity
  8
LC-001-100-D00-0
 62
     7
370
    50
100
AcDbLine
 10
330.170503
 20
4.318381
 30
0.0
 11
330.170503
 21
5.910533
 31
0.0
  0
LINE
  5
222
330
1F
100
AcDbEntity
  8
LC-001-100-D00-0
 62
     7
370
    50
100
AcDbLine
 10
-34.829492
 20
-145.336581
 30
0.0
 11
-34.829492
 21
-143.744433
 31
0.0
  0
INSERT
  5
232
330
1F
100
AcDbEntity
  8
LC-001-100-D00-0
 62
     7
370
    50
100
AcDbBlockReference
  2
POLY4
 10
0.0
 20
0.0
 30
0.0
  0
LINE
  5
233
330
1F
100
AcDbEntity
  8
LC-001-100-D00-0
 62
     7
370
    50
100
AcDbLine
 10
-29.829497
 20
-143.744433
 30
0.0
 11
-29.829497
 21
-145.336581
 31
0.0
  0
INSERT
  5
243
330
1F
100
AcDbEntity
  8
LC-001-100-D00-0
 62
     7
370
    50
100
AcDbBlockReference
  2
POLY5
 10
0.0
 20
0.0
 30
0.0
  0
LINE
  5
244
330
1F
100
AcDbEntity
  8
LC-001-100-D00-0
 62
     7
370
    50
100
AcDbLine
 10
205.170503
 20
5.910533
 30
0.0
 11
205.170503
 21
4.318381
 31
0.0
  0
LINE
  5
245
330
1F
100
AcDbEntity
  8
LC-001-100-D00-0
 62
     7
370
    50
100
AcDbLine
 10
210.170498
 20
4.318381
 30
0.0
 11
210.170498
 21
5.910533
 31
0.0
  0
INSERT
  5
255
330
1F
100
AcDbEntity
  8
LC-001-100-D00-0
 62
     7
370
    50
100
AcDbBlockReference
  2
POLY6
 10
0.0
 20
0.0
 30
0.0
  0
LINE
  5
256
330
1F
100
AcDbEntity
  8
LC-001-100-D00-0
 62
     7
370
    50
100
AcDbLine
 10
330.170503
 20
-143.744433
 30
0.0
 11
330.170503
 21
-145.336581
 31
0.0
  0
LINE
  5
257
330
1F
100
AcDbEntity
  8
LC-001-100-D00-0
 62
     7
370
    50
100
AcDbLine
 10
325.170508
 20
-145.336581
 30
0.0
 11
325.170508
 21
-143.744433
 31
0.0
  0
LINE
  5
258
330
1F
100
AcDbEntity
  8
LC-001-100-D00-0
 62
     7
370
    50
100
AcDbLine
 10
347.294053
 20
-122.213026
 30
0.0
 11
345.701909
 21
-122.213026
 31
0.0
  0
INSERT
  5
268
330
1F
100
AcDbEntity
  8
LC-001-100-D00-0
 62
     7
370
    50
100
AcDbBlockReference
  2
POLY7
 10
0.0
 20
0.0
 30
0.0
  0
LINE
  5
269
330
1F
100
AcDbEntity
  8
LC-001-100-D00-0
 62
     7
370
    50
100
AcDbLine
 10
347.294053
 20
-117.213027
 30
0.0
 11
345.701909
 21
-117.213027
 31
0.0
  0
INSERT
  5
279
330
1F
100
AcDbEntity
  8
LC-001-100-D00-0
 62
     7
370
    50
100
AcDbBlockReference
  2
POLY8
 10
0.0
 20
0.0
 30
0.0
  0
LINE
  5
27A
330
1F
100
AcDbEntity
  8
LC-001-100-D00-0
 62
     7
370
    50
100
AcDbLine
 10
90.170501
 20
-143.744433
 30
0.0
 11
90.170501
 21
-145.336581
 31
0.0
  0
LINE
  5
27B
330
1F
100
AcDbEntity
  8
LC-001-100-D00-0
 62
     7
370
    50
100
AcDbLine
 10
85.170502
 20
-145.336581
 30
0.0
 11
85.170502
 21
-143.744433
 31
0.0
  0
INSERT
  5
28B
330
1F
100
AcDbEntity
  8
LC-001-100-D00-0
 62
     7
370
    50
100
AcDbBlockReference
  2
POLY9
 10
0.0
 20
0.0
 30
0.0
  0
LINE
  5
28C
330
1F
100
AcDbEntity
  8
LC-001-100-D00-0
 62
     7
370
    50
100
AcDbLine
 10
347.294053
 20
-22.213024
 30
0.0
 11
345.701909
 21
-22.213024
 31
0.0
  0
LINE
  5
28D
330
1F
100
AcDbEntity
  8
LC-001-100-D00-0
 62
     7
370
    50
100
AcDbLine
 10
347.294053
 20
-17.213022
 30
0.0
 11
345.701909
 21
-17.213022
 31
0.0
  0
INSERT
  5
29D
330
1F
100
AcDbEntity
  8
LC-001-100-D00-0
 62
     7
370
    50
100
AcDbBlockReference
  2
POLY10
 10
0.0
 20
0.0
 30
0.0
  0
LINE
  5
29E
330
1F
100
AcDbEntity
  8
LC-001-100-D00-0
 62
     7
370
    50
100
AcDbLine
 10
-29.829497
 20
4.318381
 30
0.0
 11
-29.829497
 21
5.910533
 31
0.0
  0
LINE
  5
29F
330
1F
100
AcDbEntity
  8
LC-001-100-D00-0
 62
     7
370
    50
100
AcDbLine
 10
-34.829492
 20
5.910533
 30
0.0
 11
-34.829492
 21
4.318381
 31
0.0
  0
INSERT
  5
2AF
330
1F
100
AcDbEntity
  8
LC-001-100-D00-0
 62
     7
370
    50
100
AcDbBlockReference
  2
POLY11
 10
0.0
 20
0.0
 30
0.0
  0
LINE
  5
2B0
330
1F
100
AcDbEntity
  8
LC-001-100-D00-0
 62
     7
370
    50
100
AcDbLine
 10
210.170498
 20
-143.744433
 30
0.0
 11
210.170498
 21
-145.336581
 31
0.0
  0
LINE
  5
2B1
330
1F
100
AcDbEntity
  8
LC-001-100-D00-0
 62
     7
370
    50
100
AcDbLine
 10
205.170503
 20
-145.336581
 30
0.0
 11
205.170503
 21
-143.744433
 31
0.0
  0
INSERT
  5
2C1
330
1F
100
AcDbEntity
  8
LC-001-100-D00-0
 62
     7
370
    50
100
AcDbBlockReference
  2
POLY12
 10
0.0
 20
0.0
 30
0.0
  0
LINE
  5
2C2
330
1F
100
AcDbEntity
  8
LC-001-100-D00-0
 62
     7
370
    50
100
AcDbLine
 10
85.170502
 20
5.910533
 30
0.0
 11
85.170502
 21
4.318381
 31
0.0
  0
LINE
  5
2C3
330
1F
100
AcDbEntity
  8
LC-001-100-D00-0
 62
     7
370
    50
100
AcDbLine
 10
90.170501
 20
4.318381
 30
0.0
 11
90.170501
 21
5.910533
 31
0.0
  0
ARC
  5
2C4
330
1F
100
AcDbEntity
  8
LC-001-100-D00-0
 62
     7
370
    50
100
AcDbCircle
 10
327.670502
 20
-149.713025
 30
0.0
 40
5.060403212206902
100
AcDbArc
 50
119.605925
 51
60.394075
  0
ARC
  5
2C5
330
1F
100
AcDbEntity
  8
LC-001-100-D00-0
 62
     7
370
    50
100
AcDbCircle
 10
207.670502
 20
10.286975
 30
0.0
 40
5.060403212206801
100
AcDbArc
 50
299.605925
 51
240.394075
  0
ARC
  5
2C6
330
1F
100
AcDbEntity
  8
LC-001-100-D00-0
 62
     7
370
    50
100
AcDbCircle
 10
327.670502
 20
10.286975
 30
0.0
 40
5.060403212206853
100
AcDbArc
 50
299.605925
 51
240.394075
  0
ARC
  5
2C7
330
1F
100
AcDbEntity
  8
LC-001-100-D00-0
 62
     7
370
    50
100
AcDbCircle
 10
87.670502
 20
10.286975
 30
0.0
 40
5.060403212206831
100
AcDbArc
 50
299.605925
 51
240.394075
  0
ARC
  5
2C8
330
1F
100
AcDbEntity
  8
LC-001-100-D00-0
 62
     7
370
    50
100
AcDbCircle
 10
87.670502
 20
-149.713025
 30
0.0
 40
5.060403212206838
100
AcDbArc
 50
119.605925
 51
60.394075
  0
ARC
  5
2C9
330
1F
100
AcDbEntity
  8
LC-001-100-D00-0
 62
     7
370
    50
100
AcDbCircle
 10
-32.329498
 20
10.286975
 30
0.0
 40
5.060403212206845
100
AcDbArc
 50
299.605925
 51
240.394075
  0
ARC
  5
2CA
330
1F
100
AcDbEntity
  8
LC-001-100-D00-0
 62
     7
370
    50
100
AcDbCircle
 10
207.670502
 20
-149.713025
 30
0.0
 40
5.060403212206877
100
AcDbArc
 50
119.605925
 51
60.394075
  0
ARC
  5
2CB
330
1F
100
AcDbEntity
  8
LC-001-100-D00-0
 62
     7
370
    50
100
AcDbCircle
 10
-32.329498
 20
-149.713025
 30
0.0
 40
5.060403212206849
100
AcDbArc
 50
119.605925
 51
60.394075
  0
ARC
  5
2CC
330
1F
100
AcDbEntity
  8
LC-001-100-D00-0
 62
     7
370
    50
100
AcDbCircle
 10
-56.329498
 20
-19.713025
 30
0.0
 40
5.060403212206838
100
AcDbArc
 50
29.605925
 51
330.394075
  0
ARC
  5
2CD
330
1F
100
AcDbEntity
  8
LC-001-100-D00-0
 62
     7
370
    50
100
AcDbCircle
 10
-56.329498
 20
-119.713025
 30
0.0
 40
5.060403212206888
100
AcDbArc
 50
29.605925
 51
330.394075
  0
ARC
  5
2CE
330
1F
100
AcDbEntity
  8
LC-001-100-D00-0
 62
     7
370
    50
100
AcDbCircle
 10
351.670502
 20
-119.713025
 30
0.0
 40
5.060403212206972
100
AcDbArc
 50
209.605925
 51
150.394075
  0
ARC
  5
2CF
330
1F
100
AcDbEntity
  8
LC-001-100-D00-0
 62
     7
370
    50
100
AcDbCircle
 10
351.670502
 20
-19.713025
 30
0.0
 40
5.060403212206965
100
AcDbArc
 50
209.605925
 51
150.394075
  0
ELLIPSE
  5
2D0
330
1F
100
AcDbEntity
  8
LC-001-100-D00-0
 62
     7
370
    50
100
AcDbEllipse
 10
227.592997
 20
-94.713025
 30
0.0
 11
0.0
 21
-1.000000024414062
 31
0.0
210
0.0
220
0.0
230
1.0
 40
0.019376
 41
3.141592653589793
 42
4.712388980384619
  0
ELLIPSE
  5
2D1
330
1F
100
AcDbEntity
  8
LC-001-100-D00-0
 62
     7
370
    50
100
AcDbEllipse
 10
67.748007
 20
-94.713025
 30
0.0
 11
0.0
 21
-1.000000039672851
 31
0.0
210
0.0
220
0.0
230
1.0
 40
0.019376
 41
1.570796326794897
 42
3.141592653585392
  0
ELLIPSE
  5
2D2
330
1F
100
AcDbEntity
  8
LC-001-100-D00-0
 62
     7
370
    50
100
AcDbEllipse
 10
67.748007
 20
-44.713025
 30
0.0
 11
0.0
 21
-1.000000048828124
 31
0.0
210
0.0
220
0.0
230
1.0
 40
0.019376
 41
0.0000000000014668
 42
1.570796326794961
  0
ELLIPSE
  5
2D3
330
1F
100
AcDbEntity
  8
LC-001-100-D00-0
 62
     7
370
    50
100
AcDbEllipse
 10
227.592997
 20
-44.713025
 30
0.0
 11
0.0
 21
-1.000000024414062
 31
0.0
210
0.0
220
0.0
230
1.0
 40
0.019376
 41
4.712388980384654
 42
6.28318530718252
  0
INSERT
  5
2DF
330
1F
100
AcDbEntity
  8
LC-001-100-D00-0
 62
     7
370
    50
100
AcDbBlockReference
  2
POLY13
 10
0.0
 20
0.0
 30
0.0
  0
LINE
  5
2E0
330
1F
100
AcDbEntity
  8
LC-001-100-D00-0
 62
     7
370
    50
100
AcDbLine
 10
67.728629
 20
-44.713025
 30
0.0
 11
67.728629
 21
-49.532418
 31
0.0
  0
INSERT
  5
2EC
330
1F
100
AcDbEntity
  8
LC-001-100-D00-0
 62
     7
370
    50
100
AcDbBlockReference
  2
POLY14
 10
0.0
 20
0.0
 30
0.0
  0
LINE
  5
2ED
330
1F
100
AcDbEntity
  8
LC-001-100-D00-0
 62
     7
370
    50
100
AcDbLine
 10
227.612374
 20
-44.713025
 30
0.0
 11
227.612374
 21
-49.532418
 31
0.0
  0
LINE
  5
2EE
330
1F
100
AcDbEntity
  8
LC-001-100-D00-0
 62
     7
370
    50
100
AcDbLine
 10
67.728629
 20
-89.893632
 30
0.0
 11
67.728629
 21
-94.713025
 31
0.0
  0
INSERT
  5
2FA
330
1F
100
AcDbEntity
  8
LC-001-100-D00-0
 62
     7
370
    50
100
AcDbBlockReference
  2
POLY15
 10
0.0
 20
0.0
 30
0.0
  0
INSERT
  5
306
330
1F
100
AcDbEntity
  8
LC-001-100-D00-0
 62
     7
370
    50
100
AcDbBlockReference
  2
POLY16
 10
0.0
 20
0.0
 30
0.0
  0
LINE
  5
307
330
1F
100
AcDbEntity
  8
LC-001-100-D00-0
 62
     7
370
    50
100
AcDbLine
 10
227.612374
 20
-89.893632
 30
0.0
 11
227.612374
 21
-94.713025
 31
0.0
  0
LINE
  5
308
330
1F
100
AcDbEntity
  8
LC-001-100-D00-0
 62
     7
370
    50
100
AcDbLine
 10
117.170502
 20
-44.679051
 30
0.0
 11
115.32603
 21
-44.713025
 31
0.0
  0
LINE
  5
309
330
1F
100
AcDbEntity
  8
LC-001-100-D00-0
 62
     7
370
    50
100
AcDbLine
 10
178.1705
 20
-44.679051
 30
0.0
 11
117.170502
 21
-44.679051
 31
0.0
  0
LINE
  5
30A
330
1F
100
AcDbEntity
  8
LC-001-100-D00-0
 62
     7
370
    50
100
AcDbLine
 10
180.014974
 20
-44.713025
 30
0.0
 11
178.1705
 21
-44.679051
 31
0.0
  0
LINE
  5
30B
330
1F
100
AcDbEntity
  8
LC-001-100-D00-0
 62
     7
370
    50
100
AcDbLine
 10
115.32603
 20
-94.713025
 30
0.0
 11
117.170502
 21
-94.747
 31
0.0
  0
LINE
  5
30C
330
1F
100
AcDbEntity
  8
LC-001-100-D00-0
 62
     7
370
    50
100
AcDbLine
 10
178.1705
 20
-94.747
 30
0.0
 11
180.014974
 21
-94.713025
 31
0.0
  0
LINE
  5
30D
330
1F
100
AcDbEntity
  8
LC-001-100-D00-0
 62
     7
370
    50
100
AcDbLine
 10
117.170502
 20
-94.747
 30
0.0
 11
178.1705
 21
-94.747
 31
0.0
  0
INSERT
  5
319
330
1F
100
AcDbEntity
  8
LC-001-100-D00-0
 62
     7
370
    50
100
AcDbBlockReference
  2
POLY17
 10
0.0
 20
0.0
 30
0.0
  0
INSERT
  5
325
330
1F
100
AcDbEntity
  8
LC-001-100-D00-0
 62
     7
370
    50
100
AcDbBlockReference
  2
POLY18
 10
0.0
 20
0.0
 30
0.0
  0
INSERT
  5
333
330
1F
100
AcDbEntity
  8
LC-001-100-D00-0
 62
     7
370
    50
100
AcDbBlockReference
  2
POLY19
 10
0.0
 20
0.0
 30
0.0
  0
INSERT
  5
341
330
1F
100
AcDbEntity
  8
LC-001-100-D00-0
 62
     7
370
    50
100
AcDbBlockReference
  2
POLY20
 10
0.0
 20
0.0
 30
0.0
  0
LINE
  5
342
330
1F
100
AcDbEntity
  8
LC-001-100-D00-0
 62
     7
370
    50
100
AcDbLine
 10
117.170502
 20
-44.913025
 30
0.0
 11
178.1705
 21
-44.913025
 31
0.0
  0
LINE
  5
343
330
1F
100
AcDbEntity
  8
LC-001-100-D00-0
 62
     7
370
    50
100
AcDbLine
 10
178.1705
 20
-44.913025
 30
0.0
 11
179.995259
 21
-44.980248
 31
0.0
  0
LINE
  5
344
330
1F
100
AcDbEntity
  8
LC-001-100-D00-0
 62
     7
370
    50
100
AcDbLine
 10
180.014974
 20
-44.713025
 30
0.0
 11
179.995259
 21
-44.980248
 31
0.0
  0
LINE
  5
345
330
1F
100
AcDbEntity
  8
LC-001-100-D00-0
 62
     7
370
    50
100
AcDbLine
 10
180.014974
 20
-94.713025
 30
0.0
 11
179.995259
 21
-94.445803
 31
0.0
  0
LINE
  5
346
330
1F
100
AcDbEntity
  8
LC-001-100-D00-0
 62
     7
370
    50
100
AcDbLine
 10
179.995259
 20
-94.445803
 30
0.0
 11
178.1705
 21
-94.513025
 31
0.0
  0
LINE
  5
347
330
1F
100
AcDbEntity
  8
LC-001-100-D00-0
 62
     7
370
    50
100
AcDbLine
 10
115.345745
 20
-44.980248
 30
0.0
 11
117.170502
 21
-44.913025
 31
0.0
  0
LINE
  5
348
330
1F
100
AcDbEntity
  8
LC-001-100-D00-0
 62
     7
370
    50
100
AcDbLine
 10
115.345745
 20
-44.980248
 30
0.0
 11
115.32603
 21
-44.713025
 31
0.0
  0
LINE
  5
349
330
1F
100
AcDbEntity
  8
LC-001-100-D00-0
 62
     7
370
    50
100
AcDbLine
 10
117.170502
 20
-94.513025
 30
0.0
 11
115.345745
 21
-94.445803
 31
0.0
  0
LINE
  5
34A
330
1F
100
AcDbEntity
  8
LC-001-100-D00-0
 62
     7
370
    50
100
AcDbLine
 10
115.345745
 20
-94.445803
 30
0.0
 11
115.32603
 21
-94.713025
 31
0.0
  0
LINE
  5
34B
330
1F
100
AcDbEntity
  8
LC-001-100-D00-0
 62
     7
370
    50
100
AcDbLine
 10
178.1705
 20
-94.513025
 30
0.0
 11
117.170502
 21
-94.513025
 31
0.0
  0
ARC
  5
34C
330
1F
100
AcDbEntity
  8
LC-001-100-D00-0
 62
     7
370
    50
100
AcDbCircle
 10
178.170502
 20
-69.713025
 30
0.0
 40
25.0679491924312
100
AcDbArc
 50
274.219573
 51
307.076476
  0
ARC
  5
34D
330
1F
100
AcDbEntity
  8
LC-001-100-D00-0
 62
     7
370
    50
100
AcDbCircle
 10
178.170502
 20
-69.713025
 30
0.0
 40
25.06794919243121
100
AcDbArc
 50
52.923524
 51
85.780427
  0
ARC
  5
34E
330
1F
100
AcDbEntity
  8
LC-001-100-D00-0
 62
     7
370
    50
100
AcDbCircle
 10
117.170502
 20
-69.713025
 30
0.0
 40
24.80000000000002
100
AcDbArc
 50
233.750679
 51
265.780427
  0
ARC
  5
34F
330
1F
100
AcDbEntity
  8
LC-001-100-D00-0
 62
     7
370
    50
100
AcDbCircle
 10
117.170502
 20
-69.713025
 30
0.0
 40
24.80000000000005
100
AcDbArc
 50
94.219573
 51
126.249321
  0
ARC
  5
350
330
1F
100
AcDbEntity
  8
LC-001-100-D00-0
 62
     7
370
    50
100
AcDbCircle
 10
117.170502
 20
-69.713025
 30
0.0
 40
25.06794919243123
100
AcDbArc
 50
94.219573
 51
127.076476
  0
ARC
  5
351
330
1F
100
AcDbEntity
  8
LC-001-100-D00-0
 62
     7
370
    50
100
AcDbCircle
 10
117.170502
 20
-69.713025
 30
0.0
 40
25.0679491924312
100
AcDbArc
 50
232.923524
 51
265.780427
  0
ARC
  5
352
330
1F
100
AcDbEntity
  8
LC-001-100-D00-0
 62
     7
370
    50
100
AcDbCircle
 10
178.170502
 20
-69.713025
 30
0.0
 40
24.80000000000003
100
AcDbArc
 50
53.750679
 51
85.780427
  0
ARC
  5
353
330
1F
100
AcDbEntity
  8
LC-001-100-D00-0
 62
     7
370
    50
100
AcDbCircle
 10
178.170502
 20
-69.713025
 30
0.0
 40
24.80000000000003
100
AcDbArc
 50
274.219573
 51
306.249321
  0
LINE
  5
355
330
1F
100
AcDbEntity
  8
LC-002-002-----0
 62
     7
370
    25
100
AcDbLine
 10
250.569005
 20
182.655874
 30
0.0
 11
408.676515
 21
140.291095
 31
0.0
  0
LINE
  5
356
330
1F
100
AcDbEntity
  8
LC-001-100-D00-0
 62
     7
370
    50
100
AcDbLine
 10
256.918298
 20
155.599498
 30
0.0
 11
256.918298
 21
157.382419
 31
0.0
  0
LINE
  5
357
330
1F
100
AcDbEntity
  8
LC-001-100-D00-0
 62
     7
370
    50
100
AcDbLine
 10
256.918298
 20
207.816577
 30
0.0
 11
256.918298
 21
209.599498
 31
0.0
  0
LINE
  5
358
330
1F
100
AcDbEntity
  8
LC-001-100-D00-0
 62
     7
370
    50
100
AcDbLine
 10
260.918298
 20
209.599498
 30
0.0
 11
260.918298
 21
207.816577
 31
0.0
  0
LINE
  5
359
330
1F
100
AcDbEntity
  8
LC-001-100-D00-0
 62
     7
370
    50
100
AcDbLine
 10
260.918298
 20
157.382419
 30
0.0
 11
260.918298
 21
155.599498
 31
0.0
  0
ARC
  5
35A
330
1F
100
AcDbEntity
  8
LC-001-100-D00-0
 62
     7
370
    50
100
AcDbCircle
 10
67.43038
 20
216.108181
 30
0.0
 40
0.9999187016649503
100
AcDbArc
 50
81.642204
 51
87.360914
  0
ARC
  5
35B
330
1F
100
AcDbEntity
  8
LC-001-100-D00-0
 62
     7
370
    50
100
AcDbCircle
 10
67.430379
 20
216.108176
 30
0.0
 40
0.9999239122790082
100
AcDbArc
 50
87.36091
 51
87.788594
  0
ARC
  5
35C
330
1F
100
AcDbEntity
  8
LC-001-100-D00-0
 62
     7
370
    50
100
AcDbCircle
 10
227.910624
 20
216.10818
 30
0.0
 40
0.9999195541650944
100
AcDbArc
 50
91.660271
 51
98.31118
  0
LINE
  5
35D
330
1F
100
AcDbEntity
  8
LC-001-100-D00-0
 62
     7
370
    50
100
AcDbLine
 10
295.670502
 20
244.099498
 30
0.0
 11
-0.329498
 21
244.099498
 31
0.0
  0
LINE
  5
35E
330
1F
100
AcDbEntity
  8
LC-001-100-D00-0
 62
     7
370
    50
100
AcDbLine
 10
-0.329498
 20
242.599498
 30
0.0
 11
295.670502
 21
242.599498
 31
0.0
  0
LINE
  5
35F
330
1F
100
AcDbEntity
  8
LC-001-100-D00-0
 62
     7
370
    50
100
AcDbLine
 10
295.670502
 20
242.599498
 30
0.0
 11
295.670502
 21
244.099498
 31
0.0
  0
LINE
  5
360
330
1F
100
AcDbEntity
  8
LC-001-100-D00-0
 62
     7
370
    50
100
AcDbLine
 10
-0.329498
 20
242.599498
 30
0.0
 11
-0.329498
 21
244.099498
 31
0.0
  0
LINE
  5
361
330
1F
100
AcDbEntity
  8
LC-001-100-D00-0
 62
     7
370
    50
100
AcDbLine
 10
295.670502
 20
242.599498
 30
0.0
 11
295.670502
 21
240.099498
 31
0.0
  0
LINE
  5
362
330
1F
100
AcDbEntity
  8
LC-001-100-D00-0
 62
     7
370
    50
100
AcDbLine
 10
-0.329498
 20
242.599498
 30
0.0
 11
-0.329498
 21
240.099498
 31
0.0
  0
LINE
  5
363
330
1F
100
AcDbEntity
  8
LC-001-100-D00-0
 62
     7
370
    50
100
AcDbLine
 10
9.670502
 20
226.099498
 30
0.0
 11
23.670502
 21
226.099498
 31
0.0
  0
LINE
  5
364
330
1F
100
AcDbEntity
  8
LC-001-100-D00-0
 62
     7
370
    50
100
AcDbLine
 10
31.670502
 20
226.099498
 30
0.0
 11
263.670502
 21
226.099498
 31
0.0
  0
LINE
  5
365
330
1F
100
AcDbEntity
  8
LC-001-100-D00-0
 62
     7
370
    50
100
AcDbLine
 10
271.670502
 20
226.099498
 30
0.0
 11
285.670502
 21
226.099498
 31
0.0
  0
ARC
  5
366
330
1F
100
AcDbEntity
  8
LC-001-100-D00-0
 62
     7
370
    50
100
AcDbCircle
 10
9.670502
 20
236.099498
 30
0.0
 40
10.0
100
AcDbArc
 50
180.0
 51
270.0
  0
ARC
  5
367
330
1F
100
AcDbEntity
  8
LC-001-100-D00-0
 62
     7
370
    50
100
AcDbCircle
 10
285.670502
 20
236.099498
 30
0.0
 40
10.00000000000006
100
AcDbArc
 50
270.0
 51
0.0
  0
LINE
  5
368
330
1F
100
AcDbEntity
  8
LC-001-100-D00-0
 62
     7
370
    50
100
AcDbLine
 10
295.670502
 20
240.099498
 30
0.0
 11
295.670502
 21
236.099498
 31
0.0
  0
LINE
  5
369
330
1F
100
AcDbEntity
  8
LC-001-100-D00-0
 62
     7
370
    50
100
AcDbLine
 10
-0.329498
 20
240.099498
 30
0.0
 11
-0.329498
 21
236.099498
 31
0.0
  0
CIRCLE
  5
36A
330
1F
100
AcDbEntity
  8
LC-001-100-D00-0
 62
     7
370
    50
100
AcDbCircle
 10
93.420502
 20
217.349498
 30
0.0
 40
1.750000000000057
  0
CIRCLE
  5
36B
330
1F
100
AcDbEntity
  8
LC-001-100-D00-0
 62
     7
370
    50
100
AcDbCircle
 10
201.920502
 20
217.349498
 30
0.0
 40
1.75
  0
ARC
  5
36C
330
1F
100
AcDbEntity
  8
LC-001-100-D00-0
 62
     7
370
    50
100
AcDbCircle
 10
111.670502
 20
164.099498
 30
0.0
 40
5.0
100
AcDbArc
 50
180.0
 51
270.0
  0
LINE
  5
36D
330
1F
100
AcDbEntity
  8
LC-001-100-D00-0
 62
     7
370
    50
100
AcDbLine
 10
92.570502
 20
214.599498
 30
0.0
 11
92.570502
 21
212.599498
 31
0.0
  0
LINE
  5
36E
330
1F
100
AcDbEntity
  8
LC-001-100-D00-0
 62
     7
370
    50
100
AcDbLine
 10
94.070502
 20
212.599498
 30
0.0
 11
92.570502
 21
212.599498
 31
0.0
  0
LINE
  5
36F
330
1F
100
AcDbEntity
  8
LC-001-100-D00-0
 62
     7
370
    50
100
AcDbLine
 10
94.070502
 20
212.599498
 30
0.0
 11
94.070502
 21
205.099498
 31
0.0
  0
LINE
  5
370
330
1F
100
AcDbEntity
  8
LC-001-100-D00-0
 62
     7
370
    50
100
AcDbLine
 10
106.670502
 20
195.797861
 30
0.0
 11
94.070502
 21
205.099498
 31
0.0
  0
LINE
  5
371
330
1F
100
AcDbEntity
  8
LC-001-100-D00-0
 62
     7
370
    50
100
AcDbLine
 10
106.670502
 20
195.797861
 30
0.0
 11
106.670502
 21
164.099498
 31
0.0
  0
ARC
  5
372
330
1F
100
AcDbEntity
  8
LC-001-100-D00-0
 62
     7
370
    50
100
AcDbCircle
 10
183.670502
 20
164.099498
 30
0.0
 40
5.0
100
AcDbArc
 50
270.0
 51
0.0
  0
LINE
  5
373
330
1F
100
AcDbEntity
  8
LC-001-100-D00-0
 62
     7
370
    50
100
AcDbLine
 10
188.670502
 20
164.099498
 30
0.0
 11
188.670502
 21
195.797861
 31
0.0
  0
LINE
  5
374
330
1F
100
AcDbEntity
  8
LC-001-100-D00-0
 62
     7
370
    50
100
AcDbLine
 10
188.670502
 20
195.797861
 30
0.0
 11
201.270502
 21
205.099498
 31
0.0
  0
LINE
  5
375
330
1F
100
AcDbEntity
  8
LC-001-100-D00-0
 62
     7
370
    50
100
AcDbLine
 10
201.270502
 20
212.599498
 30
0.0
 11
201.270502
 21
205.099498
 31
0.0
  0
LINE
  5
376
330
1F
100
AcDbEntity
  8
LC-001-100-D00-0
 62
     7
370
    50
100
AcDbLine
 10
202.770502
 20
212.599498
 30
0.0
 11
201.270502
 21
212.599498
 31
0.0
  0
LINE
  5
377
330
1F
100
AcDbEntity
  8
LC-001-100-D00-0
 62
     7
370
    50
100
AcDbLine
 10
202.770502
 20
212.599498
 30
0.0
 11
202.770502
 21
214.599498
 31
0.0
  0
LINE
  5
378
330
1F
100
AcDbEntity
  8
LC-001-100-D00-0
 62
     7
370
    50
100
AcDbLine
 10
202.770502
 20
214.599498
 30
0.0
 11
199.157887
 21
214.599498
 31
0.0
  0
ARC
  5
379
330
1F
100
AcDbEntity
  8
LC-001-100-D00-0
 62
     7
370
    50
100
AcDbCircle
 10
199.157887
 20
211.599498
 30
0.0
 40
3.000000000000085
100
AcDbArc
 50
90.0
 51
126.435676
  0
LINE
  5
37A
330
1F
100
AcDbEntity
  8
LC-001-100-D00-0
 62
     7
370
    50
100
AcDbLine
 10
187.170502
 20
206.479021
 30
0.0
 11
197.376127
 21
214.01307
 31
0.0
  0
LINE
  5
37B
330
1F
100
AcDbEntity
  8
LC-001-100-D00-0
 62
     7
370
    50
100
AcDbLine
 10
187.170502
 20
164.099498
 30
0.0
 11
187.170502
 21
206.479021
 31
0.0
  0
ARC
  5
37C
330
1F
100
AcDbEntity
  8
LC-001-100-D00-0
 62
     7
370
    50
100
AcDbCircle
 10
183.670502
 20
164.099498
 30
0.0
 40
3.5
100
AcDbArc
 50
270.0
 51
0.0
  0
LINE
  5
37D
330
1F
100
AcDbEntity
  8
LC-001-100-D00-0
 62
     7
370
    50
100
AcDbLine
 10
111.670502
 20
160.599498
 30
0.0
 11
183.670502
 21
160.599498
 31
0.0
  0
ARC
  5
37E
330
1F
100
AcDbEntity
  8
LC-001-100-D00-0
 62
     7
370
    50
100
AcDbCircle
 10
111.670502
 20
164.099498
 30
0.0
 40
3.5
100
AcDbArc
 50
180.0
 51
270.0
  0
LINE
  5
37F
330
1F
100
AcDbEntity
  8
LC-001-100-D00-0
 62
     7
370
    50
100
AcDbLine
 10
108.170502
 20
206.479021
 30
0.0
 11
108.170502
 21
164.099498
 31
0.0
  0
LINE
  5
380
330
1F
100
AcDbEntity
  8
LC-001-100-D00-0
 62
     7
370
    50
100
AcDbLine
 10
108.170502
 20
206.479021
 30
0.0
 11
97.964877
 21
214.01307
 31
0.0
  0
ARC
  5
381
330
1F
100
AcDbEntity
  8
LC-001-100-D00-0
 62
     7
370
    50
100
AcDbCircle
 10
96.183117
 20
211.599498
 30
0.0
 40
2.999999999999988
100
AcDbArc
 50
53.564324
 51
90.0
  0
LINE
  5
382
330
1F
100
AcDbEntity
  8
LC-001-100-D00-0
 62
     7
370
    50
100
AcDbLine
 10
96.183117
 20
214.599498
 30
0.0
 11
92.570502
 21
214.599498
 31
0.0
  0
LINE
  5
383
330
1F
100
AcDbEntity
  8
LC-001-100-D00-0
 62
     7
370
    50
100
AcDbLine
 10
111.670502
 20
159.099498
 30
0.0
 11
183.670502
 21
159.099498
 31
0.0
  0
LINE
  5
384
330
1F
100
AcDbEntity
  8
LC-001-100-D00-0
 62
     7
370
    50
100
AcDbLine
 10
187.170502
 20
206.479021
 30
0.0
 11
187.163381
 21
206.473764
 31
0.0
  0
LINE
  5
385
330
1F
100
AcDbEntity
  8
LC-001-100-D00-0
 62
     7
370
    50
100
AcDbLine
 10
187.163381
 20
206.473764
 30
0.0
 11
187.163381
 21
205.099498
 31
0.0
  0
LINE
  5
386
330
1F
100
AcDbEntity
  8
LC-001-100-D00-0
 62
     7
370
    50
100
AcDbLine
 10
182.749897
 20
205.099498
 30
0.0
 11
187.163381
 21
205.099498
 31
0.0
  0
LINE
  5
387
330
1F
100
AcDbEntity
  8
LC-001-100-D00-0
 62
     7
370
    50
100
AcDbLine
 10
108.177623
 20
205.099498
 30
0.0
 11
112.591106
 21
205.099498
 31
0.0
  0
LINE
  5
388
330
1F
100
AcDbEntity
  8
LC-001-100-D00-0
 62
     7
370
    50
100
AcDbLine
 10
108.177623
 20
206.473764
 30
0.0
 11
108.177623
 21
205.099498
 31
0.0
  0
LINE
  5
389
330
1F
100
AcDbEntity
  8
LC-001-100-D00-0
 62
     7
370
    50
100
AcDbLine
 10
108.170502
 20
206.479021
 30
0.0
 11
108.177623
 21
206.473764
 31
0.0
  0
LINE
  5
38A
330
1F
100
AcDbEntity
  8
LC-001-100-D00-0
 62
     7
370
    50
100
AcDbLine
 10
180.622935
 20
212.563601
 30
0.0
 11
180.622935
 21
205.099498
 31
0.0
  0
LINE
  5
38B
330
1F
100
AcDbEntity
  8
LC-001-100-D00-0
 62
     7
370
    50
100
AcDbLine
 10
181.670502
 20
212.599498
 30
0.0
 11
180.622935
 21
212.599498
 31
0.0
  0
LINE
  5
38C
330
1F
100
AcDbEntity
  8
LC-001-100-D00-0
 62
     7
370
    50
100
AcDbLine
 10
114.718068
 20
212.563601
 30
0.0
 11
114.718068
 21
205.099498
 31
0.0
  0
LINE
  5
38D
330
1F
100
AcDbEntity
  8
LC-001-100-D00-0
 62
     7
370
    50
100
AcDbLine
 10
114.718068
 20
212.599498
 30
0.0
 11
113.670502
 21
212.599498
 31
0.0
  0
LINE
  5
38E
330
1F
100
AcDbEntity
  8
LC-001-100-D00-0
 62
     7
370
    50
100
AcDbLine
 10
176.68301
 20
205.099498
 30
0.0
 11
182.749897
 21
205.099498
 31
0.0
  0
LINE
  5
38F
330
1F
100
AcDbEntity
  8
LC-001-100-D00-0
 62
     7
370
    50
100
AcDbLine
 10
112.591106
 20
205.099498
 30
0.0
 11
118.657994
 21
205.099498
 31
0.0
  0
LINE
  5
390
330
1F
100
AcDbEntity
  8
LC-001-100-D00-0
 62
     7
370
    50
100
AcDbLine
 10
176.670502
 20
175.099498
 30
0.0
 11
176.670502
 21
204.599498
 31
0.0
  0
ARC
  5
391
330
1F
100
AcDbEntity
  8
LC-001-100-D00-0
 62
     7
370
    50
100
AcDbCircle
 10
177.170502
 20
218.599498
 30
0.0
 40
2.0
100
AcDbArc
 50
90.0
 51
180.0
  0
LINE
  5
392
330
1F
100
AcDbEntity
  8
LC-001-100-D00-0
 62
     7
370
    50
100
AcDbLine
 10
175.170502
 20
175.099498
 30
0.0
 11
175.170502
 21
218.599498
 31
0.0
  0
LINE
  5
393
330
1F
100
AcDbEntity
  8
LC-001-100-D00-0
 62
     7
370
    50
100
AcDbLine
 10
176.670502
 20
175.099498
 30
0.0
 11
175.170502
 21
175.099498
 31
0.0
  0
ARC
  5
394
330
1F
100
AcDbEntity
  8
LC-001-100-D00-0
 62
     7
370
    50
100
AcDbCircle
 10
186.670502
 20
204.599498
 30
0.0
 40
10.0
100
AcDbArc
 50
90.0
 51
180.0
  0
LINE
  5
395
330
1F
100
AcDbEntity
  8
LC-001-100-D00-0
 62
     7
370
    50
100
AcDbLine
 10
202.170502
 20
214.599498
 30
0.0
 11
186.670502
 21
214.599498
 31
0.0
  0
LINE
  5
396
330
1F
100
AcDbEntity
  8
LC-001-100-D00-0
 62
     7
370
    50
100
AcDbLine
 10
202.170502
 20
214.599498
 30
0.0
 11
202.170502
 21
215.599498
 31
0.0
  0
LINE
  5
397
330
1F
100
AcDbEntity
  8
LC-001-100-D00-0
 62
     7
370
    50
100
AcDbLine
 10
202.170502
 20
215.599498
 30
0.0
 11
200.170502
 21
215.599498
 31
0.0
  0
LINE
  5
398
330
1F
100
AcDbEntity
  8
LC-001-100-D00-0
 62
     7
370
    50
100
AcDbLine
 10
200.170502
 20
215.599498
 30
0.0
 11
200.170502
 21
219.099498
 31
0.0
  0
LINE
  5
399
330
1F
100
AcDbEntity
  8
LC-001-100-D00-0
 62
     7
370
    50
100
AcDbLine
 10
202.170502
 20
219.099498
 30
0.0
 11
200.170502
 21
219.099498
 31
0.0
  0
LINE
  5
39A
330
1F
100
AcDbEntity
  8
LC-001-100-D00-0
 62
     7
370
    50
100
AcDbLine
 10
202.170502
 20
220.599498
 30
0.0
 11
202.170502
 21
219.099498
 31
0.0
  0
LINE
  5
39B
330
1F
100
AcDbEntity
  8
LC-001-100-D00-0
 62
     7
370
    50
100
AcDbLine
 10
202.170502
 20
220.599498
 30
0.0
 11
177.170502
 21
220.599498
 31
0.0
  0
LINE
  5
39C
330
1F
100
AcDbEntity
  8
LC-001-100-D00-0
 62
     7
370
    50
100
AcDbLine
 10
136.170502
 20
175.099498
 30
0.0
 11
120.170502
 21
175.099498
 31
0.0
  0
LINE
  5
39D
330
1F
100
AcDbEntity
  8
LC-001-100-D00-0
 62
     7
370
    50
100
AcDbLine
 10
120.170502
 20
218.599498
 30
0.0
 11
120.170502
 21
175.099498
 31
0.0
  0
LINE
  5
39E
330
1F
100
AcDbEntity
  8
LC-001-100-D00-0
 62
     7
370
    50
100
AcDbLine
 10
118.670502
 20
204.599498
 30
0.0
 11
118.670502
 21
175.099498
 31
0.0
  0
LINE
  5
39F
330
1F
100
AcDbEntity
  8
LC-001-100-D00-0
 62
     7
370
    50
100
AcDbLine
 10
93.170502
 20
219.099498
 30
0.0
 11
93.170502
 21
220.599498
 31
0.0
  0
LINE
  5
3A0
330
1F
100
AcDbEntity
  8
LC-001-100-D00-0
 62
     7
370
    50
100
AcDbLine
 10
95.170502
 20
219.099498
 30
0.0
 11
93.170502
 21
219.099498
 31
0.0
  0
LINE
  5
3A1
330
1F
100
AcDbEntity
  8
LC-001-100-D00-0
 62
     7
370
    50
100
AcDbLine
 10
95.170502
 20
219.099498
 30
0.0
 11
95.170502
 21
215.599498
 31
0.0
  0
LINE
  5
3A2
330
1F
100
AcDbEntity
  8
LC-001-100-D00-0
 62
     7
370
    50
100
AcDbLine
 10
95.170502
 20
215.599498
 30
0.0
 11
93.170502
 21
215.599498
 31
0.0
  0
LINE
  5
3A3
330
1F
100
AcDbEntity
  8
LC-001-100-D00-0
 62
     7
370
    50
100
AcDbLine
 10
93.170502
 20
215.599498
 30
0.0
 11
93.170502
 21
214.599498
 31
0.0
  0
LINE
  5
3A4
330
1F
100
AcDbEntity
  8
LC-001-100-D00-0
 62
     7
370
    50
100
AcDbLine
 10
108.670502
 20
214.599498
 30
0.0
 11
93.170502
 21
214.599498
 31
0.0
  0
ARC
  5
3A5
330
1F
100
AcDbEntity
  8
LC-001-100-D00-0
 62
     7
370
    50
100
AcDbCircle
 10
108.670502
 20
204.599498
 30
0.0
 40
10.00000000000006
100
AcDbArc
 50
0.0
 51
90.0
  0
LINE
  5
3A6
330
1F
100
AcDbEntity
  8
LC-001-100-D00-0
 62
     7
370
    50
100
AcDbLine
 10
120.170502
 20
175.099498
 30
0.0
 11
118.670502
 21
175.099498
 31
0.0
  0
ARC
  5
3A7
330
1F
100
AcDbEntity
  8
LC-001-100-D00-0
 62
     7
370
    50
100
AcDbCircle
 10
118.170502
 20
218.599498
 30
0.0
 40
2.0
100
AcDbArc
 50
0.0
 51
90.0
  0
LINE
  5
3A8
330
1F
100
AcDbEntity
  8
LC-001-100-D00-0
 62
     7
370
    50
100
AcDbLine
 10
118.170502
 20
220.599498
 30
0.0
 11
93.170502
 21
220.599498
 31
0.0
  0
LINE
  5
3A9
330
1F
100
AcDbEntity
  8
LC-001-100-D00-0
 62
     7
370
    50
100
AcDbLine
 10
175.170502
 20
175.099498
 30
0.0
 11
159.170502
 21
175.099498
 31
0.0
  0
LINE
  5
3AA
330
1F
100
AcDbEntity
  8
LC-001-100-D00-0
 62
     7
370
    50
100
AcDbLine
 10
136.170502
 20
220.599498
 30
0.0
 11
118.170502
 21
220.599498
 31
0.0
  0
LINE
  5
3AB
330
1F
100
AcDbEntity
  8
LC-001-100-D00-0
 62
     7
370
    50
100
AcDbLine
 10
177.170502
 20
220.599498
 30
0.0
 11
159.170502
 21
220.599498
 31
0.0
  0
LINE
  5
3AC
330
1F
100
AcDbEntity
  8
LC-001-100-D00-0
 62
     7
370
    50
100
AcDbLine
 10
159.170502
 20
175.099498
 30
0.0
 11
136.170502
 21
175.099498
 31
0.0
  0
LINE
  5
3AD
330
1F
100
AcDbEntity
  8
LC-001-100-D00-0
 62
     7
370
    50
100
AcDbLine
 10
159.170502
 20
220.599498
 30
0.0
 11
136.170502
 21
220.599498
 31
0.0
  0
CIRCLE
  5
3AE
330
1F
100
AcDbEntity
  8
LC-001-100-D00-0
 62
     7
370
    50
100
AcDbCircle
 10
258.918298
 20
209.599498
 30
0.0
 40
2.0
  0
CIRCLE
  5
3AF
330
1F
100
AcDbEntity
  8
LC-001-100-D00-0
 62
     7
370
    50
100
AcDbCircle
 10
258.918298
 20
155.599498
 30
0.0
 40
2.0
  0
ARC
  5
3B0
330
1F
100
AcDbEntity
  8
LC-001-100-D00-0
 62
     7
370
    50
100
AcDbCircle
 10
250.670299
 20
182.599498
 30
0.0
 40
32.00000000000001
100
AcDbArc
 50
51.375167
 51
90.0
  0
ARC
  5
3B1
330
1F
100
AcDbEntity
  8
LC-001-100-D00-0
 62
     7
370
    50
100
AcDbCircle
 10
250.670299
 20
182.599498
 30
0.0
 40
31.99999999999996
100
AcDbArc
 50
292.68465
 51
308.624833
  0
LINE
  5
3B2
330
1F
100
AcDbEntity
  8
LC-001-100-D00-0
 62
     7
370
    50
100
AcDbLine
 10
250.670299
 20
214.599498
 30
0.0
 11
242.170299
 21
214.599498
 31
0.0
  0
LINE
  5
3B3
330
1F
100
AcDbEntity
  8
LC-001-100-D00-0
 62
     7
370
    50
100
AcDbLine
 10
243.148471
 20
153.57767
 30
0.0
 11
242.645773
 21
153.074972
 31
0.0
  0
LINE
  5
3B4
330
1F
100
AcDbEntity
  8
LC-001-100-D00-0
 62
     7
370
    50
100
AcDbLine
 10
242.170299
 20
212.599498
 30
0.0
 11
243.148471
 21
211.621326
 31
0.0
  0
LINE
  5
3B5
330
1F
100
AcDbEntity
  8
LC-001-100-D00-0
 62
     7
370
    50
100
AcDbLine
 10
242.170299
 20
153.074972
 30
0.0
 11
242.170299
 21
154.159645
 31
0.0
  0
ARC
  5
3B6
330
1F
100
AcDbEntity
  8
LC-001-100-D00-0
 62
     7
370
    50
100
AcDbCircle
 10
250.670299
 20
182.599498
 30
0.0
 40
29.50000000000001
100
AcDbArc
 50
257.089221
 51
309.53945
  0
LINE
  5
3B7
330
1F
100
AcDbEntity
  8
LC-001-100-D00-0
 62
     7
370
    50
100
AcDbLine
 10
269.450275
 20
159.849498
 30
0.0
 11
269.450275
 21
205.349498
 31
0.0
  0
ARC
  5
3B8
330
1F
100
AcDbEntity
  8
LC-001-100-D00-0
 62
     7
370
    50
100
AcDbCircle
 10
250.670299
 20
182.599498
 30
0.0
 40
29.49999999999997
100
AcDbArc
 50
50.46055
 51
102.910779
  0
ARC
  5
3B9
330
1F
100
AcDbEntity
  8
LC-001-100-D00-0
 62
     7
370
    50
100
AcDbCircle
 10
243.855577
 20
212.328433
 30
0.0
 40
1.000000000000048
100
AcDbArc
 50
225.0
 51
282.910779
  0
ARC
  5
3BA
330
1F
100
AcDbEntity
  8
LC-001-100-D00-0
 62
     7
370
    50
100
AcDbCircle
 10
243.855577
 20
152.870563
 30
0.0
 40
1.000000000000094
100
AcDbArc
 50
77.089221
 51
135.0
  0
LINE
  5
3BB
330
1F
100
AcDbEntity
  8
LC-001-100-D00-0
 62
     7
370
    50
100
AcDbLine
 10
270.645283
 20
157.599498
 30
0.0
 11
353.670299
 21
157.599498
 31
0.0
  0
LINE
  5
3BC
330
1F
100
AcDbEntity
  8
LC-001-100-D00-0
 62
     7
370
    50
100
AcDbLine
 10
353.670299
 20
207.599498
 30
0.0
 11
270.645283
 21
207.599498
 31
0.0
  0
LINE
  5
3BD
330
1F
100
AcDbEntity
  8
LC-001-100-D00-0
 62
     7
370
    50
100
AcDbLine
 10
353.670299
 20
157.599498
 30
0.0
 11
357.170299
 21
158.53732
 31
0.0
  0
LINE
  5
3BE
330
1F
100
AcDbEntity
  8
LC-001-100-D00-0
 62
     7
370
    50
100
AcDbLine
 10
357.170299
 20
206.661676
 30
0.0
 11
353.670299
 21
207.599498
 31
0.0
  0
LINE
  5
3BF
330
1F
100
AcDbEntity
  8
LC-001-100-D00-0
 62
     7
370
    50
100
AcDbLine
 10
357.170299
 20
159.849498
 30
0.0
 11
269.450275
 21
159.849498
 31
0.0
  0
LINE
  5
3C0
330
1F
100
AcDbEntity
  8
LC-001-100-D00-0
 62
     7
370
    50
100
AcDbLine
 10
269.450275
 20
205.349498
 30
0.0
 11
357.170299
 21
205.349498
 31
0.0
  0
LINE
  5
3C1
330
1F
100
AcDbEntity
  8
LC-001-100-D00-0
 62
     7
370
    50
100
AcDbLine
 10
357.170299
 20
159.849498
 30
0.0
 11
357.170299
 21
205.349498
 31
0.0
  0
LINE
  5
3C2
330
1F
100
AcDbEntity
  8
LC-001-100-D00-0
 62
     7
370
    50
100
AcDbLine
 10
357.170299
 20
158.53732
 30
0.0
 11
357.170299
 21
159.849498
 31
0.0
  0
LINE
  5
3C3
330
1F
100
AcDbEntity
  8
LC-001-100-D00-0
 62
     7
370
    50
100
AcDbLine
 10
357.170299
 20
205.349498
 30
0.0
 11
357.170299
 21
206.661676
 31
0.0
  0
LINE
  5
3C4
330
1F
100
AcDbEntity
  8
LC-001-100-D00-0
 62
     7
370
    50
100
AcDbLine
 10
242.170299
 20
214.599498
 30
0.0
 11
242.170299
 21
212.599498
 31
0.0
  0
LINE
  5
3C5
330
1F
100
AcDbEntity
  8
LC-001-100-D00-0
 62
     7
370
    50
100
AcDbLine
 10
297.670502
 20
239.599498
 30
0.0
 11
297.670502
 21
240.099498
 31
0.0
  0
LINE
  5
3C6
330
1F
100
AcDbEntity
  8
LC-001-100-D00-0
 62
     7
370
    50
100
AcDbLine
 10
343.670502
 20
239.599498
 30
0.0
 11
343.670502
 21
240.099498
 31
0.0
  0
LINE
  5
3C7
330
1F
100
AcDbEntity
  8
LC-001-100-D00-0
 62
     7
370
    50
100
AcDbLine
 10
343.670502
 20
240.099498
 30
0.0
 11
297.670502
 21
240.099498
 31
0.0
  0
LINE
  5
3C8
330
1F
100
AcDbEntity
  8
LC-001-100-D00-0
 62
     7
370
    50
100
AcDbLine
 10
343.670502
 20
239.599498
 30
0.0
 11
297.670502
 21
239.599498
 31
0.0
  0
LINE
  5
3C9
330
1F
100
AcDbEntity
  8
LC-001-100-D00-0
 62
     7
370
    50
100
AcDbLine
 10
-48.329498
 20
240.099498
 30
0.0
 11
-48.329498
 21
239.599498
 31
0.0
  0
LINE
  5
3CA
330
1F
100
AcDbEntity
  8
LC-001-100-D00-0
 62
     7
370
    50
100
AcDbLine
 10
-2.329498
 20
240.099498
 30
0.0
 11
-2.329498
 21
239.599498
 31
0.0
  0
LINE
  5
3CB
330
1F
100
AcDbEntity
  8
LC-001-100-D00-0
 62
     7
370
    50
100
AcDbLine
 10
-2.329498
 20
240.099498
 30
0.0
 11
-48.329498
 21
240.099498
 31
0.0
  0
LINE
  5
3CC
330
1F
100
AcDbEntity
  8
LC-001-100-D00-0
 62
     7
370
    50
100
AcDbLine
 10
-2.329498
 20
239.599498
 30
0.0
 11
-48.329498
 21
239.599498
 31
0.0
  0
LINE
  5
3CD
330
1F
100
AcDbEntity
  8
LC-001-100-D00-0
 62
     7
370
    50
100
AcDbLine
 10
297.670502
 20
240.099498
 30
0.0
 11
295.670502
 21
240.099498
 31
0.0
  0
LINE
  5
3CE
330
1F
100
AcDbEntity
  8
LC-001-100-D00-0
 62
     7
370
    50
100
AcDbLine
 10
-0.329498
 20
240.099498
 30
0.0
 11
-2.329498
 21
240.099498
 31
0.0
  0
LINE
  5
3CF
330
1F
100
AcDbEntity
  8
LC-001-100-D00-0
 62
     7
370
    50
100
AcDbLine
 10
297.205196
 20
239.599498
 30
0.0
 11
295.670502
 21
239.599498
 31
0.0
  0
LINE
  5
3D0
330
1F
100
AcDbEntity
  8
LC-001-100-D00-0
 62
     7
370
    50
100
AcDbLine
 10
-0.329498
 20
239.599498
 30
0.0
 11
-1.864193
 21
239.599498
 31
0.0
  0
LINE
  5
3D1
330
1F
100
AcDbEntity
  8
LC-001-100-D00-0
 62
     7
370
    50
100
AcDbLine
 10
34.021355
 20
220.799498
 30
0.0
 11
32.420502
 21
220.799498
 31
0.0
  0
LINE
  5
3D2
330
1F
100
AcDbEntity
  8
LC-001-100-D00-0
 62
     7
370
    50
100
AcDbLine
 10
32.420502
 20
220.799498
 30
0.0
 11
32.420502
 21
223.599498
 31
0.0
  0
LINE
  5
3D3
330
1F
100
AcDbEntity
  8
LC-001-100-D00-0
 62
     7
370
    50
100
AcDbLine
 10
34.021355
 20
223.599498
 30
0.0
 11
32.420502
 21
223.599498
 31
0.0
  0
LINE
  5
3D4
330
1F
100
AcDbEntity
  8
LC-001-100-D00-0
 62
     7
370
    50
100
AcDbLine
 10
34.021355
 20
225.099498
 30
0.0
 11
34.021355
 21
223.599498
 31
0.0
  0
LINE
  5
3D5
330
1F
100
AcDbEntity
  8
LC-001-100-D00-0
 62
     7
370
    50
100
AcDbLine
 10
34.021355
 20
225.099498
 30
0.0
 11
31.670502
 21
225.099498
 31
0.0
  0
LINE
  5
3D6
330
1F
100
AcDbEntity
  8
LC-001-100-D00-0
 62
     7
370
    50
100
AcDbLine
 10
31.670502
 20
225.099498
 30
0.0
 11
31.670502
 21
239.099498
 31
0.0
  0
LINE
  5
3D7
330
1F
100
AcDbEntity
  8
LC-001-100-D00-0
 62
     7
370
    50
100
AcDbLine
 10
30.670502
 20
240.099498
 30
0.0
 11
31.670502
 21
239.099498
 31
0.0
  0
LINE
  5
3D8
330
1F
100
AcDbEntity
  8
LC-001-100-D00-0
 62
     7
370
    50
100
AcDbLine
 10
30.670502
 20
240.099498
 30
0.0
 11
24.670502
 21
240.099498
 31
0.0
  0
LINE
  5
3D9
330
1F
100
AcDbEntity
  8
LC-001-100-D00-0
 62
     7
370
    50
100
AcDbLine
 10
23.670502
 20
239.099498
 30
0.0
 11
24.670502
 21
240.099498
 31
0.0
  0
LINE
  5
3DA
330
1F
100
AcDbEntity
  8
LC-001-100-D00-0
 62
     7
370
    50
100
AcDbLine
 10
23.670502
 20
239.099498
 30
0.0
 11
23.670502
 21
225.099498
 31
0.0
  0
LINE
  5
3DB
330
1F
100
AcDbEntity
  8
LC-001-100-D00-0
 62
     7
370
    50
100
AcDbLine
 10
23.670502
 20
225.099498
 30
0.0
 11
21.319649
 21
225.099498
 31
0.0
  0
LINE
  5
3DC
330
1F
100
AcDbEntity
  8
LC-001-100-D00-0
 62
     7
370
    50
100
AcDbLine
 10
21.319649
 20
225.099498
 30
0.0
 11
21.319649
 21
223.599498
 31
0.0
  0
LINE
  5
3DD
330
1F
100
AcDbEntity
  8
LC-001-100-D00-0
 62
     7
370
    50
100
AcDbLine
 10
22.920502
 20
223.599498
 30
0.0
 11
21.319649
 21
223.599498
 31
0.0
  0
LINE
  5
3DE
330
1F
100
AcDbEntity
  8
LC-001-100-D00-0
 62
     7
370
    50
100
AcDbLine
 10
22.920502
 20
223.599498
 30
0.0
 11
22.920502
 21
220.799498
 31
0.0
  0
LINE
  5
3DF
330
1F
100
AcDbEntity
  8
LC-001-100-D00-0
 62
     7
370
    50
100
AcDbLine
 10
22.920502
 20
220.799498
 30
0.0
 11
21.319649
 21
220.799498
 31
0.0
  0
LINE
  5
3E0
330
1F
100
AcDbEntity
  8
LC-001-100-D00-0
 62
     7
370
    50
100
AcDbLine
 10
21.319649
 20
220.799498
 30
0.0
 11
21.319649
 21
218.599498
 31
0.0
  0
LINE
  5
3E1
330
1F
100
AcDbEntity
  8
LC-001-100-D00-0
 62
     7
370
    50
100
AcDbLine
 10
34.021355
 20
218.599498
 30
0.0
 11
21.319649
 21
218.599498
 31
0.0
  0
LINE
  5
3E2
330
1F
100
AcDbEntity
  8
LC-001-100-D00-0
 62
     7
370
    50
100
AcDbLine
 10
34.021355
 20
220.799498
 30
0.0
 11
34.021355
 21
218.599498
 31
0.0
  0
LINE
  5
3E3
330
1F
100
AcDbEntity
  8
LC-001-100-D00-0
 62
     7
370
    50
100
AcDbLine
 10
274.021355
 20
220.799498
 30
0.0
 11
272.420502
 21
220.799498
 31
0.0
  0
LINE
  5
3E4
330
1F
100
AcDbEntity
  8
LC-001-100-D00-0
 62
     7
370
    50
100
AcDbLine
 10
272.420502
 20
220.799498
 30
0.0
 11
272.420502
 21
223.599498
 31
0.0
  0
LINE
  5
3E5
330
1F
100
AcDbEntity
  8
LC-001-100-D00-0
 62
     7
370
    50
100
AcDbLine
 10
274.021355
 20
223.599498
 30
0.0
 11
272.420502
 21
223.599498
 31
0.0
  0
LINE
  5
3E6
330
1F
100
AcDbEntity
  8
LC-001-100-D00-0
 62
     7
370
    50
100
AcDbLine
 10
274.021355
 20
225.099498
 30
0.0
 11
274.021355
 21
223.599498
 31
0.0
  0
LINE
  5
3E7
330
1F
100
AcDbEntity
  8
LC-001-100-D00-0
 62
     7
370
    50
100
AcDbLine
 10
274.021355
 20
225.099498
 30
0.0
 11
271.670502
 21
225.099498
 31
0.0
  0
LINE
  5
3E8
330
1F
100
AcDbEntity
  8
LC-001-100-D00-0
 62
     7
370
    50
100
AcDbLine
 10
271.670502
 20
225.099498
 30
0.0
 11
271.670502
 21
239.099498
 31
0.0
  0
LINE
  5
3E9
330
1F
100
AcDbEntity
  8
LC-001-100-D00-0
 62
     7
370
    50
100
AcDbLine
 10
270.670502
 20
240.099498
 30
0.0
 11
271.670502
 21
239.099498
 31
0.0
  0
LINE
  5
3EA
330
1F
100
AcDbEntity
  8
LC-001-100-D00-0
 62
     7
370
    50
100
AcDbLine
 10
270.670502
 20
240.099498
 30
0.0
 11
264.670502
 21
240.099498
 31
0.0
  0
LINE
  5
3EB
330
1F
100
AcDbEntity
  8
LC-001-100-D00-0
 62
     7
370
    50
100
AcDbLine
 10
263.670502
 20
239.099498
 30
0.0
 11
264.670502
 21
240.099498
 31
0.0
  0
LINE
  5
3EC
330
1F
100
AcDbEntity
  8
LC-001-100-D00-0
 62
     7
370
    50
100
AcDbLine
 10
263.670502
 20
239.099498
 30
0.0
 11
263.670502
 21
225.099498
 31
0.0
  0
LINE
  5
3ED
330
1F
100
AcDbEntity
  8
LC-001-100-D00-0
 62
     7
370
    50
100
AcDbLine
 10
263.670502
 20
225.099498
 30
0.0
 11
261.319649
 21
225.099498
 31
0.0
  0
LINE
  5
3EE
330
1F
100
AcDbEntity
  8
LC-001-100-D00-0
 62
     7
370
    50
100
AcDbLine
 10
261.319649
 20
225.099498
 30
0.0
 11
261.319649
 21
223.599498
 31
0.0
  0
LINE
  5
3EF
330
1F
100
AcDbEntity
  8
LC-001-100-D00-0
 62
     7
370
    50
100
AcDbLine
 10
262.920502
 20
223.599498
 30
0.0
 11
261.319649
 21
223.599498
 31
0.0
  0
LINE
  5
3F0
330
1F
100
AcDbEntity
  8
LC-001-100-D00-0
 62
     7
370
    50
100
AcDbLine
 10
262.920502
 20
223.599498
 30
0.0
 11
262.920502
 21
220.799498
 31
0.0
  0
LINE
  5
3F1
330
1F
100
AcDbEntity
  8
LC-001-100-D00-0
 62
     7
370
    50
100
AcDbLine
 10
262.920502
 20
220.799498
 30
0.0
 11
261.319649
 21
220.799498
 31
0.0
  0
LINE
  5
3F2
330
1F
100
AcDbEntity
  8
LC-001-100-D00-0
 62
     7
370
    50
100
AcDbLine
 10
261.319649
 20
220.799498
 30
0.0
 11
261.319649
 21
218.599498
 31
0.0
  0
LINE
  5
3F3
330
1F
100
AcDbEntity
  8
LC-001-100-D00-0
 62
     7
370
    50
100
AcDbLine
 10
274.021355
 20
220.799498
 30
0.0
 11
274.021355
 21
218.599498
 31
0.0
  0
LINE
  5
3F4
330
1F
100
AcDbEntity
  8
LC-001-100-D00-0
 62
     7
370
    50
100
AcDbLine
 10
274.021355
 20
218.599498
 30
0.0
 11
261.319649
 21
218.599498
 31
0.0
  0
LINE
  5
3F5
330
1F
100
AcDbEntity
  8
LC-001-100-D00-0
 62
     7
370
    50
100
AcDbLine
 10
201.644743
 20
209.599498
 30
0.0
 11
201.644743
 21
212.599498
 31
0.0
  0
LINE
  5
3F6
330
1F
100
AcDbEntity
  8
LC-001-100-D00-0
 62
     7
370
    50
100
AcDbLine
 10
202.970502
 20
209.599498
 30
0.0
 11
201.644743
 21
209.599498
 31
0.0
  0
LINE
  5
3F7
330
1F
100
AcDbEntity
  8
LC-001-100-D00-0
 62
     7
370
    50
100
AcDbLine
 10
202.970502
 20
219.099498
 30
0.0
 11
202.970502
 21
209.599498
 31
0.0
  0
LINE
  5
3F8
330
1F
100
AcDbEntity
  8
LC-001-100-D00-0
 62
     7
370
    50
100
AcDbLine
 10
202.170502
 20
219.099498
 30
0.0
 11
202.970502
 21
219.099498
 31
0.0
  0
LINE
  5
3F9
330
1F
100
AcDbEntity
  8
LC-001-100-D00-0
 62
     7
370
    50
100
AcDbLine
 10
93.69626
 20
209.599498
 30
0.0
 11
93.69626
 21
212.599498
 31
0.0
  0
LINE
  5
3FA
330
1F
100
AcDbEntity
  8
LC-001-100-D00-0
 62
     7
370
    50
100
AcDbLine
 10
92.370502
 20
219.099498
 30
0.0
 11
93.170502
 21
219.099498
 31
0.0
  0
LINE
  5
3FB
330
1F
100
AcDbEntity
  8
LC-001-100-D00-0
 62
     7
370
    50
100
AcDbLine
 10
92.370502
 20
209.599498
 30
0.0
 11
92.370502
 21
219.099498
 31
0.0
  0
LINE
  5
3FC
330
1F
100
AcDbEntity
  8
LC-001-100-D00-0
 62
     7
370
    50
100
AcDbLine
 10
92.370502
 20
209.599498
 30
0.0
 11
93.69626
 21
209.599498
 31
0.0
  0
LINE
  5
3FD
330
1F
100
AcDbEntity
  8
LC-001-100-D00-0
 62
     7
370
    50
100
AcDbLine
 10
93.170502
 20
220.099498
 30
0.0
 11
92.102553
 21
220.099498
 31
0.0
  0
LINE
  5
3FE
330
1F
100
AcDbEntity
  8
LC-001-100-D00-0
 62
     7
370
    50
100
AcDbLine
 10
92.102553
 20
220.099498
 30
0.0
 11
92.370502
 21
219.099498
 31
0.0
  0
LINE
  5
3FF
330
1F
100
AcDbEntity
  8
LC-001-100-D00-0
 62
     7
370
    50
100
AcDbLine
 10
203.238451
 20
220.099498
 30
0.0
 11
202.170502
 21
220.099498
 31
0.0
  0
LINE
  5
400
330
1F
100
AcDbEntity
  8
LC-001-100-D00-0
 62
     7
370
    50
100
AcDbLine
 10
202.970502
 20
219.099498
 30
0.0
 11
203.238451
 21
220.099498
 31
0.0
  0
LINE
  5
401
330
1F
100
AcDbEntity
  8
LC-001-100-D00-0
 62
     7
370
    50
100
AcDbLine
 10
74.170502
 20
216.099498
 30
0.0
 11
74.170502
 21
208.099498
 31
0.0
  0
LINE
  5
402
330
1F
100
AcDbEntity
  8
LC-001-100-D00-0
 62
     7
370
    50
100
AcDbLine
 10
221.170502
 20
208.099498
 30
0.0
 11
221.170502
 21
216.099498
 31
0.0
  0
LINE
  5
403
330
1F
100
AcDbEntity
  8
LC-001-100-D00-0
 62
     7
370
    50
100
AcDbLine
 10
238.614731
 20
225.099498
 30
0.0
 11
261.319649
 21
225.099498
 31
0.0
  0
ARC
  5
404
330
1F
100
AcDbEntity
  8
LC-001-100-D00-0
 62
     7
370
    50
100
AcDbCircle
 10
238.614731
 20
221.099498
 30
0.0
 40
4.0
100
AcDbArc
 50
90.0
 51
115.0
  0
LINE
  5
405
330
1F
100
AcDbEntity
  8
LC-001-100-D00-0
 62
     7
370
    50
100
AcDbLine
 10
227.005418
 20
220.099498
 30
0.0
 11
236.924258
 21
224.724729
 31
0.0
  0
LINE
  5
406
330
1F
100
AcDbEntity
  8
LC-001-100-D00-0
 62
     7
370
    50
100
AcDbLine
 10
207.170502
 20
209.599498
 30
0.0
 11
202.970502
 21
209.599498
 31
0.0
  0
LINE
  5
407
330
1F
100
AcDbEntity
  8
LC-001-100-D00-0
 62
     7
370
    50
100
AcDbLine
 10
207.170502
 20
217.099498
 30
0.0
 11
207.170502
 21
209.599498
 31
0.0
  0
LINE
  5
408
330
1F
100
AcDbEntity
  8
LC-001-100-D00-0
 62
     7
370
    50
100
AcDbLine
 10
217.170502
 20
217.099498
 30
0.0
 11
207.170502
 21
217.099498
 31
0.0
  0
ARC
  5
409
330
1F
100
AcDbEntity
  8
LC-001-100-D00-0
 62
     7
370
    50
100
AcDbCircle
 10
217.170502
 20
216.099498
 30
0.0
 40
1.0
100
AcDbArc
 50
0.0
 51
90.0
  0
LINE
  5
40A
330
1F
100
AcDbEntity
  8
LC-001-100-D00-0
 62
     7
370
    50
100
AcDbLine
 10
218.170502
 20
208.099498
 30
0.0
 11
218.170502
 21
216.099498
 31
0.0
  0
LINE
  5
40B
330
1F
100
AcDbEntity
  8
LC-001-100-D00-0
 62
     7
370
    50
100
AcDbLine
 10
221.170502
 20
208.099498
 30
0.0
 11
218.170502
 21
208.099498
 31
0.0
  0
ARC
  5
40C
330
1F
100
AcDbEntity
  8
LC-001-100-D00-0
 62
     7
370
    50
100
AcDbCircle
 10
222.170502
 20
216.099498
 30
0.0
 40
1.000000000000057
100
AcDbArc
 50
90.0
 51
180.0
  0
LINE
  5
40D
330
1F
100
AcDbEntity
  8
LC-001-100-D00-0
 62
     7
370
    50
100
AcDbLine
 10
227.670502
 20
217.099498
 30
0.0
 11
222.170502
 21
217.099498
 31
0.0
  0
LINE
  5
40E
330
1F
100
AcDbEntity
  8
LC-001-100-D00-0
 62
     7
370
    50
100
AcDbLine
 10
227.670502
 20
217.099498
 30
0.0
 11
238.192113
 21
222.005806
 31
0.0
  0
ARC
  5
40F
330
1F
100
AcDbEntity
  8
LC-001-100-D00-0
 62
     7
370
    50
100
AcDbCircle
 10
238.614731
 20
221.099498
 30
0.0
 40
1.0
100
AcDbArc
 50
90.0
 51
115.0
  0
LINE
  5
410
330
1F
100
AcDbEntity
  8
LC-001-100-D00-0
 62
     7
370
    50
100
AcDbLine
 10
238.614731
 20
222.099498
 30
0.0
 11
257.920502
 21
222.099498
 31
0.0
  0
LINE
  5
411
330
1F
100
AcDbEntity
  8
LC-001-100-D00-0
 62
     7
370
    50
100
AcDbLine
 10
257.920502
 20
222.099498
 30
0.0
 11
257.920502
 21
217.099498
 31
0.0
  0
LINE
  5
412
330
1F
100
AcDbEntity
  8
LC-001-100-D00-0
 62
     7
370
    50
100
AcDbLine
 10
259.920502
 20
215.099498
 30
0.0
 11
257.920502
 21
217.099498
 31
0.0
  0
LINE
  5
413
330
1F
100
AcDbEntity
  8
LC-001-100-D00-0
 62
     7
370
    50
100
AcDbLine
 10
275.420502
 20
215.099498
 30
0.0
 11
259.920502
 21
215.099498
 31
0.0
  0
LINE
  5
414
330
1F
100
AcDbEntity
  8
LC-001-100-D00-0
 62
     7
370
    50
100
AcDbLine
 10
277.420502
 20
217.099498
 30
0.0
 11
275.420502
 21
215.099498
 31
0.0
  0
LINE
  5
415
330
1F
100
AcDbEntity
  8
LC-001-100-D00-0
 62
     7
370
    50
100
AcDbLine
 10
277.420502
 20
217.099498
 30
0.0
 11
277.420502
 21
222.099498
 31
0.0
  0
LINE
  5
416
330
1F
100
AcDbEntity
  8
LC-001-100-D00-0
 62
     7
370
    50
100
AcDbLine
 10
277.420502
 20
222.099498
 30
0.0
 11
296.670502
 21
222.099498
 31
0.0
  0
ARC
  5
417
330
1F
100
AcDbEntity
  8
LC-001-100-D00-0
 62
     7
370
    50
100
AcDbCircle
 10
296.670502
 20
226.099498
 30
0.0
 40
4.0
100
AcDbArc
 50
270.0
 51
0.0
  0
LINE
  5
418
330
1F
100
AcDbEntity
  8
LC-001-100-D00-0
 62
     7
370
    50
100
AcDbLine
 10
300.670502
 20
235.599498
 30
0.0
 11
300.670502
 21
226.099498
 31
0.0
  0
ARC
  5
419
330
1F
100
AcDbEntity
  8
LC-001-100-D00-0
 62
     7
370
    50
100
AcDbCircle
 10
302.170502
 20
235.599498
 30
0.0
 40
1.5
100
AcDbArc
 50
90.0
 51
180.0
  0
LINE
  5
41A
330
1F
100
AcDbEntity
  8
LC-001-100-D00-0
 62
     7
370
    50
100
AcDbLine
 10
349.262412
 20
237.099498
 30
0.0
 11
302.170502
 21
237.099498
 31
0.0
  0
LINE
  5
41B
330
1F
100
AcDbEntity
  8
LC-001-100-D00-0
 62
     7
370
    50
100
AcDbLine
 10
349.262412
 20
237.099498
 30
0.0
 11
348.170502
 21
240.099498
 31
0.0
  0
LINE
  5
41C
330
1F
100
AcDbEntity
  8
LC-001-100-D00-0
 62
     7
370
    50
100
AcDbLine
 10
348.170502
 20
240.099498
 30
0.0
 11
343.670502
 21
240.099498
 31
0.0
  0
LINE
  5
41D
330
1F
100
AcDbEntity
  8
LC-001-100-D00-0
 62
     7
370
    50
100
AcDbLine
 10
343.670502
 20
239.599498
 30
0.0
 11
297.804476
 21
239.599498
 31
0.0
  0
ARC
  5
41E
330
1F
100
AcDbEntity
  8
LC-001-100-D00-0
 62
     7
370
    50
100
AcDbCircle
 10
298.670502
 20
239.099498
 30
0.0
 40
1.000000000000033
100
AcDbArc
 50
150.0
 51
180.0
  0
LINE
  5
41F
330
1F
100
AcDbEntity
  8
LC-001-100-D00-0
 62
     7
370
    50
100
AcDbLine
 10
297.670502
 20
239.099498
 30
0.0
 11
297.670502
 21
226.099498
 31
0.0
  0
ARC
  5
420
330
1F
100
AcDbEntity
  8
LC-001-100-D00-0
 62
     7
370
    50
100
AcDbCircle
 10
296.670502
 20
226.099498
 30
0.0
 40
1.0
100
AcDbArc
 50
270.0
 51
0.0
  0
LINE
  5
421
330
1F
100
AcDbEntity
  8
LC-001-100-D00-0
 62
     7
370
    50
100
AcDbLine
 10
274.021355
 20
225.099498
 30
0.0
 11
296.670502
 21
225.099498
 31
0.0
  0
LINE
  5
422
330
1F
100
AcDbEntity
  8
LC-001-100-D00-0
 62
     7
370
    50
100
AcDbLine
 10
274.021355
 20
225.099498
 30
0.0
 11
274.021355
 21
218.599498
 31
0.0
  0
LINE
  5
423
330
1F
100
AcDbEntity
  8
LC-001-100-D00-0
 62
     7
370
    50
100
AcDbLine
 10
261.319649
 20
218.599498
 30
0.0
 11
261.319649
 21
225.099498
 31
0.0
  0
LINE
  5
424
330
1F
100
AcDbEntity
  8
LC-001-100-D00-0
 62
     7
370
    50
100
AcDbLine
 10
227.005418
 20
220.099498
 30
0.0
 11
203.238451
 21
220.099498
 31
0.0
  0
LINE
  5
425
330
1F
100
AcDbEntity
  8
LC-001-100-D00-0
 62
     7
370
    50
100
AcDbLine
 10
-1.329498
 20
225.099498
 30
0.0
 11
21.319649
 21
225.099498
 31
0.0
  0
ARC
  5
426
330
1F
100
AcDbEntity
  8
LC-001-100-D00-0
 62
     7
370
    50
100
AcDbCircle
 10
-1.329498
 20
226.099498
 30
0.0
 40
1.0
100
AcDbArc
 50
180.0
 51
270.0
  0
LINE
  5
427
330
1F
100
AcDbEntity
  8
LC-001-100-D00-0
 62
     7
370
    50
100
AcDbLine
 10
-2.329498
 20
226.099498
 30
0.0
 11
-2.329498
 21
239.099498
 31
0.0
  0
ARC
  5
428
330
1F
100
AcDbEntity
  8
LC-001-100-D00-0
 62
     7
370
    50
100
AcDbCircle
 10
-3.329498
 20
239.099498
 30
0.0
 40
1.0
100
AcDbArc
 50
0.0
 51
30.0
  0
LINE
  5
429
330
1F
100
AcDbEntity
  8
LC-001-100-D00-0
 62
     7
370
    50
100
AcDbLine
 10
-2.463473
 20
239.599498
 30
0.0
 11
-48.329498
 21
239.599498
 31
0.0
  0
LINE
  5
42A
330
1F
100
AcDbEntity
  8
LC-001-100-D00-0
 62
     7
370
    50
100
AcDbLine
 10
-48.329498
 20
240.099498
 30
0.0
 11
-52.829498
 21
240.099498
 31
0.0
  0
LINE
  5
42B
330
1F
100
AcDbEntity
  8
LC-001-100-D00-0
 62
     7
370
    50
100
AcDbLine
 10
-52.829498
 20
240.099498
 30
0.0
 11
-53.921409
 21
237.099498
 31
0.0
  0
LINE
  5
42C
330
1F
100
AcDbEntity
  8
LC-001-100-D00-0
 62
     7
370
    50
100
AcDbLine
 10
-6.829498
 20
237.099498
 30
0.0
 11
-53.921409
 21
237.099498
 31
0.0
  0
ARC
  5
42D
330
1F
100
AcDbEntity
  8
LC-001-100-D00-0
 62
     7
370
    50
100
AcDbCircle
 10
-6.829498
 20
235.599498
 30
0.0
 40
1.5
100
AcDbArc
 50
0.0
 51
90.0
  0
LINE
  5
42E
330
1F
100
AcDbEntity
  8
LC-001-100-D00-0
 62
     7
370
    50
100
AcDbLine
 10
-5.329498
 20
226.099498
 30
0.0
 11
-5.329498
 21
235.599498
 31
0.0
  0
ARC
  5
42F
330
1F
100
AcDbEntity
  8
LC-001-100-D00-0
 62
     7
370
    50
100
AcDbCircle
 10
-1.329498
 20
226.099498
 30
0.0
 40
4.0
100
AcDbArc
 50
180.0
 51
270.0
  0
LINE
  5
430
330
1F
100
AcDbEntity
  8
LC-001-100-D00-0
 62
     7
370
    50
100
AcDbLine
 10
-1.329498
 20
222.099498
 30
0.0
 11
17.920502
 21
222.099498
 31
0.0
  0
LINE
  5
431
330
1F
100
AcDbEntity
  8
LC-001-100-D00-0
 62
     7
370
    50
100
AcDbLine
 10
17.920502
 20
217.099498
 30
0.0
 11
17.920502
 21
222.099498
 31
0.0
  0
LINE
  5
432
330
1F
100
AcDbEntity
  8
LC-001-100-D00-0
 62
     7
370
    50
100
AcDbLine
 10
19.920502
 20
215.099498
 30
0.0
 11
17.920502
 21
217.099498
 31
0.0
  0
LINE
  5
433
330
1F
100
AcDbEntity
  8
LC-001-100-D00-0
 62
     7
370
    50
100
AcDbLine
 10
35.420502
 20
215.099498
 30
0.0
 11
19.920502
 21
215.099498
 31
0.0
  0
LINE
  5
434
330
1F
100
AcDbEntity
  8
LC-001-100-D00-0
 62
     7
370
    50
100
AcDbLine
 10
37.420502
 20
217.099498
 30
0.0
 11
35.420502
 21
215.099498
 31
0.0
  0
LINE
  5
435
330
1F
100
AcDbEntity
  8
LC-001-100-D00-0
 62
     7
370
    50
100
AcDbLine
 10
37.420502
 20
222.099498
 30
0.0
 11
37.420502
 21
217.099498
 31
0.0
  0
LINE
  5
436
330
1F
100
AcDbEntity
  8
LC-001-100-D00-0
 62
     7
370
    50
100
AcDbLine
 10
37.420502
 20
222.099498
 30
0.0
 11
56.726272
 21
222.099498
 31
0.0
  0
ARC
  5
437
330
1F
100
AcDbEntity
  8
LC-001-100-D00-0
 62
     7
370
    50
100
AcDbCircle
 10
56.726272
 20
221.099498
 30
0.0
 40
1.000000000000012
100
AcDbArc
 50
65.0
 51
90.0
  0
LINE
  5
438
330
1F
100
AcDbEntity
  8
LC-001-100-D00-0
 62
     7
370
    50
100
AcDbLine
 10
57.148891
 20
222.005806
 30
0.0
 11
67.670502
 21
217.099498
 31
0.0
  0
LINE
  5
439
330
1F
100
AcDbEntity
  8
LC-001-100-D00-0
 62
     7
370
    50
100
AcDbLine
 10
73.170502
 20
217.099498
 30
0.0
 11
67.670502
 21
217.099498
 31
0.0
  0
ARC
  5
43A
330
1F
100
AcDbEntity
  8
LC-001-100-D00-0
 62
     7
370
    50
100
AcDbCircle
 10
73.170502
 20
216.099498
 30
0.0
 40
1.0
100
AcDbArc
 50
0.0
 51
90.0
  0
LINE
  5
43B
330
1F
100
AcDbEntity
  8
LC-001-100-D00-0
 62
     7
370
    50
100
AcDbLine
 10
77.170502
 20
208.099498
 30
0.0
 11
74.170502
 21
208.099498
 31
0.0
  0
LINE
  5
43C
330
1F
100
AcDbEntity
  8
LC-001-100-D00-0
 62
     7
370
    50
100
AcDbLine
 10
77.170502
 20
216.099498
 30
0.0
 11
77.170502
 21
208.099498
 31
0.0
  0
ARC
  5
43D
330
1F
100
AcDbEntity
  8
LC-001-100-D00-0
 62
     7
370
    50
100
AcDbCircle
 10
78.170502
 20
216.099498
 30
0.0
 40
1.0
100
AcDbArc
 50
90.0
 51
180.0
  0
LINE
  5
43E
330
1F
100
AcDbEntity
  8
LC-001-100-D00-0
 62
     7
370
    50
100
AcDbLine
 10
88.170502
 20
217.099498
 30
0.0
 11
78.170502
 21
217.099498
 31
0.0
  0
LINE
  5
43F
330
1F
100
AcDbEntity
  8
LC-001-100-D00-0
 62
     7
370
    50
100
AcDbLine
 10
88.170502
 20
209.599498
 30
0.0
 11
88.170502
 21
217.099498
 31
0.0
  0
LINE
  5
440
330
1F
100
AcDbEntity
  8
LC-001-100-D00-0
 62
     7
370
    50
100
AcDbLine
 10
92.370502
 20
209.599498
 30
0.0
 11
88.170502
 21
209.599498
 31
0.0
  0
LINE
  5
441
330
1F
100
AcDbEntity
  8
LC-001-100-D00-0
 62
     7
370
    50
100
AcDbLine
 10
58.416745
 20
224.724729
 30
0.0
 11
68.335586
 21
220.099498
 31
0.0
  0
ARC
  5
442
330
1F
100
AcDbEntity
  8
LC-001-100-D00-0
 62
     7
370
    50
100
AcDbCircle
 10
56.726272
 20
221.099498
 30
0.0
 40
4.0
100
AcDbArc
 50
65.0
 51
90.0
  0
LINE
  5
443
330
1F
100
AcDbEntity
  8
LC-001-100-D00-0
 62
     7
370
    50
100
AcDbLine
 10
34.021355
 20
225.099498
 30
0.0
 11
56.726272
 21
225.099498
 31
0.0
  0
LINE
  5
444
330
1F
100
AcDbEntity
  8
LC-001-100-D00-0
 62
     7
370
    50
100
AcDbLine
 10
34.021355
 20
218.599498
 30
0.0
 11
34.021355
 21
225.099498
 31
0.0
  0
LINE
  5
445
330
1F
100
AcDbEntity
  8
LC-001-100-D00-0
 62
     7
370
    50
100
AcDbLine
 10
21.319649
 20
225.099498
 30
0.0
 11
21.319649
 21
218.599498
 31
0.0
  0
LINE
  5
446
330
1F
100
AcDbEntity
  8
LC-001-100-D00-0
 62
     7
370
    50
100
AcDbLine
 10
92.102553
 20
220.099498
 30
0.0
 11
68.335586
 21
220.099498
 31
0.0
  0
LINE
  5
447
330
1F
100
AcDbEntity
  8
LC-001-100-D00-0
 62
     7
370
    50
100
AcDbLine
 10
201.270502
 20
208.099498
 30
0.0
 11
218.170502
 21
208.099498
 31
0.0
  0
LINE
  5
448
330
1F
100
AcDbEntity
  8
LC-001-100-D00-0
 62
     7
370
    50
100
AcDbLine
 10
77.170502
 20
208.099498
 30
0.0
 11
94.070502
 21
208.099498
 31
0.0
  0
LINE
  5
449
330
1F
100
AcDbEntity
  8
LC-001-100-D00-0
 62
     7
370
    50
100
AcDbLine
 10
362.670502
 20
240.099498
 30
0.0
 11
356.170502
 21
240.099498
 31
0.0
  0
LINE
  5
44A
330
1F
100
AcDbEntity
  8
LC-001-100-D00-0
 62
     7
370
    50
100
AcDbLine
 10
356.170502
 20
240.099498
 30
0.0
 11
355.078591
 21
237.099498
 31
0.0
  0
LINE
  5
44B
330
1F
100
AcDbEntity
  8
LC-001-100-D00-0
 62
     7
370
    50
100
AcDbLine
 10
362.670502
 20
237.099498
 30
0.0
 11
355.078591
 21
237.099498
 31
0.0
  0
LINE
  5
44C
330
1F
100
AcDbEntity
  8
LC-001-100-D00-0
 62
     7
370
    50
100
AcDbLine
 10
362.670502
 20
240.099498
 30
0.0
 11
362.670502
 21
237.099498
 31
0.0
  0
LINE
  5
44D
330
1F
100
AcDbEntity
  8
LC-001-100-D00-0
 62
     7
370
    50
100
AcDbLine
 10
-60.829498
 20
240.099498
 30
0.0
 11
-67.329498
 21
240.099498
 31
0.0
  0
LINE
  5
44E
330
1F
100
AcDbEntity
  8
LC-001-100-D00-0
 62
     7
370
    50
100
AcDbLine
 10
-59.737588
 20
237.099498
 30
0.0
 11
-60.829498
 21
240.099498
 31
0.0
  0
LINE
  5
44F
330
1F
100
AcDbEntity
  8
LC-001-100-D00-0
 62
     7
370
    50
100
AcDbLine
 10
-67.329498
 20
237.099498
 30
0.0
 11
-67.329498
 21
240.099498
 31
0.0
  0
LINE
  5
450
330
1F
100
AcDbEntity
  8
LC-001-100-D00-0
 62
     7
370
    50
100
AcDbLine
 10
-59.737588
 20
237.099498
 30
0.0
 11
-67.329498
 21
237.099498
 31
0.0
  0
LINE
  5
451
330
1F
100
AcDbEntity
  8
LC-001-100-D00-0
 62
     7
370
    50
100
AcDbLine
 10
93.69626
 20
209.599498
 30
0.0
 11
94.070502
 21
209.599498
 31
0.0
  0
LINE
  5
452
330
1F
100
AcDbEntity
  8
LC-001-100-D00-0
 62
     7
370
    50
100
AcDbLine
 10
195.461301
 20
212.599498
 30
0.0
 11
182.480236
 21
212.599498
 31
0.0
  0
LINE
  5
453
330
1F
100
AcDbEntity
  8
LC-001-100-D00-0
 62
     7
370
    50
100
AcDbLine
 10
191.3975
 20
209.599498
 30
0.0
 11
182.480236
 21
209.599498
 31
0.0
  0
LINE
  5
454
330
1F
100
AcDbEntity
  8
LC-001-100-D00-0
 62
     7
370
    50
100
AcDbLine
 10
201.644743
 20
209.599498
 30
0.0
 11
201.270502
 21
209.599498
 31
0.0
  0
LINE
  5
455
330
1F
100
AcDbEntity
  8
LC-001-100-D00-0
 62
     7
370
    50
100
AcDbLine
 10
99.879702
 20
212.599498
 30
0.0
 11
112.860767
 21
212.599498
 31
0.0
  0
LINE
  5
456
330
1F
100
AcDbEntity
  8
LC-001-100-D00-0
 62
     7
370
    50
100
AcDbLine
 10
103.943503
 20
209.599498
 30
0.0
 11
112.860767
 21
209.599498
 31
0.0
  0
LINE
  5
457
330
1F
100
AcDbEntity
  8
LC-001-100-D00-0
 62
     7
370
    50
100
AcDbLine
 10
300.670502
 20
223.88117
 30
0.0
 11
300.670502
 21
225.836337
 31
0.0
  0
LINE
  5
458
330
1F
100
AcDbEntity
  8
LC-001-100-D00-0
 62
     7
370
    50
100
AcDbLine
 10
-5.329498
 20
223.88117
 30
0.0
 11
-5.329498
 21
225.836337
 31
0.0
  0
LINE
  5
459
330
1F
100
AcDbEntity
  8
LC-001-100-D00-0
 62
     7
370
    50
100
AcDbLine
 10
348.170502
 20
240.099498
 30
0.0
 11
356.170502
 21
240.099498
 31
0.0
  0
LINE
  5
45A
330
1F
100
AcDbEntity
  8
LC-001-100-D00-0
 62
     7
370
    50
100
AcDbLine
 10
349.262412
 20
237.099498
 30
0.0
 11
355.078591
 21
237.099498
 31
0.0
  0
LINE
  5
45B
330
1F
100
AcDbEntity
  8
LC-001-100-D00-0
 62
     7
370
    50
100
AcDbLine
 10
-60.829498
 20
240.099498
 30
0.0
 11
-52.829498
 21
240.099498
 31
0.0
  0
LINE
  5
45C
330
1F
100
AcDbEntity
  8
LC-001-100-D00-0
 62
     7
370
    50
100
AcDbLine
 10
-59.737588
 20
237.099498
 30
0.0
 11
-53.921409
 21
237.099498
 31
0.0
  0
INSERT
  5
468
330
1F
100
AcDbEntity
  8
LC-001-100-D00-0
 62
     7
370
    50
100
AcDbBlockReference
  2
POLY21
 10
0.0
 20
0.0
 30
0.0
  0
INSERT
  5
474
330
1F
100
AcDbEntity
  8
LC-001-100-D00-0
 62
     7
370
    50
100
AcDbBlockReference
  2
POLY22
 10
0.0
 20
0.0
 30
0.0
  0
INSERT
  5
480
330
1F
100
AcDbEntity
  8
LC-001-100-D00-0
 62
     7
370
    50
100
AcDbBlockReference
  2
POLY23
 10
0.0
 20
0.0
 30
0.0
  0
INSERT
  5
48C
330
1F
100
AcDbEntity
  8
LC-001-100-D00-0
 62
     7
370
    50
100
AcDbBlockReference
  2
POLY24
 10
0.0
 20
0.0
 30
0.0
  0
ARC
  5
48D
330
1F
100
AcDbEntity
  8
LC-001-100-D00-0
 62
     7
370
    50
100
AcDbCircle
 10
-1.329498
 20
223.777434
 30
0.0
 40
4.0
100
AcDbArc
 50
180.0
 51
267.779919
  0
ARC
  5
48E
330
1F
100
AcDbEntity
  8
LC-001-100-D00-0
 62
     7
370
    50
100
AcDbCircle
 10
296.670502
 20
223.777434
 30
0.0
 40
4.000000000000002
100
AcDbArc
 50
272.220081
 51
0.0
  0
LINE
  5
48F
330
1F
100
AcDbEntity
  8
LC-001-100-D00-0
 62
     7
370
    50
100
AcDbLine
 10
181.670502
 20
212.599498
 30
0.0
 11
181.670502
 21
209.599498
 31
0.0
  0
LINE
  5
490
330
1F
100
AcDbEntity
  8
LC-001-100-D00-0
 62
     7
370
    50
100
AcDbLine
 10
182.480236
 20
212.599498
 30
0.0
 11
181.670502
 21
212.599498
 31
0.0
  0
LINE
  5
491
330
1F
100
AcDbEntity
  8
LC-001-100-D00-0
 62
     7
370
    50
100
AcDbLine
 10
181.670502
 20
209.599498
 30
0.0
 11
182.480236
 21
209.599498
 31
0.0
  0
LINE
  5
492
330
1F
100
AcDbEntity
  8
LC-001-100-D00-0
 62
     7
370
    50
100
AcDbLine
 10
113.670502
 20
209.599498
 30
0.0
 11
113.670502
 21
212.599498
 31
0.0
  0
LINE
  5
493
330
1F
100
AcDbEntity
  8
LC-001-100-D00-0
 62
     7
370
    50
100
AcDbLine
 10
113.670502
 20
212.599498
 30
0.0
 11
112.860767
 21
212.599498
 31
0.0
  0
LINE
  5
494
330
1F
100
AcDbEntity
  8
LC-001-100-D00-0
 62
     7
370
    50
100
AcDbLine
 10
112.860767
 20
209.599498
 30
0.0
 11
113.670502
 21
209.599498
 31
0.0
  0
LINE
  5
495
330
1F
100
AcDbEntity
  8
LC-001-100-D00-0
 62
     7
370
    50
100
AcDbLine
 10
227.606938
 20
220.379991
 30
0.0
 11
227.592997
 21
221.099498
 31
0.0
  0
LINE
  5
496
330
1F
100
AcDbEntity
  8
LC-001-100-D00-0
 62
     7
370
    50
100
AcDbLine
 10
67.734065
 20
220.379991
 30
0.0
 11
67.748007
 21
221.099498
 31
0.0
  0
LINE
  5
497
330
1F
100
AcDbEntity
  8
LC-001-100-D00-0
 62
     7
370
    50
100
AcDbLine
 10
297.670502
 20
239.599498
 30
0.0
 11
297.205196
 21
239.599498
 31
0.0
  0
LINE
  5
498
330
1F
100
AcDbEntity
  8
LC-001-100-D00-0
 62
     7
370
    50
100
AcDbLine
 10
-1.864193
 20
239.599498
 30
0.0
 11
-2.329498
 21
239.599498
 31
0.0
  0
LINE
  5
499
330
1F
100
AcDbEntity
  8
LC-001-100-D00-0
 62
     7
370
    50
100
AcDbLine
 10
105.975403
 20
208.099498
 30
0.0
 11
114.718068
 21
208.099498
 31
0.0
  0
LINE
  5
49A
330
1F
100
AcDbEntity
  8
LC-001-100-D00-0
 62
     7
370
    50
100
AcDbLine
 10
180.622935
 20
208.099498
 30
0.0
 11
189.3656
 21
208.099498
 31
0.0
  0
LINE
  5
49B
330
1F
100
AcDbEntity
  8
LC-001-100-D00-0
 62
     7
370
    50
100
AcDbLine
 10
221.170502
 20
156.599498
 30
0.0
 11
232.670502
 21
156.599498
 31
0.0
  0
LINE
  5
49C
330
1F
100
AcDbEntity
  8
LC-001-100-D00-0
 62
     7
370
    50
100
AcDbLine
 10
232.670502
 20
208.599498
 30
0.0
 11
221.170502
 21
208.599498
 31
0.0
  0
LINE
  5
49D
330
1F
100
AcDbEntity
  8
LC-001-100-D00-0
 62
     7
370
    50
100
AcDbLine
 10
221.170502
 20
208.599498
 30
0.0
 11
221.170502
 21
209.349498
 31
0.0
  0
INSERT
  5
4C3
330
1F
100
AcDbEntity
  8
LC-001-100-D00-0
 62
     7
370
    50
100
AcDbBlockReference
  2
POLY25
 10
0.0
 20
0.0
 30
0.0
  0
INSERT
  5
4E7
330
1F
100
AcDbEntity
  8
LC-001-100-D00-0
 62
     7
370
    50
100
AcDbBlockReference
  2
POLY26
 10
0.0
 20
0.0
 30
0.0
  0
LINE
  5
4E8
330
1F
100
AcDbEntity
  8
LC-001-100-D00-0
 62
     7
370
    50
100
AcDbLine
 10
221.170502
 20
159.599498
 30
0.0
 11
260.567687
 21
159.599498
 31
0.0
  0
LINE
  5
4E9
330
1F
100
AcDbEntity
  8
LC-001-100-D00-0
 62
     7
370
    50
100
AcDbLine
 10
260.567687
 20
205.599498
 30
0.0
 11
260.567687
 21
159.599498
 31
0.0
  0
LINE
  5
4EA
330
1F
100
AcDbEntity
  8
LC-001-100-D00-0
 62
     7
370
    50
100
AcDbLine
 10
260.567687
 20
205.599498
 30
0.0
 11
218.170502
 21
205.599498
 31
0.0
  0
LINE
  5
4EB
330
1F
100
AcDbEntity
  8
LC-001-100-D00-0
 62
     7
370
    50
100
AcDbLine
 10
201.270502
 20
209.349498
 30
0.0
 11
218.170502
 21
209.349498
 31
0.0
  0
INSERT
  5
4F7
330
1F
100
AcDbEntity
  8
LC-001-100-D00-0
 62
     7
370
    50
100
AcDbBlockReference
  2
POLY27
 10
0.0
 20
0.0
 30
0.0
  0
LINE
  5
4F8
330
1F
100
AcDbEntity
  8
LC-001-100-D00-0
 62
     7
370
    50
100
AcDbLine
 10
218.170502
 20
205.599498
 30
0.0
 11
218.170502
 21
209.349498
 31
0.0
  0
LINE
  5
4F9
330
1F
100
AcDbEntity
  8
LC-001-100-D00-0
 62
     7
370
    50
100
AcDbLine
 10
235.170299
 20
156.599498
 30
0.0
 11
235.170299
 21
155.099498
 31
0.0
  0
LINE
  5
4FA
330
1F
100
AcDbEntity
  8
LC-001-100-D00-0
 62
     7
370
    50
100
AcDbLine
 10
236.318097
 20
156.599498
 30
0.0
 11
235.170299
 21
156.599498
 31
0.0
  0
ARC
  5
4FB
330
1F
100
AcDbEntity
  8
LC-001-100-D00-0
 62
     7
370
    50
100
AcDbCircle
 10
250.569005
 20
182.543122
 30
0.0
 40
29.60000000000003
100
AcDbArc
 50
241.219879
 51
264.590047
  0
ARC
  5
4FC
330
1F
100
AcDbEntity
  8
LC-001-100-D00-0
 62
     7
370
    50
100
AcDbCircle
 10
250.569005
 20
182.543122
 30
0.0
 40
29.60000000000002
100
AcDbArc
 50
275.409953
 51
281.094235
  0
ARC
  5
4FD
330
1F
100
AcDbEntity
  8
LC-001-100-D00-0
 62
     7
370
    50
100
AcDbCircle
 10
256.168529
 20
153.9869
 30
0.0
 40
0.4999578796800461
100
AcDbArc
 50
281.094235
 51
0.0
  0
LINE
  5
4FE
330
1F
100
AcDbEntity
  8
LC-001-100-D00-0
 62
     7
370
    50
100
AcDbLine
 10
256.668487
 20
156.94954
 30
0.0
 11
256.668487
 21
153.9869
 31
0.0
  0
ARC
  5
4FF
330
1F
100
AcDbEntity
  8
LC-001-100-D00-0
 62
     7
370
    50
100
AcDbCircle
 10
257.168445
 20
156.94954
 30
0.0
 40
0.4999578796799824
100
AcDbArc
 50
90.0
 51
180.0
  0
LINE
  5
500
330
1F
100
AcDbEntity
  8
LC-001-100-D00-0
 62
     7
370
    50
100
AcDbLine
 10
260.66815
 20
157.449498
 30
0.0
 11
257.168445
 21
157.449498
 31
0.0
  0
ARC
  5
501
330
1F
100
AcDbEntity
  8
LC-001-100-D00-0
 62
     7
370
    50
100
AcDbCircle
 10
260.66815
 20
156.94954
 30
0.0
 40
0.4999578796799824
100
AcDbArc
 50
0.0
 51
90.0
  0
LINE
  5
502
330
1F
100
AcDbEntity
  8
LC-001-100-D00-0
 62
     7
370
    50
100
AcDbLine
 10
261.168108
 20
155.642874
 30
0.0
 11
261.168108
 21
156.94954
 31
0.0
  0
ARC
  5
503
330
1F
100
AcDbEntity
  8
LC-001-100-D00-0
 62
     7
370
    50
100
AcDbCircle
 10
261.668066
 20
155.642874
 30
0.0
 40
0.4999578796800392
100
AcDbArc
 50
180.0
 51
292.421078
  0
ARC
  5
504
330
1F
100
AcDbEntity
  8
LC-001-100-D00-0
 62
     7
370
    50
100
AcDbCircle
 10
250.569005
 20
182.543122
 30
0.0
 40
29.60000000000004
100
AcDbArc
 50
292.421078
 51
301.255529
  0
ARC
  5
505
330
1F
100
AcDbEntity
  8
LC-001-100-D00-0
 62
     7
370
    50
100
AcDbCircle
 10
265.66773
 20
157.666607
 30
0.0
 40
0.4999578796799783
100
AcDbArc
 50
301.255529
 51
0.0
  0
LINE
  5
506
330
1F
100
AcDbEntity
  8
LC-001-100-D00-0
 62
     7
370
    50
100
AcDbLine
 10
266.167687
 20
158.098982
 30
0.0
 11
266.167687
 21
157.666607
 31
0.0
  0
LINE
  5
507
330
1F
100
AcDbEntity
  8
LC-001-100-D00-0
 62
     7
370
    50
100
AcDbLine
 10
260.567687
 20
159.599498
 30
0.0
 11
266.167687
 21
158.098982
 31
0.0
  0
LINE
  5
508
330
1F
100
AcDbEntity
  8
LC-001-100-D00-0
 62
     7
370
    50
100
AcDbLine
 10
221.170502
 20
159.599498
 30
0.0
 11
206.170502
 21
159.599498
 31
0.0
  0
ARC
  5
509
330
1F
100
AcDbEntity
  8
LC-001-100-D00-0
 62
     7
370
    50
100
AcDbCircle
 10
206.170502
 20
158.599498
 30
0.0
 40
1.0
100
AcDbArc
 50
90.0
 51
180.0
  0
LINE
  5
50A
330
1F
100
AcDbEntity
  8
LC-001-100-D00-0
 62
     7
370
    50
100
AcDbLine
 10
205.170502
 20
158.599498
 30
0.0
 11
205.170502
 21
157.099498
 31
0.0
  0
ARC
  5
50B
330
1F
100
AcDbEntity
  8
LC-001-100-D00-0
 62
     7
370
    50
100
AcDbCircle
 10
201.170502
 20
157.099498
 30
0.0
 40
4.0
100
AcDbArc
 50
270.0
 51
0.0
  0
LINE
  5
50C
330
1F
100
AcDbEntity
  8
LC-001-100-D00-0
 62
     7
370
    50
100
AcDbLine
 10
94.170502
 20
153.099498
 30
0.0
 11
201.170502
 21
153.099498
 31
0.0
  0
ARC
  5
50D
330
1F
100
AcDbEntity
  8
LC-001-100-D00-0
 62
     7
370
    50
100
AcDbCircle
 10
94.170502
 20
157.099498
 30
0.0
 40
4.0
100
AcDbArc
 50
180.0
 51
270.0
  0
LINE
  5
50E
330
1F
100
AcDbEntity
  8
LC-001-100-D00-0
 62
     7
370
    50
100
AcDbLine
 10
90.170502
 20
157.099498
 30
0.0
 11
90.170502
 21
158.599498
 31
0.0
  0
ARC
  5
50F
330
1F
100
AcDbEntity
  8
LC-001-100-D00-0
 62
     7
370
    50
100
AcDbCircle
 10
89.170502
 20
158.599498
 30
0.0
 40
1.0
100
AcDbArc
 50
0.0
 51
90.0
  0
LINE
  5
510
330
1F
100
AcDbEntity
  8
LC-001-100-D00-0
 62
     7
370
    50
100
AcDbLine
 10
89.170502
 20
159.599498
 30
0.0
 11
86.670502
 21
159.599498
 31
0.0
  0
ARC
  5
511
330
1F
100
AcDbEntity
  8
LC-001-100-D00-0
 62
     7
370
    50
100
AcDbCircle
 10
86.670502
 20
169.099498
 30
0.0
 40
9.5
100
AcDbArc
 50
180.0
 51
270.0
  0
LINE
  5
512
330
1F
100
AcDbEntity
  8
LC-001-100-D00-0
 62
     7
370
    50
100
AcDbLine
 10
77.170502
 20
209.349498
 30
0.0
 11
77.170502
 21
169.099498
 31
0.0
  0
LINE
  5
513
330
1F
100
AcDbEntity
  8
LC-001-100-D00-0
 62
     7
370
    50
100
AcDbLine
 10
77.170502
 20
209.349498
 30
0.0
 11
74.170502
 21
209.349498
 31
0.0
  0
LINE
  5
514
330
1F
100
AcDbEntity
  8
LC-001-100-D00-0
 62
     7
370
    50
100
AcDbLine
 10
74.170502
 20
209.349498
 30
0.0
 11
74.170502
 21
169.099498
 31
0.0
  0
ARC
  5
515
330
1F
100
AcDbEntity
  8
LC-001-100-D00-0
 62
     7
370
    50
100
AcDbCircle
 10
86.670502
 20
169.099498
 30
0.0
 40
12.5
100
AcDbArc
 50
180.0
 51
270.0
  0
LINE
  5
516
330
1F
100
AcDbEntity
  8
LC-001-100-D00-0
 62
     7
370
    50
100
AcDbLine
 10
87.170502
 20
156.599498
 30
0.0
 11
86.670502
 21
156.599498
 31
0.0
  0
ARC
  5
517
330
1F
100
AcDbEntity
  8
LC-001-100-D00-0
 62
     7
370
    50
100
AcDbCircle
 10
94.152622
 20
157.099498
 30
0.0
 40
7.000000000000002
100
AcDbArc
 50
184.096044
 51
270.0
  0
LINE
  5
518
330
1F
100
AcDbEntity
  8
LC-001-100-D00-0
 62
     7
370
    50
100
AcDbLine
 10
94.152622
 20
150.099498
 30
0.0
 11
201.188382
 21
150.099498
 31
0.0
  0
ARC
  5
519
330
1F
100
AcDbEntity
  8
LC-001-100-D00-0
 62
     7
370
    50
100
AcDbCircle
 10
201.188382
 20
157.099498
 30
0.0
 40
7.0
100
AcDbArc
 50
270.0
 51
355.903956
  0
LINE
  5
51A
330
1F
100
AcDbEntity
  8
LC-001-100-D00-0
 62
     7
370
    50
100
AcDbLine
 10
221.170502
 20
156.599498
 30
0.0
 11
208.170502
 21
156.599498
 31
0.0
  0
LINE
  5
51B
330
1F
100
AcDbEntity
  8
LC-001-100-D00-0
 62
     7
370
    50
100
AcDbLine
 10
232.670502
 20
155.099498
 30
0.0
 11
232.670502
 21
156.599498
 31
0.0
  0
LINE
  5
51C
330
1F
100
AcDbEntity
  8
LC-001-100-D00-0
 62
     7
370
    50
100
AcDbLine
 10
235.170299
 20
155.099498
 30
0.0
 11
232.670502
 21
155.099498
 31
0.0
  0
ARC
  5
51D
330
1F
100
AcDbEntity
  8
LC-001-100-D00-0
 62
     7
370
    50
100
AcDbCircle
 10
250.569005
 20
182.655874
 30
0.0
 40
29.60000000000006
100
AcDbArc
 50
78.905765
 51
106.483552
  0
ARC
  5
51E
330
1F
100
AcDbEntity
  8
LC-001-100-D00-0
 62
     7
370
    50
100
AcDbCircle
 10
256.168529
 20
211.212096
 30
0.0
 40
0.4999578796800392
100
AcDbArc
 50
0.0
 51
78.905765
  0
ARC
  5
51F
330
1F
100
AcDbEntity
  8
LC-001-100-D00-0
 62
     7
370
    50
100
AcDbCircle
 10
250.569005
 20
182.655874
 30
0.0
 40
29.60000000000006
100
AcDbArc
 50
58.744471
 51
67.578922
  0
ARC
  5
520
330
1F
100
AcDbEntity
  8
LC-001-100-D00-0
 62
     7
370
    50
100
AcDbCircle
 10
261.668066
 20
209.556121
 30
0.0
 40
0.4999578796800482
100
AcDbArc
 50
67.578922
 51
180.0
  0
LINE
  5
521
330
1F
100
AcDbEntity
  8
LC-001-100-D00-0
 62
     7
370
    50
100
AcDbLine
 10
232.670502
 20
210.099498
 30
0.0
 11
235.170299
 21
210.099498
 31
0.0
  0
ARC
  5
522
330
1F
100
AcDbEntity
  8
LC-001-100-D00-0
 62
     7
370
    50
100
AcDbCircle
 10
260.66815
 20
208.249456
 30
0.0
 40
0.4999578796799824
100
AcDbArc
 50
270.0
 51
0.0
  0
ARC
  5
523
330
1F
100
AcDbEntity
  8
LC-001-100-D00-0
 62
     7
370
    50
100
AcDbCircle
 10
257.168445
 20
208.249456
 30
0.0
 40
0.4999578796799256
100
AcDbArc
 50
180.0
 51
270.0
  0
ARC
  5
524
330
1F
100
AcDbEntity
  8
LC-001-100-D00-0
 62
     7
370
    50
100
AcDbCircle
 10
265.66773
 20
207.532389
 30
0.0
 40
0.4999578796799824
100
AcDbArc
 50
0.0
 51
58.744471
  0
LINE
  5
525
330
1F
100
AcDbEntity
  8
LC-001-100-D00-0
 62
     7
370
    50
100
AcDbLine
 10
266.167687
 20
207.100013
 30
0.0
 11
260.567687
 21
205.599498
 31
0.0
  0
LINE
  5
526
330
1F
100
AcDbEntity
  8
LC-001-100-D00-0
 62
     7
370
    50
100
AcDbLine
 10
266.167687
 20
158.098982
 30
0.0
 11
266.167687
 21
207.100013
 31
0.0
  0
LINE
  5
527
330
1F
100
AcDbEntity
  8
LC-001-100-D00-0
 62
     7
370
    50
100
AcDbLine
 10
257.168445
 20
207.749498
 30
0.0
 11
260.66815
 21
207.749498
 31
0.0
  0
LINE
  5
528
330
1F
100
AcDbEntity
  8
LC-001-100-D00-0
 62
     7
370
    50
100
AcDbLine
 10
206.170502
 20
159.599498
 30
0.0
 11
192.634776
 21
159.599498
 31
0.0
  0
LINE
  5
529
330
1F
100
AcDbEntity
  8
LC-001-100-D00-0
 62
     7
370
    50
100
AcDbLine
 10
102.706228
 20
159.599498
 30
0.0
 11
89.170502
 21
159.599498
 31
0.0
  0
LINE
  5
52A
330
1F
100
AcDbEntity
  8
LC-001-100-D00-0
 62
     7
370
    50
100
AcDbLine
 10
77.170502
 20
209.349498
 30
0.0
 11
94.070502
 21
209.349498
 31
0.0
  0
LINE
  5
52B
330
1F
100
AcDbEntity
  8
LC-001-100-D00-0
 62
     7
370
    50
100
AcDbLine
 10
242.170299
 20
211.03935
 30
0.0
 11
242.170299
 21
214.204993
 31
0.0
  0
ARC
  5
52C
330
1F
100
AcDbEntity
  8
LC-001-100-D00-0
 62
     7
370
    50
100
AcDbCircle
 10
256.002965
 20
182.599498
 30
0.0
 40
34.50000000000003
100
AcDbArc
 50
113.637385
 51
127.145804
  0
LINE
  5
52D
330
1F
100
AcDbEntity
  8
LC-001-100-D00-0
 62
     7
370
    50
100
AcDbLine
 10
221.170502
 20
209.349498
 30
0.0
 11
218.170502
 21
209.349498
 31
0.0
  0
LINE
  5
52E
330
1F
100
AcDbEntity
  8
LC-001-100-D00-0
 62
     7
370
    50
100
AcDbLine
 10
266.167687
 20
207.532389
 30
0.0
 11
266.167687
 21
207.100013
 31
0.0
  0
LINE
  5
52F
330
1F
100
AcDbEntity
  8
LC-001-100-D00-0
 62
     7
370
    50
100
AcDbLine
 10
232.670502
 20
208.599498
 30
0.0
 11
232.670502
 21
210.099498
 31
0.0
  0
LINE
  5
530
330
1F
100
AcDbEntity
  8
LC-001-100-D00-0
 62
     7
370
    50
100
AcDbLine
 10
261.168108
 20
208.249456
 30
0.0
 11
261.168108
 21
209.556121
 31
0.0
  0
LINE
  5
531
330
1F
100
AcDbEntity
  8
LC-001-100-D00-0
 62
     7
370
    50
100
AcDbLine
 10
256.668487
 20
211.212096
 30
0.0
 11
256.668487
 21
208.249456
 31
0.0
  0
LINE
  5
532
330
1F
100
AcDbEntity
  8
LC-001-100-D00-0
 62
     7
370
    50
100
AcDbLine
 10
192.634776
 20
159.599498
 30
0.0
 11
190.009464
 21
159.599498
 31
0.0
  0
LINE
  5
533
330
1F
100
AcDbEntity
  8
LC-001-100-D00-0
 62
     7
370
    50
100
AcDbLine
 10
105.331539
 20
159.599498
 30
0.0
 11
102.706228
 21
159.599498
 31
0.0
  0
LINE
  5
534
330
1F
100
AcDbEntity
  8
LC-001-100-D00-0
 62
     7
370
    50
100
AcDbLine
 10
190.009464
 20
159.599498
 30
0.0
 11
185.849951
 21
159.599498
 31
0.0
  0
LINE
  5
535
330
1F
100
AcDbEntity
  8
LC-001-100-D00-0
 62
     7
370
    50
100
AcDbLine
 10
109.491052
 20
159.599498
 30
0.0
 11
105.331539
 21
159.599498
 31
0.0
  0
LINE
  5
536
330
1F
100
AcDbEntity
  8
LC-001-100-D00-0
 62
     7
370
    50
100
AcDbLine
 10
190.009464
 20
209.349498
 30
0.0
 11
191.05885
 21
209.349498
 31
0.0
  0
LINE
  5
537
330
1F
100
AcDbEntity
  8
LC-001-100-D00-0
 62
     7
370
    50
100
AcDbLine
 10
104.282153
 20
209.349498
 30
0.0
 11
105.331539
 21
209.349498
 31
0.0
  0
LINE
  5
538
330
1F
100
AcDbEntity
  8
LC-001-100-D00-0
 62
     7
370
    50
100
AcDbLine
 10
105.331539
 20
209.349498
 30
0.0
 11
114.718068
 21
209.349498
 31
0.0
  0
LINE
  5
539
330
1F
100
AcDbEntity
  8
LC-001-100-D00-0
 62
     7
370
    50
100
AcDbLine
 10
180.622935
 20
209.349498
 30
0.0
 11
190.009464
 21
209.349498
 31
0.0
  0
INSERT
  5
542
330
1F
100
AcDbEntity
  8
LC-001-100-D00-0
 62
     7
370
    25
100
AcDbBlockReference
  2
KLON1
 10
0.0
 20
0.0
 30
0.0
  0
INSERT
  5
563
330
1F
100
AcDbEntity
  8
LC-001-100-D00-0
 62
     7
370
    25
100
AcDbBlockReference
  2
KLON2
 10
0.0
 20
0.0
 30
0.0
  0
INSERT
  5
57D
330
1F
100
AcDbEntity
  8
LC-001-100-D00-0
 62
     7
370
    25
100
AcDbBlockReference
  2
KLON3
 10
0.0
 20
0.0
 30
0.0
  0
LINE
  5
57E
330
1F
100
AcDbEntity
  8
LC-001-100-D00-0
 62
     7
370
    25
100
AcDbLine
 10
-67.329498
 20
238.26798
 30
0.0
 11
-65.49798
 21
240.099498
 31
0.0
  0
INSERT
  5
584
330
1F
100
AcDbEntity
  8
LC-001-100-D00-0
 62
     7
370
    50
100
AcDbBlockReference
  2
KLON4
 10
0.0
 20
0.0
 30
0.0
  0
INSERT
  5
59C
330
1F
100
AcDbEntity
  8
LC-001-100-D00-0
 62
     7
370
    25
100
AcDbBlockReference
  2
KLON5
 10
0.0
 20
0.0
 30
0.0
  0
INSERT
  5
5A3
330
1F
100
AcDbEntity
  8
LC-001-100-D00-0
 62
     7
370
    50
100
AcDbBlockReference
  2
KLON6
 10
0.0
 20
0.0
 30
0.0
  0
INSERT
  5
5AA
330
1F
100
AcDbEntity
  8
LC-001-100-D00-0
 62
     7
370
    50
100
AcDbBlockReference
  2
KLON7
 10
0.0
 20
0.0
 30
0.0
  0
INSERT
  5
5B4
330
1F
100
AcDbEntity
  8
LC-001-100-D00-0
 62
     7
370
    50
100
AcDbBlockReference
  2
KLON8
 10
0.0
 20
0.0
 30
0.0
  0
INSERT
  5
5BD
330
1F
100
AcDbEntity
  8
LC-001-100-D00-0
 62
     7
370
    50
100
AcDbBlockReference
  2
KLON9
 10
0.0
 20
0.0
 30
0.0
  0
INSERT
  5
5C9
330
1F
100
AcDbEntity
  8
LC-001-100-D00-0
 62
     7
370
    25
100
AcDbBlockReference
  2
KLON10
 10
0.0
 20
0.0
 30
0.0
  0
INSERT
  5
5D6
330
1F
100
AcDbEntity
  8
LC-001-100-D00-0
 62
     7
370
    25
100
AcDbBlockReference
  2
KLON11
 10
0.0
 20
0.0
 30
0.0
  0
INSERT
  5
5E2
330
1F
100
AcDbEntity
  8
LC-001-100-D00-0
 62
     7
370
    25
100
AcDbBlockReference
  2
KLON12
 10
0.0
 20
0.0
 30
0.0
  0
INSERT
  5
5EE
330
1F
100
AcDbEntity
  8
LC-001-100-D00-0
 62
     7
370
    25
100
AcDbBlockReference
  2
KLON13
 10
0.0
 20
0.0
 30
0.0
  0
INSERT
  5
607
330
1F
100
AcDbEntity
  8
LC-001-100-D00-0
 62
     7
370
    25
100
AcDbBlockReference
  2
KLON14
 10
0.0
 20
0.0
 30
0.0
  0
LINE
  5
608
330
1F
100
AcDbEntity
  8
LC-001-100-D00-0
 62
     7
370
    50
100
AcDbLine
 10
91.705531
 20
217.697886
 30
0.0
 11
93.072113
 21
219.064469
 31
0.0
  0
INSERT
  5
62D
330
1F
100
AcDbEntity
  8
LC-001-100-D00-0
 62
     7
370
    25
100
AcDbBlockReference
  2
KLON15
 10
0.0
 20
0.0
 30
0.0
  0
LINE
  5
62F
330
1F
100
AcDbEntity
  8
LC-001-100-D00-0
  6
DASHDOT
 62
     7
370
    25
100
AcDbLine
 10
250.569005
 20
182.599498
 30
0.0
 11
361.170299
 21
182.599498
 31
0.0
  0
LINE
  5
630
330
1F
100
AcDbEntity
  8
LC-001-100-D00-0
  6
DASHDOT
 62
     7
370
    25
100
AcDbLine
 10
147.670502
 20
244.099498
 30
0.0
 11
147.670502
 21
148.165004
 31
0.0
  0
DIMENSION
  5
634
330
1F
100
AcDbEntity
  8
LC-003-003-----0
 62
     7
370
    25
100
AcDbDimension
  2
*D43
 10
362.64546
 20
329.893861
 30
0.0
 11
152.094547
 21
360.636971
 31
0.0
 70
   160
  1
430x182
 71
     5
 42
430.000016
 53
0.015482
  3
LC-DIM-L-0140-02-02
100
AcDbAlignedDimension
 13
-67.329498
 23
237.099498
 33
0.0
 14
362.670502
 24
237.215686
 34
0.0
 50
0.015482
100
AcDbRotatedDimension
  0
DIMENSION
  5
642
330
1F
100
AcDbEntity
  8
LC-003-003-----0
 62
     7
370
    25
100
AcDbDimension
  2
*D44
 10
295.670502
 20
280.534972
 30
0.0
 11
149.443447
 21
311.334972
 31
0.0
 70
   160
  1
296x40
 71
     5
 42
296.0
  3
LC-DIM-L-0140-02-02
100
AcDbAlignedDimension
 13
-0.329498
 23
247.099498
 33
0.0
 14
295.670502
 24
247.099498
 34
0.0
100
AcDbRotatedDimension
  0
DIMENSION
  5
64F
330
1F
100
AcDbEntity
  8
LC-003-003-----0
 62
     7
370
    25
100
AcDbDimension
  2
*D45
 10
-149.298398
 20
150.099498
 30
0.0
 11
-180.098398
 21
193.216972
 31
0.0
 70
   160
 71
     5
 42
90.0
 53
90.0
  3
LC-DIM-L-0140-02-02
100
AcDbAlignedDimension
 13
-67.329498
 23
240.099498
 33
0.0
 14
94.152622
 24
150.099498
 34
0.0
 50
90.0
100
AcDbRotatedDimension
  0
DIMENSION
  5
65C
330
1F
100
AcDbEntity
  8
LC-003-003-----0
 62
     7
370
    25
100
AcDbDimension
  2
*D46
 10
-13.667827
 20
204.599498
 30
0.0
 11
-44.467827
 21
157.576972
 31
0.0
 70
   160
  1
30
 71
     5
 42
29.5
 53
90.0
  3
LC-DIM-L-0140-02-02
100
AcDbAlignedDimension
 13
118.670502
 23
175.099498
 33
0.0
 14
108.670502
 24
204.599498
 34
0.0
 50
90.0
100
AcDbRotatedDimension
  0
DIMENSION
  5
66A
330
1F
100
AcDbEntity
  8
LC-003-003-----0
 62
     7
370
    25
100
AcDbDimension
  2
*D47
 10
357.170299
 20
108.274972
 30
0.0
 11
247.842096
 21
139.074972
 31
0.0
 70
   160
  1
210
 71
     5
 42
209.499797
  3
LC-DIM-L-0140-02-02
100
AcDbAlignedDimension
 13
147.670502
 23
148.165004
 33
0.0
 14
357.170299
 24
182.599498
 34
0.0
100
AcDbRotatedDimension
  0
DIMENSION
  5
677
330
1F
100
AcDbEntity
  8
LC-003-003-----0
 62
     7
370
    25
100
AcDbDimension
  2
*D48
 10
420.704587
 20
182.599498
 30
0.0
 11
389.904587
 21
259.150972
 31
0.0
 70
   160
  1
58
 71
     5
 42
57.5
 53
90.0
  3
LC-DIM-L-0140-02-02
100
AcDbAlignedDimension
 13
362.670502
 23
240.099498
 33
0.0
 14
357.170299
 24
182.599498
 34
0.0
 50
90.0
100
AcDbRotatedDimension
  0
DIMENSION
  5
685
330
1F
100
AcDbEntity
  8
LC-003-003-----0
 62
     7
370
    25
100
AcDbDimension
  2
*D49
 10
474.77952
 20
157.599498
 30
0.0
 11
443.97952
 21
232.420972
 31
0.0
 70
   160
  1
DN50
 71
     5
 42
50.0
 53
90.0
  3
LC-DIM-L-0140-02-02
100
AcDbAlignedDimension
 13
353.670299
 23
207.599498
 33
0.0
 14
353.670299
 24
157.599498
 34
0.0
 50
90.0
100
AcDbRotatedDimension
  0
INSERT
  5
6B1
330
1F
100
AcDbEntity
  8
LC-003-003-----0
 62
     7
370
    25
100
AcDbBlockReference
  2
LCDIM1
 10
0.0
 20
0.0
 30
0.0
  0
LINE
  5
6B2
330
1F
100
AcDbEntity
  8
LC-001-100-D00-0
 62
     7
370
    50
100
AcDbLine
 10
-61.711937
 20
222.92585
 30
0.0
 11
-62.095209
 21
225.099498
 31
0.0
  0
ARC
  5
6B3
330
1F
100
AcDbEntity
  8
LC-001-100-D00-0
 62
     7
370
    50
100
AcDbCircle
 10
-60.727129
 20
223.099498
 30
0.0
 40
1.000000000000003
100
AcDbArc
 50
190.0
 51
270.0
  0
LINE
  5
6B4
330
1F
100
AcDbEntity
  8
LC-001-100-D00-0
 62
     7
370
    50
100
AcDbLine
 10
-46.858479
 20
237.099498
 30
0.0
 11
-49.35769
 21
222.925771
 31
0.0
  0
ARC
  5
6B5
330
1F
100
AcDbEntity
  8
LC-001-100-D00-0
 62
     7
370
    50
100
AcDbCircle
 10
-50.342484
 20
223.099498
 30
0.0
 40
1.000000000000028
100
AcDbArc
 50
270.0
 51
349.995439
  0
LINE
  5
6B6
330
1F
100
AcDbEntity
  8
LC-001-100-D00-0
 62
     7
370
    50
100
AcDbLine
 10
-27.269095
 20
225.099498
 30
0.0
 11
-27.652368
 21
222.92585
 31
0.0
  0
LINE
  5
6B7
330
1F
100
AcDbEntity
  8
LC-001-100-D00-0
 62
     7
370
    50
100
AcDbLine
 10
-37.006629
 20
222.92585
 30
0.0
 11
-37.389902
 21
225.099498
 31
0.0
  0
ARC
  5
6B8
330
1F
100
AcDbEntity
  8
LC-001-100-D00-0
 62
     7
370
    50
100
AcDbCircle
 10
-36.021821
 20
223.099498
 30
0.0
 40
1.000000000000003
100
AcDbArc
 50
190.0
 51
270.0
  0
ARC
  5
6B9
330
1F
100
AcDbEntity
  8
LC-001-100-D00-0
 62
     7
370
    50
100
AcDbCircle
 10
-28.637176
 20
223.099498
 30
0.0
 40
1.0
100
AcDbArc
 50
270.0
 51
350.0
  0
LINE
  5
6BA
330
1F
100
AcDbEntity
  8
LC-001-100-D00-0
 62
     7
370
    50
100
AcDbLine
 10
-62.095209
 20
225.099498
 30
0.0
 11
-52.63507
 21
225.099498
 31
0.0
  0
LINE
  5
6BB
330
1F
100
AcDbEntity
  8
LC-001-100-D00-0
 62
     7
370
    50
100
AcDbLine
 10
-53.045708
 20
223.099498
 30
0.0
 11
-53.072322
 21
222.92585
 31
0.0
  0
LINE
  5
6BC
330
1F
100
AcDbEntity
  8
LC-001-100-D00-0
 62
     7
370
    50
100
AcDbLine
 10
-52.63507
 20
225.099498
 30
0.0
 11
-53.045708
 21
223.099498
 31
0.0
  0
LINE
  5
6BD
330
1F
100
AcDbEntity
  8
LC-001-100-D00-0
 62
     7
370
    50
100
AcDbLine
 10
-60.727129
 20
222.099498
 30
0.0
 11
-53.6609
 21
222.099498
 31
0.0
  0
INSERT
  5
6D1
330
1F
100
AcDbEntity
  8
LC-001-100-D00-0
 62
     7
370
    50
100
AcDbBlockReference
  2
POLY28
 10
0.0
 20
0.0
 30
0.0
  0
LINE
  5
6D2
330
1F
100
AcDbEntity
  8
LC-001-100-D00-0
 62
     7
370
    50
100
AcDbLine
 10
-52.658361
 20
225.099498
 30
0.0
 11
-50.360907
 21
237.099498
 31
0.0
  0
LINE
  5
6D3
330
1F
100
AcDbEntity
  8
LC-001-100-D00-0
 62
     7
370
    50
100
AcDbLine
 10
-53.6609
 20
222.099498
 30
0.0
 11
-50.342484
 21
222.099498
 31
0.0
  0
INSERT
  5
6DF
330
1F
100
AcDbEntity
  8
LC-001-100-D00-0
 62
     7
370
    50
100
AcDbBlockReference
  2
POLY29
 10
0.0
 20
0.0
 30
0.0
  0
LINE
  5
6E0
330
1F
100
AcDbEntity
  8
LC-001-100-D00-0
 62
     7
370
    50
100
AcDbLine
 10
-34.829498
 20
223.099498
 30
0.0
 11
-34.829498
 21
237.099498
 31
0.0
  0
LINE
  5
6E1
330
1F
100
AcDbEntity
  8
LC-001-100-D00-0
 62
     7
370
    50
100
AcDbLine
 10
-29.829498
 20
237.099498
 30
0.0
 11
-29.829498
 21
223.099498
 31
0.0
  0
INSERT
  5
6F5
330
1F
100
AcDbEntity
  8
LC-001-100-D00-0
 62
     7
370
    50
100
AcDbBlockReference
  2
POLY30
 10
0.0
 20
0.0
 30
0.0
  0
ARC
  5
6F6
330
1F
100
AcDbEntity
  8
LC-001-100-D00-0
 62
     7
370
    50
100
AcDbCircle
 10
-33.829498
 20
223.099498
 30
0.0
 40
1.0
100
AcDbArc
 50
180.0
 51
270.0
  0
ARC
  5
6F7
330
1F
100
AcDbEntity
  8
LC-001-100-D00-0
 62
     7
370
    50
100
AcDbCircle
 10
-30.829498
 20
223.099498
 30
0.0
 40
1.0
100
AcDbArc
 50
270.0
 51
0.0
  0
LINE
  5
6F8
330
1F
100
AcDbEntity
  8
LC-001-100-D00-0
 62
     7
370
    50
100
AcDbLine
 10
-34.829498
 20
225.099498
 30
0.0
 11
-37.389902
 21
225.099498
 31
0.0
  0
LINE
  5
6F9
330
1F
100
AcDbEntity
  8
LC-001-100-D00-0
 62
     7
370
    50
100
AcDbLine
 10
-27.269095
 20
225.099498
 30
0.0
 11
-29.829498
 21
225.099498
 31
0.0
  0
LINE
  5
6FA
330
1F
100
AcDbEntity
  8
LC-001-100-D00-0
 62
     7
370
    50
100
AcDbLine
 10
-33.829498
 20
222.099498
 30
0.0
 11
-36.021821
 21
222.099498
 31
0.0
  0
LINE
  5
6FB
330
1F
100
AcDbEntity
  8
LC-001-100-D00-0
 62
     7
370
    50
100
AcDbLine
 10
-28.637176
 20
222.099498
 30
0.0
 11
-30.829498
 21
222.099498
 31
0.0
  0
DIMENSION
  5
6FC
330
1F
100
AcDbEntity
  8
LC-003-003-----0
 62
     7
370
    25
100
AcDbDimension
  2
*D54
 10
-93.450516
 20
222.099498
 30
0.0
 11
-124.250516
 21
230.227107
 31
0.0
 70
   160
 71
     5
 42
18.0
 53
90.0
  3
LC-DIM-L-0140-02-02
100
AcDbAlignedDimension
 13
-67.329498
 23
240.099498
 33
0.0
 14
-60.727129
 24
222.099498
 34
0.0
 50
90.0
100
AcDbRotatedDimension
  0
LINE
  5
70B
330
1F
100
AcDbEntity
  8
LC-001-100-D00-0
 62
     7
370
    50
100
AcDbLine
 10
357.05294
 20
222.92585
 30
0.0
 11
357.436213
 21
225.099498
 31
0.0
  0
ARC
  5
70C
330
1F
100
AcDbEntity
  8
LC-001-100-D00-0
 62
     7
370
    50
100
AcDbCircle
 10
356.068132
 20
223.099498
 30
0.0
 40
1.0
100
AcDbArc
 50
270.0
 51
350.0
  0
LINE
  5
70D
330
1F
100
AcDbEntity
  8
LC-001-100-D00-0
 62
     7
370
    50
100
AcDbLine
 10
342.199483
 20
237.099498
 30
0.0
 11
344.698693
 21
222.925771
 31
0.0
  0
ARC
  5
70E
330
1F
100
AcDbEntity
  8
LC-001-100-D00-0
 62
     7
370
    50
100
AcDbCircle
 10
345.683487
 20
223.099498
 30
0.0
 40
1.000000000000017
100
AcDbArc
 50
190.004561
 51
270.0
  0
LINE
  5
70F
330
1F
100
AcDbEntity
  8
LC-001-100-D00-0
 62
     7
370
    50
100
AcDbLine
 10
322.610098
 20
225.099498
 30
0.0
 11
322.993371
 21
222.92585
 31
0.0
  0
LINE
  5
710
330
1F
100
AcDbEntity
  8
LC-001-100-D00-0
 62
     7
370
    50
100
AcDbLine
 10
332.347632
 20
222.92585
 30
0.0
 11
332.730905
 21
225.099498
 31
0.0
  0
ARC
  5
711
330
1F
100
AcDbEntity
  8
LC-001-100-D00-0
 62
     7
370
    50
100
AcDbCircle
 10
331.362824
 20
223.099498
 30
0.0
 40
1.0
100
AcDbArc
 50
270.0
 51
350.0
  0
ARC
  5
712
330
1F
100
AcDbEntity
  8
LC-001-100-D00-0
 62
     7
370
    50
100
AcDbCircle
 10
323.978179
 20
223.099498
 30
0.0
 40
0.9999999999999931
100
AcDbArc
 50
190.0
 51
270.0
  0
LINE
  5
713
330
1F
100
AcDbEntity
  8
LC-001-100-D00-0
 62
     7
370
    50
100
AcDbLine
 10
357.436213
 20
225.099498
 30
0.0
 11
347.976073
 21
225.099498
 31
0.0
  0
LINE
  5
714
330
1F
100
AcDbEntity
  8
LC-001-100-D00-0
 62
     7
370
    50
100
AcDbLine
 10
348.386712
 20
223.099498
 30
0.0
 11
348.413326
 21
222.92585
 31
0.0
  0
LINE
  5
715
330
1F
100
AcDbEntity
  8
LC-001-100-D00-0
 62
     7
370
    50
100
AcDbLine
 10
347.976073
 20
225.099498
 30
0.0
 11
348.386712
 21
223.099498
 31
0.0
  0
LINE
  5
716
330
1F
100
AcDbEntity
  8
LC-001-100-D00-0
 62
     7
370
    50
100
AcDbLine
 10
356.068132
 20
222.099498
 30
0.0
 11
349.001903
 21
222.099498
 31
0.0
  0
INSERT
  5
72A
330
1F
100
AcDbEntity
  8
LC-001-100-D00-0
 62
     7
370
    50
100
AcDbBlockReference
  2
POLY31
 10
0.0
 20
0.0
 30
0.0
  0
LINE
  5
72B
330
1F
100
AcDbEntity
  8
LC-001-100-D00-0
 62
     7
370
    50
100
AcDbLine
 10
347.999365
 20
225.099498
 30
0.0
 11
345.70191
 21
237.099498
 31
0.0
  0
LINE
  5
72C
330
1F
100
AcDbEntity
  8
LC-001-100-D00-0
 62
     7
370
    50
100
AcDbLine
 10
349.001903
 20
222.099498
 30
0.0
 11
345.683487
 21
222.099498
 31
0.0
  0
INSERT
  5
738
330
1F
100
AcDbEntity
  8
LC-001-100-D00-0
 62
     7
370
    50
100
AcDbBlockReference
  2
POLY32
 10
0.0
 20
0.0
 30
0.0
  0
LINE
  5
739
330
1F
100
AcDbEntity
  8
LC-001-100-D00-0
 62
     7
370
    50
100
AcDbLine
 10
330.170502
 20
223.099498
 30
0.0
 11
330.170502
 21
237.099498
 31
0.0
  0
LINE
  5
73A
330
1F
100
AcDbEntity
  8
LC-001-100-D00-0
 62
     7
370
    50
100
AcDbLine
 10
325.170502
 20
237.099498
 30
0.0
 11
325.170502
 21
223.099498
 31
0.0
  0
INSERT
  5
74E
330
1F
100
AcDbEntity
  8
LC-001-100-D00-0
 62
     7
370
    50
100
AcDbBlockReference
  2
POLY33
 10
0.0
 20
0.0
 30
0.0
  0
ARC
  5
74F
330
1F
100
AcDbEntity
  8
LC-001-100-D00-0
 62
     7
370
    50
100
AcDbCircle
 10
329.170502
 20
223.099498
 30
0.0
 40
1.0
100
AcDbArc
 50
270.0
 51
0.0
  0
ARC
  5
750
330
1F
100
AcDbEntity
  8
LC-001-100-D00-0
 62
     7
370
    50
100
AcDbCircle
 10
326.170502
 20
223.099498
 30
0.0
 40
1.0
100
AcDbArc
 50
180.0
 51
270.0
  0
LINE
  5
751
330
1F
100
AcDbEntity
  8
LC-001-100-D00-0
 62
     7
370
    50
100
AcDbLine
 10
330.170502
 20
225.099498
 30
0.0
 11
332.730905
 21
225.099498
 31
0.0
  0
LINE
  5
752
330
1F
100
AcDbEntity
  8
LC-001-100-D00-0
 62
     7
370
    50
100
AcDbLine
 10
322.610098
 20
225.099498
 30
0.0
 11
325.170502
 21
225.099498
 31
0.0
  0
LINE
  5
753
330
1F
100
AcDbEntity
  8
LC-001-100-D00-0
 62
     7
370
    50
100
AcDbLine
 10
329.170502
 20
222.099498
 30
0.0
 11
331.362824
 21
222.099498
 31
0.0
  0
LINE
  5
754
330
1F
100
AcDbEntity
  8
LC-001-100-D00-0
 62
     7
370
    50
100
AcDbLine
 10
323.978179
 20
222.099498
 30
0.0
 11
326.170502
 21
222.099498
 31
0.0
  0
ENDSEC
  0
SECTION
  2
OBJECTS
  0
DICTIONARY
  5
C
330
0
100
AcDbDictionary
281
     1
  3
ACAD_GROUP
350
D
  3
ACAD_LAYOUT
350
1A
  3
ACAD_MLINESTYLE
350
17
  3
ACAD_PLOTSETTINGS
350
19
  3
ACAD_PLOTSTYLENAME
350
E
  0
DICTIONARY
  5
D
102
{ACAD_REACTORS
330
C
102
}
330
C
100
AcDbDictionary
281
     1
  0
DICTIONARY
  5
1A
102
{ACAD_REACTORS
330
C
102
}
330
C
100
AcDbDictionary
281
     1
  3
Layout1
350
1E
  3
Layout2
350
26
  3
Model
350
22
  0
DICTIONARY
  5
17
102
{ACAD_REACTORS
330
C
102
}
330
C
100
AcDbDictionary
281
     1
  3
Standard
350
18
  0
DICTIONARY
  5
19
102
{ACAD_REACTORS
330
C
102
}
330
C
100
AcDbDictionary
281
     1
  0
ACDBDICTIONARYWDFLT
  5
E
102
{ACAD_REACTORS
330
C
102
}
330
C
100
AcDbDictionary
281
     1
  3
Normal
350
F
100
AcDbDictionaryWithDefault
340
F
  0
LAYOUT
  5
1E
102
{ACAD_REACTORS
330
1A
102
}
330
1A
100
AcDbPlotSettings
  1

  2

  4

  6

 40
0.0
 41
0.0
 42
0.0
 43
0.0
 44
0.0
 45
0.0
 46
0.0
 47
0.0
 48
0.0
 49
0.0
140
0.0
141
0.0
142
1.0
143
1.0
 70
   688
 72
     0
 73
     0
 74
     5
  7

 75
    16
147
1.0
148
0.0
149
0.0
100
AcDbLayout
  1
Layout1
 70
     1
 71
     1
 10
-273.215976
 20
-178.033028
 11
566.784024
 21
415.966972
 12
0.0
 22
0.0
 32
0.0
 14
-273.215976
 24
-178.033028
 34
0.0
 15
566.784024
 25
415.966972
 35
0.0
146
0.0
 13
0.0
 23
0.0
 33
0.0
 16
1.0
 26
0.0
 36
0.0
 17
0.0
 27
1.0
 37
0.0
 76
     0
330
1B
  0
LAYOUT
  5
26
102
{ACAD_REACTORS
330
1A
102
}
330
1A
100
AcDbPlotSettings
  1

  2

  4

  6

 40
0.0
 41
0.0
 42
0.0
 43
0.0
 44
0.0
 45
0.0
 46
0.0
 47
0.0
 48
0.0
 49
0.0
140
0.0
141
0.0
142
1.0
143
1.0
 70
   688
 72
     0
 73
     0
 74
     5
  7

 75
    16
147
1.0
148
0.0
149
0.0
100
AcDbLayout
  1
Layout2
 70
     1
 71
     2
 10
0.0
 20
0.0
 11
0.0
 21
0.0
 12
0.0
 22
0.0
 32
0.0
 14
0.0
 24
0.0
 34
0.0
 15
0.0
 25
0.0
 35
0.0
146
0.0
 13
0.0
 23
0.0
 33
0.0
 16
1.0
 26
0.0
 36
0.0
 17
0.0
 27
1.0
 37
0.0
 76
     0
330
23
  0
LAYOUT
  5
22
102
{ACAD_REACTORS
330
1A
102
}
330
1A
100
AcDbPlotSettings
  1

  2

  4

  6

 40
0.0
 41
0.0
 42
0.0
 43
0.0
 44
0.0
 45
0.0
 46
0.0
 47
0.0
 48
0.0
 49
0.0
140
0.0
141
0.0
142
1.0
143
1.0
 70
  1776
 72
     0
 73
     0
 74
     0
  7

 75
     0
147
1.0
148
0.0
149
0.0
100
AcDbLayout
  1
Model
 70
     1
 71
     0
 10
-273.215976
 20
-178.033028
 11
566.784024
 21
415.966972
 12
0.0
 22
0.0
 32
0.0
 14
-273.215976
 24
-178.033028
 34
0.0
 15
566.784024
 25
415.966972
 35
0.0
146
0.0
 13
0.0
 23
0.0
 33
0.0
 16
1.0
 26
0.0
 36
0.0
 17
0.0
 27
1.0
 37
0.0
 76
     0
330
1F
  0
MLINESTYLE
  5
18
102
{ACAD_REACTORS
330
17
102
}
330
17
100
AcDbMlineStyle
  2
Standard
 70
     0
  3

 62
   256
 51
90.0
 52
90.0
 71
     2
 49
0.5
 62
   256
  6
BYLAYER
 49
-0.5
 62
   256
  6
BYLAYER
  0
ACDBPLACEHOLDER
  5
F
102
{ACAD_REACTORS
330
E
102
}
330
E
  0
ENDSEC
  0
EOF
