  0
SECTION
  2
HEADER
  9
$ACADVER
  1
AC1009
  9
$INSBASE
 10
0.0
 20
0.0
 30
0.0
  9
$EXTMIN
 10
0.0
 20
0.0
 30
0.0
  9
$EXTMAX
 10
840.0
 20
594.0
 30
0.0
  9
$LIMMIN
 10
0.0
 20
0.0
  9
$LIMMAX
 10
840.0
 20
594.0
  9
$ORTHOMODE
 70
     0
  9
$REGENMODE
 70
     1
  9
$FILLMODE
 70
     1
  9
$QTEXTMODE
 70
     0
  9
$MIRRTEXT
 70
     1
  9
$DRAGMODE
 70
     2
  9
$LTSCALE
 40
2.0
  9
$OSMODE
 70
     0
  9
$ATTMODE
 70
     1
  9
$TEXTSIZE
 40
0.2
  9
$TRACEWID
 40
0.05
  9
$TEXTSTYLE
  7
STANDARD
  9
$CLAYER
  8
0
  9
$CELTYPE
  6
BYLAYER
  9
$CECOLOR
 62
     7
  9
$DIMSCALE
 40
2.0
  9
$DIMASZ
 40
3.5
  9
$DIMEXO
 40
0.0625
  9
$DIMDLI
 40
0.38
  9
$DIMRND
 40
0.0
  9
$DIMDLE
 40
0.0
  9
$DIMEXE
 40
0.18
  9
$DIMTP
 40
0.0
  9
$DIMTM
 40
0.0
  9
$DIMTXT
 40
3.5
  9
$DIMCEN
 40
0.09
  9
$DIMTSZ
 40
0.0
  9
$DIMTOL
 70
     0
  9
$DIMLIM
 70
     0
  9
$DIMTIH
 70
     1
  9
$DIMTOH
 70
     1
  9
$DIMSE1
 70
     0
  9
$DIMSE2
 70
     0
  9
$DIMTAD
 70
     1
  9
$DIMZIN
 70
     0
  9
$DIMBLK
  1

  9
$DIMASO
 70
     1
  9
$DIMSHO
 70
     1
  9
$DIMPOST
  1

  9
$DIMAPOST
  1

  9
$DIMALT
 70
     0
  9
$DIMALTD
 70
     2
  9
$DIMALTF
 40
25.4
  9
$DIMLFAC
 40
1.0
  9
$DIMTOFL
 70
     0
  9
$DIMTVP
 40
0.0
  9
$DIMTIX
 70
     0
  9
$DIMSOXD
 70
     0
  9
$DIMSAH
 70
     0
  9
$DIMBLK1
  1

  9
$DIMBLK2
  1

  9
$DIMSTYLE
  2
STANDARD
  9
$DIMCLRD
 70
     0
  9
$DIMCLRE
 70
     0
  9
$DIMCLRT
 70
     0
  9
$DIMTFAC
 40
1.0
  9
$DIMGAP
 40
0.09
  9
$LUNITS
 70
     2
  9
$LUPREC
 70
     2
  9
$AXISMODE
 70
     0
  9
$AXISUNIT
 10
0.0
 20
0.0
  9
$SKETCHINC
 40
0.1
  9
$FILLETRAD
 40
0.0
  9
$AUNITS
 70
     0
  9
$AUPREC
 70
     0
  9
$MENU
  1
acad
  9
$ELEVATION
 40
0.0
  9
$PELEVATION
 40
0.0
  9
$THICKNESS
 40
0.0
  9
$LIMCHECK
 70
     0
  9
$BLIPMODE
 70
     1
  9
$CHAMFERA
 40
0.0
  9
$CHAMFERB
 40
0.0
  9
$SKPOLY
 70
     0
  9
$TDCREATE
 40
0.000000000
  9
$TDUPDATE
 40
0.000000000
  9
$TDINDWG
 40
0.0000000000
  9
$TDUSRTIMER
 40
0.0000000000
  9
$USRTIMER
 70
     1
  9
$ANGBASE
 50
0.0
  9
$ANGDIR
 70
     0
  9
$PDMODE
 70
     0
  9
$PDSIZE
 40
0.0
  9
$PLINEWID
 40
0.0
  9
$COORDS
 70
     0
  9
$SPLFRAME
 70
     0
  9
$SPLINETYPE
 70
     6
  9
$SPLINESEGS
 70
     8
  9
$ATTDIA
 70
     0
  9
$ATTREQ
 70
     1
  9
$HANDLING
 70
     1
  9
$HANDSEED
  5
436
  9
$SURFTAB1
 70
     6
  9
$SURFTAB2
 70
     6
  9
$SURFTYPE
 70
     6
  9
$SURFU
 70
     6
  9
$SURFV
 70
     6
  9
$UCSNAME
  2

  9
$UCSORG
 10
0.0
 20
0.0
 30
0.0
  9
$UCSXDIR
 10
1.0
 20
0.0
 30
0.0
  9
$UCSYDIR
 10
0.0
 20
1.0
 30
0.0
  9
$PUCSNAME
  2

  9
$PUCSORG
 10
0.0
 20
0.0
 30
0.0
  9
$PUCSXDIR
 10
1.0
 20
0.0
 30
0.0
  9
$PUCSYDIR
 10
0.0
 20
1.0
 30
0.0
  9
$USERI1
 70
     0
  9
$USERI2
 70
     0
  9
$USERI3
 70
     0
  9
$USERI4
 70
     0
  9
$USERI5
 70
     0
  9
$USERR1
 40
0.0
  9
$USERR2
 40
0.0
  9
$USERR3
 40
0.0
  9
$USERR4
 40
0.0
  9
$USERR5
 40
0.0
  9
$WORLDVIEW
 70
     1
  9
$SHADEDGE
 70
     3
  9
$SHADEDIF
 70
    70
  9
$TILEMODE
 70
     1
  9
$MAXACTVP
 70
    16
  9
$PINSBASE
 10
0.0
 20
0.0
 30
0.0
  9
$PLIMCHECK
 70
     0
  9
$PEXTMIN
 10
1.000000E+20
 20
1.000000E+20
 30
1.000000E+20
  9
$PEXTMAX
 10
-1.000000E+20
 20
-1.000000E+20
 30
-1.000000E+20
  9
$PLIMMIN
 10
0.0
 20
0.0
  9
$PLIMMAX
 10
840.0
 20
594.0
  9
$UNITMODE
 70
     0
  9
$VISRETAIN
 70
     0
  9
$PLINEGEN
 70
     1
  9
$PSLTSCALE
 70
     0
  9
$TREEDEPTH
 70
  3020
  9
$DWGCODEPAGE
  3
dos850
  0
ENDSEC
  0
SECTION
  2
TABLES
  0
TABLE
  2
VPORT
 70
     1
  0
VPORT
  2
*ACTIVE
 70
     0
 10
0.0
 20
0.0
 11
1.0
 21
1.0
 12
420.0
 22
297.0
 13
0.0
 23
0.0
 14
1.0
 24
1.0
 15
0.0
 25
0.0
 16
0.0
 26
0.0
 36
1.0
 17
0.0
 27
0.0
 37
0.0
 40
594.0
 41
1.604229
 42
50.0
 43
0.0
 44
0.0
 50
0.0
 51
0.0
 71
     0
 72
   100
 73
     1
 74
     1
 75
     0
 76
     0
 77
     0
 78
     0
  0
ENDTAB
  0
TABLE
  2
LTYPE
 70
     4
  0
LTYPE
  2
CONTINUOUS
 70
    64
  3
Solid line
 72
    65
 73
     0
 40
0.0
  0
LTYPE
  2
DASHED
 70
    64
  3
__ __ __ __ __
 72
    65
 73
     2
 40
6.25
 49
5.0
 49
-1.25
  0
LTYPE
  2
DASHDOT
 70
    64
  3
__ . __ . __ . __ . __
 72
    65
 73
     4
 40
7.5
 49
5.0
 49
-1.25
 49
0.0
 49
-1.25
  0
LTYPE
  2
CENTER
 70
    64
  3
__ . __ . __ . __ . __
 72
    65
 73
     4
 40
7.5
 49
5.0
 49
-1.25
 49
0.0
 49
-1.25
  0
ENDTAB
  0
TABLE
  2
LAYER
 70
    13
  0
LAYER
  2
0
 70
     0
 62
     7
  6
CONTINUOUS
  0
LAYER
  2
LC-INFO-1-2-MM-A3-0
 70
     1
 62
    -1
  6
CONTINUOUS
  0
LAYER
  2
LC-005-003-MTH-0
 70
     0
 62
     2
  6
CONTINUOUS
  0
LAYER
  2
LC-004-003-----0
 70
     0
 62
     2
  6
CONTINUOUS
  0
LAYER
  2
LC-006-003-MTG-0
 70
     0
 62
     2
  6
CONTINUOUS
  0
LAYER
  2
LC-003-005-----0
 70
     0
 62
     2
  6
CONTINUOUS
  0
LAYER
  2
LC-001-000-----0
 70
     0
 62
     7
  6
CONTINUOUS
  0
LAYER
  2
LC-010-000-----0
 70
     0
 62
     7
  6
CONTINUOUS
  0
LAYER
  2
LC-002-002-----0
 70
     0
 62
     1
  6
CONTINUOUS
  0
LAYER
  2
LC-007-002-RND-0
 70
     0
 62
     1
  6
CONTINUOUS
  0
LAYER
  2
LC-008-006-MLN-0
 70
     0
 62
     2
  6
CENTER
  0
LAYER
  2
LC-009-004-----0
 70
     0
 62
     1
  6
CONTINUOUS
  0
LAYER
  2
LC-000
 70
     0
 62
     7
  6
CONTINUOUS
  0
ENDTAB
  0
TABLE
  2
STYLE
 70
     4
  0
STYLE
  2
STANDARD
 70
     0
 40
0.0
 41
1.0
 50
0.0
 71
     0
 42
0.0
  3
txt
  4

  0
STYLE
  2
LC-STANDARD
 70
    64
 40
0.0
 41
1.0
 50
0.0
 71
     0
 42
3.5
  3
MONOTXT
  4

  0
STYLE
  2
LC-TXTSTYLE-150-400-0-0-D2
 70
    64
 40
0.0
 41
1.0
 50
15.0
 71
     0
 42
3.5
  3
MONOTXT
  4

  0
STYLE
  2
LC-TXTSTYLE-150-400-0-0-D3
 70
    64
 40
0.0
 41
1.0
 50
15.0
 71
     0
 42
3.5
  3
LC-STANDARD
  4

  0
ENDTAB
  0
TABLE
  2
VIEW
 70
     0
  0
ENDTAB
  0
TABLE
  2
UCS
 70
     0
  0
ENDTAB
  0
TABLE
  2
APPID
 70
     1
  0
APPID
  2
ACAD
 70
     0
  0
ENDTAB
  0
TABLE
  2
DIMSTYLE
 70
     3
  0
DIMSTYLE
  2
STANDARD
 70
     0
  3

  4

  5

  6

  7

 40
1.0
 41
0.18
 42
0.0625
 43
0.38
 44
0.18
 45
0.0
 46
0.0
 47
0.0
 48
0.0
 71
     0
 72
     0
 73
     1
 74
     1
 75
     0
 76
     0
 77
     0
 78
     0
140
0.18
141
0.09
142
0.0
143
25.4
144
1.0
145
0.0
146
1.0
147
0.09
170
     0
171
     2
172
     0
173
     0
174
     0
175
     0
176
     0
177
     0
178
     0
  0
DIMSTYLE
  2
LC-STANDARD
 70
     0
  3

  4

  5

  6

  7

 40
1.0
 41
3.5
 42
0.0
 43
7.5
 44
1.8
 45
0.0
 46
0.0
 47
0.0
 48
0.0
 71
     0
 72
     0
 73
     0
 74
     0
 75
     0
 76
     0
 77
     1
 78
     8
140
3.5
141
0.0
142
0.0
143
25.4
144
1.0
145
0.0
146
0.71
147
1.5
170
     0
171
     2
172
     1
173
     0
174
     0
175
     0
176
     0
177
     0
178
     3
  0
DIMSTYLE
  2
LC-DIM-L-0090-02-02
 70
     0
  3

  4

  5

  6

  7

 40
2.0
 41
3.5
 42
0.0
 43
7.5
 44
1.8
 45
0.0
 46
0.0
 47
0.0
 48
0.0
 71
     0
 72
     0
 73
     0
 74
     0
 75
     0
 76
     0
 77
     1
 78
     8
140
9.0
141
0.0
142
0.0
143
25.4
144
1.0
145
0.0
146
0.71
147
1.5
170
     0
171
     2
172
     0
173
     0
174
     0
175
     0
176
     2
177
     2
178
     6
  0
ENDTAB
  0
ENDSEC
  0
SECTION
  2
BLOCKS
  0
BLOCK
  8
0
  5
23
  2
BLK1
 70
    64
 10
0.0
 20
0.0
 30
0.0
  3
BLK1
  0
ENDBLK
  8
0
  5
24
  0
BLOCK
  8
0
  5
26
  2
*D1
 70
    65
 10
0.0
 20
0.0
 30
0.0
  3
*D1
  0
LINE
  8
LC-005-003-MTH-0
  6
CONTINUOUS
  5
28
 10
380.953752
 20
165.952833
 30
0.0
 11
380.953752
 21
109.2
 31
0.0
  0
LINE
  8
LC-005-003-MTH-0
  6
CONTINUOUS
  5
29
 10
430.953752
 20
165.952833
 30
0.0
 11
430.953752
 21
109.2
 31
0.0
  0
LINE
  8
LC-004-003-----0
  6
CONTINUOUS
  5
2B
 10
363.107744
 20
117.650529
 30
0.0
 11
380.953752
 21
120.0
 31
0.0
  0
LINE
  8
LC-004-003-----0
  6
CONTINUOUS
  5
2C
 10
380.953752
 20
120.0
 30
0.0
 11
363.107744
 21
122.349471
 31
0.0
  0
LINE
  8
LC-004-003-----0
  6
CONTINUOUS
  5
2D
 10
363.107744
 20
122.349471
 30
0.0
 11
363.107744
 21
117.650529
 31
0.0
  0
LINE
  8
LC-004-003-----0
  6
CONTINUOUS
  5
2E
 10
363.067706
 20
118.261391
 30
0.0
 11
376.273752
 21
120.0
 31
0.0
  0
LINE
  8
LC-004-003-----0
  6
CONTINUOUS
  5
2F
 10
376.273752
 20
120.0
 30
0.0
 11
363.067706
 21
121.738609
 31
0.0
  0
LINE
  8
LC-004-003-----0
  6
CONTINUOUS
  5
30
 10
363.027668
 20
118.872254
 30
0.0
 11
371.593752
 21
120.0
 31
0.0
  0
LINE
  8
LC-004-003-----0
  6
CONTINUOUS
  5
31
 10
371.593752
 20
120.0
 30
0.0
 11
363.027668
 21
121.127746
 31
0.0
  0
LINE
  8
LC-004-003-----0
  6
CONTINUOUS
  5
32
 10
362.98763
 20
119.483116
 30
0.0
 11
366.913752
 21
120.0
 31
0.0
  0
LINE
  8
LC-004-003-----0
  6
CONTINUOUS
  5
33
 10
366.913752
 20
120.0
 30
0.0
 11
362.98763
 21
120.516884
 31
0.0
  0
LINE
  8
LC-004-003-----0
  6
CONTINUOUS
  5
34
 10
448.799759
 20
122.349471
 30
0.0
 11
430.953752
 21
120.0
 31
0.0
  0
LINE
  8
LC-004-003-----0
  6
CONTINUOUS
  5
35
 10
430.953752
 20
120.0
 30
0.0
 11
448.799759
 21
117.650529
 31
0.0
  0
LINE
  8
LC-004-003-----0
  6
CONTINUOUS
  5
36
 10
448.799759
 20
117.650529
 30
0.0
 11
448.799759
 21
122.349471
 31
0.0
  0
LINE
  8
LC-004-003-----0
  6
CONTINUOUS
  5
37
 10
448.839797
 20
121.738609
 30
0.0
 11
435.633752
 21
120.0
 31
0.0
  0
LINE
  8
LC-004-003-----0
  6
CONTINUOUS
  5
38
 10
435.633752
 20
120.0
 30
0.0
 11
448.839797
 21
118.261391
 31
0.0
  0
LINE
  8
LC-004-003-----0
  6
CONTINUOUS
  5
39
 10
448.879835
 20
121.127746
 30
0.0
 11
440.313752
 21
120.0
 31
0.0
  0
LINE
  8
LC-004-003-----0
  6
CONTINUOUS
  5
3A
 10
440.313752
 20
120.0
 30
0.0
 11
448.879835
 21
118.872254
 31
0.0
  0
LINE
  8
LC-004-003-----0
  6
CONTINUOUS
  5
3B
 10
448.919873
 20
120.516884
 30
0.0
 11
444.993752
 21
120.0
 31
0.0
  0
LINE
  8
LC-004-003-----0
  6
CONTINUOUS
  5
3C
 10
444.993752
 20
120.0
 30
0.0
 11
448.919873
 21
119.483116
 31
0.0
  0
LINE
  8
LC-006-003-MTG-0
  6
CONTINUOUS
  5
3E
 10
355.753752
 20
120.0
 30
0.0
 11
521.356271
 21
120.0
 31
0.0
  0
TEXT
  8
LC-004-003-----0
  6
CONTINUOUS
 62
     6
  5
40
 10
458.228997
 20
125.031999
 30
0.0
 40
18.0
  1
DN50
 41
0.9
 51
15.0
  7
LC-TXTSTYLE-150-400-0-0-D0
  0
ENDBLK
  8
0
  5
41
  0
BLOCK
  8
0
  5
43
  2
*D2
 70
    65
 10
0.0
 20
0.0
 30
0.0
  3
*D2
  0
LINE
  8
LC-005-003-MTH-0
  6
CONTINUOUS
  5
44
 10
427.953752
 20
161.452833
 30
0.0
 11
530.8
 21
161.452833
 31
0.0
  0
LINE
  8
LC-005-003-MTH-0
  6
CONTINUOUS
  5
45
 10
481.954273
 20
361.452833
 30
0.0
 11
530.8
 21
361.452833
 31
0.0
  0
LINE
  8
LC-006-003-MTG-0
  6
CONTINUOUS
  5
46
 10
520.0
 20
161.452833
 30
0.0
 11
520.0
 21
361.452833
 31
0.0
  0
LINE
  8
LC-004-003-----0
  6
CONTINUOUS
  5
47
 10
517.650529
 20
179.298841
 30
0.0
 11
520.0
 21
161.452833
 31
0.0
  0
LINE
  8
LC-004-003-----0
  6
CONTINUOUS
  5
48
 10
520.0
 20
161.452833
 30
0.0
 11
522.349471
 21
179.298841
 31
0.0
  0
LINE
  8
LC-004-003-----0
  6
CONTINUOUS
  5
49
 10
522.349471
 20
179.298841
 30
0.0
 11
517.650529
 21
179.298841
 31
0.0
  0
LINE
  8
LC-004-003-----0
  6
CONTINUOUS
  5
4A
 10
518.261391
 20
179.338879
 30
0.0
 11
520.0
 21
166.132833
 31
0.0
  0
LINE
  8
LC-004-003-----0
  6
CONTINUOUS
  5
4B
 10
520.0
 20
166.132833
 30
0.0
 11
521.738609
 21
179.338879
 31
0.0
  0
LINE
  8
LC-004-003-----0
  6
CONTINUOUS
  5
4C
 10
518.872254
 20
179.378917
 30
0.0
 11
520.0
 21
170.812833
 31
0.0
  0
LINE
  8
LC-004-003-----0
  6
CONTINUOUS
  5
4D
 10
520.0
 20
170.812833
 30
0.0
 11
521.127746
 21
179.378917
 31
0.0
  0
LINE
  8
LC-004-003-----0
  6
CONTINUOUS
  5
4E
 10
519.483116
 20
179.418955
 30
0.0
 11
520.0
 21
175.492833
 31
0.0
  0
LINE
  8
LC-004-003-----0
  6
CONTINUOUS
  5
4F
 10
520.0
 20
175.492833
 30
0.0
 11
520.516884
 21
179.418955
 31
0.0
  0
LINE
  8
LC-004-003-----0
  6
CONTINUOUS
  5
50
 10
522.349471
 20
343.606826
 30
0.0
 11
520.0
 21
361.452833
 31
0.0
  0
LINE
  8
LC-004-003-----0
  6
CONTINUOUS
  5
51
 10
520.0
 20
361.452833
 30
0.0
 11
517.650529
 21
343.606826
 31
0.0
  0
LINE
  8
LC-004-003-----0
  6
CONTINUOUS
  5
52
 10
517.650529
 20
343.606826
 30
0.0
 11
522.349471
 21
343.606826
 31
0.0
  0
LINE
  8
LC-004-003-----0
  6
CONTINUOUS
  5
53
 10
521.738609
 20
343.566788
 30
0.0
 11
520.0
 21
356.772833
 31
0.0
  0
LINE
  8
LC-004-003-----0
  6
CONTINUOUS
  5
54
 10
520.0
 20
356.772833
 30
0.0
 11
518.261391
 21
343.566788
 31
0.0
  0
LINE
  8
LC-004-003-----0
  6
CONTINUOUS
  5
55
 10
521.127746
 20
343.52675
 30
0.0
 11
520.0
 21
352.092833
 31
0.0
  0
LINE
  8
LC-004-003-----0
  6
CONTINUOUS
  5
56
 10
520.0
 20
352.092833
 30
0.0
 11
518.872254
 21
343.52675
 31
0.0
  0
LINE
  8
LC-004-003-----0
  6
CONTINUOUS
  5
57
 10
520.516884
 20
343.486712
 30
0.0
 11
520.0
 21
347.412833
 31
0.0
  0
LINE
  8
LC-004-003-----0
  6
CONTINUOUS
  5
58
 10
520.0
 20
347.412833
 30
0.0
 11
519.483116
 21
343.486712
 31
0.0
  0
TEXT
  8
LC-004-003-----0
  6
CONTINUOUS
 62
     6
  5
59
 10
509.568001
 20
245.114221
 30
0.0
 40
18.0
  1
200
 50
90.0
 51
15.0
  7
LC-TXTSTYLE-150-400-0-0-D0
 72
     1
 11
509.568001
 21
264.248079
 31
0.0
  0
ENDBLK
  8
0
  5
5A
  0
BLOCK
  8
0
  5
5C
  2
*D3
 70
    65
 10
0.0
 20
0.0
 30
0.0
  3
*D3
  0
LINE
  8
LC-005-003-MTH-0
  6
CONTINUOUS
  5
5D
 10
290.781671
 20
379.416259
 30
0.0
 11
290.781671
 21
486.8
 31
0.0
  0
LINE
  8
LC-005-003-MTH-0
  6
CONTINUOUS
  5
5E
 10
521.125832
 20
379.416259
 30
0.0
 11
521.125832
 21
486.8
 31
0.0
  0
LINE
  8
LC-006-003-MTG-0
  6
CONTINUOUS
  5
5F
 10
290.781671
 20
476.0
 30
0.0
 11
521.125832
 21
476.0
 31
0.0
  0
LINE
  8
LC-004-003-----0
  6
CONTINUOUS
  5
60
 10
308.627679
 20
478.349471
 30
0.0
 11
290.781671
 21
476.0
 31
0.0
  0
LINE
  8
LC-004-003-----0
  6
CONTINUOUS
  5
61
 10
290.781671
 20
476.0
 30
0.0
 11
308.627679
 21
473.650529
 31
0.0
  0
LINE
  8
LC-004-003-----0
  6
CONTINUOUS
  5
62
 10
308.627679
 20
473.650529
 30
0.0
 11
308.627679
 21
478.349471
 31
0.0
  0
LINE
  8
LC-004-003-----0
  6
CONTINUOUS
  5
63
 10
308.667717
 20
477.738609
 30
0.0
 11
295.461671
 21
476.0
 31
0.0
  0
LINE
  8
LC-004-003-----0
  6
CONTINUOUS
  5
64
 10
295.461671
 20
476.0
 30
0.0
 11
308.667717
 21
474.261391
 31
0.0
  0
LINE
  8
LC-004-003-----0
  6
CONTINUOUS
  5
65
 10
308.707755
 20
477.127746
 30
0.0
 11
300.141671
 21
476.0
 31
0.0
  0
LINE
  8
LC-004-003-----0
  6
CONTINUOUS
  5
66
 10
300.141671
 20
476.0
 30
0.0
 11
308.707755
 21
474.872254
 31
0.0
  0
LINE
  8
LC-004-003-----0
  6
CONTINUOUS
  5
67
 10
308.747793
 20
476.516884
 30
0.0
 11
304.821671
 21
476.0
 31
0.0
  0
LINE
  8
LC-004-003-----0
  6
CONTINUOUS
  5
68
 10
304.821671
 20
476.0
 30
0.0
 11
308.747793
 21
475.483116
 31
0.0
  0
LINE
  8
LC-004-003-----0
  6
CONTINUOUS
  5
69
 10
503.279824
 20
473.650529
 30
0.0
 11
521.125832
 21
476.0
 31
0.0
  0
LINE
  8
LC-004-003-----0
  6
CONTINUOUS
  5
6A
 10
521.125832
 20
476.0
 30
0.0
 11
503.279824
 21
478.349471
 31
0.0
  0
LINE
  8
LC-004-003-----0
  6
CONTINUOUS
  5
6B
 10
503.279824
 20
478.349471
 30
0.0
 11
503.279824
 21
473.650529
 31
0.0
  0
LINE
  8
LC-004-003-----0
  6
CONTINUOUS
  5
6C
 10
503.239786
 20
474.261391
 30
0.0
 11
516.445832
 21
476.0
 31
0.0
  0
LINE
  8
LC-004-003-----0
  6
CONTINUOUS
  5
6D
 10
516.445832
 20
476.0
 30
0.0
 11
503.239786
 21
477.738609
 31
0.0
  0
LINE
  8
LC-004-003-----0
  6
CONTINUOUS
  5
6E
 10
503.199748
 20
474.872254
 30
0.0
 11
511.765832
 21
476.0
 31
0.0
  0
LINE
  8
LC-004-003-----0
  6
CONTINUOUS
  5
6F
 10
511.765832
 20
476.0
 30
0.0
 11
503.199748
 21
477.127746
 31
0.0
  0
LINE
  8
LC-004-003-----0
  6
CONTINUOUS
  5
70
 10
503.15971
 20
475.483116
 30
0.0
 11
507.085832
 21
476.0
 31
0.0
  0
LINE
  8
LC-004-003-----0
  6
CONTINUOUS
  5
71
 10
507.085832
 20
476.0
 30
0.0
 11
503.15971
 21
476.516884
 31
0.0
  0
TEXT
  8
LC-004-003-----0
  6
CONTINUOUS
 62
     6
  5
72
 10
384.257659
 20
486.431999
 30
0.0
 40
18.0
  1
Ø230
 51
15.0
  7
LC-TXTSTYLE-150-400-0-0-D0
 72
     1
 11
408.748997
 21
486.431999
 31
0.0
  0
ENDBLK
  8
0
  5
73
  0
BLOCK
  8
0
  5
75
  2
*D4
 70
    65
 10
0.0
 20
0.0
 30
0.0
  3
*D4
  0
LINE
  8
LC-005-003-MTH-0
  6
CONTINUOUS
  5
76
 10
427.953752
 20
161.452833
 30
0.0
 11
570.8
 21
161.452833
 31
0.0
  0
LINE
  8
LC-005-003-MTH-0
  6
CONTINUOUS
  5
77
 10
511.579402
 20
377.5728
 30
0.0
 11
556.280837
 21
377.5728
 31
0.0
  0
LINE
  8
LC-005-003-MTH-0
  6
CONTINUOUS
  5
78
 10
562.280837
 20
377.5728
 30
0.0
 11
570.8
 21
377.5728
 31
0.0
  0
LINE
  8
LC-006-003-MTG-0
  6
CONTINUOUS
  5
79
 10
560.0
 20
161.452833
 30
0.0
 11
560.0
 21
376.4593
 31
0.0
  0
LINE
  8
LC-004-003-----0
  6
CONTINUOUS
  5
7A
 10
557.650529
 20
179.298841
 30
0.0
 11
560.0
 21
161.452833
 31
0.0
  0
LINE
  8
LC-004-003-----0
  6
CONTINUOUS
  5
7B
 10
560.0
 20
161.452833
 30
0.0
 11
562.349471
 21
179.298841
 31
0.0
  0
LINE
  8
LC-004-003-----0
  6
CONTINUOUS
  5
7C
 10
562.349471
 20
179.298841
 30
0.0
 11
557.650529
 21
179.298841
 31
0.0
  0
LINE
  8
LC-004-003-----0
  6
CONTINUOUS
  5
7D
 10
558.261391
 20
179.338879
 30
0.0
 11
560.0
 21
166.132833
 31
0.0
  0
LINE
  8
LC-004-003-----0
  6
CONTINUOUS
  5
7E
 10
560.0
 20
166.132833
 30
0.0
 11
561.738609
 21
179.338879
 31
0.0
  0
LINE
  8
LC-004-003-----0
  6
CONTINUOUS
  5
7F
 10
558.872254
 20
179.378917
 30
0.0
 11
560.0
 21
170.812833
 31
0.0
  0
LINE
  8
LC-004-003-----0
  6
CONTINUOUS
  5
80
 10
560.0
 20
170.812833
 30
0.0
 11
561.127746
 21
179.378917
 31
0.0
  0
LINE
  8
LC-004-003-----0
  6
CONTINUOUS
  5
81
 10
559.483116
 20
179.418955
 30
0.0
 11
560.0
 21
175.492833
 31
0.0
  0
LINE
  8
LC-004-003-----0
  6
CONTINUOUS
  5
82
 10
560.0
 20
175.492833
 30
0.0
 11
560.516884
 21
179.418955
 31
0.0
  0
LINE
  8
LC-004-003-----0
  6
CONTINUOUS
  5
83
 10
562.349471
 20
359.726792
 30
0.0
 11
560.146595
 21
376.4593
 31
0.0
  0
LINE
  8
LC-004-003-----0
  6
CONTINUOUS
  5
84
 10
559.853405
 20
376.4593
 30
0.0
 11
557.650529
 21
359.726792
 31
0.0
  0
LINE
  8
LC-004-003-----0
  6
CONTINUOUS
  5
85
 10
557.650529
 20
359.726792
 30
0.0
 11
562.349471
 21
359.726792
 31
0.0
  0
LINE
  8
LC-004-003-----0
  6
CONTINUOUS
  5
86
 10
561.738609
 20
359.686754
 30
0.0
 11
560.0
 21
372.8928
 31
0.0
  0
LINE
  8
LC-004-003-----0
  6
CONTINUOUS
  5
87
 10
560.0
 20
372.8928
 30
0.0
 11
558.261391
 21
359.686754
 31
0.0
  0
LINE
  8
LC-004-003-----0
  6
CONTINUOUS
  5
88
 10
561.127746
 20
359.646716
 30
0.0
 11
560.0
 21
368.2128
 31
0.0
  0
LINE
  8
LC-004-003-----0
  6
CONTINUOUS
  5
89
 10
560.0
 20
368.2128
 30
0.0
 11
558.872254
 21
359.646716
 31
0.0
  0
LINE
  8
LC-004-003-----0
  6
CONTINUOUS
  5
8A
 10
560.516884
 20
359.606678
 30
0.0
 11
560.0
 21
363.5328
 31
0.0
  0
LINE
  8
LC-004-003-----0
  6
CONTINUOUS
  5
8B
 10
560.0
 20
363.5328
 30
0.0
 11
559.483116
 21
359.606678
 31
0.0
  0
TEXT
  8
LC-004-003-----0
  6
CONTINUOUS
 62
     6
  5
8C
 10
549.568001
 20
253.174204
 30
0.0
 40
18.0
  1
216
 50
90.0
 51
15.0
  7
LC-TXTSTYLE-150-400-0-0-D0
 72
     1
 11
549.568001
 21
272.308062
 31
0.0
  0
ENDBLK
  8
0
  5
8D
  0
BLOCK
  8
0
  5
8F
  2
BLK2
 70
    64
 10
0.0
 20
0.0
 30
0.0
  3
BLK2
  0
ENDBLK
  8
0
  5
90
  0
BLOCK
  8
0
  5
92
  2
BLK3
 70
    64
 10
0.0
 20
0.0
 30
0.0
  3
BLK3
  0
ENDBLK
  8
0
  5
93
  0
BLOCK
  8
0
  5
95
  2
*X7
 70
    65
 10
462.953745
 20
376.253558
 30
0.0
  3
*X7
  0
LINE
  8
LC-003-005-----0
  6
CONTINUOUS
  5
97
 10
507.488894
 20
380.209674
 30
0.0
 11
508.397697
 21
381.118476
 31
0.0
  0
LINE
  8
LC-003-005-----0
  6
CONTINUOUS
  5
98
 10
503.896962
 20
379.446169
 30
0.0
 11
504.805768
 21
380.354974
 31
0.0
  0
LINE
  8
LC-003-005-----0
  6
CONTINUOUS
  5
99
 10
500.30503
 20
378.682664
 30
0.0
 11
501.213839
 21
379.591472
 31
0.0
  0
LINE
  8
LC-003-005-----0
  6
CONTINUOUS
  5
9A
 10
496.713098
 20
377.919159
 30
0.0
 11
497.621909
 21
378.82797
 31
0.0
  0
LINE
  8
LC-003-005-----0
  6
CONTINUOUS
  5
9B
 10
493.121166
 20
377.155654
 30
0.0
 11
494.02998
 21
378.064468
 31
0.0
  0
LINE
  8
LC-003-005-----0
  6
CONTINUOUS
  5
9C
 10
489.529234
 20
376.392149
 30
0.0
 11
490.438051
 21
377.300966
 31
0.0
  0
LINE
  8
LC-003-005-----0
  6
CONTINUOUS
  5
9D
 10
486.562221
 20
376.253563
 30
0.0
 11
487.26222
 21
376.953562
 31
0.0
  0
LINE
  8
LC-003-005-----0
  6
CONTINUOUS
  5
9E
 10
483.739598
 20
376.259368
 30
0.0
 11
484.433799
 21
376.953568
 31
0.0
  0
LINE
  8
LC-003-005-----0
  6
CONTINUOUS
  5
9F
 10
482.169144
 20
377.517341
 30
0.0
 11
482.664119
 21
378.012316
 31
0.0
  0
LINE
  8
LC-003-005-----0
  6
CONTINUOUS
  5
A0
 10
480.576806
 20
378.753429
 30
0.0
 11
481.216743
 21
379.393367
 31
0.0
  0
LINE
  8
LC-003-005-----0
  6
CONTINUOUS
  5
A1
 10
472.091577
 20
378.753482
 30
0.0
 11
472.204237
 21
378.866142
 31
0.0
  0
LINE
  8
LC-003-005-----0
  6
CONTINUOUS
  5
A2
 10
468.263174
 20
377.753506
 30
0.0
 11
469.963163
 21
379.453495
 31
0.0
  0
LINE
  8
LC-003-005-----0
  6
CONTINUOUS
  5
A3
 10
464.134773
 20
376.453532
 30
0.0
 11
464.834768
 21
377.153527
 31
0.0
  0
LINE
  8
LC-003-005-----0
  6
CONTINUOUS
  5
A4
 10
465.434765
 20
377.753524
 30
0.0
 11
466.13476
 21
378.453519
 31
0.0
  0
ENDBLK
  8
0
  5
A5
  0
BLOCK
  8
0
  5
A7
  2
*X8
 70
    65
 10
300.268011
 20
376.253558
 30
0.0
  3
*X8
  0
LINE
  8
LC-003-005-----0
  6
CONTINUOUS
  5
A8
 10
348.200071
 20
376.484343
 30
0.0
 11
348.922949
 21
377.20722
 31
0.0
  0
LINE
  8
LC-003-005-----0
  6
CONTINUOUS
  5
A9
 10
346.640826
 20
377.753525
 30
0.0
 11
347.340831
 21
378.453529
 31
0.0
  0
LINE
  8
LC-003-005-----0
  6
CONTINUOUS
  5
AA
 10
343.812382
 20
377.753507
 30
0.0
 11
344.512386
 21
378.453511
 31
0.0
  0
LINE
  8
LC-003-005-----0
  6
CONTINUOUS
  5
AB
 10
341.966413
 20
378.735966
 30
0.0
 11
342.463342
 21
379.232894
 31
0.0
  0
LINE
  8
LC-003-005-----0
  6
CONTINUOUS
  5
AC
 10
339.703266
 20
379.301246
 30
0.0
 11
339.855503
 21
379.453482
 31
0.0
  0
LINE
  8
LC-003-005-----0
  6
CONTINUOUS
  5
AD
 10
328.17715
 20
376.260411
 30
0.0
 11
331.370168
 21
379.453429
 31
0.0
  0
LINE
  8
LC-003-005-----0
  6
CONTINUOUS
  5
AE
 10
325.341875
 20
376.253563
 30
0.0
 11
326.041877
 21
376.953565
 31
0.0
  0
LINE
  8
LC-003-005-----0
  6
CONTINUOUS
  5
AF
 10
322.604043
 20
376.344158
 30
0.0
 11
323.213443
 21
376.953559
 31
0.0
  0
LINE
  8
LC-003-005-----0
  6
CONTINUOUS
  5
B0
 10
320.271437
 20
376.839979
 30
0.0
 11
320.861624
 21
377.430166
 31
0.0
  0
LINE
  8
LC-003-005-----0
  6
CONTINUOUS
  5
B1
 10
317.938831
 20
377.335801
 30
0.0
 11
318.529017
 21
377.925986
 31
0.0
  0
LINE
  8
LC-003-005-----0
  6
CONTINUOUS
  5
B2
 10
315.606225
 20
377.831622
 30
0.0
 11
316.19641
 21
378.421806
 31
0.0
  0
LINE
  8
LC-003-005-----0
  6
CONTINUOUS
  5
B3
 10
313.273619
 20
378.327443
 30
0.0
 11
313.863802
 21
378.917626
 31
0.0
  0
LINE
  8
LC-003-005-----0
  6
CONTINUOUS
  5
B4
 10
310.941013
 20
378.823264
 30
0.0
 11
311.531195
 21
379.413446
 31
0.0
  0
LINE
  8
LC-003-005-----0
  6
CONTINUOUS
  5
B5
 10
308.608407
 20
379.319086
 30
0.0
 11
309.198588
 21
379.909266
 31
0.0
  0
LINE
  8
LC-003-005-----0
  6
CONTINUOUS
  5
B6
 10
306.275802
 20
379.814907
 30
0.0
 11
306.865981
 21
380.405086
 31
0.0
  0
LINE
  8
LC-003-005-----0
  6
CONTINUOUS
  5
B7
 10
303.943196
 20
380.310728
 30
0.0
 11
304.533374
 21
380.900906
 31
0.0
  0
LINE
  8
LC-003-005-----0
  6
CONTINUOUS
  5
B8
 10
301.733574
 20
380.929533
 30
0.0
 11
302.259453
 21
381.455413
 31
0.0
  0
ENDBLK
  8
0
  5
B9
  0
BLOCK
  8
0
  5
BB
  2
BLK4
 70
    64
 10
0.0
 20
0.0
 30
0.0
  3
BLK4
  0
ENDBLK
  8
0
  5
BC
  0
BLOCK
  8
0
  5
BE
  2
BLK5
 70
    64
 10
0.0
 20
0.0
 30
0.0
  3
BLK5
  0
ENDBLK
  8
0
  5
BF
  0
BLOCK
  8
0
  5
C1
  2
BLK6
 70
    64
 10
0.0
 20
0.0
 30
0.0
  3
BLK6
  0
ENDBLK
  8
0
  5
C2
  0
BLOCK
  8
0
  5
C4
  2
BLK7
 70
    64
 10
0.0
 20
0.0
 30
0.0
  3
BLK7
  0
ENDBLK
  8
0
  5
C5
  0
BLOCK
  8
0
  5
C7
  2
*X13
 70
    65
 10
323.453491
 20
371.454214
 30
0.0
  3
*X13
  0
LINE
  8
LC-003-005-----0
  6
DASHED
  5
C9
 10
329.099602
 20
372.350325
 30
0.0
 11
325.745713
 21
375.704214
 31
0.0
  0
LINE
  8
LC-003-005-----0
  6
DASHED
  5
CA
 10
328.331499
 20
371.704214
 30
0.0
 11
324.392495
 21
375.643218
 31
0.0
  0
LINE
  8
LC-003-005-----0
  6
CONTINUOUS
  5
CB
 10
325.503072
 20
371.704214
 30
0.0
 11
323.453491
 21
373.753796
 31
0.0
  0
ENDBLK
  8
0
  5
CC
  0
BLOCK
  8
0
  5
CE
  2
*X14
 70
    65
 10
347.953758
 20
368.453533
 30
0.0
  3
*X14
  0
LINE
  8
LC-003-005-----0
  6
CONTINUOUS
  5
CF
 10
461.791628
 20
368.453533
 30
0.0
 11
462.453752
 21
369.115656
 31
0.0
  0
LINE
  8
LC-003-005-----0
  6
CONTINUOUS
  5
D0
 10
460.453752
 20
369.944084
 30
0.0
 11
462.453752
 21
371.944084
 31
0.0
  0
LINE
  8
LC-003-005-----0
  6
CONTINUOUS
  5
D1
 10
460.453752
 20
372.772511
 30
0.0
 11
463.120733
 21
375.439492
 31
0.0
  0
LINE
  8
LC-003-005-----0
  6
CONTINUOUS
  5
D2
 10
460.453752
 20
375.600938
 30
0.0
 11
462.453752
 21
377.600938
 31
0.0
  0
LINE
  8
LC-003-005-----0
  6
CONTINUOUS
  5
D3
 10
460.453752
 20
378.429365
 30
0.0
 11
460.47792
 21
378.453533
 31
0.0
  0
LINE
  8
LC-003-005-----0
  6
CONTINUOUS
  5
D4
 10
446.241791
 20
415.129092
 30
0.0
 11
447.245989
 21
416.133291
 31
0.0
  0
LINE
  8
LC-003-005-----0
  6
CONTINUOUS
  5
D5
 10
445.06838
 20
416.784109
 30
0.0
 11
446.628346
 21
418.344075
 31
0.0
  0
LINE
  8
LC-003-005-----0
  6
CONTINUOUS
  5
D6
 10
445.061191
 20
419.605347
 30
0.0
 11
446.010703
 21
420.554859
 31
0.0
  0
LINE
  8
LC-003-005-----0
  6
CONTINUOUS
  5
D7
 10
445.061191
 20
422.433774
 30
0.0
 11
445.39306
 21
422.765643
 31
0.0
  0
LINE
  8
LC-003-005-----0
  6
CONTINUOUS
  5
D8
 10
435.953752
 20
450.095887
 30
0.0
 11
437.953752
 21
452.095887
 31
0.0
  0
LINE
  8
LC-003-005-----0
  6
CONTINUOUS
  5
D9
 10
435.953752
 20
452.924314
 30
0.0
 11
436.48297
 21
453.453533
 31
0.0
  0
LINE
  8
LC-003-005-----0
  6
CONTINUOUS
  5
DA
 10
349.453752
 20
369.252741
 30
0.0
 11
351.453752
 21
371.252741
 31
0.0
  0
LINE
  8
LC-003-005-----0
  6
CONTINUOUS
  5
DB
 10
349.453752
 20
372.081169
 30
0.0
 11
351.453752
 21
374.081169
 31
0.0
  0
LINE
  8
LC-003-005-----0
  6
CONTINUOUS
  5
DC
 10
348.475724
 20
373.931568
 30
0.0
 11
351.453752
 21
376.909596
 31
0.0
  0
LINE
  8
LC-003-005-----0
  6
CONTINUOUS
  5
DD
 10
349.453752
 20
377.738023
 30
0.0
 11
350.169261
 21
378.453532
 31
0.0
  0
LINE
  8
LC-003-005-----0
  6
CONTINUOUS
  5
DE
 10
409.855553
 20
449.453533
 30
0.0
 11
410.953752
 21
450.551731
 31
0.0
  0
LINE
  8
LC-003-005-----0
  6
CONTINUOUS
  5
DF
 10
407.027126
 20
449.453533
 30
0.0
 11
410.953752
 21
453.380158
 31
0.0
  0
LINE
  8
LC-003-005-----0
  6
CONTINUOUS
  5
E0
 10
404.198699
 20
449.453533
 30
0.0
 11
408.198699
 21
453.453533
 31
0.0
  0
LINE
  8
LC-003-005-----0
  6
CONTINUOUS
  5
E1
 10
401.370272
 20
449.453533
 30
0.0
 11
405.370272
 21
453.453533
 31
0.0
  0
LINE
  8
LC-003-005-----0
  6
CONTINUOUS
  5
E2
 10
364.444374
 20
415.356063
 30
0.0
 11
366.846312
 21
417.758
 31
0.0
  0
LINE
  8
LC-003-005-----0
  6
CONTINUOUS
  5
E3
 10
400.953752
 20
451.86544
 30
0.0
 11
402.541845
 21
453.453533
 31
0.0
  0
LINE
  8
LC-003-005-----0
  6
CONTINUOUS
  5
E4
 10
365.540923
 20
419.281039
 30
0.0
 11
366.846312
 21
420.586427
 31
0.0
  0
LINE
  8
LC-003-005-----0
  6
CONTINUOUS
  5
E5
 10
366.637472
 20
423.206015
 30
0.0
 11
366.846312
 21
423.414854
 31
0.0
  0
LINE
  8
LC-003-005-----0
  6
CONTINUOUS
  5
E6
 10
375.914428
 20
449.453533
 30
0.0
 11
375.953752
 21
449.492857
 31
0.0
  0
LINE
  8
LC-003-005-----0
  6
CONTINUOUS
  5
E7
 10
373.953752
 20
450.321284
 30
0.0
 11
375.953752
 21
452.321284
 31
0.0
  0
LINE
  8
LC-003-005-----0
  6
CONTINUOUS
  5
E8
 10
373.953752
 20
453.149711
 30
0.0
 11
374.257573
 21
453.453533
 31
0.0
  0
ENDBLK
  8
0
  5
E9
  0
BLOCK
  8
0
  5
EB
  2
*X15
 70
    65
 10
482.454012
 20
371.454214
 30
0.0
  3
*X15
  0
LINE
  8
LC-003-005-----0
  6
CONTINUOUS
  5
EC
 10
488.454012
 20
374.216261
 30
0.0
 11
486.866915
 21
375.803358
 31
0.0
  0
LINE
  8
LC-003-005-----0
  6
DASHED
  5
ED
 10
487.795822
 20
372.046024
 30
0.0
 11
484.137632
 21
375.704214
 31
0.0
  0
LINE
  8
LC-003-005-----0
  6
DASHED
  5
EE
 10
484.04469
 20
375.797156
 30
0.0
 11
483.929715
 21
375.91213
 31
0.0
  0
LINE
  8
LC-003-005-----0
  6
DASHED
  5
EF
 10
486.961115
 20
371.466517
 30
0.0
 11
486.927503
 21
371.500129
 31
0.0
  0
LINE
  8
LC-003-005-----0
  6
DASHED
  5
F0
 10
486.723418
 20
371.704214
 30
0.0
 11
483.088715
 21
375.338917
 31
0.0
  0
LINE
  8
LC-003-005-----0
  6
CONTINUOUS
  5
F1
 10
484.023916
 20
371.57529
 30
0.0
 11
482.454012
 21
373.145193
 31
0.0
  0
ENDBLK
  8
0
  5
F2
  0
BLOCK
  8
0
  5
F4
  2
BLK8
 70
    64
 10
0.0
 20
0.0
 30
0.0
  3
BLK8
  0
ENDBLK
  8
0
  5
F5
  0
BLOCK
  8
0
  5
F7
  2
BLK9
 70
    64
 10
0.0
 20
0.0
 30
0.0
  3
BLK9
  0
ENDBLK
  8
0
  5
F8
  0
BLOCK
  8
0
  5
FA
  2
BLK10
 70
    64
 10
0.0
 20
0.0
 30
0.0
  3
BLK10
  0
ENDBLK
  8
0
  5
FB
  0
BLOCK
  8
0
  5
FD
  2
BLK11
 70
    64
 10
0.0
 20
0.0
 30
0.0
  3
BLK11
  0
ENDBLK
  8
0
  5
FE
  0
BLOCK
  8
0
  5
100
  2
BLK12
 70
    64
 10
0.0
 20
0.0
 30
0.0
  3
BLK12
  0
ENDBLK
  8
0
  5
101
  0
BLOCK
  8
0
  5
103
  2
BLK13
 70
    64
 10
0.0
 20
0.0
 30
0.0
  3
BLK13
  0
ENDBLK
  8
0
  5
104
  0
BLOCK
  8
0
  5
106
  2
BLK14
 70
    64
 10
0.0
 20
0.0
 30
0.0
  3
BLK14
  0
ENDBLK
  8
0
  5
107
  0
BLOCK
  8
0
  5
109
  2
BLK15
 70
    64
 10
0.0
 20
0.0
 30
0.0
  3
BLK15
  0
ENDBLK
  8
0
  5
10A
  0
BLOCK
  8
0
  5
10C
  2
BLK16
 70
    64
 10
0.0
 20
0.0
 30
0.0
  3
BLK16
  0
ENDBLK
  8
0
  5
10D
  0
BLOCK
  8
0
  5
10F
  2
BLK17
 70
    64
 10
0.0
 20
0.0
 30
0.0
  3
BLK17
  0
ENDBLK
  8
0
  5
110
  0
BLOCK
  8
0
  5
112
  2
BLK18
 70
    64
 10
0.0
 20
0.0
 30
0.0
  3
BLK18
  0
ENDBLK
  8
0
  5
113
  0
BLOCK
  8
0
  5
115
  2
BLK19
 70
    64
 10
0.0
 20
0.0
 30
0.0
  3
BLK19
  0
ENDBLK
  8
0
  5
116
  0
BLOCK
  8
0
  5
118
  2
BLK20
 70
    64
 10
0.0
 20
0.0
 30
0.0
  3
BLK20
  0
ENDBLK
  8
0
  5
119
  0
BLOCK
  8
0
  5
11B
  2
BLK21
 70
    64
 10
0.0
 20
0.0
 30
0.0
  3
BLK21
  0
ENDBLK
  8
0
  5
11C
  0
BLOCK
  8
0
  5
11E
  2
BLK22
 70
    64
 10
0.0
 20
0.0
 30
0.0
  3
BLK22
  0
ENDBLK
  8
0
  5
11F
  0
BLOCK
  8
0
  5
121
  2
BLK23
 70
    64
 10
0.0
 20
0.0
 30
0.0
  3
BLK23
  0
ENDBLK
  8
0
  5
122
  0
BLOCK
  8
0
  5
124
  2
BLK24
 70
    64
 10
0.0
 20
0.0
 30
0.0
  3
BLK24
  0
ENDBLK
  8
0
  5
125
  0
BLOCK
  8
0
  5
127
  2
BLK25
 70
    64
 10
0.0
 20
0.0
 30
0.0
  3
BLK25
  0
ENDBLK
  8
0
  5
128
  0
BLOCK
  8
0
  5
12A
  2
BLK26
 70
    64
 10
0.0
 20
0.0
 30
0.0
  3
BLK26
  0
ENDBLK
  8
0
  5
12B
  0
BLOCK
  8
0
  5
12D
  2
BLK27
 70
    64
 10
0.0
 20
0.0
 30
0.0
  3
BLK27
  0
ENDBLK
  8
0
  5
12E
  0
BLOCK
  8
0
  5
130
  2
BLK28
 70
    64
 10
0.0
 20
0.0
 30
0.0
  3
BLK28
  0
ENDBLK
  8
0
  5
131
  0
BLOCK
  8
0
  5
133
  2
BLK29
 70
    64
 10
0.0
 20
0.0
 30
0.0
  3
BLK29
  0
ENDBLK
  8
0
  5
134
  0
BLOCK
  8
0
  5
136
  2
BLK30
 70
    64
 10
0.0
 20
0.0
 30
0.0
  3
BLK30
  0
ENDBLK
  8
0
  5
137
  0
BLOCK
  8
0
  5
139
  2
BLK31
 70
    64
 10
0.0
 20
0.0
 30
0.0
  3
BLK31
  0
ENDBLK
  8
0
  5
13A
  0
BLOCK
  8
0
  5
13C
  2
BLK32
 70
    64
 10
0.0
 20
0.0
 30
0.0
  3
BLK32
  0
ENDBLK
  8
0
  5
13D
  0
BLOCK
  8
0
  5
13F
  2
BLK33
 70
    64
 10
0.0
 20
0.0
 30
0.0
  3
BLK33
  0
ENDBLK
  8
0
  5
140
  0
BLOCK
  8
0
  5
142
  2
BLK34
 70
    64
 10
0.0
 20
0.0
 30
0.0
  3
BLK34
  0
ENDBLK
  8
0
  5
143
  0
BLOCK
  8
0
  5
145
  2
BLK35
 70
    64
 10
0.0
 20
0.0
 30
0.0
  3
BLK35
  0
ENDBLK
  8
0
  5
146
  0
BLOCK
  8
0
  5
148
  2
BLK36
 70
    64
 10
0.0
 20
0.0
 30
0.0
  3
BLK36
  0
ENDBLK
  8
0
  5
149
  0
BLOCK
  8
0
  5
14B
  2
BLK37
 70
    64
 10
0.0
 20
0.0
 30
0.0
  3
BLK37
  0
ENDBLK
  8
0
  5
14C
  0
BLOCK
  8
0
  5
14E
  2
BLK38
 70
    64
 10
0.0
 20
0.0
 30
0.0
  3
BLK38
  0
ENDBLK
  8
0
  5
14F
  0
BLOCK
  8
0
  5
151
  2
BLK39
 70
    64
 10
0.0
 20
0.0
 30
0.0
  3
BLK39
  0
ENDBLK
  8
0
  5
152
  0
BLOCK
  8
0
  5
154
  2
BLK40
 70
    64
 10
0.0
 20
0.0
 30
0.0
  3
BLK40
  0
ENDBLK
  8
0
  5
155
  0
BLOCK
  8
0
  5
157
  2
BLK41
 70
    64
 10
0.0
 20
0.0
 30
0.0
  3
BLK41
  0
ENDBLK
  8
0
  5
158
  0
BLOCK
  8
0
  5
15A
  2
BLK42
 70
    64
 10
0.0
 20
0.0
 30
0.0
  3
BLK42
  0
ENDBLK
  8
0
  5
15B
  0
BLOCK
  8
0
  5
15D
  2
BLK43
 70
    64
 10
0.0
 20
0.0
 30
0.0
  3
BLK43
  0
ENDBLK
  8
0
  5
15E
  0
ENDSEC
  0
SECTION
  2
ENTITIES
  0
VIEWPORT
  8
LC-000
  5
406
 67
     1
 68
     1
 10
420.0
 20
297.0
 30
0.0
 40
840.0
 41
594.0
 69
     1
1001
ACAD
1000
MVIEW
1002
{
1070
    16
1010
0.0
1020
0.0
1030
0.0
1010
0.0
1020
0.0
1030
1.0
1040
0.0
1040
594.0
1040
420.0
1040
297.0
1040
50.0
1040
0.0
1040
0.0
1070
     0
1070
   100
1070
     1
1070
     1
1070
     0
1070
     0
1070
     0
1070
     0
1040
0.0
1040
0.0
1040
0.0
1040
1.0
1040
1.0
1040
0.0
1040
0.0
1070
     0
1002
{
1002
}
1002
}
  0
VIEWPORT
  8
0
  5
407
 67
     1
 68
     1
 10
0.0
 20
0.0
 30
0.0
 40
0.0
 41
0.0
 69
     1
1001
ACAD
1000
MVIEW
1002
{
1070
    16
1010
0.0
1020
0.0
1030
0.0
1010
0.0
1020
0.0
1030
1.0
1040
0.0
1040
594.0
1040
0.0
1040
0.0
1040
50.0
1040
0.0
1040
0.0
1070
     0
1070
   100
1070
     0
1070
     1
1070
     0
1070
     0
1070
     0
1070
     0
1040
0.0
1040
0.0
1040
0.0
1040
0.5
1040
0.5
1040
0.5
1040
0.5
1070
     0
1002
{
1002
}
1002
}
  0
INSERT
  8
0
  5
160
  2
BLK1
 10
0.0
 20
0.0
 30
0.0
  0
DIMENSION
  8
0
  5
161
  2
*D1
 10
405.953752
 20
120.0
 30
0.0
 11
405.953752
 21
120.0
 31
0.0
  1
DN50
 13
380.953752
 23
165.952833
 33
0.0
 14
430.953752
 24
165.952833
 34
0.0
  3
LC-DIM-L-0090-02-02
  0
DIMENSION
  8
0
  5
162
  2
*D2
 10
520.0
 20
261.452833
 30
0.0
 11
520.0
 21
261.452833
 31
0.0
 13
481.954273
 23
361.452833
 33
0.0
 14
427.953752
 24
161.452833
 34
0.0
 50
90.0
  3
LC-DIM-L-0090-02-02
  0
DIMENSION
  8
0
  5
163
  2
*D3
 10
405.953752
 20
476.0
 30
0.0
 11
405.953752
 21
476.0
 31
0.0
  1
%%c230
 13
290.781671
 23
379.416259
 33
0.0
 14
521.125832
 24
379.416259
 34
0.0
  3
LC-DIM-L-0090-02-02
  0
DIMENSION
  8
0
  5
164
  2
*D4
 10
560.0
 20
269.512816
 30
0.0
 11
560.0
 21
269.512816
 31
0.0
  1
216
 13
427.953752
 23
161.452833
 33
0.0
 14
511.579402
 24
377.5728
 34
0.0
 50
90.0
  3
LC-DIM-L-0090-02-02
  0
INSERT
  8
0
  5
165
  2
BLK2
 10
0.0
 20
0.0
 30
0.0
  0
INSERT
  8
0
  5
166
  2
BLK3
 10
0.0
 20
0.0
 30
0.0
  0
INSERT
  8
0
  5
167
  2
*X7
 10
462.953745
 20
376.253558
 30
0.0
  0
INSERT
  8
0
  5
168
  2
*X8
 10
300.268011
 20
376.253558
 30
0.0
  0
INSERT
  8
0
  5
169
  2
BLK4
 10
0.0
 20
0.0
 30
0.0
  0
INSERT
  8
0
  5
16A
  2
BLK5
 10
0.0
 20
0.0
 30
0.0
  0
INSERT
  8
0
  5
16B
  2
BLK6
 10
0.0
 20
0.0
 30
0.0
  0
INSERT
  8
0
  5
16C
  2
BLK7
 10
0.0
 20
0.0
 30
0.0
  0
INSERT
  8
0
  5
16D
  2
*X13
 10
323.453491
 20
371.454214
 30
0.0
  0
INSERT
  8
0
  5
16E
  2
*X14
 10
347.953758
 20
368.453533
 30
0.0
  0
INSERT
  8
0
  5
16F
  2
*X15
 10
482.454012
 20
371.454214
 30
0.0
  0
INSERT
  8
0
  5
171
  2
BLK8
 10
0.0
 20
0.0
 30
0.0
  0
INSERT
  8
0
  5
172
  2
BLK9
 10
0.0
 20
0.0
 30
0.0
  0
INSERT
  8
0
  5
173
  2
BLK10
 10
0.0
 20
0.0
 30
0.0
  0
INSERT
  8
0
  5
174
  2
BLK11
 10
0.0
 20
0.0
 30
0.0
  0
INSERT
  8
0
  5
175
  2
BLK12
 10
0.0
 20
0.0
 30
0.0
  0
INSERT
  8
0
  5
176
  2
BLK13
 10
0.0
 20
0.0
 30
0.0
  0
INSERT
  8
0
  5
177
  2
BLK14
 10
0.0
 20
0.0
 30
0.0
  0
INSERT
  8
0
  5
178
  2
BLK15
 10
0.0
 20
0.0
 30
0.0
  0
INSERT
  8
0
  5
179
  2
BLK16
 10
0.0
 20
0.0
 30
0.0
  0
INSERT
  8
0
  5
17A
  2
BLK17
 10
0.0
 20
0.0
 30
0.0
  0
INSERT
  8
0
  5
17B
  2
BLK18
 10
0.0
 20
0.0
 30
0.0
  0
INSERT
  8
0
  5
17C
  2
BLK19
 10
0.0
 20
0.0
 30
0.0
  0
INSERT
  8
0
  5
17D
  2
BLK20
 10
0.0
 20
0.0
 30
0.0
  0
INSERT
  8
0
  5
17E
  2
BLK21
 10
0.0
 20
0.0
 30
0.0
  0
INSERT
  8
0
  5
17F
  2
BLK22
 10
0.0
 20
0.0
 30
0.0
  0
INSERT
  8
0
  5
180
  2
BLK23
 10
0.0
 20
0.0
 30
0.0
  0
INSERT
  8
0
  5
181
  2
BLK24
 10
0.0
 20
0.0
 30
0.0
  0
INSERT
  8
0
  5
182
  2
BLK25
 10
0.0
 20
0.0
 30
0.0
  0
INSERT
  8
0
  5
183
  2
BLK26
 10
0.0
 20
0.0
 30
0.0
  0
INSERT
  8
0
  5
184
  2
BLK27
 10
0.0
 20
0.0
 30
0.0
  0
INSERT
  8
0
  5
185
  2
BLK28
 10
0.0
 20
0.0
 30
0.0
  0
INSERT
  8
0
  5
186
  2
BLK29
 10
0.0
 20
0.0
 30
0.0
  0
INSERT
  8
0
  5
187
  2
BLK30
 10
0.0
 20
0.0
 30
0.0
  0
INSERT
  8
0
  5
188
  2
BLK31
 10
0.0
 20
0.0
 30
0.0
  0
INSERT
  8
0
  5
189
  2
BLK32
 10
0.0
 20
0.0
 30
0.0
  0
INSERT
  8
0
  5
18A
  2
BLK33
 10
0.0
 20
0.0
 30
0.0
  0
INSERT
  8
0
  5
18B
  2
BLK34
 10
0.0
 20
0.0
 30
0.0
  0
INSERT
  8
0
  5
18C
  2
BLK35
 10
0.0
 20
0.0
 30
0.0
  0
INSERT
  8
0
  5
18D
  2
BLK36
 10
0.0
 20
0.0
 30
0.0
  0
INSERT
  8
0
  5
18E
  2
BLK37
 10
0.0
 20
0.0
 30
0.0
  0
INSERT
  8
0
  5
18F
  2
BLK38
 10
0.0
 20
0.0
 30
0.0
  0
INSERT
  8
0
  5
190
  2
BLK39
 10
0.0
 20
0.0
 30
0.0
  0
INSERT
  8
0
  5
191
  2
BLK40
 10
0.0
 20
0.0
 30
0.0
  0
INSERT
  8
0
  5
192
  2
BLK41
 10
0.0
 20
0.0
 30
0.0
  0
INSERT
  8
0
  5
193
  2
BLK42
 10
0.0
 20
0.0
 30
0.0
  0
INSERT
  8
0
  5
194
  2
BLK43
 10
0.0
 20
0.0
 30
0.0
  0
LINE
  8
LC-002-002-----0
  6
CONTINUOUS
  5
196
 10
331.953262
 20
374.954214
 30
0.0
 11
331.953262
 21
376.453524
 31
0.0
  0
LINE
  8
LC-002-002-----0
  6
CONTINUOUS
  5
197
 10
479.954241
 20
374.954214
 30
0.0
 11
479.954241
 21
376.453524
 31
0.0
  0
LINE
  8
LC-002-002-----0
  6
CONTINUOUS
  5
198
 10
346.453758
 20
376.453524
 30
0.0
 11
347.953758
 21
376.453533
 31
0.0
  0
LINE
  8
LC-003-005-----0
  6
CONTINUOUS
  5
199
 10
382.140636
 20
161.52332
 30
0.0
 11
383.953752
 21
163.336436
 31
0.0
  0
LINE
  8
LC-002-002-----0
  6
CONTINUOUS
  5
19A
 10
521.125832
 20
377.935116
 30
0.0
 11
521.125832
 21
379.416259
 31
0.0
  0
ARC
  8
LC-002-002-----0
  6
CONTINUOUS
  5
19B
 10
335.953262
 20
370.453534
 30
0.0
 40
10.0
 50
244.158193
 51
295.842059
  0
LINE
  8
LC-003-005-----0
  6
CONTINUOUS
  5
19C
 10
381.542919
 20
163.75403
 30
0.0
 11
383.953752
 21
166.164863
 31
0.0
  0
LINE
  8
LC-003-005-----0
  6
CONTINUOUS
  5
19D
 10
380.953752
 20
165.99329
 30
0.0
 11
383.953752
 21
168.99329
 31
0.0
  0
LINE
  8
LC-003-005-----0
  6
CONTINUOUS
  5
19E
 10
380.953752
 20
168.821717
 30
0.0
 11
383.953752
 21
171.821717
 31
0.0
  0
LINE
  8
LC-003-005-----0
  6
CONTINUOUS
  5
19F
 10
380.953752
 20
171.650144
 30
0.0
 11
383.953752
 21
174.650144
 31
0.0
  0
LINE
  8
LC-002-002-----0
  6
CONTINUOUS
  5
1A0
 10
382.159523
 20
161.452833
 30
0.0
 11
380.953752
 21
165.952833
 31
0.0
  0
LINE
  8
LC-003-005-----0
  6
CONTINUOUS
  5
1A1
 10
380.953752
 20
174.478571
 30
0.0
 11
383.953752
 21
177.478571
 31
0.0
  0
LINE
  8
LC-002-002-----0
  6
CONTINUOUS
  5
1A2
 10
331.953262
 20
376.453524
 30
0.0
 11
332.954533
 21
376.453524
 31
0.0
  0
LINE
  8
LC-002-002-----0
  6
CONTINUOUS
  5
1A3
 10
290.781671
 20
377.935116
 30
0.0
 11
290.781671
 21
379.416259
 31
0.0
  0
LINE
  8
LC-002-002-----0
  6
CONTINUOUS
  5
1A4
 10
339.953262
 20
376.453524
 30
0.0
 11
339.953262
 21
374.954214
 31
0.0
  0
LINE
  8
LC-002-002-----0
  6
CONTINUOUS
  5
1A5
 10
339.953262
 20
376.453524
 30
0.0
 11
338.953279
 21
376.453524
 31
0.0
  0
LINE
  8
LC-002-002-----0
  6
CONTINUOUS
  5
1A6
 10
329.95323
 20
361.452833
 30
0.0
 11
331.59581
 21
361.452833
 31
0.0
  0
LINE
  8
LC-003-005-----0
  6
CONTINUOUS
  5
1A7
 10
380.953752
 20
177.306999
 30
0.0
 11
383.953752
 21
180.306999
 31
0.0
  0
LINE
  8
LC-003-005-----0
  6
CONTINUOUS
  5
1A8
 10
380.953752
 20
180.135426
 30
0.0
 11
383.953752
 21
183.135426
 31
0.0
  0
LINE
  8
LC-002-002-----0
  6
CONTINUOUS
  5
1A9
 10
331.953262
 20
374.954214
 30
0.0
 11
331.242427
 21
374.954214
 31
0.0
  0
ARC
  8
LC-007-002-RND-0
  6
CONTINUOUS
  5
1AB
 10
292.781671
 20
379.416259
 30
0.0
 40
2.0
 50
88.101636
 51
180.0
  0
LINE
  8
LC-002-002-----0
  6
CONTINUOUS
  5
1AC
 10
478.954243
 20
378.753439
 30
0.0
 11
479.704237
 21
378.753435
 31
0.0
  0
LINE
  8
LC-002-002-----0
  6
CONTINUOUS
  5
1AD
 10
340.310714
 20
361.452833
 30
0.0
 11
353.953752
 21
361.452833
 31
0.0
  0
LINE
  8
LC-003-005-----0
  6
CONTINUOUS
  5
1AE
 10
380.953752
 20
182.963853
 30
0.0
 11
383.953752
 21
185.963853
 31
0.0
  0
LINE
  8
LC-002-002-----0
  6
CONTINUOUS
  5
1AF
 10
427.953752
 20
363.669074
 30
0.0
 11
383.953752
 21
363.668284
 31
0.0
  0
LINE
  8
LC-003-005-----0
  6
CONTINUOUS
  5
1B0
 10
380.953752
 20
185.79228
 30
0.0
 11
383.953752
 21
188.79228
 31
0.0
  0
LINE
  8
LC-002-002-----0
  6
CONTINUOUS
  5
1B1
 10
300.668822
 20
381.155939
 30
0.0
 11
292.847925
 21
381.415162
 31
0.0
  0
LINE
  8
LC-002-002-----0
  6
CONTINUOUS
  5
1B2
 10
383.953752
 20
363.668284
 30
0.0
 11
353.87524
 21
364.455917
 31
0.0
  0
LINE
  8
LC-003-005-----0
  6
CONTINUOUS
  5
1B3
 10
380.953752
 20
188.620707
 30
0.0
 11
383.953752
 21
191.620707
 31
0.0
  0
LINE
  8
LC-003-005-----0
  6
CONTINUOUS
  5
1B4
 10
380.953752
 20
191.449134
 30
0.0
 11
383.953752
 21
194.449134
 31
0.0
  0
ARC
  8
LC-007-002-RND-0
  6
CONTINUOUS
  5
1B5
 10
519.125832
 20
379.416259
 30
0.0
 40
2.0
 50
360.0
 51
91.898364
  0
LINE
  8
LC-003-005-----0
  6
CONTINUOUS
  5
1B6
 10
380.953752
 20
194.277561
 30
0.0
 11
383.953752
 21
197.277561
 31
0.0
  0
LINE
  8
LC-002-002-----0
  6
CONTINUOUS
  5
1B7
 10
405.953752
 20
161.452833
 30
0.0
 11
427.953752
 21
161.452833
 31
0.0
  0
LINE
  8
LC-003-005-----0
  6
CONTINUOUS
  5
1B8
 10
380.953752
 20
197.105988
 30
0.0
 11
383.953752
 21
200.105988
 31
0.0
  0
LINE
  8
LC-003-005-----0
  6
CONTINUOUS
  5
1B9
 10
380.953752
 20
199.934416
 30
0.0
 11
383.953752
 21
202.934416
 31
0.0
  0
ARC
  8
LC-002-002-----0
  6
CONTINUOUS
  5
1BA
 10
475.954241
 20
370.453534
 30
0.0
 40
10.0
 50
244.157941
 51
295.841807
  0
LINE
  8
LC-008-006-MLN-0
  6
DASHDOT
  5
1BE
 10
405.953752
 20
463.453533
 30
0.0
 11
405.953752
 21
151.452833
 31
0.0
  0
LINE
  8
LC-002-002-----0
  6
CONTINUOUS
  5
1BF
 10
320.953752
 20
374.954214
 30
0.0
 11
300.668822
 21
381.155939
 31
0.0
  0
LINE
  8
LC-003-005-----0
  6
CONTINUOUS
  5
1C0
 10
380.953752
 20
202.762843
 30
0.0
 11
383.953752
 21
205.762843
 31
0.0
  0
LINE
  8
LC-003-005-----0
  6
CONTINUOUS
  5
1C1
 10
380.953752
 20
205.59127
 30
0.0
 11
383.953752
 21
208.59127
 31
0.0
  0
LINE
  8
LC-002-002-----0
  6
CONTINUOUS
  5
1C2
 10
320.504603
 20
371.402841
 30
0.0
 11
300.328101
 21
377.5728
 31
0.0
  0
LINE
  8
LC-003-005-----0
  6
CONTINUOUS
  5
1C3
 10
380.953752
 20
208.419697
 30
0.0
 11
383.953752
 21
211.419697
 31
0.0
  0
LINE
  8
LC-002-002-----0
  6
CONTINUOUS
  5
1C4
 10
465.953864
 20
364.454214
 30
0.0
 11
457.939658
 21
364.454214
 31
0.0
  0
LINE
  8
LC-003-005-----0
  6
CONTINUOUS
  5
1C5
 10
380.953752
 20
211.248124
 30
0.0
 11
383.953752
 21
214.248124
 31
0.0
  0
LINE
  8
LC-003-005-----0
  6
CONTINUOUS
  5
1C6
 10
380.953752
 20
214.076551
 30
0.0
 11
383.953752
 21
217.076551
 31
0.0
  0
LINE
  8
LC-003-005-----0
  6
CONTINUOUS
  5
1C7
 10
380.953752
 20
216.904978
 30
0.0
 11
383.953752
 21
219.904978
 31
0.0
  0
LINE
  8
LC-002-002-----0
  6
CONTINUOUS
  5
1C8
 10
300.328101
 20
377.5728
 30
0.0
 11
290.781703
 21
377.935957
 31
0.0
  0
LINE
  8
LC-003-005-----0
  6
CONTINUOUS
  5
1C9
 10
380.953752
 20
219.733405
 30
0.0
 11
383.953752
 21
222.733405
 31
0.0
  0
LINE
  8
LC-002-002-----0
  6
CONTINUOUS
  5
1CA
 10
479.954241
 20
376.453524
 30
0.0
 11
478.954249
 21
376.453524
 31
0.0
  0
LINE
  8
LC-003-005-----0
  6
CONTINUOUS
  5
1CB
 10
380.953752
 20
222.561833
 30
0.0
 11
383.953752
 21
225.561833
 31
0.0
  0
LINE
  8
LC-003-005-----0
  6
CONTINUOUS
  5
1CC
 10
380.953752
 20
225.39026
 30
0.0
 11
383.953752
 21
228.39026
 31
0.0
  0
LINE
  8
LC-002-002-----0
  6
CONTINUOUS
  5
1CD
 10
405.953752
 20
161.452833
 30
0.0
 11
383.953752
 21
161.452833
 31
0.0
  0
LINE
  8
LC-002-002-----0
  6
CONTINUOUS
  5
1CE
 10
511.579402
 20
377.5728
 30
0.0
 11
521.1258
 21
377.935957
 31
0.0
  0
LINE
  8
LC-002-002-----0
  6
CONTINUOUS
  5
1CF
 10
491.4029
 20
371.402841
 30
0.0
 11
511.579402
 21
377.5728
 31
0.0
  0
LINE
  8
LC-003-005-----0
  6
CONTINUOUS
  5
1D0
 10
380.953752
 20
228.218687
 30
0.0
 11
383.953752
 21
231.218687
 31
0.0
  0
LINE
  8
LC-003-005-----0
  6
CONTINUOUS
  5
1D1
 10
380.953752
 20
231.047114
 30
0.0
 11
383.953752
 21
234.047114
 31
0.0
  0
LINE
  8
LC-002-002-----0
  6
CONTINUOUS
  5
1D2
 10
490.953752
 20
374.954214
 30
0.0
 11
511.238681
 21
381.155939
 31
0.0
  0
LINE
  8
LC-002-002-----0
  6
CONTINUOUS
  5
1D3
 10
511.238681
 20
381.155939
 30
0.0
 11
519.0597
 21
381.41144
 31
0.0
  0
LINE
  8
LC-003-005-----0
  6
CONTINUOUS
  5
1D4
 10
380.953752
 20
233.875541
 30
0.0
 11
383.953752
 21
236.875541
 31
0.0
  0
LINE
  8
LC-002-002-----0
  6
CONTINUOUS
  5
1D5
 10
427.953752
 20
363.669074
 30
0.0
 11
428.053752
 21
363.669074
 31
0.0
  0
LINE
  8
LC-002-002-----0
  6
CONTINUOUS
  5
1D6
 10
430.953752
 20
360.74656
 30
0.0
 11
430.953752
 21
360.746535
 31
0.0
  0
LINE
  8
LC-003-005-----0
  6
CONTINUOUS
  5
1D7
 10
380.953752
 20
236.703968
 30
0.0
 11
383.953752
 21
239.703968
 31
0.0
  0
LINE
  8
LC-003-005-----0
  6
CONTINUOUS
  5
1D8
 10
427.953752
 20
162.081602
 30
0.0
 11
430.634859
 21
164.762709
 31
0.0
  0
LINE
  8
LC-002-002-----0
  6
CONTINUOUS
  5
1D9
 10
380.953752
 20
360.745813
 30
0.0
 11
380.953752
 21
165.952833
 31
0.0
  0
LINE
  8
LC-002-002-----0
  6
CONTINUOUS
  5
1DA
 10
430.953761
 20
360.746604
 30
0.0
 11
430.953752
 21
165.952833
 31
0.0
  0
LINE
  8
LC-002-002-----0
  6
CONTINUOUS
  5
1DB
 10
383.953752
 20
363.668284
 30
0.0
 11
383.953752
 21
161.452833
 31
0.0
  0
LINE
  8
LC-002-002-----0
  6
CONTINUOUS
  5
1DC
 10
427.953761
 20
363.666443
 30
0.0
 11
427.953752
 21
161.452833
 31
0.0
  0
LINE
  8
LC-002-002-----0
  6
CONTINUOUS
  5
1DD
 10
429.74798
 20
161.452833
 30
0.0
 11
430.953752
 21
165.952833
 31
0.0
  0
LINE
  8
LC-003-005-----0
  6
CONTINUOUS
  5
1DE
 10
380.953752
 20
239.532395
 30
0.0
 11
383.953752
 21
242.532395
 31
0.0
  0
LINE
  8
LC-002-002-----0
  6
DASHDOT
 62
     2
  5
1DF
 10
475.954241
 20
382.774278
 30
0.0
 11
475.954241
 21
361.953524
 31
0.0
  0
LINE
  8
LC-003-005-----0
  6
CONTINUOUS
  5
1E0
 10
427.953752
 20
164.910029
 30
0.0
 11
430.953752
 21
167.910029
 31
0.0
  0
LINE
  8
LC-003-005-----0
  6
CONTINUOUS
  5
1E1
 10
380.953752
 20
242.360822
 30
0.0
 11
383.953752
 21
245.360822
 31
0.0
  0
LINE
  8
LC-003-005-----0
  6
CONTINUOUS
  5
1E2
 10
380.953752
 20
245.18925
 30
0.0
 11
383.953752
 21
248.18925
 31
0.0
  0
LINE
  8
LC-003-005-----0
  6
CONTINUOUS
  5
1E3
 10
380.953752
 20
248.017677
 30
0.0
 11
383.953752
 21
251.017677
 31
0.0
  0
LINE
  8
LC-003-005-----0
  6
CONTINUOUS
  5
1E4
 10
380.953752
 20
250.846104
 30
0.0
 11
383.953752
 21
253.846104
 31
0.0
  0
LINE
  8
LC-002-002-----0
  6
CONTINUOUS
  5
1E5
 10
353.87524
 20
364.455917
 30
0.0
 11
457.939658
 21
364.455917
 31
0.0
  0
LINE
  8
LC-002-002-----0
  6
CONTINUOUS
  5
1E6
 10
471.954241
 20
376.453524
 30
0.0
 11
471.954241
 21
374.954214
 31
0.0
  0
LINE
  8
LC-002-002-----0
  6
CONTINUOUS
  5
1E7
 10
471.954241
 20
376.453524
 30
0.0
 11
472.955503
 21
376.453524
 31
0.0
  0
LINE
  8
LC-002-002-----0
  6
CONTINUOUS
  5
1E8
 10
481.954273
 20
361.452833
 30
0.0
 11
480.311693
 21
361.452833
 31
0.0
  0
LINE
  8
LC-003-005-----0
  6
CONTINUOUS
  5
1E9
 10
427.953752
 20
167.738456
 30
0.0
 11
430.953752
 21
170.738456
 31
0.0
  0
LINE
  8
LC-002-002-----0
  6
CONTINUOUS
  5
1EA
 10
341.953752
 20
376.454214
 30
0.0
 11
341.953752
 21
374.954214
 31
0.0
  0
LINE
  8
LC-002-002-----0
  6
CONTINUOUS
  5
1EB
 10
329.953752
 20
374.954214
 30
0.0
 11
329.953752
 21
371.454214
 31
0.0
  0
LINE
  8
LC-002-002-----0
  6
CONTINUOUS
  5
1EC
 10
383.953752
 20
161.452833
 30
0.0
 11
382.159523
 21
161.452833
 31
0.0
  0
LINE
  8
LC-002-002-----0
  6
CONTINUOUS
  5
1ED
 10
341.953752
 20
374.954214
 30
0.0
 11
341.242427
 21
374.954214
 31
0.0
  0
LINE
  8
LC-002-002-----0
  6
CONTINUOUS
  5
1EE
 10
427.953752
 20
161.452833
 30
0.0
 11
429.74798
 21
161.452833
 31
0.0
  0
LINE
  8
LC-002-002-----0
  6
CONTINUOUS
  5
1EF
 10
329.95323
 20
371.454214
 30
0.0
 11
322.95323
 21
371.454214
 31
0.0
  0
LINE
  8
LC-002-002-----0
  6
CONTINUOUS
  5
1F0
 10
322.95323
 20
371.454214
 30
0.0
 11
322.95323
 21
374.954214
 31
0.0
  0
LINE
  8
LC-002-002-----0
  6
CONTINUOUS
  5
1F1
 10
329.95323
 20
368.954214
 30
0.0
 11
322.95323
 21
368.954214
 31
0.0
  0
LINE
  8
LC-002-002-----0
  6
CONTINUOUS
  5
1F2
 10
322.95323
 20
368.954214
 30
0.0
 11
320.504603
 21
371.402841
 31
0.0
  0
LINE
  8
LC-003-005-----0
  6
CONTINUOUS
  5
1F3
 10
380.953752
 20
253.674531
 30
0.0
 11
383.953752
 21
256.674531
 31
0.0
  0
LINE
  8
LC-003-005-----0
  6
CONTINUOUS
  5
1F4
 10
380.953752
 20
256.502958
 30
0.0
 11
383.953752
 21
259.502958
 31
0.0
  0
LINE
  8
LC-003-005-----0
  6
CONTINUOUS
  5
1F5
 10
380.953752
 20
259.331385
 30
0.0
 11
383.953752
 21
262.331385
 31
0.0
  0
LINE
  8
LC-003-005-----0
  6
CONTINUOUS
  5
1F6
 10
380.953752
 20
262.159812
 30
0.0
 11
383.953752
 21
265.159812
 31
0.0
  0
LINE
  8
LC-003-005-----0
  6
CONTINUOUS
  5
1F7
 10
380.953752
 20
264.988239
 30
0.0
 11
383.953752
 21
267.988239
 31
0.0
  0
LINE
  8
LC-003-005-----0
  6
CONTINUOUS
  5
1F8
 10
380.953752
 20
267.816667
 30
0.0
 11
383.953752
 21
270.816667
 31
0.0
  0
LINE
  8
LC-003-005-----0
  6
CONTINUOUS
  5
1F9
 10
380.953752
 20
270.645094
 30
0.0
 11
383.953752
 21
273.645094
 31
0.0
  0
LINE
  8
LC-003-005-----0
  6
CONTINUOUS
  5
1FA
 10
380.953752
 20
273.473521
 30
0.0
 11
383.953752
 21
276.473521
 31
0.0
  0
LINE
  8
LC-003-005-----0
  6
CONTINUOUS
  5
1FB
 10
380.953752
 20
276.301948
 30
0.0
 11
383.953752
 21
279.301948
 31
0.0
  0
LINE
  8
LC-003-005-----0
  6
CONTINUOUS
  5
1FC
 10
380.953752
 20
279.130375
 30
0.0
 11
383.953752
 21
282.130375
 31
0.0
  0
LINE
  8
LC-003-005-----0
  6
CONTINUOUS
  5
1FD
 10
380.953752
 20
281.958802
 30
0.0
 11
383.953752
 21
284.958802
 31
0.0
  0
LINE
  8
LC-003-005-----0
  6
CONTINUOUS
  5
1FE
 10
380.953752
 20
284.787229
 30
0.0
 11
383.953752
 21
287.787229
 31
0.0
  0
LINE
  8
LC-003-005-----0
  6
CONTINUOUS
  5
1FF
 10
380.953752
 20
287.615656
 30
0.0
 11
383.953752
 21
290.615656
 31
0.0
  0
LINE
  8
LC-003-005-----0
  6
CONTINUOUS
  5
200
 10
380.953752
 20
290.444084
 30
0.0
 11
383.953752
 21
293.444084
 31
0.0
  0
LINE
  8
LC-003-005-----0
  6
CONTINUOUS
  5
201
 10
380.953752
 20
293.272511
 30
0.0
 11
383.953752
 21
296.272511
 31
0.0
  0
LINE
  8
LC-003-005-----0
  6
CONTINUOUS
  5
202
 10
380.953752
 20
296.100938
 30
0.0
 11
383.953752
 21
299.100938
 31
0.0
  0
LINE
  8
LC-003-005-----0
  6
CONTINUOUS
  5
203
 10
380.953752
 20
298.929365
 30
0.0
 11
383.953752
 21
301.929365
 31
0.0
  0
LINE
  8
LC-003-005-----0
  6
CONTINUOUS
  5
204
 10
380.953752
 20
301.757792
 30
0.0
 11
383.953752
 21
304.757792
 31
0.0
  0
LINE
  8
LC-003-005-----0
  6
CONTINUOUS
  5
205
 10
380.953752
 20
304.586219
 30
0.0
 11
383.953752
 21
307.586219
 31
0.0
  0
LINE
  8
LC-003-005-----0
  6
CONTINUOUS
  5
206
 10
380.953752
 20
307.414646
 30
0.0
 11
383.953752
 21
310.414646
 31
0.0
  0
LINE
  8
LC-003-005-----0
  6
CONTINUOUS
  5
207
 10
380.953752
 20
310.243073
 30
0.0
 11
383.953752
 21
313.243073
 31
0.0
  0
LINE
  8
LC-003-005-----0
  6
CONTINUOUS
  5
208
 10
380.953752
 20
313.071501
 30
0.0
 11
383.953752
 21
316.071501
 31
0.0
  0
LINE
  8
LC-003-005-----0
  6
CONTINUOUS
  5
209
 10
380.953752
 20
315.899928
 30
0.0
 11
383.953752
 21
318.899928
 31
0.0
  0
LINE
  8
LC-003-005-----0
  6
CONTINUOUS
  5
20A
 10
380.953752
 20
318.728355
 30
0.0
 11
383.953752
 21
321.728355
 31
0.0
  0
LINE
  8
LC-003-005-----0
  6
CONTINUOUS
  5
20B
 10
380.953752
 20
321.556782
 30
0.0
 11
383.953752
 21
324.556782
 31
0.0
  0
LINE
  8
LC-003-005-----0
  6
CONTINUOUS
  5
20C
 10
380.953752
 20
324.385209
 30
0.0
 11
383.953752
 21
327.385209
 31
0.0
  0
LINE
  8
LC-003-005-----0
  6
CONTINUOUS
  5
20D
 10
380.953752
 20
327.213636
 30
0.0
 11
383.953752
 21
330.213636
 31
0.0
  0
LINE
  8
LC-003-005-----0
  6
CONTINUOUS
  5
20E
 10
380.953752
 20
330.042063
 30
0.0
 11
383.953752
 21
333.042063
 31
0.0
  0
LINE
  8
LC-003-005-----0
  6
CONTINUOUS
  5
20F
 10
380.953752
 20
332.87049
 30
0.0
 11
383.953752
 21
335.87049
 31
0.0
  0
LINE
  8
LC-003-005-----0
  6
CONTINUOUS
  5
210
 10
380.953752
 20
335.698918
 30
0.0
 11
383.953752
 21
338.698918
 31
0.0
  0
LINE
  8
LC-003-005-----0
  6
CONTINUOUS
  5
211
 10
380.953752
 20
338.527345
 30
0.0
 11
383.953752
 21
341.527345
 31
0.0
  0
LINE
  8
LC-003-005-----0
  6
CONTINUOUS
  5
212
 10
380.953752
 20
341.355772
 30
0.0
 11
383.953752
 21
344.355772
 31
0.0
  0
LINE
  8
LC-003-005-----0
  6
CONTINUOUS
  5
213
 10
380.953752
 20
344.184199
 30
0.0
 11
383.953752
 21
347.184199
 31
0.0
  0
LINE
  8
LC-003-005-----0
  6
CONTINUOUS
  5
214
 10
380.953752
 20
347.012626
 30
0.0
 11
383.953752
 21
350.012626
 31
0.0
  0
LINE
  8
LC-003-005-----0
  6
CONTINUOUS
  5
215
 10
380.953752
 20
349.841053
 30
0.0
 11
383.953752
 21
352.841053
 31
0.0
  0
LINE
  8
LC-003-005-----0
  6
CONTINUOUS
  5
216
 10
380.953752
 20
352.66948
 30
0.0
 11
383.953752
 21
355.66948
 31
0.0
  0
LINE
  8
LC-003-005-----0
  6
CONTINUOUS
  5
217
 10
380.953752
 20
355.497907
 30
0.0
 11
383.953752
 21
358.497907
 31
0.0
  0
LINE
  8
LC-003-005-----0
  6
CONTINUOUS
  5
218
 10
380.953752
 20
358.326335
 30
0.0
 11
383.953752
 21
361.326335
 31
0.0
  0
LINE
  8
LC-003-005-----0
  6
CONTINUOUS
  5
219
 10
380.551796
 20
360.752806
 30
0.0
 11
380.551805
 21
360.752815
 31
0.0
  0
LINE
  8
LC-003-005-----0
  6
CONTINUOUS
  5
21A
 10
380.555239
 20
360.756249
 30
0.0
 11
383.479688
 21
363.680698
 31
0.0
  0
LINE
  8
LC-003-005-----0
  6
CONTINUOUS
  5
21B
 10
377.77173
 20
360.801167
 30
0.0
 11
377.771802
 21
360.80124
 31
0.0
  0
LINE
  8
LC-003-005-----0
  6
CONTINUOUS
  5
21C
 10
377.798986
 20
360.828424
 30
0.0
 11
380.723435
 21
363.752873
 31
0.0
  0
LINE
  8
LC-003-005-----0
  6
CONTINUOUS
  5
21D
 10
374.991664
 20
360.849529
 30
0.0
 11
374.9918
 21
360.849664
 31
0.0
  0
LINE
  8
LC-003-005-----0
  6
CONTINUOUS
  5
21E
 10
375.042734
 20
360.900599
 30
0.0
 11
377.967183
 21
363.825048
 31
0.0
  0
LINE
  8
LC-003-005-----0
  6
CONTINUOUS
  5
21F
 10
372.211599
 20
360.89789
 30
0.0
 11
372.211798
 21
360.898089
 31
0.0
  0
LINE
  8
LC-003-005-----0
  6
CONTINUOUS
  5
220
 10
372.286482
 20
360.972774
 30
0.0
 11
375.210931
 21
363.897223
 31
0.0
  0
LINE
  8
LC-003-005-----0
  6
CONTINUOUS
  5
221
 10
369.431533
 20
360.946252
 30
0.0
 11
369.431795
 21
360.946514
 31
0.0
  0
LINE
  8
LC-003-005-----0
  6
CONTINUOUS
  5
222
 10
369.53023
 20
361.044949
 30
0.0
 11
372.454679
 21
363.969398
 31
0.0
  0
LINE
  8
LC-003-005-----0
  6
CONTINUOUS
  5
223
 10
366.651468
 20
360.994614
 30
0.0
 11
366.651793
 21
360.994939
 31
0.0
  0
LINE
  8
LC-003-005-----0
  6
CONTINUOUS
  5
224
 10
366.773978
 20
361.117124
 30
0.0
 11
369.698427
 21
364.041573
 31
0.0
  0
LINE
  8
LC-003-005-----0
  6
CONTINUOUS
  5
225
 10
363.871402
 20
361.042975
 30
0.0
 11
363.871791
 21
361.043364
 31
0.0
  0
LINE
  8
LC-003-005-----0
  6
CONTINUOUS
  5
226
 10
364.017726
 20
361.189299
 30
0.0
 11
366.942175
 21
364.113748
 31
0.0
  0
LINE
  8
LC-003-005-----0
  6
CONTINUOUS
  5
227
 10
361.091337
 20
361.091337
 30
0.0
 11
361.091789
 21
361.091789
 31
0.0
  0
LINE
  8
LC-003-005-----0
  6
CONTINUOUS
  5
228
 10
361.261474
 20
361.261474
 30
0.0
 11
364.185923
 21
364.185923
 31
0.0
  0
LINE
  8
LC-003-005-----0
  6
CONTINUOUS
  5
229
 10
358.311271
 20
361.139698
 30
0.0
 11
358.311786
 21
361.140213
 31
0.0
  0
LINE
  8
LC-003-005-----0
  6
CONTINUOUS
  5
22A
 10
358.505222
 20
361.333649
 30
0.0
 11
361.429671
 21
364.258098
 31
0.0
  0
LINE
  8
LC-003-005-----0
  6
CONTINUOUS
  5
22B
 10
355.531206
 20
361.18806
 30
0.0
 11
355.531784
 21
361.188638
 31
0.0
  0
LINE
  8
LC-003-005-----0
  6
CONTINUOUS
  5
22C
 10
355.748969
 20
361.405824
 30
0.0
 11
358.673418
 21
364.330273
 31
0.0
  0
LINE
  8
LC-003-005-----0
  6
CONTINUOUS
  5
22D
 10
352.75114
 20
361.236421
 30
0.0
 11
352.751782
 21
361.237063
 31
0.0
  0
LINE
  8
LC-003-005-----0
  6
CONTINUOUS
  5
22E
 10
352.967552
 20
361.452833
 30
0.0
 11
355.917166
 21
364.402448
 31
0.0
  0
LINE
  8
LC-003-005-----0
  6
CONTINUOUS
  5
22F
 10
349.971075
 20
361.284783
 30
0.0
 11
349.971779
 21
361.285488
 31
0.0
  0
LINE
  8
LC-003-005-----0
  6
CONTINUOUS
  5
230
 10
350.139125
 20
361.452833
 30
0.0
 11
353.142051
 21
364.45576
 31
0.0
  0
LINE
  8
LC-003-005-----0
  6
CONTINUOUS
  5
231
 10
347.191009
 20
361.333145
 30
0.0
 11
347.191777
 21
361.333913
 31
0.0
  0
LINE
  8
LC-003-005-----0
  6
CONTINUOUS
  5
232
 10
347.310698
 20
361.452833
 30
0.0
 11
350.313016
 21
364.455151
 31
0.0
  0
LINE
  8
LC-003-005-----0
  6
CONTINUOUS
  5
233
 10
344.410943
 20
361.381506
 30
0.0
 11
344.411775
 21
361.382338
 31
0.0
  0
LINE
  8
LC-003-005-----0
  6
CONTINUOUS
  5
234
 10
344.48227
 20
361.452833
 30
0.0
 11
347.48398
 21
364.454543
 31
0.0
  0
LINE
  8
LC-003-005-----0
  6
CONTINUOUS
  5
235
 10
341.630878
 20
361.429868
 30
0.0
 11
341.631772
 21
361.430762
 31
0.0
  0
LINE
  8
LC-003-005-----0
  6
CONTINUOUS
  5
236
 10
341.653843
 20
361.452833
 30
0.0
 11
345.953639
 21
365.752629
 31
0.0
  0
LINE
  8
LC-003-005-----0
  6
CONTINUOUS
  5
237
 10
338.047967
 20
360.675384
 30
0.0
 11
345.953639
 21
368.581056
 31
0.0
  0
LINE
  8
LC-003-005-----0
  6
CONTINUOUS
  5
238
 10
335.039523
 20
360.495367
 30
0.0
 11
336.497679
 21
361.953524
 31
0.0
  0
LINE
  8
LC-003-005-----0
  6
CONTINUOUS
  5
239
 10
338.453262
 20
363.909106
 30
0.0
 11
345.953639
 21
371.409484
 31
0.0
  0
LINE
  8
LC-003-005-----0
  6
CONTINUOUS
  5
23A
 10
332.709858
 20
360.994129
 30
0.0
 11
333.669252
 21
361.953524
 31
0.0
  0
LINE
  8
LC-003-005-----0
  6
CONTINUOUS
  5
23B
 10
338.453262
 20
366.737533
 30
0.0
 11
345.953639
 21
374.237911
 31
0.0
  0
LINE
  8
LC-003-005-----0
  6
CONTINUOUS
  5
23C
 10
330.340135
 20
361.452833
 30
0.0
 11
333.453262
 21
364.56596
 31
0.0
  0
LINE
  8
LC-003-005-----0
  6
CONTINUOUS
  5
23D
 10
338.453262
 20
369.56596
 30
0.0
 11
345.341516
 21
376.454214
 31
0.0
  0
LINE
  8
LC-003-005-----0
  6
CONTINUOUS
  5
23E
 10
329.95323
 20
363.894355
 30
0.0
 11
333.453262
 21
367.394388
 31
0.0
  0
LINE
  8
LC-003-005-----0
  6
CONTINUOUS
  5
23F
 10
338.453262
 20
372.394388
 30
0.0
 11
341.158483
 21
375.099609
 31
0.0
  0
LINE
  8
LC-002-002-----0
  6
CONTINUOUS
  5
240
 10
344.953639
 20
376.454214
 30
0.0
 11
345.953639
 21
376.454214
 31
0.0
  0
LINE
  8
LC-003-005-----0
  6
CONTINUOUS
  5
241
 10
341.953752
 20
375.894877
 30
0.0
 11
342.513088
 21
376.454214
 31
0.0
  0
LINE
  8
LC-002-002-----0
  6
CONTINUOUS
  5
242
 10
465.453745
 20
376.453524
 30
0.0
 11
463.953762
 21
376.453533
 31
0.0
  0
LINE
  8
LC-003-005-----0
  6
CONTINUOUS
  5
243
 10
329.95323
 20
366.722782
 30
0.0
 11
333.453262
 21
370.222815
 31
0.0
  0
LINE
  8
LC-003-005-----0
  6
CONTINUOUS
  5
244
 10
338.453262
 20
375.222815
 30
0.0
 11
339.683971
 21
376.453524
 31
0.0
  0
LINE
  8
LC-003-005-----0
  6
CONTINUOUS
  5
245
 10
329.356234
 20
368.954214
 30
0.0
 11
333.453262
 21
373.051242
 31
0.0
  0
LINE
  8
LC-003-005-----0
  6
CONTINUOUS
  5
246
 10
326.527807
 20
368.954214
 30
0.0
 11
329.027807
 21
371.454214
 31
0.0
  0
LINE
  8
LC-003-005-----0
  6
CONTINUOUS
  5
247
 10
329.953752
 20
372.380158
 30
0.0
 11
333.453262
 21
375.879669
 31
0.0
  0
LINE
  8
LC-003-005-----0
  6
CONTINUOUS
  5
248
 10
323.69938
 20
368.954214
 30
0.0
 11
326.19938
 21
371.454214
 31
0.0
  0
LINE
  8
LC-003-005-----0
  6
CONTINUOUS
  5
249
 10
321.912091
 20
369.995352
 30
0.0
 11
323.370953
 21
371.454214
 31
0.0
  0
LINE
  8
LC-003-005-----0
  6
CONTINUOUS
  5
24A
 10
318.328252
 20
372.068367
 30
0.0
 11
321.214099
 21
374.954214
 31
0.0
  0
LINE
  8
LC-003-005-----0
  6
CONTINUOUS
  5
24B
 10
316.162201
 20
372.730744
 30
0.0
 11
318.986975
 21
375.555518
 31
0.0
  0
LINE
  8
LC-003-005-----0
  6
CONTINUOUS
  5
24C
 10
313.996151
 20
373.393121
 30
0.0
 11
316.820811
 21
376.217781
 31
0.0
  0
LINE
  8
LC-003-005-----0
  6
CONTINUOUS
  5
24D
 10
311.8301
 20
374.055497
 30
0.0
 11
314.654647
 21
376.880044
 31
0.0
  0
LINE
  8
LC-003-005-----0
  6
CONTINUOUS
  5
24E
 10
309.66405
 20
374.717874
 30
0.0
 11
312.488483
 21
377.542306
 31
0.0
  0
LINE
  8
LC-003-005-----0
  6
CONTINUOUS
  5
24F
 10
307.497999
 20
375.38025
 30
0.0
 11
310.322318
 21
378.204569
 31
0.0
  0
LINE
  8
LC-003-005-----0
  6
CONTINUOUS
  5
250
 10
305.331949
 20
376.042627
 30
0.0
 11
308.156154
 21
378.866832
 31
0.0
  0
LINE
  8
LC-003-005-----0
  6
CONTINUOUS
  5
251
 10
303.165898
 20
376.705003
 30
0.0
 11
305.98999
 21
379.529095
 31
0.0
  0
LINE
  8
LC-003-005-----0
  6
CONTINUOUS
  5
252
 10
300.999848
 20
377.36738
 30
0.0
 11
303.823826
 21
380.191358
 31
0.0
  0
LINE
  8
LC-003-005-----0
  6
CONTINUOUS
  5
253
 10
298.448348
 20
377.644308
 30
0.0
 11
301.657661
 21
380.853621
 31
0.0
  0
LINE
  8
LC-003-005-----0
  6
CONTINUOUS
  5
254
 10
295.723575
 20
377.747962
 30
0.0
 11
299.180871
 21
381.205257
 31
0.0
  0
LINE
  8
LC-003-005-----0
  6
CONTINUOUS
  5
255
 10
292.998802
 20
377.851616
 30
0.0
 11
296.443184
 21
381.295997
 31
0.0
  0
LINE
  8
LC-003-005-----0
  6
CONTINUOUS
  5
256
 10
290.781671
 20
378.462912
 30
0.0
 11
293.705497
 21
381.386738
 31
0.0
  0
LINE
  8
LC-003-005-----0
  6
CONTINUOUS
  5
257
 10
427.953752
 20
170.566883
 30
0.0
 11
430.953752
 21
173.566883
 31
0.0
  0
LINE
  8
LC-003-005-----0
  6
CONTINUOUS
  5
258
 10
427.953752
 20
173.39531
 30
0.0
 11
430.953752
 21
176.39531
 31
0.0
  0
LINE
  8
LC-003-005-----0
  6
CONTINUOUS
  5
259
 10
427.953752
 20
176.223737
 30
0.0
 11
430.953752
 21
179.223737
 31
0.0
  0
LINE
  8
LC-003-005-----0
  6
CONTINUOUS
  5
25A
 10
427.953752
 20
179.052165
 30
0.0
 11
430.953752
 21
182.052165
 31
0.0
  0
LINE
  8
LC-003-005-----0
  6
CONTINUOUS
  5
25B
 10
427.953752
 20
181.880592
 30
0.0
 11
430.953752
 21
184.880592
 31
0.0
  0
LINE
  8
LC-003-005-----0
  6
CONTINUOUS
  5
25C
 10
427.953752
 20
184.709019
 30
0.0
 11
430.953752
 21
187.709019
 31
0.0
  0
LINE
  8
LC-003-005-----0
  6
CONTINUOUS
  5
25D
 10
427.953752
 20
187.537446
 30
0.0
 11
430.953752
 21
190.537446
 31
0.0
  0
LINE
  8
LC-003-005-----0
  6
CONTINUOUS
  5
25E
 10
427.953752
 20
190.365873
 30
0.0
 11
430.953752
 21
193.365873
 31
0.0
  0
LINE
  8
LC-003-005-----0
  6
CONTINUOUS
  5
25F
 10
427.953752
 20
193.1943
 30
0.0
 11
430.953752
 21
196.1943
 31
0.0
  0
LINE
  8
LC-003-005-----0
  6
CONTINUOUS
  5
260
 10
427.953752
 20
196.022727
 30
0.0
 11
430.953752
 21
199.022727
 31
0.0
  0
LINE
  8
LC-003-005-----0
  6
CONTINUOUS
  5
261
 10
427.953752
 20
198.851154
 30
0.0
 11
430.953752
 21
201.851154
 31
0.0
  0
LINE
  8
LC-003-005-----0
  6
CONTINUOUS
  5
262
 10
427.953752
 20
201.679582
 30
0.0
 11
430.953752
 21
204.679582
 31
0.0
  0
LINE
  8
LC-003-005-----0
  6
CONTINUOUS
  5
263
 10
427.953752
 20
204.508009
 30
0.0
 11
430.953752
 21
207.508009
 31
0.0
  0
LINE
  8
LC-003-005-----0
  6
CONTINUOUS
  5
264
 10
427.953752
 20
207.336436
 30
0.0
 11
430.953752
 21
210.336436
 31
0.0
  0
LINE
  8
LC-003-005-----0
  6
CONTINUOUS
  5
265
 10
427.953752
 20
210.164863
 30
0.0
 11
430.953752
 21
213.164863
 31
0.0
  0
ARC
  8
LC-007-002-RND-0
  6
CONTINUOUS
  5
266
 10
480.933058
 20
378.753427
 30
0.0
 40
0.7
 50
45.0
 51
89.999642
  0
LINE
  8
LC-003-005-----0
  6
CONTINUOUS
  5
267
 10
427.953752
 20
212.99329
 30
0.0
 11
430.953752
 21
215.99329
 31
0.0
  0
LINE
  8
LC-003-005-----0
  6
CONTINUOUS
  5
268
 10
427.953752
 20
215.821717
 30
0.0
 11
430.953752
 21
218.821717
 31
0.0
  0
LINE
  8
LC-003-005-----0
  6
CONTINUOUS
  5
269
 10
427.953752
 20
218.650144
 30
0.0
 11
430.953752
 21
221.650144
 31
0.0
  0
LINE
  8
LC-003-005-----0
  6
CONTINUOUS
  5
26A
 10
427.953752
 20
221.478571
 30
0.0
 11
430.953752
 21
224.478571
 31
0.0
  0
LINE
  8
LC-003-005-----0
  6
CONTINUOUS
  5
26B
 10
427.953752
 20
224.306999
 30
0.0
 11
430.953752
 21
227.306999
 31
0.0
  0
LINE
  8
LC-002-002-----0
  6
DASHDOT
 62
     2
  5
26C
 10
335.953262
 20
382.921452
 30
0.0
 11
335.953262
 21
361.953524
 31
0.0
  0
LINE
  8
LC-003-005-----0
  6
CONTINUOUS
  5
26D
 10
427.953752
 20
227.135426
 30
0.0
 11
430.953752
 21
230.135426
 31
0.0
  0
LINE
  8
LC-003-005-----0
  6
CONTINUOUS
  5
26E
 10
427.953752
 20
229.963853
 30
0.0
 11
430.953752
 21
232.963853
 31
0.0
  0
LINE
  8
LC-003-005-----0
  6
CONTINUOUS
  5
26F
 10
427.953752
 20
232.79228
 30
0.0
 11
430.953752
 21
235.79228
 31
0.0
  0
LINE
  8
LC-002-002-----0
  6
CONTINUOUS
  5
270
 10
332.954539
 20
378.753439
 30
0.0
 11
332.203266
 21
378.753435
 31
0.0
  0
ARC
  8
LC-007-002-RND-0
  6
CONTINUOUS
  5
271
 10
469.954237
 20
378.753495
 30
0.0
 40
0.7
 50
89.999642
 51
143.129973
  0
LINE
  8
LC-003-005-----0
  6
CONTINUOUS
  5
272
 10
427.953752
 20
235.620707
 30
0.0
 11
430.953752
 21
238.620707
 31
0.0
  0
ARC
  8
LC-007-002-RND-0
  6
CONTINUOUS
  5
273
 10
468.854239
 20
378.453502
 30
0.0
 40
0.7
 50
269.999642
 51
323.129973
  0
LINE
  8
LC-002-002-----0
  6
CONTINUOUS
  5
274
 10
481.954241
 20
380.953474
 30
0.0
 11
469.955501
 21
380.953442
 31
0.0
  0
LINE
  8
LC-003-005-----0
  6
CONTINUOUS
  5
275
 10
427.953752
 20
238.449134
 30
0.0
 11
430.953752
 21
241.449134
 31
0.0
  0
LINE
  8
LC-003-005-----0
  6
CONTINUOUS
  5
276
 10
427.953752
 20
241.277561
 30
0.0
 11
430.953752
 21
244.277561
 31
0.0
  0
LINE
  8
LC-009-004-----0
  6
CONTINUOUS
  5
278
 10
481.954241
 20
379.453474
 30
0.0
 11
475.954241
 21
379.453458
 31
0.0
  0
LINE
  8
LC-003-005-----0
  6
CONTINUOUS
  5
279
 10
427.953752
 20
244.105988
 30
0.0
 11
430.953752
 21
247.105988
 31
0.0
  0
LINE
  8
LC-003-005-----0
  6
CONTINUOUS
  5
27A
 10
427.953752
 20
246.934416
 30
0.0
 11
430.953752
 21
249.934416
 31
0.0
  0
LINE
  8
LC-003-005-----0
  6
CONTINUOUS
  5
27B
 10
427.953752
 20
249.762843
 30
0.0
 11
430.953752
 21
252.762843
 31
0.0
  0
LINE
  8
LC-009-004-----0
  6
CONTINUOUS
  5
27C
 10
478.954241
 20
379.453466
 30
0.0
 11
478.954273
 21
367.453466
 31
0.0
  0
LINE
  8
LC-009-004-----0
  6
CONTINUOUS
  5
27D
 10
478.954273
 20
367.453466
 30
0.0
 11
475.954287
 21
362.453458
 31
0.0
  0
LINE
  8
LC-009-004-----0
  6
CONTINUOUS
 62
     2
  5
27E
 10
478.954245
 20
377.953466
 30
0.0
 11
477.954245
 21
377.953463
 31
0.0
  0
LINE
  8
LC-003-005-----0
  6
CONTINUOUS
  5
27F
 10
427.953752
 20
252.59127
 30
0.0
 11
430.953752
 21
255.59127
 31
0.0
  0
LINE
  8
LC-003-005-----0
  6
CONTINUOUS
  5
280
 10
427.953752
 20
255.419697
 30
0.0
 11
430.953752
 21
258.419697
 31
0.0
  0
ARC
  8
LC-007-002-RND-0
  6
CONTINUOUS
  5
281
 10
330.974445
 20
378.753427
 30
0.0
 40
0.7
 50
90.000358
 51
135.0
  0
LINE
  8
LC-003-005-----0
  6
CONTINUOUS
  5
282
 10
427.953752
 20
258.248124
 30
0.0
 11
430.953752
 21
261.248124
 31
0.0
  0
LINE
  8
LC-002-002-----0
  6
CONTINUOUS
  5
283
 10
341.242427
 20
374.954214
 30
0.0
 11
340.953752
 21
375.454214
 31
0.0
  0
LINE
  8
LC-002-002-----0
  6
CONTINUOUS
  5
284
 10
340.953752
 20
375.454214
 30
0.0
 11
340.665076
 21
374.954214
 31
0.0
  0
LINE
  8
LC-002-002-----0
  6
CONTINUOUS
  5
285
 10
340.665076
 20
374.954214
 30
0.0
 11
339.953262
 21
374.954214
 31
0.0
  0
LINE
  8
LC-002-002-----0
  6
CONTINUOUS
  5
286
 10
330.953752
 20
375.454214
 30
0.0
 11
330.665076
 21
374.954214
 31
0.0
  0
LINE
  8
LC-002-002-----0
  6
CONTINUOUS
  5
287
 10
331.242427
 20
374.954214
 30
0.0
 11
330.953752
 21
375.454214
 31
0.0
  0
LINE
  8
LC-002-002-----0
  6
CONTINUOUS
  5
288
 10
330.665076
 20
374.954214
 30
0.0
 11
329.953752
 21
374.954214
 31
0.0
  0
LINE
  8
LC-002-002-----0
  6
CONTINUOUS
  5
289
 10
479.954241
 20
374.954214
 30
0.0
 11
480.665076
 21
374.954214
 31
0.0
  0
LINE
  8
LC-003-005-----0
  6
CONTINUOUS
  5
28A
 10
427.953752
 20
261.076551
 30
0.0
 11
430.953752
 21
264.076551
 31
0.0
  0
LINE
  8
LC-002-002-----0
  6
CONTINUOUS
  5
28B
 10
333.453262
 20
361.953524
 30
0.0
 11
338.453262
 21
361.953524
 31
0.0
  0
LINE
  8
LC-003-005-----0
  6
CONTINUOUS
  5
28C
 10
427.953752
 20
263.904978
 30
0.0
 11
430.953752
 21
266.904978
 31
0.0
  0
LINE
  8
LC-002-002-----0
  6
CONTINUOUS
  5
28D
 10
468.854239
 20
378.453502
 30
0.0
 11
469.394238
 21
379.173497
 31
0.0
  0
LINE
  8
LC-003-005-----0
  6
CONTINUOUS
  5
28E
 10
427.953752
 20
266.733405
 30
0.0
 11
430.953752
 21
269.733405
 31
0.0
  0
LINE
  8
LC-003-005-----0
  6
CONTINUOUS
  5
28F
 10
427.953752
 20
269.561833
 30
0.0
 11
430.953752
 21
272.561833
 31
0.0
  0
LINE
  8
LC-002-002-----0
  6
CONTINUOUS
  5
290
 10
430.953752
 20
360.74656
 30
0.0
 11
430.953752
 21
360.74656
 31
0.0
  0
LINE
  8
LC-002-002-----0
  6
CONTINUOUS
  5
291
 10
427.953752
 20
363.669074
 30
0.0
 11
428.053752
 21
363.669074
 31
0.0
  0
LINE
  8
LC-002-002-----0
  6
CONTINUOUS
  5
292
 10
469.953752
 20
376.454214
 30
0.0
 11
469.953752
 21
374.954214
 31
0.0
  0
LINE
  8
LC-002-002-----0
  6
CONTINUOUS
  5
293
 10
481.953752
 20
374.954214
 30
0.0
 11
481.953752
 21
371.454214
 31
0.0
  0
LINE
  8
LC-002-002-----0
  6
CONTINUOUS
  5
294
 10
469.953752
 20
374.954214
 30
0.0
 11
470.665076
 21
374.954214
 31
0.0
  0
LINE
  8
LC-002-002-----0
  6
CONTINUOUS
  5
295
 10
481.954273
 20
371.454214
 30
0.0
 11
488.954273
 21
371.454214
 31
0.0
  0
LINE
  8
LC-002-002-----0
  6
CONTINUOUS
  5
296
 10
488.954273
 20
371.454214
 30
0.0
 11
488.954273
 21
374.954214
 31
0.0
  0
LINE
  8
LC-002-002-----0
  6
CONTINUOUS
  5
297
 10
481.954273
 20
368.954214
 30
0.0
 11
488.954273
 21
368.954214
 31
0.0
  0
LINE
  8
LC-002-002-----0
  6
CONTINUOUS
  5
298
 10
488.954273
 20
368.954214
 30
0.0
 11
491.4029
 21
371.402841
 31
0.0
  0
LINE
  8
LC-002-002-----0
  6
CONTINUOUS
  5
299
 10
483.454012
 20
375.704214
 30
0.0
 11
482.454012
 21
374.704214
 31
0.0
  0
LINE
  8
LC-003-005-----0
  6
CONTINUOUS
  5
29A
 10
427.953752
 20
272.39026
 30
0.0
 11
430.953752
 21
275.39026
 31
0.0
  0
LINE
  8
LC-002-002-----0
  6
CONTINUOUS
  5
29B
 10
466.953864
 20
376.454214
 30
0.0
 11
465.953864
 21
376.454214
 31
0.0
  0
LINE
  8
LC-003-005-----0
  6
CONTINUOUS
  5
29C
 10
427.953752
 20
275.218687
 30
0.0
 11
430.953752
 21
278.218687
 31
0.0
  0
LINE
  8
LC-003-005-----0
  6
CONTINUOUS
  5
29D
 10
427.953752
 20
278.047114
 30
0.0
 11
430.953752
 21
281.047114
 31
0.0
  0
LINE
  8
LC-003-005-----0
  6
CONTINUOUS
  5
29E
 10
427.953752
 20
280.875541
 30
0.0
 11
430.953752
 21
283.875541
 31
0.0
  0
LINE
  8
LC-003-005-----0
  6
CONTINUOUS
  5
29F
 10
427.953752
 20
283.703968
 30
0.0
 11
430.953752
 21
286.703968
 31
0.0
  0
LINE
  8
LC-003-005-----0
  6
CONTINUOUS
  5
2A0
 10
427.953752
 20
286.532395
 30
0.0
 11
430.953752
 21
289.532395
 31
0.0
  0
LINE
  8
LC-003-005-----0
  6
CONTINUOUS
  5
2A1
 10
519.287378
 20
377.866021
 30
0.0
 11
521.125832
 21
379.704476
 31
0.0
  0
LINE
  8
LC-002-002-----0
  6
CONTINUOUS
  5
2A2
 10
483.454012
 20
371.704214
 30
0.0
 11
482.454012
 21
372.704214
 31
0.0
  0
LINE
  8
LC-002-002-----0
  6
CONTINUOUS
  5
2A3
 10
488.454012
 20
374.704214
 30
0.0
 11
487.454012
 21
375.704214
 31
0.0
  0
LINE
  8
LC-002-002-----0
  6
CONTINUOUS
  5
2A4
 10
487.454012
 20
375.704214
 30
0.0
 11
487.09835
 21
375.704214
 31
0.0
  0
ARC
  8
LC-007-002-RND-0
  6
CONTINUOUS
  5
2A5
 10
341.953266
 20
378.753495
 30
0.0
 40
0.7
 50
36.870027
 51
90.000358
  0
LINE
  8
LC-002-002-----0
  6
CONTINUOUS
  5
2A6
 10
468.854235
 20
377.753502
 30
0.0
 11
463.953747
 21
377.753533
 31
0.0
  0
LINE
  8
LC-002-002-----0
  6
CONTINUOUS
  5
2A7
 10
472.204237
 20
378.753481
 30
0.0
 11
472.955502
 21
378.753477
 31
0.0
  0
LINE
  8
LC-002-002-----0
  6
CONTINUOUS
  5
2A8
 10
488.877231
 20
376.253558
 30
0.0
 11
483.847119
 21
376.253569
 31
0.0
  0
LINE
  8
LC-002-002-----0
  6
CONTINUOUS
  5
2A9
 10
488.877231
 20
376.253558
 30
0.0
 11
509.268934
 21
380.588041
 31
0.0
  0
LINE
  8
LC-002-002-----0
  6
CONTINUOUS
  5
2AA
 10
338.453262
 20
366.787472
 30
0.0
 11
338.453262
 21
361.953524
 31
0.0
  0
LINE
  8
LC-002-002-----0
  6
CONTINUOUS
  5
2AB
 10
333.453262
 20
366.622206
 30
0.0
 11
333.453262
 21
361.953524
 31
0.0
  0
LINE
  8
LC-002-002-----0
  6
CONTINUOUS
  5
2AC
 10
329.95323
 20
368.954214
 30
0.0
 11
329.95323
 21
361.452833
 31
0.0
  0
LINE
  8
LC-002-002-----0
  6
CONTINUOUS
  5
2AD
 10
341.953752
 20
376.454214
 30
0.0
 11
344.953639
 21
376.454214
 31
0.0
  0
LINE
  8
LC-002-002-----0
  6
CONTINUOUS
  5
2AE
 10
322.95323
 20
374.954214
 30
0.0
 11
320.953752
 21
374.954214
 31
0.0
  0
LINE
  8
LC-002-002-----0
  6
CONTINUOUS
  5
2AF
 10
479.704237
 20
379.453435
 30
0.0
 11
472.204237
 21
379.453481
 31
0.0
  0
LINE
  8
LC-002-002-----0
  6
CONTINUOUS
  5
2B0
 10
470.665076
 20
374.954214
 30
0.0
 11
470.953752
 21
375.454214
 31
0.0
  0
LINE
  8
LC-002-002-----0
  6
CONTINUOUS
  5
2B1
 10
470.953752
 20
375.454214
 30
0.0
 11
471.242427
 21
374.954214
 31
0.0
  0
LINE
  8
LC-002-002-----0
  6
CONTINUOUS
  5
2B2
 10
471.242427
 20
374.954214
 30
0.0
 11
471.954241
 21
374.954214
 31
0.0
  0
LINE
  8
LC-002-002-----0
  6
CONTINUOUS
  5
2B3
 10
471.595322
 20
361.453543
 30
0.0
 11
457.953752
 21
361.453555
 31
0.0
  0
ARC
  8
LC-007-002-RND-0
  6
CONTINUOUS
  5
2B4
 10
343.053264
 20
378.453502
 30
0.0
 40
0.7
 50
216.870027
 51
270.000358
  0
ARC
  8
LC-007-002-RND-0
  6
CONTINUOUS
  5
2B5
 10
483.847129
 20
377.253569
 30
0.0
 40
1.0
 50
225.0
 51
269.999425
  0
ARC
  8
LC-007-002-RND-0
  6
CONTINUOUS
  5
2B6
 10
490.964163
 20
375.667595
 30
0.0
 40
1.0
 50
101.228794
 51
108.020284
  0
LINE
  8
LC-009-004-----0
  6
CONTINUOUS
 62
     2
  5
2B7
 10
477.954245
 20
377.953463
 30
0.0
 11
477.954277
 21
365.953463
 31
0.0
  0
LINE
  8
LC-002-002-----0
  6
CONTINUOUS
  5
2B8
 10
480.933058
 20
378.753427
 30
0.0
 11
483.140022
 21
376.546463
 31
0.0
  0
LINE
  8
LC-002-002-----0
  6
CONTINUOUS
  5
2B9
 10
482.454012
 20
372.704214
 30
0.0
 11
482.454012
 21
374.704214
 31
0.0
  0
LINE
  8
LC-002-002-----0
  6
CONTINUOUS
  5
2BA
 10
488.454012
 20
374.704214
 30
0.0
 11
488.454012
 21
372.704214
 31
0.0
  0
LINE
  8
LC-002-002-----0
  6
CONTINUOUS
  5
2BB
 10
488.454012
 20
372.704214
 30
0.0
 11
487.454012
 21
371.704214
 31
0.0
  0
LINE
  8
LC-002-002-----0
  6
CONTINUOUS
  5
2BC
 10
483.954012
 20
375.954214
 30
0.0
 11
484.09835
 21
375.704214
 31
0.0
  0
LINE
  8
LC-002-002-----0
  6
CONTINUOUS
  5
2BD
 10
483.809675
 20
375.704214
 30
0.0
 11
483.954012
 21
375.954214
 31
0.0
  0
LINE
  8
LC-002-002-----0
  6
CONTINUOUS
  5
2BE
 10
485.309675
 20
375.704214
 30
0.0
 11
485.454012
 21
375.954214
 31
0.0
  0
LINE
  8
LC-002-002-----0
  6
CONTINUOUS
  5
2BF
 10
511.448462
 20
382.454002
 30
0.0
 11
510.668834
 21
382.454
 31
0.0
  0
ARC
  8
LC-002-002-----0
  6
CONTINUOUS
  5
2C0
 10
463.953745
 20
377.453533
 30
0.0
 40
1.0
 50
89.998287
 51
270.000997
  0
ARC
  8
LC-002-002-----0
  6
CONTINUOUS
  5
2C1
 10
508.639493
 20
383.50742
 30
0.0
 40
3.0
 50
282.000248
 51
339.442977
  0
LINE
  8
LC-002-002-----0
  6
CONTINUOUS
  5
2C2
 10
486.809675
 20
375.704214
 30
0.0
 11
486.954012
 21
375.954214
 31
0.0
  0
LINE
  8
LC-002-002-----0
  6
CONTINUOUS
  5
2C3
 10
486.954012
 20
371.454214
 30
0.0
 11
487.09835
 21
371.704214
 31
0.0
  0
LINE
  8
LC-002-002-----0
  6
CONTINUOUS
  5
2C4
 10
469.414238
 20
378.033501
 30
0.0
 11
469.954237
 21
378.753495
 31
0.0
  0
LINE
  8
LC-002-002-----0
  6
CONTINUOUS
  5
2C5
 10
485.454012
 20
371.454214
 30
0.0
 11
485.59835
 21
371.704214
 31
0.0
  0
LINE
  8
LC-002-002-----0
  6
CONTINUOUS
  5
2C6
 10
483.954012
 20
371.454214
 30
0.0
 11
484.09835
 21
371.704214
 31
0.0
  0
LINE
  8
LC-002-002-----0
  6
CONTINUOUS
  5
2C7
 10
463.953743
 20
377.153533
 30
0.0
 11
465.453745
 21
377.153524
 31
0.0
  0
LINE
  8
LC-002-002-----0
  6
CONTINUOUS
  5
2C8
 10
465.453745
 20
377.153524
 30
0.0
 11
465.453745
 21
376.453524
 31
0.0
  0
ARC
  8
LC-002-002-----0
  6
CONTINUOUS
  5
2C9
 10
463.953745
 20
377.453533
 30
0.0
 40
0.3
 50
89.990988
 51
270.008296
  0
LINE
  8
LC-002-002-----0
  6
CONTINUOUS
  5
2CA
 10
345.953639
 20
376.454214
 30
0.0
 11
345.953639
 21
364.454214
 31
0.0
  0
LINE
  8
LC-002-002-----0
  6
CONTINUOUS
  5
2CB
 10
480.953752
 20
375.454214
 30
0.0
 11
481.242427
 21
374.954214
 31
0.0
  0
LINE
  8
LC-002-002-----0
  6
CONTINUOUS
  5
2CC
 10
480.665076
 20
374.954214
 30
0.0
 11
480.953752
 21
375.454214
 31
0.0
  0
LINE
  8
LC-002-002-----0
  6
CONTINUOUS
  5
2CD
 10
481.242427
 20
374.954214
 30
0.0
 11
481.953752
 21
374.954214
 31
0.0
  0
LINE
  8
LC-002-002-----0
  6
CONTINUOUS
  5
2CE
 10
478.454241
 20
361.953524
 30
0.0
 11
473.454241
 21
361.953524
 31
0.0
  0
LINE
  8
LC-002-002-----0
  6
CONTINUOUS
  5
2CF
 10
473.454241
 20
366.621329
 30
0.0
 11
473.454241
 21
361.953524
 31
0.0
  0
LINE
  8
LC-002-002-----0
  6
CONTINUOUS
  5
2D0
 10
478.454241
 20
366.620074
 30
0.0
 11
478.454241
 21
361.953524
 31
0.0
  0
LINE
  8
LC-002-002-----0
  6
CONTINUOUS
  5
2D1
 10
481.954273
 20
368.954214
 30
0.0
 11
481.954273
 21
361.452833
 31
0.0
  0
LINE
  8
LC-002-002-----0
  6
CONTINUOUS
  5
2D2
 10
469.953752
 20
376.454214
 30
0.0
 11
468.953864
 21
376.454214
 31
0.0
  0
LINE
  8
LC-002-002-----0
  6
CONTINUOUS
  5
2D3
 10
488.954273
 20
374.954214
 30
0.0
 11
490.953752
 21
374.954214
 31
0.0
  0
LINE
  8
LC-002-002-----0
  6
CONTINUOUS
  5
2D4
 10
465.953864
 20
376.454214
 30
0.0
 11
465.953864
 21
364.454214
 31
0.0
  0
LINE
  8
LC-002-002-----0
  6
CONTINUOUS
  5
2D5
 10
466.953864
 20
376.454214
 30
0.0
 11
468.953864
 21
376.454214
 31
0.0
  0
LINE
  8
LC-002-002-----0
  6
CONTINUOUS
  5
2D6
 10
485.454012
 20
375.954214
 30
0.0
 11
485.59835
 21
375.704214
 31
0.0
  0
LINE
  8
LC-002-002-----0
  6
CONTINUOUS
  5
2D7
 10
486.954012
 20
375.954214
 30
0.0
 11
487.09835
 21
375.704214
 31
0.0
  0
LINE
  8
LC-003-005-----0
  6
CONTINUOUS
  5
2D8
 10
427.953752
 20
289.360822
 30
0.0
 11
430.953752
 21
292.360822
 31
0.0
  0
LINE
  8
LC-002-002-----0
  6
CONTINUOUS
  5
2D9
 10
343.053264
 20
378.453502
 30
0.0
 11
342.513266
 21
379.173497
 31
0.0
  0
LINE
  8
LC-002-002-----0
  6
CONTINUOUS
  5
2DA
 10
469.954237
 20
378.753495
 30
0.0
 11
472.204237
 21
378.753481
 31
0.0
  0
LINE
  8
LC-002-002-----0
  6
CONTINUOUS
  5
2DB
 10
472.204237
 20
378.753481
 30
0.0
 11
472.204237
 21
379.453481
 31
0.0
  0
LINE
  8
LC-002-002-----0
  6
CONTINUOUS
  5
2DC
 10
486.809675
 20
371.704214
 30
0.0
 11
486.954012
 21
371.454214
 31
0.0
  0
LINE
  8
LC-002-002-----0
  6
CONTINUOUS
  5
2DD
 10
485.309675
 20
371.704214
 30
0.0
 11
485.454012
 21
371.454214
 31
0.0
  0
LINE
  8
LC-009-004-----0
  6
CONTINUOUS
  5
2DE
 10
476.754232
 20
382.921452
 30
0.0
 11
476.754234
 21
381.952549
 31
0.0
  0
LINE
  8
LC-009-004-----0
  6
CONTINUOUS
  5
2DF
 10
478.954273
 20
367.453466
 30
0.0
 11
475.954273
 21
367.453458
 31
0.0
  0
LINE
  8
LC-009-004-----0
  6
CONTINUOUS
  5
2E0
 10
469.955502
 20
379.452545
 30
0.0
 11
475.955501
 21
379.452549
 31
0.0
  0
LINE
  8
LC-002-002-----0
  6
CONTINUOUS
  5
2E1
 10
483.809675
 20
371.704214
 30
0.0
 11
483.954012
 21
371.454214
 31
0.0
  0
LINE
  8
LC-002-002-----0
  6
CONTINUOUS
  5
2E2
 10
483.809675
 20
371.704214
 30
0.0
 11
483.454012
 21
371.704214
 31
0.0
  0
LINE
  8
LC-002-002-----0
  6
CONTINUOUS
  5
2E3
 10
472.204237
 20
379.453481
 30
0.0
 11
469.954241
 21
379.453495
 31
0.0
  0
LINE
  8
LC-009-004-----0
  6
CONTINUOUS
  5
2E4
 10
472.955502
 20
379.452547
 30
0.0
 11
472.955509
 21
367.452547
 31
0.0
  0
LINE
  8
LC-009-004-----0
  6
CONTINUOUS
  5
2E5
 10
472.955509
 20
367.452547
 30
0.0
 11
475.955513
 21
362.452549
 31
0.0
  0
LINE
  8
LC-002-002-----0
  6
CONTINUOUS
  5
2E6
 10
485.309675
 20
371.704214
 30
0.0
 11
484.09835
 21
371.704214
 31
0.0
  0
LINE
  8
LC-002-002-----0
  6
CONTINUOUS
  5
2E7
 10
486.809675
 20
371.704214
 30
0.0
 11
485.59835
 21
371.704214
 31
0.0
  0
LINE
  8
LC-002-002-----0
  6
CONTINUOUS
  5
2E8
 10
457.953752
 20
364.454214
 30
0.0
 11
428.053752
 21
363.669074
 31
0.0
  0
LINE
  8
LC-009-004-----0
  6
CONTINUOUS
 62
     2
  5
2E9
 10
472.955503
 20
377.952547
 30
0.0
 11
477.954245
 21
377.95255
 31
0.0
  0
LINE
  8
LC-002-002-----0
  6
CONTINUOUS
  5
2EA
 10
457.953752
 20
361.453555
 30
0.0
 11
430.953761
 21
360.746604
 31
0.0
  0
LINE
  8
LC-002-002-----0
  6
CONTINUOUS
  5
2EB
 10
329.954541
 20
380.953474
 30
0.0
 11
341.953281
 21
380.953442
 31
0.0
  0
LINE
  8
LC-009-004-----0
  6
CONTINUOUS
 62
     2
  5
2EC
 10
473.955502
 20
377.952548
 30
0.0
 11
473.95551
 21
365.952548
 31
0.0
  0
LINE
  8
LC-002-002-----0
  6
CONTINUOUS
  5
2ED
 10
353.87524
 20
364.455917
 30
0.0
 11
345.953725
 21
364.454214
 31
0.0
  0
LINE
  8
LC-002-002-----0
  6
CONTINUOUS
  5
2EE
 10
353.953752
 20
361.452833
 30
0.0
 11
380.953752
 21
360.745813
 31
0.0
  0
LINE
  8
LC-002-002-----0
  6
CONTINUOUS
  5
2EF
 10
486.809675
 20
375.704214
 30
0.0
 11
485.59835
 21
375.704214
 31
0.0
  0
LINE
  8
LC-002-002-----0
  6
CONTINUOUS
  5
2F0
 10
485.309675
 20
375.704214
 30
0.0
 11
484.09835
 21
375.704214
 31
0.0
  0
LINE
  8
LC-009-004-----0
  6
CONTINUOUS
  5
2F1
 10
475.155499
 20
382.921448
 30
0.0
 11
475.1555
 21
381.952548
 31
0.0
  0
LINE
  8
LC-009-004-----0
  6
CONTINUOUS
  5
2F2
 10
472.955509
 20
367.452547
 30
0.0
 11
475.955509
 21
367.452549
 31
0.0
  0
LINE
  8
LC-002-002-----0
  6
CONTINUOUS
  5
2F3
 10
483.809675
 20
375.704214
 30
0.0
 11
483.454012
 21
375.704214
 31
0.0
  0
LINE
  8
LC-009-004-----0
  6
CONTINUOUS
  5
2F4
 10
481.954237
 20
380.953474
 30
0.0
 11
481.954241
 21
379.453474
 31
0.0
  0
LINE
  8
LC-002-002-----0
  6
CONTINUOUS
  5
2F5
 10
480.933058
 20
378.753427
 30
0.0
 11
479.704237
 21
378.753435
 31
0.0
  0
LINE
  8
LC-002-002-----0
  6
CONTINUOUS
  5
2F6
 10
479.704237
 20
378.753435
 30
0.0
 11
479.704237
 21
379.453435
 31
0.0
  0
ARC
  8
LC-002-002-----0
  6
CONTINUOUS
  5
2F7
 10
475.95489
 20
372.955347
 30
0.0
 40
9.99811
 50
53.126659
 51
85.414352
  0
LINE
  8
LC-002-002-----0
  6
CONTINUOUS
  5
2F8
 10
475.1555
 20
381.952548
 30
0.0
 11
476.754234
 21
381.952549
 31
0.0
  0
LINE
  8
LC-009-004-----0
  6
CONTINUOUS
  5
2F9
 10
469.955501
 20
380.953442
 30
0.0
 11
469.955502
 21
379.452545
 31
0.0
  0
ARC
  8
LC-002-002-----0
  6
CONTINUOUS
  5
2FA
 10
475.95489
 20
372.955347
 30
0.0
 40
9.99811
 50
94.585934
 51
126.87365
  0
LINE
  8
LC-009-004-----0
  6
CONTINUOUS
  5
2FB
 10
329.954541
 20
379.453474
 30
0.0
 11
335.954541
 21
379.453458
 31
0.0
  0
LINE
  8
LC-009-004-----0
  6
CONTINUOUS
  5
2FC
 10
332.954541
 20
379.453466
 30
0.0
 11
332.954509
 21
367.453466
 31
0.0
  0
LINE
  8
LC-009-004-----0
  6
CONTINUOUS
  5
2FD
 10
332.954509
 20
367.453466
 30
0.0
 11
335.954495
 21
362.453458
 31
0.0
  0
LINE
  8
LC-009-004-----0
  6
CONTINUOUS
 62
     2
  5
2FE
 10
332.954537
 20
377.953466
 30
0.0
 11
333.954537
 21
377.953463
 31
0.0
  0
LINE
  8
LC-009-004-----0
  6
CONTINUOUS
 62
     2
  5
2FF
 10
333.954537
 20
377.953463
 30
0.0
 11
333.954505
 21
365.953463
 31
0.0
  0
LINE
  8
LC-009-004-----0
  6
CONTINUOUS
  5
300
 10
335.15455
 20
382.921452
 30
0.0
 11
335.154548
 21
381.952549
 31
0.0
  0
LINE
  8
LC-009-004-----0
  6
CONTINUOUS
  5
301
 10
332.954509
 20
367.453466
 30
0.0
 11
335.954509
 21
367.453458
 31
0.0
  0
LINE
  8
LC-003-005-----0
  6
CONTINUOUS
  5
302
 10
516.347098
 20
377.754169
 30
0.0
 11
519.866847
 21
381.273918
 31
0.0
  0
LINE
  8
LC-009-004-----0
  6
CONTINUOUS
  5
303
 10
338.953281
 20
379.452547
 30
0.0
 11
338.953273
 21
367.452547
 31
0.0
  0
LINE
  8
LC-009-004-----0
  6
CONTINUOUS
  5
304
 10
338.953273
 20
367.452547
 30
0.0
 11
335.953269
 21
362.452549
 31
0.0
  0
LINE
  8
LC-009-004-----0
  6
CONTINUOUS
 62
     2
  5
305
 10
338.95328
 20
377.952547
 30
0.0
 11
333.954537
 21
377.95255
 31
0.0
  0
LINE
  8
LC-009-004-----0
  6
CONTINUOUS
 62
     2
  5
306
 10
337.95328
 20
377.952548
 30
0.0
 11
337.953272
 21
365.952548
 31
0.0
  0
LINE
  8
LC-009-004-----0
  6
CONTINUOUS
  5
307
 10
336.753283
 20
382.921448
 30
0.0
 11
336.753282
 21
381.952548
 31
0.0
  0
LINE
  8
LC-009-004-----0
  6
CONTINUOUS
  5
308
 10
338.953273
 20
367.452547
 30
0.0
 11
335.953273
 21
367.452549
 31
0.0
  0
LINE
  8
LC-009-004-----0
  6
CONTINUOUS
  5
309
 10
329.954545
 20
380.953474
 30
0.0
 11
329.954541
 21
379.453474
 31
0.0
  0
ARC
  8
LC-002-002-----0
  6
CONTINUOUS
  5
30A
 10
335.953892
 20
372.955347
 30
0.0
 40
9.99811
 50
94.585648
 51
126.873341
  0
LINE
  8
LC-002-002-----0
  6
CONTINUOUS
  5
30B
 10
336.753282
 20
381.952548
 30
0.0
 11
335.154548
 21
381.952549
 31
0.0
  0
LINE
  8
LC-009-004-----0
  6
CONTINUOUS
  5
30C
 10
341.953281
 20
380.953442
 30
0.0
 11
341.95328
 21
379.452545
 31
0.0
  0
ARC
  8
LC-002-002-----0
  6
CONTINUOUS
  5
30D
 10
335.953892
 20
372.955347
 30
0.0
 40
9.99811
 50
53.12635
 51
85.414066
  0
LINE
  8
LC-003-005-----0
  6
CONTINUOUS
  5
30E
 10
427.953752
 20
292.18925
 30
0.0
 11
430.953752
 21
295.18925
 31
0.0
  0
LINE
  8
LC-003-005-----0
  6
CONTINUOUS
  5
30F
 10
513.406819
 20
377.642317
 30
0.0
 11
517.115218
 21
381.350716
 31
0.0
  0
LINE
  8
LC-003-005-----0
  6
CONTINUOUS
  5
310
 10
427.953752
 20
295.017677
 30
0.0
 11
430.953752
 21
298.017677
 31
0.0
  0
LINE
  8
LC-003-005-----0
  6
CONTINUOUS
  5
311
 10
510.037301
 20
377.101226
 30
0.0
 11
514.18983
 21
381.253755
 31
0.0
  0
LINE
  8
LC-003-005-----0
  6
CONTINUOUS
  5
312
 10
427.953752
 20
297.846104
 30
0.0
 11
430.953752
 21
300.846104
 31
0.0
  0
LINE
  8
LC-003-005-----0
  6
CONTINUOUS
  5
313
 10
505.962936
 20
375.855289
 30
0.0
 11
511.264441
 21
381.156793
 31
0.0
  0
LINE
  8
LC-003-005-----0
  6
CONTINUOUS
  5
314
 10
427.953752
 20
300.674531
 30
0.0
 11
430.953752
 21
303.674531
 31
0.0
  0
LINE
  8
LC-002-002-----0
  6
CONTINUOUS
  5
315
 10
328.453491
 20
375.704214
 30
0.0
 11
329.453491
 21
374.704214
 31
0.0
  0
LINE
  8
LC-003-005-----0
  6
CONTINUOUS
  5
316
 10
501.888572
 20
374.609351
 30
0.0
 11
507.200592
 21
379.921372
 31
0.0
  0
LINE
  8
LC-003-005-----0
  6
CONTINUOUS
  5
317
 10
427.953752
 20
303.502958
 30
0.0
 11
430.953752
 21
306.502958
 31
0.0
  0
LINE
  8
LC-003-005-----0
  6
CONTINUOUS
  5
318
 10
497.814207
 20
373.363414
 30
0.0
 11
503.12663
 21
378.675836
 31
0.0
  0
LINE
  8
LC-003-005-----0
  6
CONTINUOUS
  5
319
 10
427.953752
 20
306.331385
 30
0.0
 11
430.953752
 21
309.331385
 31
0.0
  0
LINE
  8
LC-003-005-----0
  6
CONTINUOUS
  5
31A
 10
493.739842
 20
372.117476
 30
0.0
 11
499.052667
 21
377.430301
 31
0.0
  0
LINE
  8
LC-003-005-----0
  6
CONTINUOUS
  5
31B
 10
427.953752
 20
309.159812
 30
0.0
 11
430.953752
 21
312.159812
 31
0.0
  0
LINE
  8
LC-003-005-----0
  6
CONTINUOUS
  5
31C
 10
480.187872
 20
361.393933
 30
0.0
 11
481.954273
 21
363.160334
 31
0.0
  0
LINE
  8
LC-003-005-----0
  6
CONTINUOUS
  5
31D
 10
487.748153
 20
368.954214
 30
0.0
 11
494.978705
 21
376.184766
 31
0.0
  0
LINE
  8
LC-003-005-----0
  6
CONTINUOUS
  5
31E
 10
427.953752
 20
311.988239
 30
0.0
 11
430.953752
 21
314.988239
 31
0.0
  0
LINE
  8
LC-003-005-----0
  6
CONTINUOUS
  5
31F
 10
476.430388
 20
360.464876
 30
0.0
 11
477.919036
 21
361.953524
 31
0.0
  0
LINE
  8
LC-003-005-----0
  6
CONTINUOUS
  5
320
 10
478.454241
 20
362.488729
 30
0.0
 11
481.954273
 21
365.988761
 31
0.0
  0
LINE
  8
LC-003-005-----0
  6
CONTINUOUS
  5
321
 10
484.919726
 20
368.954214
 30
0.0
 11
487.419726
 21
371.454214
 31
0.0
  0
LINE
  8
LC-003-005-----0
  6
CONTINUOUS
  5
322
 10
488.954273
 20
372.988761
 30
0.0
 11
490.919726
 21
374.954214
 31
0.0
  0
LINE
  8
LC-003-005-----0
  6
CONTINUOUS
  5
323
 10
427.953752
 20
314.816667
 30
0.0
 11
430.953752
 21
317.816667
 31
0.0
  0
LINE
  8
LC-002-002-----0
  6
CONTINUOUS
  5
324
 10
328.453491
 20
371.704214
 30
0.0
 11
329.453491
 21
372.704214
 31
0.0
  0
LINE
  8
LC-002-002-----0
  6
CONTINUOUS
  5
325
 10
323.453491
 20
374.704214
 30
0.0
 11
324.453491
 21
375.704214
 31
0.0
  0
LINE
  8
LC-002-002-----0
  6
CONTINUOUS
  5
326
 10
324.453491
 20
371.704214
 30
0.0
 11
324.809153
 21
371.704214
 31
0.0
  0
LINE
  8
LC-003-005-----0
  6
CONTINUOUS
  5
327
 10
473.820839
 20
360.683754
 30
0.0
 11
475.090609
 21
361.953524
 31
0.0
  0
LINE
  8
LC-003-005-----0
  6
CONTINUOUS
  5
328
 10
478.454241
 20
365.317156
 30
0.0
 11
481.954273
 21
368.817188
 31
0.0
  0
LINE
  8
LC-003-005-----0
  6
CONTINUOUS
  5
329
 10
482.091299
 20
368.954214
 30
0.0
 11
484.591299
 21
371.454214
 31
0.0
  0
LINE
  8
LC-003-005-----0
  6
CONTINUOUS
  5
32A
 10
427.953752
 20
317.645094
 30
0.0
 11
430.953752
 21
320.645094
 31
0.0
  0
LINE
  8
LC-003-005-----0
  6
CONTINUOUS
  5
32B
 10
471.708336
 20
361.399679
 30
0.0
 11
473.454241
 21
363.145583
 31
0.0
  0
LINE
  8
LC-003-005-----0
  6
CONTINUOUS
  5
32C
 10
478.454241
 20
368.145583
 30
0.0
 11
481.953752
 21
371.645094
 31
0.0
  0
LINE
  8
LC-002-002-----0
  6
CONTINUOUS
  5
32D
 10
343.053268
 20
377.753502
 30
0.0
 11
347.953757
 21
377.753533
 31
0.0
  0
LINE
  8
LC-003-005-----0
  6
CONTINUOUS
  5
32E
 10
427.953752
 20
320.473521
 30
0.0
 11
430.953752
 21
323.473521
 31
0.0
  0
LINE
  8
LC-003-005-----0
  6
CONTINUOUS
  5
32F
 10
468.88591
 20
361.405679
 30
0.0
 11
468.886658
 21
361.406427
 31
0.0
  0
LINE
  8
LC-003-005-----0
  6
CONTINUOUS
  5
330
 10
468.933776
 20
361.453546
 30
0.0
 11
473.454241
 21
365.97401
 31
0.0
  0
LINE
  8
LC-003-005-----0
  6
CONTINUOUS
  5
331
 10
478.454241
 20
370.97401
 30
0.0
 11
481.953752
 21
374.473521
 31
0.0
  0
LINE
  8
LC-002-002-----0
  6
CONTINUOUS
  5
332
 10
339.703266
 20
378.753481
 30
0.0
 11
339.019542
 21
378.753477
 31
0.0
  0
LINE
  8
LC-002-002-----0
  6
CONTINUOUS
  5
333
 10
479.704237
 20
379.453435
 30
0.0
 11
480.933063
 21
379.453427
 31
0.0
  0
LINE
  8
LC-003-005-----0
  6
CONTINUOUS
  5
334
 10
427.953752
 20
323.301948
 30
0.0
 11
430.953752
 21
326.301948
 31
0.0
  0
LINE
  8
LC-002-002-----0
  6
CONTINUOUS
  5
335
 10
488.803657
 20
376.953559
 30
0.0
 11
509.114885
 21
381.270922
 31
0.0
  0
ARC
  8
LC-002-002-----0
  6
CONTINUOUS
  5
336
 10
508.639493
 20
383.50742
 30
0.0
 40
2.286465
 50
282.000248
 51
332.56643
  0
LINE
  8
LC-002-002-----0
  6
CONTINUOUS
  5
337
 10
323.030272
 20
376.253558
 30
0.0
 11
328.060384
 21
376.253569
 31
0.0
  0
LINE
  8
LC-002-002-----0
  6
CONTINUOUS
  5
338
 10
323.030272
 20
376.253558
 30
0.0
 11
302.638569
 21
380.588041
 31
0.0
  0
LINE
  8
LC-002-002-----0
  6
CONTINUOUS
  5
339
 10
332.203266
 20
379.453435
 30
0.0
 11
339.703266
 21
379.453481
 31
0.0
  0
ARC
  8
LC-007-002-RND-0
  6
CONTINUOUS
  5
33A
 10
328.060374
 20
377.253569
 30
0.0
 40
1.0
 50
270.000575
 51
315.0
  0
ARC
  8
LC-007-002-RND-0
  6
CONTINUOUS
  5
33B
 10
320.94334
 20
375.667595
 30
0.0
 40
1.0
 50
71.979716
 51
78.771206
  0
LINE
  8
LC-002-002-----0
  6
CONTINUOUS
  5
33C
 10
330.974445
 20
378.753427
 30
0.0
 11
328.767481
 21
376.546463
 31
0.0
  0
LINE
  8
LC-002-002-----0
  6
CONTINUOUS
  5
33D
 10
300.459041
 20
382.454002
 30
0.0
 11
301.238669
 21
382.454
 31
0.0
  0
ARC
  8
LC-002-002-----0
  6
CONTINUOUS
  5
33E
 10
347.953758
 20
377.453533
 30
0.0
 40
1.0
 50
269.999003
 51
90.001713
  0
ARC
  8
LC-002-002-----0
  6
CONTINUOUS
  5
33F
 10
303.268011
 20
383.50742
 30
0.0
 40
3.0
 50
200.557023
 51
257.999752
  0
LINE
  8
LC-003-005-----0
  6
CONTINUOUS
  5
340
 10
466.007413
 20
361.355609
 30
0.0
 11
466.008161
 21
361.356357
 31
0.0
  0
LINE
  8
LC-003-005-----0
  6
CONTINUOUS
  5
341
 10
466.105351
 20
361.453548
 30
0.0
 11
473.454241
 21
368.802437
 31
0.0
  0
LINE
  8
LC-003-005-----0
  6
CONTINUOUS
  5
342
 10
478.454241
 20
373.802437
 30
0.0
 11
479.954241
 21
375.302437
 31
0.0
  0
LINE
  8
LC-003-005-----0
  6
CONTINUOUS
  5
343
 10
427.953752
 20
326.130375
 30
0.0
 11
430.953752
 21
329.130375
 31
0.0
  0
LINE
  8
LC-003-005-----0
  6
CONTINUOUS
  5
344
 10
463.128916
 20
361.305539
 30
0.0
 11
463.129664
 21
361.306287
 31
0.0
  0
LINE
  8
LC-003-005-----0
  6
CONTINUOUS
  5
345
 10
463.276927
 20
361.45355
 30
0.0
 11
473.454241
 21
371.630864
 31
0.0
  0
LINE
  8
LC-003-005-----0
  6
CONTINUOUS
  5
346
 10
427.953752
 20
328.958802
 30
0.0
 11
430.953752
 21
331.958802
 31
0.0
  0
LINE
  8
LC-003-005-----0
  6
CONTINUOUS
  5
347
 10
460.250419
 20
361.255469
 30
0.0
 11
460.251167
 21
361.256217
 31
0.0
  0
LINE
  8
LC-003-005-----0
  6
CONTINUOUS
  5
348
 10
460.448502
 20
361.453553
 30
0.0
 11
463.396178
 21
364.401229
 31
0.0
  0
LINE
  8
LC-003-005-----0
  6
CONTINUOUS
  5
349
 10
463.396322
 20
364.401373
 30
0.0
 11
463.449163
 21
364.454214
 31
0.0
  0
LINE
  8
LC-003-005-----0
  6
CONTINUOUS
  5
34A
 10
465.953864
 20
366.958914
 30
0.0
 11
473.454241
 21
374.459292
 31
0.0
  0
LINE
  8
LC-003-005-----0
  6
CONTINUOUS
  5
34B
 10
427.953752
 20
331.787229
 30
0.0
 11
430.953752
 21
334.787229
 31
0.0
  0
LINE
  8
LC-002-002-----0
  6
CONTINUOUS
  5
34C
 10
481.428033
 20
379.248402
 30
0.0
 11
483.634997
 21
377.041437
 31
0.0
  0
ARC
  8
LC-002-002-----0
  6
CONTINUOUS
  5
34D
 10
483.847129
 20
377.253569
 30
0.0
 40
0.3
 50
225.0
 51
269.999874
  0
LINE
  8
LC-002-002-----0
  6
CONTINUOUS
  5
34E
 10
483.847129
 20
376.953569
 30
0.0
 11
488.803657
 21
376.953559
 31
0.0
  0
LINE
  8
LC-002-002-----0
  6
CONTINUOUS
  5
34F
 10
342.493265
 20
378.033501
 30
0.0
 11
341.953266
 21
378.753495
 31
0.0
  0
LINE
  8
LC-002-002-----0
  6
CONTINUOUS
  5
350
 10
347.95376
 20
377.153533
 30
0.0
 11
346.453758
 21
377.153524
 31
0.0
  0
LINE
  8
LC-002-002-----0
  6
CONTINUOUS
  5
351
 10
346.453758
 20
377.153524
 30
0.0
 11
346.453758
 21
376.453524
 31
0.0
  0
ARC
  8
LC-002-002-----0
  6
CONTINUOUS
  5
352
 10
347.953758
 20
377.453533
 30
0.0
 40
0.3
 50
269.991704
 51
90.009012
  0
LINE
  8
LC-002-002-----0
  6
CONTINUOUS
  5
353
 10
341.953266
 20
378.753495
 30
0.0
 11
339.703266
 21
378.753481
 31
0.0
  0
LINE
  8
LC-003-005-----0
  6
CONTINUOUS
  5
354
 10
457.371922
 20
361.205399
 30
0.0
 11
457.37267
 21
361.206147
 31
0.0
  0
LINE
  8
LC-003-005-----0
  6
CONTINUOUS
  5
355
 10
457.611105
 20
361.444583
 30
0.0
 11
460.507918
 21
364.341396
 31
0.0
  0
LINE
  8
LC-002-002-----0
  6
CONTINUOUS
  5
356
 10
339.703266
 20
378.753481
 30
0.0
 11
339.703266
 21
379.453481
 31
0.0
  0
LINE
  8
LC-003-005-----0
  6
CONTINUOUS
  5
357
 10
460.508223
 20
364.3417
 30
0.0
 11
460.620736
 21
364.454214
 31
0.0
  0
LINE
  8
LC-002-002-----0
  6
CONTINUOUS
  5
358
 10
339.703266
 20
379.453481
 30
0.0
 11
341.953262
 21
379.453495
 31
0.0
  0
LINE
  8
LC-002-002-----0
  6
CONTINUOUS
  5
359
 10
463.953751
 20
378.453533
 30
0.0
 11
468.854239
 21
378.453502
 31
0.0
  0
LINE
  8
LC-002-002-----0
  6
CONTINUOUS
  5
35A
 10
330.974445
 20
378.753427
 30
0.0
 11
332.203266
 21
378.753435
 31
0.0
  0
LINE
  8
LC-002-002-----0
  6
CONTINUOUS
  5
35B
 10
332.203266
 20
378.753435
 30
0.0
 11
332.203266
 21
379.453435
 31
0.0
  0
LINE
  8
LC-002-002-----0
  6
CONTINUOUS
  5
35C
 10
332.203266
 20
379.453435
 30
0.0
 11
330.97444
 21
379.453427
 31
0.0
  0
LINE
  8
LC-002-002-----0
  6
CONTINUOUS
  5
35D
 10
323.103846
 20
376.953559
 30
0.0
 11
302.792618
 21
381.270922
 31
0.0
  0
LINE
  8
LC-003-005-----0
  6
CONTINUOUS
  5
35E
 10
465.953864
 20
369.787341
 30
0.0
 11
471.197885
 21
375.031363
 31
0.0
  0
ARC
  8
LC-002-002-----0
  6
CONTINUOUS
  5
35F
 10
303.268011
 20
383.50742
 30
0.0
 40
2.286465
 50
207.43357
 51
257.999752
  0
LINE
  8
LC-003-005-----0
  6
CONTINUOUS
  5
360
 10
471.954241
 20
375.787719
 30
0.0
 11
472.620046
 21
376.453524
 31
0.0
  0
LINE
  8
LC-002-002-----0
  6
CONTINUOUS
  5
361
 10
330.47947
 20
379.248402
 30
0.0
 11
328.272506
 21
377.041437
 31
0.0
  0
ARC
  8
LC-002-002-----0
  6
CONTINUOUS
  5
362
 10
328.060374
 20
377.253569
 30
0.0
 40
0.3
 50
270.000126
 51
315.0
  0
LINE
  8
LC-003-005-----0
  6
CONTINUOUS
  5
363
 10
427.953752
 20
334.615656
 30
0.0
 11
430.953752
 21
337.615656
 31
0.0
  0
LINE
  8
LC-003-005-----0
  6
CONTINUOUS
  5
364
 10
454.493425
 20
361.15533
 30
0.0
 11
454.494172
 21
361.156077
 31
0.0
  0
LINE
  8
LC-002-002-----0
  6
CONTINUOUS
  5
365
 10
328.060374
 20
376.953569
 30
0.0
 11
323.103846
 21
376.953559
 31
0.0
  0
LINE
  8
LC-002-002-----0
  6
CONTINUOUS
  5
366
 10
347.953752
 20
378.453533
 30
0.0
 11
343.053264
 21
378.453502
 31
0.0
  0
LINE
  8
LC-003-005-----0
  6
CONTINUOUS
  5
367
 10
454.706629
 20
361.368534
 30
0.0
 11
457.619657
 21
364.281562
 31
0.0
  0
LINE
  8
LC-003-005-----0
  6
CONTINUOUS
  5
368
 10
457.620123
 20
364.282028
 30
0.0
 11
457.788334
 21
364.450238
 31
0.0
  0
LINE
  8
LC-003-005-----0
  6
CONTINUOUS
  5
369
 10
465.953864
 20
372.615769
 30
0.0
 11
469.792309
 21
376.454214
 31
0.0
  0
LINE
  8
LC-002-002-----0
  6
CONTINUOUS
  5
36A
 10
329.453491
 20
372.704214
 30
0.0
 11
329.453491
 21
374.704214
 31
0.0
  0
LINE
  8
LC-002-002-----0
  6
CONTINUOUS
  5
36B
 10
324.453491
 20
375.704214
 30
0.0
 11
324.809153
 21
375.704214
 31
0.0
  0
LINE
  8
LC-002-002-----0
  6
CONTINUOUS
  5
36C
 10
323.453491
 20
374.704214
 30
0.0
 11
323.453491
 21
372.704214
 31
0.0
  0
LINE
  8
LC-003-005-----0
  6
CONTINUOUS
  5
36D
 10
427.953752
 20
337.444084
 30
0.0
 11
430.953752
 21
340.444084
 31
0.0
  0
LINE
  8
LC-002-002-----0
  6
CONTINUOUS
  5
36E
 10
323.453491
 20
372.704214
 30
0.0
 11
324.453491
 21
371.704214
 31
0.0
  0
LINE
  8
LC-002-002-----0
  6
CONTINUOUS
  5
36F
 10
327.953491
 20
375.954214
 30
0.0
 11
327.809153
 21
375.704214
 31
0.0
  0
LINE
  8
LC-002-002-----0
  6
CONTINUOUS
  5
370
 10
328.097828
 20
375.704214
 30
0.0
 11
327.953491
 21
375.954214
 31
0.0
  0
LINE
  8
LC-002-002-----0
  6
CONTINUOUS
  5
371
 10
326.597828
 20
375.704214
 30
0.0
 11
326.453491
 21
375.954214
 31
0.0
  0
LINE
  8
LC-002-002-----0
  6
CONTINUOUS
  5
372
 10
325.097828
 20
375.704214
 30
0.0
 11
324.953491
 21
375.954214
 31
0.0
  0
LINE
  8
LC-002-002-----0
  6
CONTINUOUS
  5
373
 10
324.953491
 20
371.454214
 30
0.0
 11
324.809153
 21
371.704214
 31
0.0
  0
LINE
  8
LC-002-002-----0
  6
CONTINUOUS
  5
374
 10
326.453491
 20
371.454214
 30
0.0
 11
326.309153
 21
371.704214
 31
0.0
  0
LINE
  8
LC-002-002-----0
  6
CONTINUOUS
  5
375
 10
327.953491
 20
371.454214
 30
0.0
 11
327.809153
 21
371.704214
 31
0.0
  0
LINE
  8
LC-002-002-----0
  6
CONTINUOUS
  5
376
 10
326.453491
 20
375.954214
 30
0.0
 11
326.309153
 21
375.704214
 31
0.0
  0
LINE
  8
LC-002-002-----0
  6
CONTINUOUS
  5
377
 10
324.953491
 20
375.954214
 30
0.0
 11
324.809153
 21
375.704214
 31
0.0
  0
LINE
  8
LC-002-002-----0
  6
CONTINUOUS
  5
378
 10
325.097828
 20
371.704214
 30
0.0
 11
324.953491
 21
371.454214
 31
0.0
  0
LINE
  8
LC-002-002-----0
  6
CONTINUOUS
  5
379
 10
326.597828
 20
371.704214
 30
0.0
 11
326.453491
 21
371.454214
 31
0.0
  0
LINE
  8
LC-002-002-----0
  6
CONTINUOUS
  5
37A
 10
328.097828
 20
371.704214
 30
0.0
 11
327.953491
 21
371.454214
 31
0.0
  0
LINE
  8
LC-002-002-----0
  6
CONTINUOUS
  5
37B
 10
328.097828
 20
371.704214
 30
0.0
 11
328.453491
 21
371.704214
 31
0.0
  0
LINE
  8
LC-002-002-----0
  6
CONTINUOUS
  5
37C
 10
326.597828
 20
371.704214
 30
0.0
 11
327.809153
 21
371.704214
 31
0.0
  0
LINE
  8
LC-002-002-----0
  6
CONTINUOUS
  5
37D
 10
325.097828
 20
371.704214
 30
0.0
 11
326.309153
 21
371.704214
 31
0.0
  0
LINE
  8
LC-002-002-----0
  6
CONTINUOUS
  5
37E
 10
325.097828
 20
375.704214
 30
0.0
 11
326.309153
 21
375.704214
 31
0.0
  0
LINE
  8
LC-002-002-----0
  6
CONTINUOUS
  5
37F
 10
326.597828
 20
375.704214
 30
0.0
 11
327.809153
 21
375.704214
 31
0.0
  0
LINE
  8
LC-002-002-----0
  6
CONTINUOUS
  5
380
 10
328.097828
 20
375.704214
 30
0.0
 11
328.453491
 21
375.704214
 31
0.0
  0
LINE
  8
LC-003-005-----0
  6
CONTINUOUS
  5
381
 10
451.614928
 20
361.10526
 30
0.0
 11
451.615675
 21
361.106007
 31
0.0
  0
LINE
  8
LC-002-002-----0
  6
CONTINUOUS
  5
382
 10
364.331917
 20
414.953533
 30
0.0
 11
447.575586
 21
414.953533
 31
0.0
  0
LINE
  8
LC-002-002-----0
  6
CONTINUOUS
  5
383
 10
351.453752
 20
378.453533
 30
0.0
 11
405.953752
 21
378.453533
 31
0.0
  0
LINE
  8
LC-002-002-----0
  6
CONTINUOUS
  5
384
 10
354.134648
 20
378.453533
 30
0.0
 11
373.970432
 21
449.453533
 31
0.0
  0
LINE
  8
LC-002-002-----0
  6
CONTINUOUS
  5
385
 10
445.061191
 20
423.953533
 30
0.0
 11
366.846312
 21
423.953533
 31
0.0
  0
LINE
  8
LC-002-002-----0
  6
CONTINUOUS
  5
386
 10
412.198521
 20
423.953533
 30
0.0
 11
411.119995
 21
449.453533
 31
0.0
  0
ARC
  8
LC-002-002-----0
  6
CONTINUOUS
  5
387
 10
348.953758
 20
374.453533
 30
0.0
 40
1.0
 50
90.0
 51
180.0
  0
LINE
  8
LC-002-002-----0
  6
CONTINUOUS
  5
388
 10
373.953752
 20
453.453533
 30
0.0
 11
373.811999
 21
453.453533
 31
0.0
  0
LINE
  8
LC-002-002-----0
  6
CONTINUOUS
  5
389
 10
375.953752
 20
453.453533
 30
0.0
 11
405.953752
 21
453.453533
 31
0.0
  0
LINE
  8
LC-002-002-----0
  6
CONTINUOUS
  5
38A
 10
410.596287
 20
414.953533
 30
0.0
 11
412.14006
 21
378.453533
 31
0.0
  0
LINE
  8
LC-002-002-----0
  6
CONTINUOUS
  5
38B
 10
399.708982
 20
423.953533
 30
0.0
 11
400.787509
 21
449.453533
 31
0.0
  0
LINE
  8
LC-002-002-----0
  6
CONTINUOUS
  5
38C
 10
401.311216
 20
414.953533
 30
0.0
 11
399.767443
 21
378.453533
 31
0.0
  0
LINE
  8
LC-002-002-----0
  6
CONTINUOUS
  5
38D
 10
390.359635
 20
414.953533
 30
0.0
 11
385.833522
 21
378.453533
 31
0.0
  0
LINE
  8
LC-002-002-----0
  6
CONTINUOUS
  5
38E
 10
375.953752
 20
449.453533
 30
0.0
 11
405.953752
 21
449.453533
 31
0.0
  0
ARC
  8
LC-007-002-RND-0
  6
CONTINUOUS
  5
38F
 10
373.525188
 20
440.453533
 30
0.0
 40
13.0
 50
88.110819
 51
165.0
  0
LINE
  8
LC-002-002-----0
  6
CONTINUOUS
  5
390
 10
388.511876
 20
414.953533
 30
0.0
 11
383.985763
 21
378.453533
 31
0.0
  0
LINE
  8
LC-002-002-----0
  6
CONTINUOUS
  5
391
 10
380.470768
 20
414.953533
 30
0.0
 11
373.270762
 21
378.453533
 31
0.0
  0
LINE
  8
LC-002-002-----0
  6
CONTINUOUS
  5
392
 10
378.958077
 20
414.953533
 30
0.0
 11
371.684055
 21
378.453533
 31
0.0
  0
LINE
  8
LC-002-002-----0
  6
CONTINUOUS
  5
393
 10
347.953758
 20
374.453533
 30
0.0
 11
349.453758
 21
372.953533
 31
0.0
  0
LINE
  8
LC-002-002-----0
  6
CONTINUOUS
  5
394
 10
351.453752
 20
368.453533
 30
0.0
 11
460.453752
 21
368.453533
 31
0.0
  0
LINE
  8
LC-002-002-----0
  6
CONTINUOUS
  5
395
 10
371.101001
 20
414.953533
 30
0.0
 11
361.71777
 21
378.453533
 31
0.0
  0
LINE
  8
LC-002-002-----0
  6
CONTINUOUS
  5
396
 10
462.453752
 20
375.453533
 30
0.0
 11
462.453752
 21
378.453532
 31
0.0
  0
LINE
  8
LC-002-002-----0
  6
CONTINUOUS
  5
397
 10
349.453752
 20
378.453532
 30
0.0
 11
343.453752
 21
378.453549
 31
0.0
  0
LINE
  8
LC-002-002-----0
  6
CONTINUOUS
  5
398
 10
372.318524
 20
414.953533
 30
0.0
 11
362.935293
 21
378.453533
 31
0.0
  0
LINE
  8
LC-002-002-----0
  6
CONTINUOUS
  5
399
 10
366.458465
 20
414.953533
 30
0.0
 11
355.531462
 21
378.453533
 31
0.0
  0
LINE
  8
LC-002-002-----0
  6
CONTINUOUS
  5
39A
 10
445.449038
 20
414.953533
 30
0.0
 11
456.376041
 21
378.453533
 31
0.0
  0
LINE
  8
LC-002-002-----0
  6
CONTINUOUS
  5
39B
 10
410.953752
 20
453.453533
 30
0.0
 11
410.953752
 21
449.453533
 31
0.0
  0
LINE
  8
LC-002-002-----0
  6
CONTINUOUS
  5
39C
 10
360.968152
 20
443.818181
 30
0.0
 11
343.453752
 21
378.453549
 31
0.0
  0
LINE
  8
LC-002-002-----0
  6
CONTINUOUS
  5
39D
 10
437.953752
 20
453.453533
 30
0.0
 11
438.095504
 21
453.453533
 31
0.0
  0
LINE
  8
LC-002-002-----0
  6
CONTINUOUS
  5
39E
 10
435.953752
 20
453.453533
 30
0.0
 11
435.953752
 21
449.453533
 31
0.0
  0
LINE
  8
LC-002-002-----0
  6
CONTINUOUS
  5
39F
 10
437.953752
 20
453.453533
 30
0.0
 11
435.953752
 21
453.453533
 31
0.0
  0
LINE
  8
LC-002-002-----0
  6
CONTINUOUS
  5
3A0
 10
437.953752
 20
449.393829
 30
0.0
 11
437.953752
 21
453.453533
 31
0.0
  0
LINE
  8
LC-002-002-----0
  6
CONTINUOUS
  5
3A1
 10
373.953752
 20
449.453533
 30
0.0
 11
373.953752
 21
453.453533
 31
0.0
  0
LINE
  8
LC-002-002-----0
  6
CONTINUOUS
  5
3A2
 10
373.953752
 20
453.453533
 30
0.0
 11
375.953752
 21
453.453533
 31
0.0
  0
LINE
  8
LC-002-002-----0
  6
CONTINUOUS
  5
3A3
 10
375.953752
 20
453.453533
 30
0.0
 11
375.953752
 21
449.453533
 31
0.0
  0
LINE
  8
LC-002-002-----0
  6
CONTINUOUS
  5
3A4
 10
400.953752
 20
453.453533
 30
0.0
 11
400.953752
 21
449.453533
 31
0.0
  0
LINE
  8
LC-002-002-----0
  6
CONTINUOUS
  5
3A5
 10
394.637742
 20
449.453533
 30
0.0
 11
391.475663
 21
423.953533
 31
0.0
  0
LINE
  8
LC-002-002-----0
  6
CONTINUOUS
  5
3A6
 10
392.789983
 20
449.453533
 30
0.0
 11
389.627904
 21
423.953533
 31
0.0
  0
LINE
  8
LC-002-002-----0
  6
CONTINUOUS
  5
3A7
 10
397.784553
 20
378.453533
 30
0.0
 11
399.328326
 21
414.953533
 31
0.0
  0
LINE
  8
LC-002-002-----0
  6
CONTINUOUS
  5
3A8
 10
402.770398
 20
449.453533
 30
0.0
 11
401.691872
 21
423.953533
 31
0.0
  0
LINE
  8
LC-002-002-----0
  6
CONTINUOUS
  5
3A9
 10
387.276253
 20
449.453533
 30
0.0
 11
382.246112
 21
423.953533
 31
0.0
  0
LINE
  8
LC-002-002-----0
  6
CONTINUOUS
  5
3AA
 10
385.833522
 20
449.453533
 30
0.0
 11
380.751671
 21
423.953533
 31
0.0
  0
LINE
  8
LC-002-002-----0
  6
CONTINUOUS
  5
3AB
 10
381.187605
 20
449.453533
 30
0.0
 11
374.632197
 21
423.953533
 31
0.0
  0
LINE
  8
LC-002-002-----0
  6
CONTINUOUS
  5
3AC
 10
379.970082
 20
449.453533
 30
0.0
 11
373.414675
 21
423.953533
 31
0.0
  0
LINE
  8
LC-002-002-----0
  6
CONTINUOUS
  5
3AD
 10
376.786729
 20
449.453533
 30
0.0
 11
369.152795
 21
423.953533
 31
0.0
  0
LINE
  8
LC-002-002-----0
  6
CONTINUOUS
  5
3AE
 10
354.766095
 20
378.453533
 30
0.0
 11
365.693098
 21
414.953533
 31
0.0
  0
LINE
  8
LC-002-002-----0
  6
CONTINUOUS
  5
3AF
 10
440.806502
 20
414.953533
 30
0.0
 11
450.189733
 21
378.453533
 31
0.0
  0
LINE
  8
LC-002-002-----0
  6
CONTINUOUS
  5
3B0
 10
460.453752
 20
378.453533
 30
0.0
 11
405.953752
 21
378.453533
 31
0.0
  0
LINE
  8
LC-002-002-----0
  6
CONTINUOUS
  5
3B1
 10
457.772855
 20
378.453533
 30
0.0
 11
447.575586
 21
414.953533
 31
0.0
  0
LINE
  8
LC-002-002-----0
  6
CONTINUOUS
  5
3B2
 10
439.588979
 20
414.953533
 30
0.0
 11
448.97221
 21
378.453533
 31
0.0
  0
LINE
  8
LC-002-002-----0
  6
CONTINUOUS
  5
3B3
 10
432.949426
 20
414.953533
 30
0.0
 11
440.223448
 21
378.453533
 31
0.0
  0
LINE
  8
LC-002-002-----0
  6
CONTINUOUS
  5
3B4
 10
431.436735
 20
414.953533
 30
0.0
 11
438.636741
 21
378.453533
 31
0.0
  0
LINE
  8
LC-002-002-----0
  6
CONTINUOUS
  5
3B5
 10
351.453752
 20
372.953533
 30
0.0
 11
351.453752
 21
368.453533
 31
0.0
  0
LINE
  8
LC-002-002-----0
  6
CONTINUOUS
  5
3B6
 10
438.382315
 20
453.453533
 30
0.0
 11
405.953752
 21
453.453533
 31
0.0
  0
LINE
  8
LC-002-002-----0
  6
CONTINUOUS
  5
3B7
 10
423.395627
 20
414.953533
 30
0.0
 11
427.92174
 21
378.453533
 31
0.0
  0
LINE
  8
LC-002-002-----0
  6
CONTINUOUS
  5
3B8
 10
421.547868
 20
414.953533
 30
0.0
 11
426.073981
 21
378.453533
 31
0.0
  0
LINE
  8
LC-002-002-----0
  6
CONTINUOUS
  5
3B9
 10
460.453752
 20
372.953533
 30
0.0
 11
460.453752
 21
378.453533
 31
0.0
  0
LINE
  8
LC-002-002-----0
  6
CONTINUOUS
  5
3BA
 10
437.937072
 20
449.453533
 30
0.0
 11
405.953752
 21
449.453533
 31
0.0
  0
ARC
  8
LC-007-002-RND-0
  6
CONTINUOUS
  5
3BB
 10
438.382315
 20
440.453533
 30
0.0
 40
13.0
 50
15.0
 51
90.0
  0
LINE
  8
LC-002-002-----0
  6
CONTINUOUS
  5
3BC
 10
463.953745
 20
374.453533
 30
0.0
 11
462.453745
 21
372.953533
 31
0.0
  0
LINE
  8
LC-002-002-----0
  6
CONTINUOUS
  5
3BD
 10
462.953745
 20
375.453533
 30
0.0
 11
462.453752
 21
375.453533
 31
0.0
  0
LINE
  8
LC-002-002-----0
  6
CONTINUOUS
  5
3BE
 10
349.453752
 20
368.453533
 30
0.0
 11
351.453752
 21
368.453533
 31
0.0
  0
LINE
  8
LC-002-002-----0
  6
CONTINUOUS
  5
3BF
 10
462.453752
 20
378.453532
 30
0.0
 11
460.453752
 21
378.453533
 31
0.0
  0
LINE
  8
LC-002-002-----0
  6
CONTINUOUS
  5
3C0
 10
462.453752
 20
378.453532
 30
0.0
 11
468.453752
 21
378.453549
 31
0.0
  0
LINE
  8
LC-002-002-----0
  6
CONTINUOUS
  5
3C1
 10
457.141408
 20
378.453533
 30
0.0
 11
446.214405
 21
414.953533
 31
0.0
  0
LINE
  8
LC-002-002-----0
  6
CONTINUOUS
  5
3C2
 10
435.120774
 20
449.453533
 30
0.0
 11
442.754708
 21
423.953533
 31
0.0
  0
LINE
  8
LC-002-002-----0
  6
CONTINUOUS
  5
3C3
 10
431.937421
 20
449.453533
 30
0.0
 11
438.492828
 21
423.953533
 31
0.0
  0
LINE
  8
LC-002-002-----0
  6
CONTINUOUS
  5
3C4
 10
430.719898
 20
449.453533
 30
0.0
 11
437.275306
 21
423.953533
 31
0.0
  0
LINE
  8
LC-002-002-----0
  6
CONTINUOUS
  5
3C5
 10
426.073981
 20
449.453533
 30
0.0
 11
431.155832
 21
423.953533
 31
0.0
  0
LINE
  8
LC-002-002-----0
  6
CONTINUOUS
  5
3C6
 10
424.63125
 20
449.453533
 30
0.0
 11
429.661391
 21
423.953533
 31
0.0
  0
LINE
  8
LC-002-002-----0
  6
CONTINUOUS
  5
3C7
 10
409.137105
 20
449.453533
 30
0.0
 11
410.215631
 21
423.953533
 31
0.0
  0
LINE
  8
LC-002-002-----0
  6
CONTINUOUS
  5
3C8
 10
414.12295
 20
378.453533
 30
0.0
 11
412.579177
 21
414.953533
 31
0.0
  0
LINE
  8
LC-002-002-----0
  6
CONTINUOUS
  5
3C9
 10
419.11752
 20
449.453533
 30
0.0
 11
422.279599
 21
423.953533
 31
0.0
  0
LINE
  8
LC-002-002-----0
  6
CONTINUOUS
  5
3CA
 10
417.269761
 20
449.453533
 30
0.0
 11
420.43184
 21
423.953533
 31
0.0
  0
LINE
  8
LC-002-002-----0
  6
CONTINUOUS
  5
3CB
 10
445.061191
 20
423.953533
 30
0.0
 11
445.061191
 21
416.953533
 31
0.0
  0
LINE
  8
LC-002-002-----0
  6
CONTINUOUS
  5
3CC
 10
447.061191
 20
414.953533
 30
0.0
 11
447.575586
 21
414.953533
 31
0.0
  0
LINE
  8
LC-002-002-----0
  6
CONTINUOUS
  5
3CD
 10
450.939351
 20
443.818181
 30
0.0
 11
468.453752
 21
378.453549
 31
0.0
  0
LINE
  8
LC-002-002-----0
  6
CONTINUOUS
  5
3CE
 10
443.520075
 20
423.953533
 30
0.0
 11
435.886141
 21
449.453533
 31
0.0
  0
ARC
  8
LC-007-002-RND-0
  6
CONTINUOUS
  5
3CF
 10
447.061191
 20
416.953533
 30
0.0
 40
2.0
 50
180.0
 51
270.0
  0
LINE
  8
LC-002-002-----0
  6
CONTINUOUS
  5
3D0
 10
349.453752
 20
375.453533
 30
0.0
 11
349.453752
 21
378.453532
 31
0.0
  0
LINE
  8
LC-002-002-----0
  6
CONTINUOUS
  5
3D1
 10
460.453752
 20
372.953533
 30
0.0
 11
460.453752
 21
368.453533
 31
0.0
  0
LINE
  8
LC-002-002-----0
  6
CONTINUOUS
  5
3D2
 10
462.453752
 20
372.953533
 30
0.0
 11
462.453752
 21
368.453533
 31
0.0
  0
LINE
  8
LC-002-002-----0
  6
CONTINUOUS
  5
3D3
 10
462.453752
 20
368.453533
 30
0.0
 11
460.453752
 21
368.453533
 31
0.0
  0
LINE
  8
LC-002-002-----0
  6
CONTINUOUS
  5
3D4
 10
351.453752
 20
372.953533
 30
0.0
 11
351.453752
 21
378.453533
 31
0.0
  0
LINE
  8
LC-002-002-----0
  6
CONTINUOUS
  5
3D5
 10
349.453752
 20
372.953533
 30
0.0
 11
349.453752
 21
368.453533
 31
0.0
  0
ARC
  8
LC-002-002-----0
  6
CONTINUOUS
  5
3D6
 10
462.953745
 20
374.453533
 30
0.0
 40
1.0
 50
0.0
 51
90.0
  0
LINE
  8
LC-002-002-----0
  6
CONTINUOUS
  5
3D7
 10
348.953758
 20
375.453533
 30
0.0
 11
349.453752
 21
375.453533
 31
0.0
  0
LINE
  8
LC-002-002-----0
  6
CONTINUOUS
  5
3D8
 10
349.453752
 20
378.453532
 30
0.0
 11
351.453752
 21
378.453533
 31
0.0
  0
LINE
  8
LC-002-002-----0
  6
CONTINUOUS
  5
3D9
 10
375.953752
 20
449.453533
 30
0.0
 11
373.970432
 21
449.453533
 31
0.0
  0
LINE
  8
LC-002-002-----0
  6
CONTINUOUS
  5
3DA
 10
445.061191
 20
423.953533
 30
0.0
 11
437.953752
 21
449.393829
 31
0.0
  0
LINE
  8
LC-002-002-----0
  6
CONTINUOUS
  5
3DB
 10
445.061191
 20
423.953533
 30
0.0
 11
447.575586
 21
414.953533
 31
0.0
  0
LINE
  8
LC-002-002-----0
  6
CONTINUOUS
  5
3DC
 10
366.846312
 20
423.953533
 30
0.0
 11
366.846312
 21
416.953533
 31
0.0
  0
LINE
  8
LC-002-002-----0
  6
CONTINUOUS
  5
3DD
 10
364.846312
 20
414.953533
 30
0.0
 11
364.331917
 21
414.953533
 31
0.0
  0
ARC
  8
LC-007-002-RND-0
  6
CONTINUOUS
  5
3DE
 10
364.846312
 20
416.953533
 30
0.0
 40
2.0
 50
270.0
 51
0.0
  0
LINE
  8
LC-002-002-----0
  6
CONTINUOUS
  5
3DF
 10
366.846312
 20
423.953533
 30
0.0
 11
364.331917
 21
414.953533
 31
0.0
  0
LINE
  8
LC-002-002-----0
  6
CONTINUOUS
  5
3E0
 10
368.387428
 20
423.953533
 30
0.0
 11
376.021362
 21
449.453533
 31
0.0
  0
LINE
  8
LC-002-002-----0
  6
CONTINUOUS
  5
3E1
 10
487.454012
 20
371.704214
 30
0.0
 11
487.09835
 21
371.704214
 31
0.0
  0
LINE
  8
LC-003-005-----0
  6
CONTINUOUS
  5
3E2
 10
451.802153
 20
361.292485
 30
0.0
 11
454.731397
 21
364.221729
 31
0.0
  0
LINE
  8
LC-003-005-----0
  6
CONTINUOUS
  5
3E3
 10
454.732023
 20
364.222355
 30
0.0
 11
454.883595
 21
364.373927
 31
0.0
  0
LINE
  8
LC-003-005-----0
  6
CONTINUOUS
  5
3E4
 10
465.953864
 20
375.444196
 30
0.0
 11
466.963275
 21
376.453607
 31
0.0
  0
LINE
  8
LC-003-005-----0
  6
CONTINUOUS
  5
3E5
 10
427.953752
 20
340.272511
 30
0.0
 11
430.953752
 21
343.272511
 31
0.0
  0
LINE
  8
LC-003-005-----0
  6
CONTINUOUS
  5
3E6
 10
448.736431
 20
361.05519
 30
0.0
 11
448.737178
 21
361.055937
 31
0.0
  0
LINE
  8
LC-003-005-----0
  6
CONTINUOUS
  5
3E7
 10
448.897677
 20
361.216436
 30
0.0
 11
451.843137
 21
364.161896
 31
0.0
  0
LINE
  8
LC-003-005-----0
  6
CONTINUOUS
  5
3E8
 10
451.843923
 20
364.162682
 30
0.0
 11
451.978857
 21
364.297616
 31
0.0
  0
LINE
  8
LC-003-005-----0
  6
CONTINUOUS
  5
3E9
 10
427.953752
 20
343.100938
 30
0.0
 11
430.953752
 21
346.100938
 31
0.0
  0
LINE
  8
LC-003-005-----0
  6
CONTINUOUS
  5
3EA
 10
445.857934
 20
361.00512
 30
0.0
 11
445.858681
 21
361.005867
 31
0.0
  0
LINE
  8
LC-003-005-----0
  6
CONTINUOUS
  5
3EB
 10
445.993201
 20
361.140387
 30
0.0
 11
448.954876
 21
364.102062
 31
0.0
  0
LINE
  8
LC-003-005-----0
  6
CONTINUOUS
  5
3EC
 10
448.955823
 20
364.10301
 30
0.0
 11
449.074119
 21
364.221305
 31
0.0
  0
LINE
  8
LC-003-005-----0
  6
CONTINUOUS
  5
3ED
 10
427.953752
 20
345.929365
 30
0.0
 11
430.953752
 21
348.929365
 31
0.0
  0
LINE
  8
LC-003-005-----0
  6
CONTINUOUS
  5
3EE
 10
442.979437
 20
360.95505
 30
0.0
 11
442.980184
 21
360.955797
 31
0.0
  0
LINE
  8
LC-003-005-----0
  6
CONTINUOUS
  5
3EF
 10
443.088725
 20
361.064338
 30
0.0
 11
446.066616
 21
364.042229
 31
0.0
  0
LINE
  8
LC-003-005-----0
  6
CONTINUOUS
  5
3F0
 10
446.067724
 20
364.043337
 30
0.0
 11
446.169381
 21
364.144994
 31
0.0
  0
LINE
  8
LC-003-005-----0
  6
CONTINUOUS
  5
3F1
 10
427.953752
 20
348.757792
 30
0.0
 11
430.953752
 21
351.757792
 31
0.0
  0
LINE
  8
LC-003-005-----0
  6
CONTINUOUS
  5
3F2
 10
440.10094
 20
360.90498
 30
0.0
 11
440.101687
 21
360.905727
 31
0.0
  0
LINE
  8
LC-003-005-----0
  6
CONTINUOUS
  5
3F3
 10
440.184248
 20
360.988289
 30
0.0
 11
443.178355
 21
363.982396
 31
0.0
  0
LINE
  8
LC-003-005-----0
  6
CONTINUOUS
  5
3F4
 10
443.179624
 20
363.983664
 30
0.0
 11
443.264643
 21
364.068683
 31
0.0
  0
LINE
  8
LC-003-005-----0
  6
CONTINUOUS
  5
3F5
 10
427.953752
 20
351.586219
 30
0.0
 11
430.953752
 21
354.586219
 31
0.0
  0
LINE
  8
LC-003-005-----0
  6
CONTINUOUS
  5
3F6
 10
437.222443
 20
360.85491
 30
0.0
 11
437.22319
 21
360.855657
 31
0.0
  0
LINE
  8
LC-003-005-----0
  6
CONTINUOUS
  5
3F7
 10
437.279772
 20
360.91224
 30
0.0
 11
440.290095
 21
363.922563
 31
0.0
  0
LINE
  8
LC-003-005-----0
  6
CONTINUOUS
  5
3F8
 10
440.291524
 20
363.923992
 30
0.0
 11
440.359904
 21
363.992372
 31
0.0
  0
LINE
  8
LC-003-005-----0
  6
CONTINUOUS
  5
3F9
 10
427.953752
 20
354.414646
 30
0.0
 11
430.953752
 21
357.414646
 31
0.0
  0
LINE
  8
LC-003-005-----0
  6
CONTINUOUS
  5
3FA
 10
434.343946
 20
360.804841
 30
0.0
 11
434.344692
 21
360.805587
 31
0.0
  0
LINE
  8
LC-003-005-----0
  6
CONTINUOUS
  5
3FB
 10
434.375296
 20
360.836191
 30
0.0
 11
437.401835
 21
363.862729
 31
0.0
  0
LINE
  8
LC-003-005-----0
  6
CONTINUOUS
  5
3FC
 10
437.403424
 20
363.864319
 30
0.0
 11
437.455166
 21
363.916061
 31
0.0
  0
LINE
  8
LC-003-005-----0
  6
CONTINUOUS
  5
3FD
 10
427.953752
 20
357.243073
 30
0.0
 11
430.953752
 21
360.243073
 31
0.0
  0
LINE
  8
LC-003-005-----0
  6
CONTINUOUS
  5
3FE
 10
431.465449
 20
360.754771
 30
0.0
 11
431.466195
 21
360.755517
 31
0.0
  0
LINE
  8
LC-003-005-----0
  6
CONTINUOUS
  5
3FF
 10
431.47082
 20
360.760142
 30
0.0
 11
434.513574
 21
363.802896
 31
0.0
  0
LINE
  8
LC-003-005-----0
  6
CONTINUOUS
  5
400
 10
434.515325
 20
363.804646
 30
0.0
 11
434.550428
 21
363.83975
 31
0.0
  0
LINE
  8
LC-003-005-----0
  6
CONTINUOUS
  5
401
 10
427.953752
 20
360.071501
 30
0.0
 11
431.625314
 21
363.743063
 31
0.0
  0
LINE
  8
LC-003-005-----0
  6
CONTINUOUS
  5
402
 10
431.627225
 20
363.744974
 30
0.0
 11
431.64569
 21
363.763439
 31
0.0
  0
LINE
  8
LC-003-005-----0
  6
CONTINUOUS
  5
403
 10
427.953752
 20
362.899928
 30
0.0
 11
428.737053
 21
363.683229
 31
0.0
  0
LINE
  8
LC-003-005-----0
  6
CONTINUOUS
  5
404
 10
428.739125
 20
363.685301
 30
0.0
 11
428.740952
 21
363.687128
 31
0.0
  0
ENDSEC
  0
EOF
