  0
SECTION
  2
HEADER
  9
$ACADVER
  1
AC1009
  9
$INSBASE
 10
0.0
 20
0.0
 30
0.0
  9
$EXTMIN
 10
0.0
 20
0.0
 30
0.0
  9
$EXTMAX
 10
840.0
 20
594.0
 30
0.0
  9
$LIMMIN
 10
0.0
 20
0.0
  9
$LIMMAX
 10
840.0
 20
594.0
  9
$ORTHOMODE
 70
     0
  9
$REGENMODE
 70
     1
  9
$FILLMODE
 70
     1
  9
$QTEXTMODE
 70
     0
  9
$MIRRTEXT
 70
     1
  9
$DRAGMODE
 70
     2
  9
$LTSCALE
 40
2.0
  9
$OSMODE
 70
     0
  9
$ATTMODE
 70
     1
  9
$TEXTSIZE
 40
0.2
  9
$TRACEWID
 40
0.05
  9
$TEXTSTYLE
  7
STANDARD
  9
$CLAYER
  8
0
  9
$CELTYPE
  6
BYLAYER
  9
$CECOLOR
 62
     7
  9
$DIMSCALE
 40
2.0
  9
$DIMASZ
 40
3.5
  9
$DIMEXO
 40
0.0625
  9
$DIMDLI
 40
0.38
  9
$DIMRND
 40
0.0
  9
$DIMDLE
 40
0.0
  9
$DIMEXE
 40
0.18
  9
$DIMTP
 40
0.0
  9
$DIMTM
 40
0.0
  9
$DIMTXT
 40
3.5
  9
$DIMCEN
 40
0.09
  9
$DIMTSZ
 40
0.0
  9
$DIMTOL
 70
     0
  9
$DIMLIM
 70
     0
  9
$DIMTIH
 70
     1
  9
$DIMTOH
 70
     1
  9
$DIMSE1
 70
     0
  9
$DIMSE2
 70
     0
  9
$DIMTAD
 70
     1
  9
$DIMZIN
 70
     0
  9
$DIMBLK
  1

  9
$DIMASO
 70
     1
  9
$DIMSHO
 70
     1
  9
$DIMPOST
  1

  9
$DIMAPOST
  1

  9
$DIMALT
 70
     0
  9
$DIMALTD
 70
     2
  9
$DIMALTF
 40
25.4
  9
$DIMLFAC
 40
1.0
  9
$DIMTOFL
 70
     0
  9
$DIMTVP
 40
0.0
  9
$DIMTIX
 70
     0
  9
$DIMSOXD
 70
     0
  9
$DIMSAH
 70
     0
  9
$DIMBLK1
  1

  9
$DIMBLK2
  1

  9
$DIMSTYLE
  2
STANDARD
  9
$DIMCLRD
 70
     0
  9
$DIMCLRE
 70
     0
  9
$DIMCLRT
 70
     0
  9
$DIMTFAC
 40
1.0
  9
$DIMGAP
 40
0.09
  9
$LUNITS
 70
     2
  9
$LUPREC
 70
     2
  9
$AXISMODE
 70
     0
  9
$AXISUNIT
 10
0.0
 20
0.0
  9
$SKETCHINC
 40
0.1
  9
$FILLETRAD
 40
0.0
  9
$AUNITS
 70
     0
  9
$AUPREC
 70
     0
  9
$MENU
  1
acad
  9
$ELEVATION
 40
0.0
  9
$PELEVATION
 40
0.0
  9
$THICKNESS
 40
0.0
  9
$LIMCHECK
 70
     0
  9
$BLIPMODE
 70
     1
  9
$CHAMFERA
 40
0.0
  9
$CHAMFERB
 40
0.0
  9
$SKPOLY
 70
     0
  9
$TDCREATE
 40
0.000000000
  9
$TDUPDATE
 40
0.000000000
  9
$TDINDWG
 40
0.0000000000
  9
$TDUSRTIMER
 40
0.0000000000
  9
$USRTIMER
 70
     1
  9
$ANGBASE
 50
0.0
  9
$ANGDIR
 70
     0
  9
$PDMODE
 70
     0
  9
$PDSIZE
 40
0.0
  9
$PLINEWID
 40
0.0
  9
$COORDS
 70
     0
  9
$SPLFRAME
 70
     0
  9
$SPLINETYPE
 70
     6
  9
$SPLINESEGS
 70
     8
  9
$ATTDIA
 70
     0
  9
$ATTREQ
 70
     1
  9
$HANDLING
 70
     1
  9
$HANDSEED
  5
635
  9
$SURFTAB1
 70
     6
  9
$SURFTAB2
 70
     6
  9
$SURFTYPE
 70
     6
  9
$SURFU
 70
     6
  9
$SURFV
 70
     6
  9
$UCSNAME
  2

  9
$UCSORG
 10
0.0
 20
0.0
 30
0.0
  9
$UCSXDIR
 10
1.0
 20
0.0
 30
0.0
  9
$UCSYDIR
 10
0.0
 20
1.0
 30
0.0
  9
$PUCSNAME
  2

  9
$PUCSORG
 10
0.0
 20
0.0
 30
0.0
  9
$PUCSXDIR
 10
1.0
 20
0.0
 30
0.0
  9
$PUCSYDIR
 10
0.0
 20
1.0
 30
0.0
  9
$USERI1
 70
     0
  9
$USERI2
 70
     0
  9
$USERI3
 70
     0
  9
$USERI4
 70
     0
  9
$USERI5
 70
     0
  9
$USERR1
 40
0.0
  9
$USERR2
 40
0.0
  9
$USERR3
 40
0.0
  9
$USERR4
 40
0.0
  9
$USERR5
 40
0.0
  9
$WORLDVIEW
 70
     1
  9
$SHADEDGE
 70
     3
  9
$SHADEDIF
 70
    70
  9
$TILEMODE
 70
     1
  9
$MAXACTVP
 70
    16
  9
$PINSBASE
 10
0.0
 20
0.0
 30
0.0
  9
$PLIMCHECK
 70
     0
  9
$PEXTMIN
 10
1.000000E+20
 20
1.000000E+20
 30
1.000000E+20
  9
$PEXTMAX
 10
-1.000000E+20
 20
-1.000000E+20
 30
-1.000000E+20
  9
$PLIMMIN
 10
0.0
 20
0.0
  9
$PLIMMAX
 10
840.0
 20
594.0
  9
$UNITMODE
 70
     0
  9
$VISRETAIN
 70
     0
  9
$PLINEGEN
 70
     1
  9
$PSLTSCALE
 70
     0
  9
$TREEDEPTH
 70
  3020
  9
$DWGCODEPAGE
  3
dos850
  0
ENDSEC
  0
SECTION
  2
TABLES
  0
TABLE
  2
VPORT
 70
     1
  0
VPORT
  2
*ACTIVE
 70
     0
 10
0.0
 20
0.0
 11
1.0
 21
1.0
 12
420.0
 22
297.0
 13
0.0
 23
0.0
 14
1.0
 24
1.0
 15
0.0
 25
0.0
 16
0.0
 26
0.0
 36
1.0
 17
0.0
 27
0.0
 37
0.0
 40
594.0
 41
1.604229
 42
50.0
 43
0.0
 44
0.0
 50
0.0
 51
0.0
 71
     0
 72
   100
 73
     1
 74
     1
 75
     0
 76
     0
 77
     0
 78
     0
  0
ENDTAB
  0
TABLE
  2
LTYPE
 70
     3
  0
LTYPE
  2
CONTINUOUS
 70
    64
  3
Solid line
 72
    65
 73
     0
 40
0.0
  0
LTYPE
  2
DASHDOT
 70
    64
  3
__ . __ . __ . __ . __
 72
    65
 73
     4
 40
7.5
 49
5.0
 49
-1.25
 49
0.0
 49
-1.25
  0
LTYPE
  2
CENTER
 70
    64
  3
__ . __ . __ . __ . __
 72
    65
 73
     4
 40
7.5
 49
5.0
 49
-1.25
 49
0.0
 49
-1.25
  0
ENDTAB
  0
TABLE
  2
LAYER
 70
    12
  0
LAYER
  2
0
 70
     0
 62
     7
  6
CONTINUOUS
  0
LAYER
  2
LC-INFO-1-2-MM-A3-0
 70
     1
 62
    -1
  6
CONTINUOUS
  0
LAYER
  2
LC-003-003-MTH-0
 70
     0
 62
     2
  6
CONTINUOUS
  0
LAYER
  2
LC-004-003-MTG-0
 70
     0
 62
     2
  6
CONTINUOUS
  0
LAYER
  2
LC-002-003-----0
 70
     0
 62
     2
  6
CONTINUOUS
  0
LAYER
  2
LC-009-005-----0
 70
     0
 62
     2
  6
CONTINUOUS
  0
LAYER
  2
LC-006-000-----0
 70
     0
 62
     7
  6
CONTINUOUS
  0
LAYER
  2
LC-001-002-----0
 70
     0
 62
     1
  6
CONTINUOUS
  0
LAYER
  2
LC-005-006-MLN-0
 70
     0
 62
     2
  6
CENTER
  0
LAYER
  2
LC-007-002-RND-0
 70
     0
 62
     1
  6
CONTINUOUS
  0
LAYER
  2
LC-008-004-----0
 70
     0
 62
     1
  6
CONTINUOUS
  0
LAYER
  2
LC-000
 70
     0
 62
     7
  6
CONTINUOUS
  0
ENDTAB
  0
TABLE
  2
STYLE
 70
     4
  0
STYLE
  2
STANDARD
 70
     0
 40
0.0
 41
1.0
 50
0.0
 71
     0
 42
0.0
  3
txt
  4

  0
STYLE
  2
LC-STANDARD
 70
    64
 40
0.0
 41
1.0
 50
0.0
 71
     0
 42
3.5
  3
MONOTXT
  4

  0
STYLE
  2
LC-TXTSTYLE-150-400-0-0-D2
 70
    64
 40
0.0
 41
1.0
 50
15.0
 71
     0
 42
3.5
  3
MONOTXT
  4

  0
STYLE
  2
LC-TXTSTYLE-150-400-0-0-D3
 70
    64
 40
0.0
 41
1.0
 50
15.0
 71
     0
 42
3.5
  3
LC-STANDARD
  4

  0
ENDTAB
  0
TABLE
  2
VIEW
 70
     0
  0
ENDTAB
  0
TABLE
  2
UCS
 70
     0
  0
ENDTAB
  0
TABLE
  2
APPID
 70
     1
  0
APPID
  2
ACAD
 70
     0
  0
ENDTAB
  0
TABLE
  2
DIMSTYLE
 70
     3
  0
DIMSTYLE
  2
STANDARD
 70
     0
  3

  4

  5

  6

  7

 40
1.0
 41
0.18
 42
0.0625
 43
0.38
 44
0.18
 45
0.0
 46
0.0
 47
0.0
 48
0.0
 71
     0
 72
     0
 73
     1
 74
     1
 75
     0
 76
     0
 77
     0
 78
     0
140
0.18
141
0.09
142
0.0
143
25.4
144
1.0
145
0.0
146
1.0
147
0.09
170
     0
171
     2
172
     0
173
     0
174
     0
175
     0
176
     0
177
     0
178
     0
  0
DIMSTYLE
  2
LC-STANDARD
 70
     0
  3

  4

  5

  6

  7

 40
1.0
 41
3.5
 42
0.0
 43
7.5
 44
1.8
 45
0.0
 46
0.0
 47
0.0
 48
0.0
 71
     0
 72
     0
 73
     0
 74
     0
 75
     0
 76
     0
 77
     1
 78
     8
140
3.5
141
0.0
142
0.0
143
25.4
144
1.0
145
0.0
146
0.71
147
1.5
170
     0
171
     2
172
     1
173
     0
174
     0
175
     0
176
     0
177
     0
178
     3
  0
DIMSTYLE
  2
LC-DIM-L-0090-02-02
 70
     0
  3

  4

  5

  6

  7

 40
2.0
 41
3.5
 42
0.0
 43
7.5
 44
1.8
 45
0.0
 46
0.0
 47
0.0
 48
0.0
 71
     0
 72
     0
 73
     0
 74
     0
 75
     0
 76
     0
 77
     1
 78
     8
140
9.0
141
0.0
142
0.0
143
25.4
144
1.0
145
0.0
146
0.71
147
1.5
170
     0
171
     2
172
     0
173
     0
174
     0
175
     0
176
     2
177
     2
178
     6
  0
ENDTAB
  0
ENDSEC
  0
SECTION
  2
BLOCKS
  0
BLOCK
  8
0
  5
23
  2
*D0
 70
    65
 10
0.0
 20
0.0
 30
0.0
  3
*D0
  0
LINE
  8
LC-003-003-MTH-0
  6
CONTINUOUS
  5
25
 10
239.636539
 20
240.962631
 30
0.0
 11
239.636539
 21
169.2
 31
0.0
  0
LINE
  8
LC-003-003-MTH-0
  6
CONTINUOUS
  5
26
 10
314.636539
 20
240.962631
 30
0.0
 11
314.636539
 21
169.2
 31
0.0
  0
LINE
  8
LC-004-003-MTG-0
  6
CONTINUOUS
  5
28
 10
239.636539
 20
180.0
 30
0.0
 11
314.636539
 21
180.0
 31
0.0
  0
LINE
  8
LC-002-003-----0
  6
CONTINUOUS
  5
2A
 10
257.482546
 20
182.349471
 30
0.0
 11
239.636539
 21
180.0
 31
0.0
  0
LINE
  8
LC-002-003-----0
  6
CONTINUOUS
  5
2B
 10
239.636539
 20
180.0
 30
0.0
 11
257.482546
 21
177.650529
 31
0.0
  0
LINE
  8
LC-002-003-----0
  6
CONTINUOUS
  5
2C
 10
257.482546
 20
177.650529
 30
0.0
 11
257.482546
 21
182.349471
 31
0.0
  0
LINE
  8
LC-002-003-----0
  6
CONTINUOUS
  5
2D
 10
257.522585
 20
181.738609
 30
0.0
 11
244.316539
 21
180.0
 31
0.0
  0
LINE
  8
LC-002-003-----0
  6
CONTINUOUS
  5
2E
 10
244.316539
 20
180.0
 30
0.0
 11
257.522585
 21
178.261391
 31
0.0
  0
LINE
  8
LC-002-003-----0
  6
CONTINUOUS
  5
2F
 10
257.562623
 20
181.127746
 30
0.0
 11
248.996539
 21
180.0
 31
0.0
  0
LINE
  8
LC-002-003-----0
  6
CONTINUOUS
  5
30
 10
248.996539
 20
180.0
 30
0.0
 11
257.562623
 21
178.872254
 31
0.0
  0
LINE
  8
LC-002-003-----0
  6
CONTINUOUS
  5
31
 10
257.602661
 20
180.516884
 30
0.0
 11
253.676539
 21
180.0
 31
0.0
  0
LINE
  8
LC-002-003-----0
  6
CONTINUOUS
  5
32
 10
253.676539
 20
180.0
 30
0.0
 11
257.602661
 21
179.483116
 31
0.0
  0
LINE
  8
LC-002-003-----0
  6
CONTINUOUS
  5
33
 10
296.790531
 20
177.650529
 30
0.0
 11
314.636539
 21
180.0
 31
0.0
  0
LINE
  8
LC-002-003-----0
  6
CONTINUOUS
  5
34
 10
314.636539
 20
180.0
 30
0.0
 11
296.790531
 21
182.349471
 31
0.0
  0
LINE
  8
LC-002-003-----0
  6
CONTINUOUS
  5
35
 10
296.790531
 20
182.349471
 30
0.0
 11
296.790531
 21
177.650529
 31
0.0
  0
LINE
  8
LC-002-003-----0
  6
CONTINUOUS
  5
36
 10
296.750493
 20
178.261391
 30
0.0
 11
309.956539
 21
180.0
 31
0.0
  0
LINE
  8
LC-002-003-----0
  6
CONTINUOUS
  5
37
 10
309.956539
 20
180.0
 30
0.0
 11
296.750493
 21
181.738609
 31
0.0
  0
LINE
  8
LC-002-003-----0
  6
CONTINUOUS
  5
38
 10
296.710455
 20
178.872254
 30
0.0
 11
305.276539
 21
180.0
 31
0.0
  0
LINE
  8
LC-002-003-----0
  6
CONTINUOUS
  5
39
 10
305.276539
 20
180.0
 30
0.0
 11
296.710455
 21
181.127746
 31
0.0
  0
LINE
  8
LC-002-003-----0
  6
CONTINUOUS
  5
3A
 10
296.670417
 20
179.483116
 30
0.0
 11
300.596539
 21
180.0
 31
0.0
  0
LINE
  8
LC-002-003-----0
  6
CONTINUOUS
  5
3B
 10
300.596539
 20
180.0
 30
0.0
 11
296.670417
 21
180.516884
 31
0.0
  0
TEXT
  8
LC-002-003-----0
  6
CONTINUOUS
 62
     6
  5
3D
 10
248.883431
 20
190.431999
 30
0.0
 40
18.0
  1
DN70
 41
0.9
 51
15.0
  7
LC-TXTSTYLE-150-400-0-0-D0
 72
     1
 11
275.288156
 21
190.431999
 31
0.0
  0
ENDBLK
  8
0
  5
3E
  0
BLOCK
  8
0
  5
40
  2
*D1
 70
    65
 10
0.0
 20
0.0
 30
0.0
  3
*D1
  0
LINE
  8
LC-003-003-MTH-0
  6
CONTINUOUS
  5
41
 10
311.636539
 20
237.462631
 30
0.0
 11
374.8
 21
237.462631
 31
0.0
  0
LINE
  8
LC-003-003-MTH-0
  6
CONTINUOUS
  5
42
 10
353.137061
 20
437.463319
 30
0.0
 11
374.8
 21
437.463319
 31
0.0
  0
LINE
  8
LC-004-003-MTG-0
  6
CONTINUOUS
  5
43
 10
364.0
 20
237.462631
 30
0.0
 11
364.0
 21
437.463319
 31
0.0
  0
LINE
  8
LC-002-003-----0
  6
CONTINUOUS
  5
44
 10
361.650529
 20
255.308639
 30
0.0
 11
364.0
 21
237.462631
 31
0.0
  0
LINE
  8
LC-002-003-----0
  6
CONTINUOUS
  5
45
 10
364.0
 20
237.462631
 30
0.0
 11
366.349471
 21
255.308639
 31
0.0
  0
LINE
  8
LC-002-003-----0
  6
CONTINUOUS
  5
46
 10
366.349471
 20
255.308639
 30
0.0
 11
361.650529
 21
255.308639
 31
0.0
  0
LINE
  8
LC-002-003-----0
  6
CONTINUOUS
  5
47
 10
362.261391
 20
255.348677
 30
0.0
 11
364.0
 21
242.142631
 31
0.0
  0
LINE
  8
LC-002-003-----0
  6
CONTINUOUS
  5
48
 10
364.0
 20
242.142631
 30
0.0
 11
365.738609
 21
255.348677
 31
0.0
  0
LINE
  8
LC-002-003-----0
  6
CONTINUOUS
  5
49
 10
362.872254
 20
255.388715
 30
0.0
 11
364.0
 21
246.822631
 31
0.0
  0
LINE
  8
LC-002-003-----0
  6
CONTINUOUS
  5
4A
 10
364.0
 20
246.822631
 30
0.0
 11
365.127746
 21
255.388715
 31
0.0
  0
LINE
  8
LC-002-003-----0
  6
CONTINUOUS
  5
4B
 10
363.483116
 20
255.428753
 30
0.0
 11
364.0
 21
251.502631
 31
0.0
  0
LINE
  8
LC-002-003-----0
  6
CONTINUOUS
  5
4C
 10
364.0
 20
251.502631
 30
0.0
 11
364.516884
 21
255.428753
 31
0.0
  0
LINE
  8
LC-002-003-----0
  6
CONTINUOUS
  5
4D
 10
366.349471
 20
419.617311
 30
0.0
 11
364.0
 21
437.463319
 31
0.0
  0
LINE
  8
LC-002-003-----0
  6
CONTINUOUS
  5
4E
 10
364.0
 20
437.463319
 30
0.0
 11
361.650529
 21
419.617311
 31
0.0
  0
LINE
  8
LC-002-003-----0
  6
CONTINUOUS
  5
4F
 10
361.650529
 20
419.617311
 30
0.0
 11
366.349471
 21
419.617311
 31
0.0
  0
LINE
  8
LC-002-003-----0
  6
CONTINUOUS
  5
50
 10
365.738609
 20
419.577273
 30
0.0
 11
364.0
 21
432.783319
 31
0.0
  0
LINE
  8
LC-002-003-----0
  6
CONTINUOUS
  5
51
 10
364.0
 20
432.783319
 30
0.0
 11
362.261391
 21
419.577273
 31
0.0
  0
LINE
  8
LC-002-003-----0
  6
CONTINUOUS
  5
52
 10
365.127746
 20
419.537235
 30
0.0
 11
364.0
 21
428.103319
 31
0.0
  0
LINE
  8
LC-002-003-----0
  6
CONTINUOUS
  5
53
 10
364.0
 20
428.103319
 30
0.0
 11
362.872254
 21
419.537235
 31
0.0
  0
LINE
  8
LC-002-003-----0
  6
CONTINUOUS
  5
54
 10
364.516884
 20
419.497197
 30
0.0
 11
364.0
 21
423.423319
 31
0.0
  0
LINE
  8
LC-002-003-----0
  6
CONTINUOUS
  5
55
 10
364.0
 20
423.423319
 30
0.0
 11
363.483116
 21
419.497197
 31
0.0
  0
TEXT
  8
LC-002-003-----0
  6
CONTINUOUS
 62
     6
  5
56
 10
353.568001
 20
321.124362
 30
0.0
 40
18.0
  1
200
 50
90.0
 51
15.0
  7
LC-TXTSTYLE-150-400-0-0-D0
 72
     1
 11
353.568001
 21
340.258221
 31
0.0
  0
ENDBLK
  8
0
  5
57
  0
BLOCK
  8
0
  5
59
  2
*D2
 70
    65
 10
0.0
 20
0.0
 30
0.0
  3
*D2
  0
LINE
  8
LC-003-003-MTH-0
  6
CONTINUOUS
  5
5A
 10
313.698717
 20
237.462631
 30
0.0
 11
416.8
 21
237.462631
 31
0.0
  0
LINE
  8
LC-003-003-MTH-0
  6
CONTINUOUS
  5
5B
 10
392.299311
 20
454.101982
 30
0.0
 11
416.8
 21
454.101982
 31
0.0
  0
LINE
  8
LC-004-003-MTG-0
  6
CONTINUOUS
  5
5C
 10
406.0
 20
237.462631
 30
0.0
 11
406.0
 21
454.101982
 31
0.0
  0
LINE
  8
LC-002-003-----0
  6
CONTINUOUS
  5
5D
 10
403.650529
 20
255.308639
 30
0.0
 11
406.0
 21
237.462631
 31
0.0
  0
LINE
  8
LC-002-003-----0
  6
CONTINUOUS
  5
5E
 10
406.0
 20
237.462631
 30
0.0
 11
408.349471
 21
255.308639
 31
0.0
  0
LINE
  8
LC-002-003-----0
  6
CONTINUOUS
  5
5F
 10
408.349471
 20
255.308639
 30
0.0
 11
403.650529
 21
255.308639
 31
0.0
  0
LINE
  8
LC-002-003-----0
  6
CONTINUOUS
  5
60
 10
404.261391
 20
255.348677
 30
0.0
 11
406.0
 21
242.142631
 31
0.0
  0
LINE
  8
LC-002-003-----0
  6
CONTINUOUS
  5
61
 10
406.0
 20
242.142631
 30
0.0
 11
407.738609
 21
255.348677
 31
0.0
  0
LINE
  8
LC-002-003-----0
  6
CONTINUOUS
  5
62
 10
404.872254
 20
255.388715
 30
0.0
 11
406.0
 21
246.822631
 31
0.0
  0
LINE
  8
LC-002-003-----0
  6
CONTINUOUS
  5
63
 10
406.0
 20
246.822631
 30
0.0
 11
407.127746
 21
255.388715
 31
0.0
  0
LINE
  8
LC-002-003-----0
  6
CONTINUOUS
  5
64
 10
405.483116
 20
255.428753
 30
0.0
 11
406.0
 21
251.502631
 31
0.0
  0
LINE
  8
LC-002-003-----0
  6
CONTINUOUS
  5
65
 10
406.0
 20
251.502631
 30
0.0
 11
406.516884
 21
255.428753
 31
0.0
  0
LINE
  8
LC-002-003-----0
  6
CONTINUOUS
  5
66
 10
408.349471
 20
436.255975
 30
0.0
 11
406.0
 21
454.101982
 31
0.0
  0
LINE
  8
LC-002-003-----0
  6
CONTINUOUS
  5
67
 10
406.0
 20
454.101982
 30
0.0
 11
403.650529
 21
436.255975
 31
0.0
  0
LINE
  8
LC-002-003-----0
  6
CONTINUOUS
  5
68
 10
403.650529
 20
436.255975
 30
0.0
 11
408.349471
 21
436.255975
 31
0.0
  0
LINE
  8
LC-002-003-----0
  6
CONTINUOUS
  5
69
 10
407.738609
 20
436.215937
 30
0.0
 11
406.0
 21
449.421982
 31
0.0
  0
LINE
  8
LC-002-003-----0
  6
CONTINUOUS
  5
6A
 10
406.0
 20
449.421982
 30
0.0
 11
404.261391
 21
436.215937
 31
0.0
  0
LINE
  8
LC-002-003-----0
  6
CONTINUOUS
  5
6B
 10
407.127746
 20
436.175899
 30
0.0
 11
406.0
 21
444.741982
 31
0.0
  0
LINE
  8
LC-002-003-----0
  6
CONTINUOUS
  5
6C
 10
406.0
 20
444.741982
 30
0.0
 11
404.872254
 21
436.175899
 31
0.0
  0
LINE
  8
LC-002-003-----0
  6
CONTINUOUS
  5
6D
 10
406.516884
 20
436.135861
 30
0.0
 11
406.0
 21
440.061982
 31
0.0
  0
LINE
  8
LC-002-003-----0
  6
CONTINUOUS
  5
6E
 10
406.0
 20
440.061982
 30
0.0
 11
405.483116
 21
436.135861
 31
0.0
  0
TEXT
  8
LC-002-003-----0
  6
CONTINUOUS
 62
     6
  5
6F
 10
395.568001
 20
329.443694
 30
0.0
 40
18.0
  1
216
 50
90.0
 51
15.0
  7
LC-TXTSTYLE-150-400-0-0-D0
 72
     1
 11
395.568001
 21
348.577553
 31
0.0
  0
ENDBLK
  8
0
  5
70
  0
BLOCK
  8
0
  5
72
  2
BLK1
 70
    64
 10
0.0
 20
0.0
 30
0.0
  3
BLK1
  0
ENDBLK
  8
0
  5
73
  0
BLOCK
  8
0
  5
75
  2
BLK2
 70
    64
 10
0.0
 20
0.0
 30
0.0
  3
BLK2
  0
ENDBLK
  8
0
  5
76
  0
BLOCK
  8
0
  5
78
  2
BLK3
 70
    64
 10
0.0
 20
0.0
 30
0.0
  3
BLK3
  0
ENDBLK
  8
0
  5
79
  0
BLOCK
  8
0
  5
7B
  2
*X6
 70
    65
 10
77.136539
 20
457.582028
 30
0.0
  3
*X6
  0
LINE
  8
LC-009-005-----0
  6
CONTINUOUS
  5
7D
 10
79.138479
 20
457.582028
 30
0.0
 11
79.38605
 21
457.829599
 31
0.0
  0
LINE
  8
LC-009-005-----0
  6
CONTINUOUS
  5
7E
 10
78.855636
 20
457.582028
 30
0.0
 11
79.38605
 21
458.112442
 31
0.0
  0
LINE
  8
LC-009-005-----0
  6
CONTINUOUS
  5
7F
 10
78.572793
 20
457.582028
 30
0.0
 11
79.38605
 21
458.395284
 31
0.0
  0
LINE
  8
LC-009-005-----0
  6
CONTINUOUS
  5
80
 10
78.28995
 20
457.582028
 30
0.0
 11
79.38605
 21
458.678127
 31
0.0
  0
LINE
  8
LC-009-005-----0
  6
CONTINUOUS
  5
81
 10
78.007108
 20
457.582028
 30
0.0
 11
79.38605
 21
458.96097
 31
0.0
  0
LINE
  8
LC-009-005-----0
  6
CONTINUOUS
  5
82
 10
77.724265
 20
457.582028
 30
0.0
 11
79.38605
 21
459.243812
 31
0.0
  0
LINE
  8
LC-009-005-----0
  6
CONTINUOUS
  5
83
 10
77.441422
 20
457.582028
 30
0.0
 11
79.38605
 21
459.526655
 31
0.0
  0
LINE
  8
LC-009-005-----0
  6
CONTINUOUS
  5
84
 10
77.15858
 20
457.582028
 30
0.0
 11
79.38605
 21
459.809498
 31
0.0
  0
LINE
  8
LC-009-005-----0
  6
CONTINUOUS
  5
85
 10
77.136539
 20
457.84283
 30
0.0
 11
79.38605
 21
460.092341
 31
0.0
  0
LINE
  8
LC-009-005-----0
  6
CONTINUOUS
  5
86
 10
77.136539
 20
458.125673
 30
0.0
 11
79.38605
 21
460.375183
 31
0.0
  0
LINE
  8
LC-009-005-----0
  6
CONTINUOUS
  5
87
 10
77.136539
 20
458.408515
 30
0.0
 11
79.310051
 21
460.582028
 31
0.0
  0
LINE
  8
LC-009-005-----0
  6
CONTINUOUS
  5
88
 10
77.136539
 20
458.691358
 30
0.0
 11
79.027209
 21
460.582028
 31
0.0
  0
LINE
  8
LC-009-005-----0
  6
CONTINUOUS
  5
89
 10
77.136539
 20
458.974201
 30
0.0
 11
78.744366
 21
460.582028
 31
0.0
  0
LINE
  8
LC-009-005-----0
  6
CONTINUOUS
  5
8A
 10
77.136539
 20
459.257044
 30
0.0
 11
78.461523
 21
460.582028
 31
0.0
  0
LINE
  8
LC-009-005-----0
  6
CONTINUOUS
  5
8B
 10
77.136539
 20
459.539886
 30
0.0
 11
78.178681
 21
460.582028
 31
0.0
  0
LINE
  8
LC-009-005-----0
  6
CONTINUOUS
  5
8C
 10
77.136539
 20
459.822729
 30
0.0
 11
77.895838
 21
460.582028
 31
0.0
  0
LINE
  8
LC-009-005-----0
  6
CONTINUOUS
  5
8D
 10
77.136539
 20
460.105572
 30
0.0
 11
77.612995
 21
460.582028
 31
0.0
  0
LINE
  8
LC-009-005-----0
  6
CONTINUOUS
  5
8E
 10
77.136539
 20
460.388414
 30
0.0
 11
77.330152
 21
460.582028
 31
0.0
  0
ENDBLK
  8
0
  5
8F
  0
BLOCK
  8
0
  5
91
  2
*X7
 70
    65
 10
84.38605
 20
457.582028
 30
0.0
  3
*X7
  0
LINE
  8
LC-009-005-----0
  6
CONTINUOUS
  5
92
 10
89.320816
 20
457.582028
 30
0.0
 11
89.38605
 21
457.647261
 31
0.0
  0
LINE
  8
LC-009-005-----0
  6
CONTINUOUS
  5
93
 10
89.037973
 20
457.582028
 30
0.0
 11
89.38605
 21
457.930104
 31
0.0
  0
LINE
  8
LC-009-005-----0
  6
CONTINUOUS
  5
94
 10
88.755131
 20
457.582028
 30
0.0
 11
89.38605
 21
458.212947
 31
0.0
  0
LINE
  8
LC-009-005-----0
  6
CONTINUOUS
  5
95
 10
88.472288
 20
457.582028
 30
0.0
 11
89.38605
 21
458.495789
 31
0.0
  0
LINE
  8
LC-009-005-----0
  6
CONTINUOUS
  5
96
 10
88.189445
 20
457.582028
 30
0.0
 11
89.38605
 21
458.778632
 31
0.0
  0
LINE
  8
LC-009-005-----0
  6
CONTINUOUS
  5
97
 10
87.906603
 20
457.582028
 30
0.0
 11
89.38605
 21
459.061475
 31
0.0
  0
LINE
  8
LC-009-005-----0
  6
CONTINUOUS
  5
98
 10
87.62376
 20
457.582028
 30
0.0
 11
89.38605
 21
459.344317
 31
0.0
  0
LINE
  8
LC-009-005-----0
  6
CONTINUOUS
  5
99
 10
87.340917
 20
457.582028
 30
0.0
 11
89.38605
 21
459.62716
 31
0.0
  0
LINE
  8
LC-009-005-----0
  6
CONTINUOUS
  5
9A
 10
87.058075
 20
457.582028
 30
0.0
 11
89.38605
 21
459.910003
 31
0.0
  0
LINE
  8
LC-009-005-----0
  6
CONTINUOUS
  5
9B
 10
86.775232
 20
457.582028
 30
0.0
 11
89.38605
 21
460.192846
 31
0.0
  0
LINE
  8
LC-009-005-----0
  6
CONTINUOUS
  5
9C
 10
86.492389
 20
457.582028
 30
0.0
 11
89.38605
 21
460.475688
 31
0.0
  0
LINE
  8
LC-009-005-----0
  6
CONTINUOUS
  5
9D
 10
86.209546
 20
457.582028
 30
0.0
 11
89.209546
 21
460.582028
 31
0.0
  0
LINE
  8
LC-009-005-----0
  6
CONTINUOUS
  5
9E
 10
85.926704
 20
457.582028
 30
0.0
 11
88.926704
 21
460.582028
 31
0.0
  0
LINE
  8
LC-009-005-----0
  6
CONTINUOUS
  5
9F
 10
85.643861
 20
457.582028
 30
0.0
 11
88.643861
 21
460.582028
 31
0.0
  0
LINE
  8
LC-009-005-----0
  6
CONTINUOUS
  5
A0
 10
85.361018
 20
457.582028
 30
0.0
 11
88.361018
 21
460.582028
 31
0.0
  0
LINE
  8
LC-009-005-----0
  6
CONTINUOUS
  5
A1
 10
85.078176
 20
457.582028
 30
0.0
 11
88.078176
 21
460.582028
 31
0.0
  0
LINE
  8
LC-009-005-----0
  6
CONTINUOUS
  5
A2
 10
84.795333
 20
457.582028
 30
0.0
 11
87.795333
 21
460.582028
 31
0.0
  0
LINE
  8
LC-009-005-----0
  6
CONTINUOUS
  5
A3
 10
84.51249
 20
457.582028
 30
0.0
 11
87.51249
 21
460.582028
 31
0.0
  0
LINE
  8
LC-009-005-----0
  6
CONTINUOUS
  5
A4
 10
84.38605
 20
457.73843
 30
0.0
 11
87.229647
 21
460.582028
 31
0.0
  0
LINE
  8
LC-009-005-----0
  6
CONTINUOUS
  5
A5
 10
84.38605
 20
458.021273
 30
0.0
 11
86.946805
 21
460.582028
 31
0.0
  0
LINE
  8
LC-009-005-----0
  6
CONTINUOUS
  5
A6
 10
84.38605
 20
458.304115
 30
0.0
 11
86.663962
 21
460.582028
 31
0.0
  0
LINE
  8
LC-009-005-----0
  6
CONTINUOUS
  5
A7
 10
84.38605
 20
458.586958
 30
0.0
 11
86.381119
 21
460.582028
 31
0.0
  0
LINE
  8
LC-009-005-----0
  6
CONTINUOUS
  5
A8
 10
84.38605
 20
458.869801
 30
0.0
 11
86.098277
 21
460.582028
 31
0.0
  0
LINE
  8
LC-009-005-----0
  6
CONTINUOUS
  5
A9
 10
84.38605
 20
459.152644
 30
0.0
 11
85.815434
 21
460.582028
 31
0.0
  0
LINE
  8
LC-009-005-----0
  6
CONTINUOUS
  5
AA
 10
84.38605
 20
459.435486
 30
0.0
 11
85.532591
 21
460.582028
 31
0.0
  0
LINE
  8
LC-009-005-----0
  6
CONTINUOUS
  5
AB
 10
84.38605
 20
459.718329
 30
0.0
 11
85.249748
 21
460.582028
 31
0.0
  0
LINE
  8
LC-009-005-----0
  6
CONTINUOUS
  5
AC
 10
84.38605
 20
460.001172
 30
0.0
 11
84.966906
 21
460.582028
 31
0.0
  0
LINE
  8
LC-009-005-----0
  6
CONTINUOUS
  5
AD
 10
84.38605
 20
460.284014
 30
0.0
 11
84.684063
 21
460.582028
 31
0.0
  0
LINE
  8
LC-009-005-----0
  6
CONTINUOUS
  5
AE
 10
84.38605
 20
460.566857
 30
0.0
 11
84.40122
 21
460.582028
 31
0.0
  0
ENDBLK
  8
0
  5
AF
  0
BLOCK
  8
0
  5
B1
  2
*X8
 70
    65
 10
94.38605
 20
457.582028
 30
0.0
  3
*X8
  0
LINE
  8
LC-009-005-----0
  6
CONTINUOUS
  5
B2
 10
99.220311
 20
457.582028
 30
0.0
 11
99.38605
 21
457.747766
 31
0.0
  0
LINE
  8
LC-009-005-----0
  6
CONTINUOUS
  5
B3
 10
98.937468
 20
457.582028
 30
0.0
 11
99.38605
 21
458.030609
 31
0.0
  0
LINE
  8
LC-009-005-----0
  6
CONTINUOUS
  5
B4
 10
98.654626
 20
457.582028
 30
0.0
 11
99.38605
 21
458.313452
 31
0.0
  0
LINE
  8
LC-009-005-----0
  6
CONTINUOUS
  5
B5
 10
98.371783
 20
457.582028
 30
0.0
 11
99.38605
 21
458.596294
 31
0.0
  0
LINE
  8
LC-009-005-----0
  6
CONTINUOUS
  5
B6
 10
98.08894
 20
457.582028
 30
0.0
 11
99.38605
 21
458.879137
 31
0.0
  0
LINE
  8
LC-009-005-----0
  6
CONTINUOUS
  5
B7
 10
97.806098
 20
457.582028
 30
0.0
 11
99.38605
 21
459.16198
 31
0.0
  0
LINE
  8
LC-009-005-----0
  6
CONTINUOUS
  5
B8
 10
97.523255
 20
457.582028
 30
0.0
 11
99.38605
 21
459.444823
 31
0.0
  0
LINE
  8
LC-009-005-----0
  6
CONTINUOUS
  5
B9
 10
97.240412
 20
457.582028
 30
0.0
 11
99.38605
 21
459.727665
 31
0.0
  0
LINE
  8
LC-009-005-----0
  6
CONTINUOUS
  5
BA
 10
96.957569
 20
457.582028
 30
0.0
 11
99.38605
 21
460.010508
 31
0.0
  0
LINE
  8
LC-009-005-----0
  6
CONTINUOUS
  5
BB
 10
96.674727
 20
457.582028
 30
0.0
 11
99.38605
 21
460.293351
 31
0.0
  0
LINE
  8
LC-009-005-----0
  6
CONTINUOUS
  5
BC
 10
96.391884
 20
457.582028
 30
0.0
 11
99.38605
 21
460.576193
 31
0.0
  0
LINE
  8
LC-009-005-----0
  6
CONTINUOUS
  5
BD
 10
96.109041
 20
457.582028
 30
0.0
 11
99.109041
 21
460.582028
 31
0.0
  0
LINE
  8
LC-009-005-----0
  6
CONTINUOUS
  5
BE
 10
95.826199
 20
457.582028
 30
0.0
 11
98.826199
 21
460.582028
 31
0.0
  0
LINE
  8
LC-009-005-----0
  6
CONTINUOUS
  5
BF
 10
95.543356
 20
457.582028
 30
0.0
 11
98.543356
 21
460.582028
 31
0.0
  0
LINE
  8
LC-009-005-----0
  6
CONTINUOUS
  5
C0
 10
95.260513
 20
457.582028
 30
0.0
 11
98.260513
 21
460.582028
 31
0.0
  0
LINE
  8
LC-009-005-----0
  6
CONTINUOUS
  5
C1
 10
94.97767
 20
457.582028
 30
0.0
 11
97.97767
 21
460.582028
 31
0.0
  0
LINE
  8
LC-009-005-----0
  6
CONTINUOUS
  5
C2
 10
94.694828
 20
457.582028
 30
0.0
 11
97.694828
 21
460.582028
 31
0.0
  0
LINE
  8
LC-009-005-----0
  6
CONTINUOUS
  5
C3
 10
94.411985
 20
457.582028
 30
0.0
 11
97.411985
 21
460.582028
 31
0.0
  0
LINE
  8
LC-009-005-----0
  6
CONTINUOUS
  5
C4
 10
94.38605
 20
457.838935
 30
0.0
 11
97.129142
 21
460.582028
 31
0.0
  0
LINE
  8
LC-009-005-----0
  6
CONTINUOUS
  5
C5
 10
94.38605
 20
458.121778
 30
0.0
 11
96.8463
 21
460.582028
 31
0.0
  0
LINE
  8
LC-009-005-----0
  6
CONTINUOUS
  5
C6
 10
94.38605
 20
458.40462
 30
0.0
 11
96.563457
 21
460.582028
 31
0.0
  0
LINE
  8
LC-009-005-----0
  6
CONTINUOUS
  5
C7
 10
94.38605
 20
458.687463
 30
0.0
 11
96.280614
 21
460.582028
 31
0.0
  0
LINE
  8
LC-009-005-----0
  6
CONTINUOUS
  5
C8
 10
94.38605
 20
458.970306
 30
0.0
 11
95.997771
 21
460.582028
 31
0.0
  0
LINE
  8
LC-009-005-----0
  6
CONTINUOUS
  5
C9
 10
94.38605
 20
459.253149
 30
0.0
 11
95.714929
 21
460.582028
 31
0.0
  0
LINE
  8
LC-009-005-----0
  6
CONTINUOUS
  5
CA
 10
94.38605
 20
459.535991
 30
0.0
 11
95.432086
 21
460.582028
 31
0.0
  0
LINE
  8
LC-009-005-----0
  6
CONTINUOUS
  5
CB
 10
94.38605
 20
459.818834
 30
0.0
 11
95.149243
 21
460.582028
 31
0.0
  0
LINE
  8
LC-009-005-----0
  6
CONTINUOUS
  5
CC
 10
94.38605
 20
460.101677
 30
0.0
 11
94.866401
 21
460.582028
 31
0.0
  0
LINE
  8
LC-009-005-----0
  6
CONTINUOUS
  5
CD
 10
94.38605
 20
460.384519
 30
0.0
 11
94.583558
 21
460.582028
 31
0.0
  0
ENDBLK
  8
0
  5
CE
  0
BLOCK
  8
0
  5
D0
  2
*X9
 70
    65
 10
104.38605
 20
457.582028
 30
0.0
  3
*X9
  0
LINE
  8
LC-009-005-----0
  6
CONTINUOUS
  5
D1
 10
109.119806
 20
457.582028
 30
0.0
 11
109.38605
 21
457.848271
 31
0.0
  0
LINE
  8
LC-009-005-----0
  6
CONTINUOUS
  5
D2
 10
108.836963
 20
457.582028
 30
0.0
 11
109.38605
 21
458.131114
 31
0.0
  0
LINE
  8
LC-009-005-----0
  6
CONTINUOUS
  5
D3
 10
108.554121
 20
457.582028
 30
0.0
 11
109.38605
 21
458.413957
 31
0.0
  0
LINE
  8
LC-009-005-----0
  6
CONTINUOUS
  5
D4
 10
108.271278
 20
457.582028
 30
0.0
 11
109.38605
 21
458.696799
 31
0.0
  0
LINE
  8
LC-009-005-----0
  6
CONTINUOUS
  5
D5
 10
107.988435
 20
457.582028
 30
0.0
 11
109.38605
 21
458.979642
 31
0.0
  0
LINE
  8
LC-009-005-----0
  6
CONTINUOUS
  5
D6
 10
107.705593
 20
457.582028
 30
0.0
 11
109.38605
 21
459.262485
 31
0.0
  0
LINE
  8
LC-009-005-----0
  6
CONTINUOUS
  5
D7
 10
107.42275
 20
457.582028
 30
0.0
 11
109.38605
 21
459.545328
 31
0.0
  0
LINE
  8
LC-009-005-----0
  6
CONTINUOUS
  5
D8
 10
107.139907
 20
457.582028
 30
0.0
 11
109.38605
 21
459.82817
 31
0.0
  0
LINE
  8
LC-009-005-----0
  6
CONTINUOUS
  5
D9
 10
106.857064
 20
457.582028
 30
0.0
 11
109.38605
 21
460.111013
 31
0.0
  0
LINE
  8
LC-009-005-----0
  6
CONTINUOUS
  5
DA
 10
106.574222
 20
457.582028
 30
0.0
 11
109.38605
 21
460.393856
 31
0.0
  0
LINE
  8
LC-009-005-----0
  6
CONTINUOUS
  5
DB
 10
106.291379
 20
457.582028
 30
0.0
 11
109.291379
 21
460.582028
 31
0.0
  0
LINE
  8
LC-009-005-----0
  6
CONTINUOUS
  5
DC
 10
106.008536
 20
457.582028
 30
0.0
 11
109.008536
 21
460.582028
 31
0.0
  0
LINE
  8
LC-009-005-----0
  6
CONTINUOUS
  5
DD
 10
105.725694
 20
457.582028
 30
0.0
 11
108.725694
 21
460.582028
 31
0.0
  0
LINE
  8
LC-009-005-----0
  6
CONTINUOUS
  5
DE
 10
105.442851
 20
457.582028
 30
0.0
 11
108.442851
 21
460.582028
 31
0.0
  0
LINE
  8
LC-009-005-----0
  6
CONTINUOUS
  5
DF
 10
105.160008
 20
457.582028
 30
0.0
 11
108.160008
 21
460.582028
 31
0.0
  0
LINE
  8
LC-009-005-----0
  6
CONTINUOUS
  5
E0
 10
104.877165
 20
457.582028
 30
0.0
 11
107.877165
 21
460.582028
 31
0.0
  0
LINE
  8
LC-009-005-----0
  6
CONTINUOUS
  5
E1
 10
104.594323
 20
457.582028
 30
0.0
 11
107.594323
 21
460.582028
 31
0.0
  0
LINE
  8
LC-009-005-----0
  6
CONTINUOUS
  5
E2
 10
104.38605
 20
457.656597
 30
0.0
 11
107.31148
 21
460.582028
 31
0.0
  0
LINE
  8
LC-009-005-----0
  6
CONTINUOUS
  5
E3
 10
104.38605
 20
457.93944
 30
0.0
 11
107.028637
 21
460.582028
 31
0.0
  0
LINE
  8
LC-009-005-----0
  6
CONTINUOUS
  5
E4
 10
104.38605
 20
458.222283
 30
0.0
 11
106.745795
 21
460.582028
 31
0.0
  0
LINE
  8
LC-009-005-----0
  6
CONTINUOUS
  5
E5
 10
104.38605
 20
458.505126
 30
0.0
 11
106.462952
 21
460.582028
 31
0.0
  0
LINE
  8
LC-009-005-----0
  6
CONTINUOUS
  5
E6
 10
104.38605
 20
458.787968
 30
0.0
 11
106.180109
 21
460.582028
 31
0.0
  0
LINE
  8
LC-009-005-----0
  6
CONTINUOUS
  5
E7
 10
104.38605
 20
459.070811
 30
0.0
 11
105.897266
 21
460.582028
 31
0.0
  0
LINE
  8
LC-009-005-----0
  6
CONTINUOUS
  5
E8
 10
104.38605
 20
459.353654
 30
0.0
 11
105.614424
 21
460.582028
 31
0.0
  0
LINE
  8
LC-009-005-----0
  6
CONTINUOUS
  5
E9
 10
104.38605
 20
459.636496
 30
0.0
 11
105.331581
 21
460.582028
 31
0.0
  0
LINE
  8
LC-009-005-----0
  6
CONTINUOUS
  5
EA
 10
104.38605
 20
459.919339
 30
0.0
 11
105.048738
 21
460.582028
 31
0.0
  0
LINE
  8
LC-009-005-----0
  6
CONTINUOUS
  5
EB
 10
104.38605
 20
460.202182
 30
0.0
 11
104.765896
 21
460.582028
 31
0.0
  0
LINE
  8
LC-009-005-----0
  6
CONTINUOUS
  5
EC
 10
104.38605
 20
460.485025
 30
0.0
 11
104.483053
 21
460.582028
 31
0.0
  0
ENDBLK
  8
0
  5
ED
  0
BLOCK
  8
0
  5
EF
  2
*X10
 70
    65
 10
114.38605
 20
457.582028
 30
0.0
  3
*X10
  0
LINE
  8
LC-009-005-----0
  6
CONTINUOUS
  5
F0
 10
119.302144
 20
457.582028
 30
0.0
 11
119.38605
 21
457.665934
 31
0.0
  0
LINE
  8
LC-009-005-----0
  6
CONTINUOUS
  5
F1
 10
119.019301
 20
457.582028
 30
0.0
 11
119.38605
 21
457.948776
 31
0.0
  0
LINE
  8
LC-009-005-----0
  6
CONTINUOUS
  5
F2
 10
118.736458
 20
457.582028
 30
0.0
 11
119.38605
 21
458.231619
 31
0.0
  0
LINE
  8
LC-009-005-----0
  6
CONTINUOUS
  5
F3
 10
118.453616
 20
457.582028
 30
0.0
 11
119.38605
 21
458.514462
 31
0.0
  0
LINE
  8
LC-009-005-----0
  6
CONTINUOUS
  5
F4
 10
118.170773
 20
457.582028
 30
0.0
 11
119.38605
 21
458.797305
 31
0.0
  0
LINE
  8
LC-009-005-----0
  6
CONTINUOUS
  5
F5
 10
117.88793
 20
457.582028
 30
0.0
 11
119.38605
 21
459.080147
 31
0.0
  0
LINE
  8
LC-009-005-----0
  6
CONTINUOUS
  5
F6
 10
117.605087
 20
457.582028
 30
0.0
 11
119.38605
 21
459.36299
 31
0.0
  0
LINE
  8
LC-009-005-----0
  6
CONTINUOUS
  5
F7
 10
117.322245
 20
457.582028
 30
0.0
 11
119.38605
 21
459.645833
 31
0.0
  0
LINE
  8
LC-009-005-----0
  6
CONTINUOUS
  5
F8
 10
117.039402
 20
457.582028
 30
0.0
 11
119.38605
 21
459.928675
 31
0.0
  0
LINE
  8
LC-009-005-----0
  6
CONTINUOUS
  5
F9
 10
116.756559
 20
457.582028
 30
0.0
 11
119.38605
 21
460.211518
 31
0.0
  0
LINE
  8
LC-009-005-----0
  6
CONTINUOUS
  5
FA
 10
116.473717
 20
457.582028
 30
0.0
 11
119.38605
 21
460.494361
 31
0.0
  0
LINE
  8
LC-009-005-----0
  6
CONTINUOUS
  5
FB
 10
116.190874
 20
457.582028
 30
0.0
 11
119.190874
 21
460.582028
 31
0.0
  0
LINE
  8
LC-009-005-----0
  6
CONTINUOUS
  5
FC
 10
115.908031
 20
457.582028
 30
0.0
 11
118.908031
 21
460.582028
 31
0.0
  0
LINE
  8
LC-009-005-----0
  6
CONTINUOUS
  5
FD
 10
115.625188
 20
457.582028
 30
0.0
 11
118.625188
 21
460.582028
 31
0.0
  0
LINE
  8
LC-009-005-----0
  6
CONTINUOUS
  5
FE
 10
115.342346
 20
457.582028
 30
0.0
 11
118.342346
 21
460.582028
 31
0.0
  0
LINE
  8
LC-009-005-----0
  6
CONTINUOUS
  5
FF
 10
115.059503
 20
457.582028
 30
0.0
 11
118.059503
 21
460.582028
 31
0.0
  0
LINE
  8
LC-009-005-----0
  6
CONTINUOUS
  5
100
 10
114.77666
 20
457.582028
 30
0.0
 11
117.77666
 21
460.582028
 31
0.0
  0
LINE
  8
LC-009-005-----0
  6
CONTINUOUS
  5
101
 10
114.493818
 20
457.582028
 30
0.0
 11
117.493818
 21
460.582028
 31
0.0
  0
LINE
  8
LC-009-005-----0
  6
CONTINUOUS
  5
102
 10
114.38605
 20
457.757102
 30
0.0
 11
117.210975
 21
460.582028
 31
0.0
  0
LINE
  8
LC-009-005-----0
  6
CONTINUOUS
  5
103
 10
114.38605
 20
458.039945
 30
0.0
 11
116.928132
 21
460.582028
 31
0.0
  0
LINE
  8
LC-009-005-----0
  6
CONTINUOUS
  5
104
 10
114.38605
 20
458.322788
 30
0.0
 11
116.645289
 21
460.582028
 31
0.0
  0
LINE
  8
LC-009-005-----0
  6
CONTINUOUS
  5
105
 10
114.38605
 20
458.605631
 30
0.0
 11
116.362447
 21
460.582028
 31
0.0
  0
LINE
  8
LC-009-005-----0
  6
CONTINUOUS
  5
106
 10
114.38605
 20
458.888473
 30
0.0
 11
116.079604
 21
460.582028
 31
0.0
  0
LINE
  8
LC-009-005-----0
  6
CONTINUOUS
  5
107
 10
114.38605
 20
459.171316
 30
0.0
 11
115.796761
 21
460.582028
 31
0.0
  0
LINE
  8
LC-009-005-----0
  6
CONTINUOUS
  5
108
 10
114.38605
 20
459.454159
 30
0.0
 11
115.513919
 21
460.582028
 31
0.0
  0
LINE
  8
LC-009-005-----0
  6
CONTINUOUS
  5
109
 10
114.38605
 20
459.737001
 30
0.0
 11
115.231076
 21
460.582028
 31
0.0
  0
LINE
  8
LC-009-005-----0
  6
CONTINUOUS
  5
10A
 10
114.38605
 20
460.019844
 30
0.0
 11
114.948233
 21
460.582028
 31
0.0
  0
LINE
  8
LC-009-005-----0
  6
CONTINUOUS
  5
10B
 10
114.38605
 20
460.302687
 30
0.0
 11
114.66539
 21
460.582028
 31
0.0
  0
ENDBLK
  8
0
  5
10C
  0
BLOCK
  8
0
  5
10E
  2
*X11
 70
    65
 10
124.38605
 20
457.582028
 30
0.0
  3
*X11
  0
LINE
  8
LC-009-005-----0
  6
CONTINUOUS
  5
10F
 10
129.201639
 20
457.582028
 30
0.0
 11
129.38605
 21
457.766439
 31
0.0
  0
LINE
  8
LC-009-005-----0
  6
CONTINUOUS
  5
110
 10
128.918796
 20
457.582028
 30
0.0
 11
129.38605
 21
458.049281
 31
0.0
  0
LINE
  8
LC-009-005-----0
  6
CONTINUOUS
  5
111
 10
128.635953
 20
457.582028
 30
0.0
 11
129.38605
 21
458.332124
 31
0.0
  0
LINE
  8
LC-009-005-----0
  6
CONTINUOUS
  5
112
 10
128.353111
 20
457.582028
 30
0.0
 11
129.38605
 21
458.614967
 31
0.0
  0
LINE
  8
LC-009-005-----0
  6
CONTINUOUS
  5
113
 10
128.070268
 20
457.582028
 30
0.0
 11
129.38605
 21
458.89781
 31
0.0
  0
LINE
  8
LC-009-005-----0
  6
CONTINUOUS
  5
114
 10
127.787425
 20
457.582028
 30
0.0
 11
129.38605
 21
459.180652
 31
0.0
  0
LINE
  8
LC-009-005-----0
  6
CONTINUOUS
  5
115
 10
127.504582
 20
457.582028
 30
0.0
 11
129.38605
 21
459.463495
 31
0.0
  0
LINE
  8
LC-009-005-----0
  6
CONTINUOUS
  5
116
 10
127.22174
 20
457.582028
 30
0.0
 11
129.38605
 21
459.746338
 31
0.0
  0
LINE
  8
LC-009-005-----0
  6
CONTINUOUS
  5
117
 10
126.938897
 20
457.582028
 30
0.0
 11
129.38605
 21
460.02918
 31
0.0
  0
LINE
  8
LC-009-005-----0
  6
CONTINUOUS
  5
118
 10
126.656054
 20
457.582028
 30
0.0
 11
129.38605
 21
460.312023
 31
0.0
  0
LINE
  8
LC-009-005-----0
  6
CONTINUOUS
  5
119
 10
126.373212
 20
457.582028
 30
0.0
 11
129.373212
 21
460.582028
 31
0.0
  0
LINE
  8
LC-009-005-----0
  6
CONTINUOUS
  5
11A
 10
126.090369
 20
457.582028
 30
0.0
 11
129.090369
 21
460.582028
 31
0.0
  0
LINE
  8
LC-009-005-----0
  6
CONTINUOUS
  5
11B
 10
125.807526
 20
457.582028
 30
0.0
 11
128.807526
 21
460.582028
 31
0.0
  0
LINE
  8
LC-009-005-----0
  6
CONTINUOUS
  5
11C
 10
125.524683
 20
457.582028
 30
0.0
 11
128.524683
 21
460.582028
 31
0.0
  0
LINE
  8
LC-009-005-----0
  6
CONTINUOUS
  5
11D
 10
125.241841
 20
457.582028
 30
0.0
 11
128.241841
 21
460.582028
 31
0.0
  0
LINE
  8
LC-009-005-----0
  6
CONTINUOUS
  5
11E
 10
124.958998
 20
457.582028
 30
0.0
 11
127.958998
 21
460.582028
 31
0.0
  0
LINE
  8
LC-009-005-----0
  6
CONTINUOUS
  5
11F
 10
124.676155
 20
457.582028
 30
0.0
 11
127.676155
 21
460.582028
 31
0.0
  0
LINE
  8
LC-009-005-----0
  6
CONTINUOUS
  5
120
 10
124.393313
 20
457.582028
 30
0.0
 11
127.393313
 21
460.582028
 31
0.0
  0
LINE
  8
LC-009-005-----0
  6
CONTINUOUS
  5
121
 10
124.38605
 20
457.857608
 30
0.0
 11
127.11047
 21
460.582028
 31
0.0
  0
LINE
  8
LC-009-005-----0
  6
CONTINUOUS
  5
122
 10
124.38605
 20
458.14045
 30
0.0
 11
126.827627
 21
460.582028
 31
0.0
  0
LINE
  8
LC-009-005-----0
  6
CONTINUOUS
  5
123
 10
124.38605
 20
458.423293
 30
0.0
 11
126.544784
 21
460.582028
 31
0.0
  0
LINE
  8
LC-009-005-----0
  6
CONTINUOUS
  5
124
 10
124.38605
 20
458.706136
 30
0.0
 11
126.261942
 21
460.582028
 31
0.0
  0
LINE
  8
LC-009-005-----0
  6
CONTINUOUS
  5
125
 10
124.38605
 20
458.988978
 30
0.0
 11
125.979099
 21
460.582028
 31
0.0
  0
LINE
  8
LC-009-005-----0
  6
CONTINUOUS
  5
126
 10
124.38605
 20
459.271821
 30
0.0
 11
125.696256
 21
460.582028
 31
0.0
  0
LINE
  8
LC-009-005-----0
  6
CONTINUOUS
  5
127
 10
124.38605
 20
459.554664
 30
0.0
 11
125.413414
 21
460.582028
 31
0.0
  0
LINE
  8
LC-009-005-----0
  6
CONTINUOUS
  5
128
 10
124.38605
 20
459.837507
 30
0.0
 11
125.130571
 21
460.582028
 31
0.0
  0
LINE
  8
LC-009-005-----0
  6
CONTINUOUS
  5
129
 10
124.38605
 20
460.120349
 30
0.0
 11
124.847728
 21
460.582028
 31
0.0
  0
LINE
  8
LC-009-005-----0
  6
CONTINUOUS
  5
12A
 10
124.38605
 20
460.403192
 30
0.0
 11
124.564885
 21
460.582028
 31
0.0
  0
ENDBLK
  8
0
  5
12B
  0
BLOCK
  8
0
  5
12D
  2
*X12
 70
    65
 10
134.38605
 20
457.582028
 30
0.0
  3
*X12
  0
LINE
  8
LC-009-005-----0
  6
CONTINUOUS
  5
12E
 10
139.383976
 20
457.582028
 30
0.0
 11
139.38605
 21
457.584101
 31
0.0
  0
LINE
  8
LC-009-005-----0
  6
CONTINUOUS
  5
12F
 10
139.101134
 20
457.582028
 30
0.0
 11
139.38605
 21
457.866944
 31
0.0
  0
LINE
  8
LC-009-005-----0
  6
CONTINUOUS
  5
130
 10
138.818291
 20
457.582028
 30
0.0
 11
139.38605
 21
458.149786
 31
0.0
  0
LINE
  8
LC-009-005-----0
  6
CONTINUOUS
  5
131
 10
138.535448
 20
457.582028
 30
0.0
 11
139.38605
 21
458.432629
 31
0.0
  0
LINE
  8
LC-009-005-----0
  6
CONTINUOUS
  5
132
 10
138.252605
 20
457.582028
 30
0.0
 11
139.38605
 21
458.715472
 31
0.0
  0
LINE
  8
LC-009-005-----0
  6
CONTINUOUS
  5
133
 10
137.969763
 20
457.582028
 30
0.0
 11
139.38605
 21
458.998315
 31
0.0
  0
LINE
  8
LC-009-005-----0
  6
CONTINUOUS
  5
134
 10
137.68692
 20
457.582028
 30
0.0
 11
139.38605
 21
459.281157
 31
0.0
  0
LINE
  8
LC-009-005-----0
  6
CONTINUOUS
  5
135
 10
137.404077
 20
457.582028
 30
0.0
 11
139.38605
 21
459.564
 31
0.0
  0
LINE
  8
LC-009-005-----0
  6
CONTINUOUS
  5
136
 10
137.121235
 20
457.582028
 30
0.0
 11
139.38605
 21
459.846843
 31
0.0
  0
LINE
  8
LC-009-005-----0
  6
CONTINUOUS
  5
137
 10
136.838392
 20
457.582028
 30
0.0
 11
139.38605
 21
460.129685
 31
0.0
  0
LINE
  8
LC-009-005-----0
  6
CONTINUOUS
  5
138
 10
136.555549
 20
457.582028
 30
0.0
 11
139.38605
 21
460.412528
 31
0.0
  0
LINE
  8
LC-009-005-----0
  6
CONTINUOUS
  5
139
 10
136.272706
 20
457.582028
 30
0.0
 11
139.272706
 21
460.582028
 31
0.0
  0
LINE
  8
LC-009-005-----0
  6
CONTINUOUS
  5
13A
 10
135.989864
 20
457.582028
 30
0.0
 11
138.989864
 21
460.582028
 31
0.0
  0
LINE
  8
LC-009-005-----0
  6
CONTINUOUS
  5
13B
 10
135.707021
 20
457.582028
 30
0.0
 11
138.707021
 21
460.582028
 31
0.0
  0
LINE
  8
LC-009-005-----0
  6
CONTINUOUS
  5
13C
 10
135.424178
 20
457.582028
 30
0.0
 11
138.424178
 21
460.582028
 31
0.0
  0
LINE
  8
LC-009-005-----0
  6
CONTINUOUS
  5
13D
 10
135.141336
 20
457.582028
 30
0.0
 11
138.141336
 21
460.582028
 31
0.0
  0
LINE
  8
LC-009-005-----0
  6
CONTINUOUS
  5
13E
 10
134.858493
 20
457.582028
 30
0.0
 11
137.858493
 21
460.582028
 31
0.0
  0
LINE
  8
LC-009-005-----0
  6
CONTINUOUS
  5
13F
 10
134.57565
 20
457.582028
 30
0.0
 11
137.57565
 21
460.582028
 31
0.0
  0
LINE
  8
LC-009-005-----0
  6
CONTINUOUS
  5
140
 10
134.38605
 20
457.67527
 30
0.0
 11
137.292807
 21
460.582028
 31
0.0
  0
LINE
  8
LC-009-005-----0
  6
CONTINUOUS
  5
141
 10
134.38605
 20
457.958113
 30
0.0
 11
137.009965
 21
460.582028
 31
0.0
  0
LINE
  8
LC-009-005-----0
  6
CONTINUOUS
  5
142
 10
134.38605
 20
458.240955
 30
0.0
 11
136.727122
 21
460.582028
 31
0.0
  0
LINE
  8
LC-009-005-----0
  6
CONTINUOUS
  5
143
 10
134.38605
 20
458.523798
 30
0.0
 11
136.444279
 21
460.582028
 31
0.0
  0
LINE
  8
LC-009-005-----0
  6
CONTINUOUS
  5
144
 10
134.38605
 20
458.806641
 30
0.0
 11
136.161437
 21
460.582028
 31
0.0
  0
LINE
  8
LC-009-005-----0
  6
CONTINUOUS
  5
145
 10
134.38605
 20
459.089483
 30
0.0
 11
135.878594
 21
460.582028
 31
0.0
  0
LINE
  8
LC-009-005-----0
  6
CONTINUOUS
  5
146
 10
134.38605
 20
459.372326
 30
0.0
 11
135.595751
 21
460.582028
 31
0.0
  0
LINE
  8
LC-009-005-----0
  6
CONTINUOUS
  5
147
 10
134.38605
 20
459.655169
 30
0.0
 11
135.312908
 21
460.582028
 31
0.0
  0
LINE
  8
LC-009-005-----0
  6
CONTINUOUS
  5
148
 10
134.38605
 20
459.938012
 30
0.0
 11
135.030066
 21
460.582028
 31
0.0
  0
LINE
  8
LC-009-005-----0
  6
CONTINUOUS
  5
149
 10
134.38605
 20
460.220854
 30
0.0
 11
134.747223
 21
460.582028
 31
0.0
  0
LINE
  8
LC-009-005-----0
  6
CONTINUOUS
  5
14A
 10
134.38605
 20
460.503697
 30
0.0
 11
134.46438
 21
460.582028
 31
0.0
  0
ENDBLK
  8
0
  5
14B
  0
BLOCK
  8
0
  5
14D
  2
*X13
 70
    65
 10
144.38605
 20
457.582028
 30
0.0
  3
*X13
  0
LINE
  8
LC-009-005-----0
  6
CONTINUOUS
  5
14E
 10
149.283471
 20
457.582028
 30
0.0
 11
149.38605
 21
457.684606
 31
0.0
  0
LINE
  8
LC-009-005-----0
  6
CONTINUOUS
  5
14F
 10
149.000629
 20
457.582028
 30
0.0
 11
149.38605
 21
457.967449
 31
0.0
  0
LINE
  8
LC-009-005-----0
  6
CONTINUOUS
  5
150
 10
148.717786
 20
457.582028
 30
0.0
 11
149.38605
 21
458.250292
 31
0.0
  0
LINE
  8
LC-009-005-----0
  6
CONTINUOUS
  5
151
 10
148.434943
 20
457.582028
 30
0.0
 11
149.38605
 21
458.533134
 31
0.0
  0
LINE
  8
LC-009-005-----0
  6
CONTINUOUS
  5
152
 10
148.1521
 20
457.582028
 30
0.0
 11
149.38605
 21
458.815977
 31
0.0
  0
LINE
  8
LC-009-005-----0
  6
CONTINUOUS
  5
153
 10
147.869258
 20
457.582028
 30
0.0
 11
149.38605
 21
459.09882
 31
0.0
  0
LINE
  8
LC-009-005-----0
  6
CONTINUOUS
  5
154
 10
147.586415
 20
457.582028
 30
0.0
 11
149.38605
 21
459.381662
 31
0.0
  0
LINE
  8
LC-009-005-----0
  6
CONTINUOUS
  5
155
 10
147.303572
 20
457.582028
 30
0.0
 11
149.38605
 21
459.664505
 31
0.0
  0
LINE
  8
LC-009-005-----0
  6
CONTINUOUS
  5
156
 10
147.02073
 20
457.582028
 30
0.0
 11
149.38605
 21
459.947348
 31
0.0
  0
LINE
  8
LC-009-005-----0
  6
CONTINUOUS
  5
157
 10
146.737887
 20
457.582028
 30
0.0
 11
149.38605
 21
460.230191
 31
0.0
  0
LINE
  8
LC-009-005-----0
  6
CONTINUOUS
  5
158
 10
146.455044
 20
457.582028
 30
0.0
 11
149.38605
 21
460.513033
 31
0.0
  0
LINE
  8
LC-009-005-----0
  6
CONTINUOUS
  5
159
 10
146.172201
 20
457.582028
 30
0.0
 11
149.172201
 21
460.582028
 31
0.0
  0
LINE
  8
LC-009-005-----0
  6
CONTINUOUS
  5
15A
 10
145.889359
 20
457.582028
 30
0.0
 11
148.889359
 21
460.582028
 31
0.0
  0
LINE
  8
LC-009-005-----0
  6
CONTINUOUS
  5
15B
 10
145.606516
 20
457.582028
 30
0.0
 11
148.606516
 21
460.582028
 31
0.0
  0
LINE
  8
LC-009-005-----0
  6
CONTINUOUS
  5
15C
 10
145.323673
 20
457.582028
 30
0.0
 11
148.323673
 21
460.582028
 31
0.0
  0
LINE
  8
LC-009-005-----0
  6
CONTINUOUS
  5
15D
 10
145.040831
 20
457.582028
 30
0.0
 11
148.040831
 21
460.582028
 31
0.0
  0
LINE
  8
LC-009-005-----0
  6
CONTINUOUS
  5
15E
 10
144.757988
 20
457.582028
 30
0.0
 11
147.757988
 21
460.582028
 31
0.0
  0
LINE
  8
LC-009-005-----0
  6
CONTINUOUS
  5
15F
 10
144.475145
 20
457.582028
 30
0.0
 11
147.475145
 21
460.582028
 31
0.0
  0
LINE
  8
LC-009-005-----0
  6
CONTINUOUS
  5
160
 10
144.38605
 20
457.775775
 30
0.0
 11
147.192302
 21
460.582028
 31
0.0
  0
LINE
  8
LC-009-005-----0
  6
CONTINUOUS
  5
161
 10
144.38605
 20
458.058618
 30
0.0
 11
146.90946
 21
460.582028
 31
0.0
  0
LINE
  8
LC-009-005-----0
  6
CONTINUOUS
  5
162
 10
144.38605
 20
458.34146
 30
0.0
 11
146.626617
 21
460.582028
 31
0.0
  0
LINE
  8
LC-009-005-----0
  6
CONTINUOUS
  5
163
 10
144.38605
 20
458.624303
 30
0.0
 11
146.343774
 21
460.582028
 31
0.0
  0
LINE
  8
LC-009-005-----0
  6
CONTINUOUS
  5
164
 10
144.38605
 20
458.907146
 30
0.0
 11
146.060932
 21
460.582028
 31
0.0
  0
LINE
  8
LC-009-005-----0
  6
CONTINUOUS
  5
165
 10
144.38605
 20
459.189989
 30
0.0
 11
145.778089
 21
460.582028
 31
0.0
  0
LINE
  8
LC-009-005-----0
  6
CONTINUOUS
  5
166
 10
144.38605
 20
459.472831
 30
0.0
 11
145.495246
 21
460.582028
 31
0.0
  0
LINE
  8
LC-009-005-----0
  6
CONTINUOUS
  5
167
 10
144.38605
 20
459.755674
 30
0.0
 11
145.212403
 21
460.582028
 31
0.0
  0
LINE
  8
LC-009-005-----0
  6
CONTINUOUS
  5
168
 10
144.38605
 20
460.038517
 30
0.0
 11
144.929561
 21
460.582028
 31
0.0
  0
LINE
  8
LC-009-005-----0
  6
CONTINUOUS
  5
169
 10
144.38605
 20
460.321359
 30
0.0
 11
144.646718
 21
460.582028
 31
0.0
  0
ENDBLK
  8
0
  5
16A
  0
BLOCK
  8
0
  5
16C
  2
*X14
 70
    65
 10
154.38605
 20
457.582028
 30
0.0
  3
*X14
  0
LINE
  8
LC-009-005-----0
  6
CONTINUOUS
  5
16D
 10
159.182966
 20
457.582028
 30
0.0
 11
159.38605
 21
457.785111
 31
0.0
  0
LINE
  8
LC-009-005-----0
  6
CONTINUOUS
  5
16E
 10
158.900123
 20
457.582028
 30
0.0
 11
159.38605
 21
458.067954
 31
0.0
  0
LINE
  8
LC-009-005-----0
  6
CONTINUOUS
  5
16F
 10
158.617281
 20
457.582028
 30
0.0
 11
159.38605
 21
458.350797
 31
0.0
  0
LINE
  8
LC-009-005-----0
  6
CONTINUOUS
  5
170
 10
158.334438
 20
457.582028
 30
0.0
 11
159.38605
 21
458.633639
 31
0.0
  0
LINE
  8
LC-009-005-----0
  6
CONTINUOUS
  5
171
 10
158.051595
 20
457.582028
 30
0.0
 11
159.38605
 21
458.916482
 31
0.0
  0
LINE
  8
LC-009-005-----0
  6
CONTINUOUS
  5
172
 10
157.768753
 20
457.582028
 30
0.0
 11
159.38605
 21
459.199325
 31
0.0
  0
LINE
  8
LC-009-005-----0
  6
CONTINUOUS
  5
173
 10
157.48591
 20
457.582028
 30
0.0
 11
159.38605
 21
459.482167
 31
0.0
  0
LINE
  8
LC-009-005-----0
  6
CONTINUOUS
  5
174
 10
157.203067
 20
457.582028
 30
0.0
 11
159.38605
 21
459.76501
 31
0.0
  0
LINE
  8
LC-009-005-----0
  6
CONTINUOUS
  5
175
 10
156.920224
 20
457.582028
 30
0.0
 11
159.38605
 21
460.047853
 31
0.0
  0
LINE
  8
LC-009-005-----0
  6
CONTINUOUS
  5
176
 10
156.637382
 20
457.582028
 30
0.0
 11
159.38605
 21
460.330696
 31
0.0
  0
LINE
  8
LC-009-005-----0
  6
CONTINUOUS
  5
177
 10
156.354539
 20
457.582028
 30
0.0
 11
159.354539
 21
460.582028
 31
0.0
  0
LINE
  8
LC-009-005-----0
  6
CONTINUOUS
  5
178
 10
156.071696
 20
457.582028
 30
0.0
 11
159.071696
 21
460.582028
 31
0.0
  0
LINE
  8
LC-009-005-----0
  6
CONTINUOUS
  5
179
 10
155.788854
 20
457.582028
 30
0.0
 11
158.788854
 21
460.582028
 31
0.0
  0
LINE
  8
LC-009-005-----0
  6
CONTINUOUS
  5
17A
 10
155.506011
 20
457.582028
 30
0.0
 11
158.506011
 21
460.582028
 31
0.0
  0
LINE
  8
LC-009-005-----0
  6
CONTINUOUS
  5
17B
 10
155.223168
 20
457.582028
 30
0.0
 11
158.223168
 21
460.582028
 31
0.0
  0
LINE
  8
LC-009-005-----0
  6
CONTINUOUS
  5
17C
 10
154.940325
 20
457.582028
 30
0.0
 11
157.940325
 21
460.582028
 31
0.0
  0
LINE
  8
LC-009-005-----0
  6
CONTINUOUS
  5
17D
 10
154.657483
 20
457.582028
 30
0.0
 11
157.657483
 21
460.582028
 31
0.0
  0
LINE
  8
LC-009-005-----0
  6
CONTINUOUS
  5
17E
 10
154.38605
 20
457.593437
 30
0.0
 11
157.37464
 21
460.582028
 31
0.0
  0
LINE
  8
LC-009-005-----0
  6
CONTINUOUS
  5
17F
 10
154.38605
 20
457.87628
 30
0.0
 11
157.091797
 21
460.582028
 31
0.0
  0
LINE
  8
LC-009-005-----0
  6
CONTINUOUS
  5
180
 10
154.38605
 20
458.159123
 30
0.0
 11
156.808955
 21
460.582028
 31
0.0
  0
LINE
  8
LC-009-005-----0
  6
CONTINUOUS
  5
181
 10
154.38605
 20
458.441965
 30
0.0
 11
156.526112
 21
460.582028
 31
0.0
  0
LINE
  8
LC-009-005-----0
  6
CONTINUOUS
  5
182
 10
154.38605
 20
458.724808
 30
0.0
 11
156.243269
 21
460.582028
 31
0.0
  0
LINE
  8
LC-009-005-----0
  6
CONTINUOUS
  5
183
 10
154.38605
 20
459.007651
 30
0.0
 11
155.960427
 21
460.582028
 31
0.0
  0
LINE
  8
LC-009-005-----0
  6
CONTINUOUS
  5
184
 10
154.38605
 20
459.290494
 30
0.0
 11
155.677584
 21
460.582028
 31
0.0
  0
LINE
  8
LC-009-005-----0
  6
CONTINUOUS
  5
185
 10
154.38605
 20
459.573336
 30
0.0
 11
155.394741
 21
460.582028
 31
0.0
  0
LINE
  8
LC-009-005-----0
  6
CONTINUOUS
  5
186
 10
154.38605
 20
459.856179
 30
0.0
 11
155.111898
 21
460.582028
 31
0.0
  0
LINE
  8
LC-009-005-----0
  6
CONTINUOUS
  5
187
 10
154.38605
 20
460.139022
 30
0.0
 11
154.829056
 21
460.582028
 31
0.0
  0
LINE
  8
LC-009-005-----0
  6
CONTINUOUS
  5
188
 10
154.38605
 20
460.421864
 30
0.0
 11
154.546213
 21
460.582028
 31
0.0
  0
ENDBLK
  8
0
  5
189
  0
BLOCK
  8
0
  5
18B
  2
*X15
 70
    65
 10
174.38605
 20
454.862228
 30
0.0
  3
*X15
  0
LINE
  8
LC-009-005-----0
  6
CONTINUOUS
  5
18C
 10
179.376382
 20
454.865184
 30
0.0
 11
179.38605
 21
454.874851
 31
0.0
  0
LINE
  8
LC-009-005-----0
  6
CONTINUOUS
  5
18D
 10
179.159765
 20
454.93141
 30
0.0
 11
179.38605
 21
455.157694
 31
0.0
  0
LINE
  8
LC-009-005-----0
  6
CONTINUOUS
  5
18E
 10
178.943149
 20
454.997636
 30
0.0
 11
179.38605
 21
455.440537
 31
0.0
  0
LINE
  8
LC-009-005-----0
  6
CONTINUOUS
  5
18F
 10
178.726533
 20
455.063863
 30
0.0
 11
179.38605
 21
455.72338
 31
0.0
  0
LINE
  8
LC-009-005-----0
  6
CONTINUOUS
  5
190
 10
178.509916
 20
455.130089
 30
0.0
 11
179.38605
 21
456.006222
 31
0.0
  0
LINE
  8
LC-009-005-----0
  6
CONTINUOUS
  5
191
 10
178.2933
 20
455.196315
 30
0.0
 11
179.38605
 21
456.289065
 31
0.0
  0
LINE
  8
LC-009-005-----0
  6
CONTINUOUS
  5
192
 10
178.076683
 20
455.262541
 30
0.0
 11
179.38605
 21
456.571908
 31
0.0
  0
LINE
  8
LC-009-005-----0
  6
CONTINUOUS
  5
193
 10
177.860067
 20
455.328768
 30
0.0
 11
179.38605
 21
456.85475
 31
0.0
  0
LINE
  8
LC-009-005-----0
  6
CONTINUOUS
  5
194
 10
177.64345
 20
455.394994
 30
0.0
 11
179.38605
 21
457.137593
 31
0.0
  0
LINE
  8
LC-009-005-----0
  6
CONTINUOUS
  5
195
 10
177.426834
 20
455.46122
 30
0.0
 11
179.38605
 21
457.420436
 31
0.0
  0
LINE
  8
LC-009-005-----0
  6
CONTINUOUS
  5
196
 10
177.210218
 20
455.527447
 30
0.0
 11
179.38605
 21
457.703279
 31
0.0
  0
LINE
  8
LC-009-005-----0
  6
CONTINUOUS
  5
197
 10
176.993601
 20
455.593673
 30
0.0
 11
179.38605
 21
457.986121
 31
0.0
  0
LINE
  8
LC-009-005-----0
  6
CONTINUOUS
  5
198
 10
176.776985
 20
455.659899
 30
0.0
 11
179.179529
 21
458.062443
 31
0.0
  0
LINE
  8
LC-009-005-----0
  6
CONTINUOUS
  5
199
 10
176.560368
 20
455.726125
 30
0.0
 11
178.962912
 21
458.128669
 31
0.0
  0
LINE
  8
LC-009-005-----0
  6
CONTINUOUS
  5
19A
 10
176.343752
 20
455.792352
 30
0.0
 11
178.746296
 21
458.194896
 31
0.0
  0
LINE
  8
LC-009-005-----0
  6
CONTINUOUS
  5
19B
 10
176.127135
 20
455.858578
 30
0.0
 11
178.529679
 21
458.261122
 31
0.0
  0
LINE
  8
LC-009-005-----0
  6
CONTINUOUS
  5
19C
 10
175.910519
 20
455.924804
 30
0.0
 11
178.313063
 21
458.327348
 31
0.0
  0
LINE
  8
LC-009-005-----0
  6
CONTINUOUS
  5
19D
 10
175.693903
 20
455.991031
 30
0.0
 11
178.096446
 21
458.393575
 31
0.0
  0
LINE
  8
LC-009-005-----0
  6
CONTINUOUS
  5
19E
 10
175.477286
 20
456.057257
 30
0.0
 11
177.87983
 21
458.459801
 31
0.0
  0
LINE
  8
LC-009-005-----0
  6
CONTINUOUS
  5
19F
 10
175.26067
 20
456.123483
 30
0.0
 11
177.663214
 21
458.526027
 31
0.0
  0
LINE
  8
LC-009-005-----0
  6
CONTINUOUS
  5
1A0
 10
175.044053
 20
456.189709
 30
0.0
 11
177.446597
 21
458.592253
 31
0.0
  0
LINE
  8
LC-009-005-----0
  6
CONTINUOUS
  5
1A1
 10
174.827437
 20
456.255936
 30
0.0
 11
177.229981
 21
458.65848
 31
0.0
  0
LINE
  8
LC-009-005-----0
  6
CONTINUOUS
  5
1A2
 10
174.61082
 20
456.322162
 30
0.0
 11
177.013364
 21
458.724706
 31
0.0
  0
LINE
  8
LC-009-005-----0
  6
CONTINUOUS
  5
1A3
 10
174.394204
 20
456.388388
 30
0.0
 11
176.796748
 21
458.790932
 31
0.0
  0
LINE
  8
LC-009-005-----0
  6
CONTINUOUS
  5
1A4
 10
174.38605
 20
456.663077
 30
0.0
 11
176.580131
 21
458.857159
 31
0.0
  0
LINE
  8
LC-009-005-----0
  6
CONTINUOUS
  5
1A5
 10
174.38605
 20
456.945919
 30
0.0
 11
176.363515
 21
458.923385
 31
0.0
  0
LINE
  8
LC-009-005-----0
  6
CONTINUOUS
  5
1A6
 10
174.38605
 20
457.228762
 30
0.0
 11
176.146899
 21
458.989611
 31
0.0
  0
LINE
  8
LC-009-005-----0
  6
CONTINUOUS
  5
1A7
 10
174.38605
 20
457.511605
 30
0.0
 11
175.930282
 21
459.055837
 31
0.0
  0
LINE
  8
LC-009-005-----0
  6
CONTINUOUS
  5
1A8
 10
174.38605
 20
457.794447
 30
0.0
 11
175.713666
 21
459.122064
 31
0.0
  0
LINE
  8
LC-009-005-----0
  6
CONTINUOUS
  5
1A9
 10
174.38605
 20
458.07729
 30
0.0
 11
175.497049
 21
459.18829
 31
0.0
  0
LINE
  8
LC-009-005-----0
  6
CONTINUOUS
  5
1AA
 10
174.38605
 20
458.360133
 30
0.0
 11
175.280433
 21
459.254516
 31
0.0
  0
LINE
  8
LC-009-005-----0
  6
CONTINUOUS
  5
1AB
 10
174.38605
 20
458.642976
 30
0.0
 11
175.063816
 21
459.320743
 31
0.0
  0
LINE
  8
LC-009-005-----0
  6
CONTINUOUS
  5
1AC
 10
174.38605
 20
458.925818
 30
0.0
 11
174.8472
 21
459.386969
 31
0.0
  0
LINE
  8
LC-009-005-----0
  6
CONTINUOUS
  5
1AD
 10
174.38605
 20
459.208661
 30
0.0
 11
174.630584
 21
459.453195
 31
0.0
  0
LINE
  8
LC-009-005-----0
  6
CONTINUOUS
  5
1AE
 10
174.38605
 20
459.491504
 30
0.0
 11
174.413967
 21
459.519421
 31
0.0
  0
ENDBLK
  8
0
  5
1AF
  0
BLOCK
  8
0
  5
1B1
  2
*X16
 70
    65
 10
184.38605
 20
451.804921
 30
0.0
  3
*X16
  0
LINE
  8
LC-009-005-----0
  6
CONTINUOUS
  5
1B2
 10
189.340737
 20
451.818775
 30
0.0
 11
189.38605
 21
451.864087
 31
0.0
  0
LINE
  8
LC-009-005-----0
  6
CONTINUOUS
  5
1B3
 10
189.124121
 20
451.885001
 30
0.0
 11
189.38605
 21
452.146929
 31
0.0
  0
LINE
  8
LC-009-005-----0
  6
CONTINUOUS
  5
1B4
 10
188.907504
 20
451.951227
 30
0.0
 11
189.38605
 21
452.429772
 31
0.0
  0
LINE
  8
LC-009-005-----0
  6
CONTINUOUS
  5
1B5
 10
188.690888
 20
452.017453
 30
0.0
 11
189.38605
 21
452.712615
 31
0.0
  0
LINE
  8
LC-009-005-----0
  6
CONTINUOUS
  5
1B6
 10
188.474272
 20
452.08368
 30
0.0
 11
189.38605
 21
452.995458
 31
0.0
  0
LINE
  8
LC-009-005-----0
  6
CONTINUOUS
  5
1B7
 10
188.257655
 20
452.149906
 30
0.0
 11
189.38605
 21
453.2783
 31
0.0
  0
LINE
  8
LC-009-005-----0
  6
CONTINUOUS
  5
1B8
 10
188.041039
 20
452.216132
 30
0.0
 11
189.38605
 21
453.561143
 31
0.0
  0
LINE
  8
LC-009-005-----0
  6
CONTINUOUS
  5
1B9
 10
187.824422
 20
452.282359
 30
0.0
 11
189.38605
 21
453.843986
 31
0.0
  0
LINE
  8
LC-009-005-----0
  6
CONTINUOUS
  5
1BA
 10
187.607806
 20
452.348585
 30
0.0
 11
189.38605
 21
454.126828
 31
0.0
  0
LINE
  8
LC-009-005-----0
  6
CONTINUOUS
  5
1BB
 10
187.39119
 20
452.414811
 30
0.0
 11
189.38605
 21
454.409671
 31
0.0
  0
LINE
  8
LC-009-005-----0
  6
CONTINUOUS
  5
1BC
 10
187.174573
 20
452.481037
 30
0.0
 11
189.38605
 21
454.692514
 31
0.0
  0
LINE
  8
LC-009-005-----0
  6
CONTINUOUS
  5
1BD
 10
186.957957
 20
452.547264
 30
0.0
 11
189.360501
 21
454.949808
 31
0.0
  0
LINE
  8
LC-009-005-----0
  6
CONTINUOUS
  5
1BE
 10
186.74134
 20
452.61349
 30
0.0
 11
189.143884
 21
455.016034
 31
0.0
  0
LINE
  8
LC-009-005-----0
  6
CONTINUOUS
  5
1BF
 10
186.524724
 20
452.679716
 30
0.0
 11
188.927268
 21
455.08226
 31
0.0
  0
LINE
  8
LC-009-005-----0
  6
CONTINUOUS
  5
1C0
 10
186.308107
 20
452.745943
 30
0.0
 11
188.710651
 21
455.148486
 31
0.0
  0
LINE
  8
LC-009-005-----0
  6
CONTINUOUS
  5
1C1
 10
186.091491
 20
452.812169
 30
0.0
 11
188.494035
 21
455.214713
 31
0.0
  0
LINE
  8
LC-009-005-----0
  6
CONTINUOUS
  5
1C2
 10
185.874875
 20
452.878395
 30
0.0
 11
188.277418
 21
455.280939
 31
0.0
  0
LINE
  8
LC-009-005-----0
  6
CONTINUOUS
  5
1C3
 10
185.658258
 20
452.944621
 30
0.0
 11
188.060802
 21
455.347165
 31
0.0
  0
LINE
  8
LC-009-005-----0
  6
CONTINUOUS
  5
1C4
 10
185.441642
 20
453.010848
 30
0.0
 11
187.844186
 21
455.413392
 31
0.0
  0
LINE
  8
LC-009-005-----0
  6
CONTINUOUS
  5
1C5
 10
185.225025
 20
453.077074
 30
0.0
 11
187.627569
 21
455.479618
 31
0.0
  0
LINE
  8
LC-009-005-----0
  6
CONTINUOUS
  5
1C6
 10
185.008409
 20
453.1433
 30
0.0
 11
187.410953
 21
455.545844
 31
0.0
  0
LINE
  8
LC-009-005-----0
  6
CONTINUOUS
  5
1C7
 10
184.791792
 20
453.209527
 30
0.0
 11
187.194336
 21
455.61207
 31
0.0
  0
LINE
  8
LC-009-005-----0
  6
CONTINUOUS
  5
1C8
 10
184.575176
 20
453.275753
 30
0.0
 11
186.97772
 21
455.678297
 31
0.0
  0
LINE
  8
LC-009-005-----0
  6
CONTINUOUS
  5
1C9
 10
184.38605
 20
453.369469
 30
0.0
 11
186.761103
 21
455.744523
 31
0.0
  0
LINE
  8
LC-009-005-----0
  6
CONTINUOUS
  5
1CA
 10
184.38605
 20
453.652312
 30
0.0
 11
186.544487
 21
455.810749
 31
0.0
  0
LINE
  8
LC-009-005-----0
  6
CONTINUOUS
  5
1CB
 10
184.38605
 20
453.935155
 30
0.0
 11
186.327871
 21
455.876976
 31
0.0
  0
LINE
  8
LC-009-005-----0
  6
CONTINUOUS
  5
1CC
 10
184.38605
 20
454.217997
 30
0.0
 11
186.111254
 21
455.943202
 31
0.0
  0
LINE
  8
LC-009-005-----0
  6
CONTINUOUS
  5
1CD
 10
184.38605
 20
454.50084
 30
0.0
 11
185.894638
 21
456.009428
 31
0.0
  0
LINE
  8
LC-009-005-----0
  6
CONTINUOUS
  5
1CE
 10
184.38605
 20
454.783683
 30
0.0
 11
185.678021
 21
456.075654
 31
0.0
  0
LINE
  8
LC-009-005-----0
  6
CONTINUOUS
  5
1CF
 10
184.38605
 20
455.066525
 30
0.0
 11
185.461405
 21
456.141881
 31
0.0
  0
LINE
  8
LC-009-005-----0
  6
CONTINUOUS
  5
1D0
 10
184.38605
 20
455.349368
 30
0.0
 11
185.244788
 21
456.208107
 31
0.0
  0
LINE
  8
LC-009-005-----0
  6
CONTINUOUS
  5
1D1
 10
184.38605
 20
455.632211
 30
0.0
 11
185.028172
 21
456.274333
 31
0.0
  0
LINE
  8
LC-009-005-----0
  6
CONTINUOUS
  5
1D2
 10
184.38605
 20
455.915054
 30
0.0
 11
184.811556
 21
456.34056
 31
0.0
  0
LINE
  8
LC-009-005-----0
  6
CONTINUOUS
  5
1D3
 10
184.38605
 20
456.197896
 30
0.0
 11
184.594939
 21
456.406786
 31
0.0
  0
ENDBLK
  8
0
  5
1D4
  0
BLOCK
  8
0
  5
1D6
  2
*X17
 70
    65
 10
194.38605
 20
450.964012
 30
0.0
  3
*X17
  0
LINE
  8
LC-009-005-----0
  6
CONTINUOUS
  5
1D7
 10
199.233998
 20
450.964012
 30
0.0
 11
199.38605
 21
451.116064
 31
0.0
  0
LINE
  8
LC-009-005-----0
  6
CONTINUOUS
  5
1D8
 10
198.951155
 20
450.964012
 30
0.0
 11
199.38605
 21
451.398906
 31
0.0
  0
LINE
  8
LC-009-005-----0
  6
CONTINUOUS
  5
1D9
 10
198.668313
 20
450.964012
 30
0.0
 11
199.38605
 21
451.681749
 31
0.0
  0
LINE
  8
LC-009-005-----0
  6
CONTINUOUS
  5
1DA
 10
198.38547
 20
450.964012
 30
0.0
 11
199.38605
 21
451.964592
 31
0.0
  0
LINE
  8
LC-009-005-----0
  6
CONTINUOUS
  5
1DB
 10
198.102627
 20
450.964012
 30
0.0
 11
199.38605
 21
452.247434
 31
0.0
  0
LINE
  8
LC-009-005-----0
  6
CONTINUOUS
  5
1DC
 10
197.819785
 20
450.964012
 30
0.0
 11
199.38605
 21
452.530277
 31
0.0
  0
LINE
  8
LC-009-005-----0
  6
CONTINUOUS
  5
1DD
 10
197.536942
 20
450.964012
 30
0.0
 11
199.38605
 21
452.81312
 31
0.0
  0
LINE
  8
LC-009-005-----0
  6
CONTINUOUS
  5
1DE
 10
197.254099
 20
450.964012
 30
0.0
 11
199.38605
 21
453.095963
 31
0.0
  0
LINE
  8
LC-009-005-----0
  6
CONTINUOUS
  5
1DF
 10
196.971256
 20
450.964012
 30
0.0
 11
199.38605
 21
453.378805
 31
0.0
  0
LINE
  8
LC-009-005-----0
  6
CONTINUOUS
  5
1E0
 10
196.688414
 20
450.964012
 30
0.0
 11
199.38605
 21
453.661648
 31
0.0
  0
LINE
  8
LC-009-005-----0
  6
CONTINUOUS
  5
1E1
 10
196.405571
 20
450.964012
 30
0.0
 11
199.38605
 21
453.944491
 31
0.0
  0
LINE
  8
LC-009-005-----0
  6
CONTINUOUS
  5
1E2
 10
196.122728
 20
450.964012
 30
0.0
 11
199.122728
 21
453.964012
 31
0.0
  0
LINE
  8
LC-009-005-----0
  6
CONTINUOUS
  5
1E3
 10
195.839886
 20
450.964012
 30
0.0
 11
198.839886
 21
453.964012
 31
0.0
  0
LINE
  8
LC-009-005-----0
  6
CONTINUOUS
  5
1E4
 10
195.557043
 20
450.964012
 30
0.0
 11
198.557043
 21
453.964012
 31
0.0
  0
LINE
  8
LC-009-005-----0
  6
CONTINUOUS
  5
1E5
 10
195.2742
 20
450.964012
 30
0.0
 11
198.2742
 21
453.964012
 31
0.0
  0
LINE
  8
LC-009-005-----0
  6
CONTINUOUS
  5
1E6
 10
194.991357
 20
450.964012
 30
0.0
 11
197.991357
 21
453.964012
 31
0.0
  0
LINE
  8
LC-009-005-----0
  6
CONTINUOUS
  5
1E7
 10
194.708515
 20
450.964012
 30
0.0
 11
197.708515
 21
453.964012
 31
0.0
  0
LINE
  8
LC-009-005-----0
  6
CONTINUOUS
  5
1E8
 10
194.425672
 20
450.964012
 30
0.0
 11
197.425672
 21
453.964012
 31
0.0
  0
LINE
  8
LC-009-005-----0
  6
CONTINUOUS
  5
1E9
 10
194.38605
 20
451.207232
 30
0.0
 11
197.142829
 21
453.964012
 31
0.0
  0
LINE
  8
LC-009-005-----0
  6
CONTINUOUS
  5
1EA
 10
194.38605
 20
451.490075
 30
0.0
 11
196.859987
 21
453.964012
 31
0.0
  0
LINE
  8
LC-009-005-----0
  6
CONTINUOUS
  5
1EB
 10
194.38605
 20
451.772918
 30
0.0
 11
196.577144
 21
453.964012
 31
0.0
  0
LINE
  8
LC-009-005-----0
  6
CONTINUOUS
  5
1EC
 10
194.38605
 20
452.055761
 30
0.0
 11
196.294301
 21
453.964012
 31
0.0
  0
LINE
  8
LC-009-005-----0
  6
CONTINUOUS
  5
1ED
 10
194.38605
 20
452.338603
 30
0.0
 11
196.011458
 21
453.964012
 31
0.0
  0
LINE
  8
LC-009-005-----0
  6
CONTINUOUS
  5
1EE
 10
194.38605
 20
452.621446
 30
0.0
 11
195.728616
 21
453.964012
 31
0.0
  0
LINE
  8
LC-009-005-----0
  6
CONTINUOUS
  5
1EF
 10
194.38605
 20
452.904289
 30
0.0
 11
195.445773
 21
453.964012
 31
0.0
  0
LINE
  8
LC-009-005-----0
  6
CONTINUOUS
  5
1F0
 10
194.38605
 20
453.187131
 30
0.0
 11
195.16293
 21
453.964012
 31
0.0
  0
LINE
  8
LC-009-005-----0
  6
CONTINUOUS
  5
1F1
 10
194.38605
 20
453.469974
 30
0.0
 11
194.880088
 21
453.964012
 31
0.0
  0
LINE
  8
LC-009-005-----0
  6
CONTINUOUS
  5
1F2
 10
194.38605
 20
453.752817
 30
0.0
 11
194.597245
 21
453.964012
 31
0.0
  0
ENDBLK
  8
0
  5
1F3
  0
BLOCK
  8
0
  5
1F5
  2
*X18
 70
    65
 10
210.13605
 20
452.463322
 30
0.0
  3
*X18
  0
LINE
  8
LC-009-005-----0
  6
CONTINUOUS
  5
1F6
 10
212.329859
 20
452.463322
 30
0.0
 11
212.386427
 21
452.51989
 31
0.0
  0
LINE
  8
LC-009-005-----0
  6
CONTINUOUS
  5
1F7
 10
212.047016
 20
452.463322
 30
0.0
 11
212.386427
 21
452.802732
 31
0.0
  0
LINE
  8
LC-009-005-----0
  6
CONTINUOUS
  5
1F8
 10
211.764173
 20
452.463322
 30
0.0
 11
212.386427
 21
453.085575
 31
0.0
  0
LINE
  8
LC-009-005-----0
  6
CONTINUOUS
  5
1F9
 10
211.481331
 20
452.463322
 30
0.0
 11
212.386427
 21
453.368418
 31
0.0
  0
LINE
  8
LC-009-005-----0
  6
CONTINUOUS
  5
1FA
 10
211.198488
 20
452.463322
 30
0.0
 11
212.386427
 21
453.651261
 31
0.0
  0
LINE
  8
LC-009-005-----0
  6
CONTINUOUS
  5
1FB
 10
210.915645
 20
452.463322
 30
0.0
 11
212.386427
 21
453.934103
 31
0.0
  0
LINE
  8
LC-009-005-----0
  6
CONTINUOUS
  5
1FC
 10
210.632803
 20
452.463322
 30
0.0
 11
212.386427
 21
454.216946
 31
0.0
  0
LINE
  8
LC-009-005-----0
  6
CONTINUOUS
  5
1FD
 10
210.34996
 20
452.463322
 30
0.0
 11
212.386427
 21
454.499789
 31
0.0
  0
LINE
  8
LC-009-005-----0
  6
CONTINUOUS
  5
1FE
 10
210.13605
 20
452.532254
 30
0.0
 11
212.386427
 21
454.782631
 31
0.0
  0
LINE
  8
LC-009-005-----0
  6
CONTINUOUS
  5
1FF
 10
210.13605
 20
452.815097
 30
0.0
 11
212.386427
 21
455.065474
 31
0.0
  0
LINE
  8
LC-009-005-----0
  6
CONTINUOUS
  5
200
 10
210.13605
 20
453.09794
 30
0.0
 11
212.386427
 21
455.348317
 31
0.0
  0
LINE
  8
LC-009-005-----0
  6
CONTINUOUS
  5
201
 10
210.13605
 20
453.380782
 30
0.0
 11
212.218589
 21
455.463322
 31
0.0
  0
LINE
  8
LC-009-005-----0
  6
CONTINUOUS
  5
202
 10
210.13605
 20
453.663625
 30
0.0
 11
211.935746
 21
455.463322
 31
0.0
  0
LINE
  8
LC-009-005-----0
  6
CONTINUOUS
  5
203
 10
210.13605
 20
453.946468
 30
0.0
 11
211.652904
 21
455.463322
 31
0.0
  0
LINE
  8
LC-009-005-----0
  6
CONTINUOUS
  5
204
 10
210.13605
 20
454.22931
 30
0.0
 11
211.370061
 21
455.463322
 31
0.0
  0
LINE
  8
LC-009-005-----0
  6
CONTINUOUS
  5
205
 10
210.13605
 20
454.512153
 30
0.0
 11
211.087218
 21
455.463322
 31
0.0
  0
LINE
  8
LC-009-005-----0
  6
CONTINUOUS
  5
206
 10
210.13605
 20
454.794996
 30
0.0
 11
210.804375
 21
455.463322
 31
0.0
  0
LINE
  8
LC-009-005-----0
  6
CONTINUOUS
  5
207
 10
210.13605
 20
455.077839
 30
0.0
 11
210.521533
 21
455.463322
 31
0.0
  0
LINE
  8
LC-009-005-----0
  6
CONTINUOUS
  5
208
 10
210.13605
 20
455.360681
 30
0.0
 11
210.23869
 21
455.463322
 31
0.0
  0
ENDBLK
  8
0
  5
209
  0
BLOCK
  8
0
  5
20B
  2
*X19
 70
    65
 10
164.38605
 20
457.404835
 30
0.0
  3
*X19
  0
LINE
  8
LC-009-005-----0
  6
CONTINUOUS
  5
20C
 10
169.194372
 20
457.411096
 30
0.0
 11
169.38605
 21
457.602774
 31
0.0
  0
LINE
  8
LC-009-005-----0
  6
CONTINUOUS
  5
20D
 10
168.920477
 20
457.420044
 30
0.0
 11
169.38605
 21
457.885616
 31
0.0
  0
LINE
  8
LC-009-005-----0
  6
CONTINUOUS
  5
20E
 10
168.646582
 20
457.428992
 30
0.0
 11
169.38605
 21
458.168459
 31
0.0
  0
LINE
  8
LC-009-005-----0
  6
CONTINUOUS
  5
20F
 10
168.372687
 20
457.43794
 30
0.0
 11
169.38605
 21
458.451302
 31
0.0
  0
LINE
  8
LC-009-005-----0
  6
CONTINUOUS
  5
210
 10
168.098792
 20
457.446887
 30
0.0
 11
169.38605
 21
458.734144
 31
0.0
  0
LINE
  8
LC-009-005-----0
  6
CONTINUOUS
  5
211
 10
167.824897
 20
457.455835
 30
0.0
 11
169.38605
 21
459.016987
 31
0.0
  0
LINE
  8
LC-009-005-----0
  6
CONTINUOUS
  5
212
 10
167.551003
 20
457.464783
 30
0.0
 11
169.38605
 21
459.29983
 31
0.0
  0
LINE
  8
LC-009-005-----0
  6
CONTINUOUS
  5
213
 10
167.277108
 20
457.473731
 30
0.0
 11
169.38605
 21
459.582673
 31
0.0
  0
LINE
  8
LC-009-005-----0
  6
CONTINUOUS
  5
214
 10
167.003213
 20
457.482678
 30
0.0
 11
169.38605
 21
459.865515
 31
0.0
  0
LINE
  8
LC-009-005-----0
  6
CONTINUOUS
  5
215
 10
166.729318
 20
457.491626
 30
0.0
 11
169.38605
 21
460.148358
 31
0.0
  0
LINE
  8
LC-009-005-----0
  6
CONTINUOUS
  5
216
 10
166.455423
 20
457.500574
 30
0.0
 11
169.362067
 21
460.407219
 31
0.0
  0
LINE
  8
LC-009-005-----0
  6
CONTINUOUS
  5
217
 10
166.181528
 20
457.509521
 30
0.0
 11
169.088172
 21
460.416166
 31
0.0
  0
LINE
  8
LC-009-005-----0
  6
CONTINUOUS
  5
218
 10
165.907633
 20
457.518469
 30
0.0
 11
168.814277
 21
460.425114
 31
0.0
  0
LINE
  8
LC-009-005-----0
  6
CONTINUOUS
  5
219
 10
165.633738
 20
457.527417
 30
0.0
 11
168.540382
 21
460.434062
 31
0.0
  0
LINE
  8
LC-009-005-----0
  6
CONTINUOUS
  5
21A
 10
165.359843
 20
457.536365
 30
0.0
 11
168.266487
 21
460.443009
 31
0.0
  0
LINE
  8
LC-009-005-----0
  6
CONTINUOUS
  5
21B
 10
165.085948
 20
457.545312
 30
0.0
 11
167.992592
 21
460.451957
 31
0.0
  0
LINE
  8
LC-009-005-----0
  6
CONTINUOUS
  5
21C
 10
164.812053
 20
457.55426
 30
0.0
 11
167.718697
 21
460.460905
 31
0.0
  0
LINE
  8
LC-009-005-----0
  6
CONTINUOUS
  5
21D
 10
164.538158
 20
457.563208
 30
0.0
 11
167.444802
 21
460.469853
 31
0.0
  0
LINE
  8
LC-009-005-----0
  6
CONTINUOUS
  5
21E
 10
164.38605
 20
457.693942
 30
0.0
 11
167.170907
 21
460.4788
 31
0.0
  0
LINE
  8
LC-009-005-----0
  6
CONTINUOUS
  5
21F
 10
164.38605
 20
457.976785
 30
0.0
 11
166.897012
 21
460.487748
 31
0.0
  0
LINE
  8
LC-009-005-----0
  6
CONTINUOUS
  5
220
 10
164.38605
 20
458.259628
 30
0.0
 11
166.623118
 21
460.496696
 31
0.0
  0
LINE
  8
LC-009-005-----0
  6
CONTINUOUS
  5
221
 10
164.38605
 20
458.542471
 30
0.0
 11
166.349223
 21
460.505643
 31
0.0
  0
LINE
  8
LC-009-005-----0
  6
CONTINUOUS
  5
222
 10
164.38605
 20
458.825313
 30
0.0
 11
166.075328
 21
460.514591
 31
0.0
  0
LINE
  8
LC-009-005-----0
  6
CONTINUOUS
  5
223
 10
164.38605
 20
459.108156
 30
0.0
 11
165.801433
 21
460.523539
 31
0.0
  0
LINE
  8
LC-009-005-----0
  6
CONTINUOUS
  5
224
 10
164.38605
 20
459.390999
 30
0.0
 11
165.527538
 21
460.532487
 31
0.0
  0
LINE
  8
LC-009-005-----0
  6
CONTINUOUS
  5
225
 10
164.38605
 20
459.673841
 30
0.0
 11
165.253643
 21
460.541434
 31
0.0
  0
LINE
  8
LC-009-005-----0
  6
CONTINUOUS
  5
226
 10
164.38605
 20
459.956684
 30
0.0
 11
164.979748
 21
460.550382
 31
0.0
  0
LINE
  8
LC-009-005-----0
  6
CONTINUOUS
  5
227
 10
164.38605
 20
460.239527
 30
0.0
 11
164.705853
 21
460.55933
 31
0.0
  0
LINE
  8
LC-009-005-----0
  6
CONTINUOUS
  5
228
 10
164.38605
 20
460.522369
 30
0.0
 11
164.431958
 21
460.568278
 31
0.0
  0
ENDBLK
  8
0
  5
229
  0
BLOCK
  8
0
  5
22B
  2
BLK4
 70
    64
 10
0.0
 20
0.0
 30
0.0
  3
BLK4
  0
ENDBLK
  8
0
  5
22C
  0
BLOCK
  8
0
  5
22E
  2
*X21
 70
    65
 10
191.951203
 20
453.964001
 30
0.0
  3
*X21
  0
LINE
  8
LC-009-005-----0
  6
CONTINUOUS
  5
22F
 10
219.457394
 20
454.216845
 30
0.0
 11
220.083677
 21
454.843128
 31
0.0
  0
LINE
  8
LC-009-005-----0
  6
CONTINUOUS
  5
230
 10
217.990311
 20
454.163976
 30
0.0
 11
218.690308
 21
454.863973
 31
0.0
  0
LINE
  8
LC-009-005-----0
  6
CONTINUOUS
  5
231
 10
219.262561
 20
455.436226
 30
0.0
 11
219.766745
 21
455.94041
 31
0.0
  0
LINE
  8
LC-009-005-----0
  6
CONTINUOUS
  5
232
 10
217.876089
 20
455.463968
 30
0.0
 11
218.576094
 21
456.163972
 31
0.0
  0
LINE
  8
LC-009-005-----0
  6
CONTINUOUS
  5
233
 10
216.461867
 20
455.463959
 30
0.0
 11
217.161871
 21
456.163963
 31
0.0
  0
LINE
  8
LC-009-005-----0
  6
CONTINUOUS
  5
234
 10
215.047645
 20
455.46395
 30
0.0
 11
215.747649
 21
456.163954
 31
0.0
  0
LINE
  8
LC-009-005-----0
  6
CONTINUOUS
  5
235
 10
213.792164
 20
455.622683
 30
0.0
 11
214.333426
 21
456.163946
 31
0.0
  0
LINE
  8
LC-009-005-----0
  6
CONTINUOUS
  5
236
 10
213.17169
 20
456.416423
 30
0.0
 11
213.670855
 21
456.915588
 31
0.0
  0
LINE
  8
LC-009-005-----0
  6
CONTINUOUS
  5
237
 10
211.804984
 20
456.46393
 30
0.0
 11
212.504988
 21
457.163934
 31
0.0
  0
LINE
  8
LC-009-005-----0
  6
CONTINUOUS
  5
238
 10
210.886054
 20
456.959214
 30
0.0
 11
211.090766
 21
457.163925
 31
0.0
  0
LINE
  8
LC-009-005-----0
  6
CONTINUOUS
  5
239
 10
203.319649
 20
456.463877
 30
0.0
 11
203.386054
 21
456.530282
 31
0.0
  0
LINE
  8
LC-009-005-----0
  6
CONTINUOUS
  5
23A
 10
199.421624
 20
453.980066
 30
0.0
 11
202.605431
 21
457.163872
 31
0.0
  0
LINE
  8
LC-009-005-----0
  6
CONTINUOUS
  5
23B
 10
197.991355
 20
453.964009
 30
0.0
 11
198.691356
 21
454.664011
 31
0.0
  0
LINE
  8
LC-009-005-----0
  6
CONTINUOUS
  5
23C
 10
196.577138
 20
453.964006
 30
0.0
 11
197.277139
 21
454.664008
 31
0.0
  0
LINE
  8
LC-009-005-----0
  6
CONTINUOUS
  5
23D
 10
195.162921
 20
453.964003
 30
0.0
 11
195.862923
 21
454.664005
 31
0.0
  0
LINE
  8
LC-009-005-----0
  6
CONTINUOUS
  5
23E
 10
193.928432
 20
454.143728
 30
0.0
 11
194.494734
 21
454.710029
 31
0.0
  0
LINE
  8
LC-009-005-----0
  6
CONTINUOUS
  5
23F
 10
193.030202
 20
454.659711
 30
0.0
 11
193.52991
 21
455.159419
 31
0.0
  0
LINE
  8
LC-009-005-----0
  6
CONTINUOUS
  5
240
 10
192.377999
 20
455.421722
 30
0.0
 11
192.898863
 21
455.942586
 31
0.0
  0
ENDBLK
  8
0
  5
241
  0
BLOCK
  8
0
  5
243
  2
BLK5
 70
    64
 10
0.0
 20
0.0
 30
0.0
  3
BLK5
  0
ENDBLK
  8
0
  5
244
  0
BLOCK
  8
0
  5
246
  2
*X23
 70
    65
 10
474.887028
 20
457.616864
 30
0.0
  3
*X23
  0
LINE
  8
LC-009-005-----0
  6
CONTINUOUS
  5
247
 10
477.133011
 20
457.616864
 30
0.0
 11
477.136539
 21
457.620392
 31
0.0
  0
LINE
  8
LC-009-005-----0
  6
CONTINUOUS
  5
248
 10
476.850168
 20
457.616864
 30
0.0
 11
477.136539
 21
457.903235
 31
0.0
  0
LINE
  8
LC-009-005-----0
  6
CONTINUOUS
  5
249
 10
476.567325
 20
457.616864
 30
0.0
 11
477.136539
 21
458.186077
 31
0.0
  0
LINE
  8
LC-009-005-----0
  6
CONTINUOUS
  5
24A
 10
476.284483
 20
457.616864
 30
0.0
 11
477.136539
 21
458.46892
 31
0.0
  0
LINE
  8
LC-009-005-----0
  6
CONTINUOUS
  5
24B
 10
476.00164
 20
457.616864
 30
0.0
 11
477.136539
 21
458.751763
 31
0.0
  0
LINE
  8
LC-009-005-----0
  6
CONTINUOUS
  5
24C
 10
475.718797
 20
457.616864
 30
0.0
 11
477.136539
 21
459.034605
 31
0.0
  0
LINE
  8
LC-009-005-----0
  6
CONTINUOUS
  5
24D
 10
475.435954
 20
457.616864
 30
0.0
 11
477.136539
 21
459.317448
 31
0.0
  0
LINE
  8
LC-009-005-----0
  6
CONTINUOUS
  5
24E
 10
475.153112
 20
457.616864
 30
0.0
 11
477.136539
 21
459.600291
 31
0.0
  0
LINE
  8
LC-009-005-----0
  6
CONTINUOUS
  5
24F
 10
474.887028
 20
457.633623
 30
0.0
 11
477.136539
 21
459.883133
 31
0.0
  0
LINE
  8
LC-009-005-----0
  6
CONTINUOUS
  5
250
 10
474.887028
 20
457.916466
 30
0.0
 11
477.136539
 21
460.165976
 31
0.0
  0
LINE
  8
LC-009-005-----0
  6
CONTINUOUS
  5
251
 10
474.887028
 20
458.199308
 30
0.0
 11
477.136539
 21
460.448819
 31
0.0
  0
LINE
  8
LC-009-005-----0
  6
CONTINUOUS
  5
252
 10
474.887028
 20
458.482151
 30
0.0
 11
477.021741
 21
460.616864
 31
0.0
  0
LINE
  8
LC-009-005-----0
  6
CONTINUOUS
  5
253
 10
474.887028
 20
458.764994
 30
0.0
 11
476.738898
 21
460.616864
 31
0.0
  0
LINE
  8
LC-009-005-----0
  6
CONTINUOUS
  5
254
 10
474.887028
 20
459.047836
 30
0.0
 11
476.456055
 21
460.616864
 31
0.0
  0
LINE
  8
LC-009-005-----0
  6
CONTINUOUS
  5
255
 10
474.887028
 20
459.330679
 30
0.0
 11
476.173213
 21
460.616864
 31
0.0
  0
LINE
  8
LC-009-005-----0
  6
CONTINUOUS
  5
256
 10
474.887028
 20
459.613522
 30
0.0
 11
475.89037
 21
460.616864
 31
0.0
  0
LINE
  8
LC-009-005-----0
  6
CONTINUOUS
  5
257
 10
474.887028
 20
459.896365
 30
0.0
 11
475.607527
 21
460.616864
 31
0.0
  0
LINE
  8
LC-009-005-----0
  6
CONTINUOUS
  5
258
 10
474.887028
 20
460.179207
 30
0.0
 11
475.324685
 21
460.616864
 31
0.0
  0
LINE
  8
LC-009-005-----0
  6
CONTINUOUS
  5
259
 10
474.887028
 20
460.46205
 30
0.0
 11
475.041842
 21
460.616864
 31
0.0
  0
ENDBLK
  8
0
  5
25A
  0
BLOCK
  8
0
  5
25C
  2
*X24
 70
    65
 10
464.887028
 20
457.616864
 30
0.0
  3
*X24
  0
LINE
  8
LC-009-005-----0
  6
CONTINUOUS
  5
25D
 10
469.7791
 20
457.616864
 30
0.0
 11
469.887028
 21
457.724792
 31
0.0
  0
LINE
  8
LC-009-005-----0
  6
CONTINUOUS
  5
25E
 10
469.496257
 20
457.616864
 30
0.0
 11
469.887028
 21
458.007634
 31
0.0
  0
LINE
  8
LC-009-005-----0
  6
CONTINUOUS
  5
25F
 10
469.213415
 20
457.616864
 30
0.0
 11
469.887028
 21
458.290477
 31
0.0
  0
LINE
  8
LC-009-005-----0
  6
CONTINUOUS
  5
260
 10
468.930572
 20
457.616864
 30
0.0
 11
469.887028
 21
458.57332
 31
0.0
  0
LINE
  8
LC-009-005-----0
  6
CONTINUOUS
  5
261
 10
468.647729
 20
457.616864
 30
0.0
 11
469.887028
 21
458.856163
 31
0.0
  0
LINE
  8
LC-009-005-----0
  6
CONTINUOUS
  5
262
 10
468.364887
 20
457.616864
 30
0.0
 11
469.887028
 21
459.139005
 31
0.0
  0
LINE
  8
LC-009-005-----0
  6
CONTINUOUS
  5
263
 10
468.082044
 20
457.616864
 30
0.0
 11
469.887028
 21
459.421848
 31
0.0
  0
LINE
  8
LC-009-005-----0
  6
CONTINUOUS
  5
264
 10
467.799201
 20
457.616864
 30
0.0
 11
469.887028
 21
459.704691
 31
0.0
  0
LINE
  8
LC-009-005-----0
  6
CONTINUOUS
  5
265
 10
467.516359
 20
457.616864
 30
0.0
 11
469.887028
 21
459.987533
 31
0.0
  0
LINE
  8
LC-009-005-----0
  6
CONTINUOUS
  5
266
 10
467.233516
 20
457.616864
 30
0.0
 11
469.887028
 21
460.270376
 31
0.0
  0
LINE
  8
LC-009-005-----0
  6
CONTINUOUS
  5
267
 10
466.950673
 20
457.616864
 30
0.0
 11
469.887028
 21
460.553219
 31
0.0
  0
LINE
  8
LC-009-005-----0
  6
CONTINUOUS
  5
268
 10
466.66783
 20
457.616864
 30
0.0
 11
469.66783
 21
460.616864
 31
0.0
  0
LINE
  8
LC-009-005-----0
  6
CONTINUOUS
  5
269
 10
466.384988
 20
457.616864
 30
0.0
 11
469.384988
 21
460.616864
 31
0.0
  0
LINE
  8
LC-009-005-----0
  6
CONTINUOUS
  5
26A
 10
466.102145
 20
457.616864
 30
0.0
 11
469.102145
 21
460.616864
 31
0.0
  0
LINE
  8
LC-009-005-----0
  6
CONTINUOUS
  5
26B
 10
465.819302
 20
457.616864
 30
0.0
 11
468.819302
 21
460.616864
 31
0.0
  0
LINE
  8
LC-009-005-----0
  6
CONTINUOUS
  5
26C
 10
465.53646
 20
457.616864
 30
0.0
 11
468.53646
 21
460.616864
 31
0.0
  0
LINE
  8
LC-009-005-----0
  6
CONTINUOUS
  5
26D
 10
465.253617
 20
457.616864
 30
0.0
 11
468.253617
 21
460.616864
 31
0.0
  0
LINE
  8
LC-009-005-----0
  6
CONTINUOUS
  5
26E
 10
464.970774
 20
457.616864
 30
0.0
 11
467.970774
 21
460.616864
 31
0.0
  0
LINE
  8
LC-009-005-----0
  6
CONTINUOUS
  5
26F
 10
464.887028
 20
457.815961
 30
0.0
 11
467.687931
 21
460.616864
 31
0.0
  0
LINE
  8
LC-009-005-----0
  6
CONTINUOUS
  5
270
 10
464.887028
 20
458.098803
 30
0.0
 11
467.405089
 21
460.616864
 31
0.0
  0
LINE
  8
LC-009-005-----0
  6
CONTINUOUS
  5
271
 10
464.887028
 20
458.381646
 30
0.0
 11
467.122246
 21
460.616864
 31
0.0
  0
LINE
  8
LC-009-005-----0
  6
CONTINUOUS
  5
272
 10
464.887028
 20
458.664489
 30
0.0
 11
466.839403
 21
460.616864
 31
0.0
  0
LINE
  8
LC-009-005-----0
  6
CONTINUOUS
  5
273
 10
464.887028
 20
458.947331
 30
0.0
 11
466.556561
 21
460.616864
 31
0.0
  0
LINE
  8
LC-009-005-----0
  6
CONTINUOUS
  5
274
 10
464.887028
 20
459.230174
 30
0.0
 11
466.273718
 21
460.616864
 31
0.0
  0
LINE
  8
LC-009-005-----0
  6
CONTINUOUS
  5
275
 10
464.887028
 20
459.513017
 30
0.0
 11
465.990875
 21
460.616864
 31
0.0
  0
LINE
  8
LC-009-005-----0
  6
CONTINUOUS
  5
276
 10
464.887028
 20
459.79586
 30
0.0
 11
465.708032
 21
460.616864
 31
0.0
  0
LINE
  8
LC-009-005-----0
  6
CONTINUOUS
  5
277
 10
464.887028
 20
460.078702
 30
0.0
 11
465.42519
 21
460.616864
 31
0.0
  0
LINE
  8
LC-009-005-----0
  6
CONTINUOUS
  5
278
 10
464.887028
 20
460.361545
 30
0.0
 11
465.142347
 21
460.616864
 31
0.0
  0
ENDBLK
  8
0
  5
279
  0
BLOCK
  8
0
  5
27B
  2
*X25
 70
    65
 10
454.887028
 20
457.616864
 30
0.0
  3
*X25
  0
LINE
  8
LC-009-005-----0
  6
CONTINUOUS
  5
27C
 10
459.879605
 20
457.616864
 30
0.0
 11
459.887028
 21
457.624287
 31
0.0
  0
LINE
  8
LC-009-005-----0
  6
CONTINUOUS
  5
27D
 10
459.596763
 20
457.616864
 30
0.0
 11
459.887028
 21
457.907129
 31
0.0
  0
LINE
  8
LC-009-005-----0
  6
CONTINUOUS
  5
27E
 10
459.31392
 20
457.616864
 30
0.0
 11
459.887028
 21
458.189972
 31
0.0
  0
LINE
  8
LC-009-005-----0
  6
CONTINUOUS
  5
27F
 10
459.031077
 20
457.616864
 30
0.0
 11
459.887028
 21
458.472815
 31
0.0
  0
LINE
  8
LC-009-005-----0
  6
CONTINUOUS
  5
280
 10
458.748234
 20
457.616864
 30
0.0
 11
459.887028
 21
458.755658
 31
0.0
  0
LINE
  8
LC-009-005-----0
  6
CONTINUOUS
  5
281
 10
458.465392
 20
457.616864
 30
0.0
 11
459.887028
 21
459.0385
 31
0.0
  0
LINE
  8
LC-009-005-----0
  6
CONTINUOUS
  5
282
 10
458.182549
 20
457.616864
 30
0.0
 11
459.887028
 21
459.321343
 31
0.0
  0
LINE
  8
LC-009-005-----0
  6
CONTINUOUS
  5
283
 10
457.899706
 20
457.616864
 30
0.0
 11
459.887028
 21
459.604186
 31
0.0
  0
LINE
  8
LC-009-005-----0
  6
CONTINUOUS
  5
284
 10
457.616864
 20
457.616864
 30
0.0
 11
459.887028
 21
459.887028
 31
0.0
  0
LINE
  8
LC-009-005-----0
  6
CONTINUOUS
  5
285
 10
457.334021
 20
457.616864
 30
0.0
 11
459.887028
 21
460.169871
 31
0.0
  0
LINE
  8
LC-009-005-----0
  6
CONTINUOUS
  5
286
 10
457.051178
 20
457.616864
 30
0.0
 11
459.887028
 21
460.452714
 31
0.0
  0
LINE
  8
LC-009-005-----0
  6
CONTINUOUS
  5
287
 10
456.768335
 20
457.616864
 30
0.0
 11
459.768335
 21
460.616864
 31
0.0
  0
LINE
  8
LC-009-005-----0
  6
CONTINUOUS
  5
288
 10
456.485493
 20
457.616864
 30
0.0
 11
459.485493
 21
460.616864
 31
0.0
  0
LINE
  8
LC-009-005-----0
  6
CONTINUOUS
  5
289
 10
456.20265
 20
457.616864
 30
0.0
 11
459.20265
 21
460.616864
 31
0.0
  0
LINE
  8
LC-009-005-----0
  6
CONTINUOUS
  5
28A
 10
455.919807
 20
457.616864
 30
0.0
 11
458.919807
 21
460.616864
 31
0.0
  0
LINE
  8
LC-009-005-----0
  6
CONTINUOUS
  5
28B
 10
455.636965
 20
457.616864
 30
0.0
 11
458.636965
 21
460.616864
 31
0.0
  0
LINE
  8
LC-009-005-----0
  6
CONTINUOUS
  5
28C
 10
455.354122
 20
457.616864
 30
0.0
 11
458.354122
 21
460.616864
 31
0.0
  0
LINE
  8
LC-009-005-----0
  6
CONTINUOUS
  5
28D
 10
455.071279
 20
457.616864
 30
0.0
 11
458.071279
 21
460.616864
 31
0.0
  0
LINE
  8
LC-009-005-----0
  6
CONTINUOUS
  5
28E
 10
454.887028
 20
457.715456
 30
0.0
 11
457.788436
 21
460.616864
 31
0.0
  0
LINE
  8
LC-009-005-----0
  6
CONTINUOUS
  5
28F
 10
454.887028
 20
457.998298
 30
0.0
 11
457.505594
 21
460.616864
 31
0.0
  0
LINE
  8
LC-009-005-----0
  6
CONTINUOUS
  5
290
 10
454.887028
 20
458.281141
 30
0.0
 11
457.222751
 21
460.616864
 31
0.0
  0
LINE
  8
LC-009-005-----0
  6
CONTINUOUS
  5
291
 10
454.887028
 20
458.563984
 30
0.0
 11
456.939908
 21
460.616864
 31
0.0
  0
LINE
  8
LC-009-005-----0
  6
CONTINUOUS
  5
292
 10
454.887028
 20
458.846826
 30
0.0
 11
456.657066
 21
460.616864
 31
0.0
  0
LINE
  8
LC-009-005-----0
  6
CONTINUOUS
  5
293
 10
454.887028
 20
459.129669
 30
0.0
 11
456.374223
 21
460.616864
 31
0.0
  0
LINE
  8
LC-009-005-----0
  6
CONTINUOUS
  5
294
 10
454.887028
 20
459.412512
 30
0.0
 11
456.09138
 21
460.616864
 31
0.0
  0
LINE
  8
LC-009-005-----0
  6
CONTINUOUS
  5
295
 10
454.887028
 20
459.695354
 30
0.0
 11
455.808537
 21
460.616864
 31
0.0
  0
LINE
  8
LC-009-005-----0
  6
CONTINUOUS
  5
296
 10
454.887028
 20
459.978197
 30
0.0
 11
455.525695
 21
460.616864
 31
0.0
  0
LINE
  8
LC-009-005-----0
  6
CONTINUOUS
  5
297
 10
454.887028
 20
460.26104
 30
0.0
 11
455.242852
 21
460.616864
 31
0.0
  0
LINE
  8
LC-009-005-----0
  6
CONTINUOUS
  5
298
 10
454.887028
 20
460.543883
 30
0.0
 11
454.960009
 21
460.616864
 31
0.0
  0
ENDBLK
  8
0
  5
299
  0
BLOCK
  8
0
  5
29B
  2
*X26
 70
    65
 10
444.887028
 20
457.616864
 30
0.0
  3
*X26
  0
LINE
  8
LC-009-005-----0
  6
CONTINUOUS
  5
29C
 10
449.697268
 20
457.616864
 30
0.0
 11
449.887028
 21
457.806624
 31
0.0
  0
LINE
  8
LC-009-005-----0
  6
CONTINUOUS
  5
29D
 10
449.414425
 20
457.616864
 30
0.0
 11
449.887028
 21
458.089467
 31
0.0
  0
LINE
  8
LC-009-005-----0
  6
CONTINUOUS
  5
29E
 10
449.131582
 20
457.616864
 30
0.0
 11
449.887028
 21
458.37231
 31
0.0
  0
LINE
  8
LC-009-005-----0
  6
CONTINUOUS
  5
29F
 10
448.848739
 20
457.616864
 30
0.0
 11
449.887028
 21
458.655152
 31
0.0
  0
LINE
  8
LC-009-005-----0
  6
CONTINUOUS
  5
2A0
 10
448.565897
 20
457.616864
 30
0.0
 11
449.887028
 21
458.937995
 31
0.0
  0
LINE
  8
LC-009-005-----0
  6
CONTINUOUS
  5
2A1
 10
448.283054
 20
457.616864
 30
0.0
 11
449.887028
 21
459.220838
 31
0.0
  0
LINE
  8
LC-009-005-----0
  6
CONTINUOUS
  5
2A2
 10
448.000211
 20
457.616864
 30
0.0
 11
449.887028
 21
459.503681
 31
0.0
  0
LINE
  8
LC-009-005-----0
  6
CONTINUOUS
  5
2A3
 10
447.717369
 20
457.616864
 30
0.0
 11
449.887028
 21
459.786523
 31
0.0
  0
LINE
  8
LC-009-005-----0
  6
CONTINUOUS
  5
2A4
 10
447.434526
 20
457.616864
 30
0.0
 11
449.887028
 21
460.069366
 31
0.0
  0
LINE
  8
LC-009-005-----0
  6
CONTINUOUS
  5
2A5
 10
447.151683
 20
457.616864
 30
0.0
 11
449.887028
 21
460.352209
 31
0.0
  0
LINE
  8
LC-009-005-----0
  6
CONTINUOUS
  5
2A6
 10
446.86884
 20
457.616864
 30
0.0
 11
449.86884
 21
460.616864
 31
0.0
  0
LINE
  8
LC-009-005-----0
  6
CONTINUOUS
  5
2A7
 10
446.585998
 20
457.616864
 30
0.0
 11
449.585998
 21
460.616864
 31
0.0
  0
LINE
  8
LC-009-005-----0
  6
CONTINUOUS
  5
2A8
 10
446.303155
 20
457.616864
 30
0.0
 11
449.303155
 21
460.616864
 31
0.0
  0
LINE
  8
LC-009-005-----0
  6
CONTINUOUS
  5
2A9
 10
446.020312
 20
457.616864
 30
0.0
 11
449.020312
 21
460.616864
 31
0.0
  0
LINE
  8
LC-009-005-----0
  6
CONTINUOUS
  5
2AA
 10
445.73747
 20
457.616864
 30
0.0
 11
448.73747
 21
460.616864
 31
0.0
  0
LINE
  8
LC-009-005-----0
  6
CONTINUOUS
  5
2AB
 10
445.454627
 20
457.616864
 30
0.0
 11
448.454627
 21
460.616864
 31
0.0
  0
LINE
  8
LC-009-005-----0
  6
CONTINUOUS
  5
2AC
 10
445.171784
 20
457.616864
 30
0.0
 11
448.171784
 21
460.616864
 31
0.0
  0
LINE
  8
LC-009-005-----0
  6
CONTINUOUS
  5
2AD
 10
444.888942
 20
457.616864
 30
0.0
 11
447.888942
 21
460.616864
 31
0.0
  0
LINE
  8
LC-009-005-----0
  6
CONTINUOUS
  5
2AE
 10
444.887028
 20
457.897793
 30
0.0
 11
447.606099
 21
460.616864
 31
0.0
  0
LINE
  8
LC-009-005-----0
  6
CONTINUOUS
  5
2AF
 10
444.887028
 20
458.180636
 30
0.0
 11
447.323256
 21
460.616864
 31
0.0
  0
LINE
  8
LC-009-005-----0
  6
CONTINUOUS
  5
2B0
 10
444.887028
 20
458.463479
 30
0.0
 11
447.040413
 21
460.616864
 31
0.0
  0
LINE
  8
LC-009-005-----0
  6
CONTINUOUS
  5
2B1
 10
444.887028
 20
458.746321
 30
0.0
 11
446.757571
 21
460.616864
 31
0.0
  0
LINE
  8
LC-009-005-----0
  6
CONTINUOUS
  5
2B2
 10
444.887028
 20
459.029164
 30
0.0
 11
446.474728
 21
460.616864
 31
0.0
  0
LINE
  8
LC-009-005-----0
  6
CONTINUOUS
  5
2B3
 10
444.887028
 20
459.312007
 30
0.0
 11
446.191885
 21
460.616864
 31
0.0
  0
LINE
  8
LC-009-005-----0
  6
CONTINUOUS
  5
2B4
 10
444.887028
 20
459.594849
 30
0.0
 11
445.909043
 21
460.616864
 31
0.0
  0
LINE
  8
LC-009-005-----0
  6
CONTINUOUS
  5
2B5
 10
444.887028
 20
459.877692
 30
0.0
 11
445.6262
 21
460.616864
 31
0.0
  0
LINE
  8
LC-009-005-----0
  6
CONTINUOUS
  5
2B6
 10
444.887028
 20
460.160535
 30
0.0
 11
445.343357
 21
460.616864
 31
0.0
  0
LINE
  8
LC-009-005-----0
  6
CONTINUOUS
  5
2B7
 10
444.887028
 20
460.443378
 30
0.0
 11
445.060514
 21
460.616864
 31
0.0
  0
ENDBLK
  8
0
  5
2B8
  0
BLOCK
  8
0
  5
2BA
  2
*X27
 70
    65
 10
434.887028
 20
457.616864
 30
0.0
  3
*X27
  0
LINE
  8
LC-009-005-----0
  6
CONTINUOUS
  5
2BB
 10
439.797773
 20
457.616864
 30
0.0
 11
439.887028
 21
457.706119
 31
0.0
  0
LINE
  8
LC-009-005-----0
  6
CONTINUOUS
  5
2BC
 10
439.51493
 20
457.616864
 30
0.0
 11
439.887028
 21
457.988962
 31
0.0
  0
LINE
  8
LC-009-005-----0
  6
CONTINUOUS
  5
2BD
 10
439.232087
 20
457.616864
 30
0.0
 11
439.887028
 21
458.271805
 31
0.0
  0
LINE
  8
LC-009-005-----0
  6
CONTINUOUS
  5
2BE
 10
438.949245
 20
457.616864
 30
0.0
 11
439.887028
 21
458.554647
 31
0.0
  0
LINE
  8
LC-009-005-----0
  6
CONTINUOUS
  5
2BF
 10
438.666402
 20
457.616864
 30
0.0
 11
439.887028
 21
458.83749
 31
0.0
  0
LINE
  8
LC-009-005-----0
  6
CONTINUOUS
  5
2C0
 10
438.383559
 20
457.616864
 30
0.0
 11
439.887028
 21
459.120333
 31
0.0
  0
LINE
  8
LC-009-005-----0
  6
CONTINUOUS
  5
2C1
 10
438.100716
 20
457.616864
 30
0.0
 11
439.887028
 21
459.403176
 31
0.0
  0
LINE
  8
LC-009-005-----0
  6
CONTINUOUS
  5
2C2
 10
437.817874
 20
457.616864
 30
0.0
 11
439.887028
 21
459.686018
 31
0.0
  0
LINE
  8
LC-009-005-----0
  6
CONTINUOUS
  5
2C3
 10
437.535031
 20
457.616864
 30
0.0
 11
439.887028
 21
459.968861
 31
0.0
  0
LINE
  8
LC-009-005-----0
  6
CONTINUOUS
  5
2C4
 10
437.252188
 20
457.616864
 30
0.0
 11
439.887028
 21
460.251704
 31
0.0
  0
LINE
  8
LC-009-005-----0
  6
CONTINUOUS
  5
2C5
 10
436.969346
 20
457.616864
 30
0.0
 11
439.887028
 21
460.534546
 31
0.0
  0
LINE
  8
LC-009-005-----0
  6
CONTINUOUS
  5
2C6
 10
436.686503
 20
457.616864
 30
0.0
 11
439.686503
 21
460.616864
 31
0.0
  0
LINE
  8
LC-009-005-----0
  6
CONTINUOUS
  5
2C7
 10
436.40366
 20
457.616864
 30
0.0
 11
439.40366
 21
460.616864
 31
0.0
  0
LINE
  8
LC-009-005-----0
  6
CONTINUOUS
  5
2C8
 10
436.120817
 20
457.616864
 30
0.0
 11
439.120817
 21
460.616864
 31
0.0
  0
LINE
  8
LC-009-005-----0
  6
CONTINUOUS
  5
2C9
 10
435.837975
 20
457.616864
 30
0.0
 11
438.837975
 21
460.616864
 31
0.0
  0
LINE
  8
LC-009-005-----0
  6
CONTINUOUS
  5
2CA
 10
435.555132
 20
457.616864
 30
0.0
 11
438.555132
 21
460.616864
 31
0.0
  0
LINE
  8
LC-009-005-----0
  6
CONTINUOUS
  5
2CB
 10
435.272289
 20
457.616864
 30
0.0
 11
438.272289
 21
460.616864
 31
0.0
  0
LINE
  8
LC-009-005-----0
  6
CONTINUOUS
  5
2CC
 10
434.989447
 20
457.616864
 30
0.0
 11
437.989447
 21
460.616864
 31
0.0
  0
LINE
  8
LC-009-005-----0
  6
CONTINUOUS
  5
2CD
 10
434.887028
 20
457.797288
 30
0.0
 11
437.706604
 21
460.616864
 31
0.0
  0
LINE
  8
LC-009-005-----0
  6
CONTINUOUS
  5
2CE
 10
434.887028
 20
458.080131
 30
0.0
 11
437.423761
 21
460.616864
 31
0.0
  0
LINE
  8
LC-009-005-----0
  6
CONTINUOUS
  5
2CF
 10
434.887028
 20
458.362974
 30
0.0
 11
437.140918
 21
460.616864
 31
0.0
  0
LINE
  8
LC-009-005-----0
  6
CONTINUOUS
  5
2D0
 10
434.887028
 20
458.645816
 30
0.0
 11
436.858076
 21
460.616864
 31
0.0
  0
LINE
  8
LC-009-005-----0
  6
CONTINUOUS
  5
2D1
 10
434.887028
 20
458.928659
 30
0.0
 11
436.575233
 21
460.616864
 31
0.0
  0
LINE
  8
LC-009-005-----0
  6
CONTINUOUS
  5
2D2
 10
434.887028
 20
459.211502
 30
0.0
 11
436.29239
 21
460.616864
 31
0.0
  0
LINE
  8
LC-009-005-----0
  6
CONTINUOUS
  5
2D3
 10
434.887028
 20
459.494344
 30
0.0
 11
436.009548
 21
460.616864
 31
0.0
  0
LINE
  8
LC-009-005-----0
  6
CONTINUOUS
  5
2D4
 10
434.887028
 20
459.777187
 30
0.0
 11
435.726705
 21
460.616864
 31
0.0
  0
LINE
  8
LC-009-005-----0
  6
CONTINUOUS
  5
2D5
 10
434.887028
 20
460.06003
 30
0.0
 11
435.443862
 21
460.616864
 31
0.0
  0
LINE
  8
LC-009-005-----0
  6
CONTINUOUS
  5
2D6
 10
434.887028
 20
460.342872
 30
0.0
 11
435.161019
 21
460.616864
 31
0.0
  0
ENDBLK
  8
0
  5
2D7
  0
BLOCK
  8
0
  5
2D9
  2
*X28
 70
    65
 10
424.887028
 20
457.616864
 30
0.0
  3
*X28
  0
LINE
  8
LC-009-005-----0
  6
CONTINUOUS
  5
2DA
 10
429.615435
 20
457.616864
 30
0.0
 11
429.887028
 21
457.888457
 31
0.0
  0
LINE
  8
LC-009-005-----0
  6
CONTINUOUS
  5
2DB
 10
429.332592
 20
457.616864
 30
0.0
 11
429.887028
 21
458.1713
 31
0.0
  0
LINE
  8
LC-009-005-----0
  6
CONTINUOUS
  5
2DC
 10
429.04975
 20
457.616864
 30
0.0
 11
429.887028
 21
458.454142
 31
0.0
  0
LINE
  8
LC-009-005-----0
  6
CONTINUOUS
  5
2DD
 10
428.766907
 20
457.616864
 30
0.0
 11
429.887028
 21
458.736985
 31
0.0
  0
LINE
  8
LC-009-005-----0
  6
CONTINUOUS
  5
2DE
 10
428.484064
 20
457.616864
 30
0.0
 11
429.887028
 21
459.019828
 31
0.0
  0
LINE
  8
LC-009-005-----0
  6
CONTINUOUS
  5
2DF
 10
428.201221
 20
457.616864
 30
0.0
 11
429.887028
 21
459.30267
 31
0.0
  0
LINE
  8
LC-009-005-----0
  6
CONTINUOUS
  5
2E0
 10
427.918379
 20
457.616864
 30
0.0
 11
429.887028
 21
459.585513
 31
0.0
  0
LINE
  8
LC-009-005-----0
  6
CONTINUOUS
  5
2E1
 10
427.635536
 20
457.616864
 30
0.0
 11
429.887028
 21
459.868356
 31
0.0
  0
LINE
  8
LC-009-005-----0
  6
CONTINUOUS
  5
2E2
 10
427.352693
 20
457.616864
 30
0.0
 11
429.887028
 21
460.151199
 31
0.0
  0
LINE
  8
LC-009-005-----0
  6
CONTINUOUS
  5
2E3
 10
427.069851
 20
457.616864
 30
0.0
 11
429.887028
 21
460.434041
 31
0.0
  0
LINE
  8
LC-009-005-----0
  6
CONTINUOUS
  5
2E4
 10
426.787008
 20
457.616864
 30
0.0
 11
429.787008
 21
460.616864
 31
0.0
  0
LINE
  8
LC-009-005-----0
  6
CONTINUOUS
  5
2E5
 10
426.504165
 20
457.616864
 30
0.0
 11
429.504165
 21
460.616864
 31
0.0
  0
LINE
  8
LC-009-005-----0
  6
CONTINUOUS
  5
2E6
 10
426.221322
 20
457.616864
 30
0.0
 11
429.221322
 21
460.616864
 31
0.0
  0
LINE
  8
LC-009-005-----0
  6
CONTINUOUS
  5
2E7
 10
425.93848
 20
457.616864
 30
0.0
 11
428.93848
 21
460.616864
 31
0.0
  0
LINE
  8
LC-009-005-----0
  6
CONTINUOUS
  5
2E8
 10
425.655637
 20
457.616864
 30
0.0
 11
428.655637
 21
460.616864
 31
0.0
  0
LINE
  8
LC-009-005-----0
  6
CONTINUOUS
  5
2E9
 10
425.372794
 20
457.616864
 30
0.0
 11
428.372794
 21
460.616864
 31
0.0
  0
LINE
  8
LC-009-005-----0
  6
CONTINUOUS
  5
2EA
 10
425.089952
 20
457.616864
 30
0.0
 11
428.089952
 21
460.616864
 31
0.0
  0
LINE
  8
LC-009-005-----0
  6
CONTINUOUS
  5
2EB
 10
424.887028
 20
457.696783
 30
0.0
 11
427.807109
 21
460.616864
 31
0.0
  0
LINE
  8
LC-009-005-----0
  6
CONTINUOUS
  5
2EC
 10
424.887028
 20
457.979626
 30
0.0
 11
427.524266
 21
460.616864
 31
0.0
  0
LINE
  8
LC-009-005-----0
  6
CONTINUOUS
  5
2ED
 10
424.887028
 20
458.262468
 30
0.0
 11
427.241423
 21
460.616864
 31
0.0
  0
LINE
  8
LC-009-005-----0
  6
CONTINUOUS
  5
2EE
 10
424.887028
 20
458.545311
 30
0.0
 11
426.958581
 21
460.616864
 31
0.0
  0
LINE
  8
LC-009-005-----0
  6
CONTINUOUS
  5
2EF
 10
424.887028
 20
458.828154
 30
0.0
 11
426.675738
 21
460.616864
 31
0.0
  0
LINE
  8
LC-009-005-----0
  6
CONTINUOUS
  5
2F0
 10
424.887028
 20
459.110997
 30
0.0
 11
426.392895
 21
460.616864
 31
0.0
  0
LINE
  8
LC-009-005-----0
  6
CONTINUOUS
  5
2F1
 10
424.887028
 20
459.393839
 30
0.0
 11
426.110053
 21
460.616864
 31
0.0
  0
LINE
  8
LC-009-005-----0
  6
CONTINUOUS
  5
2F2
 10
424.887028
 20
459.676682
 30
0.0
 11
425.82721
 21
460.616864
 31
0.0
  0
LINE
  8
LC-009-005-----0
  6
CONTINUOUS
  5
2F3
 10
424.887028
 20
459.959525
 30
0.0
 11
425.544367
 21
460.616864
 31
0.0
  0
LINE
  8
LC-009-005-----0
  6
CONTINUOUS
  5
2F4
 10
424.887028
 20
460.242367
 30
0.0
 11
425.261525
 21
460.616864
 31
0.0
  0
LINE
  8
LC-009-005-----0
  6
CONTINUOUS
  5
2F5
 10
424.887028
 20
460.52521
 30
0.0
 11
424.978682
 21
460.616864
 31
0.0
  0
ENDBLK
  8
0
  5
2F6
  0
BLOCK
  8
0
  5
2F8
  2
*X29
 70
    65
 10
414.887028
 20
457.616864
 30
0.0
  3
*X29
  0
LINE
  8
LC-009-005-----0
  6
CONTINUOUS
  5
2F9
 10
419.71594
 20
457.616864
 30
0.0
 11
419.887028
 21
457.787952
 31
0.0
  0
LINE
  8
LC-009-005-----0
  6
CONTINUOUS
  5
2FA
 10
419.433097
 20
457.616864
 30
0.0
 11
419.887028
 21
458.070795
 31
0.0
  0
LINE
  8
LC-009-005-----0
  6
CONTINUOUS
  5
2FB
 10
419.150255
 20
457.616864
 30
0.0
 11
419.887028
 21
458.353637
 31
0.0
  0
LINE
  8
LC-009-005-----0
  6
CONTINUOUS
  5
2FC
 10
418.867412
 20
457.616864
 30
0.0
 11
419.887028
 21
458.63648
 31
0.0
  0
LINE
  8
LC-009-005-----0
  6
CONTINUOUS
  5
2FD
 10
418.584569
 20
457.616864
 30
0.0
 11
419.887028
 21
458.919323
 31
0.0
  0
LINE
  8
LC-009-005-----0
  6
CONTINUOUS
  5
2FE
 10
418.301727
 20
457.616864
 30
0.0
 11
419.887028
 21
459.202165
 31
0.0
  0
LINE
  8
LC-009-005-----0
  6
CONTINUOUS
  5
2FF
 10
418.018884
 20
457.616864
 30
0.0
 11
419.887028
 21
459.485008
 31
0.0
  0
LINE
  8
LC-009-005-----0
  6
CONTINUOUS
  5
300
 10
417.736041
 20
457.616864
 30
0.0
 11
419.887028
 21
459.767851
 31
0.0
  0
LINE
  8
LC-009-005-----0
  6
CONTINUOUS
  5
301
 10
417.453198
 20
457.616864
 30
0.0
 11
419.887028
 21
460.050694
 31
0.0
  0
LINE
  8
LC-009-005-----0
  6
CONTINUOUS
  5
302
 10
417.170356
 20
457.616864
 30
0.0
 11
419.887028
 21
460.333536
 31
0.0
  0
LINE
  8
LC-009-005-----0
  6
CONTINUOUS
  5
303
 10
416.887513
 20
457.616864
 30
0.0
 11
419.887028
 21
460.616379
 31
0.0
  0
LINE
  8
LC-009-005-----0
  6
CONTINUOUS
  5
304
 10
416.60467
 20
457.616864
 30
0.0
 11
419.60467
 21
460.616864
 31
0.0
  0
LINE
  8
LC-009-005-----0
  6
CONTINUOUS
  5
305
 10
416.321828
 20
457.616864
 30
0.0
 11
419.321828
 21
460.616864
 31
0.0
  0
LINE
  8
LC-009-005-----0
  6
CONTINUOUS
  5
306
 10
416.038985
 20
457.616864
 30
0.0
 11
419.038985
 21
460.616864
 31
0.0
  0
LINE
  8
LC-009-005-----0
  6
CONTINUOUS
  5
307
 10
415.756142
 20
457.616864
 30
0.0
 11
418.756142
 21
460.616864
 31
0.0
  0
LINE
  8
LC-009-005-----0
  6
CONTINUOUS
  5
308
 10
415.473299
 20
457.616864
 30
0.0
 11
418.473299
 21
460.616864
 31
0.0
  0
LINE
  8
LC-009-005-----0
  6
CONTINUOUS
  5
309
 10
415.190457
 20
457.616864
 30
0.0
 11
418.190457
 21
460.616864
 31
0.0
  0
LINE
  8
LC-009-005-----0
  6
CONTINUOUS
  5
30A
 10
414.907614
 20
457.616864
 30
0.0
 11
417.907614
 21
460.616864
 31
0.0
  0
LINE
  8
LC-009-005-----0
  6
CONTINUOUS
  5
30B
 10
414.887028
 20
457.879121
 30
0.0
 11
417.624771
 21
460.616864
 31
0.0
  0
LINE
  8
LC-009-005-----0
  6
CONTINUOUS
  5
30C
 10
414.887028
 20
458.161963
 30
0.0
 11
417.341929
 21
460.616864
 31
0.0
  0
LINE
  8
LC-009-005-----0
  6
CONTINUOUS
  5
30D
 10
414.887028
 20
458.444806
 30
0.0
 11
417.059086
 21
460.616864
 31
0.0
  0
LINE
  8
LC-009-005-----0
  6
CONTINUOUS
  5
30E
 10
414.887028
 20
458.727649
 30
0.0
 11
416.776243
 21
460.616864
 31
0.0
  0
LINE
  8
LC-009-005-----0
  6
CONTINUOUS
  5
30F
 10
414.887028
 20
459.010492
 30
0.0
 11
416.4934
 21
460.616864
 31
0.0
  0
LINE
  8
LC-009-005-----0
  6
CONTINUOUS
  5
310
 10
414.887028
 20
459.293334
 30
0.0
 11
416.210558
 21
460.616864
 31
0.0
  0
LINE
  8
LC-009-005-----0
  6
CONTINUOUS
  5
311
 10
414.887028
 20
459.576177
 30
0.0
 11
415.927715
 21
460.616864
 31
0.0
  0
LINE
  8
LC-009-005-----0
  6
CONTINUOUS
  5
312
 10
414.887028
 20
459.85902
 30
0.0
 11
415.644872
 21
460.616864
 31
0.0
  0
LINE
  8
LC-009-005-----0
  6
CONTINUOUS
  5
313
 10
414.887028
 20
460.141862
 30
0.0
 11
415.36203
 21
460.616864
 31
0.0
  0
LINE
  8
LC-009-005-----0
  6
CONTINUOUS
  5
314
 10
414.887028
 20
460.424705
 30
0.0
 11
415.079187
 21
460.616864
 31
0.0
  0
ENDBLK
  8
0
  5
315
  0
BLOCK
  8
0
  5
317
  2
*X30
 70
    65
 10
404.887028
 20
457.616864
 30
0.0
  3
*X30
  0
LINE
  8
LC-009-005-----0
  6
CONTINUOUS
  5
318
 10
409.816445
 20
457.616864
 30
0.0
 11
409.887028
 21
457.687447
 31
0.0
  0
LINE
  8
LC-009-005-----0
  6
CONTINUOUS
  5
319
 10
409.533602
 20
457.616864
 30
0.0
 11
409.887028
 21
457.970289
 31
0.0
  0
LINE
  8
LC-009-005-----0
  6
CONTINUOUS
  5
31A
 10
409.25076
 20
457.616864
 30
0.0
 11
409.887028
 21
458.253132
 31
0.0
  0
LINE
  8
LC-009-005-----0
  6
CONTINUOUS
  5
31B
 10
408.967917
 20
457.616864
 30
0.0
 11
409.887028
 21
458.535975
 31
0.0
  0
LINE
  8
LC-009-005-----0
  6
CONTINUOUS
  5
31C
 10
408.685074
 20
457.616864
 30
0.0
 11
409.887028
 21
458.818818
 31
0.0
  0
LINE
  8
LC-009-005-----0
  6
CONTINUOUS
  5
31D
 10
408.402232
 20
457.616864
 30
0.0
 11
409.887028
 21
459.10166
 31
0.0
  0
LINE
  8
LC-009-005-----0
  6
CONTINUOUS
  5
31E
 10
408.119389
 20
457.616864
 30
0.0
 11
409.887028
 21
459.384503
 31
0.0
  0
LINE
  8
LC-009-005-----0
  6
CONTINUOUS
  5
31F
 10
407.836546
 20
457.616864
 30
0.0
 11
409.887028
 21
459.667346
 31
0.0
  0
LINE
  8
LC-009-005-----0
  6
CONTINUOUS
  5
320
 10
407.553703
 20
457.616864
 30
0.0
 11
409.887028
 21
459.950188
 31
0.0
  0
LINE
  8
LC-009-005-----0
  6
CONTINUOUS
  5
321
 10
407.270861
 20
457.616864
 30
0.0
 11
409.887028
 21
460.233031
 31
0.0
  0
LINE
  8
LC-009-005-----0
  6
CONTINUOUS
  5
322
 10
406.988018
 20
457.616864
 30
0.0
 11
409.887028
 21
460.515874
 31
0.0
  0
LINE
  8
LC-009-005-----0
  6
CONTINUOUS
  5
323
 10
406.705175
 20
457.616864
 30
0.0
 11
409.705175
 21
460.616864
 31
0.0
  0
LINE
  8
LC-009-005-----0
  6
CONTINUOUS
  5
324
 10
406.422333
 20
457.616864
 30
0.0
 11
409.422333
 21
460.616864
 31
0.0
  0
LINE
  8
LC-009-005-----0
  6
CONTINUOUS
  5
325
 10
406.13949
 20
457.616864
 30
0.0
 11
409.13949
 21
460.616864
 31
0.0
  0
LINE
  8
LC-009-005-----0
  6
CONTINUOUS
  5
326
 10
405.856647
 20
457.616864
 30
0.0
 11
408.856647
 21
460.616864
 31
0.0
  0
LINE
  8
LC-009-005-----0
  6
CONTINUOUS
  5
327
 10
405.573804
 20
457.616864
 30
0.0
 11
408.573804
 21
460.616864
 31
0.0
  0
LINE
  8
LC-009-005-----0
  6
CONTINUOUS
  5
328
 10
405.290962
 20
457.616864
 30
0.0
 11
408.290962
 21
460.616864
 31
0.0
  0
LINE
  8
LC-009-005-----0
  6
CONTINUOUS
  5
329
 10
405.008119
 20
457.616864
 30
0.0
 11
408.008119
 21
460.616864
 31
0.0
  0
LINE
  8
LC-009-005-----0
  6
CONTINUOUS
  5
32A
 10
404.887028
 20
457.778616
 30
0.0
 11
407.725276
 21
460.616864
 31
0.0
  0
LINE
  8
LC-009-005-----0
  6
CONTINUOUS
  5
32B
 10
404.887028
 20
458.061458
 30
0.0
 11
407.442434
 21
460.616864
 31
0.0
  0
LINE
  8
LC-009-005-----0
  6
CONTINUOUS
  5
32C
 10
404.887028
 20
458.344301
 30
0.0
 11
407.159591
 21
460.616864
 31
0.0
  0
LINE
  8
LC-009-005-----0
  6
CONTINUOUS
  5
32D
 10
404.887028
 20
458.627144
 30
0.0
 11
406.876748
 21
460.616864
 31
0.0
  0
LINE
  8
LC-009-005-----0
  6
CONTINUOUS
  5
32E
 10
404.887028
 20
458.909986
 30
0.0
 11
406.593905
 21
460.616864
 31
0.0
  0
LINE
  8
LC-009-005-----0
  6
CONTINUOUS
  5
32F
 10
404.887028
 20
459.192829
 30
0.0
 11
406.311063
 21
460.616864
 31
0.0
  0
LINE
  8
LC-009-005-----0
  6
CONTINUOUS
  5
330
 10
404.887028
 20
459.475672
 30
0.0
 11
406.02822
 21
460.616864
 31
0.0
  0
LINE
  8
LC-009-005-----0
  6
CONTINUOUS
  5
331
 10
404.887028
 20
459.758515
 30
0.0
 11
405.745377
 21
460.616864
 31
0.0
  0
LINE
  8
LC-009-005-----0
  6
CONTINUOUS
  5
332
 10
404.887028
 20
460.041357
 30
0.0
 11
405.462535
 21
460.616864
 31
0.0
  0
LINE
  8
LC-009-005-----0
  6
CONTINUOUS
  5
333
 10
404.887028
 20
460.3242
 30
0.0
 11
405.179692
 21
460.616864
 31
0.0
  0
LINE
  8
LC-009-005-----0
  6
CONTINUOUS
  5
334
 10
404.887028
 20
460.607043
 30
0.0
 11
404.896849
 21
460.616864
 31
0.0
  0
ENDBLK
  8
0
  5
335
  0
BLOCK
  8
0
  5
337
  2
*X31
 70
    65
 10
394.887028
 20
457.616864
 30
0.0
  3
*X31
  0
LINE
  8
LC-009-005-----0
  6
CONTINUOUS
  5
338
 10
399.634108
 20
457.616864
 30
0.0
 11
399.887028
 21
457.869784
 31
0.0
  0
LINE
  8
LC-009-005-----0
  6
CONTINUOUS
  5
339
 10
399.351265
 20
457.616864
 30
0.0
 11
399.887028
 21
458.152627
 31
0.0
  0
LINE
  8
LC-009-005-----0
  6
CONTINUOUS
  5
33A
 10
399.068422
 20
457.616864
 30
0.0
 11
399.887028
 21
458.43547
 31
0.0
  0
LINE
  8
LC-009-005-----0
  6
CONTINUOUS
  5
33B
 10
398.785579
 20
457.616864
 30
0.0
 11
399.887028
 21
458.718313
 31
0.0
  0
LINE
  8
LC-009-005-----0
  6
CONTINUOUS
  5
33C
 10
398.502737
 20
457.616864
 30
0.0
 11
399.887028
 21
459.001155
 31
0.0
  0
LINE
  8
LC-009-005-----0
  6
CONTINUOUS
  5
33D
 10
398.219894
 20
457.616864
 30
0.0
 11
399.887028
 21
459.283998
 31
0.0
  0
LINE
  8
LC-009-005-----0
  6
CONTINUOUS
  5
33E
 10
397.937051
 20
457.616864
 30
0.0
 11
399.887028
 21
459.566841
 31
0.0
  0
LINE
  8
LC-009-005-----0
  6
CONTINUOUS
  5
33F
 10
397.654209
 20
457.616864
 30
0.0
 11
399.887028
 21
459.849683
 31
0.0
  0
LINE
  8
LC-009-005-----0
  6
CONTINUOUS
  5
340
 10
397.371366
 20
457.616864
 30
0.0
 11
399.887028
 21
460.132526
 31
0.0
  0
LINE
  8
LC-009-005-----0
  6
CONTINUOUS
  5
341
 10
397.088523
 20
457.616864
 30
0.0
 11
399.887028
 21
460.415369
 31
0.0
  0
LINE
  8
LC-009-005-----0
  6
CONTINUOUS
  5
342
 10
396.80568
 20
457.616864
 30
0.0
 11
399.80568
 21
460.616864
 31
0.0
  0
LINE
  8
LC-009-005-----0
  6
CONTINUOUS
  5
343
 10
396.522838
 20
457.616864
 30
0.0
 11
399.522838
 21
460.616864
 31
0.0
  0
LINE
  8
LC-009-005-----0
  6
CONTINUOUS
  5
344
 10
396.239995
 20
457.616864
 30
0.0
 11
399.239995
 21
460.616864
 31
0.0
  0
LINE
  8
LC-009-005-----0
  6
CONTINUOUS
  5
345
 10
395.957152
 20
457.616864
 30
0.0
 11
398.957152
 21
460.616864
 31
0.0
  0
LINE
  8
LC-009-005-----0
  6
CONTINUOUS
  5
346
 10
395.67431
 20
457.616864
 30
0.0
 11
398.67431
 21
460.616864
 31
0.0
  0
LINE
  8
LC-009-005-----0
  6
CONTINUOUS
  5
347
 10
395.391467
 20
457.616864
 30
0.0
 11
398.391467
 21
460.616864
 31
0.0
  0
LINE
  8
LC-009-005-----0
  6
CONTINUOUS
  5
348
 10
395.108624
 20
457.616864
 30
0.0
 11
398.108624
 21
460.616864
 31
0.0
  0
LINE
  8
LC-009-005-----0
  6
CONTINUOUS
  5
349
 10
394.887028
 20
457.678111
 30
0.0
 11
397.825781
 21
460.616864
 31
0.0
  0
LINE
  8
LC-009-005-----0
  6
CONTINUOUS
  5
34A
 10
394.887028
 20
457.960953
 30
0.0
 11
397.542939
 21
460.616864
 31
0.0
  0
LINE
  8
LC-009-005-----0
  6
CONTINUOUS
  5
34B
 10
394.887028
 20
458.243796
 30
0.0
 11
397.260096
 21
460.616864
 31
0.0
  0
LINE
  8
LC-009-005-----0
  6
CONTINUOUS
  5
34C
 10
394.887028
 20
458.526639
 30
0.0
 11
396.977253
 21
460.616864
 31
0.0
  0
LINE
  8
LC-009-005-----0
  6
CONTINUOUS
  5
34D
 10
394.887028
 20
458.809481
 30
0.0
 11
396.694411
 21
460.616864
 31
0.0
  0
LINE
  8
LC-009-005-----0
  6
CONTINUOUS
  5
34E
 10
394.887028
 20
459.092324
 30
0.0
 11
396.411568
 21
460.616864
 31
0.0
  0
LINE
  8
LC-009-005-----0
  6
CONTINUOUS
  5
34F
 10
394.887028
 20
459.375167
 30
0.0
 11
396.128725
 21
460.616864
 31
0.0
  0
LINE
  8
LC-009-005-----0
  6
CONTINUOUS
  5
350
 10
394.887028
 20
459.65801
 30
0.0
 11
395.845882
 21
460.616864
 31
0.0
  0
LINE
  8
LC-009-005-----0
  6
CONTINUOUS
  5
351
 10
394.887028
 20
459.940852
 30
0.0
 11
395.56304
 21
460.616864
 31
0.0
  0
LINE
  8
LC-009-005-----0
  6
CONTINUOUS
  5
352
 10
394.887028
 20
460.223695
 30
0.0
 11
395.280197
 21
460.616864
 31
0.0
  0
LINE
  8
LC-009-005-----0
  6
CONTINUOUS
  5
353
 10
394.887028
 20
460.506538
 30
0.0
 11
394.997354
 21
460.616864
 31
0.0
  0
ENDBLK
  8
0
  5
354
  0
BLOCK
  8
0
  5
356
  2
*X32
 70
    65
 10
374.887028
 20
454.862228
 30
0.0
  3
*X32
  0
LINE
  8
LC-009-005-----0
  6
CONTINUOUS
  5
357
 10
379.675983
 20
456.326358
 30
0.0
 11
379.887028
 21
456.537403
 31
0.0
  0
LINE
  8
LC-009-005-----0
  6
CONTINUOUS
  5
358
 10
379.268587
 20
456.201805
 30
0.0
 11
379.887028
 21
456.820246
 31
0.0
  0
LINE
  8
LC-009-005-----0
  6
CONTINUOUS
  5
359
 10
378.861191
 20
456.077251
 30
0.0
 11
379.887028
 21
457.103089
 31
0.0
  0
LINE
  8
LC-009-005-----0
  6
CONTINUOUS
  5
35A
 10
378.453795
 20
455.952698
 30
0.0
 11
379.887028
 21
457.385932
 31
0.0
  0
LINE
  8
LC-009-005-----0
  6
CONTINUOUS
  5
35B
 10
378.046398
 20
455.828144
 30
0.0
 11
379.887028
 21
457.668774
 31
0.0
  0
LINE
  8
LC-009-005-----0
  6
CONTINUOUS
  5
35C
 10
377.639002
 20
455.703591
 30
0.0
 11
379.887028
 21
457.951617
 31
0.0
  0
LINE
  8
LC-009-005-----0
  6
CONTINUOUS
  5
35D
 10
377.231606
 20
455.579037
 30
0.0
 11
379.887028
 21
458.23446
 31
0.0
  0
LINE
  8
LC-009-005-----0
  6
CONTINUOUS
  5
35E
 10
376.82421
 20
455.454484
 30
0.0
 11
379.887028
 21
458.517302
 31
0.0
  0
LINE
  8
LC-009-005-----0
  6
CONTINUOUS
  5
35F
 10
376.416813
 20
455.32993
 30
0.0
 11
379.887028
 21
458.800145
 31
0.0
  0
LINE
  8
LC-009-005-----0
  6
CONTINUOUS
  5
360
 10
376.009417
 20
455.205377
 30
0.0
 11
379.887028
 21
459.082988
 31
0.0
  0
LINE
  8
LC-009-005-----0
  6
CONTINUOUS
  5
361
 10
375.602021
 20
455.080823
 30
0.0
 11
379.887028
 21
459.365831
 31
0.0
  0
LINE
  8
LC-009-005-----0
  6
CONTINUOUS
  5
362
 10
375.194625
 20
454.95627
 30
0.0
 11
379.713153
 21
459.474798
 31
0.0
  0
LINE
  8
LC-009-005-----0
  6
CONTINUOUS
  5
363
 10
374.887028
 20
454.931516
 30
0.0
 11
379.305756
 21
459.350244
 31
0.0
  0
LINE
  8
LC-009-005-----0
  6
CONTINUOUS
  5
364
 10
374.887028
 20
455.214359
 30
0.0
 11
378.89836
 21
459.22569
 31
0.0
  0
LINE
  8
LC-009-005-----0
  6
CONTINUOUS
  5
365
 10
374.887028
 20
455.497201
 30
0.0
 11
378.490964
 21
459.101137
 31
0.0
  0
LINE
  8
LC-009-005-----0
  6
CONTINUOUS
  5
366
 10
374.887028
 20
455.780044
 30
0.0
 11
378.083568
 21
458.976583
 31
0.0
  0
LINE
  8
LC-009-005-----0
  6
CONTINUOUS
  5
367
 10
374.887028
 20
456.062887
 30
0.0
 11
377.676171
 21
458.85203
 31
0.0
  0
LINE
  8
LC-009-005-----0
  6
CONTINUOUS
  5
368
 10
374.887028
 20
456.34573
 30
0.0
 11
377.268775
 21
458.727476
 31
0.0
  0
LINE
  8
LC-009-005-----0
  6
CONTINUOUS
  5
369
 10
374.887028
 20
456.628572
 30
0.0
 11
376.861379
 21
458.602923
 31
0.0
  0
LINE
  8
LC-009-005-----0
  6
CONTINUOUS
  5
36A
 10
374.887028
 20
456.911415
 30
0.0
 11
376.453983
 21
458.478369
 31
0.0
  0
LINE
  8
LC-009-005-----0
  6
CONTINUOUS
  5
36B
 10
374.887028
 20
457.194258
 30
0.0
 11
376.046586
 21
458.353816
 31
0.0
  0
LINE
  8
LC-009-005-----0
  6
CONTINUOUS
  5
36C
 10
374.887028
 20
457.4771
 30
0.0
 11
375.63919
 21
458.229262
 31
0.0
  0
LINE
  8
LC-009-005-----0
  6
CONTINUOUS
  5
36D
 10
374.887028
 20
457.759943
 30
0.0
 11
375.231794
 21
458.104709
 31
0.0
  0
ENDBLK
  8
0
  5
36E
  0
BLOCK
  8
0
  5
370
  2
*X33
 70
    65
 10
364.887028
 20
451.804921
 30
0.0
  3
*X33
  0
LINE
  8
LC-009-005-----0
  6
CONTINUOUS
  5
371
 10
369.491077
 20
453.21252
 30
0.0
 11
369.887028
 21
453.608471
 31
0.0
  0
LINE
  8
LC-009-005-----0
  6
CONTINUOUS
  5
372
 10
369.083681
 20
453.087967
 30
0.0
 11
369.887028
 21
453.891314
 31
0.0
  0
LINE
  8
LC-009-005-----0
  6
CONTINUOUS
  5
373
 10
368.676285
 20
452.963413
 30
0.0
 11
369.887028
 21
454.174157
 31
0.0
  0
LINE
  8
LC-009-005-----0
  6
CONTINUOUS
  5
374
 10
368.268889
 20
452.83886
 30
0.0
 11
369.887028
 21
454.456999
 31
0.0
  0
LINE
  8
LC-009-005-----0
  6
CONTINUOUS
  5
375
 10
367.861492
 20
452.714306
 30
0.0
 11
369.887028
 21
454.739842
 31
0.0
  0
LINE
  8
LC-009-005-----0
  6
CONTINUOUS
  5
376
 10
367.454096
 20
452.589753
 30
0.0
 11
369.887028
 21
455.022685
 31
0.0
  0
LINE
  8
LC-009-005-----0
  6
CONTINUOUS
  5
377
 10
367.0467
 20
452.465199
 30
0.0
 11
369.887028
 21
455.305528
 31
0.0
  0
LINE
  8
LC-009-005-----0
  6
CONTINUOUS
  5
378
 10
366.639304
 20
452.340645
 30
0.0
 11
369.887028
 21
455.58837
 31
0.0
  0
LINE
  8
LC-009-005-----0
  6
CONTINUOUS
  5
379
 10
366.231907
 20
452.216092
 30
0.0
 11
369.887028
 21
455.871213
 31
0.0
  0
LINE
  8
LC-009-005-----0
  6
CONTINUOUS
  5
37A
 10
365.824511
 20
452.091538
 30
0.0
 11
369.887028
 21
456.154056
 31
0.0
  0
LINE
  8
LC-009-005-----0
  6
CONTINUOUS
  5
37B
 10
365.417115
 20
451.966985
 30
0.0
 11
369.887028
 21
456.436898
 31
0.0
  0
LINE
  8
LC-009-005-----0
  6
CONTINUOUS
  5
37C
 10
365.009719
 20
451.842431
 30
0.0
 11
369.528247
 21
456.360959
 31
0.0
  0
LINE
  8
LC-009-005-----0
  6
CONTINUOUS
  5
37D
 10
364.887028
 20
452.002584
 30
0.0
 11
369.12085
 21
456.236406
 31
0.0
  0
LINE
  8
LC-009-005-----0
  6
CONTINUOUS
  5
37E
 10
364.887028
 20
452.285427
 30
0.0
 11
368.713454
 21
456.111852
 31
0.0
  0
LINE
  8
LC-009-005-----0
  6
CONTINUOUS
  5
37F
 10
364.887028
 20
452.568269
 30
0.0
 11
368.306058
 21
455.987299
 31
0.0
  0
LINE
  8
LC-009-005-----0
  6
CONTINUOUS
  5
380
 10
364.887028
 20
452.851112
 30
0.0
 11
367.898662
 21
455.862745
 31
0.0
  0
LINE
  8
LC-009-005-----0
  6
CONTINUOUS
  5
381
 10
364.887028
 20
453.133955
 30
0.0
 11
367.491265
 21
455.738192
 31
0.0
  0
LINE
  8
LC-009-005-----0
  6
CONTINUOUS
  5
382
 10
364.887028
 20
453.416797
 30
0.0
 11
367.083869
 21
455.613638
 31
0.0
  0
LINE
  8
LC-009-005-----0
  6
CONTINUOUS
  5
383
 10
364.887028
 20
453.69964
 30
0.0
 11
366.676473
 21
455.489085
 31
0.0
  0
LINE
  8
LC-009-005-----0
  6
CONTINUOUS
  5
384
 10
364.887028
 20
453.982483
 30
0.0
 11
366.269077
 21
455.364531
 31
0.0
  0
LINE
  8
LC-009-005-----0
  6
CONTINUOUS
  5
385
 10
364.887028
 20
454.265326
 30
0.0
 11
365.86168
 21
455.239977
 31
0.0
  0
LINE
  8
LC-009-005-----0
  6
CONTINUOUS
  5
386
 10
364.887028
 20
454.548168
 30
0.0
 11
365.454284
 21
455.115424
 31
0.0
  0
LINE
  8
LC-009-005-----0
  6
CONTINUOUS
  5
387
 10
364.887028
 20
454.831011
 30
0.0
 11
365.046888
 21
454.99087
 31
0.0
  0
ENDBLK
  8
0
  5
388
  0
BLOCK
  8
0
  5
38A
  2
*X34
 70
    65
 10
354.887028
 20
450.964012
 30
0.0
  3
*X34
  0
LINE
  8
LC-009-005-----0
  6
CONTINUOUS
  5
38B
 10
359.605816
 20
450.964012
 30
0.0
 11
359.887028
 21
451.245225
 31
0.0
  0
LINE
  8
LC-009-005-----0
  6
CONTINUOUS
  5
38C
 10
359.322973
 20
450.964012
 30
0.0
 11
359.887028
 21
451.528067
 31
0.0
  0
LINE
  8
LC-009-005-----0
  6
CONTINUOUS
  5
38D
 10
359.040131
 20
450.964012
 30
0.0
 11
359.887028
 21
451.81091
 31
0.0
  0
LINE
  8
LC-009-005-----0
  6
CONTINUOUS
  5
38E
 10
358.757288
 20
450.964012
 30
0.0
 11
359.887028
 21
452.093753
 31
0.0
  0
LINE
  8
LC-009-005-----0
  6
CONTINUOUS
  5
38F
 10
358.474445
 20
450.964012
 30
0.0
 11
359.887028
 21
452.376595
 31
0.0
  0
LINE
  8
LC-009-005-----0
  6
CONTINUOUS
  5
390
 10
358.191602
 20
450.964012
 30
0.0
 11
359.887028
 21
452.659438
 31
0.0
  0
LINE
  8
LC-009-005-----0
  6
CONTINUOUS
  5
391
 10
357.90876
 20
450.964012
 30
0.0
 11
359.887028
 21
452.942281
 31
0.0
  0
LINE
  8
LC-009-005-----0
  6
CONTINUOUS
  5
392
 10
357.625917
 20
450.964012
 30
0.0
 11
359.887028
 21
453.225123
 31
0.0
  0
LINE
  8
LC-009-005-----0
  6
CONTINUOUS
  5
393
 10
357.343074
 20
450.964012
 30
0.0
 11
359.887028
 21
453.507966
 31
0.0
  0
LINE
  8
LC-009-005-----0
  6
CONTINUOUS
  5
394
 10
357.060232
 20
450.964012
 30
0.0
 11
359.887028
 21
453.790809
 31
0.0
  0
LINE
  8
LC-009-005-----0
  6
CONTINUOUS
  5
395
 10
356.777389
 20
450.964012
 30
0.0
 11
359.777389
 21
453.964012
 31
0.0
  0
LINE
  8
LC-009-005-----0
  6
CONTINUOUS
  5
396
 10
356.494546
 20
450.964012
 30
0.0
 11
359.494546
 21
453.964012
 31
0.0
  0
LINE
  8
LC-009-005-----0
  6
CONTINUOUS
  5
397
 10
356.211704
 20
450.964012
 30
0.0
 11
359.211704
 21
453.964012
 31
0.0
  0
LINE
  8
LC-009-005-----0
  6
CONTINUOUS
  5
398
 10
355.928861
 20
450.964012
 30
0.0
 11
358.928861
 21
453.964012
 31
0.0
  0
LINE
  8
LC-009-005-----0
  6
CONTINUOUS
  5
399
 10
355.646018
 20
450.964012
 30
0.0
 11
358.646018
 21
453.964012
 31
0.0
  0
LINE
  8
LC-009-005-----0
  6
CONTINUOUS
  5
39A
 10
355.363175
 20
450.964012
 30
0.0
 11
358.363175
 21
453.964012
 31
0.0
  0
LINE
  8
LC-009-005-----0
  6
CONTINUOUS
  5
39B
 10
355.080333
 20
450.964012
 30
0.0
 11
358.080333
 21
453.964012
 31
0.0
  0
LINE
  8
LC-009-005-----0
  6
CONTINUOUS
  5
39C
 10
354.887028
 20
451.053551
 30
0.0
 11
357.79749
 21
453.964012
 31
0.0
  0
LINE
  8
LC-009-005-----0
  6
CONTINUOUS
  5
39D
 10
354.887028
 20
451.336393
 30
0.0
 11
357.514647
 21
453.964012
 31
0.0
  0
LINE
  8
LC-009-005-----0
  6
CONTINUOUS
  5
39E
 10
354.887028
 20
451.619236
 30
0.0
 11
357.231805
 21
453.964012
 31
0.0
  0
LINE
  8
LC-009-005-----0
  6
CONTINUOUS
  5
39F
 10
354.887028
 20
451.902079
 30
0.0
 11
356.948962
 21
453.964012
 31
0.0
  0
LINE
  8
LC-009-005-----0
  6
CONTINUOUS
  5
3A0
 10
354.887028
 20
452.184921
 30
0.0
 11
356.666119
 21
453.964012
 31
0.0
  0
LINE
  8
LC-009-005-----0
  6
CONTINUOUS
  5
3A1
 10
354.887028
 20
452.467764
 30
0.0
 11
356.383276
 21
453.964012
 31
0.0
  0
LINE
  8
LC-009-005-----0
  6
CONTINUOUS
  5
3A2
 10
354.887028
 20
452.750607
 30
0.0
 11
356.100434
 21
453.964012
 31
0.0
  0
LINE
  8
LC-009-005-----0
  6
CONTINUOUS
  5
3A3
 10
354.887028
 20
453.03345
 30
0.0
 11
355.817591
 21
453.964012
 31
0.0
  0
LINE
  8
LC-009-005-----0
  6
CONTINUOUS
  5
3A4
 10
354.887028
 20
453.316292
 30
0.0
 11
355.534748
 21
453.964012
 31
0.0
  0
LINE
  8
LC-009-005-----0
  6
CONTINUOUS
  5
3A5
 10
354.887028
 20
453.599135
 30
0.0
 11
355.251906
 21
453.964012
 31
0.0
  0
LINE
  8
LC-009-005-----0
  6
CONTINUOUS
  5
3A6
 10
354.887028
 20
453.881978
 30
0.0
 11
354.969063
 21
453.964012
 31
0.0
  0
ENDBLK
  8
0
  5
3A7
  0
BLOCK
  8
0
  5
3A9
  2
*X35
 70
    65
 10
341.886651
 20
452.463322
 30
0.0
  3
*X35
  0
LINE
  8
LC-009-005-----0
  6
CONTINUOUS
  5
3AA
 10
344.134563
 20
452.463322
 30
0.0
 11
344.137028
 21
452.465787
 31
0.0
  0
LINE
  8
LC-009-005-----0
  6
CONTINUOUS
  5
3AB
 10
343.85172
 20
452.463322
 30
0.0
 11
344.137028
 21
452.74863
 31
0.0
  0
LINE
  8
LC-009-005-----0
  6
CONTINUOUS
  5
3AC
 10
343.568877
 20
452.463322
 30
0.0
 11
344.137028
 21
453.031473
 31
0.0
  0
LINE
  8
LC-009-005-----0
  6
CONTINUOUS
  5
3AD
 10
343.286035
 20
452.463322
 30
0.0
 11
344.137028
 21
453.314315
 31
0.0
  0
LINE
  8
LC-009-005-----0
  6
CONTINUOUS
  5
3AE
 10
343.003192
 20
452.463322
 30
0.0
 11
344.137028
 21
453.597158
 31
0.0
  0
LINE
  8
LC-009-005-----0
  6
CONTINUOUS
  5
3AF
 10
342.720349
 20
452.463322
 30
0.0
 11
344.137028
 21
453.880001
 31
0.0
  0
LINE
  8
LC-009-005-----0
  6
CONTINUOUS
  5
3B0
 10
342.437507
 20
452.463322
 30
0.0
 11
344.137028
 21
454.162844
 31
0.0
  0
LINE
  8
LC-009-005-----0
  6
CONTINUOUS
  5
3B1
 10
342.154664
 20
452.463322
 30
0.0
 11
344.137028
 21
454.445686
 31
0.0
  0
LINE
  8
LC-009-005-----0
  6
CONTINUOUS
  5
3B2
 10
341.886651
 20
452.478152
 30
0.0
 11
344.137028
 21
454.728529
 31
0.0
  0
LINE
  8
LC-009-005-----0
  6
CONTINUOUS
  5
3B3
 10
341.886651
 20
452.760994
 30
0.0
 11
344.137028
 21
455.011372
 31
0.0
  0
LINE
  8
LC-009-005-----0
  6
CONTINUOUS
  5
3B4
 10
341.886651
 20
453.043837
 30
0.0
 11
344.137028
 21
455.294214
 31
0.0
  0
LINE
  8
LC-009-005-----0
  6
CONTINUOUS
  5
3B5
 10
341.886651
 20
453.32668
 30
0.0
 11
344.023293
 21
455.463322
 31
0.0
  0
LINE
  8
LC-009-005-----0
  6
CONTINUOUS
  5
3B6
 10
341.886651
 20
453.609523
 30
0.0
 11
343.74045
 21
455.463322
 31
0.0
  0
LINE
  8
LC-009-005-----0
  6
CONTINUOUS
  5
3B7
 10
341.886651
 20
453.892365
 30
0.0
 11
343.457608
 21
455.463322
 31
0.0
  0
LINE
  8
LC-009-005-----0
  6
CONTINUOUS
  5
3B8
 10
341.886651
 20
454.175208
 30
0.0
 11
343.174765
 21
455.463322
 31
0.0
  0
LINE
  8
LC-009-005-----0
  6
CONTINUOUS
  5
3B9
 10
341.886651
 20
454.458051
 30
0.0
 11
342.891922
 21
455.463322
 31
0.0
  0
LINE
  8
LC-009-005-----0
  6
CONTINUOUS
  5
3BA
 10
341.886651
 20
454.740893
 30
0.0
 11
342.609079
 21
455.463322
 31
0.0
  0
LINE
  8
LC-009-005-----0
  6
CONTINUOUS
  5
3BB
 10
341.886651
 20
455.023736
 30
0.0
 11
342.326237
 21
455.463322
 31
0.0
  0
LINE
  8
LC-009-005-----0
  6
CONTINUOUS
  5
3BC
 10
341.886651
 20
455.306579
 30
0.0
 11
342.043394
 21
455.463322
 31
0.0
  0
ENDBLK
  8
0
  5
3BD
  0
BLOCK
  8
0
  5
3BF
  2
*X36
 70
    65
 10
384.887028
 20
457.404835
 30
0.0
  3
*X36
  0
LINE
  8
LC-009-005-----0
  6
CONTINUOUS
  5
3C0
 10
389.679134
 20
457.561385
 30
0.0
 11
389.887028
 21
457.769279
 31
0.0
  0
LINE
  8
LC-009-005-----0
  6
CONTINUOUS
  5
3C1
 10
389.38674
 20
457.551833
 30
0.0
 11
389.887028
 21
458.052122
 31
0.0
  0
LINE
  8
LC-009-005-----0
  6
CONTINUOUS
  5
3C2
 10
389.094345
 20
457.542281
 30
0.0
 11
389.887028
 21
458.334965
 31
0.0
  0
LINE
  8
LC-009-005-----0
  6
CONTINUOUS
  5
3C3
 10
388.80195
 20
457.532729
 30
0.0
 11
389.887028
 21
458.617808
 31
0.0
  0
LINE
  8
LC-009-005-----0
  6
CONTINUOUS
  5
3C4
 10
388.509555
 20
457.523177
 30
0.0
 11
389.887028
 21
458.90065
 31
0.0
  0
LINE
  8
LC-009-005-----0
  6
CONTINUOUS
  5
3C5
 10
388.21716
 20
457.513625
 30
0.0
 11
389.887028
 21
459.183493
 31
0.0
  0
LINE
  8
LC-009-005-----0
  6
CONTINUOUS
  5
3C6
 10
387.924766
 20
457.504073
 30
0.0
 11
389.887028
 21
459.466336
 31
0.0
  0
LINE
  8
LC-009-005-----0
  6
CONTINUOUS
  5
3C7
 10
387.632371
 20
457.494521
 30
0.0
 11
389.887028
 21
459.749178
 31
0.0
  0
LINE
  8
LC-009-005-----0
  6
CONTINUOUS
  5
3C8
 10
387.339976
 20
457.484969
 30
0.0
 11
389.887028
 21
460.032021
 31
0.0
  0
LINE
  8
LC-009-005-----0
  6
CONTINUOUS
  5
3C9
 10
387.047581
 20
457.475417
 30
0.0
 11
389.887028
 21
460.314864
 31
0.0
  0
LINE
  8
LC-009-005-----0
  6
CONTINUOUS
  5
3CA
 10
386.755186
 20
457.465864
 30
0.0
 11
389.858156
 21
460.568834
 31
0.0
  0
LINE
  8
LC-009-005-----0
  6
CONTINUOUS
  5
3CB
 10
386.462792
 20
457.456312
 30
0.0
 11
389.565761
 21
460.559282
 31
0.0
  0
LINE
  8
LC-009-005-----0
  6
CONTINUOUS
  5
3CC
 10
386.170397
 20
457.44676
 30
0.0
 11
389.273366
 21
460.54973
 31
0.0
  0
LINE
  8
LC-009-005-----0
  6
CONTINUOUS
  5
3CD
 10
385.878002
 20
457.437208
 30
0.0
 11
388.980972
 21
460.540178
 31
0.0
  0
LINE
  8
LC-009-005-----0
  6
CONTINUOUS
  5
3CE
 10
385.585607
 20
457.427656
 30
0.0
 11
388.688577
 21
460.530626
 31
0.0
  0
LINE
  8
LC-009-005-----0
  6
CONTINUOUS
  5
3CF
 10
385.293212
 20
457.418104
 30
0.0
 11
388.396182
 21
460.521074
 31
0.0
  0
LINE
  8
LC-009-005-----0
  6
CONTINUOUS
  5
3D0
 10
385.000818
 20
457.408552
 30
0.0
 11
388.103787
 21
460.511522
 31
0.0
  0
LINE
  8
LC-009-005-----0
  6
CONTINUOUS
  5
3D1
 10
384.887028
 20
457.577605
 30
0.0
 11
387.811392
 21
460.501969
 31
0.0
  0
LINE
  8
LC-009-005-----0
  6
CONTINUOUS
  5
3D2
 10
384.887028
 20
457.860448
 30
0.0
 11
387.518998
 21
460.492417
 31
0.0
  0
LINE
  8
LC-009-005-----0
  6
CONTINUOUS
  5
3D3
 10
384.887028
 20
458.143291
 30
0.0
 11
387.226603
 21
460.482865
 31
0.0
  0
LINE
  8
LC-009-005-----0
  6
CONTINUOUS
  5
3D4
 10
384.887028
 20
458.426134
 30
0.0
 11
386.934208
 21
460.473313
 31
0.0
  0
LINE
  8
LC-009-005-----0
  6
CONTINUOUS
  5
3D5
 10
384.887028
 20
458.708976
 30
0.0
 11
386.641813
 21
460.463761
 31
0.0
  0
LINE
  8
LC-009-005-----0
  6
CONTINUOUS
  5
3D6
 10
384.887028
 20
458.991819
 30
0.0
 11
386.349418
 21
460.454209
 31
0.0
  0
LINE
  8
LC-009-005-----0
  6
CONTINUOUS
  5
3D7
 10
384.887028
 20
459.274662
 30
0.0
 11
386.057024
 21
460.444657
 31
0.0
  0
LINE
  8
LC-009-005-----0
  6
CONTINUOUS
  5
3D8
 10
384.887028
 20
459.557504
 30
0.0
 11
385.764629
 21
460.435105
 31
0.0
  0
LINE
  8
LC-009-005-----0
  6
CONTINUOUS
  5
3D9
 10
384.887028
 20
459.840347
 30
0.0
 11
385.472234
 21
460.425553
 31
0.0
  0
LINE
  8
LC-009-005-----0
  6
CONTINUOUS
  5
3DA
 10
384.887028
 20
460.12319
 30
0.0
 11
385.179839
 21
460.416001
 31
0.0
  0
LINE
  8
LC-009-005-----0
  6
CONTINUOUS
  5
3DB
 10
384.887028
 20
460.406033
 30
0.0
 11
384.887444
 21
460.406449
 31
0.0
  0
ENDBLK
  8
0
  5
3DC
  0
BLOCK
  8
0
  5
3DE
  2
BLK6
 70
    64
 10
0.0
 20
0.0
 30
0.0
  3
BLK6
  0
ENDBLK
  8
0
  5
3DF
  0
BLOCK
  8
0
  5
3E1
  2
*X38
 70
    65
 10
334.136532
 20
453.964001
 30
0.0
  3
*X38
  0
LINE
  8
LC-009-005-----0
  6
CONTINUOUS
  5
3E2
 10
359.211694
 20
453.964003
 30
0.0
 11
360.021294
 21
454.773603
 31
0.0
  0
LINE
  8
LC-009-005-----0
  6
CONTINUOUS
  5
3E3
 10
357.797484
 20
453.964006
 30
0.0
 11
358.497482
 21
454.664005
 31
0.0
  0
LINE
  8
LC-009-005-----0
  6
CONTINUOUS
  5
3E4
 10
356.383273
 20
453.964009
 30
0.0
 11
357.083272
 21
454.664008
 31
0.0
  0
LINE
  8
LC-009-005-----0
  6
CONTINUOUS
  5
3E5
 10
354.970811
 20
453.96576
 30
0.0
 11
355.669061
 21
454.664011
 31
0.0
  0
LINE
  8
LC-009-005-----0
  6
CONTINUOUS
  5
3E6
 10
354.085276
 20
454.494439
 30
0.0
 11
354.580251
 21
454.989414
 31
0.0
  0
LINE
  8
LC-009-005-----0
  6
CONTINUOUS
  5
3E7
 10
353.378169
 20
455.201546
 30
0.0
 11
353.873144
 21
455.696521
 31
0.0
  0
LINE
  8
LC-009-005-----0
  6
CONTINUOUS
  5
3E8
 10
352.671063
 20
455.908653
 30
0.0
 11
353.166037
 21
456.403627
 31
0.0
  0
LINE
  8
LC-009-005-----0
  6
CONTINUOUS
  5
3E9
 10
351.812068
 20
456.463871
 30
0.0
 11
352.43505
 21
457.086853
 31
0.0
  0
LINE
  8
LC-009-005-----0
  6
CONTINUOUS
  5
3EA
 10
350.887024
 20
456.953041
 30
0.0
 11
351.097859
 21
457.163876
 31
0.0
  0
LINE
  8
LC-009-005-----0
  6
CONTINUOUS
  5
3EB
 10
343.326839
 20
456.463924
 30
0.0
 11
343.387024
 21
456.524109
 31
0.0
  0
LINE
  8
LC-009-005-----0
  6
CONTINUOUS
  5
3EC
 10
341.912635
 20
456.463933
 30
0.0
 11
342.61263
 21
457.163929
 31
0.0
  0
LINE
  8
LC-009-005-----0
  6
CONTINUOUS
  5
3ED
 10
339.498436
 20
455.463948
 30
0.0
 11
341.198426
 21
457.163938
 31
0.0
  0
LINE
  8
LC-009-005-----0
  6
CONTINUOUS
  5
3EE
 10
338.084232
 20
455.463957
 30
0.0
 11
338.784227
 21
456.163953
 31
0.0
  0
LINE
  8
LC-009-005-----0
  6
CONTINUOUS
  5
3EF
 10
335.370036
 20
454.163976
 30
0.0
 11
336.070031
 21
454.86397
 31
0.0
  0
LINE
  8
LC-009-005-----0
  6
CONTINUOUS
  5
3F0
 10
336.670027
 20
455.463966
 30
0.0
 11
337.370022
 21
456.163962
 31
0.0
  0
LINE
  8
LC-009-005-----0
  6
CONTINUOUS
  5
3F1
 10
334.344867
 20
454.55302
 30
0.0
 11
334.85425
 21
455.062403
 31
0.0
  0
LINE
  8
LC-009-005-----0
  6
CONTINUOUS
  5
3F2
 10
335.255822
 20
455.463975
 30
0.0
 11
335.955818
 21
456.163971
 31
0.0
  0
ENDBLK
  8
0
  5
3F3
  0
BLOCK
  8
0
  5
3F5
  2
BLK7
 70
    64
 10
0.0
 20
0.0
 30
0.0
  3
BLK7
  0
ENDBLK
  8
0
  5
3F6
  0
BLOCK
  8
0
  5
3F8
  2
BLK8
 70
    64
 10
0.0
 20
0.0
 30
0.0
  3
BLK8
  0
ENDBLK
  8
0
  5
3F9
  0
BLOCK
  8
0
  5
3FB
  2
BLK9
 70
    64
 10
0.0
 20
0.0
 30
0.0
  3
BLK9
  0
ENDBLK
  8
0
  5
3FC
  0
BLOCK
  8
0
  5
3FE
  2
BLK10
 70
    64
 10
0.0
 20
0.0
 30
0.0
  3
BLK10
  0
ENDBLK
  8
0
  5
3FF
  0
BLOCK
  8
0
  5
401
  2
*D43
 70
    65
 10
0.0
 20
0.0
 30
0.0
  3
*D43
  0
LINE
  8
LC-003-003-MTH-0
  6
CONTINUOUS
  5
402
 10
77.136539
 20
460.582028
 30
0.0
 11
77.136539
 21
500.8
 31
0.0
  0
LINE
  8
LC-003-003-MTH-0
  6
CONTINUOUS
  5
403
 10
477.136539
 20
460.616864
 30
0.0
 11
477.136539
 21
500.8
 31
0.0
  0
LINE
  8
LC-004-003-MTG-0
  6
CONTINUOUS
  5
404
 10
77.136539
 20
490.0
 30
0.0
 11
477.136539
 21
490.0
 31
0.0
  0
LINE
  8
LC-002-003-----0
  6
CONTINUOUS
  5
405
 10
94.982546
 20
492.349471
 30
0.0
 11
77.136539
 21
490.0
 31
0.0
  0
LINE
  8
LC-002-003-----0
  6
CONTINUOUS
  5
406
 10
77.136539
 20
490.0
 30
0.0
 11
94.982546
 21
487.650529
 31
0.0
  0
LINE
  8
LC-002-003-----0
  6
CONTINUOUS
  5
407
 10
94.982546
 20
487.650529
 30
0.0
 11
94.982546
 21
492.349471
 31
0.0
  0
LINE
  8
LC-002-003-----0
  6
CONTINUOUS
  5
408
 10
95.022585
 20
491.738609
 30
0.0
 11
81.816539
 21
490.0
 31
0.0
  0
LINE
  8
LC-002-003-----0
  6
CONTINUOUS
  5
409
 10
81.816539
 20
490.0
 30
0.0
 11
95.022585
 21
488.261391
 31
0.0
  0
LINE
  8
LC-002-003-----0
  6
CONTINUOUS
  5
40A
 10
95.062623
 20
491.127746
 30
0.0
 11
86.496539
 21
490.0
 31
0.0
  0
LINE
  8
LC-002-003-----0
  6
CONTINUOUS
  5
40B
 10
86.496539
 20
490.0
 30
0.0
 11
95.062623
 21
488.872254
 31
0.0
  0
LINE
  8
LC-002-003-----0
  6
CONTINUOUS
  5
40C
 10
95.102661
 20
490.516884
 30
0.0
 11
91.176539
 21
490.0
 31
0.0
  0
LINE
  8
LC-002-003-----0
  6
CONTINUOUS
  5
40D
 10
91.176539
 20
490.0
 30
0.0
 11
95.102661
 21
489.483116
 31
0.0
  0
LINE
  8
LC-002-003-----0
  6
CONTINUOUS
  5
40E
 10
459.290531
 20
487.650529
 30
0.0
 11
477.136539
 21
490.0
 31
0.0
  0
LINE
  8
LC-002-003-----0
  6
CONTINUOUS
  5
40F
 10
477.136539
 20
490.0
 30
0.0
 11
459.290531
 21
492.349471
 31
0.0
  0
LINE
  8
LC-002-003-----0
  6
CONTINUOUS
  5
410
 10
459.290531
 20
492.349471
 30
0.0
 11
459.290531
 21
487.650529
 31
0.0
  0
LINE
  8
LC-002-003-----0
  6
CONTINUOUS
  5
411
 10
459.250493
 20
488.261391
 30
0.0
 11
472.456539
 21
490.0
 31
0.0
  0
LINE
  8
LC-002-003-----0
  6
CONTINUOUS
  5
412
 10
472.456539
 20
490.0
 30
0.0
 11
459.250493
 21
491.738609
 31
0.0
  0
LINE
  8
LC-002-003-----0
  6
CONTINUOUS
  5
413
 10
459.210455
 20
488.872254
 30
0.0
 11
467.776539
 21
490.0
 31
0.0
  0
LINE
  8
LC-002-003-----0
  6
CONTINUOUS
  5
414
 10
467.776539
 20
490.0
 30
0.0
 11
459.210455
 21
491.127746
 31
0.0
  0
LINE
  8
LC-002-003-----0
  6
CONTINUOUS
  5
415
 10
459.170417
 20
489.483116
 30
0.0
 11
463.096539
 21
490.0
 31
0.0
  0
LINE
  8
LC-002-003-----0
  6
CONTINUOUS
  5
416
 10
463.096539
 20
490.0
 30
0.0
 11
459.170417
 21
490.516884
 31
0.0
  0
TEXT
  8
LC-002-003-----0
  6
CONTINUOUS
 62
     6
  5
417
 10
255.440446
 20
500.431999
 30
0.0
 40
18.0
  1
Ø420
 51
15.0
  7
LC-TXTSTYLE-150-400-0-0-D0
 72
     1
 11
279.931785
 21
500.431999
 31
0.0
  0
ENDBLK
  8
0
  5
418
  0
ENDSEC
  0
SECTION
  2
ENTITIES
  0
VIEWPORT
  8
LC-000
  5
627
 67
     1
 68
     1
 10
420.0
 20
297.0
 30
0.0
 40
840.0
 41
594.0
 69
     1
1001
ACAD
1000
MVIEW
1002
{
1070
    16
1010
0.0
1020
0.0
1030
0.0
1010
0.0
1020
0.0
1030
1.0
1040
0.0
1040
594.0
1040
420.0
1040
297.0
1040
50.0
1040
0.0
1040
0.0
1070
     0
1070
   100
1070
     1
1070
     1
1070
     0
1070
     0
1070
     0
1070
     0
1040
0.0
1040
0.0
1040
0.0
1040
1.0
1040
1.0
1040
0.0
1040
0.0
1070
     0
1002
{
1002
}
1002
}
  0
VIEWPORT
  8
0
  5
628
 67
     1
 68
     1
 10
0.0
 20
0.0
 30
0.0
 40
0.0
 41
0.0
 69
     1
1001
ACAD
1000
MVIEW
1002
{
1070
    16
1010
0.0
1020
0.0
1030
0.0
1010
0.0
1020
0.0
1030
1.0
1040
0.0
1040
594.0
1040
0.0
1040
0.0
1040
50.0
1040
0.0
1040
0.0
1070
     0
1070
   100
1070
     0
1070
     1
1070
     0
1070
     0
1070
     0
1070
     0
1040
0.0
1040
0.0
1040
0.0
1040
0.5
1040
0.5
1040
0.5
1040
0.5
1070
     0
1002
{
1002
}
1002
}
  0
DIMENSION
  8
0
  5
419
  2
*D0
 10
272.49291
 20
180.0
 30
0.0
 11
272.49291
 21
180.0
 31
0.0
  1
DN70
 13
239.636539
 23
240.962631
 33
0.0
 14
314.636539
 24
240.962631
 34
0.0
  3
LC-DIM-L-0090-02-02
  0
DIMENSION
  8
0
  5
41A
  2
*D1
 10
364.0
 20
337.462975
 30
0.0
 11
364.0
 21
337.462975
 31
0.0
 13
353.137061
 23
437.463319
 33
0.0
 14
311.636539
 24
237.462631
 34
0.0
 50
90.0
  3
LC-DIM-L-0090-02-02
  0
DIMENSION
  8
0
  5
41B
  2
*D2
 10
406.0
 20
345.782307
 30
0.0
 11
406.0
 21
345.782307
 31
0.0
  1
216
 13
392.299311
 23
454.101982
 33
0.0
 14
313.698717
 24
237.462631
 34
0.0
 50
90.0
  3
LC-DIM-L-0090-02-02
  0
INSERT
  8
0
  5
41D
  2
BLK1
 10
0.0
 20
0.0
 30
0.0
  0
INSERT
  8
0
  5
41E
  2
BLK2
 10
0.0
 20
0.0
 30
0.0
  0
INSERT
  8
0
  5
41F
  2
BLK3
 10
0.0
 20
0.0
 30
0.0
  0
INSERT
  8
0
  5
420
  2
*X6
 10
77.136539
 20
457.582028
 30
0.0
  0
INSERT
  8
0
  5
421
  2
*X7
 10
84.38605
 20
457.582028
 30
0.0
  0
INSERT
  8
0
  5
422
  2
*X8
 10
94.38605
 20
457.582028
 30
0.0
  0
INSERT
  8
0
  5
423
  2
*X9
 10
104.38605
 20
457.582028
 30
0.0
  0
INSERT
  8
0
  5
424
  2
*X10
 10
114.38605
 20
457.582028
 30
0.0
  0
INSERT
  8
0
  5
425
  2
*X11
 10
124.38605
 20
457.582028
 30
0.0
  0
INSERT
  8
0
  5
426
  2
*X12
 10
134.38605
 20
457.582028
 30
0.0
  0
INSERT
  8
0
  5
427
  2
*X13
 10
144.38605
 20
457.582028
 30
0.0
  0
INSERT
  8
0
  5
428
  2
*X14
 10
154.38605
 20
457.582028
 30
0.0
  0
INSERT
  8
0
  5
429
  2
*X15
 10
174.38605
 20
454.862228
 30
0.0
  0
INSERT
  8
0
  5
42A
  2
*X16
 10
184.38605
 20
451.804921
 30
0.0
  0
INSERT
  8
0
  5
42B
  2
*X17
 10
194.38605
 20
450.964012
 30
0.0
  0
INSERT
  8
0
  5
42C
  2
*X18
 10
210.13605
 20
452.463322
 30
0.0
  0
INSERT
  8
0
  5
42D
  2
*X19
 10
164.38605
 20
457.404835
 30
0.0
  0
INSERT
  8
0
  5
42E
  2
BLK4
 10
0.0
 20
0.0
 30
0.0
  0
INSERT
  8
0
  5
42F
  2
*X21
 10
191.951203
 20
453.964001
 30
0.0
  0
INSERT
  8
0
  5
430
  2
BLK5
 10
0.0
 20
0.0
 30
0.0
  0
INSERT
  8
0
  5
431
  2
*X23
 10
474.887028
 20
457.616864
 30
0.0
  0
INSERT
  8
0
  5
432
  2
*X24
 10
464.887028
 20
457.616864
 30
0.0
  0
INSERT
  8
0
  5
433
  2
*X25
 10
454.887028
 20
457.616864
 30
0.0
  0
INSERT
  8
0
  5
434
  2
*X26
 10
444.887028
 20
457.616864
 30
0.0
  0
INSERT
  8
0
  5
435
  2
*X27
 10
434.887028
 20
457.616864
 30
0.0
  0
INSERT
  8
0
  5
436
  2
*X28
 10
424.887028
 20
457.616864
 30
0.0
  0
INSERT
  8
0
  5
437
  2
*X29
 10
414.887028
 20
457.616864
 30
0.0
  0
INSERT
  8
0
  5
438
  2
*X30
 10
404.887028
 20
457.616864
 30
0.0
  0
INSERT
  8
0
  5
439
  2
*X31
 10
394.887028
 20
457.616864
 30
0.0
  0
INSERT
  8
0
  5
43A
  2
*X32
 10
374.887028
 20
454.862228
 30
0.0
  0
INSERT
  8
0
  5
43B
  2
*X33
 10
364.887028
 20
451.804921
 30
0.0
  0
INSERT
  8
0
  5
43C
  2
*X34
 10
354.887028
 20
450.964012
 30
0.0
  0
INSERT
  8
0
  5
43D
  2
*X35
 10
341.886651
 20
452.463322
 30
0.0
  0
INSERT
  8
0
  5
43E
  2
*X36
 10
384.887028
 20
457.404835
 30
0.0
  0
INSERT
  8
0
  5
43F
  2
BLK6
 10
0.0
 20
0.0
 30
0.0
  0
INSERT
  8
0
  5
440
  2
*X38
 10
334.136532
 20
453.964001
 30
0.0
  0
INSERT
  8
0
  5
441
  2
BLK7
 10
0.0
 20
0.0
 30
0.0
  0
INSERT
  8
0
  5
442
  2
BLK8
 10
0.0
 20
0.0
 30
0.0
  0
INSERT
  8
0
  5
443
  2
BLK9
 10
0.0
 20
0.0
 30
0.0
  0
INSERT
  8
0
  5
444
  2
BLK10
 10
0.0
 20
0.0
 30
0.0
  0
DIMENSION
  8
0
  5
445
  2
*D43
 10
277.136539
 20
490.0
 30
0.0
 11
277.136539
 21
490.0
 31
0.0
  1
%%c420
 13
77.136539
 23
460.582028
 33
0.0
 14
477.136539
 24
460.616864
 34
0.0
  3
LC-DIM-L-0090-02-02
  0
LINE
  8
LC-001-002-----0
  6
CONTINUOUS
  5
447
 10
311.636539
 20
237.462631
 30
0.0
 11
313.698717
 21
237.462631
 31
0.0
  0
LINE
  8
LC-001-002-----0
  6
DASHDOT
 62
     2
  5
449
 10
207.137182
 20
460.663901
 30
0.0
 11
207.133978
 21
437.463322
 31
0.0
  0
LINE
  8
LC-001-002-----0
  6
CONTINUOUS
  5
44A
 10
164.011054
 20
460.582028
 30
0.0
 11
77.136539
 21
460.582028
 31
0.0
  0
LINE
  8
LC-001-002-----0
  6
CONTINUOUS
  5
44B
 10
344.637028
 20
444.331723
 30
0.0
 11
344.637028
 21
437.463322
 31
0.0
  0
LINE
  8
LC-001-002-----0
  6
DASHDOT
 62
     2
  5
44C
 10
347.135896
 20
460.663101
 30
0.0
 11
347.1391
 21
437.463322
 31
0.0
  0
LINE
  8
LC-001-002-----0
  6
CONTINUOUS
  5
44D
 10
344.138263
 20
452.463322
 30
0.0
 11
340.386763
 21
452.463322
 31
0.0
  0
LINE
  8
LC-001-002-----0
  6
CONTINUOUS
  5
44E
 10
349.637028
 20
444.330565
 30
0.0
 11
349.637028
 21
437.463322
 31
0.0
  0
LINE
  8
LC-001-002-----0
  6
CONTINUOUS
  5
44F
 10
349.637028
 20
437.463322
 30
0.0
 11
344.637028
 21
437.463322
 31
0.0
  0
ARC
  8
LC-001-002-----0
  6
CONTINUOUS
  5
450
 10
347.137028
 20
446.463332
 30
0.0
 40
10.0
 50
244.157941
 51
295.841807
  0
LINE
  8
LC-001-002-----0
  6
CONTINUOUS
  5
451
 10
277.136539
 20
237.462631
 30
0.0
 11
240.574361
 21
237.462631
 31
0.0
  0
LINE
  8
LC-001-002-----0
  6
CONTINUOUS
  5
452
 10
353.137061
 20
437.463319
 30
0.0
 11
351.495908
 21
437.463322
 31
0.0
  0
LINE
  8
LC-001-002-----0
  6
CONTINUOUS
  5
453
 10
353.137061
 20
450.964012
 30
0.0
 11
353.137061
 21
447.464012
 31
0.0
  0
LINE
  8
LC-001-002-----0
  6
CONTINUOUS
  5
454
 10
353.137061
 20
444.964012
 30
0.0
 11
353.137061
 21
437.463319
 31
0.0
  0
LINE
  8
LC-001-002-----0
  6
CONTINUOUS
  5
455
 10
164.040021
 20
457.582028
 30
0.0
 11
162.895722
 21
457.582028
 31
0.0
  0
LINE
  8
LC-001-002-----0
  6
CONTINUOUS
  5
456
 10
109.38605
 20
460.582028
 30
0.0
 11
109.38605
 21
457.582028
 31
0.0
  0
LINE
  8
LC-001-002-----0
  6
CONTINUOUS
  5
457
 10
342.77811
 20
437.462631
 30
0.0
 11
329.112408
 21
437.462631
 31
0.0
  0
LINE
  8
LC-001-002-----0
  6
CONTINUOUS
  5
458
 10
313.698717
 20
237.462631
 30
0.0
 11
314.636539
 21
240.962631
 31
0.0
  0
LINE
  8
LC-001-002-----0
  6
CONTINUOUS
  5
459
 10
277.136539
 20
237.462631
 30
0.0
 11
311.636539
 21
237.462631
 31
0.0
  0
LINE
  8
LC-001-002-----0
  6
CONTINUOUS
  5
45A
 10
171.7671
 20
460.32865
 30
0.0
 11
164.011054
 21
460.582028
 31
0.0
  0
LINE
  8
LC-001-002-----0
  6
CONTINUOUS
  5
45B
 10
351.518575
 20
452.464012
 30
0.0
 11
353.018575
 21
450.964012
 31
0.0
  0
LINE
  8
LC-001-002-----0
  6
CONTINUOUS
  5
45C
 10
362.136539
 20
450.964012
 30
0.0
 11
353.018575
 21
450.964012
 31
0.0
  0
LINE
  8
LC-001-002-----0
  6
CONTINUOUS
  5
45D
 10
314.636529
 20
437.048469
 30
0.0
 11
314.636539
 21
240.962631
 31
0.0
  0
LINE
  8
LC-001-002-----0
  6
CONTINUOUS
  5
45E
 10
225.136539
 20
440.464012
 30
0.0
 11
337.136565
 21
440.464012
 31
0.0
  0
LINE
  8
LC-001-002-----0
  6
CONTINUOUS
  5
45F
 10
239.636539
 20
437.048469
 30
0.0
 11
239.636539
 21
240.962631
 31
0.0
  0
LINE
  8
LC-001-002-----0
  6
CONTINUOUS
  5
460
 10
444.887028
 20
460.616864
 30
0.0
 11
444.887028
 21
457.616864
 31
0.0
  0
LINE
  8
LC-001-002-----0
  6
CONTINUOUS
  5
461
 10
337.136565
 20
440.464012
 30
0.0
 11
329.136539
 21
440.464012
 31
0.0
  0
LINE
  8
LC-001-002-----0
  6
CONTINUOUS
  5
462
 10
311.636497
 20
439.796269
 30
0.0
 11
311.636539
 21
237.462631
 31
0.0
  0
LINE
  8
LC-001-002-----0
  6
CONTINUOUS
  5
463
 10
242.636529
 20
440.005759
 30
0.0
 11
242.636539
 21
237.462631
 31
0.0
  0
LINE
  8
LC-001-002-----0
  6
CONTINUOUS
  5
464
 10
212.386427
 20
455.463322
 30
0.0
 11
212.386427
 21
452.463322
 31
0.0
  0
LINE
  8
LC-001-002-----0
  6
CONTINUOUS
  5
465
 10
199.38605
 20
453.964012
 30
0.0
 11
199.38605
 21
450.964012
 31
0.0
  0
LINE
  8
LC-001-002-----0
  6
CONTINUOUS
  5
466
 10
314.636529
 20
437.048469
 30
0.0
 11
329.112408
 21
437.462631
 31
0.0
  0
LINE
  8
LC-001-002-----0
  6
CONTINUOUS
  5
467
 10
311.636497
 20
439.796269
 30
0.0
 11
329.236539
 21
440.464012
 31
0.0
  0
LINE
  8
LC-001-002-----0
  6
CONTINUOUS
  5
468
 10
240.574361
 20
237.462631
 30
0.0
 11
239.636539
 21
240.962631
 31
0.0
  0
LINE
  8
LC-001-002-----0
  6
CONTINUOUS
  5
469
 10
194.38605
 20
453.964012
 30
0.0
 11
194.38605
 21
450.964012
 31
0.0
  0
LINE
  8
LC-001-002-----0
  6
CONTINUOUS
  5
46A
 10
189.38605
 20
454.941996
 30
0.0
 11
189.38605
 21
451.804921
 31
0.0
  0
LINE
  8
LC-005-006-MLN-0
  6
DASHDOT
  5
46D
 10
277.136539
 20
468.427099
 30
0.0
 11
277.136539
 21
227.462631
 31
0.0
  0
LINE
  8
LC-001-002-----0
  6
CONTINUOUS
  5
46E
 10
362.136539
 20
450.964012
 30
0.0
 11
382.998815
 21
457.34225
 31
0.0
  0
LINE
  8
LC-001-002-----0
  6
CONTINUOUS
  5
46F
 10
239.636548
 20
437.048469
 30
0.0
 11
225.134802
 21
437.463371
 31
0.0
  0
LINE
  8
LC-001-002-----0
  6
CONTINUOUS
  5
470
 10
242.636539
 20
440.005759
 30
0.0
 11
225.036539
 21
440.464012
 31
0.0
  0
LINE
  8
LC-001-002-----0
  6
CONTINUOUS
  5
471
 10
362.753683
 20
447.464012
 30
0.0
 11
383.34697
 21
453.761423
 31
0.0
  0
LINE
  8
LC-001-002-----0
  6
CONTINUOUS
  5
472
 10
242.636539
 20
440.005759
 30
0.0
 11
311.636497
 21
439.796269
 31
0.0
  0
LINE
  8
LC-001-002-----0
  6
CONTINUOUS
  5
473
 10
217.136427
 20
440.464012
 30
0.0
 11
225.036539
 21
440.464012
 31
0.0
  0
LINE
  8
LC-001-002-----0
  6
CONTINUOUS
  5
474
 10
184.38605
 20
456.47065
 30
0.0
 11
184.38605
 21
453.333575
 31
0.0
  0
LINE
  8
LC-001-002-----0
  6
CONTINUOUS
  5
475
 10
179.38605
 20
457.999303
 30
0.0
 11
179.38605
 21
454.862228
 31
0.0
  0
ARC
  8
LC-007-002-RND-0
  6
CONTINUOUS
  5
477
 10
390.299311
 20
455.583126
 30
0.0
 40
2.0
 50
360.0
 51
91.898364
  0
LINE
  8
LC-001-002-----0
  6
CONTINUOUS
  5
478
 10
162.895722
 20
457.582028
 30
0.0
 11
77.136539
 21
457.582028
 31
0.0
  0
LINE
  8
LC-001-002-----0
  6
CONTINUOUS
  5
479
 10
161.973767
 20
454.101982
 30
0.0
 11
161.973767
 21
455.583126
 31
0.0
  0
LINE
  8
LC-001-002-----0
  6
CONTINUOUS
  5
47A
 10
174.38605
 20
459.527957
 30
0.0
 11
174.38605
 21
456.390881
 31
0.0
  0
LINE
  8
LC-001-002-----0
  6
CONTINUOUS
  5
47B
 10
77.136539
 20
460.582028
 30
0.0
 11
77.136539
 21
457.582028
 31
0.0
  0
LINE
  8
LC-001-002-----0
  6
CONTINUOUS
  5
47C
 10
192.584892
 20
453.964012
 30
0.0
 11
171.7671
 21
460.32865
 31
0.0
  0
LINE
  8
LC-001-002-----0
  6
CONTINUOUS
  5
47D
 10
201.511171
 20
455.463322
 30
0.0
 11
200.011862
 21
453.964012
 31
0.0
  0
LINE
  8
LC-001-002-----0
  6
CONTINUOUS
  5
47E
 10
191.707412
 20
447.406517
 30
0.0
 11
170.926108
 21
453.761423
 31
0.0
  0
LINE
  8
LC-001-002-----0
  6
CONTINUOUS
  5
47F
 10
204.13605
 20
455.463322
 30
0.0
 11
201.511171
 21
455.463322
 31
0.0
  0
LINE
  8
LC-001-002-----0
  6
CONTINUOUS
  5
480
 10
217.136427
 20
455.463322
 30
0.0
 11
210.13605
 21
455.463322
 31
0.0
  0
LINE
  8
LC-008-004-----0
  6
CONTINUOUS
  5
482
 10
207.134352
 20
440.166703
 30
0.0
 11
207.136033
 21
440.163901
 31
0.0
  0
LINE
  8
LC-001-002-----0
  6
CONTINUOUS
  5
483
 10
164.38605
 20
460.569777
 30
0.0
 11
164.38605
 21
457.570559
 31
0.0
  0
LINE
  8
LC-001-002-----0
  6
CONTINUOUS
  5
484
 10
192.136539
 20
450.964012
 30
0.0
 11
171.274263
 21
457.34225
 31
0.0
  0
LINE
  8
LC-001-002-----0
  6
CONTINUOUS
  5
485
 10
392.299311
 20
454.101982
 30
0.0
 11
392.299311
 21
455.583126
 31
0.0
  0
LINE
  8
LC-001-002-----0
  6
CONTINUOUS
  5
486
 10
202.754502
 20
452.464012
 30
0.0
 11
201.254502
 21
450.964012
 31
0.0
  0
LINE
  8
LC-001-002-----0
  6
CONTINUOUS
  5
487
 10
169.38605
 20
460.406435
 30
0.0
 11
169.38605
 21
457.404835
 31
0.0
  0
LINE
  8
LC-001-002-----0
  6
CONTINUOUS
  5
488
 10
225.136539
 20
440.464012
 30
0.0
 11
225.036539
 21
440.464012
 31
0.0
  0
LINE
  8
LC-001-002-----0
  6
CONTINUOUS
  5
489
 10
222.136539
 20
437.463322
 30
0.0
 11
222.136539
 21
437.463296
 31
0.0
  0
LINE
  8
LC-001-002-----0
  6
CONTINUOUS
  5
48A
 10
159.38605
 20
460.582028
 30
0.0
 11
159.38605
 21
457.582028
 31
0.0
  0
LINE
  8
LC-001-002-----0
  6
CONTINUOUS
  5
48B
 10
154.38605
 20
460.582028
 30
0.0
 11
154.38605
 21
457.582028
 31
0.0
  0
LINE
  8
LC-001-002-----0
  6
CONTINUOUS
  5
48C
 10
149.38605
 20
460.582028
 30
0.0
 11
149.38605
 21
457.582028
 31
0.0
  0
LINE
  8
LC-001-002-----0
  6
CONTINUOUS
  5
48D
 10
144.38605
 20
460.582028
 30
0.0
 11
144.38605
 21
457.582028
 31
0.0
  0
LINE
  8
LC-001-002-----0
  6
CONTINUOUS
  5
48E
 10
139.38605
 20
460.582028
 30
0.0
 11
139.38605
 21
457.582028
 31
0.0
  0
LINE
  8
LC-001-002-----0
  6
CONTINUOUS
  5
48F
 10
134.38605
 20
460.582028
 30
0.0
 11
134.38605
 21
457.582028
 31
0.0
  0
LINE
  8
LC-001-002-----0
  6
CONTINUOUS
  5
490
 10
129.38605
 20
460.582028
 30
0.0
 11
129.38605
 21
457.582028
 31
0.0
  0
LINE
  8
LC-001-002-----0
  6
CONTINUOUS
  5
491
 10
124.38605
 20
460.582028
 30
0.0
 11
124.38605
 21
457.582028
 31
0.0
  0
LINE
  8
LC-001-002-----0
  6
CONTINUOUS
  5
492
 10
332.136539
 20
437.463322
 30
0.0
 11
332.136539
 21
437.463322
 31
0.0
  0
LINE
  8
LC-001-002-----0
  6
CONTINUOUS
  5
493
 10
329.136539
 20
440.464012
 30
0.0
 11
329.236539
 21
440.464012
 31
0.0
  0
LINE
  8
LC-001-002-----0
  6
CONTINUOUS
  5
494
 10
383.34697
 20
453.761423
 30
0.0
 11
392.299311
 21
454.101982
 31
0.0
  0
LINE
  8
LC-001-002-----0
  6
CONTINUOUS
  5
495
 10
119.38605
 20
460.582028
 30
0.0
 11
119.38605
 21
457.582028
 31
0.0
  0
LINE
  8
LC-001-002-----0
  6
CONTINUOUS
  5
496
 10
351.518575
 20
452.464012
 30
0.0
 11
350.137012
 21
452.464012
 31
0.0
  0
LINE
  8
LC-001-002-----0
  6
CONTINUOUS
  5
497
 10
382.998815
 20
457.34225
 30
0.0
 11
390.233057
 21
457.582028
 31
0.0
  0
LINE
  8
LC-009-005-----0
  6
CONTINUOUS
  5
498
 10
240.514492
 20
237.686065
 30
0.0
 11
242.636539
 21
239.808112
 31
0.0
  0
LINE
  8
LC-001-002-----0
  6
CONTINUOUS
  5
499
 10
337.136565
 20
452.463322
 30
0.0
 11
340.386763
 21
452.463322
 31
0.0
  0
LINE
  8
LC-009-005-----0
  6
CONTINUOUS
  5
49A
 10
239.916775
 20
239.916775
 30
0.0
 11
242.636539
 21
242.636539
 31
0.0
  0
LINE
  8
LC-001-002-----0
  6
CONTINUOUS
  5
49B
 10
114.38605
 20
460.582028
 30
0.0
 11
114.38605
 21
457.582028
 31
0.0
  0
LINE
  8
LC-001-002-----0
  6
CONTINUOUS
  5
49C
 10
104.38605
 20
460.582028
 30
0.0
 11
104.38605
 21
457.582028
 31
0.0
  0
LINE
  8
LC-001-002-----0
  6
CONTINUOUS
  5
49D
 10
99.38605
 20
460.582028
 30
0.0
 11
99.38605
 21
457.582028
 31
0.0
  0
LINE
  8
LC-001-002-----0
  6
CONTINUOUS
  5
49E
 10
94.38605
 20
460.582028
 30
0.0
 11
94.38605
 21
457.582028
 31
0.0
  0
LINE
  8
LC-001-002-----0
  6
CONTINUOUS
  5
49F
 10
89.38605
 20
460.582028
 30
0.0
 11
89.38605
 21
457.582028
 31
0.0
  0
LINE
  8
LC-001-002-----0
  6
CONTINUOUS
  5
4A0
 10
84.38605
 20
460.458313
 30
0.0
 11
84.38605
 21
457.458313
 31
0.0
  0
LINE
  8
LC-001-002-----0
  6
CONTINUOUS
  5
4A1
 10
79.38605
 20
460.582028
 30
0.0
 11
79.38605
 21
457.582028
 31
0.0
  0
LINE
  8
LC-001-002-----0
  6
CONTINUOUS
  5
4A2
 10
351.518575
 20
452.464012
 30
0.0
 11
353.018575
 21
450.964012
 31
0.0
  0
LINE
  8
LC-001-002-----0
  6
CONTINUOUS
  5
4A3
 10
337.136565
 20
455.463322
 30
0.0
 11
337.136565
 21
440.464012
 31
0.0
  0
LINE
  8
LC-001-002-----0
  6
CONTINUOUS
  5
4A4
 10
204.63605
 20
437.463322
 30
0.0
 11
209.63605
 21
437.463322
 31
0.0
  0
LINE
  8
LC-001-002-----0
  6
CONTINUOUS
  5
4A5
 10
209.63605
 20
444.331723
 30
0.0
 11
209.63605
 21
437.463322
 31
0.0
  0
LINE
  8
LC-001-002-----0
  6
CONTINUOUS
  5
4A6
 10
204.63605
 20
444.330565
 30
0.0
 11
204.63605
 21
437.463322
 31
0.0
  0
LINE
  8
LC-001-002-----0
  6
CONTINUOUS
  5
4A7
 10
201.136017
 20
443.917442
 30
0.0
 11
201.136017
 21
437.463319
 31
0.0
  0
LINE
  8
LC-001-002-----0
  6
CONTINUOUS
  5
4A8
 10
201.136017
 20
437.463319
 30
0.0
 11
202.77717
 21
437.463322
 31
0.0
  0
LINE
  8
LC-001-002-----0
  6
CONTINUOUS
  5
4A9
 10
201.136017
 20
444.964012
 30
0.0
 11
201.136017
 21
443.917442
 31
0.0
  0
LINE
  8
LC-001-002-----0
  6
CONTINUOUS
  5
4AA
 10
337.136146
 20
452.463322
 30
0.0
 11
210.134815
 21
452.463322
 31
0.0
  0
LINE
  8
LC-001-002-----0
  6
CONTINUOUS
  5
4AB
 10
391.328366
 20
460.616864
 30
0.0
 11
477.136539
 21
460.616864
 31
0.0
  0
LINE
  8
LC-001-002-----0
  6
CONTINUOUS
  5
4AC
 10
204.136066
 20
452.463322
 30
0.0
 11
202.754502
 21
452.463322
 31
0.0
  0
LINE
  8
LC-009-005-----0
  6
CONTINUOUS
  5
4AD
 10
239.636539
 20
242.464966
 30
0.0
 11
242.636539
 21
245.464966
 31
0.0
  0
LINE
  8
LC-009-005-----0
  6
CONTINUOUS
  5
4AE
 10
239.636539
 20
245.293393
 30
0.0
 11
242.636538
 21
248.293393
 31
0.0
  0
LINE
  8
LC-009-005-----0
  6
CONTINUOUS
  5
4AF
 10
239.636539
 20
248.12182
 30
0.0
 11
242.636538
 21
251.12182
 31
0.0
  0
LINE
  8
LC-001-002-----0
  6
CONTINUOUS
  5
4B0
 10
215.386539
 20
452.464012
 30
0.0
 11
217.136427
 21
452.464012
 31
0.0
  0
LINE
  8
LC-001-002-----0
  6
CONTINUOUS
  5
4B1
 10
201.254502
 20
450.964012
 30
0.0
 11
201.136539
 21
450.964012
 31
0.0
  0
LINE
  8
LC-001-002-----0
  6
CONTINUOUS
  5
4B2
 10
217.136427
 20
455.463322
 30
0.0
 11
217.136427
 21
440.464012
 31
0.0
  0
ARC
  8
LC-001-002-----0
  6
CONTINUOUS
  5
4B3
 10
207.13605
 20
446.463332
 30
0.0
 40
10.0
 50
244.158193
 51
295.842059
  0
LINE
  8
LC-008-004-----0
  6
CONTINUOUS
  5
4B4
 10
207.135693
 20
440.164468
 30
0.0
 11
207.134807
 21
440.162992
 31
0.0
  0
LINE
  8
LC-001-002-----0
  6
CONTINUOUS
  5
4B5
 10
211.494968
 20
437.463342
 30
0.0
 11
225.134802
 21
437.463371
 31
0.0
  0
LINE
  8
LC-008-004-----0
  6
CONTINUOUS
  5
4B6
 10
201.136079
 20
457.163917
 30
0.0
 11
207.136079
 21
457.163901
 31
0.0
  0
LINE
  8
LC-008-004-----0
  6
CONTINUOUS
  5
4B7
 10
204.136078
 20
457.097915
 30
0.0
 11
204.136046
 21
445.163909
 31
0.0
  0
LINE
  8
LC-008-004-----0
  6
CONTINUOUS
  5
4B8
 10
204.136046
 20
445.163909
 30
0.0
 11
207.134352
 21
440.166703
 31
0.0
  0
LINE
  8
LC-008-004-----0
  6
CONTINUOUS
 62
     2
  5
4B9
 10
205.136075
 20
455.663906
 30
0.0
 11
205.136042
 21
443.663906
 31
0.0
  0
LINE
  8
LC-008-004-----0
  6
CONTINUOUS
  5
4BA
 10
206.336088
 20
460.663903
 30
0.0
 11
206.336084
 21
459.163903
 31
0.0
  0
LINE
  8
LC-008-004-----0
  6
CONTINUOUS
  5
4BB
 10
206.336084
 20
459.163903
 30
0.0
 11
207.136084
 21
459.163901
 31
0.0
  0
LINE
  8
LC-008-004-----0
  6
CONTINUOUS
  5
4BC
 10
204.136046
 20
445.163909
 30
0.0
 11
207.136046
 21
445.163901
 31
0.0
  0
LINE
  8
LC-008-004-----0
  6
CONTINUOUS
  5
4BD
 10
213.134818
 20
457.162988
 30
0.0
 11
207.134818
 21
457.162992
 31
0.0
  0
LINE
  8
LC-008-004-----0
  6
CONTINUOUS
  5
4BE
 10
210.134818
 20
457.163925
 30
0.0
 11
210.13481
 21
445.16299
 31
0.0
  0
LINE
  8
LC-008-004-----0
  6
CONTINUOUS
  5
4BF
 10
210.13481
 20
445.16299
 30
0.0
 11
207.134351
 21
440.162232
 31
0.0
  0
LINE
  8
LC-008-004-----0
  6
CONTINUOUS
 62
     2
  5
4C0
 10
210.134817
 20
455.66299
 30
0.0
 11
204.136075
 21
455.662994
 31
0.0
  0
LINE
  8
LC-008-004-----0
  6
CONTINUOUS
 62
     2
  5
4C1
 10
209.134817
 20
455.66299
 30
0.0
 11
209.134809
 21
443.662991
 31
0.0
  0
LINE
  8
LC-008-004-----0
  6
CONTINUOUS
  5
4C2
 10
207.93482
 20
460.662991
 30
0.0
 11
207.934819
 21
459.162991
 31
0.0
  0
LINE
  8
LC-008-004-----0
  6
CONTINUOUS
  5
4C3
 10
207.934819
 20
459.162991
 30
0.0
 11
207.134819
 21
459.162992
 31
0.0
  0
LINE
  8
LC-008-004-----0
  6
CONTINUOUS
  5
4C4
 10
210.13481
 20
445.16299
 30
0.0
 11
207.13481
 21
445.162992
 31
0.0
  0
LINE
  8
LC-008-004-----0
  6
CONTINUOUS
  5
4C5
 10
201.136085
 20
459.663917
 30
0.0
 11
201.136079
 21
457.163917
 31
0.0
  0
ARC
  8
LC-008-004-----0
  6
CONTINUOUS
  5
4C6
 10
202.136085
 20
459.663914
 30
0.0
 40
1.0
 50
89.99996
 51
179.999846
  0
LINE
  8
LC-008-004-----0
  6
CONTINUOUS
  5
4C7
 10
206.336088
 20
460.663903
 30
0.0
 11
202.136088
 21
460.663914
 31
0.0
  0
LINE
  8
LC-001-002-----0
  6
CONTINUOUS
  5
4C8
 10
192.584892
 20
453.963998
 30
0.0
 11
200.011863
 21
453.964014
 31
0.0
  0
LINE
  8
LC-008-004-----0
  6
CONTINUOUS
  5
4C9
 10
213.13482
 20
459.662988
 30
0.0
 11
213.134818
 21
457.162988
 31
0.0
  0
ARC
  8
LC-008-004-----0
  6
CONTINUOUS
  5
4CA
 10
212.13482
 20
459.662988
 30
0.0
 40
1.0
 50
359.999963
 51
90.000002
  0
LINE
  8
LC-008-004-----0
  6
CONTINUOUS
  5
4CB
 10
207.93482
 20
460.662991
 30
0.0
 11
212.13482
 21
460.662988
 31
0.0
  0
ARC
  8
LC-007-002-RND-0
  6
CONTINUOUS
  5
4CC
 10
202.157232
 20
456.46387
 30
0.0
 40
0.7
 50
90.000358
 51
135.0
  0
ARC
  8
LC-007-002-RND-0
  6
CONTINUOUS
  5
4CD
 10
213.136054
 20
456.463938
 30
0.0
 40
0.7
 50
36.870027
 51
90.000358
  0
LINE
  8
LC-001-002-----0
  6
CONTINUOUS
  5
4CE
 10
382.505978
 20
460.32865
 30
0.0
 11
391.328366
 21
460.616864
 31
0.0
  0
ARC
  8
LC-007-002-RND-0
  6
CONTINUOUS
  5
4CF
 10
214.236051
 20
456.163945
 30
0.0
 40
0.7
 50
216.870027
 51
270.000358
  0
LINE
  8
LC-001-002-----0
  6
CONTINUOUS
  5
4D0
 10
214.236051
 20
456.163945
 30
0.0
 11
213.696053
 21
456.883939
 31
0.0
  0
LINE
  8
LC-001-002-----0
  6
CONTINUOUS
  5
4D1
 10
214.236056
 20
455.463945
 30
0.0
 11
219.136544
 21
455.463976
 31
0.0
  0
LINE
  8
LC-001-002-----0
  6
CONTINUOUS
  5
4D2
 10
194.948084
 20
453.964003
 30
0.0
 11
199.243171
 21
453.964012
 31
0.0
  0
ARC
  8
LC-007-002-RND-0
  6
CONTINUOUS
  5
4D3
 10
199.243161
 20
454.964012
 30
0.0
 40
1.0
 50
270.000575
 51
315.0
  0
LINE
  8
LC-001-002-----0
  6
CONTINUOUS
  5
4D4
 10
202.157232
 20
456.46387
 30
0.0
 11
199.950268
 21
454.256905
 31
0.0
  0
ARC
  8
LC-001-002-----0
  6
CONTINUOUS
  5
4D5
 10
219.136546
 20
455.163976
 30
0.0
 40
1.0
 50
270.0
 51
90.001713
  0
ARC
  8
LC-001-002-----0
  6
CONTINUOUS
  5
4D6
 10
194.951203
 20
456.964001
 30
0.0
 40
3.0
 50
199.47104
 51
270.059811
  0
LINE
  8
LC-001-002-----0
  6
CONTINUOUS
  5
4D7
 10
213.676052
 20
455.743944
 30
0.0
 11
213.136054
 21
456.463938
 31
0.0
  0
LINE
  8
LC-001-002-----0
  6
CONTINUOUS
  5
4D8
 10
219.136548
 20
454.863976
 30
0.0
 11
217.636546
 21
454.863966
 31
0.0
  0
LINE
  8
LC-001-002-----0
  6
CONTINUOUS
  5
4D9
 10
217.636546
 20
454.863966
 30
0.0
 11
217.636546
 21
454.163966
 31
0.0
  0
ARC
  8
LC-001-002-----0
  6
CONTINUOUS
  5
4DA
 10
219.136546
 20
455.163976
 30
0.0
 40
0.3
 50
269.991704
 51
90.009012
  0
LINE
  8
LC-001-002-----0
  6
CONTINUOUS
  5
4DB
 10
213.136054
 20
456.463938
 30
0.0
 11
210.886054
 21
456.463924
 31
0.0
  0
LINE
  8
LC-001-002-----0
  6
CONTINUOUS
  5
4DC
 10
210.886054
 20
456.463924
 30
0.0
 11
210.886054
 21
457.163924
 31
0.0
  0
LINE
  8
LC-001-002-----0
  6
CONTINUOUS
  5
4DD
 10
210.886054
 20
457.163924
 30
0.0
 11
213.136049
 21
457.163938
 31
0.0
  0
LINE
  8
LC-001-002-----0
  6
CONTINUOUS
  5
4DE
 10
202.157232
 20
456.46387
 30
0.0
 11
203.386054
 21
456.463877
 31
0.0
  0
LINE
  8
LC-001-002-----0
  6
CONTINUOUS
  5
4DF
 10
203.386054
 20
456.463877
 30
0.0
 11
203.386054
 21
457.163877
 31
0.0
  0
LINE
  8
LC-001-002-----0
  6
CONTINUOUS
  5
4E0
 10
203.386054
 20
457.163877
 30
0.0
 11
202.157228
 21
457.16387
 31
0.0
  0
ARC
  8
LC-001-002-----0
  6
CONTINUOUS
  5
4E1
 10
194.951203
 20
456.950466
 30
0.0
 40
2.286465
 50
205.55853
 51
270.0
  0
LINE
  8
LC-001-002-----0
  6
CONTINUOUS
  5
4E2
 10
201.662257
 20
456.958844
 30
0.0
 11
199.455293
 21
454.75188
 31
0.0
  0
ARC
  8
LC-001-002-----0
  6
CONTINUOUS
  5
4E3
 10
199.243161
 20
454.964012
 30
0.0
 40
0.3
 50
270.000126
 51
315.0
  0
LINE
  8
LC-001-002-----0
  6
CONTINUOUS
  5
4E4
 10
199.243162
 20
454.664012
 30
0.0
 11
194.948619
 21
454.664003
 31
0.0
  0
LINE
  8
LC-001-002-----0
  6
CONTINUOUS
  5
4E5
 10
219.13654
 20
456.163976
 30
0.0
 11
214.236051
 21
456.163945
 31
0.0
  0
LINE
  8
LC-001-002-----0
  6
CONTINUOUS
  5
4E6
 10
192.122772
 20
455.96401
 30
0.0
 11
192.88848
 21
455.96401
 31
0.0
  0
LINE
  8
LC-001-002-----0
  6
CONTINUOUS
  5
4E7
 10
219.136546
 20
454.163976
 30
0.0
 11
217.636546
 21
454.163976
 31
0.0
  0
LINE
  8
LC-001-002-----0
  6
CONTINUOUS
  5
4E8
 10
341.886651
 20
455.463322
 30
0.0
 11
341.886651
 21
452.463322
 31
0.0
  0
LINE
  8
LC-001-002-----0
  6
CONTINUOUS
  5
4E9
 10
354.887028
 20
453.964012
 30
0.0
 11
354.887028
 21
450.964012
 31
0.0
  0
LINE
  8
LC-001-002-----0
  6
CONTINUOUS
  5
4EA
 10
359.887028
 20
453.964012
 30
0.0
 11
359.887028
 21
450.964012
 31
0.0
  0
LINE
  8
LC-001-002-----0
  6
CONTINUOUS
  5
4EB
 10
364.887028
 20
454.941996
 30
0.0
 11
364.887028
 21
451.804921
 31
0.0
  0
LINE
  8
LC-001-002-----0
  6
CONTINUOUS
  5
4EC
 10
369.887028
 20
456.47065
 30
0.0
 11
369.887028
 21
453.333575
 31
0.0
  0
LINE
  8
LC-001-002-----0
  6
CONTINUOUS
  5
4ED
 10
374.887028
 20
457.999303
 30
0.0
 11
374.887028
 21
454.862228
 31
0.0
  0
LINE
  8
LC-001-002-----0
  6
CONTINUOUS
  5
4EE
 10
390.299311
 20
457.616864
 30
0.0
 11
477.136539
 21
457.616864
 31
0.0
  0
LINE
  8
LC-001-002-----0
  6
CONTINUOUS
  5
4EF
 10
379.887028
 20
459.527957
 30
0.0
 11
379.887028
 21
456.390881
 31
0.0
  0
LINE
  8
LC-001-002-----0
  6
CONTINUOUS
  5
4F0
 10
477.136539
 20
460.616864
 30
0.0
 11
477.136539
 21
457.616864
 31
0.0
  0
LINE
  8
LC-001-002-----0
  6
CONTINUOUS
  5
4F1
 10
361.688186
 20
453.964012
 30
0.0
 11
382.505978
 21
460.32865
 31
0.0
  0
LINE
  8
LC-001-002-----0
  6
CONTINUOUS
  5
4F2
 10
352.761907
 20
455.463322
 30
0.0
 11
354.261216
 21
453.964012
 31
0.0
  0
LINE
  8
LC-001-002-----0
  6
CONTINUOUS
  5
4F3
 10
350.137028
 20
455.463322
 30
0.0
 11
352.761907
 21
455.463322
 31
0.0
  0
LINE
  8
LC-001-002-----0
  6
CONTINUOUS
  5
4F4
 10
337.136651
 20
455.463322
 30
0.0
 11
344.137028
 21
455.463322
 31
0.0
  0
LINE
  8
LC-001-002-----0
  6
CONTINUOUS
  5
4F5
 10
389.887028
 20
460.569777
 30
0.0
 11
389.887028
 21
457.568177
 31
0.0
  0
LINE
  8
LC-001-002-----0
  6
CONTINUOUS
  5
4F6
 10
384.887028
 20
460.406435
 30
0.0
 11
384.887028
 21
457.404835
 31
0.0
  0
LINE
  8
LC-001-002-----0
  6
CONTINUOUS
  5
4F7
 10
394.887028
 20
460.616864
 30
0.0
 11
394.887028
 21
457.616864
 31
0.0
  0
LINE
  8
LC-001-002-----0
  6
CONTINUOUS
  5
4F8
 10
399.887028
 20
460.616864
 30
0.0
 11
399.887028
 21
457.616864
 31
0.0
  0
LINE
  8
LC-001-002-----0
  6
CONTINUOUS
  5
4F9
 10
404.887028
 20
460.616864
 30
0.0
 11
404.887028
 21
457.616864
 31
0.0
  0
LINE
  8
LC-001-002-----0
  6
CONTINUOUS
  5
4FA
 10
409.887028
 20
460.616864
 30
0.0
 11
409.887028
 21
457.616864
 31
0.0
  0
LINE
  8
LC-001-002-----0
  6
CONTINUOUS
  5
4FB
 10
414.887028
 20
460.616864
 30
0.0
 11
414.887028
 21
457.616864
 31
0.0
  0
LINE
  8
LC-001-002-----0
  6
CONTINUOUS
  5
4FC
 10
419.887028
 20
460.616864
 30
0.0
 11
419.887028
 21
457.616864
 31
0.0
  0
LINE
  8
LC-001-002-----0
  6
CONTINUOUS
  5
4FD
 10
424.887028
 20
460.616864
 30
0.0
 11
424.887028
 21
457.616864
 31
0.0
  0
LINE
  8
LC-001-002-----0
  6
CONTINUOUS
  5
4FE
 10
429.887028
 20
460.616864
 30
0.0
 11
429.887028
 21
457.616864
 31
0.0
  0
LINE
  8
LC-001-002-----0
  6
CONTINUOUS
  5
4FF
 10
434.887028
 20
460.616864
 30
0.0
 11
434.887028
 21
457.616864
 31
0.0
  0
LINE
  8
LC-001-002-----0
  6
CONTINUOUS
  5
500
 10
439.887028
 20
460.616864
 30
0.0
 11
439.887028
 21
457.616864
 31
0.0
  0
LINE
  8
LC-001-002-----0
  6
CONTINUOUS
  5
501
 10
449.887028
 20
460.616864
 30
0.0
 11
449.887028
 21
457.616864
 31
0.0
  0
LINE
  8
LC-001-002-----0
  6
CONTINUOUS
  5
502
 10
454.887028
 20
460.616864
 30
0.0
 11
454.887028
 21
457.616864
 31
0.0
  0
LINE
  8
LC-001-002-----0
  6
CONTINUOUS
  5
503
 10
459.887028
 20
460.616864
 30
0.0
 11
459.887028
 21
457.616864
 31
0.0
  0
LINE
  8
LC-001-002-----0
  6
CONTINUOUS
  5
504
 10
464.887028
 20
460.616864
 30
0.0
 11
464.887028
 21
457.616864
 31
0.0
  0
LINE
  8
LC-001-002-----0
  6
CONTINUOUS
  5
505
 10
469.887028
 20
460.616864
 30
0.0
 11
469.887028
 21
457.616864
 31
0.0
  0
LINE
  8
LC-001-002-----0
  6
CONTINUOUS
  5
506
 10
474.887028
 20
460.616864
 30
0.0
 11
474.887028
 21
457.616864
 31
0.0
  0
LINE
  8
LC-008-004-----0
  6
CONTINUOUS
  5
507
 10
353.136999
 20
457.163917
 30
0.0
 11
347.136999
 21
457.163901
 31
0.0
  0
LINE
  8
LC-008-004-----0
  6
CONTINUOUS
  5
508
 10
350.136999
 20
457.163909
 30
0.0
 11
350.137032
 21
445.163909
 31
0.0
  0
LINE
  8
LC-008-004-----0
  6
CONTINUOUS
  5
509
 10
350.137032
 20
445.163909
 30
0.0
 11
347.137045
 21
440.163901
 31
0.0
  0
LINE
  8
LC-008-004-----0
  6
CONTINUOUS
 62
     2
  5
50A
 10
349.137003
 20
455.663906
 30
0.0
 11
349.137036
 21
443.663906
 31
0.0
  0
LINE
  8
LC-008-004-----0
  6
CONTINUOUS
  5
50B
 10
347.93699
 20
460.663903
 30
0.0
 11
347.936994
 21
459.163903
 31
0.0
  0
LINE
  8
LC-008-004-----0
  6
CONTINUOUS
  5
50C
 10
347.936994
 20
459.163903
 30
0.0
 11
347.136994
 21
459.163901
 31
0.0
  0
LINE
  8
LC-008-004-----0
  6
CONTINUOUS
  5
50D
 10
350.137032
 20
445.163909
 30
0.0
 11
347.137032
 21
445.163901
 31
0.0
  0
LINE
  8
LC-008-004-----0
  6
CONTINUOUS
  5
50E
 10
341.13826
 20
457.162988
 30
0.0
 11
347.13826
 21
457.162992
 31
0.0
  0
LINE
  8
LC-008-004-----0
  6
CONTINUOUS
  5
50F
 10
344.13826
 20
457.16299
 30
0.0
 11
344.138268
 21
445.16299
 31
0.0
  0
LINE
  8
LC-008-004-----0
  6
CONTINUOUS
  5
510
 10
344.138268
 20
445.16299
 30
0.0
 11
347.138271
 21
440.162992
 31
0.0
  0
LINE
  8
LC-008-004-----0
  6
CONTINUOUS
 62
     2
  5
511
 10
344.138261
 20
455.66299
 30
0.0
 11
350.137003
 21
455.662994
 31
0.0
  0
LINE
  8
LC-008-004-----0
  6
CONTINUOUS
 62
     2
  5
512
 10
345.138261
 20
455.66299
 30
0.0
 11
345.138269
 21
443.662991
 31
0.0
  0
LINE
  8
LC-008-004-----0
  6
CONTINUOUS
  5
513
 10
346.338258
 20
460.662991
 30
0.0
 11
346.338259
 21
459.162991
 31
0.0
  0
LINE
  8
LC-008-004-----0
  6
CONTINUOUS
  5
514
 10
346.338259
 20
459.162991
 30
0.0
 11
347.138259
 21
459.162992
 31
0.0
  0
LINE
  8
LC-008-004-----0
  6
CONTINUOUS
  5
515
 10
344.138268
 20
445.16299
 30
0.0
 11
347.138268
 21
445.162992
 31
0.0
  0
LINE
  8
LC-008-004-----0
  6
CONTINUOUS
  5
516
 10
353.136993
 20
459.663917
 30
0.0
 11
353.136999
 21
457.163917
 31
0.0
  0
ARC
  8
LC-008-004-----0
  6
CONTINUOUS
  5
517
 10
352.136993
 20
459.663914
 30
0.0
 40
1.0
 50
0.000154
 51
90.00004
  0
LINE
  8
LC-008-004-----0
  6
CONTINUOUS
  5
518
 10
347.93699
 20
460.663903
 30
0.0
 11
352.13699
 21
460.663914
 31
0.0
  0
LINE
  8
LC-001-002-----0
  6
CONTINUOUS
  5
519
 10
361.688186
 20
453.963998
 30
0.0
 11
354.261214
 21
453.964014
 31
0.0
  0
LINE
  8
LC-008-004-----0
  6
CONTINUOUS
  5
51A
 10
341.138258
 20
459.662988
 30
0.0
 11
341.13826
 21
457.162988
 31
0.0
  0
ARC
  8
LC-008-004-----0
  6
CONTINUOUS
  5
51B
 10
342.138258
 20
459.662988
 30
0.0
 40
1.0
 50
89.999998
 51
180.000037
  0
LINE
  8
LC-008-004-----0
  6
CONTINUOUS
  5
51C
 10
346.338258
 20
460.662991
 30
0.0
 11
342.138258
 21
460.662988
 31
0.0
  0
ARC
  8
LC-007-002-RND-0
  6
CONTINUOUS
  5
51D
 10
352.115846
 20
456.46387
 30
0.0
 40
0.7
 50
45.0
 51
89.999642
  0
ARC
  8
LC-007-002-RND-0
  6
CONTINUOUS
  5
51E
 10
341.137024
 20
456.463938
 30
0.0
 40
0.7
 50
89.999642
 51
143.129973
  0
ARC
  8
LC-007-002-RND-0
  6
CONTINUOUS
  5
51F
 10
340.037027
 20
456.163945
 30
0.0
 40
0.7
 50
269.999642
 51
323.129973
  0
LINE
  8
LC-001-002-----0
  6
CONTINUOUS
  5
520
 10
340.037027
 20
456.163945
 30
0.0
 11
340.577025
 21
456.883939
 31
0.0
  0
LINE
  8
LC-001-002-----0
  6
CONTINUOUS
  5
521
 10
340.037022
 20
455.463945
 30
0.0
 11
335.136534
 21
455.463976
 31
0.0
  0
LINE
  8
LC-001-002-----0
  6
CONTINUOUS
  5
522
 10
359.324994
 20
453.964003
 30
0.0
 11
355.029907
 21
453.964012
 31
0.0
  0
ARC
  8
LC-007-002-RND-0
  6
CONTINUOUS
  5
523
 10
355.029917
 20
454.964012
 30
0.0
 40
1.0
 50
225.0
 51
269.999425
  0
LINE
  8
LC-001-002-----0
  6
CONTINUOUS
  5
524
 10
352.115846
 20
456.46387
 30
0.0
 11
354.32281
 21
454.256905
 31
0.0
  0
ARC
  8
LC-001-002-----0
  6
CONTINUOUS
  5
525
 10
335.136532
 20
455.163976
 30
0.0
 40
1.0
 50
89.998287
 51
270.0
  0
ARC
  8
LC-001-002-----0
  6
CONTINUOUS
  5
526
 10
359.321875
 20
456.964001
 30
0.0
 40
3.0
 50
269.940189
 51
340.52896
  0
LINE
  8
LC-001-002-----0
  6
CONTINUOUS
  5
527
 10
340.597026
 20
455.743944
 30
0.0
 11
341.137024
 21
456.463938
 31
0.0
  0
LINE
  8
LC-001-002-----0
  6
CONTINUOUS
  5
528
 10
335.13653
 20
454.863976
 30
0.0
 11
336.636532
 21
454.863966
 31
0.0
  0
LINE
  8
LC-001-002-----0
  6
CONTINUOUS
  5
529
 10
336.636532
 20
454.863966
 30
0.0
 11
336.636532
 21
454.163966
 31
0.0
  0
ARC
  8
LC-001-002-----0
  6
CONTINUOUS
  5
52A
 10
335.136532
 20
455.163976
 30
0.0
 40
0.3
 50
89.990988
 51
270.008296
  0
LINE
  8
LC-001-002-----0
  6
CONTINUOUS
  5
52B
 10
341.137024
 20
456.463938
 30
0.0
 11
343.387024
 21
456.463924
 31
0.0
  0
LINE
  8
LC-001-002-----0
  6
CONTINUOUS
  5
52C
 10
343.387024
 20
456.463924
 30
0.0
 11
343.387024
 21
457.163924
 31
0.0
  0
LINE
  8
LC-001-002-----0
  6
CONTINUOUS
  5
52D
 10
343.387024
 20
457.163924
 30
0.0
 11
341.137028
 21
457.163938
 31
0.0
  0
LINE
  8
LC-001-002-----0
  6
CONTINUOUS
  5
52E
 10
352.115846
 20
456.46387
 30
0.0
 11
350.887024
 21
456.463877
 31
0.0
  0
LINE
  8
LC-001-002-----0
  6
CONTINUOUS
  5
52F
 10
350.887024
 20
456.463877
 30
0.0
 11
350.887024
 21
457.163877
 31
0.0
  0
LINE
  8
LC-001-002-----0
  6
CONTINUOUS
  5
530
 10
350.887024
 20
457.163877
 30
0.0
 11
352.11585
 21
457.16387
 31
0.0
  0
ARC
  8
LC-001-002-----0
  6
CONTINUOUS
  5
531
 10
359.321875
 20
456.950466
 30
0.0
 40
2.286465
 50
270.0
 51
334.44147
  0
LINE
  8
LC-001-002-----0
  6
CONTINUOUS
  5
532
 10
352.61082
 20
456.958844
 30
0.0
 11
354.817785
 21
454.75188
 31
0.0
  0
ARC
  8
LC-001-002-----0
  6
CONTINUOUS
  5
533
 10
355.029917
 20
454.964012
 30
0.0
 40
0.3
 50
225.0
 51
269.999874
  0
LINE
  8
LC-001-002-----0
  6
CONTINUOUS
  5
534
 10
355.029916
 20
454.664012
 30
0.0
 11
359.324459
 21
454.664003
 31
0.0
  0
LINE
  8
LC-001-002-----0
  6
CONTINUOUS
  5
535
 10
335.136538
 20
456.163976
 30
0.0
 11
340.037027
 21
456.163945
 31
0.0
  0
LINE
  8
LC-001-002-----0
  6
CONTINUOUS
  5
536
 10
362.150305
 20
455.96401
 30
0.0
 11
361.384598
 21
455.96401
 31
0.0
  0
LINE
  8
LC-001-002-----0
  6
CONTINUOUS
  5
537
 10
335.136532
 20
454.163976
 30
0.0
 11
336.636532
 21
454.163976
 31
0.0
  0
LINE
  8
LC-009-005-----0
  6
CONTINUOUS
  5
538
 10
239.636539
 20
250.950247
 30
0.0
 11
242.636538
 21
253.950247
 31
0.0
  0
LINE
  8
LC-009-005-----0
  6
CONTINUOUS
  5
539
 10
239.636539
 20
253.778675
 30
0.0
 11
242.636538
 21
256.778674
 31
0.0
  0
LINE
  8
LC-009-005-----0
  6
CONTINUOUS
  5
53A
 10
239.636539
 20
256.607102
 30
0.0
 11
242.636538
 21
259.607101
 31
0.0
  0
LINE
  8
LC-009-005-----0
  6
CONTINUOUS
  5
53B
 10
239.636539
 20
259.435529
 30
0.0
 11
242.636538
 21
262.435528
 31
0.0
  0
LINE
  8
LC-009-005-----0
  6
CONTINUOUS
  5
53C
 10
239.636539
 20
262.263956
 30
0.0
 11
242.636538
 21
265.263955
 31
0.0
  0
LINE
  8
LC-009-005-----0
  6
CONTINUOUS
  5
53D
 10
239.636539
 20
265.092383
 30
0.0
 11
242.636538
 21
268.092382
 31
0.0
  0
LINE
  8
LC-009-005-----0
  6
CONTINUOUS
  5
53E
 10
239.636539
 20
267.92081
 30
0.0
 11
242.636537
 21
270.920809
 31
0.0
  0
LINE
  8
LC-009-005-----0
  6
CONTINUOUS
  5
53F
 10
239.636539
 20
270.749237
 30
0.0
 11
242.636537
 21
273.749236
 31
0.0
  0
LINE
  8
LC-009-005-----0
  6
CONTINUOUS
  5
540
 10
239.636539
 20
273.577664
 30
0.0
 11
242.636537
 21
276.577663
 31
0.0
  0
LINE
  8
LC-009-005-----0
  6
CONTINUOUS
  5
541
 10
239.636539
 20
276.406092
 30
0.0
 11
242.636537
 21
279.40609
 31
0.0
  0
LINE
  8
LC-009-005-----0
  6
CONTINUOUS
  5
542
 10
239.636539
 20
279.234519
 30
0.0
 11
242.636537
 21
282.234517
 31
0.0
  0
LINE
  8
LC-009-005-----0
  6
CONTINUOUS
  5
543
 10
239.636539
 20
282.062946
 30
0.0
 11
242.636537
 21
285.062944
 31
0.0
  0
LINE
  8
LC-009-005-----0
  6
CONTINUOUS
  5
544
 10
239.636539
 20
284.891373
 30
0.0
 11
242.636537
 21
287.891371
 31
0.0
  0
LINE
  8
LC-009-005-----0
  6
CONTINUOUS
  5
545
 10
239.636539
 20
287.7198
 30
0.0
 11
242.636536
 21
290.719798
 31
0.0
  0
LINE
  8
LC-009-005-----0
  6
CONTINUOUS
  5
546
 10
239.636539
 20
290.548227
 30
0.0
 11
242.636536
 21
293.548225
 31
0.0
  0
LINE
  8
LC-009-005-----0
  6
CONTINUOUS
  5
547
 10
239.636539
 20
293.376654
 30
0.0
 11
242.636536
 21
296.376652
 31
0.0
  0
LINE
  8
LC-009-005-----0
  6
CONTINUOUS
  5
548
 10
239.636539
 20
296.205081
 30
0.0
 11
242.636536
 21
299.205079
 31
0.0
  0
LINE
  8
LC-001-002-----0
  6
CONTINUOUS
  5
549
 10
327.636114
 20
440.464012
 30
0.0
 11
335.636159
 21
440.464012
 31
0.0
  0
LINE
  8
LC-009-005-----0
  6
CONTINUOUS
  5
54A
 10
239.636539
 20
299.033509
 30
0.0
 11
242.636536
 21
302.033506
 31
0.0
  0
LINE
  8
LC-001-002-----0
  6
CONTINUOUS
  5
54B
 10
329.136101
 20
440.464012
 30
0.0
 11
337.136146
 21
440.464012
 31
0.0
  0
LINE
  8
LC-009-005-----0
  6
CONTINUOUS
  5
54C
 10
311.636539
 20
238.097434
 30
0.0
 11
314.636539
 21
241.097434
 31
0.0
  0
LINE
  8
LC-001-002-----0
  6
CONTINUOUS
  5
54D
 10
337.136146
 20
440.464012
 30
0.0
 11
337.136146
 21
450.463238
 31
0.0
  0
LINE
  8
LC-009-005-----0
  6
CONTINUOUS
  5
54E
 10
311.636539
 20
240.925861
 30
0.0
 11
314.636539
 21
243.925861
 31
0.0
  0
LINE
  8
LC-009-005-----0
  6
CONTINUOUS
  5
54F
 10
311.636539
 20
243.754288
 30
0.0
 11
314.636539
 21
246.754288
 31
0.0
  0
LINE
  8
LC-009-005-----0
  6
CONTINUOUS
  5
550
 10
311.636539
 20
246.582716
 30
0.0
 11
314.636539
 21
249.582715
 31
0.0
  0
LINE
  8
LC-009-005-----0
  6
CONTINUOUS
  5
551
 10
311.63654
 20
249.411143
 30
0.0
 11
314.636539
 21
252.411142
 31
0.0
  0
LINE
  8
LC-009-005-----0
  6
CONTINUOUS
  5
552
 10
311.63654
 20
252.23957
 30
0.0
 11
314.636539
 21
255.239569
 31
0.0
  0
LINE
  8
LC-009-005-----0
  6
CONTINUOUS
  5
553
 10
311.63654
 20
255.067997
 30
0.0
 11
314.636539
 21
258.067996
 31
0.0
  0
LINE
  8
LC-009-005-----0
  6
CONTINUOUS
  5
554
 10
311.63654
 20
257.896425
 30
0.0
 11
314.636539
 21
260.896424
 31
0.0
  0
LINE
  8
LC-009-005-----0
  6
CONTINUOUS
  5
555
 10
311.63654
 20
260.724852
 30
0.0
 11
314.636539
 21
263.724851
 31
0.0
  0
LINE
  8
LC-009-005-----0
  6
CONTINUOUS
  5
556
 10
311.63654
 20
263.553279
 30
0.0
 11
314.636539
 21
266.553278
 31
0.0
  0
LINE
  8
LC-009-005-----0
  6
CONTINUOUS
  5
557
 10
311.63654
 20
266.381706
 30
0.0
 11
314.636539
 21
269.381705
 31
0.0
  0
LINE
  8
LC-009-005-----0
  6
CONTINUOUS
  5
558
 10
311.63654
 20
269.210134
 30
0.0
 11
314.636539
 21
272.210132
 31
0.0
  0
LINE
  8
LC-009-005-----0
  6
CONTINUOUS
  5
559
 10
311.636541
 20
272.038561
 30
0.0
 11
314.636539
 21
275.038559
 31
0.0
  0
LINE
  8
LC-009-005-----0
  6
CONTINUOUS
  5
55A
 10
311.636541
 20
274.866988
 30
0.0
 11
314.636539
 21
277.866986
 31
0.0
  0
LINE
  8
LC-009-005-----0
  6
CONTINUOUS
  5
55B
 10
311.636541
 20
277.695415
 30
0.0
 11
314.636539
 21
280.695413
 31
0.0
  0
LINE
  8
LC-009-005-----0
  6
CONTINUOUS
  5
55C
 10
311.636541
 20
280.523843
 30
0.0
 11
314.636539
 21
283.523841
 31
0.0
  0
LINE
  8
LC-009-005-----0
  6
CONTINUOUS
  5
55D
 10
311.636541
 20
283.35227
 30
0.0
 11
314.636539
 21
286.352268
 31
0.0
  0
LINE
  8
LC-009-005-----0
  6
CONTINUOUS
  5
55E
 10
311.636541
 20
286.180697
 30
0.0
 11
314.636539
 21
289.180695
 31
0.0
  0
LINE
  8
LC-009-005-----0
  6
CONTINUOUS
  5
55F
 10
311.636541
 20
289.009124
 30
0.0
 11
314.636539
 21
292.009122
 31
0.0
  0
LINE
  8
LC-001-002-----0
  6
CONTINUOUS
  5
560
 10
274.136564
 20
440.464012
 30
0.0
 11
277.136539
 21
440.464012
 31
0.0
  0
LINE
  8
LC-009-005-----0
  6
CONTINUOUS
  5
561
 10
311.636542
 20
291.837552
 30
0.0
 11
314.636539
 21
294.837549
 31
0.0
  0
LINE
  8
LC-009-005-----0
  6
CONTINUOUS
  5
562
 10
311.636542
 20
294.665979
 30
0.0
 11
314.636539
 21
297.665976
 31
0.0
  0
LINE
  8
LC-001-002-----0
  6
CONTINUOUS
  5
563
 10
275.636552
 20
440.464012
 30
0.0
 11
278.636526
 21
440.464012
 31
0.0
  0
LINE
  8
LC-009-005-----0
  6
CONTINUOUS
  5
564
 10
311.636542
 20
297.494406
 30
0.0
 11
314.636539
 21
300.494403
 31
0.0
  0
LINE
  8
LC-009-005-----0
  6
CONTINUOUS
  5
565
 10
311.636542
 20
300.322833
 30
0.0
 11
314.636539
 21
303.32283
 31
0.0
  0
LINE
  8
LC-009-005-----0
  6
CONTINUOUS
  5
566
 10
311.636542
 20
303.151261
 30
0.0
 11
314.636539
 21
306.151258
 31
0.0
  0
LINE
  8
LC-001-002-----0
  6
CONTINUOUS
  5
567
 10
329.136101
 20
440.464012
 30
0.0
 11
217.136932
 21
440.464012
 31
0.0
  0
LINE
  8
LC-001-002-----0
  6
CONTINUOUS
  5
568
 10
217.136932
 20
440.464012
 30
0.0
 11
217.136932
 21
450.463238
 31
0.0
  0
LINE
  8
LC-009-005-----0
  6
CONTINUOUS
  5
569
 10
311.636542
 20
305.979688
 30
0.0
 11
314.636539
 21
308.979685
 31
0.0
  0
LINE
  8
LC-009-005-----0
  6
CONTINUOUS
  5
56A
 10
311.636542
 20
308.808115
 30
0.0
 11
314.636539
 21
311.808112
 31
0.0
  0
LINE
  8
LC-009-005-----0
  6
CONTINUOUS
  5
56B
 10
311.636542
 20
311.636542
 30
0.0
 11
314.636539
 21
314.636539
 31
0.0
  0
LINE
  8
LC-009-005-----0
  6
CONTINUOUS
  5
56C
 10
311.636543
 20
314.46497
 30
0.0
 11
314.636539
 21
317.464966
 31
0.0
  0
LINE
  8
LC-001-002-----0
  6
CONTINUOUS
  5
56D
 10
194.136017
 20
447.464012
 30
0.0
 11
194.136017
 21
450.964012
 31
0.0
  0
LINE
  8
LC-001-002-----0
  6
CONTINUOUS
  5
56E
 10
201.136017
 20
447.464012
 30
0.0
 11
194.136017
 21
447.464012
 31
0.0
  0
LINE
  8
LC-001-002-----0
  6
CONTINUOUS
  5
56F
 10
201.136539
 20
450.964012
 30
0.0
 11
201.136539
 21
447.464012
 31
0.0
  0
LINE
  8
LC-001-002-----0
  6
CONTINUOUS
  5
570
 10
194.136017
 20
444.964012
 30
0.0
 11
191.688385
 21
447.411645
 31
0.0
  0
LINE
  8
LC-001-002-----0
  6
CONTINUOUS
  5
571
 10
201.136017
 20
444.964012
 30
0.0
 11
194.136017
 21
444.964012
 31
0.0
  0
LINE
  8
LC-001-002-----0
  6
CONTINUOUS
  5
572
 10
305.187062
 20
452.463322
 30
0.0
 11
305.187062
 21
455.463322
 31
0.0
  0
LINE
  8
LC-001-002-----0
  6
CONTINUOUS
  5
573
 10
305.187062
 20
455.463322
 30
0.0
 11
310.136552
 21
455.463322
 31
0.0
  0
LINE
  8
LC-001-002-----0
  6
CONTINUOUS
  5
574
 10
310.136552
 20
455.463322
 30
0.0
 11
310.136552
 21
452.463322
 31
0.0
  0
LINE
  8
LC-001-002-----0
  6
CONTINUOUS
  5
575
 10
353.137061
 20
447.464012
 30
0.0
 11
360.137061
 21
447.464012
 31
0.0
  0
LINE
  8
LC-001-002-----0
  6
CONTINUOUS
  5
576
 10
360.137061
 20
447.464012
 30
0.0
 11
360.137061
 21
450.964012
 31
0.0
  0
LINE
  8
LC-001-002-----0
  6
CONTINUOUS
  5
577
 10
360.137061
 20
444.964012
 30
0.0
 11
362.584693
 21
447.411645
 31
0.0
  0
LINE
  8
LC-001-002-----0
  6
CONTINUOUS
  5
578
 10
353.137061
 20
444.964012
 30
0.0
 11
360.137061
 21
444.964012
 31
0.0
  0
LINE
  8
LC-001-002-----0
  6
CONTINUOUS
  5
579
 10
196.136017
 20
450.964012
 30
0.0
 11
192.136539
 21
450.964012
 31
0.0
  0
LINE
  8
LC-001-002-----0
  6
CONTINUOUS
  5
57A
 10
201.136539
 20
450.964012
 30
0.0
 11
196.136017
 21
450.964012
 31
0.0
  0
LINE
  8
LC-009-005-----0
  6
CONTINUOUS
  5
57B
 10
311.636543
 20
317.293397
 30
0.0
 11
314.636539
 21
320.293393
 31
0.0
  0
LINE
  8
LC-001-002-----0
  6
CONTINUOUS
  5
57C
 10
170.926108
 20
453.761423
 30
0.0
 11
161.973767
 21
454.101982
 31
0.0
  0
LINE
  8
LC-001-002-----0
  6
CONTINUOUS
  5
57D
 10
171.274263
 20
457.34225
 30
0.0
 11
164.040021
 21
457.582028
 31
0.0
  0
ARC
  8
LC-007-002-RND-0
  6
CONTINUOUS
  5
57E
 10
163.973767
 20
455.583126
 30
0.0
 40
2.0
 50
88.101636
 51
180.0
  0
LINE
  8
LC-009-005-----0
  6
CONTINUOUS
  5
57F
 10
239.636539
 20
301.861936
 30
0.0
 11
242.636536
 21
304.861933
 31
0.0
  0
LINE
  8
LC-009-005-----0
  6
CONTINUOUS
  5
580
 10
239.636539
 20
304.690363
 30
0.0
 11
242.636536
 21
307.69036
 31
0.0
  0
LINE
  8
LC-009-005-----0
  6
CONTINUOUS
  5
581
 10
239.636539
 20
307.51879
 30
0.0
 11
242.636536
 21
310.518787
 31
0.0
  0
LINE
  8
LC-009-005-----0
  6
CONTINUOUS
  5
582
 10
239.636539
 20
310.347217
 30
0.0
 11
242.636535
 21
313.347214
 31
0.0
  0
LINE
  8
LC-009-005-----0
  6
CONTINUOUS
  5
583
 10
239.636539
 20
313.175644
 30
0.0
 11
242.636535
 21
316.175641
 31
0.0
  0
LINE
  8
LC-009-005-----0
  6
CONTINUOUS
  5
584
 10
239.636539
 20
316.004071
 30
0.0
 11
242.636535
 21
319.004068
 31
0.0
  0
LINE
  8
LC-009-005-----0
  6
CONTINUOUS
  5
585
 10
239.636539
 20
318.832498
 30
0.0
 11
242.636535
 21
321.832494
 31
0.0
  0
LINE
  8
LC-009-005-----0
  6
CONTINUOUS
  5
586
 10
239.636539
 20
321.660926
 30
0.0
 11
242.636535
 21
324.660921
 31
0.0
  0
LINE
  8
LC-009-005-----0
  6
CONTINUOUS
  5
587
 10
239.636539
 20
324.489353
 30
0.0
 11
242.636535
 21
327.489348
 31
0.0
  0
LINE
  8
LC-009-005-----0
  6
CONTINUOUS
  5
588
 10
239.636539
 20
327.31778
 30
0.0
 11
242.636535
 21
330.317775
 31
0.0
  0
LINE
  8
LC-009-005-----0
  6
CONTINUOUS
  5
589
 10
239.636539
 20
330.146207
 30
0.0
 11
242.636534
 21
333.146202
 31
0.0
  0
LINE
  8
LC-009-005-----0
  6
CONTINUOUS
  5
58A
 10
239.636539
 20
332.974634
 30
0.0
 11
242.636534
 21
335.974629
 31
0.0
  0
LINE
  8
LC-009-005-----0
  6
CONTINUOUS
  5
58B
 10
239.636539
 20
335.803061
 30
0.0
 11
242.636534
 21
338.803056
 31
0.0
  0
LINE
  8
LC-009-005-----0
  6
CONTINUOUS
  5
58C
 10
239.636539
 20
338.631488
 30
0.0
 11
242.636534
 21
341.631483
 31
0.0
  0
LINE
  8
LC-009-005-----0
  6
CONTINUOUS
  5
58D
 10
239.636539
 20
341.459915
 30
0.0
 11
242.636534
 21
344.45991
 31
0.0
  0
LINE
  8
LC-009-005-----0
  6
CONTINUOUS
  5
58E
 10
239.636539
 20
344.288343
 30
0.0
 11
242.636534
 21
347.288337
 31
0.0
  0
LINE
  8
LC-009-005-----0
  6
CONTINUOUS
  5
58F
 10
239.636539
 20
347.11677
 30
0.0
 11
242.636534
 21
350.116764
 31
0.0
  0
LINE
  8
LC-009-005-----0
  6
CONTINUOUS
  5
590
 10
239.636539
 20
349.945197
 30
0.0
 11
242.636534
 21
352.945191
 31
0.0
  0
LINE
  8
LC-009-005-----0
  6
CONTINUOUS
  5
591
 10
239.636539
 20
352.773624
 30
0.0
 11
242.636533
 21
355.773618
 31
0.0
  0
LINE
  8
LC-009-005-----0
  6
CONTINUOUS
  5
592
 10
239.636539
 20
355.602051
 30
0.0
 11
242.636533
 21
358.602045
 31
0.0
  0
LINE
  8
LC-009-005-----0
  6
CONTINUOUS
  5
593
 10
239.636539
 20
358.430478
 30
0.0
 11
242.636533
 21
361.430472
 31
0.0
  0
LINE
  8
LC-009-005-----0
  6
CONTINUOUS
  5
594
 10
239.636539
 20
361.258905
 30
0.0
 11
242.636533
 21
364.258899
 31
0.0
  0
LINE
  8
LC-009-005-----0
  6
CONTINUOUS
  5
595
 10
239.636539
 20
364.087332
 30
0.0
 11
242.636533
 21
367.087326
 31
0.0
  0
LINE
  8
LC-009-005-----0
  6
CONTINUOUS
  5
596
 10
239.636539
 20
366.91576
 30
0.0
 11
242.636533
 21
369.915753
 31
0.0
  0
LINE
  8
LC-009-005-----0
  6
CONTINUOUS
  5
597
 10
239.636539
 20
369.744187
 30
0.0
 11
242.636533
 21
372.74418
 31
0.0
  0
LINE
  8
LC-009-005-----0
  6
CONTINUOUS
  5
598
 10
239.636539
 20
372.572614
 30
0.0
 11
242.636532
 21
375.572607
 31
0.0
  0
LINE
  8
LC-009-005-----0
  6
CONTINUOUS
  5
599
 10
239.636539
 20
375.401041
 30
0.0
 11
242.636532
 21
378.401034
 31
0.0
  0
LINE
  8
LC-009-005-----0
  6
CONTINUOUS
  5
59A
 10
239.636539
 20
378.229468
 30
0.0
 11
242.636532
 21
381.229461
 31
0.0
  0
LINE
  8
LC-009-005-----0
  6
CONTINUOUS
  5
59B
 10
239.636539
 20
381.057895
 30
0.0
 11
242.636532
 21
384.057888
 31
0.0
  0
LINE
  8
LC-009-005-----0
  6
CONTINUOUS
  5
59C
 10
239.636539
 20
383.886322
 30
0.0
 11
242.636532
 21
386.886315
 31
0.0
  0
LINE
  8
LC-009-005-----0
  6
CONTINUOUS
  5
59D
 10
239.636539
 20
386.714749
 30
0.0
 11
242.636532
 21
389.714742
 31
0.0
  0
LINE
  8
LC-009-005-----0
  6
CONTINUOUS
  5
59E
 10
239.636539
 20
389.543177
 30
0.0
 11
242.636532
 21
392.543169
 31
0.0
  0
LINE
  8
LC-009-005-----0
  6
CONTINUOUS
  5
59F
 10
239.636539
 20
392.371604
 30
0.0
 11
242.636532
 21
395.371596
 31
0.0
  0
LINE
  8
LC-009-005-----0
  6
CONTINUOUS
  5
5A0
 10
239.636539
 20
395.200031
 30
0.0
 11
242.636531
 21
398.200023
 31
0.0
  0
LINE
  8
LC-009-005-----0
  6
CONTINUOUS
  5
5A1
 10
239.636539
 20
398.028458
 30
0.0
 11
242.636531
 21
401.02845
 31
0.0
  0
LINE
  8
LC-009-005-----0
  6
CONTINUOUS
  5
5A2
 10
239.636539
 20
400.856885
 30
0.0
 11
242.636531
 21
403.856877
 31
0.0
  0
LINE
  8
LC-009-005-----0
  6
CONTINUOUS
  5
5A3
 10
239.636539
 20
403.685312
 30
0.0
 11
242.636531
 21
406.685304
 31
0.0
  0
LINE
  8
LC-009-005-----0
  6
CONTINUOUS
  5
5A4
 10
239.636539
 20
406.513739
 30
0.0
 11
242.636531
 21
409.513731
 31
0.0
  0
LINE
  8
LC-009-005-----0
  6
CONTINUOUS
  5
5A5
 10
239.636539
 20
409.342166
 30
0.0
 11
242.636531
 21
412.342158
 31
0.0
  0
LINE
  8
LC-009-005-----0
  6
CONTINUOUS
  5
5A6
 10
239.636539
 20
412.170594
 30
0.0
 11
242.636531
 21
415.170585
 31
0.0
  0
LINE
  8
LC-009-005-----0
  6
CONTINUOUS
  5
5A7
 10
239.636539
 20
414.999021
 30
0.0
 11
242.63653
 21
417.999012
 31
0.0
  0
LINE
  8
LC-009-005-----0
  6
CONTINUOUS
  5
5A8
 10
239.636539
 20
417.827448
 30
0.0
 11
242.63653
 21
420.827439
 31
0.0
  0
LINE
  8
LC-009-005-----0
  6
CONTINUOUS
  5
5A9
 10
239.636539
 20
420.655875
 30
0.0
 11
242.63653
 21
423.655866
 31
0.0
  0
LINE
  8
LC-009-005-----0
  6
CONTINUOUS
  5
5AA
 10
239.636539
 20
423.484302
 30
0.0
 11
242.63653
 21
426.484293
 31
0.0
  0
LINE
  8
LC-009-005-----0
  6
CONTINUOUS
  5
5AB
 10
239.636539
 20
426.312729
 30
0.0
 11
242.63653
 21
429.31272
 31
0.0
  0
LINE
  8
LC-009-005-----0
  6
CONTINUOUS
  5
5AC
 10
239.636539
 20
429.141156
 30
0.0
 11
242.63653
 21
432.141147
 31
0.0
  0
LINE
  8
LC-009-005-----0
  6
CONTINUOUS
  5
5AD
 10
239.636539
 20
431.969583
 30
0.0
 11
242.63653
 21
434.969574
 31
0.0
  0
LINE
  8
LC-009-005-----0
  6
CONTINUOUS
  5
5AE
 10
239.636539
 20
434.798011
 30
0.0
 11
242.63653
 21
437.798001
 31
0.0
  0
LINE
  8
LC-009-005-----0
  6
CONTINUOUS
  5
5AF
 10
239.074646
 20
437.064545
 30
0.0
 11
242.03161
 21
440.021509
 31
0.0
  0
LINE
  8
LC-009-005-----0
  6
CONTINUOUS
  5
5B0
 10
236.324891
 20
437.143217
 30
0.0
 11
239.274959
 21
440.093284
 31
0.0
  0
LINE
  8
LC-009-005-----0
  6
CONTINUOUS
  5
5B1
 10
233.575136
 20
437.221889
 30
0.0
 11
236.518307
 21
440.16506
 31
0.0
  0
LINE
  8
LC-009-005-----0
  6
CONTINUOUS
  5
5B2
 10
230.825381
 20
437.300561
 30
0.0
 11
233.761655
 21
440.236835
 31
0.0
  0
LINE
  8
LC-009-005-----0
  6
CONTINUOUS
  5
5B3
 10
228.075626
 20
437.379233
 30
0.0
 11
231.005003
 21
440.30861
 31
0.0
  0
LINE
  8
LC-009-005-----0
  6
CONTINUOUS
  5
5B4
 10
225.325871
 20
437.457905
 30
0.0
 11
228.248351
 21
440.380386
 31
0.0
  0
LINE
  8
LC-009-005-----0
  6
CONTINUOUS
  5
5B5
 10
222.502904
 20
437.463366
 30
0.0
 11
225.4917
 21
440.452161
 31
0.0
  0
LINE
  8
LC-009-005-----0
  6
CONTINUOUS
  5
5B6
 10
219.674471
 20
437.463359
 30
0.0
 11
222.675124
 21
440.464012
 31
0.0
  0
LINE
  8
LC-009-005-----0
  6
CONTINUOUS
  5
5B7
 10
216.846038
 20
437.463353
 30
0.0
 11
219.846696
 21
440.464012
 31
0.0
  0
LINE
  8
LC-009-005-----0
  6
CONTINUOUS
  5
5B8
 10
214.017604
 20
437.463347
 30
0.0
 11
217.136427
 21
440.58217
 31
0.0
  0
LINE
  8
LC-009-005-----0
  6
CONTINUOUS
  5
5B9
 10
210.941565
 20
437.215735
 30
0.0
 11
217.136427
 21
443.410597
 31
0.0
  0
LINE
  8
LC-009-005-----0
  6
CONTINUOUS
  5
5BA
 10
207.363318
 20
436.465915
 30
0.0
 11
208.360725
 21
437.463322
 31
0.0
  0
LINE
  8
LC-009-005-----0
  6
CONTINUOUS
  5
5BB
 10
209.63605
 20
438.738647
 30
0.0
 11
217.136427
 21
446.239024
 31
0.0
  0
LINE
  8
LC-009-005-----0
  6
CONTINUOUS
  5
5BC
 10
204.807252
 20
436.738277
 30
0.0
 11
205.532298
 21
437.463322
 31
0.0
  0
LINE
  8
LC-009-005-----0
  6
CONTINUOUS
  5
5BD
 10
209.63605
 20
441.567074
 30
0.0
 11
217.136427
 21
449.067451
 31
0.0
  0
LINE
  8
LC-009-005-----0
  6
CONTINUOUS
  5
5BE
 10
202.703871
 20
437.463322
 30
0.0
 11
204.63605
 21
439.395501
 31
0.0
  0
LINE
  8
LC-009-005-----0
  6
CONTINUOUS
  5
5BF
 10
209.731716
 20
444.491167
 30
0.0
 11
217.136427
 21
451.895878
 31
0.0
  0
LINE
  8
LC-009-005-----0
  6
CONTINUOUS
  5
5C0
 10
201.136017
 20
438.723896
 30
0.0
 11
204.63605
 21
442.223928
 31
0.0
  0
LINE
  8
LC-009-005-----0
  6
CONTINUOUS
  5
5C1
 10
210.134812
 20
447.72269
 30
0.0
 11
214.875443
 21
452.463322
 31
0.0
  0
LINE
  8
LC-009-005-----0
  6
CONTINUOUS
  5
5C2
 10
201.136017
 20
441.552323
 30
0.0
 11
204.365379
 21
444.781685
 31
0.0
  0
LINE
  8
LC-009-005-----0
  6
CONTINUOUS
  5
5C3
 10
210.134814
 20
450.551119
 30
0.0
 11
212.047016
 21
452.463322
 31
0.0
  0
LINE
  8
LC-009-005-----0
  6
CONTINUOUS
  5
5C4
 10
201.136017
 20
444.38075
 30
0.0
 11
204.136052
 21
447.380785
 31
0.0
  0
LINE
  8
LC-009-005-----0
  6
CONTINUOUS
  5
5C5
 10
198.890852
 20
444.964012
 30
0.0
 11
204.13606
 21
450.20922
 31
0.0
  0
LINE
  8
LC-009-005-----0
  6
CONTINUOUS
  5
5C6
 10
196.062425
 20
444.964012
 30
0.0
 11
198.562425
 21
447.464012
 31
0.0
  0
LINE
  8
LC-009-005-----0
  6
CONTINUOUS
  5
5C7
 10
201.136539
 20
450.038126
 30
0.0
 11
203.561735
 21
452.463322
 31
0.0
  0
LINE
  8
LC-009-005-----0
  6
CONTINUOUS
  5
5C8
 10
193.685008
 20
445.415022
 30
0.0
 11
195.733998
 21
447.464012
 31
0.0
  0
LINE
  8
LC-009-005-----0
  6
CONTINUOUS
  5
5C9
 10
192.270794
 20
446.829235
 30
0.0
 11
194.136017
 21
448.694458
 31
0.0
  0
LINE
  8
LC-009-005-----0
  6
CONTINUOUS
  5
5CA
 10
190.414898
 20
447.801766
 30
0.0
 11
193.577144
 21
450.964012
 31
0.0
  0
LINE
  8
LC-009-005-----0
  6
CONTINUOUS
  5
5CB
 10
188.248847
 20
448.464143
 30
0.0
 11
191.073669
 21
451.288964
 31
0.0
  0
LINE
  8
LC-009-005-----0
  6
CONTINUOUS
  5
5CC
 10
186.082797
 20
449.12652
 30
0.0
 11
188.907504
 21
451.951227
 31
0.0
  0
LINE
  8
LC-009-005-----0
  6
CONTINUOUS
  5
5CD
 10
183.916746
 20
449.788896
 30
0.0
 11
186.74134
 21
452.61349
 31
0.0
  0
LINE
  8
LC-009-005-----0
  6
CONTINUOUS
  5
5CE
 10
181.750696
 20
450.451273
 30
0.0
 11
184.575176
 21
453.275753
 31
0.0
  0
LINE
  8
LC-009-005-----0
  6
CONTINUOUS
  5
5CF
 10
179.584645
 20
451.113649
 30
0.0
 11
182.409012
 21
453.938016
 31
0.0
  0
LINE
  8
LC-009-005-----0
  6
CONTINUOUS
  5
5D0
 10
177.418595
 20
451.776026
 30
0.0
 11
180.242847
 21
454.600279
 31
0.0
  0
LINE
  8
LC-009-005-----0
  6
CONTINUOUS
  5
5D1
 10
175.252544
 20
452.438402
 30
0.0
 11
178.076683
 21
455.262541
 31
0.0
  0
LINE
  8
LC-009-005-----0
  6
CONTINUOUS
  5
5D2
 10
173.086494
 20
453.100779
 30
0.0
 11
175.910519
 21
455.924804
 31
0.0
  0
LINE
  8
LC-009-005-----0
  6
CONTINUOUS
  5
5D3
 10
170.920443
 20
453.763155
 30
0.0
 11
173.744355
 21
456.587067
 31
0.0
  0
LINE
  8
LC-009-005-----0
  6
CONTINUOUS
  5
5D4
 10
168.194209
 20
453.865348
 30
0.0
 11
171.57819
 21
457.24933
 31
0.0
  0
LINE
  8
LC-009-005-----0
  6
CONTINUOUS
  5
5D5
 10
165.469436
 20
453.969002
 30
0.0
 11
168.920692
 21
457.420259
 31
0.0
  0
LINE
  8
LC-009-005-----0
  6
CONTINUOUS
  5
5D6
 10
162.744663
 20
454.072656
 30
0.0
 11
166.183005
 21
457.510999
 31
0.0
  0
LINE
  8
LC-009-005-----0
  6
CONTINUOUS
  5
5D7
 10
162.085323
 20
456.241744
 30
0.0
 11
163.281505
 21
457.437926
 31
0.0
  0
LINE
  8
LC-009-005-----0
  6
CONTINUOUS
  5
5D8
 10
311.636543
 20
320.121824
 30
0.0
 11
314.636539
 21
323.12182
 31
0.0
  0
LINE
  8
LC-009-005-----0
  6
CONTINUOUS
  5
5D9
 10
311.636543
 20
322.950251
 30
0.0
 11
314.636539
 21
325.950247
 31
0.0
  0
LINE
  8
LC-009-005-----0
  6
CONTINUOUS
  5
5DA
 10
311.636543
 20
325.778679
 30
0.0
 11
314.636539
 21
328.778675
 31
0.0
  0
LINE
  8
LC-009-005-----0
  6
CONTINUOUS
  5
5DB
 10
311.636543
 20
328.607106
 30
0.0
 11
314.636539
 21
331.607102
 31
0.0
  0
LINE
  8
LC-009-005-----0
  6
CONTINUOUS
  5
5DC
 10
311.636543
 20
331.435533
 30
0.0
 11
314.636539
 21
334.435529
 31
0.0
  0
LINE
  8
LC-009-005-----0
  6
CONTINUOUS
  5
5DD
 10
311.636543
 20
334.26396
 30
0.0
 11
314.636539
 21
337.263956
 31
0.0
  0
LINE
  8
LC-009-005-----0
  6
CONTINUOUS
  5
5DE
 10
311.636544
 20
337.092388
 30
0.0
 11
314.636539
 21
340.092383
 31
0.0
  0
LINE
  8
LC-009-005-----0
  6
CONTINUOUS
  5
5DF
 10
311.636544
 20
339.920815
 30
0.0
 11
314.636539
 21
342.92081
 31
0.0
  0
LINE
  8
LC-009-005-----0
  6
CONTINUOUS
  5
5E0
 10
311.636544
 20
342.749242
 30
0.0
 11
314.636539
 21
345.749237
 31
0.0
  0
LINE
  8
LC-009-005-----0
  6
CONTINUOUS
  5
5E1
 10
311.636544
 20
345.57767
 30
0.0
 11
314.636539
 21
348.577664
 31
0.0
  0
LINE
  8
LC-009-005-----0
  6
CONTINUOUS
  5
5E2
 10
311.636544
 20
348.406097
 30
0.0
 11
314.636539
 21
351.406092
 31
0.0
  0
LINE
  8
LC-009-005-----0
  6
CONTINUOUS
  5
5E3
 10
311.636544
 20
351.234524
 30
0.0
 11
314.636539
 21
354.234519
 31
0.0
  0
LINE
  8
LC-009-005-----0
  6
CONTINUOUS
  5
5E4
 10
311.636544
 20
354.062951
 30
0.0
 11
314.636539
 21
357.062946
 31
0.0
  0
LINE
  8
LC-009-005-----0
  6
CONTINUOUS
  5
5E5
 10
311.636545
 20
356.891379
 30
0.0
 11
314.636539
 21
359.891373
 31
0.0
  0
LINE
  8
LC-009-005-----0
  6
CONTINUOUS
  5
5E6
 10
311.636545
 20
359.719806
 30
0.0
 11
314.636539
 21
362.7198
 31
0.0
  0
LINE
  8
LC-009-005-----0
  6
CONTINUOUS
  5
5E7
 10
311.636545
 20
362.548233
 30
0.0
 11
314.636539
 21
365.548227
 31
0.0
  0
LINE
  8
LC-009-005-----0
  6
CONTINUOUS
  5
5E8
 10
311.636545
 20
365.37666
 30
0.0
 11
314.636539
 21
368.376654
 31
0.0
  0
LINE
  8
LC-009-005-----0
  6
CONTINUOUS
  5
5E9
 10
311.636545
 20
368.205088
 30
0.0
 11
314.636539
 21
371.205081
 31
0.0
  0
LINE
  8
LC-009-005-----0
  6
CONTINUOUS
  5
5EA
 10
311.636545
 20
371.033515
 30
0.0
 11
314.636539
 21
374.033509
 31
0.0
  0
LINE
  8
LC-009-005-----0
  6
CONTINUOUS
  5
5EB
 10
311.636545
 20
373.861942
 30
0.0
 11
314.636539
 21
376.861936
 31
0.0
  0
LINE
  8
LC-009-005-----0
  6
CONTINUOUS
  5
5EC
 10
311.636545
 20
376.690369
 30
0.0
 11
314.636539
 21
379.690363
 31
0.0
  0
LINE
  8
LC-009-005-----0
  6
CONTINUOUS
  5
5ED
 10
388.919589
 20
453.973413
 30
0.0
 11
391.823837
 21
456.87766
 31
0.0
  0
LINE
  8
LC-009-005-----0
  6
CONTINUOUS
  5
5EE
 10
311.636546
 20
379.518797
 30
0.0
 11
314.636539
 21
382.51879
 31
0.0
  0
LINE
  8
LC-009-005-----0
  6
CONTINUOUS
  5
5EF
 10
385.97931
 20
453.861561
 30
0.0
 11
389.681495
 21
457.563746
 31
0.0
  0
LINE
  8
LC-009-005-----0
  6
CONTINUOUS
  5
5F0
 10
311.636546
 20
382.347224
 30
0.0
 11
314.636539
 21
385.347217
 31
0.0
  0
LINE
  8
LC-009-005-----0
  6
CONTINUOUS
  5
5F1
 10
382.920256
 20
453.630934
 30
0.0
 11
386.756107
 21
457.466785
 31
0.0
  0
LINE
  8
LC-009-005-----0
  6
CONTINUOUS
  5
5F2
 10
311.636546
 20
385.175651
 30
0.0
 11
314.636539
 21
388.175644
 31
0.0
  0
LINE
  8
LC-009-005-----0
  6
CONTINUOUS
  5
5F3
 10
378.845892
 20
452.384997
 30
0.0
 11
383.830718
 21
457.369823
 31
0.0
  0
LINE
  8
LC-009-005-----0
  6
CONTINUOUS
  5
5F4
 10
311.636546
 20
388.004078
 30
0.0
 11
314.636539
 21
391.004071
 31
0.0
  0
LINE
  8
LC-009-005-----0
  6
CONTINUOUS
  5
5F5
 10
374.771527
 20
451.139059
 30
0.0
 11
380.08338
 21
456.450912
 31
0.0
  0
LINE
  8
LC-009-005-----0
  6
CONTINUOUS
  5
5F6
 10
311.636546
 20
390.832506
 30
0.0
 11
314.636539
 21
393.832498
 31
0.0
  0
LINE
  8
LC-009-005-----0
  6
CONTINUOUS
  5
5F7
 10
370.697162
 20
449.893122
 30
0.0
 11
376.009417
 21
455.205377
 31
0.0
  0
LINE
  8
LC-009-005-----0
  6
CONTINUOUS
  5
5F8
 10
311.636546
 20
393.660933
 30
0.0
 11
314.636539
 21
396.660926
 31
0.0
  0
LINE
  8
LC-009-005-----0
  6
CONTINUOUS
  5
5F9
 10
366.622798
 20
448.647184
 30
0.0
 11
371.935455
 21
453.959841
 31
0.0
  0
LINE
  8
LC-009-005-----0
  6
CONTINUOUS
  5
5FA
 10
311.636546
 20
396.48936
 30
0.0
 11
314.636539
 21
399.489353
 31
0.0
  0
LINE
  8
LC-009-005-----0
  6
CONTINUOUS
  5
5FB
 10
352.610506
 20
437.46332
 30
0.0
 11
353.137061
 21
437.989874
 31
0.0
  0
LINE
  8
LC-009-005-----0
  6
CONTINUOUS
  5
5FC
 10
360.111198
 20
444.964012
 30
0.0
 11
367.861492
 21
452.714306
 31
0.0
  0
LINE
  8
LC-009-005-----0
  6
CONTINUOUS
  5
5FD
 10
311.636547
 20
399.317787
 30
0.0
 11
314.636539
 21
402.31778
 31
0.0
  0
LINE
  8
LC-009-005-----0
  6
CONTINUOUS
  5
5FE
 10
348.947312
 20
436.628553
 30
0.0
 11
353.137061
 21
440.818302
 31
0.0
  0
LINE
  8
LC-009-005-----0
  6
CONTINUOUS
  5
5FF
 10
357.282771
 20
444.964012
 30
0.0
 11
359.782771
 21
447.464012
 31
0.0
  0
LINE
  8
LC-009-005-----0
  6
CONTINUOUS
  5
600
 10
360.137061
 20
447.818302
 30
0.0
 11
363.78753
 21
451.468771
 31
0.0
  0
LINE
  8
LC-009-005-----0
  6
CONTINUOUS
  5
601
 10
311.636547
 20
402.146215
 30
0.0
 11
314.636539
 21
405.146207
 31
0.0
  0
LINE
  8
LC-009-005-----0
  6
CONTINUOUS
  5
602
 10
346.016627
 20
436.526295
 30
0.0
 11
346.953654
 21
437.463322
 31
0.0
  0
LINE
  8
LC-009-005-----0
  6
CONTINUOUS
  5
603
 10
349.637028
 20
440.146696
 30
0.0
 11
353.137061
 21
443.646729
 31
0.0
  0
LINE
  8
LC-009-005-----0
  6
CONTINUOUS
  5
604
 10
354.454344
 20
444.964012
 30
0.0
 11
356.954344
 21
447.464012
 31
0.0
  0
LINE
  8
LC-009-005-----0
  6
CONTINUOUS
  5
605
 10
360.137061
 20
450.646729
 30
0.0
 11
360.454344
 21
450.964012
 31
0.0
  0
LINE
  8
LC-009-005-----0
  6
CONTINUOUS
  5
606
 10
311.636547
 20
404.974642
 30
0.0
 11
314.636539
 21
407.974634
 31
0.0
  0
LINE
  8
LC-009-005-----0
  6
CONTINUOUS
  5
607
 10
343.725249
 20
437.063345
 30
0.0
 11
344.637028
 21
437.975123
 31
0.0
  0
LINE
  8
LC-009-005-----0
  6
CONTINUOUS
  5
608
 10
349.637028
 20
442.975123
 30
0.0
 11
354.125917
 21
447.464012
 31
0.0
  0
LINE
  8
LC-009-005-----0
  6
CONTINUOUS
  5
609
 10
311.636547
 20
407.803069
 30
0.0
 11
314.636539
 21
410.803061
 31
0.0
  0
LINE
  8
LC-009-005-----0
  6
CONTINUOUS
  5
60A
 10
341.296823
 20
437.463345
 30
0.0
 11
344.637028
 21
440.803551
 31
0.0
  0
LINE
  8
LC-009-005-----0
  6
CONTINUOUS
  5
60B
 10
350.137029
 20
446.303551
 30
0.0
 11
353.136539
 21
449.303061
 31
0.0
  0
LINE
  8
LC-009-005-----0
  6
CONTINUOUS
  5
60C
 10
311.636547
 20
410.631496
 30
0.0
 11
314.636539
 21
413.631488
 31
0.0
  0
LINE
  8
LC-009-005-----0
  6
CONTINUOUS
  5
60D
 10
338.468402
 20
437.463351
 30
0.0
 11
344.637028
 21
443.631978
 31
0.0
  0
LINE
  8
LC-009-005-----0
  6
CONTINUOUS
  5
60E
 10
350.137021
 20
449.13197
 30
0.0
 11
352.493819
 21
451.488768
 31
0.0
  0
LINE
  8
LC-009-005-----0
  6
CONTINUOUS
  5
60F
 10
311.636547
 20
413.459924
 30
0.0
 11
314.636539
 21
416.459915
 31
0.0
  0
LINE
  8
LC-009-005-----0
  6
CONTINUOUS
  5
610
 10
335.639981
 20
437.463357
 30
0.0
 11
344.138267
 21
445.961644
 31
0.0
  0
LINE
  8
LC-009-005-----0
  6
CONTINUOUS
  5
611
 10
350.137013
 20
451.96039
 30
0.0
 11
350.639945
 21
452.463322
 31
0.0
  0
LINE
  8
LC-009-005-----0
  6
CONTINUOUS
  5
612
 10
311.636547
 20
416.288351
 30
0.0
 11
314.636539
 21
419.288343
 31
0.0
  0
LINE
  8
LC-009-005-----0
  6
CONTINUOUS
  5
613
 10
332.81156
 20
437.463363
 30
0.0
 11
335.812209
 21
440.464012
 31
0.0
  0
LINE
  8
LC-009-005-----0
  6
CONTINUOUS
  5
614
 10
337.136651
 20
441.788455
 30
0.0
 11
344.138265
 21
448.790069
 31
0.0
  0
LINE
  8
LC-009-005-----0
  6
CONTINUOUS
  5
615
 10
311.636547
 20
419.116778
 30
0.0
 11
314.636539
 21
422.11677
 31
0.0
  0
LINE
  8
LC-009-005-----0
  6
CONTINUOUS
  5
616
 10
329.983139
 20
437.46337
 30
0.0
 11
332.983781
 21
440.464012
 31
0.0
  0
LINE
  8
LC-009-005-----0
  6
CONTINUOUS
  5
617
 10
337.136651
 20
444.616882
 30
0.0
 11
344.138264
 21
451.618494
 31
0.0
  0
LINE
  8
LC-009-005-----0
  6
CONTINUOUS
  5
618
 10
311.636548
 20
421.945205
 30
0.0
 11
314.636539
 21
424.945197
 31
0.0
  0
LINE
  8
LC-009-005-----0
  6
CONTINUOUS
  5
619
 10
327.096291
 20
437.404949
 30
0.0
 11
330.155354
 21
440.464012
 31
0.0
  0
LINE
  8
LC-009-005-----0
  6
CONTINUOUS
  5
61A
 10
337.136651
 20
447.445309
 30
0.0
 11
342.154664
 21
452.463322
 31
0.0
  0
LINE
  8
LC-009-005-----0
  6
CONTINUOUS
  5
61B
 10
311.636548
 20
424.773633
 30
0.0
 11
314.636539
 21
427.773624
 31
0.0
  0
LINE
  8
LC-009-005-----0
  6
CONTINUOUS
  5
61C
 10
324.184558
 20
437.321643
 30
0.0
 11
327.275877
 21
440.412962
 31
0.0
  0
LINE
  8
LC-009-005-----0
  6
CONTINUOUS
  5
61D
 10
337.136651
 20
450.273736
 30
0.0
 11
339.326237
 21
452.463322
 31
0.0
  0
LINE
  8
LC-009-005-----0
  6
CONTINUOUS
  5
61E
 10
311.636548
 20
427.60206
 30
0.0
 11
314.636539
 21
430.602051
 31
0.0
  0
LINE
  8
LC-009-005-----0
  6
CONTINUOUS
  5
61F
 10
321.272825
 20
437.238337
 30
0.0
 11
324.371837
 21
440.337349
 31
0.0
  0
LINE
  8
LC-009-005-----0
  6
CONTINUOUS
  5
620
 10
311.636548
 20
430.430487
 30
0.0
 11
314.636539
 21
433.430478
 31
0.0
  0
LINE
  8
LC-009-005-----0
  6
CONTINUOUS
  5
621
 10
318.361091
 20
437.15503
 30
0.0
 11
321.467797
 21
440.261736
 31
0.0
  0
LINE
  8
LC-009-005-----0
  6
CONTINUOUS
  5
622
 10
311.636548
 20
433.258914
 30
0.0
 11
314.636539
 21
436.258905
 31
0.0
  0
LINE
  8
LC-009-005-----0
  6
CONTINUOUS
  5
623
 10
315.449358
 20
437.071724
 30
0.0
 11
318.563757
 21
440.186123
 31
0.0
  0
LINE
  8
LC-009-005-----0
  6
CONTINUOUS
  5
624
 10
311.636548
 20
436.087342
 30
0.0
 11
315.659717
 21
440.110511
 31
0.0
  0
LINE
  8
LC-009-005-----0
  6
CONTINUOUS
  5
625
 10
311.636548
 20
438.915769
 30
0.0
 11
312.755677
 21
440.034898
 31
0.0
  0
ENDSEC
  0
EOF
