  0
SECTION
  2
HEADER
  9
$ACADVER
  1
AC1009
  9
$INSBASE
 10
0.0
 20
0.0
 30
0.0
  9
$EXTMIN
 10
0.0
 20
0.0
 30
0.0
  9
$EXTMAX
 10
840.0
 20
594.0
 30
0.0
  9
$LIMMIN
 10
0.0
 20
0.0
  9
$LIMMAX
 10
840.0
 20
594.0
  9
$ORTHOMODE
 70
     0
  9
$REGENMODE
 70
     1
  9
$FILLMODE
 70
     1
  9
$QTEXTMODE
 70
     0
  9
$MIRRTEXT
 70
     1
  9
$DRAGMODE
 70
     2
  9
$LTSCALE
 40
2.0
  9
$OSMODE
 70
     0
  9
$ATTMODE
 70
     1
  9
$TEXTSIZE
 40
0.2
  9
$TRACEWID
 40
0.05
  9
$TEXTSTYLE
  7
STANDARD
  9
$CLAYER
  8
0
  9
$CELTYPE
  6
BYLAYER
  9
$CECOLOR
 62
     7
  9
$DIMSCALE
 40
2.0
  9
$DIMASZ
 40
3.5
  9
$DIMEXO
 40
0.0625
  9
$DIMDLI
 40
0.38
  9
$DIMRND
 40
0.0
  9
$DIMDLE
 40
0.0
  9
$DIMEXE
 40
0.18
  9
$DIMTP
 40
0.0
  9
$DIMTM
 40
0.0
  9
$DIMTXT
 40
3.5
  9
$DIMCEN
 40
0.09
  9
$DIMTSZ
 40
0.0
  9
$DIMTOL
 70
     0
  9
$DIMLIM
 70
     0
  9
$DIMTIH
 70
     1
  9
$DIMTOH
 70
     1
  9
$DIMSE1
 70
     0
  9
$DIMSE2
 70
     0
  9
$DIMTAD
 70
     1
  9
$DIMZIN
 70
     0
  9
$DIMBLK
  1

  9
$DIMASO
 70
     1
  9
$DIMSHO
 70
     1
  9
$DIMPOST
  1

  9
$DIMAPOST
  1

  9
$DIMALT
 70
     0
  9
$DIMALTD
 70
     2
  9
$DIMALTF
 40
25.4
  9
$DIMLFAC
 40
1.0
  9
$DIMTOFL
 70
     0
  9
$DIMTVP
 40
0.0
  9
$DIMTIX
 70
     0
  9
$DIMSOXD
 70
     0
  9
$DIMSAH
 70
     0
  9
$DIMBLK1
  1

  9
$DIMBLK2
  1

  9
$DIMSTYLE
  2
STANDARD
  9
$DIMCLRD
 70
     0
  9
$DIMCLRE
 70
     0
  9
$DIMCLRT
 70
     0
  9
$DIMTFAC
 40
1.0
  9
$DIMGAP
 40
0.09
  9
$LUNITS
 70
     2
  9
$LUPREC
 70
     2
  9
$AXISMODE
 70
     0
  9
$AXISUNIT
 10
0.0
 20
0.0
  9
$SKETCHINC
 40
0.1
  9
$FILLETRAD
 40
0.0
  9
$AUNITS
 70
     0
  9
$AUPREC
 70
     0
  9
$MENU
  1
acad
  9
$ELEVATION
 40
0.0
  9
$PELEVATION
 40
0.0
  9
$THICKNESS
 40
0.0
  9
$LIMCHECK
 70
     0
  9
$BLIPMODE
 70
     1
  9
$CHAMFERA
 40
0.0
  9
$CHAMFERB
 40
0.0
  9
$SKPOLY
 70
     0
  9
$TDCREATE
 40
0.000000000
  9
$TDUPDATE
 40
0.000000000
  9
$TDINDWG
 40
0.0000000000
  9
$TDUSRTIMER
 40
0.0000000000
  9
$USRTIMER
 70
     1
  9
$ANGBASE
 50
0.0
  9
$ANGDIR
 70
     0
  9
$PDMODE
 70
     0
  9
$PDSIZE
 40
0.0
  9
$PLINEWID
 40
0.0
  9
$COORDS
 70
     0
  9
$SPLFRAME
 70
     0
  9
$SPLINETYPE
 70
     6
  9
$SPLINESEGS
 70
     8
  9
$ATTDIA
 70
     0
  9
$ATTREQ
 70
     1
  9
$HANDLING
 70
     1
  9
$HANDSEED
  5
53F
  9
$SURFTAB1
 70
     6
  9
$SURFTAB2
 70
     6
  9
$SURFTYPE
 70
     6
  9
$SURFU
 70
     6
  9
$SURFV
 70
     6
  9
$UCSNAME
  2

  9
$UCSORG
 10
0.0
 20
0.0
 30
0.0
  9
$UCSXDIR
 10
1.0
 20
0.0
 30
0.0
  9
$UCSYDIR
 10
0.0
 20
1.0
 30
0.0
  9
$PUCSNAME
  2

  9
$PUCSORG
 10
0.0
 20
0.0
 30
0.0
  9
$PUCSXDIR
 10
1.0
 20
0.0
 30
0.0
  9
$PUCSYDIR
 10
0.0
 20
1.0
 30
0.0
  9
$USERI1
 70
     0
  9
$USERI2
 70
     0
  9
$USERI3
 70
     0
  9
$USERI4
 70
     0
  9
$USERI5
 70
     0
  9
$USERR1
 40
0.0
  9
$USERR2
 40
0.0
  9
$USERR3
 40
0.0
  9
$USERR4
 40
0.0
  9
$USERR5
 40
0.0
  9
$WORLDVIEW
 70
     1
  9
$SHADEDGE
 70
     3
  9
$SHADEDIF
 70
    70
  9
$TILEMODE
 70
     1
  9
$MAXACTVP
 70
    16
  9
$PINSBASE
 10
0.0
 20
0.0
 30
0.0
  9
$PLIMCHECK
 70
     0
  9
$PEXTMIN
 10
1.000000E+20
 20
1.000000E+20
 30
1.000000E+20
  9
$PEXTMAX
 10
-1.000000E+20
 20
-1.000000E+20
 30
-1.000000E+20
  9
$PLIMMIN
 10
0.0
 20
0.0
  9
$PLIMMAX
 10
840.0
 20
594.0
  9
$UNITMODE
 70
     0
  9
$VISRETAIN
 70
     0
  9
$PLINEGEN
 70
     1
  9
$PSLTSCALE
 70
     0
  9
$TREEDEPTH
 70
  3020
  9
$DWGCODEPAGE
  3
dos850
  0
ENDSEC
  0
SECTION
  2
TABLES
  0
TABLE
  2
VPORT
 70
     1
  0
VPORT
  2
*ACTIVE
 70
     0
 10
0.0
 20
0.0
 11
1.0
 21
1.0
 12
420.0
 22
297.0
 13
0.0
 23
0.0
 14
1.0
 24
1.0
 15
0.0
 25
0.0
 16
0.0
 26
0.0
 36
1.0
 17
0.0
 27
0.0
 37
0.0
 40
594.0
 41
1.604229
 42
50.0
 43
0.0
 44
0.0
 50
0.0
 51
0.0
 71
     0
 72
   100
 73
     1
 74
     1
 75
     0
 76
     0
 77
     0
 78
     0
  0
ENDTAB
  0
TABLE
  2
LTYPE
 70
     3
  0
LTYPE
  2
CONTINUOUS
 70
    64
  3
Solid line
 72
    65
 73
     0
 40
0.0
  0
LTYPE
  2
DASHED
 70
    64
  3
__ __ __ __ __
 72
    65
 73
     2
 40
6.25
 49
5.0
 49
-1.25
  0
LTYPE
  2
DASHDOT
 70
    64
  3
__ . __ . __ . __ . __
 72
    65
 73
     4
 40
7.5
 49
5.0
 49
-1.25
 49
0.0
 49
-1.25
  0
ENDTAB
  0
TABLE
  2
LAYER
 70
    11
  0
LAYER
  2
0
 70
     0
 62
     7
  6
CONTINUOUS
  0
LAYER
  2
LC-INFO-1-2-MM-A3-0
 70
     1
 62
    -1
  6
CONTINUOUS
  0
LAYER
  2
LC-003-003-MTH-0
 70
     0
 62
     2
  6
CONTINUOUS
  0
LAYER
  2
LC-004-003-MTG-0
 70
     0
 62
     2
  6
CONTINUOUS
  0
LAYER
  2
LC-002-003-----0
 70
     0
 62
     2
  6
CONTINUOUS
  0
LAYER
  2
LC-006-005-----0
 70
     0
 62
     2
  6
CONTINUOUS
  0
LAYER
  2
LC-007-000-----0
 70
     0
 62
     7
  6
CONTINUOUS
  0
LAYER
  2
LC-008-000-----0
 70
     0
 62
     7
  6
CONTINUOUS
  0
LAYER
  2
LC-001-002-----0
 70
     0
 62
     2
  6
DASHDOT
  0
LAYER
  2
LC-005-002-RND-0
 70
     0
 62
     1
  6
CONTINUOUS
  0
LAYER
  2
LC-000
 70
     0
 62
     7
  6
CONTINUOUS
  0
ENDTAB
  0
TABLE
  2
STYLE
 70
     4
  0
STYLE
  2
STANDARD
 70
     0
 40
0.0
 41
1.0
 50
0.0
 71
     0
 42
0.0
  3
txt
  4

  0
STYLE
  2
LC-STANDARD
 70
    64
 40
0.0
 41
1.0
 50
0.0
 71
     0
 42
3.5
  3
MONOTXT
  4

  0
STYLE
  2
LC-TXTSTYLE-150-400-0-0-D2
 70
    64
 40
0.0
 41
1.0
 50
15.0
 71
     0
 42
3.5
  3
MONOTXT
  4

  0
STYLE
  2
LC-TXTSTYLE-150-400-0-0-D3
 70
    64
 40
0.0
 41
1.0
 50
15.0
 71
     0
 42
3.5
  3
LC-STANDARD
  4

  0
ENDTAB
  0
TABLE
  2
VIEW
 70
     0
  0
ENDTAB
  0
TABLE
  2
UCS
 70
     0
  0
ENDTAB
  0
TABLE
  2
APPID
 70
     1
  0
APPID
  2
ACAD
 70
     0
  0
ENDTAB
  0
TABLE
  2
DIMSTYLE
 70
     3
  0
DIMSTYLE
  2
STANDARD
 70
     0
  3

  4

  5

  6

  7

 40
1.0
 41
0.18
 42
0.0625
 43
0.38
 44
0.18
 45
0.0
 46
0.0
 47
0.0
 48
0.0
 71
     0
 72
     0
 73
     1
 74
     1
 75
     0
 76
     0
 77
     0
 78
     0
140
0.18
141
0.09
142
0.0
143
25.4
144
1.0
145
0.0
146
1.0
147
0.09
170
     0
171
     2
172
     0
173
     0
174
     0
175
     0
176
     0
177
     0
178
     0
  0
DIMSTYLE
  2
LC-STANDARD
 70
     0
  3

  4

  5

  6

  7

 40
1.0
 41
3.5
 42
0.0
 43
7.5
 44
1.8
 45
0.0
 46
0.0
 47
0.0
 48
0.0
 71
     0
 72
     0
 73
     0
 74
     0
 75
     0
 76
     0
 77
     1
 78
     8
140
3.5
141
0.0
142
0.0
143
25.4
144
1.0
145
0.0
146
0.71
147
1.5
170
     0
171
     2
172
     1
173
     0
174
     0
175
     0
176
     0
177
     0
178
     3
  0
DIMSTYLE
  2
LC-DIM-L-0090-02-02
 70
     0
  3

  4

  5

  6

  7

 40
2.0
 41
3.5
 42
0.0
 43
7.5
 44
1.8
 45
0.0
 46
0.0
 47
0.0
 48
0.0
 71
     0
 72
     0
 73
     0
 74
     0
 75
     0
 76
     0
 77
     1
 78
     8
140
9.0
141
0.0
142
0.0
143
25.4
144
1.0
145
0.0
146
0.71
147
1.5
170
     0
171
     2
172
     0
173
     0
174
     0
175
     0
176
     2
177
     2
178
     6
  0
ENDTAB
  0
ENDSEC
  0
SECTION
  2
BLOCKS
  0
BLOCK
  8
0
  5
23
  2
*D0
 70
    65
 10
0.0
 20
0.0
 30
0.0
  3
*D0
  0
LINE
  8
LC-003-003-MTH-0
  6
CONTINUOUS
  5
25
 10
247.02406
 20
203.742
 30
0.0
 11
247.02406
 21
129.2
 31
0.0
  0
LINE
  8
LC-003-003-MTH-0
  6
CONTINUOUS
  5
26
 10
558.02406
 20
257.242
 30
0.0
 11
558.02406
 21
129.2
 31
0.0
  0
LINE
  8
LC-004-003-MTG-0
  6
CONTINUOUS
  5
28
 10
247.02406
 20
140.0
 30
0.0
 11
558.02406
 21
140.0
 31
0.0
  0
LINE
  8
LC-002-003-----0
  6
CONTINUOUS
  5
2A
 10
264.870067
 20
142.349471
 30
0.0
 11
247.02406
 21
140.0
 31
0.0
  0
LINE
  8
LC-002-003-----0
  6
CONTINUOUS
  5
2B
 10
247.02406
 20
140.0
 30
0.0
 11
264.870067
 21
137.650529
 31
0.0
  0
LINE
  8
LC-002-003-----0
  6
CONTINUOUS
  5
2C
 10
264.870067
 20
137.650529
 30
0.0
 11
264.870067
 21
142.349471
 31
0.0
  0
LINE
  8
LC-002-003-----0
  6
CONTINUOUS
  5
2D
 10
264.910106
 20
141.738609
 30
0.0
 11
251.70406
 21
140.0
 31
0.0
  0
LINE
  8
LC-002-003-----0
  6
CONTINUOUS
  5
2E
 10
251.70406
 20
140.0
 30
0.0
 11
264.910106
 21
138.261391
 31
0.0
  0
LINE
  8
LC-002-003-----0
  6
CONTINUOUS
  5
2F
 10
264.950144
 20
141.127746
 30
0.0
 11
256.38406
 21
140.0
 31
0.0
  0
LINE
  8
LC-002-003-----0
  6
CONTINUOUS
  5
30
 10
256.38406
 20
140.0
 30
0.0
 11
264.950144
 21
138.872254
 31
0.0
  0
LINE
  8
LC-002-003-----0
  6
CONTINUOUS
  5
31
 10
264.990182
 20
140.516884
 30
0.0
 11
261.06406
 21
140.0
 31
0.0
  0
LINE
  8
LC-002-003-----0
  6
CONTINUOUS
  5
32
 10
261.06406
 20
140.0
 30
0.0
 11
264.990182
 21
139.483116
 31
0.0
  0
LINE
  8
LC-002-003-----0
  6
CONTINUOUS
  5
33
 10
540.178052
 20
137.650529
 30
0.0
 11
558.02406
 21
140.0
 31
0.0
  0
LINE
  8
LC-002-003-----0
  6
CONTINUOUS
  5
34
 10
558.02406
 20
140.0
 30
0.0
 11
540.178052
 21
142.349471
 31
0.0
  0
LINE
  8
LC-002-003-----0
  6
CONTINUOUS
  5
35
 10
540.178052
 20
142.349471
 30
0.0
 11
540.178052
 21
137.650529
 31
0.0
  0
LINE
  8
LC-002-003-----0
  6
CONTINUOUS
  5
36
 10
540.138014
 20
138.261391
 30
0.0
 11
553.34406
 21
140.0
 31
0.0
  0
LINE
  8
LC-002-003-----0
  6
CONTINUOUS
  5
37
 10
553.34406
 20
140.0
 30
0.0
 11
540.138014
 21
141.738609
 31
0.0
  0
LINE
  8
LC-002-003-----0
  6
CONTINUOUS
  5
38
 10
540.097976
 20
138.872254
 30
0.0
 11
548.66406
 21
140.0
 31
0.0
  0
LINE
  8
LC-002-003-----0
  6
CONTINUOUS
  5
39
 10
548.66406
 20
140.0
 30
0.0
 11
540.097976
 21
141.127746
 31
0.0
  0
LINE
  8
LC-002-003-----0
  6
CONTINUOUS
  5
3A
 10
540.057938
 20
139.483116
 30
0.0
 11
543.98406
 21
140.0
 31
0.0
  0
LINE
  8
LC-002-003-----0
  6
CONTINUOUS
  5
3B
 10
543.98406
 20
140.0
 30
0.0
 11
540.057938
 21
140.516884
 31
0.0
  0
TEXT
  8
LC-002-003-----0
  6
CONTINUOUS
 62
     6
  5
3D
 10
356.272849
 20
150.431999
 30
0.0
 40
18.0
  1
140-310
 41
0.9
 51
15.0
  7
LC-TXTSTYLE-150-400-0-0-D0
 72
     1
 11
405.319306
 21
150.431999
 31
0.0
  0
ENDBLK
  8
0
  5
3E
  0
BLOCK
  8
0
  5
40
  2
*X1
 70
    65
 10
275.02406
 20
241.892
 30
0.0
  3
*X1
  0
LINE
  8
LC-006-005-----0
  6
CONTINUOUS
  5
42
 10
275.834067
 20
241.892941
 30
0.0
 11
276.723119
 21
242.781993
 31
0.0
  0
LINE
  8
LC-006-005-----0
  6
CONTINUOUS
  5
43
 10
275.407157
 20
242.031717
 30
0.0
 11
276.584343
 21
243.208903
 31
0.0
  0
LINE
  8
LC-006-005-----0
  6
CONTINUOUS
  5
44
 10
275.133874
 20
242.324119
 30
0.0
 11
276.291941
 21
243.482186
 31
0.0
  0
LINE
  8
LC-006-005-----0
  6
CONTINUOUS
  5
45
 10
275.02495
 20
242.78088
 30
0.0
 11
275.83518
 21
243.59111
 31
0.0
  0
ENDBLK
  8
0
  5
46
  0
BLOCK
  8
0
  5
48
  2
*X2
 70
    65
 10
304.32406
 20
241.892
 30
0.0
  3
*X2
  0
LINE
  8
LC-006-005-----0
  6
CONTINUOUS
  5
49
 10
305.252384
 20
241.895616
 30
0.0
 11
306.020444
 21
242.663676
 31
0.0
  0
LINE
  8
LC-006-005-----0
  6
CONTINUOUS
  5
4A
 10
304.779963
 20
241.988881
 30
0.0
 11
305.927179
 21
243.136097
 31
0.0
  0
LINE
  8
LC-006-005-----0
  6
CONTINUOUS
  5
4B
 10
304.478637
 20
242.25324
 30
0.0
 11
305.66282
 21
243.437423
 31
0.0
  0
LINE
  8
LC-006-005-----0
  6
CONTINUOUS
  5
4C
 10
304.327321
 20
242.66761
 30
0.0
 11
305.24845
 21
243.588739
 31
0.0
  0
ENDBLK
  8
0
  5
4D
  0
BLOCK
  8
0
  5
4F
  2
*X3
 70
    65
 10
228.612517
 20
272.742
 30
0.0
  3
*X3
  0
LINE
  8
LC-006-005-----0
  6
CONTINUOUS
  5
50
 10
230.874343
 20
273.30075
 30
0.0
 11
231.02406
 21
273.450467
 31
0.0
  0
LINE
  8
LC-006-005-----0
  6
CONTINUOUS
  5
51
 10
230.575485
 20
274.416105
 30
0.0
 11
231.02406
 21
274.86468
 31
0.0
  0
LINE
  8
LC-006-005-----0
  6
CONTINUOUS
  5
52
 10
230.276626
 20
275.53146
 30
0.0
 11
231.02406
 21
276.278894
 31
0.0
  0
LINE
  8
LC-006-005-----0
  6
CONTINUOUS
  5
53
 10
229.977768
 20
276.646815
 30
0.0
 11
231.02406
 21
277.693108
 31
0.0
  0
LINE
  8
LC-006-005-----0
  6
CONTINUOUS
  5
54
 10
229.678909
 20
277.76217
 30
0.0
 11
231.02406
 21
279.107321
 31
0.0
  0
LINE
  8
LC-006-005-----0
  6
CONTINUOUS
  5
55
 10
229.380051
 20
278.877526
 30
0.0
 11
231.02406
 21
280.521535
 31
0.0
  0
LINE
  8
LC-006-005-----0
  6
CONTINUOUS
  5
56
 10
229.081192
 20
279.992881
 30
0.0
 11
230.830312
 21
281.742
 31
0.0
  0
LINE
  8
LC-006-005-----0
  6
CONTINUOUS
  5
57
 10
228.782334
 20
281.108236
 30
0.0
 11
229.416098
 21
281.742
 31
0.0
  0
ENDBLK
  8
0
  5
58
  0
BLOCK
  8
0
  5
5A
  2
*X4
 70
    65
 10
263.02406
 20
272.742
 30
0.0
  3
*X4
  0
LINE
  8
LC-006-005-----0
  6
CONTINUOUS
  5
5B
 10
263.02406
 20
272.923555
 30
0.0
 11
263.090514
 21
272.990009
 31
0.0
  0
LINE
  8
LC-006-005-----0
  6
CONTINUOUS
  5
5C
 10
263.02406
 20
274.337768
 30
0.0
 11
263.608152
 21
274.92186
 31
0.0
  0
LINE
  8
LC-006-005-----0
  6
CONTINUOUS
  5
5D
 10
263.02406
 20
275.751982
 30
0.0
 11
264.12579
 21
276.853712
 31
0.0
  0
LINE
  8
LC-006-005-----0
  6
CONTINUOUS
  5
5E
 10
263.02406
 20
277.166196
 30
0.0
 11
264.643428
 21
278.785564
 31
0.0
  0
LINE
  8
LC-006-005-----0
  6
CONTINUOUS
  5
5F
 10
263.02406
 20
278.580409
 30
0.0
 11
265.161066
 21
280.717415
 31
0.0
  0
LINE
  8
LC-006-005-----0
  6
CONTINUOUS
  5
60
 10
263.02406
 20
279.994623
 30
0.0
 11
264.771437
 21
281.742
 31
0.0
  0
LINE
  8
LC-006-005-----0
  6
CONTINUOUS
  5
61
 10
263.02406
 20
281.408836
 30
0.0
 11
263.357224
 21
281.742
 31
0.0
  0
ENDBLK
  8
0
  5
62
  0
BLOCK
  8
0
  5
64
  2
*X5
 70
    65
 10
193.02406
 20
205.742
 30
0.0
  3
*X5
  0
LINE
  8
LC-006-005-----0
  6
CONTINUOUS
  5
65
 10
261.02406
 20
207.283945
 30
0.0
 11
263.02406
 21
209.283945
 31
0.0
  0
LINE
  8
LC-006-005-----0
  6
CONTINUOUS
  5
66
 10
261.02406
 20
210.112372
 30
0.0
 11
263.02406
 21
212.112372
 31
0.0
  0
LINE
  8
LC-006-005-----0
  6
CONTINUOUS
  5
67
 10
261.02406
 20
212.940799
 30
0.0
 11
263.02406
 21
214.940799
 31
0.0
  0
LINE
  8
LC-006-005-----0
  6
CONTINUOUS
  5
68
 10
261.02406
 20
215.769226
 30
0.0
 11
263.02406
 21
217.769226
 31
0.0
  0
LINE
  8
LC-006-005-----0
  6
CONTINUOUS
  5
69
 10
261.02406
 20
218.597653
 30
0.0
 11
263.02406
 21
220.597653
 31
0.0
  0
LINE
  8
LC-006-005-----0
  6
CONTINUOUS
  5
6A
 10
261.02406
 20
221.42608
 30
0.0
 11
263.02406
 21
223.42608
 31
0.0
  0
LINE
  8
LC-006-005-----0
  6
CONTINUOUS
  5
6B
 10
261.02406
 20
224.254507
 30
0.0
 11
263.02406
 21
226.254507
 31
0.0
  0
LINE
  8
LC-006-005-----0
  6
CONTINUOUS
  5
6C
 10
261.02406
 20
227.082934
 30
0.0
 11
263.02406
 21
229.082934
 31
0.0
  0
LINE
  8
LC-006-005-----0
  6
CONTINUOUS
  5
6D
 10
261.02406
 20
229.911362
 30
0.0
 11
263.02406
 21
231.911362
 31
0.0
  0
LINE
  8
LC-006-005-----0
  6
CONTINUOUS
  5
6E
 10
261.02406
 20
232.739789
 30
0.0
 11
263.02406
 21
234.739789
 31
0.0
  0
LINE
  8
LC-006-005-----0
  6
CONTINUOUS
  5
6F
 10
261.02406
 20
235.568216
 30
0.0
 11
263.02406
 21
237.568216
 31
0.0
  0
LINE
  8
LC-006-005-----0
  6
CONTINUOUS
  5
70
 10
261.02406
 20
238.396643
 30
0.0
 11
263.02406
 21
240.396643
 31
0.0
  0
LINE
  8
LC-006-005-----0
  6
CONTINUOUS
  5
71
 10
261.02406
 20
241.22507
 30
0.0
 11
263.02406
 21
243.22507
 31
0.0
  0
LINE
  8
LC-006-005-----0
  6
CONTINUOUS
  5
72
 10
261.02406
 20
244.053497
 30
0.0
 11
263.02406
 21
246.053497
 31
0.0
  0
LINE
  8
LC-006-005-----0
  6
CONTINUOUS
  5
73
 10
261.02406
 20
246.881924
 30
0.0
 11
263.02406
 21
248.881924
 31
0.0
  0
LINE
  8
LC-006-005-----0
  6
CONTINUOUS
  5
74
 10
261.02406
 20
249.710351
 30
0.0
 11
263.02406
 21
251.710351
 31
0.0
  0
LINE
  8
LC-006-005-----0
  6
CONTINUOUS
  5
75
 10
261.02406
 20
252.538779
 30
0.0
 11
263.02406
 21
254.538779
 31
0.0
  0
LINE
  8
LC-006-005-----0
  6
CONTINUOUS
  5
76
 10
261.02406
 20
255.367206
 30
0.0
 11
263.02406
 21
257.367206
 31
0.0
  0
LINE
  8
LC-006-005-----0
  6
CONTINUOUS
  5
77
 10
261.02406
 20
258.195633
 30
0.0
 11
263.02406
 21
260.195633
 31
0.0
  0
LINE
  8
LC-006-005-----0
  6
CONTINUOUS
  5
78
 10
261.02406
 20
261.02406
 30
0.0
 11
263.02406
 21
263.02406
 31
0.0
  0
LINE
  8
LC-006-005-----0
  6
CONTINUOUS
  5
79
 10
261.02406
 20
263.852487
 30
0.0
 11
263.02406
 21
265.852487
 31
0.0
  0
LINE
  8
LC-006-005-----0
  6
CONTINUOUS
  5
7A
 10
261.02406
 20
266.680914
 30
0.0
 11
263.02406
 21
268.680914
 31
0.0
  0
LINE
  8
LC-006-005-----0
  6
CONTINUOUS
  5
7B
 10
261.02406
 20
269.509341
 30
0.0
 11
263.02406
 21
271.509341
 31
0.0
  0
LINE
  8
LC-006-005-----0
  6
CONTINUOUS
  5
7C
 10
261.02406
 20
272.337768
 30
0.0
 11
263.02406
 21
274.337768
 31
0.0
  0
LINE
  8
LC-006-005-----0
  6
CONTINUOUS
  5
7D
 10
261.02406
 20
275.166196
 30
0.0
 11
263.02406
 21
277.166196
 31
0.0
  0
LINE
  8
LC-006-005-----0
  6
CONTINUOUS
  5
7E
 10
261.02406
 20
277.994623
 30
0.0
 11
263.02406
 21
279.994623
 31
0.0
  0
LINE
  8
LC-006-005-----0
  6
CONTINUOUS
  5
7F
 10
261.02406
 20
280.82305
 30
0.0
 11
263.02406
 21
282.82305
 31
0.0
  0
LINE
  8
LC-006-005-----0
  6
CONTINUOUS
  5
80
 10
261.02406
 20
283.651477
 30
0.0
 11
263.02406
 21
285.651477
 31
0.0
  0
LINE
  8
LC-006-005-----0
  6
CONTINUOUS
  5
81
 10
261.02406
 20
286.479904
 30
0.0
 11
263.02406
 21
288.479904
 31
0.0
  0
LINE
  8
LC-006-005-----0
  6
CONTINUOUS
  5
82
 10
261.02406
 20
289.308331
 30
0.0
 11
263.02406
 21
291.308331
 31
0.0
  0
LINE
  8
LC-006-005-----0
  6
CONTINUOUS
  5
83
 10
261.02406
 20
292.136758
 30
0.0
 11
263.02406
 21
294.136758
 31
0.0
  0
LINE
  8
LC-006-005-----0
  6
CONTINUOUS
  5
84
 10
261.02406
 20
294.965185
 30
0.0
 11
263.02406
 21
296.965185
 31
0.0
  0
LINE
  8
LC-006-005-----0
  6
CONTINUOUS
  5
85
 10
261.02406
 20
297.793613
 30
0.0
 11
263.02406
 21
299.793613
 31
0.0
  0
LINE
  8
LC-006-005-----0
  6
CONTINUOUS
  5
86
 10
261.02406
 20
300.62204
 30
0.0
 11
263.02406
 21
302.62204
 31
0.0
  0
LINE
  8
LC-006-005-----0
  6
CONTINUOUS
  5
87
 10
261.02406
 20
303.450467
 30
0.0
 11
263.02406
 21
305.450467
 31
0.0
  0
LINE
  8
LC-006-005-----0
  6
CONTINUOUS
  5
88
 10
261.02406
 20
306.278894
 30
0.0
 11
263.02406
 21
308.278894
 31
0.0
  0
LINE
  8
LC-006-005-----0
  6
CONTINUOUS
  5
89
 10
261.02406
 20
309.107321
 30
0.0
 11
263.02406
 21
311.107321
 31
0.0
  0
LINE
  8
LC-006-005-----0
  6
CONTINUOUS
  5
8A
 10
261.02406
 20
311.935748
 30
0.0
 11
263.02406
 21
313.935748
 31
0.0
  0
LINE
  8
LC-006-005-----0
  6
CONTINUOUS
  5
8B
 10
261.02406
 20
314.764175
 30
0.0
 11
263.02406
 21
316.764175
 31
0.0
  0
LINE
  8
LC-006-005-----0
  6
CONTINUOUS
  5
8C
 10
261.02406
 20
317.592602
 30
0.0
 11
263.02406
 21
319.592602
 31
0.0
  0
LINE
  8
LC-006-005-----0
  6
CONTINUOUS
  5
8D
 10
261.02406
 20
320.42103
 30
0.0
 11
263.02406
 21
322.42103
 31
0.0
  0
LINE
  8
LC-006-005-----0
  6
CONTINUOUS
  5
8E
 10
261.02406
 20
323.249457
 30
0.0
 11
263.02406
 21
325.249457
 31
0.0
  0
LINE
  8
LC-006-005-----0
  6
CONTINUOUS
  5
8F
 10
261.02406
 20
326.077884
 30
0.0
 11
263.02406
 21
328.077884
 31
0.0
  0
LINE
  8
LC-006-005-----0
  6
CONTINUOUS
  5
90
 10
261.02406
 20
328.906311
 30
0.0
 11
263.02406
 21
330.906311
 31
0.0
  0
LINE
  8
LC-006-005-----0
  6
CONTINUOUS
  5
91
 10
261.02406
 20
331.734738
 30
0.0
 11
263.02406
 21
333.734738
 31
0.0
  0
LINE
  8
LC-006-005-----0
  6
CONTINUOUS
  5
92
 10
261.02406
 20
334.563165
 30
0.0
 11
263.02406
 21
336.563165
 31
0.0
  0
LINE
  8
LC-006-005-----0
  6
CONTINUOUS
  5
93
 10
261.02406
 20
337.391592
 30
0.0
 11
263.02406
 21
339.391592
 31
0.0
  0
LINE
  8
LC-006-005-----0
  6
CONTINUOUS
  5
94
 10
261.02406
 20
340.220019
 30
0.0
 11
263.02406
 21
342.220019
 31
0.0
  0
LINE
  8
LC-006-005-----0
  6
CONTINUOUS
  5
95
 10
261.02406
 20
343.048447
 30
0.0
 11
263.02406
 21
345.048447
 31
0.0
  0
LINE
  8
LC-006-005-----0
  6
CONTINUOUS
  5
96
 10
261.02406
 20
345.876874
 30
0.0
 11
263.02406
 21
347.876874
 31
0.0
  0
LINE
  8
LC-006-005-----0
  6
CONTINUOUS
  5
97
 10
261.02406
 20
348.705301
 30
0.0
 11
263.02406
 21
350.705301
 31
0.0
  0
LINE
  8
LC-006-005-----0
  6
CONTINUOUS
  5
98
 10
261.02406
 20
351.533728
 30
0.0
 11
263.02406
 21
353.533728
 31
0.0
  0
LINE
  8
LC-006-005-----0
  6
CONTINUOUS
  5
99
 10
261.02406
 20
354.362155
 30
0.0
 11
263.02406
 21
356.362155
 31
0.0
  0
LINE
  8
LC-006-005-----0
  6
CONTINUOUS
  5
9A
 10
261.02406
 20
357.190582
 30
0.0
 11
263.02406
 21
359.190582
 31
0.0
  0
LINE
  8
LC-006-005-----0
  6
CONTINUOUS
  5
9B
 10
261.02406
 20
360.019009
 30
0.0
 11
263.02406
 21
362.019009
 31
0.0
  0
LINE
  8
LC-006-005-----0
  6
CONTINUOUS
  5
9C
 10
261.02406
 20
362.847436
 30
0.0
 11
263.02406
 21
364.847436
 31
0.0
  0
LINE
  8
LC-006-005-----0
  6
CONTINUOUS
  5
9D
 10
261.02406
 20
365.675864
 30
0.0
 11
263.02406
 21
367.675864
 31
0.0
  0
LINE
  8
LC-006-005-----0
  6
CONTINUOUS
  5
9E
 10
261.02406
 20
368.504291
 30
0.0
 11
263.02406
 21
370.504291
 31
0.0
  0
LINE
  8
LC-006-005-----0
  6
CONTINUOUS
  5
9F
 10
261.02406
 20
371.332718
 30
0.0
 11
263.02406
 21
373.332718
 31
0.0
  0
LINE
  8
LC-006-005-----0
  6
CONTINUOUS
  5
A0
 10
261.02406
 20
374.161145
 30
0.0
 11
263.02406
 21
376.161145
 31
0.0
  0
LINE
  8
LC-006-005-----0
  6
CONTINUOUS
  5
A1
 10
261.02406
 20
376.989572
 30
0.0
 11
263.02406
 21
378.989572
 31
0.0
  0
LINE
  8
LC-006-005-----0
  6
CONTINUOUS
  5
A2
 10
261.02406
 20
379.817999
 30
0.0
 11
263.02406
 21
381.817999
 31
0.0
  0
LINE
  8
LC-006-005-----0
  6
CONTINUOUS
  5
A3
 10
261.02406
 20
382.646426
 30
0.0
 11
263.02406
 21
384.646426
 31
0.0
  0
LINE
  8
LC-006-005-----0
  6
CONTINUOUS
  5
A4
 10
261.02406
 20
385.474853
 30
0.0
 11
263.02406
 21
387.474853
 31
0.0
  0
LINE
  8
LC-006-005-----0
  6
CONTINUOUS
  5
A5
 10
261.02406
 20
388.303281
 30
0.0
 11
263.02406
 21
390.303281
 31
0.0
  0
LINE
  8
LC-006-005-----0
  6
CONTINUOUS
  5
A6
 10
261.02406
 20
391.131708
 30
0.0
 11
263.02406
 21
393.131708
 31
0.0
  0
LINE
  8
LC-006-005-----0
  6
CONTINUOUS
  5
A7
 10
261.02406
 20
393.960135
 30
0.0
 11
263.02406
 21
395.960135
 31
0.0
  0
LINE
  8
LC-006-005-----0
  6
CONTINUOUS
  5
A8
 10
261.02406
 20
396.788562
 30
0.0
 11
263.02406
 21
398.788562
 31
0.0
  0
LINE
  8
LC-006-005-----0
  6
CONTINUOUS
  5
A9
 10
261.02406
 20
399.616989
 30
0.0
 11
263.02406
 21
401.616989
 31
0.0
  0
LINE
  8
LC-006-005-----0
  6
CONTINUOUS
  5
AA
 10
261.02406
 20
402.445416
 30
0.0
 11
263.02406
 21
404.445416
 31
0.0
  0
LINE
  8
LC-006-005-----0
  6
CONTINUOUS
  5
AB
 10
261.02406
 20
405.273843
 30
0.0
 11
263.02406
 21
407.273843
 31
0.0
  0
LINE
  8
LC-006-005-----0
  6
CONTINUOUS
  5
AC
 10
261.02406
 20
408.10227
 30
0.0
 11
263.02406
 21
410.10227
 31
0.0
  0
LINE
  8
LC-006-005-----0
  6
CONTINUOUS
  5
AD
 10
261.02406
 20
410.930698
 30
0.0
 11
263.02406
 21
412.930698
 31
0.0
  0
LINE
  8
LC-006-005-----0
  6
CONTINUOUS
  5
AE
 10
261.02406
 20
413.759125
 30
0.0
 11
263.02406
 21
415.759125
 31
0.0
  0
LINE
  8
LC-006-005-----0
  6
CONTINUOUS
  5
AF
 10
261.02406
 20
416.587552
 30
0.0
 11
263.02406
 21
418.587552
 31
0.0
  0
LINE
  8
LC-006-005-----0
  6
CONTINUOUS
  5
B0
 10
261.02406
 20
419.415979
 30
0.0
 11
263.02406
 21
421.415979
 31
0.0
  0
LINE
  8
LC-006-005-----0
  6
CONTINUOUS
  5
B1
 10
261.02406
 20
422.244406
 30
0.0
 11
263.02406
 21
424.244406
 31
0.0
  0
LINE
  8
LC-006-005-----0
  6
CONTINUOUS
  5
B2
 10
261.02406
 20
425.072833
 30
0.0
 11
263.02406
 21
427.072833
 31
0.0
  0
LINE
  8
LC-006-005-----0
  6
CONTINUOUS
  5
B3
 10
261.02406
 20
427.90126
 30
0.0
 11
263.02406
 21
429.90126
 31
0.0
  0
LINE
  8
LC-006-005-----0
  6
CONTINUOUS
  5
B4
 10
261.02406
 20
430.729687
 30
0.0
 11
263.02406
 21
432.729687
 31
0.0
  0
LINE
  8
LC-006-005-----0
  6
CONTINUOUS
  5
B5
 10
261.02406
 20
433.558115
 30
0.0
 11
263.02406
 21
435.558115
 31
0.0
  0
LINE
  8
LC-006-005-----0
  6
CONTINUOUS
  5
B6
 10
261.02406
 20
436.386542
 30
0.0
 11
263.02406
 21
438.386542
 31
0.0
  0
LINE
  8
LC-006-005-----0
  6
CONTINUOUS
  5
B7
 10
261.02406
 20
439.214969
 30
0.0
 11
263.02406
 21
441.214969
 31
0.0
  0
LINE
  8
LC-006-005-----0
  6
CONTINUOUS
  5
B8
 10
261.02406
 20
442.043396
 30
0.0
 11
263.02406
 21
444.043396
 31
0.0
  0
LINE
  8
LC-006-005-----0
  6
CONTINUOUS
  5
B9
 10
261.02406
 20
444.871823
 30
0.0
 11
263.02406
 21
446.871823
 31
0.0
  0
LINE
  8
LC-006-005-----0
  6
CONTINUOUS
  5
BA
 10
261.02406
 20
447.70025
 30
0.0
 11
263.02406
 21
449.70025
 31
0.0
  0
LINE
  8
LC-006-005-----0
  6
CONTINUOUS
  5
BB
 10
261.02406
 20
450.528677
 30
0.0
 11
263.02406
 21
452.528677
 31
0.0
  0
LINE
  8
LC-006-005-----0
  6
CONTINUOUS
  5
BC
 10
261.02406
 20
453.357104
 30
0.0
 11
263.02406
 21
455.357104
 31
0.0
  0
LINE
  8
LC-006-005-----0
  6
CONTINUOUS
  5
BD
 10
261.02406
 20
456.185532
 30
0.0
 11
263.02406
 21
458.185532
 31
0.0
  0
LINE
  8
LC-006-005-----0
  6
CONTINUOUS
  5
BE
 10
261.02406
 20
459.013959
 30
0.0
 11
263.02406
 21
461.013959
 31
0.0
  0
LINE
  8
LC-006-005-----0
  6
CONTINUOUS
  5
BF
 10
261.02406
 20
461.842386
 30
0.0
 11
263.02406
 21
463.842386
 31
0.0
  0
LINE
  8
LC-006-005-----0
  6
CONTINUOUS
  5
C0
 10
261.02406
 20
464.670813
 30
0.0
 11
263.02406
 21
466.670813
 31
0.0
  0
LINE
  8
LC-006-005-----0
  6
CONTINUOUS
  5
C1
 10
261.02406
 20
467.49924
 30
0.0
 11
263.02406
 21
469.49924
 31
0.0
  0
LINE
  8
LC-006-005-----0
  6
CONTINUOUS
  5
C2
 10
261.02406
 20
470.327667
 30
0.0
 11
263.02406
 21
472.327667
 31
0.0
  0
LINE
  8
LC-006-005-----0
  6
CONTINUOUS
  5
C3
 10
261.02406
 20
473.156094
 30
0.0
 11
263.02406
 21
475.156094
 31
0.0
  0
LINE
  8
LC-006-005-----0
  6
CONTINUOUS
  5
C4
 10
261.02406
 20
475.984521
 30
0.0
 11
263.02406
 21
477.984521
 31
0.0
  0
LINE
  8
LC-006-005-----0
  6
CONTINUOUS
  5
C5
 10
261.02406
 20
478.812949
 30
0.0
 11
263.02406
 21
480.812949
 31
0.0
  0
LINE
  8
LC-006-005-----0
  6
CONTINUOUS
  5
C6
 10
261.02406
 20
481.641376
 30
0.0
 11
263.02406
 21
483.641376
 31
0.0
  0
LINE
  8
LC-006-005-----0
  6
CONTINUOUS
  5
C7
 10
261.02406
 20
484.469803
 30
0.0
 11
263.016645
 21
486.462388
 31
0.0
  0
LINE
  8
LC-006-005-----0
  6
CONTINUOUS
  5
C8
 10
260.988982
 20
487.263152
 30
0.0
 11
262.859352
 21
489.133522
 31
0.0
  0
LINE
  8
LC-006-005-----0
  6
CONTINUOUS
  5
C9
 10
260.76514
 20
489.867737
 30
0.0
 11
262.525556
 21
491.628153
 31
0.0
  0
LINE
  8
LC-006-005-----0
  6
CONTINUOUS
  5
CA
 10
260.366393
 20
492.297417
 30
0.0
 11
262.042355
 21
493.973379
 31
0.0
  0
LINE
  8
LC-006-005-----0
  6
CONTINUOUS
  5
CB
 10
259.818987
 20
494.578438
 30
0.0
 11
261.428791
 21
496.188242
 31
0.0
  0
LINE
  8
LC-006-005-----0
  6
CONTINUOUS
  5
CC
 10
259.141291
 20
496.72917
 30
0.0
 11
260.698716
 21
498.286595
 31
0.0
  0
LINE
  8
LC-006-005-----0
  6
CONTINUOUS
  5
CD
 10
258.346595
 20
498.762901
 30
0.0
 11
259.862446
 21
500.278752
 31
0.0
  0
LINE
  8
LC-006-005-----0
  6
CONTINUOUS
  5
CE
 10
257.444702
 20
500.689435
 30
0.0
 11
258.927762
 21
502.172495
 31
0.0
  0
LINE
  8
LC-006-005-----0
  6
CONTINUOUS
  5
CF
 10
256.442905
 20
502.516065
 30
0.0
 11
257.900551
 21
503.973711
 31
0.0
  0
LINE
  8
LC-006-005-----0
  6
CONTINUOUS
  5
D0
 10
255.346598
 20
504.248185
 30
0.0
 11
256.785224
 21
505.686811
 31
0.0
  0
LINE
  8
LC-006-005-----0
  6
CONTINUOUS
  5
D1
 10
254.159678
 20
505.889692
 30
0.0
 11
255.584996
 21
507.315011
 31
0.0
  0
LINE
  8
LC-006-005-----0
  6
CONTINUOUS
  5
D2
 10
252.884797
 20
507.443238
 30
0.0
 11
254.302076
 21
508.860518
 31
0.0
  0
LINE
  8
LC-006-005-----0
  6
CONTINUOUS
  5
D3
 10
251.523532
 20
508.910401
 30
0.0
 11
252.93778
 21
510.324648
 31
0.0
  0
LINE
  8
LC-006-005-----0
  6
CONTINUOUS
  5
D4
 10
250.076472
 20
510.291768
 30
0.0
 11
251.492599
 21
511.707894
 31
0.0
  0
LINE
  8
LC-006-005-----0
  6
CONTINUOUS
  5
D5
 10
248.543253
 20
511.586975
 30
0.0
 11
249.966229
 21
513.009952
 31
0.0
  0
LINE
  8
LC-006-005-----0
  6
CONTINUOUS
  5
D6
 10
246.922534
 20
512.794684
 30
0.0
 11
248.357552
 21
514.229701
 31
0.0
  0
LINE
  8
LC-006-005-----0
  6
CONTINUOUS
  5
D7
 10
245.211926
 20
513.912503
 30
0.0
 11
246.664576
 21
515.365153
 31
0.0
  0
LINE
  8
LC-006-005-----0
  6
CONTINUOUS
  5
D8
 10
243.407844
 20
514.936848
 30
0.0
 11
244.884336
 21
516.41334
 31
0.0
  0
LINE
  8
LC-006-005-----0
  6
CONTINUOUS
  5
D9
 10
241.505274
 20
515.862705
 30
0.0
 11
243.012721
 21
517.370152
 31
0.0
  0
LINE
  8
LC-006-005-----0
  6
CONTINUOUS
  5
DA
 10
239.497412
 20
516.68327
 30
0.0
 11
241.044222
 21
518.23008
 31
0.0
  0
LINE
  8
LC-006-005-----0
  6
CONTINUOUS
  5
DB
 10
237.375113
 20
517.389398
 30
0.0
 11
238.971549
 21
518.985834
 31
0.0
  0
LINE
  8
LC-006-005-----0
  6
CONTINUOUS
  5
DC
 10
235.126018
 20
517.968731
 30
0.0
 11
236.785052
 21
519.627764
 31
0.0
  0
LINE
  8
LC-006-005-----0
  6
CONTINUOUS
  5
DD
 10
232.733141
 20
518.40428
 30
0.0
 11
234.471825
 21
520.142964
 31
0.0
  0
LINE
  8
LC-006-005-----0
  6
CONTINUOUS
  5
DE
 10
230.172427
 20
518.671994
 30
0.0
 11
232.014239
 21
520.513806
 31
0.0
  0
LINE
  8
LC-006-005-----0
  6
CONTINUOUS
  5
DF
 10
227.414006
 20
518.742
 30
0.0
 11
229.387442
 21
520.715435
 31
0.0
  0
LINE
  8
LC-006-005-----0
  6
CONTINUOUS
  5
E0
 10
224.585579
 20
518.742
 30
0.0
 11
226.585579
 21
520.742
 31
0.0
  0
LINE
  8
LC-006-005-----0
  6
CONTINUOUS
  5
E1
 10
221.757152
 20
518.742
 30
0.0
 11
223.757152
 21
520.742
 31
0.0
  0
LINE
  8
LC-006-005-----0
  6
CONTINUOUS
  5
E2
 10
218.928725
 20
518.742
 30
0.0
 11
220.928725
 21
520.742
 31
0.0
  0
LINE
  8
LC-006-005-----0
  6
CONTINUOUS
  5
E3
 10
216.100298
 20
518.742
 30
0.0
 11
218.100298
 21
520.742
 31
0.0
  0
LINE
  8
LC-006-005-----0
  6
CONTINUOUS
  5
E4
 10
213.271871
 20
518.742
 30
0.0
 11
215.271871
 21
520.742
 31
0.0
  0
LINE
  8
LC-006-005-----0
  6
CONTINUOUS
  5
E5
 10
210.443443
 20
518.742
 30
0.0
 11
212.443443
 21
520.742
 31
0.0
  0
LINE
  8
LC-006-005-----0
  6
CONTINUOUS
  5
E6
 10
207.72977
 20
518.856753
 30
0.0
 11
209.615016
 21
520.742
 31
0.0
  0
LINE
  8
LC-006-005-----0
  6
CONTINUOUS
  5
E7
 10
205.499059
 20
519.45447
 30
0.0
 11
206.786589
 21
520.742
 31
0.0
  0
LINE
  8
LC-006-005-----0
  6
CONTINUOUS
  5
E8
 10
203.268349
 20
520.052187
 30
0.0
 11
203.958162
 21
520.742
 31
0.0
  0
ENDBLK
  8
0
  5
E9
  0
BLOCK
  8
0
  5
EB
  2
*X6
 70
    65
 10
265.024059
 20
265.241984
 30
0.0
  3
*X6
  0
LINE
  8
LC-006-005-----0
  6
CONTINUOUS
  5
EC
 10
269.024049
 20
265.548679
 30
0.0
 11
269.330744
 21
265.241985
 31
0.0
  0
LINE
  8
LC-006-005-----0
  6
CONTINUOUS
  5
ED
 10
269.024052
 20
269.791315
 30
0.0
 11
271.024051
 21
267.791319
 31
0.0
  0
LINE
  8
LC-006-005-----0
  6
CONTINUOUS
  5
EE
 10
269.024055
 20
274.03395
 30
0.0
 11
271.024054
 21
272.033954
 31
0.0
  0
LINE
  8
LC-006-005-----0
  6
CONTINUOUS
  5
EF
 10
265.52406
 20
281.776578
 30
0.0
 11
265.55865
 21
281.741988
 31
0.0
  0
LINE
  8
LC-006-005-----0
  6
CONTINUOUS
  5
F0
 10
269.024058
 20
278.276585
 30
0.0
 11
271.024056
 21
276.276589
 31
0.0
  0
LINE
  8
LC-006-005-----0
  6
CONTINUOUS
  5
F1
 10
268.315481
 20
283.227798
 30
0.0
 11
271.009871
 21
280.533412
 31
0.0
  0
ENDBLK
  8
0
  5
F2
  0
BLOCK
  8
0
  5
F4
  2
*X7
 70
    65
 10
222.022022
 20
265.239646
 30
0.0
  3
*X7
  0
LINE
  8
LC-006-005-----0
  6
CONTINUOUS
  5
F5
 10
222.022024
 20
265.881626
 30
0.0
 11
222.664002
 21
265.239649
 31
0.0
  0
LINE
  8
LC-006-005-----0
  6
CONTINUOUS
  5
F6
 10
223.022009
 20
269.12428
 30
0.0
 11
225.022018
 21
267.124273
 31
0.0
  0
LINE
  8
LC-006-005-----0
  6
CONTINUOUS
  5
F7
 10
223.021989
 20
273.366938
 30
0.0
 11
225.021999
 21
271.366931
 31
0.0
  0
LINE
  8
LC-006-005-----0
  6
CONTINUOUS
  5
F8
 10
223.021969
 20
277.609595
 30
0.0
 11
225.021979
 21
275.609589
 31
0.0
  0
LINE
  8
LC-006-005-----0
  6
CONTINUOUS
  5
F9
 10
223.323562
 20
281.550642
 30
0.0
 11
225.021959
 21
279.852246
 31
0.0
  0
LINE
  8
LC-006-005-----0
  6
CONTINUOUS
  5
FA
 10
225.880516
 20
283.236328
 30
0.0
 11
227.377176
 21
281.739671
 31
0.0
  0
ENDBLK
  8
0
  5
FB
  0
BLOCK
  8
0
  5
FD
  2
*X8
 70
    65
 10
203.02406
 20
205.742
 30
0.0
  3
*X8
  0
LINE
  8
LC-006-005-----0
  6
CONTINUOUS
  5
FE
 10
231.800422
 20
206.344578
 30
0.0
 11
233.02406
 21
207.568216
 31
0.0
  0
LINE
  8
LC-006-005-----0
  6
CONTINUOUS
  5
FF
 10
231.202705
 20
208.575288
 30
0.0
 11
233.02406
 21
210.396643
 31
0.0
  0
LINE
  8
LC-006-005-----0
  6
CONTINUOUS
  5
100
 10
231.02406
 20
211.22507
 30
0.0
 11
233.02406
 21
213.22507
 31
0.0
  0
LINE
  8
LC-006-005-----0
  6
CONTINUOUS
  5
101
 10
231.02406
 20
214.053497
 30
0.0
 11
233.02406
 21
216.053497
 31
0.0
  0
LINE
  8
LC-006-005-----0
  6
CONTINUOUS
  5
102
 10
231.02406
 20
216.881924
 30
0.0
 11
233.02406
 21
218.881924
 31
0.0
  0
LINE
  8
LC-006-005-----0
  6
CONTINUOUS
  5
103
 10
231.02406
 20
219.710351
 30
0.0
 11
233.02406
 21
221.710351
 31
0.0
  0
LINE
  8
LC-006-005-----0
  6
CONTINUOUS
  5
104
 10
231.02406
 20
222.538779
 30
0.0
 11
233.02406
 21
224.538779
 31
0.0
  0
LINE
  8
LC-006-005-----0
  6
CONTINUOUS
  5
105
 10
231.02406
 20
225.367206
 30
0.0
 11
233.02406
 21
227.367206
 31
0.0
  0
LINE
  8
LC-006-005-----0
  6
CONTINUOUS
  5
106
 10
231.02406
 20
228.195633
 30
0.0
 11
233.02406
 21
230.195633
 31
0.0
  0
LINE
  8
LC-006-005-----0
  6
CONTINUOUS
  5
107
 10
231.02406
 20
231.02406
 30
0.0
 11
233.02406
 21
233.02406
 31
0.0
  0
LINE
  8
LC-006-005-----0
  6
CONTINUOUS
  5
108
 10
231.02406
 20
233.852487
 30
0.0
 11
233.02406
 21
235.852487
 31
0.0
  0
LINE
  8
LC-006-005-----0
  6
CONTINUOUS
  5
109
 10
231.02406
 20
236.680914
 30
0.0
 11
233.02406
 21
238.680914
 31
0.0
  0
LINE
  8
LC-006-005-----0
  6
CONTINUOUS
  5
10A
 10
231.02406
 20
239.509341
 30
0.0
 11
233.02406
 21
241.509341
 31
0.0
  0
LINE
  8
LC-006-005-----0
  6
CONTINUOUS
  5
10B
 10
231.02406
 20
242.337768
 30
0.0
 11
233.02406
 21
244.337768
 31
0.0
  0
LINE
  8
LC-006-005-----0
  6
CONTINUOUS
  5
10C
 10
231.02406
 20
245.166196
 30
0.0
 11
233.02406
 21
247.166196
 31
0.0
  0
LINE
  8
LC-006-005-----0
  6
CONTINUOUS
  5
10D
 10
231.02406
 20
247.994623
 30
0.0
 11
233.02406
 21
249.994623
 31
0.0
  0
LINE
  8
LC-006-005-----0
  6
CONTINUOUS
  5
10E
 10
231.02406
 20
250.82305
 30
0.0
 11
233.02406
 21
252.82305
 31
0.0
  0
LINE
  8
LC-006-005-----0
  6
CONTINUOUS
  5
10F
 10
231.02406
 20
253.651477
 30
0.0
 11
233.02406
 21
255.651477
 31
0.0
  0
LINE
  8
LC-006-005-----0
  6
CONTINUOUS
  5
110
 10
231.02406
 20
256.479904
 30
0.0
 11
233.02406
 21
258.479904
 31
0.0
  0
LINE
  8
LC-006-005-----0
  6
CONTINUOUS
  5
111
 10
231.02406
 20
259.308331
 30
0.0
 11
233.02406
 21
261.308331
 31
0.0
  0
LINE
  8
LC-006-005-----0
  6
CONTINUOUS
  5
112
 10
231.02406
 20
262.136758
 30
0.0
 11
233.02406
 21
264.136758
 31
0.0
  0
LINE
  8
LC-006-005-----0
  6
CONTINUOUS
  5
113
 10
231.02406
 20
264.965185
 30
0.0
 11
233.02406
 21
266.965185
 31
0.0
  0
LINE
  8
LC-006-005-----0
  6
CONTINUOUS
  5
114
 10
231.02406
 20
267.793613
 30
0.0
 11
233.02406
 21
269.793613
 31
0.0
  0
LINE
  8
LC-006-005-----0
  6
CONTINUOUS
  5
115
 10
231.02406
 20
270.62204
 30
0.0
 11
233.02406
 21
272.62204
 31
0.0
  0
LINE
  8
LC-006-005-----0
  6
CONTINUOUS
  5
116
 10
231.02406
 20
273.450467
 30
0.0
 11
233.02406
 21
275.450467
 31
0.0
  0
LINE
  8
LC-006-005-----0
  6
CONTINUOUS
  5
117
 10
231.02406
 20
276.278894
 30
0.0
 11
233.02406
 21
278.278894
 31
0.0
  0
LINE
  8
LC-006-005-----0
  6
CONTINUOUS
  5
118
 10
231.02406
 20
279.107321
 30
0.0
 11
233.02406
 21
281.107321
 31
0.0
  0
LINE
  8
LC-006-005-----0
  6
CONTINUOUS
  5
119
 10
231.02406
 20
281.935748
 30
0.0
 11
233.02406
 21
283.935748
 31
0.0
  0
LINE
  8
LC-006-005-----0
  6
CONTINUOUS
  5
11A
 10
231.02406
 20
284.764175
 30
0.0
 11
233.02406
 21
286.764175
 31
0.0
  0
LINE
  8
LC-006-005-----0
  6
CONTINUOUS
  5
11B
 10
231.02406
 20
287.592602
 30
0.0
 11
233.02406
 21
289.592602
 31
0.0
  0
LINE
  8
LC-006-005-----0
  6
CONTINUOUS
  5
11C
 10
231.02406
 20
290.42103
 30
0.0
 11
233.02406
 21
292.42103
 31
0.0
  0
LINE
  8
LC-006-005-----0
  6
CONTINUOUS
  5
11D
 10
231.02406
 20
293.249457
 30
0.0
 11
233.02406
 21
295.249457
 31
0.0
  0
LINE
  8
LC-006-005-----0
  6
CONTINUOUS
  5
11E
 10
231.02406
 20
296.077884
 30
0.0
 11
233.02406
 21
298.077884
 31
0.0
  0
LINE
  8
LC-006-005-----0
  6
CONTINUOUS
  5
11F
 10
231.02406
 20
298.906311
 30
0.0
 11
233.02406
 21
300.906311
 31
0.0
  0
LINE
  8
LC-006-005-----0
  6
CONTINUOUS
  5
120
 10
231.02406
 20
301.734738
 30
0.0
 11
233.02406
 21
303.734738
 31
0.0
  0
LINE
  8
LC-006-005-----0
  6
CONTINUOUS
  5
121
 10
231.02406
 20
304.563165
 30
0.0
 11
233.02406
 21
306.563165
 31
0.0
  0
LINE
  8
LC-006-005-----0
  6
CONTINUOUS
  5
122
 10
231.02406
 20
307.391592
 30
0.0
 11
233.02406
 21
309.391592
 31
0.0
  0
LINE
  8
LC-006-005-----0
  6
CONTINUOUS
  5
123
 10
231.02406
 20
310.220019
 30
0.0
 11
233.02406
 21
312.220019
 31
0.0
  0
LINE
  8
LC-006-005-----0
  6
CONTINUOUS
  5
124
 10
231.02406
 20
313.048447
 30
0.0
 11
233.02406
 21
315.048447
 31
0.0
  0
LINE
  8
LC-006-005-----0
  6
CONTINUOUS
  5
125
 10
231.02406
 20
315.876874
 30
0.0
 11
233.02406
 21
317.876874
 31
0.0
  0
LINE
  8
LC-006-005-----0
  6
CONTINUOUS
  5
126
 10
231.02406
 20
318.705301
 30
0.0
 11
233.02406
 21
320.705301
 31
0.0
  0
LINE
  8
LC-006-005-----0
  6
CONTINUOUS
  5
127
 10
231.02406
 20
321.533728
 30
0.0
 11
233.02406
 21
323.533728
 31
0.0
  0
LINE
  8
LC-006-005-----0
  6
CONTINUOUS
  5
128
 10
231.02406
 20
324.362155
 30
0.0
 11
233.02406
 21
326.362155
 31
0.0
  0
LINE
  8
LC-006-005-----0
  6
CONTINUOUS
  5
129
 10
231.02406
 20
327.190582
 30
0.0
 11
233.02406
 21
329.190582
 31
0.0
  0
LINE
  8
LC-006-005-----0
  6
CONTINUOUS
  5
12A
 10
231.02406
 20
330.019009
 30
0.0
 11
233.02406
 21
332.019009
 31
0.0
  0
LINE
  8
LC-006-005-----0
  6
CONTINUOUS
  5
12B
 10
231.02406
 20
332.847436
 30
0.0
 11
233.02406
 21
334.847436
 31
0.0
  0
LINE
  8
LC-006-005-----0
  6
CONTINUOUS
  5
12C
 10
231.02406
 20
335.675864
 30
0.0
 11
233.02406
 21
337.675864
 31
0.0
  0
LINE
  8
LC-006-005-----0
  6
CONTINUOUS
  5
12D
 10
231.02406
 20
338.504291
 30
0.0
 11
233.02406
 21
340.504291
 31
0.0
  0
LINE
  8
LC-006-005-----0
  6
CONTINUOUS
  5
12E
 10
231.02406
 20
341.332718
 30
0.0
 11
233.02406
 21
343.332718
 31
0.0
  0
LINE
  8
LC-006-005-----0
  6
CONTINUOUS
  5
12F
 10
231.02406
 20
344.161145
 30
0.0
 11
233.02406
 21
346.161145
 31
0.0
  0
LINE
  8
LC-006-005-----0
  6
CONTINUOUS
  5
130
 10
231.02406
 20
346.989572
 30
0.0
 11
233.02406
 21
348.989572
 31
0.0
  0
LINE
  8
LC-006-005-----0
  6
CONTINUOUS
  5
131
 10
231.02406
 20
349.817999
 30
0.0
 11
233.02406
 21
351.817999
 31
0.0
  0
LINE
  8
LC-006-005-----0
  6
CONTINUOUS
  5
132
 10
231.02406
 20
352.646426
 30
0.0
 11
233.02406
 21
354.646426
 31
0.0
  0
LINE
  8
LC-006-005-----0
  6
CONTINUOUS
  5
133
 10
231.02406
 20
355.474853
 30
0.0
 11
233.02406
 21
357.474853
 31
0.0
  0
LINE
  8
LC-006-005-----0
  6
CONTINUOUS
  5
134
 10
231.02406
 20
358.303281
 30
0.0
 11
233.02406
 21
360.303281
 31
0.0
  0
LINE
  8
LC-006-005-----0
  6
CONTINUOUS
  5
135
 10
231.02406
 20
361.131708
 30
0.0
 11
233.02406
 21
363.131708
 31
0.0
  0
LINE
  8
LC-006-005-----0
  6
CONTINUOUS
  5
136
 10
231.02406
 20
363.960135
 30
0.0
 11
233.02406
 21
365.960135
 31
0.0
  0
LINE
  8
LC-006-005-----0
  6
CONTINUOUS
  5
137
 10
231.02406
 20
366.788562
 30
0.0
 11
233.02406
 21
368.788562
 31
0.0
  0
LINE
  8
LC-006-005-----0
  6
CONTINUOUS
  5
138
 10
231.02406
 20
369.616989
 30
0.0
 11
233.02406
 21
371.616989
 31
0.0
  0
LINE
  8
LC-006-005-----0
  6
CONTINUOUS
  5
139
 10
231.02406
 20
372.445416
 30
0.0
 11
233.02406
 21
374.445416
 31
0.0
  0
LINE
  8
LC-006-005-----0
  6
CONTINUOUS
  5
13A
 10
231.02406
 20
375.273843
 30
0.0
 11
233.02406
 21
377.273843
 31
0.0
  0
LINE
  8
LC-006-005-----0
  6
CONTINUOUS
  5
13B
 10
231.02406
 20
378.10227
 30
0.0
 11
233.02406
 21
380.10227
 31
0.0
  0
LINE
  8
LC-006-005-----0
  6
CONTINUOUS
  5
13C
 10
231.02406
 20
380.930698
 30
0.0
 11
233.02406
 21
382.930698
 31
0.0
  0
LINE
  8
LC-006-005-----0
  6
CONTINUOUS
  5
13D
 10
231.02406
 20
383.759125
 30
0.0
 11
233.02406
 21
385.759125
 31
0.0
  0
LINE
  8
LC-006-005-----0
  6
CONTINUOUS
  5
13E
 10
231.02406
 20
386.587552
 30
0.0
 11
233.02406
 21
388.587552
 31
0.0
  0
LINE
  8
LC-006-005-----0
  6
CONTINUOUS
  5
13F
 10
231.02406
 20
389.415979
 30
0.0
 11
233.02406
 21
391.415979
 31
0.0
  0
LINE
  8
LC-006-005-----0
  6
CONTINUOUS
  5
140
 10
231.02406
 20
392.244406
 30
0.0
 11
233.02406
 21
394.244406
 31
0.0
  0
LINE
  8
LC-006-005-----0
  6
CONTINUOUS
  5
141
 10
231.02406
 20
395.072833
 30
0.0
 11
233.02406
 21
397.072833
 31
0.0
  0
LINE
  8
LC-006-005-----0
  6
CONTINUOUS
  5
142
 10
231.02406
 20
397.90126
 30
0.0
 11
233.02406
 21
399.90126
 31
0.0
  0
LINE
  8
LC-006-005-----0
  6
CONTINUOUS
  5
143
 10
231.02406
 20
400.729687
 30
0.0
 11
233.02406
 21
402.729687
 31
0.0
  0
LINE
  8
LC-006-005-----0
  6
CONTINUOUS
  5
144
 10
231.02406
 20
403.558115
 30
0.0
 11
233.02406
 21
405.558115
 31
0.0
  0
LINE
  8
LC-006-005-----0
  6
CONTINUOUS
  5
145
 10
231.02406
 20
406.386542
 30
0.0
 11
233.02406
 21
408.386542
 31
0.0
  0
LINE
  8
LC-006-005-----0
  6
CONTINUOUS
  5
146
 10
231.02406
 20
409.214969
 30
0.0
 11
233.02406
 21
411.214969
 31
0.0
  0
LINE
  8
LC-006-005-----0
  6
CONTINUOUS
  5
147
 10
231.02406
 20
412.043396
 30
0.0
 11
233.02406
 21
414.043396
 31
0.0
  0
LINE
  8
LC-006-005-----0
  6
CONTINUOUS
  5
148
 10
231.02406
 20
414.871823
 30
0.0
 11
233.02406
 21
416.871823
 31
0.0
  0
LINE
  8
LC-006-005-----0
  6
CONTINUOUS
  5
149
 10
231.02406
 20
417.70025
 30
0.0
 11
233.02406
 21
419.70025
 31
0.0
  0
LINE
  8
LC-006-005-----0
  6
CONTINUOUS
  5
14A
 10
231.02406
 20
420.528677
 30
0.0
 11
233.02406
 21
422.528677
 31
0.0
  0
LINE
  8
LC-006-005-----0
  6
CONTINUOUS
  5
14B
 10
231.02406
 20
423.357104
 30
0.0
 11
233.02406
 21
425.357104
 31
0.0
  0
LINE
  8
LC-006-005-----0
  6
CONTINUOUS
  5
14C
 10
231.02406
 20
426.185532
 30
0.0
 11
233.02406
 21
428.185532
 31
0.0
  0
LINE
  8
LC-006-005-----0
  6
CONTINUOUS
  5
14D
 10
231.02406
 20
429.013959
 30
0.0
 11
233.02406
 21
431.013959
 31
0.0
  0
LINE
  8
LC-006-005-----0
  6
CONTINUOUS
  5
14E
 10
231.02406
 20
431.842386
 30
0.0
 11
233.02406
 21
433.842386
 31
0.0
  0
LINE
  8
LC-006-005-----0
  6
CONTINUOUS
  5
14F
 10
231.02406
 20
434.670813
 30
0.0
 11
233.02406
 21
436.670813
 31
0.0
  0
LINE
  8
LC-006-005-----0
  6
CONTINUOUS
  5
150
 10
231.02406
 20
437.49924
 30
0.0
 11
233.02406
 21
439.49924
 31
0.0
  0
LINE
  8
LC-006-005-----0
  6
CONTINUOUS
  5
151
 10
231.02406
 20
440.327667
 30
0.0
 11
233.02406
 21
442.327667
 31
0.0
  0
LINE
  8
LC-006-005-----0
  6
CONTINUOUS
  5
152
 10
231.02406
 20
443.156094
 30
0.0
 11
233.02406
 21
445.156094
 31
0.0
  0
LINE
  8
LC-006-005-----0
  6
CONTINUOUS
  5
153
 10
231.02406
 20
445.984521
 30
0.0
 11
233.02406
 21
447.984521
 31
0.0
  0
LINE
  8
LC-006-005-----0
  6
CONTINUOUS
  5
154
 10
231.02406
 20
448.812949
 30
0.0
 11
233.02406
 21
450.812949
 31
0.0
  0
LINE
  8
LC-006-005-----0
  6
CONTINUOUS
  5
155
 10
231.02406
 20
451.641376
 30
0.0
 11
233.02406
 21
453.641376
 31
0.0
  0
LINE
  8
LC-006-005-----0
  6
CONTINUOUS
  5
156
 10
231.02406
 20
454.469803
 30
0.0
 11
233.02406
 21
456.469803
 31
0.0
  0
LINE
  8
LC-006-005-----0
  6
CONTINUOUS
  5
157
 10
231.02406
 20
457.29823
 30
0.0
 11
233.02406
 21
459.29823
 31
0.0
  0
LINE
  8
LC-006-005-----0
  6
CONTINUOUS
  5
158
 10
231.02406
 20
460.126657
 30
0.0
 11
233.02406
 21
462.126657
 31
0.0
  0
LINE
  8
LC-006-005-----0
  6
CONTINUOUS
  5
159
 10
231.02406
 20
462.955084
 30
0.0
 11
233.02406
 21
464.955084
 31
0.0
  0
LINE
  8
LC-006-005-----0
  6
CONTINUOUS
  5
15A
 10
231.02406
 20
465.783511
 30
0.0
 11
233.02406
 21
467.783511
 31
0.0
  0
LINE
  8
LC-006-005-----0
  6
CONTINUOUS
  5
15B
 10
231.02406
 20
468.611938
 30
0.0
 11
233.02406
 21
470.611938
 31
0.0
  0
LINE
  8
LC-006-005-----0
  6
CONTINUOUS
  5
15C
 10
231.02406
 20
471.440366
 30
0.0
 11
233.02406
 21
473.440366
 31
0.0
  0
LINE
  8
LC-006-005-----0
  6
CONTINUOUS
  5
15D
 10
231.02406
 20
474.268793
 30
0.0
 11
233.02406
 21
476.268793
 31
0.0
  0
LINE
  8
LC-006-005-----0
  6
CONTINUOUS
  5
15E
 10
231.02406
 20
477.09722
 30
0.0
 11
233.02406
 21
479.09722
 31
0.0
  0
LINE
  8
LC-006-005-----0
  6
CONTINUOUS
  5
15F
 10
231.02406
 20
479.925647
 30
0.0
 11
233.02406
 21
481.925647
 31
0.0
  0
LINE
  8
LC-006-005-----0
  6
CONTINUOUS
  5
160
 10
231.02406
 20
482.754074
 30
0.0
 11
233.02406
 21
484.754074
 31
0.0
  0
LINE
  8
LC-006-005-----0
  6
CONTINUOUS
  5
161
 10
228.355132
 20
485.742
 30
0.0
 11
230.355132
 21
487.742
 31
0.0
  0
LINE
  8
LC-006-005-----0
  6
CONTINUOUS
  5
162
 10
225.526705
 20
485.742
 30
0.0
 11
227.526705
 21
487.742
 31
0.0
  0
LINE
  8
LC-006-005-----0
  6
CONTINUOUS
  5
163
 10
222.698277
 20
485.742
 30
0.0
 11
224.698277
 21
487.742
 31
0.0
  0
LINE
  8
LC-006-005-----0
  6
CONTINUOUS
  5
164
 10
219.86985
 20
485.742
 30
0.0
 11
221.86985
 21
487.742
 31
0.0
  0
LINE
  8
LC-006-005-----0
  6
CONTINUOUS
  5
165
 10
217.041423
 20
485.742
 30
0.0
 11
219.041423
 21
487.742
 31
0.0
  0
LINE
  8
LC-006-005-----0
  6
CONTINUOUS
  5
166
 10
214.212996
 20
485.742
 30
0.0
 11
216.212996
 21
487.742
 31
0.0
  0
LINE
  8
LC-006-005-----0
  6
CONTINUOUS
  5
167
 10
211.384569
 20
485.742
 30
0.0
 11
213.384569
 21
487.742
 31
0.0
  0
LINE
  8
LC-006-005-----0
  6
CONTINUOUS
  5
168
 10
208.556142
 20
485.742
 30
0.0
 11
210.556142
 21
487.742
 31
0.0
  0
LINE
  8
LC-006-005-----0
  6
CONTINUOUS
  5
169
 10
205.727715
 20
485.742
 30
0.0
 11
207.570207
 21
487.584492
 31
0.0
  0
LINE
  8
LC-006-005-----0
  6
CONTINUOUS
  5
16A
 10
203.02406
 20
485.866772
 30
0.0
 11
203.706503
 21
486.549216
 31
0.0
  0
ENDBLK
  8
0
  5
16B
  0
BLOCK
  8
0
  5
16D
  2
BLK1
 70
    64
 10
0.0
 20
0.0
 30
0.0
  3
BLK1
  0
ENDBLK
  8
0
  5
16E
  0
BLOCK
  8
0
  5
170
  2
*X10
 70
    65
 10
228.52406
 20
179.742
 30
0.0
  3
*X10
  0
LINE
  8
LC-006-005-----0
  6
CONTINUOUS
  5
171
 10
230.100799
 20
276.187656
 30
0.0
 11
228.52406
 21
277.764395
 31
0.0
  0
LINE
  8
LC-006-005-----0
  6
CONTINUOUS
  5
172
 10
231.02406
 20
272.435968
 30
0.0
 11
228.52406
 21
274.935968
 31
0.0
  0
LINE
  8
LC-006-005-----0
  6
CONTINUOUS
  5
173
 10
231.02406
 20
269.607541
 30
0.0
 11
228.52406
 21
272.107541
 31
0.0
  0
LINE
  8
LC-006-005-----0
  6
CONTINUOUS
  5
174
 10
231.02406
 20
266.779114
 30
0.0
 11
228.52406
 21
269.279114
 31
0.0
  0
LINE
  8
LC-006-005-----0
  6
CONTINUOUS
  5
175
 10
231.02406
 20
263.950687
 30
0.0
 11
228.52406
 21
266.450687
 31
0.0
  0
LINE
  8
LC-006-005-----0
  6
CONTINUOUS
  5
176
 10
312.40432
 20
179.742
 30
0.0
 11
309.90432
 21
182.242
 31
0.0
  0
LINE
  8
LC-006-005-----0
  6
CONTINUOUS
  5
177
 10
231.02406
 20
261.12226
 30
0.0
 11
228.52406
 21
263.62226
 31
0.0
  0
LINE
  8
LC-006-005-----0
  6
CONTINUOUS
  5
178
 10
309.575893
 20
179.742
 30
0.0
 11
307.075893
 21
182.242
 31
0.0
  0
LINE
  8
LC-006-005-----0
  6
CONTINUOUS
  5
179
 10
231.02406
 20
258.293833
 30
0.0
 11
228.52406
 21
260.793833
 31
0.0
  0
LINE
  8
LC-006-005-----0
  6
CONTINUOUS
  5
17A
 10
306.747465
 20
179.742
 30
0.0
 11
304.247465
 21
182.242
 31
0.0
  0
LINE
  8
LC-006-005-----0
  6
CONTINUOUS
  5
17B
 10
231.02406
 20
255.465405
 30
0.0
 11
228.52406
 21
257.965405
 31
0.0
  0
LINE
  8
LC-006-005-----0
  6
CONTINUOUS
  5
17C
 10
303.919038
 20
179.742
 30
0.0
 11
301.419038
 21
182.242
 31
0.0
  0
LINE
  8
LC-006-005-----0
  6
CONTINUOUS
  5
17D
 10
231.02406
 20
252.636978
 30
0.0
 11
228.52406
 21
255.136978
 31
0.0
  0
LINE
  8
LC-006-005-----0
  6
CONTINUOUS
  5
17E
 10
301.090611
 20
179.742
 30
0.0
 11
298.590611
 21
182.242
 31
0.0
  0
LINE
  8
LC-006-005-----0
  6
CONTINUOUS
  5
17F
 10
231.02406
 20
249.808551
 30
0.0
 11
228.52406
 21
252.308551
 31
0.0
  0
LINE
  8
LC-006-005-----0
  6
CONTINUOUS
  5
180
 10
298.262184
 20
179.742
 30
0.0
 11
295.762184
 21
182.242
 31
0.0
  0
LINE
  8
LC-006-005-----0
  6
CONTINUOUS
  5
181
 10
231.02406
 20
246.980124
 30
0.0
 11
228.52406
 21
249.480124
 31
0.0
  0
LINE
  8
LC-006-005-----0
  6
CONTINUOUS
  5
182
 10
295.433757
 20
179.742
 30
0.0
 11
292.933757
 21
182.242
 31
0.0
  0
LINE
  8
LC-006-005-----0
  6
CONTINUOUS
  5
183
 10
231.02406
 20
244.151697
 30
0.0
 11
228.52406
 21
246.651697
 31
0.0
  0
LINE
  8
LC-006-005-----0
  6
CONTINUOUS
  5
184
 10
292.60533
 20
179.742
 30
0.0
 11
290.10533
 21
182.242
 31
0.0
  0
LINE
  8
LC-006-005-----0
  6
CONTINUOUS
  5
185
 10
231.02406
 20
241.32327
 30
0.0
 11
228.52406
 21
243.82327
 31
0.0
  0
LINE
  8
LC-006-005-----0
  6
CONTINUOUS
  5
186
 10
289.776903
 20
179.742
 30
0.0
 11
287.276903
 21
182.242
 31
0.0
  0
LINE
  8
LC-006-005-----0
  6
CONTINUOUS
  5
187
 10
231.02406
 20
238.494843
 30
0.0
 11
228.52406
 21
240.994843
 31
0.0
  0
LINE
  8
LC-006-005-----0
  6
CONTINUOUS
  5
188
 10
286.948476
 20
179.742
 30
0.0
 11
284.448476
 21
182.242
 31
0.0
  0
LINE
  8
LC-006-005-----0
  6
CONTINUOUS
  5
189
 10
231.02406
 20
235.666416
 30
0.0
 11
228.52406
 21
238.166416
 31
0.0
  0
LINE
  8
LC-006-005-----0
  6
CONTINUOUS
  5
18A
 10
284.120048
 20
179.742
 30
0.0
 11
281.620048
 21
182.242
 31
0.0
  0
LINE
  8
LC-006-005-----0
  6
CONTINUOUS
  5
18B
 10
231.02406
 20
232.837988
 30
0.0
 11
228.52406
 21
235.337988
 31
0.0
  0
LINE
  8
LC-006-005-----0
  6
CONTINUOUS
  5
18C
 10
281.291621
 20
179.742
 30
0.0
 11
278.791621
 21
182.242
 31
0.0
  0
LINE
  8
LC-006-005-----0
  6
CONTINUOUS
  5
18D
 10
231.02406
 20
230.009561
 30
0.0
 11
228.52406
 21
232.509561
 31
0.0
  0
LINE
  8
LC-006-005-----0
  6
CONTINUOUS
  5
18E
 10
278.463194
 20
179.742
 30
0.0
 11
275.963194
 21
182.242
 31
0.0
  0
LINE
  8
LC-006-005-----0
  6
CONTINUOUS
  5
18F
 10
231.02406
 20
227.181134
 30
0.0
 11
228.52406
 21
229.681134
 31
0.0
  0
LINE
  8
LC-006-005-----0
  6
CONTINUOUS
  5
190
 10
275.634767
 20
179.742
 30
0.0
 11
273.134767
 21
182.242
 31
0.0
  0
LINE
  8
LC-006-005-----0
  6
CONTINUOUS
  5
191
 10
231.02406
 20
224.352707
 30
0.0
 11
228.52406
 21
226.852707
 31
0.0
  0
LINE
  8
LC-006-005-----0
  6
CONTINUOUS
  5
192
 10
272.80634
 20
179.742
 30
0.0
 11
270.30634
 21
182.242
 31
0.0
  0
LINE
  8
LC-006-005-----0
  6
CONTINUOUS
  5
193
 10
231.02406
 20
221.52428
 30
0.0
 11
228.52406
 21
224.02428
 31
0.0
  0
LINE
  8
LC-006-005-----0
  6
CONTINUOUS
  5
194
 10
269.977913
 20
179.742
 30
0.0
 11
267.477913
 21
182.242
 31
0.0
  0
LINE
  8
LC-006-005-----0
  6
CONTINUOUS
  5
195
 10
231.02406
 20
218.695853
 30
0.0
 11
228.52406
 21
221.195853
 31
0.0
  0
LINE
  8
LC-006-005-----0
  6
CONTINUOUS
  5
196
 10
267.149486
 20
179.742
 30
0.0
 11
264.649486
 21
182.242
 31
0.0
  0
LINE
  8
LC-006-005-----0
  6
CONTINUOUS
  5
197
 10
231.02406
 20
215.867426
 30
0.0
 11
228.52406
 21
218.367426
 31
0.0
  0
LINE
  8
LC-006-005-----0
  6
CONTINUOUS
  5
198
 10
264.321059
 20
179.742
 30
0.0
 11
261.821059
 21
182.242
 31
0.0
  0
LINE
  8
LC-006-005-----0
  6
CONTINUOUS
  5
199
 10
231.02406
 20
213.038999
 30
0.0
 11
228.52406
 21
215.538999
 31
0.0
  0
LINE
  8
LC-006-005-----0
  6
CONTINUOUS
  5
19A
 10
261.492631
 20
179.742
 30
0.0
 11
258.992631
 21
182.242
 31
0.0
  0
LINE
  8
LC-006-005-----0
  6
CONTINUOUS
  5
19B
 10
231.02406
 20
210.210571
 30
0.0
 11
228.52406
 21
212.710571
 31
0.0
  0
LINE
  8
LC-006-005-----0
  6
CONTINUOUS
  5
19C
 10
258.664204
 20
179.742
 30
0.0
 11
256.164204
 21
182.242
 31
0.0
  0
LINE
  8
LC-006-005-----0
  6
CONTINUOUS
  5
19D
 10
233.52406
 20
204.882144
 30
0.0
 11
232.664204
 21
205.742
 31
0.0
  0
LINE
  8
LC-006-005-----0
  6
CONTINUOUS
  5
19E
 10
231.02406
 20
207.382144
 30
0.0
 11
228.52406
 21
209.882144
 31
0.0
  0
LINE
  8
LC-006-005-----0
  6
CONTINUOUS
  5
19F
 10
255.835777
 20
179.742
 30
0.0
 11
253.335777
 21
182.242
 31
0.0
  0
LINE
  8
LC-006-005-----0
  6
CONTINUOUS
  5
1A0
 10
231.835777
 20
203.742
 30
0.0
 11
228.52406
 21
207.053717
 31
0.0
  0
LINE
  8
LC-006-005-----0
  6
CONTINUOUS
  5
1A1
 10
253.00735
 20
179.742
 30
0.0
 11
250.40241
 21
182.34694
 31
0.0
  0
LINE
  8
LC-006-005-----0
  6
CONTINUOUS
  5
1A2
 10
231.129
 20
201.62035
 30
0.0
 11
228.52406
 21
204.22529
 31
0.0
  0
LINE
  8
LC-006-005-----0
  6
CONTINUOUS
  5
1A3
 10
250.051185
 20
179.869738
 30
0.0
 11
246.941514
 21
182.979409
 31
0.0
  0
LINE
  8
LC-006-005-----0
  6
CONTINUOUS
  5
1A4
 10
231.761469
 20
198.159454
 30
0.0
 11
228.651798
 21
201.269125
 31
0.0
  0
LINE
  8
LC-006-005-----0
  6
CONTINUOUS
  5
1A5
 10
246.610558
 20
180.481938
 30
0.0
 11
242.22106
 21
184.871436
 31
0.0
  0
LINE
  8
LC-006-005-----0
  6
CONTINUOUS
  5
1A6
 10
233.653496
 20
193.439
 30
0.0
 11
229.263998
 21
197.828498
 31
0.0
  0
LINE
  8
LC-006-005-----0
  6
CONTINUOUS
  5
1A7
 10
242.177102
 20
182.086967
 30
0.0
 11
230.869027
 21
193.395042
 31
0.0
  0
ENDBLK
  8
0
  5
1A8
  0
BLOCK
  8
0
  5
1AA
  2
*X11
 70
    65
 10
263.02406
 20
205.742
 30
0.0
  3
*X11
  0
LINE
  8
LC-006-005-----0
  6
CONTINUOUS
  5
1AB
 10
265.52406
 20
277.533948
 30
0.0
 11
264.56503
 21
278.492978
 31
0.0
  0
LINE
  8
LC-006-005-----0
  6
CONTINUOUS
  5
1AC
 10
265.52406
 20
274.705521
 30
0.0
 11
263.967313
 21
276.262268
 31
0.0
  0
LINE
  8
LC-006-005-----0
  6
CONTINUOUS
  5
1AD
 10
265.52406
 20
271.877094
 30
0.0
 11
263.369596
 21
274.031558
 31
0.0
  0
LINE
  8
LC-006-005-----0
  6
CONTINUOUS
  5
1AE
 10
278.22406
 20
256.348667
 30
0.0
 11
277.330727
 21
257.242
 31
0.0
  0
LINE
  8
LC-006-005-----0
  6
CONTINUOUS
  5
1AF
 10
265.52406
 20
269.048667
 30
0.0
 11
263.02406
 21
271.548667
 31
0.0
  0
LINE
  8
LC-006-005-----0
  6
CONTINUOUS
  5
1B0
 10
278.22406
 20
253.520239
 30
0.0
 11
275.61318
 21
256.13112
 31
0.0
  0
LINE
  8
LC-006-005-----0
  6
CONTINUOUS
  5
1B1
 10
265.52406
 20
266.220239
 30
0.0
 11
263.02406
 21
268.720239
 31
0.0
  0
LINE
  8
LC-006-005-----0
  6
CONTINUOUS
  5
1B2
 10
278.22406
 20
250.691812
 30
0.0
 11
276.72406
 21
252.191812
 31
0.0
  0
LINE
  8
LC-006-005-----0
  6
CONTINUOUS
  5
1B3
 10
265.52406
 20
263.391812
 30
0.0
 11
263.02406
 21
265.891812
 31
0.0
  0
LINE
  8
LC-006-005-----0
  6
CONTINUOUS
  5
1B4
 10
278.22406
 20
247.863385
 30
0.0
 11
276.72406
 21
249.363385
 31
0.0
  0
LINE
  8
LC-006-005-----0
  6
CONTINUOUS
  5
1B5
 10
265.52406
 20
260.563385
 30
0.0
 11
263.02406
 21
263.063385
 31
0.0
  0
LINE
  8
LC-006-005-----0
  6
CONTINUOUS
  5
1B6
 10
278.22406
 20
245.034958
 30
0.0
 11
275.370539
 21
247.888479
 31
0.0
  0
LINE
  8
LC-006-005-----0
  6
CONTINUOUS
  5
1B7
 10
265.52406
 20
257.734958
 30
0.0
 11
263.02406
 21
260.234958
 31
0.0
  0
LINE
  8
LC-006-005-----0
  6
CONTINUOUS
  5
1B8
 10
278.22406
 20
242.206531
 30
0.0
 11
276.72406
 21
243.706531
 31
0.0
  0
LINE
  8
LC-006-005-----0
  6
CONTINUOUS
  5
1B9
 10
265.52406
 20
254.906531
 30
0.0
 11
263.02406
 21
257.406531
 31
0.0
  0
LINE
  8
LC-006-005-----0
  6
CONTINUOUS
  5
1BA
 10
278.22406
 20
239.378104
 30
0.0
 11
276.542112
 21
241.060052
 31
0.0
  0
LINE
  8
LC-006-005-----0
  6
CONTINUOUS
  5
1BB
 10
265.52406
 20
252.078104
 30
0.0
 11
263.02406
 21
254.578104
 31
0.0
  0
LINE
  8
LC-006-005-----0
  6
CONTINUOUS
  5
1BC
 10
278.22406
 20
236.549677
 30
0.0
 11
275.22406
 21
239.549677
 31
0.0
  0
LINE
  8
LC-006-005-----0
  6
CONTINUOUS
  5
1BD
 10
265.52406
 20
249.249677
 30
0.0
 11
263.02406
 21
251.749677
 31
0.0
  0
LINE
  8
LC-006-005-----0
  6
CONTINUOUS
  5
1BE
 10
278.22406
 20
233.72125
 30
0.0
 11
276.72406
 21
235.22125
 31
0.0
  0
LINE
  8
LC-006-005-----0
  6
CONTINUOUS
  5
1BF
 10
265.52406
 20
246.42125
 30
0.0
 11
263.02406
 21
248.92125
 31
0.0
  0
LINE
  8
LC-006-005-----0
  6
CONTINUOUS
  5
1C0
 10
278.22406
 20
230.892822
 30
0.0
 11
276.299471
 21
232.817411
 31
0.0
  0
LINE
  8
LC-006-005-----0
  6
CONTINUOUS
  5
1C1
 10
265.52406
 20
243.592822
 30
0.0
 11
263.02406
 21
246.092822
 31
0.0
  0
LINE
  8
LC-006-005-----0
  6
CONTINUOUS
  5
1C2
 10
278.22406
 20
228.064395
 30
0.0
 11
275.22406
 21
231.064395
 31
0.0
  0
LINE
  8
LC-006-005-----0
  6
CONTINUOUS
  5
1C3
 10
265.52406
 20
240.764395
 30
0.0
 11
263.02406
 21
243.264395
 31
0.0
  0
LINE
  8
LC-006-005-----0
  6
CONTINUOUS
  5
1C4
 10
278.218028
 20
225.242
 30
0.0
 11
275.718028
 21
227.742
 31
0.0
  0
LINE
  8
LC-006-005-----0
  6
CONTINUOUS
  5
1C5
 10
265.52406
 20
237.935968
 30
0.0
 11
263.02406
 21
240.435968
 31
0.0
  0
LINE
  8
LC-006-005-----0
  6
CONTINUOUS
  5
1C6
 10
275.389601
 20
225.242
 30
0.0
 11
272.889601
 21
227.742
 31
0.0
  0
LINE
  8
LC-006-005-----0
  6
CONTINUOUS
  5
1C7
 10
265.52406
 20
235.107541
 30
0.0
 11
263.02406
 21
237.607541
 31
0.0
  0
LINE
  8
LC-006-005-----0
  6
CONTINUOUS
  5
1C8
 10
272.561174
 20
225.242
 30
0.0
 11
270.061174
 21
227.742
 31
0.0
  0
LINE
  8
LC-006-005-----0
  6
CONTINUOUS
  5
1C9
 10
265.52406
 20
232.279114
 30
0.0
 11
263.02406
 21
234.779114
 31
0.0
  0
LINE
  8
LC-006-005-----0
  6
CONTINUOUS
  5
1CA
 10
269.732747
 20
225.242
 30
0.0
 11
267.232747
 21
227.742
 31
0.0
  0
LINE
  8
LC-006-005-----0
  6
CONTINUOUS
  5
1CB
 10
265.52406
 20
229.450687
 30
0.0
 11
263.02406
 21
231.950687
 31
0.0
  0
LINE
  8
LC-006-005-----0
  6
CONTINUOUS
  5
1CC
 10
266.90432
 20
225.242
 30
0.0
 11
263.02406
 21
229.12226
 31
0.0
  0
LINE
  8
LC-006-005-----0
  6
CONTINUOUS
  5
1CD
 10
265.52406
 20
223.793833
 30
0.0
 11
263.02406
 21
226.293833
 31
0.0
  0
LINE
  8
LC-006-005-----0
  6
CONTINUOUS
  5
1CE
 10
265.52406
 20
220.965405
 30
0.0
 11
263.02406
 21
223.465405
 31
0.0
  0
LINE
  8
LC-006-005-----0
  6
CONTINUOUS
  5
1CF
 10
265.52406
 20
218.136978
 30
0.0
 11
263.02406
 21
220.636978
 31
0.0
  0
LINE
  8
LC-006-005-----0
  6
CONTINUOUS
  5
1D0
 10
265.52406
 20
215.308551
 30
0.0
 11
263.02406
 21
217.808551
 31
0.0
  0
LINE
  8
LC-006-005-----0
  6
CONTINUOUS
  5
1D1
 10
265.52406
 20
212.480124
 30
0.0
 11
263.02406
 21
214.980124
 31
0.0
  0
LINE
  8
LC-006-005-----0
  6
CONTINUOUS
  5
1D2
 10
265.52406
 20
209.651697
 30
0.0
 11
263.02406
 21
212.151697
 31
0.0
  0
LINE
  8
LC-006-005-----0
  6
CONTINUOUS
  5
1D3
 10
265.52406
 20
206.82327
 30
0.0
 11
263.02406
 21
209.32327
 31
0.0
  0
LINE
  8
LC-006-005-----0
  6
CONTINUOUS
  5
1D4
 10
263.776903
 20
205.742
 30
0.0
 11
263.02406
 21
206.494843
 31
0.0
  0
ENDBLK
  8
0
  5
1D5
  0
BLOCK
  8
0
  5
1D7
  2
*X12
 70
    65
 10
201.02406
 20
518.242
 30
0.0
  3
*X12
  0
LINE
  8
LC-006-005-----0
  6
CONTINUOUS
  5
1D8
 10
209.943443
 20
518.242
 30
0.0
 11
209.96048
 21
518.259036
 31
0.0
  0
LINE
  8
LC-006-005-----0
  6
CONTINUOUS
  5
1D9
 10
208.52923
 20
518.242
 30
0.0
 11
208.845125
 21
518.557895
 31
0.0
  0
LINE
  8
LC-006-005-----0
  6
CONTINUOUS
  5
1DA
 10
207.115016
 20
518.242
 30
0.0
 11
207.72977
 21
518.856753
 31
0.0
  0
LINE
  8
LC-006-005-----0
  6
CONTINUOUS
  5
1DB
 10
205.700803
 20
518.242
 30
0.0
 11
206.614414
 21
519.155612
 31
0.0
  0
LINE
  8
LC-006-005-----0
  6
CONTINUOUS
  5
1DC
 10
204.286589
 20
518.242
 30
0.0
 11
205.499059
 21
519.45447
 31
0.0
  0
LINE
  8
LC-006-005-----0
  6
CONTINUOUS
  5
1DD
 10
202.872376
 20
518.242
 30
0.0
 11
204.383704
 21
519.753329
 31
0.0
  0
LINE
  8
LC-006-005-----0
  6
CONTINUOUS
  5
1DE
 10
201.458162
 20
518.242
 30
0.0
 11
203.268349
 21
520.052187
 31
0.0
  0
LINE
  8
LC-006-005-----0
  6
CONTINUOUS
  5
1DF
 10
201.02406
 20
519.222112
 30
0.0
 11
202.152994
 21
520.351046
 31
0.0
  0
LINE
  8
LC-006-005-----0
  6
CONTINUOUS
  5
1E0
 10
201.02406
 20
520.636325
 30
0.0
 11
201.037639
 21
520.649904
 31
0.0
  0
ENDBLK
  8
0
  5
1E1
  0
BLOCK
  8
0
  5
1E3
  2
*X13
 70
    65
 10
302.82406
 20
225.242
 30
0.0
  3
*X13
  0
LINE
  8
LC-006-005-----0
  6
CONTINUOUS
  5
1E4
 10
305.82406
 20
254.204511
 30
0.0
 11
302.82406
 21
257.204511
 31
0.0
  0
LINE
  8
LC-006-005-----0
  6
CONTINUOUS
  5
1E5
 10
304.641102
 20
252.559042
 30
0.0
 11
302.82406
 21
254.376084
 31
0.0
  0
LINE
  8
LC-006-005-----0
  6
CONTINUOUS
  5
1E6
 10
304.32406
 20
250.047656
 30
0.0
 11
302.82406
 21
251.547656
 31
0.0
  0
LINE
  8
LC-006-005-----0
  6
CONTINUOUS
  5
1E7
 10
305.812675
 20
245.730615
 30
0.0
 11
302.82406
 21
248.719229
 31
0.0
  0
LINE
  8
LC-006-005-----0
  6
CONTINUOUS
  5
1E8
 10
304.398461
 20
244.316401
 30
0.0
 11
302.82406
 21
245.890802
 31
0.0
  0
LINE
  8
LC-006-005-----0
  6
CONTINUOUS
  5
1E9
 10
304.32406
 20
241.562375
 30
0.0
 11
302.82406
 21
243.062375
 31
0.0
  0
LINE
  8
LC-006-005-----0
  6
CONTINUOUS
  5
1EA
 10
305.570034
 20
237.487974
 30
0.0
 11
302.82406
 21
240.233948
 31
0.0
  0
LINE
  8
LC-006-005-----0
  6
CONTINUOUS
  5
1EB
 10
312.52406
 20
227.705521
 30
0.0
 11
312.487581
 21
227.742
 31
0.0
  0
LINE
  8
LC-006-005-----0
  6
CONTINUOUS
  5
1EC
 10
304.32406
 20
235.905521
 30
0.0
 11
302.82406
 21
237.405521
 31
0.0
  0
LINE
  8
LC-006-005-----0
  6
CONTINUOUS
  5
1ED
 10
312.159154
 20
225.242
 30
0.0
 11
309.659154
 21
227.742
 31
0.0
  0
LINE
  8
LC-006-005-----0
  6
CONTINUOUS
  5
1EE
 10
305.82406
 20
231.577094
 30
0.0
 11
302.82406
 21
234.577094
 31
0.0
  0
LINE
  8
LC-006-005-----0
  6
CONTINUOUS
  5
1EF
 10
309.330727
 20
225.242
 30
0.0
 11
306.830727
 21
227.742
 31
0.0
  0
LINE
  8
LC-006-005-----0
  6
CONTINUOUS
  5
1F0
 10
305.327393
 20
229.245333
 30
0.0
 11
302.82406
 21
231.748667
 31
0.0
  0
LINE
  8
LC-006-005-----0
  6
CONTINUOUS
  5
1F1
 10
306.502299
 20
225.242
 30
0.0
 11
302.82406
 21
228.920239
 31
0.0
  0
LINE
  8
LC-006-005-----0
  6
CONTINUOUS
  5
1F2
 10
303.673872
 20
225.242
 30
0.0
 11
302.82406
 21
226.091812
 31
0.0
  0
ENDBLK
  8
0
  5
1F3
  0
BLOCK
  8
0
  5
1F5
  2
*X14
 70
    65
 10
306.02406
 20
228.05277
 30
0.0
  3
*X14
  0
LINE
  8
LC-006-005-----0
  6
CONTINUOUS
  5
1F6
 10
555.432726
 20
255.619451
 30
0.0
 11
557.055275
 21
257.242
 31
0.0
  0
LINE
  8
LC-006-005-----0
  6
CONTINUOUS
  5
1F7
 10
552.226848
 20
255.242
 30
0.0
 11
554.226848
 21
257.242
 31
0.0
  0
LINE
  8
LC-006-005-----0
  6
CONTINUOUS
  5
1F8
 10
549.398421
 20
255.242
 30
0.0
 11
551.398421
 21
257.242
 31
0.0
  0
LINE
  8
LC-006-005-----0
  6
CONTINUOUS
  5
1F9
 10
546.569994
 20
255.242
 30
0.0
 11
548.569994
 21
257.242
 31
0.0
  0
LINE
  8
LC-006-005-----0
  6
CONTINUOUS
  5
1FA
 10
543.741567
 20
255.242
 30
0.0
 11
545.741567
 21
257.242
 31
0.0
  0
LINE
  8
LC-006-005-----0
  6
CONTINUOUS
  5
1FB
 10
540.91314
 20
255.242
 30
0.0
 11
542.91314
 21
257.242
 31
0.0
  0
LINE
  8
LC-006-005-----0
  6
CONTINUOUS
  5
1FC
 10
538.084712
 20
255.242
 30
0.0
 11
540.084712
 21
257.242
 31
0.0
  0
LINE
  8
LC-006-005-----0
  6
CONTINUOUS
  5
1FD
 10
535.256285
 20
255.242
 30
0.0
 11
537.256285
 21
257.242
 31
0.0
  0
LINE
  8
LC-006-005-----0
  6
CONTINUOUS
  5
1FE
 10
532.427858
 20
255.242
 30
0.0
 11
534.427858
 21
257.242
 31
0.0
  0
LINE
  8
LC-006-005-----0
  6
CONTINUOUS
  5
1FF
 10
529.599431
 20
255.242
 30
0.0
 11
531.599431
 21
257.242
 31
0.0
  0
LINE
  8
LC-006-005-----0
  6
CONTINUOUS
  5
200
 10
526.771004
 20
255.242
 30
0.0
 11
528.771004
 21
257.242
 31
0.0
  0
LINE
  8
LC-006-005-----0
  6
CONTINUOUS
  5
201
 10
523.942577
 20
255.242
 30
0.0
 11
525.942577
 21
257.242
 31
0.0
  0
LINE
  8
LC-006-005-----0
  6
CONTINUOUS
  5
202
 10
521.11415
 20
255.242
 30
0.0
 11
523.11415
 21
257.242
 31
0.0
  0
LINE
  8
LC-006-005-----0
  6
CONTINUOUS
  5
203
 10
518.285723
 20
255.242
 30
0.0
 11
520.285723
 21
257.242
 31
0.0
  0
LINE
  8
LC-006-005-----0
  6
CONTINUOUS
  5
204
 10
515.457295
 20
255.242
 30
0.0
 11
517.457295
 21
257.242
 31
0.0
  0
LINE
  8
LC-006-005-----0
  6
CONTINUOUS
  5
205
 10
512.628868
 20
255.242
 30
0.0
 11
514.628868
 21
257.242
 31
0.0
  0
LINE
  8
LC-006-005-----0
  6
CONTINUOUS
  5
206
 10
509.800441
 20
255.242
 30
0.0
 11
511.800441
 21
257.242
 31
0.0
  0
LINE
  8
LC-006-005-----0
  6
CONTINUOUS
  5
207
 10
506.972014
 20
255.242
 30
0.0
 11
508.972014
 21
257.242
 31
0.0
  0
LINE
  8
LC-006-005-----0
  6
CONTINUOUS
  5
208
 10
504.143587
 20
255.242
 30
0.0
 11
506.143587
 21
257.242
 31
0.0
  0
LINE
  8
LC-006-005-----0
  6
CONTINUOUS
  5
209
 10
501.31516
 20
255.242
 30
0.0
 11
503.31516
 21
257.242
 31
0.0
  0
LINE
  8
LC-006-005-----0
  6
CONTINUOUS
  5
20A
 10
498.486733
 20
255.242
 30
0.0
 11
500.486733
 21
257.242
 31
0.0
  0
LINE
  8
LC-006-005-----0
  6
CONTINUOUS
  5
20B
 10
495.658306
 20
255.242
 30
0.0
 11
497.658306
 21
257.242
 31
0.0
  0
LINE
  8
LC-006-005-----0
  6
CONTINUOUS
  5
20C
 10
492.829878
 20
255.242
 30
0.0
 11
494.829878
 21
257.242
 31
0.0
  0
LINE
  8
LC-006-005-----0
  6
CONTINUOUS
  5
20D
 10
490.001451
 20
255.242
 30
0.0
 11
492.001451
 21
257.242
 31
0.0
  0
LINE
  8
LC-006-005-----0
  6
CONTINUOUS
  5
20E
 10
487.173024
 20
255.242
 30
0.0
 11
489.173024
 21
257.242
 31
0.0
  0
LINE
  8
LC-006-005-----0
  6
CONTINUOUS
  5
20F
 10
484.344597
 20
255.242
 30
0.0
 11
486.344597
 21
257.242
 31
0.0
  0
LINE
  8
LC-006-005-----0
  6
CONTINUOUS
  5
210
 10
481.51617
 20
255.242
 30
0.0
 11
483.51617
 21
257.242
 31
0.0
  0
LINE
  8
LC-006-005-----0
  6
CONTINUOUS
  5
211
 10
478.687743
 20
255.242
 30
0.0
 11
480.687743
 21
257.242
 31
0.0
  0
LINE
  8
LC-006-005-----0
  6
CONTINUOUS
  5
212
 10
475.859316
 20
255.242
 30
0.0
 11
477.859316
 21
257.242
 31
0.0
  0
LINE
  8
LC-006-005-----0
  6
CONTINUOUS
  5
213
 10
473.030889
 20
255.242
 30
0.0
 11
475.030889
 21
257.242
 31
0.0
  0
LINE
  8
LC-006-005-----0
  6
CONTINUOUS
  5
214
 10
470.202461
 20
255.242
 30
0.0
 11
472.202461
 21
257.242
 31
0.0
  0
LINE
  8
LC-006-005-----0
  6
CONTINUOUS
  5
215
 10
467.374034
 20
255.242
 30
0.0
 11
469.374034
 21
257.242
 31
0.0
  0
LINE
  8
LC-006-005-----0
  6
CONTINUOUS
  5
216
 10
464.545607
 20
255.242
 30
0.0
 11
466.545607
 21
257.242
 31
0.0
  0
LINE
  8
LC-006-005-----0
  6
CONTINUOUS
  5
217
 10
461.71718
 20
255.242
 30
0.0
 11
463.71718
 21
257.242
 31
0.0
  0
LINE
  8
LC-006-005-----0
  6
CONTINUOUS
  5
218
 10
458.888753
 20
255.242
 30
0.0
 11
460.888753
 21
257.242
 31
0.0
  0
LINE
  8
LC-006-005-----0
  6
CONTINUOUS
  5
219
 10
456.060326
 20
255.242
 30
0.0
 11
458.060326
 21
257.242
 31
0.0
  0
LINE
  8
LC-006-005-----0
  6
CONTINUOUS
  5
21A
 10
453.231899
 20
255.242
 30
0.0
 11
455.231899
 21
257.242
 31
0.0
  0
LINE
  8
LC-006-005-----0
  6
CONTINUOUS
  5
21B
 10
450.403472
 20
255.242
 30
0.0
 11
452.403472
 21
257.242
 31
0.0
  0
LINE
  8
LC-006-005-----0
  6
CONTINUOUS
  5
21C
 10
447.575044
 20
255.242
 30
0.0
 11
449.575044
 21
257.242
 31
0.0
  0
LINE
  8
LC-006-005-----0
  6
CONTINUOUS
  5
21D
 10
444.746617
 20
255.242
 30
0.0
 11
446.746617
 21
257.242
 31
0.0
  0
LINE
  8
LC-006-005-----0
  6
CONTINUOUS
  5
21E
 10
441.91819
 20
255.242
 30
0.0
 11
443.91819
 21
257.242
 31
0.0
  0
LINE
  8
LC-006-005-----0
  6
CONTINUOUS
  5
21F
 10
439.089763
 20
255.242
 30
0.0
 11
441.089763
 21
257.242
 31
0.0
  0
LINE
  8
LC-006-005-----0
  6
CONTINUOUS
  5
220
 10
436.261336
 20
255.242
 30
0.0
 11
438.261336
 21
257.242
 31
0.0
  0
LINE
  8
LC-006-005-----0
  6
CONTINUOUS
  5
221
 10
433.432909
 20
255.242
 30
0.0
 11
435.432909
 21
257.242
 31
0.0
  0
LINE
  8
LC-006-005-----0
  6
CONTINUOUS
  5
222
 10
430.604482
 20
255.242
 30
0.0
 11
432.604482
 21
257.242
 31
0.0
  0
LINE
  8
LC-006-005-----0
  6
CONTINUOUS
  5
223
 10
427.776055
 20
255.242
 30
0.0
 11
429.776055
 21
257.242
 31
0.0
  0
LINE
  8
LC-006-005-----0
  6
CONTINUOUS
  5
224
 10
424.947627
 20
255.242
 30
0.0
 11
426.947627
 21
257.242
 31
0.0
  0
LINE
  8
LC-006-005-----0
  6
CONTINUOUS
  5
225
 10
422.1192
 20
255.242
 30
0.0
 11
424.1192
 21
257.242
 31
0.0
  0
LINE
  8
LC-006-005-----0
  6
CONTINUOUS
  5
226
 10
419.290773
 20
255.242
 30
0.0
 11
421.290773
 21
257.242
 31
0.0
  0
LINE
  8
LC-006-005-----0
  6
CONTINUOUS
  5
227
 10
416.462346
 20
255.242
 30
0.0
 11
418.462346
 21
257.242
 31
0.0
  0
LINE
  8
LC-006-005-----0
  6
CONTINUOUS
  5
228
 10
413.633919
 20
255.242
 30
0.0
 11
415.633919
 21
257.242
 31
0.0
  0
LINE
  8
LC-006-005-----0
  6
CONTINUOUS
  5
229
 10
410.805492
 20
255.242
 30
0.0
 11
412.805492
 21
257.242
 31
0.0
  0
LINE
  8
LC-006-005-----0
  6
CONTINUOUS
  5
22A
 10
407.977065
 20
255.242
 30
0.0
 11
409.977065
 21
257.242
 31
0.0
  0
LINE
  8
LC-006-005-----0
  6
CONTINUOUS
  5
22B
 10
405.148638
 20
255.242
 30
0.0
 11
407.148638
 21
257.242
 31
0.0
  0
LINE
  8
LC-006-005-----0
  6
CONTINUOUS
  5
22C
 10
402.32021
 20
255.242
 30
0.0
 11
404.32021
 21
257.242
 31
0.0
  0
LINE
  8
LC-006-005-----0
  6
CONTINUOUS
  5
22D
 10
399.491783
 20
255.242
 30
0.0
 11
401.491783
 21
257.242
 31
0.0
  0
LINE
  8
LC-006-005-----0
  6
CONTINUOUS
  5
22E
 10
396.663356
 20
255.242
 30
0.0
 11
398.663356
 21
257.242
 31
0.0
  0
LINE
  8
LC-006-005-----0
  6
CONTINUOUS
  5
22F
 10
393.834929
 20
255.242
 30
0.0
 11
395.834929
 21
257.242
 31
0.0
  0
LINE
  8
LC-006-005-----0
  6
CONTINUOUS
  5
230
 10
391.006502
 20
255.242
 30
0.0
 11
393.006502
 21
257.242
 31
0.0
  0
LINE
  8
LC-006-005-----0
  6
CONTINUOUS
  5
231
 10
388.178075
 20
255.242
 30
0.0
 11
390.178075
 21
257.242
 31
0.0
  0
LINE
  8
LC-006-005-----0
  6
CONTINUOUS
  5
232
 10
385.349648
 20
255.242
 30
0.0
 11
387.349648
 21
257.242
 31
0.0
  0
LINE
  8
LC-006-005-----0
  6
CONTINUOUS
  5
233
 10
382.521221
 20
255.242
 30
0.0
 11
384.521221
 21
257.242
 31
0.0
  0
LINE
  8
LC-006-005-----0
  6
CONTINUOUS
  5
234
 10
379.692793
 20
255.242
 30
0.0
 11
381.692793
 21
257.242
 31
0.0
  0
LINE
  8
LC-006-005-----0
  6
CONTINUOUS
  5
235
 10
376.864366
 20
255.242
 30
0.0
 11
378.864366
 21
257.242
 31
0.0
  0
LINE
  8
LC-006-005-----0
  6
CONTINUOUS
  5
236
 10
374.035939
 20
255.242
 30
0.0
 11
376.035939
 21
257.242
 31
0.0
  0
LINE
  8
LC-006-005-----0
  6
CONTINUOUS
  5
237
 10
371.207512
 20
255.242
 30
0.0
 11
373.207512
 21
257.242
 31
0.0
  0
LINE
  8
LC-006-005-----0
  6
CONTINUOUS
  5
238
 10
368.379085
 20
255.242
 30
0.0
 11
370.379085
 21
257.242
 31
0.0
  0
LINE
  8
LC-006-005-----0
  6
CONTINUOUS
  5
239
 10
365.550658
 20
255.242
 30
0.0
 11
367.550658
 21
257.242
 31
0.0
  0
LINE
  8
LC-006-005-----0
  6
CONTINUOUS
  5
23A
 10
362.722231
 20
255.242
 30
0.0
 11
364.722231
 21
257.242
 31
0.0
  0
LINE
  8
LC-006-005-----0
  6
CONTINUOUS
  5
23B
 10
359.893804
 20
255.242
 30
0.0
 11
361.893804
 21
257.242
 31
0.0
  0
LINE
  8
LC-006-005-----0
  6
CONTINUOUS
  5
23C
 10
357.065376
 20
255.242
 30
0.0
 11
359.065376
 21
257.242
 31
0.0
  0
LINE
  8
LC-006-005-----0
  6
CONTINUOUS
  5
23D
 10
354.236949
 20
255.242
 30
0.0
 11
356.236949
 21
257.242
 31
0.0
  0
LINE
  8
LC-006-005-----0
  6
CONTINUOUS
  5
23E
 10
351.408522
 20
255.242
 30
0.0
 11
353.408522
 21
257.242
 31
0.0
  0
LINE
  8
LC-006-005-----0
  6
CONTINUOUS
  5
23F
 10
348.580095
 20
255.242
 30
0.0
 11
350.580095
 21
257.242
 31
0.0
  0
LINE
  8
LC-006-005-----0
  6
CONTINUOUS
  5
240
 10
345.751668
 20
255.242
 30
0.0
 11
347.751668
 21
257.242
 31
0.0
  0
LINE
  8
LC-006-005-----0
  6
CONTINUOUS
  5
241
 10
342.923241
 20
255.242
 30
0.0
 11
344.923241
 21
257.242
 31
0.0
  0
LINE
  8
LC-006-005-----0
  6
CONTINUOUS
  5
242
 10
340.094814
 20
255.242
 30
0.0
 11
342.094814
 21
257.242
 31
0.0
  0
LINE
  8
LC-006-005-----0
  6
CONTINUOUS
  5
243
 10
337.266387
 20
255.242
 30
0.0
 11
339.266387
 21
257.242
 31
0.0
  0
LINE
  8
LC-006-005-----0
  6
CONTINUOUS
  5
244
 10
307.24873
 20
228.05277
 30
0.0
 11
308.02406
 21
228.8281
 31
0.0
  0
LINE
  8
LC-006-005-----0
  6
CONTINUOUS
  5
245
 10
334.437959
 20
255.242
 30
0.0
 11
336.437959
 21
257.242
 31
0.0
  0
LINE
  8
LC-006-005-----0
  6
CONTINUOUS
  5
246
 10
306.02406
 20
229.656528
 30
0.0
 11
308.02406
 21
231.656528
 31
0.0
  0
LINE
  8
LC-006-005-----0
  6
CONTINUOUS
  5
247
 10
331.609532
 20
255.242
 30
0.0
 11
333.609532
 21
257.242
 31
0.0
  0
LINE
  8
LC-006-005-----0
  6
CONTINUOUS
  5
248
 10
306.02406
 20
232.484955
 30
0.0
 11
308.02406
 21
234.484955
 31
0.0
  0
LINE
  8
LC-006-005-----0
  6
CONTINUOUS
  5
249
 10
328.781105
 20
255.242
 30
0.0
 11
330.781105
 21
257.242
 31
0.0
  0
LINE
  8
LC-006-005-----0
  6
CONTINUOUS
  5
24A
 10
306.02406
 20
235.313382
 30
0.0
 11
308.02406
 21
237.313382
 31
0.0
  0
LINE
  8
LC-006-005-----0
  6
CONTINUOUS
  5
24B
 10
325.952678
 20
255.242
 30
0.0
 11
327.952678
 21
257.242
 31
0.0
  0
LINE
  8
LC-006-005-----0
  6
CONTINUOUS
  5
24C
 10
306.02406
 20
238.141809
 30
0.0
 11
308.02406
 21
240.141809
 31
0.0
  0
LINE
  8
LC-006-005-----0
  6
CONTINUOUS
  5
24D
 10
323.124251
 20
255.242
 30
0.0
 11
325.124251
 21
257.242
 31
0.0
  0
LINE
  8
LC-006-005-----0
  6
CONTINUOUS
  5
24E
 10
306.02406
 20
240.970236
 30
0.0
 11
308.02406
 21
242.970236
 31
0.0
  0
LINE
  8
LC-006-005-----0
  6
CONTINUOUS
  5
24F
 10
320.295824
 20
255.242
 30
0.0
 11
322.295824
 21
257.242
 31
0.0
  0
LINE
  8
LC-006-005-----0
  6
CONTINUOUS
  5
250
 10
306.02406
 20
243.798663
 30
0.0
 11
308.02406
 21
245.798663
 31
0.0
  0
LINE
  8
LC-006-005-----0
  6
CONTINUOUS
  5
251
 10
317.467397
 20
255.242
 30
0.0
 11
319.467397
 21
257.242
 31
0.0
  0
LINE
  8
LC-006-005-----0
  6
CONTINUOUS
  5
252
 10
306.02406
 20
246.62709
 30
0.0
 11
308.02406
 21
248.62709
 31
0.0
  0
LINE
  8
LC-006-005-----0
  6
CONTINUOUS
  5
253
 10
314.63897
 20
255.242
 30
0.0
 11
316.63897
 21
257.242
 31
0.0
  0
LINE
  8
LC-006-005-----0
  6
CONTINUOUS
  5
254
 10
306.02406
 20
249.455517
 30
0.0
 11
308.02406
 21
251.455517
 31
0.0
  0
LINE
  8
LC-006-005-----0
  6
CONTINUOUS
  5
255
 10
311.810542
 20
255.242
 30
0.0
 11
313.810542
 21
257.242
 31
0.0
  0
LINE
  8
LC-006-005-----0
  6
CONTINUOUS
  5
256
 10
306.02406
 20
252.283945
 30
0.0
 11
308.02406
 21
254.283945
 31
0.0
  0
LINE
  8
LC-006-005-----0
  6
CONTINUOUS
  5
257
 10
308.982115
 20
255.242
 30
0.0
 11
310.982115
 21
257.242
 31
0.0
  0
LINE
  8
LC-006-005-----0
  6
CONTINUOUS
  5
258
 10
306.02406
 20
255.112372
 30
0.0
 11
308.153688
 21
257.242
 31
0.0
  0
LINE
  8
LC-006-005-----0
  6
CONTINUOUS
  5
259
 10
306.02406
 20
257.940799
 30
0.0
 11
308.02406
 21
259.940799
 31
0.0
  0
LINE
  8
LC-006-005-----0
  6
CONTINUOUS
  5
25A
 10
306.02406
 20
260.769226
 30
0.0
 11
308.02406
 21
262.769226
 31
0.0
  0
LINE
  8
LC-006-005-----0
  6
CONTINUOUS
  5
25B
 10
306.02406
 20
263.597653
 30
0.0
 11
307.668407
 21
265.242
 31
0.0
  0
ENDBLK
  8
0
  5
25C
  0
BLOCK
  8
0
  5
25E
  2
*X15
 70
    65
 10
273.02406
 20
225.242
 30
0.0
  3
*X15
  0
LINE
  8
LC-006-005-----0
  6
CONTINUOUS
  5
25F
 10
556.285723
 20
293.242
 30
0.0
 11
557.385127
 21
294.341405
 31
0.0
  0
LINE
  8
LC-006-005-----0
  6
CONTINUOUS
  5
260
 10
553.457295
 20
293.242
 30
0.0
 11
555.154417
 21
294.939122
 31
0.0
  0
LINE
  8
LC-006-005-----0
  6
CONTINUOUS
  5
261
 10
550.628868
 20
293.242
 30
0.0
 11
552.628868
 21
295.242
 31
0.0
  0
LINE
  8
LC-006-005-----0
  6
CONTINUOUS
  5
262
 10
547.800441
 20
293.242
 30
0.0
 11
549.800441
 21
295.242
 31
0.0
  0
LINE
  8
LC-006-005-----0
  6
CONTINUOUS
  5
263
 10
544.972014
 20
293.242
 30
0.0
 11
546.972014
 21
295.242
 31
0.0
  0
LINE
  8
LC-006-005-----0
  6
CONTINUOUS
  5
264
 10
542.143587
 20
293.242
 30
0.0
 11
544.143587
 21
295.242
 31
0.0
  0
LINE
  8
LC-006-005-----0
  6
CONTINUOUS
  5
265
 10
539.31516
 20
293.242
 30
0.0
 11
541.31516
 21
295.242
 31
0.0
  0
LINE
  8
LC-006-005-----0
  6
CONTINUOUS
  5
266
 10
536.486733
 20
293.242
 30
0.0
 11
538.486733
 21
295.242
 31
0.0
  0
LINE
  8
LC-006-005-----0
  6
CONTINUOUS
  5
267
 10
533.658306
 20
293.242
 30
0.0
 11
535.658306
 21
295.242
 31
0.0
  0
LINE
  8
LC-006-005-----0
  6
CONTINUOUS
  5
268
 10
530.829878
 20
293.242
 30
0.0
 11
532.829878
 21
295.242
 31
0.0
  0
LINE
  8
LC-006-005-----0
  6
CONTINUOUS
  5
269
 10
528.001451
 20
293.242
 30
0.0
 11
530.001451
 21
295.242
 31
0.0
  0
LINE
  8
LC-006-005-----0
  6
CONTINUOUS
  5
26A
 10
525.173024
 20
293.242
 30
0.0
 11
527.173024
 21
295.242
 31
0.0
  0
LINE
  8
LC-006-005-----0
  6
CONTINUOUS
  5
26B
 10
522.344597
 20
293.242
 30
0.0
 11
524.344597
 21
295.242
 31
0.0
  0
LINE
  8
LC-006-005-----0
  6
CONTINUOUS
  5
26C
 10
519.51617
 20
293.242
 30
0.0
 11
521.51617
 21
295.242
 31
0.0
  0
LINE
  8
LC-006-005-----0
  6
CONTINUOUS
  5
26D
 10
516.687743
 20
293.242
 30
0.0
 11
518.687743
 21
295.242
 31
0.0
  0
LINE
  8
LC-006-005-----0
  6
CONTINUOUS
  5
26E
 10
513.859316
 20
293.242
 30
0.0
 11
515.859316
 21
295.242
 31
0.0
  0
LINE
  8
LC-006-005-----0
  6
CONTINUOUS
  5
26F
 10
511.030889
 20
293.242
 30
0.0
 11
513.030889
 21
295.242
 31
0.0
  0
LINE
  8
LC-006-005-----0
  6
CONTINUOUS
  5
270
 10
508.202461
 20
293.242
 30
0.0
 11
510.202461
 21
295.242
 31
0.0
  0
LINE
  8
LC-006-005-----0
  6
CONTINUOUS
  5
271
 10
505.374034
 20
293.242
 30
0.0
 11
507.374034
 21
295.242
 31
0.0
  0
LINE
  8
LC-006-005-----0
  6
CONTINUOUS
  5
272
 10
502.545607
 20
293.242
 30
0.0
 11
504.545607
 21
295.242
 31
0.0
  0
LINE
  8
LC-006-005-----0
  6
CONTINUOUS
  5
273
 10
499.71718
 20
293.242
 30
0.0
 11
501.71718
 21
295.242
 31
0.0
  0
LINE
  8
LC-006-005-----0
  6
CONTINUOUS
  5
274
 10
496.888753
 20
293.242
 30
0.0
 11
498.888753
 21
295.242
 31
0.0
  0
LINE
  8
LC-006-005-----0
  6
CONTINUOUS
  5
275
 10
494.060326
 20
293.242
 30
0.0
 11
496.060326
 21
295.242
 31
0.0
  0
LINE
  8
LC-006-005-----0
  6
CONTINUOUS
  5
276
 10
491.231899
 20
293.242
 30
0.0
 11
493.231899
 21
295.242
 31
0.0
  0
LINE
  8
LC-006-005-----0
  6
CONTINUOUS
  5
277
 10
488.403472
 20
293.242
 30
0.0
 11
490.403472
 21
295.242
 31
0.0
  0
LINE
  8
LC-006-005-----0
  6
CONTINUOUS
  5
278
 10
485.575044
 20
293.242
 30
0.0
 11
487.575044
 21
295.242
 31
0.0
  0
LINE
  8
LC-006-005-----0
  6
CONTINUOUS
  5
279
 10
482.746617
 20
293.242
 30
0.0
 11
484.746617
 21
295.242
 31
0.0
  0
LINE
  8
LC-006-005-----0
  6
CONTINUOUS
  5
27A
 10
479.91819
 20
293.242
 30
0.0
 11
481.91819
 21
295.242
 31
0.0
  0
LINE
  8
LC-006-005-----0
  6
CONTINUOUS
  5
27B
 10
477.089763
 20
293.242
 30
0.0
 11
479.089763
 21
295.242
 31
0.0
  0
LINE
  8
LC-006-005-----0
  6
CONTINUOUS
  5
27C
 10
474.261336
 20
293.242
 30
0.0
 11
476.261336
 21
295.242
 31
0.0
  0
LINE
  8
LC-006-005-----0
  6
CONTINUOUS
  5
27D
 10
471.432909
 20
293.242
 30
0.0
 11
473.432909
 21
295.242
 31
0.0
  0
LINE
  8
LC-006-005-----0
  6
CONTINUOUS
  5
27E
 10
468.604482
 20
293.242
 30
0.0
 11
470.604482
 21
295.242
 31
0.0
  0
LINE
  8
LC-006-005-----0
  6
CONTINUOUS
  5
27F
 10
465.776055
 20
293.242
 30
0.0
 11
467.776055
 21
295.242
 31
0.0
  0
LINE
  8
LC-006-005-----0
  6
CONTINUOUS
  5
280
 10
462.947627
 20
293.242
 30
0.0
 11
464.947627
 21
295.242
 31
0.0
  0
LINE
  8
LC-006-005-----0
  6
CONTINUOUS
  5
281
 10
460.1192
 20
293.242
 30
0.0
 11
462.1192
 21
295.242
 31
0.0
  0
LINE
  8
LC-006-005-----0
  6
CONTINUOUS
  5
282
 10
457.290773
 20
293.242
 30
0.0
 11
459.290773
 21
295.242
 31
0.0
  0
LINE
  8
LC-006-005-----0
  6
CONTINUOUS
  5
283
 10
454.462346
 20
293.242
 30
0.0
 11
456.462346
 21
295.242
 31
0.0
  0
LINE
  8
LC-006-005-----0
  6
CONTINUOUS
  5
284
 10
451.633919
 20
293.242
 30
0.0
 11
453.633919
 21
295.242
 31
0.0
  0
LINE
  8
LC-006-005-----0
  6
CONTINUOUS
  5
285
 10
448.805492
 20
293.242
 30
0.0
 11
450.805492
 21
295.242
 31
0.0
  0
LINE
  8
LC-006-005-----0
  6
CONTINUOUS
  5
286
 10
445.977065
 20
293.242
 30
0.0
 11
447.977065
 21
295.242
 31
0.0
  0
LINE
  8
LC-006-005-----0
  6
CONTINUOUS
  5
287
 10
443.148638
 20
293.242
 30
0.0
 11
445.148638
 21
295.242
 31
0.0
  0
LINE
  8
LC-006-005-----0
  6
CONTINUOUS
  5
288
 10
440.32021
 20
293.242
 30
0.0
 11
442.32021
 21
295.242
 31
0.0
  0
LINE
  8
LC-006-005-----0
  6
CONTINUOUS
  5
289
 10
437.491783
 20
293.242
 30
0.0
 11
439.491783
 21
295.242
 31
0.0
  0
LINE
  8
LC-006-005-----0
  6
CONTINUOUS
  5
28A
 10
434.663356
 20
293.242
 30
0.0
 11
436.663356
 21
295.242
 31
0.0
  0
LINE
  8
LC-006-005-----0
  6
CONTINUOUS
  5
28B
 10
431.834929
 20
293.242
 30
0.0
 11
433.834929
 21
295.242
 31
0.0
  0
LINE
  8
LC-006-005-----0
  6
CONTINUOUS
  5
28C
 10
429.006502
 20
293.242
 30
0.0
 11
431.006502
 21
295.242
 31
0.0
  0
LINE
  8
LC-006-005-----0
  6
CONTINUOUS
  5
28D
 10
426.178075
 20
293.242
 30
0.0
 11
428.178075
 21
295.242
 31
0.0
  0
LINE
  8
LC-006-005-----0
  6
CONTINUOUS
  5
28E
 10
423.349648
 20
293.242
 30
0.0
 11
425.349648
 21
295.242
 31
0.0
  0
LINE
  8
LC-006-005-----0
  6
CONTINUOUS
  5
28F
 10
420.521221
 20
293.242
 30
0.0
 11
422.521221
 21
295.242
 31
0.0
  0
LINE
  8
LC-006-005-----0
  6
CONTINUOUS
  5
290
 10
417.692793
 20
293.242
 30
0.0
 11
419.692793
 21
295.242
 31
0.0
  0
LINE
  8
LC-006-005-----0
  6
CONTINUOUS
  5
291
 10
414.864366
 20
293.242
 30
0.0
 11
416.864366
 21
295.242
 31
0.0
  0
LINE
  8
LC-006-005-----0
  6
CONTINUOUS
  5
292
 10
412.035939
 20
293.242
 30
0.0
 11
414.035939
 21
295.242
 31
0.0
  0
LINE
  8
LC-006-005-----0
  6
CONTINUOUS
  5
293
 10
409.207512
 20
293.242
 30
0.0
 11
411.207512
 21
295.242
 31
0.0
  0
LINE
  8
LC-006-005-----0
  6
CONTINUOUS
  5
294
 10
406.379085
 20
293.242
 30
0.0
 11
408.379085
 21
295.242
 31
0.0
  0
LINE
  8
LC-006-005-----0
  6
CONTINUOUS
  5
295
 10
403.550658
 20
293.242
 30
0.0
 11
405.550658
 21
295.242
 31
0.0
  0
LINE
  8
LC-006-005-----0
  6
CONTINUOUS
  5
296
 10
400.722231
 20
293.242
 30
0.0
 11
402.722231
 21
295.242
 31
0.0
  0
LINE
  8
LC-006-005-----0
  6
CONTINUOUS
  5
297
 10
397.893804
 20
293.242
 30
0.0
 11
399.893804
 21
295.242
 31
0.0
  0
LINE
  8
LC-006-005-----0
  6
CONTINUOUS
  5
298
 10
395.065376
 20
293.242
 30
0.0
 11
397.065376
 21
295.242
 31
0.0
  0
LINE
  8
LC-006-005-----0
  6
CONTINUOUS
  5
299
 10
392.236949
 20
293.242
 30
0.0
 11
394.236949
 21
295.242
 31
0.0
  0
LINE
  8
LC-006-005-----0
  6
CONTINUOUS
  5
29A
 10
389.408522
 20
293.242
 30
0.0
 11
391.408522
 21
295.242
 31
0.0
  0
LINE
  8
LC-006-005-----0
  6
CONTINUOUS
  5
29B
 10
386.580095
 20
293.242
 30
0.0
 11
388.580095
 21
295.242
 31
0.0
  0
LINE
  8
LC-006-005-----0
  6
CONTINUOUS
  5
29C
 10
383.751668
 20
293.242
 30
0.0
 11
385.751668
 21
295.242
 31
0.0
  0
LINE
  8
LC-006-005-----0
  6
CONTINUOUS
  5
29D
 10
380.923241
 20
293.242
 30
0.0
 11
382.923241
 21
295.242
 31
0.0
  0
LINE
  8
LC-006-005-----0
  6
CONTINUOUS
  5
29E
 10
378.094814
 20
293.242
 30
0.0
 11
380.094814
 21
295.242
 31
0.0
  0
LINE
  8
LC-006-005-----0
  6
CONTINUOUS
  5
29F
 10
375.266387
 20
293.242
 30
0.0
 11
377.266387
 21
295.242
 31
0.0
  0
LINE
  8
LC-006-005-----0
  6
CONTINUOUS
  5
2A0
 10
372.437959
 20
293.242
 30
0.0
 11
374.437959
 21
295.242
 31
0.0
  0
LINE
  8
LC-006-005-----0
  6
CONTINUOUS
  5
2A1
 10
369.609532
 20
293.242
 30
0.0
 11
371.609532
 21
295.242
 31
0.0
  0
LINE
  8
LC-006-005-----0
  6
CONTINUOUS
  5
2A2
 10
366.781105
 20
293.242
 30
0.0
 11
368.781105
 21
295.242
 31
0.0
  0
LINE
  8
LC-006-005-----0
  6
CONTINUOUS
  5
2A3
 10
363.952678
 20
293.242
 30
0.0
 11
365.952678
 21
295.242
 31
0.0
  0
LINE
  8
LC-006-005-----0
  6
CONTINUOUS
  5
2A4
 10
361.124251
 20
293.242
 30
0.0
 11
363.124251
 21
295.242
 31
0.0
  0
LINE
  8
LC-006-005-----0
  6
CONTINUOUS
  5
2A5
 10
358.295824
 20
293.242
 30
0.0
 11
360.295824
 21
295.242
 31
0.0
  0
LINE
  8
LC-006-005-----0
  6
CONTINUOUS
  5
2A6
 10
355.467397
 20
293.242
 30
0.0
 11
357.467397
 21
295.242
 31
0.0
  0
LINE
  8
LC-006-005-----0
  6
CONTINUOUS
  5
2A7
 10
352.63897
 20
293.242
 30
0.0
 11
354.63897
 21
295.242
 31
0.0
  0
LINE
  8
LC-006-005-----0
  6
CONTINUOUS
  5
2A8
 10
349.810542
 20
293.242
 30
0.0
 11
351.810542
 21
295.242
 31
0.0
  0
LINE
  8
LC-006-005-----0
  6
CONTINUOUS
  5
2A9
 10
346.982115
 20
293.242
 30
0.0
 11
348.982115
 21
295.242
 31
0.0
  0
LINE
  8
LC-006-005-----0
  6
CONTINUOUS
  5
2AA
 10
344.153688
 20
293.242
 30
0.0
 11
346.153688
 21
295.242
 31
0.0
  0
LINE
  8
LC-006-005-----0
  6
CONTINUOUS
  5
2AB
 10
341.325261
 20
293.242
 30
0.0
 11
343.325261
 21
295.242
 31
0.0
  0
LINE
  8
LC-006-005-----0
  6
CONTINUOUS
  5
2AC
 10
273.307604
 20
228.05277
 30
0.0
 11
275.02406
 21
229.769226
 31
0.0
  0
LINE
  8
LC-006-005-----0
  6
CONTINUOUS
  5
2AD
 10
338.496834
 20
293.242
 30
0.0
 11
340.496834
 21
295.242
 31
0.0
  0
LINE
  8
LC-006-005-----0
  6
CONTINUOUS
  5
2AE
 10
273.02406
 20
230.597653
 30
0.0
 11
275.02406
 21
232.597653
 31
0.0
  0
LINE
  8
LC-006-005-----0
  6
CONTINUOUS
  5
2AF
 10
335.668407
 20
293.242
 30
0.0
 11
337.668407
 21
295.242
 31
0.0
  0
LINE
  8
LC-006-005-----0
  6
CONTINUOUS
  5
2B0
 10
273.02406
 20
233.42608
 30
0.0
 11
275.02406
 21
235.42608
 31
0.0
  0
LINE
  8
LC-006-005-----0
  6
CONTINUOUS
  5
2B1
 10
332.83998
 20
293.242
 30
0.0
 11
334.83998
 21
295.242
 31
0.0
  0
LINE
  8
LC-006-005-----0
  6
CONTINUOUS
  5
2B2
 10
273.02406
 20
236.254507
 30
0.0
 11
275.02406
 21
238.254507
 31
0.0
  0
LINE
  8
LC-006-005-----0
  6
CONTINUOUS
  5
2B3
 10
330.011553
 20
293.242
 30
0.0
 11
332.011553
 21
295.242
 31
0.0
  0
LINE
  8
LC-006-005-----0
  6
CONTINUOUS
  5
2B4
 10
273.02406
 20
239.082934
 30
0.0
 11
275.02406
 21
241.082934
 31
0.0
  0
LINE
  8
LC-006-005-----0
  6
CONTINUOUS
  5
2B5
 10
327.183125
 20
293.242
 30
0.0
 11
329.183125
 21
295.242
 31
0.0
  0
LINE
  8
LC-006-005-----0
  6
CONTINUOUS
  5
2B6
 10
273.02406
 20
241.911362
 30
0.0
 11
275.02406
 21
243.911362
 31
0.0
  0
LINE
  8
LC-006-005-----0
  6
CONTINUOUS
  5
2B7
 10
324.354698
 20
293.242
 30
0.0
 11
326.354698
 21
295.242
 31
0.0
  0
LINE
  8
LC-006-005-----0
  6
CONTINUOUS
  5
2B8
 10
273.02406
 20
244.739789
 30
0.0
 11
275.02406
 21
246.739789
 31
0.0
  0
LINE
  8
LC-006-005-----0
  6
CONTINUOUS
  5
2B9
 10
321.526271
 20
293.242
 30
0.0
 11
323.526271
 21
295.242
 31
0.0
  0
LINE
  8
LC-006-005-----0
  6
CONTINUOUS
  5
2BA
 10
273.02406
 20
247.568216
 30
0.0
 11
275.02406
 21
249.568216
 31
0.0
  0
LINE
  8
LC-006-005-----0
  6
CONTINUOUS
  5
2BB
 10
318.697844
 20
293.242
 30
0.0
 11
320.697844
 21
295.242
 31
0.0
  0
LINE
  8
LC-006-005-----0
  6
CONTINUOUS
  5
2BC
 10
273.02406
 20
250.396643
 30
0.0
 11
275.02406
 21
252.396643
 31
0.0
  0
LINE
  8
LC-006-005-----0
  6
CONTINUOUS
  5
2BD
 10
315.869417
 20
293.242
 30
0.0
 11
317.869417
 21
295.242
 31
0.0
  0
LINE
  8
LC-006-005-----0
  6
CONTINUOUS
  5
2BE
 10
273.02406
 20
253.22507
 30
0.0
 11
275.02406
 21
255.22507
 31
0.0
  0
LINE
  8
LC-006-005-----0
  6
CONTINUOUS
  5
2BF
 10
313.04099
 20
293.242
 30
0.0
 11
315.04099
 21
295.242
 31
0.0
  0
LINE
  8
LC-006-005-----0
  6
CONTINUOUS
  5
2C0
 10
273.02406
 20
256.053497
 30
0.0
 11
275.02406
 21
258.053497
 31
0.0
  0
LINE
  8
LC-006-005-----0
  6
CONTINUOUS
  5
2C1
 10
310.212563
 20
293.242
 30
0.0
 11
312.212563
 21
295.242
 31
0.0
  0
LINE
  8
LC-006-005-----0
  6
CONTINUOUS
  5
2C2
 10
273.02406
 20
258.881924
 30
0.0
 11
275.030389
 21
260.888253
 31
0.0
  0
LINE
  8
LC-006-005-----0
  6
CONTINUOUS
  5
2C3
 10
307.377807
 20
293.235671
 30
0.0
 11
309.384136
 21
295.242
 31
0.0
  0
LINE
  8
LC-006-005-----0
  6
CONTINUOUS
  5
2C4
 10
273.05624
 20
261.742532
 30
0.0
 11
275.229155
 21
263.915447
 31
0.0
  0
LINE
  8
LC-006-005-----0
  6
CONTINUOUS
  5
2C5
 10
304.350613
 20
293.036905
 30
0.0
 11
306.523528
 21
295.20982
 31
0.0
  0
LINE
  8
LC-006-005-----0
  6
CONTINUOUS
  5
2C6
 10
273.327721
 20
264.842439
 30
0.0
 11
275.788344
 21
267.303062
 31
0.0
  0
LINE
  8
LC-006-005-----0
  6
CONTINUOUS
  5
2C7
 10
300.962998
 20
292.477716
 30
0.0
 11
303.423621
 21
294.938339
 31
0.0
  0
LINE
  8
LC-006-005-----0
  6
CONTINUOUS
  5
2C8
 10
273.966583
 20
268.309728
 30
0.0
 11
276.918213
 21
271.261358
 31
0.0
  0
LINE
  8
LC-006-005-----0
  6
CONTINUOUS
  5
2C9
 10
297.004702
 20
291.347847
 30
0.0
 11
299.956332
 21
294.299477
 31
0.0
  0
LINE
  8
LC-006-005-----0
  6
CONTINUOUS
  5
2CA
 10
275.189023
 20
272.360596
 30
0.0
 11
279.278853
 21
276.450426
 31
0.0
  0
LINE
  8
LC-006-005-----0
  6
CONTINUOUS
  5
2CB
 10
291.815634
 20
288.987207
 30
0.0
 11
295.905464
 21
293.077037
 31
0.0
  0
LINE
  8
LC-006-005-----0
  6
CONTINUOUS
  5
2CC
 10
277.67403
 20
277.67403
 30
0.0
 11
290.59203
 21
290.59203
 31
0.0
  0
ENDBLK
  8
0
  5
2CD
  0
BLOCK
  8
0
  5
2CF
  2
*X16
 70
    65
 10
198.526384
 20
520.244107
 30
0.0
  3
*X16
  0
LINE
  8
LC-006-005-----0
  6
CONTINUOUS
  5
2D0
 10
198.526393
 20
522.722309
 30
0.0
 11
200.026386
 21
521.222318
 31
0.0
  0
LINE
  8
LC-006-005-----0
  6
CONTINUOUS
  5
2D1
 10
199.796337
 20
525.695005
 30
0.0
 11
201.247235
 21
524.244109
 31
0.0
  0
LINE
  8
LC-006-005-----0
  6
CONTINUOUS
  5
2D2
 10
203.489886
 20
526.244098
 30
0.0
 11
205.489898
 21
524.244089
 31
0.0
  0
LINE
  8
LC-006-005-----0
  6
CONTINUOUS
  5
2D3
 10
207.732549
 20
526.244079
 30
0.0
 11
209.732561
 21
524.244069
 31
0.0
  0
LINE
  8
LC-006-005-----0
  6
CONTINUOUS
  5
2D4
 10
211.975212
 20
526.244059
 30
0.0
 11
213.975224
 21
524.244049
 31
0.0
  0
LINE
  8
LC-006-005-----0
  6
CONTINUOUS
  5
2D5
 10
215.526413
 20
526.935501
 30
0.0
 11
216.526408
 21
525.935507
 31
0.0
  0
ENDBLK
  8
0
  5
2D6
  0
BLOCK
  8
0
  5
2D8
  2
BLK2
 70
    64
 10
0.0
 20
0.0
 30
0.0
  3
BLK2
  0
ENDBLK
  8
0
  5
2D9
  0
BLOCK
  8
0
  5
2DB
  2
*X18
 70
    65
 10
200.12406
 20
518.242
 30
0.0
  3
*X18
  0
LINE
  8
LC-006-005-----0
  6
CONTINUOUS
  5
2DC
 10
200.92406
 20
520.324857
 30
0.0
 11
200.595374
 21
520.653543
 31
0.0
  0
LINE
  8
LC-006-005-----0
  6
CONTINUOUS
  5
2DD
 10
200.92406
 20
518.910643
 30
0.0
 11
200.12406
 21
519.710643
 31
0.0
  0
LINE
  8
LC-006-005-----0
  6
CONTINUOUS
  5
2DE
 10
200.17849
 20
518.242
 30
0.0
 11
200.12406
 21
518.29643
 31
0.0
  0
ENDBLK
  8
0
  5
2DF
  0
BLOCK
  8
0
  5
2E1
  2
*X19
 70
    65
 10
201.02406
 20
485.830457
 30
0.0
  3
*X19
  0
LINE
  8
LC-006-005-----0
  6
CONTINUOUS
  5
2E2
 10
209.502058
 20
488.10213
 30
0.0
 11
209.641928
 21
488.242
 31
0.0
  0
LINE
  8
LC-006-005-----0
  6
CONTINUOUS
  5
2E3
 10
207.570207
 20
487.584492
 30
0.0
 11
208.227715
 21
488.242
 31
0.0
  0
LINE
  8
LC-006-005-----0
  6
CONTINUOUS
  5
2E4
 10
205.638355
 20
487.066854
 30
0.0
 11
206.813501
 21
488.242
 31
0.0
  0
LINE
  8
LC-006-005-----0
  6
CONTINUOUS
  5
2E5
 10
203.706503
 20
486.549216
 30
0.0
 11
205.399288
 21
488.242
 31
0.0
  0
LINE
  8
LC-006-005-----0
  6
CONTINUOUS
  5
2E6
 10
201.774652
 20
486.031578
 30
0.0
 11
203.985074
 21
488.242
 31
0.0
  0
LINE
  8
LC-006-005-----0
  6
CONTINUOUS
  5
2E7
 10
201.02406
 20
486.6952
 30
0.0
 11
202.57086
 21
488.242
 31
0.0
  0
LINE
  8
LC-006-005-----0
  6
CONTINUOUS
  5
2E8
 10
201.02406
 20
488.109413
 30
0.0
 11
201.156647
 21
488.242
 31
0.0
  0
ENDBLK
  8
0
  5
2E9
  0
BLOCK
  8
0
  5
2EB
  2
*X20
 70
    65
 10
200.12406
 20
485.830457
 30
0.0
  3
*X20
  0
LINE
  8
LC-006-005-----0
  6
CONTINUOUS
  5
2EC
 10
200.92406
 20
487.797945
 30
0.0
 11
200.480005
 21
488.242
 31
0.0
  0
LINE
  8
LC-006-005-----0
  6
CONTINUOUS
  5
2ED
 10
200.92406
 20
486.383731
 30
0.0
 11
200.12406
 21
487.183731
 31
0.0
  0
ENDBLK
  8
0
  5
2EE
  0
BLOCK
  8
0
  5
2F0
  2
*X21
 70
    65
 10
198.526384
 20
479.239958
 30
0.0
  3
*X21
  0
LINE
  8
LC-006-005-----0
  6
CONTINUOUS
  5
2F1
 10
198.526389
 20
484.538571
 30
0.0
 11
200.052631
 21
483.012332
 31
0.0
  0
LINE
  8
LC-006-005-----0
  6
CONTINUOUS
  5
2F2
 10
200.798838
 20
482.266126
 30
0.0
 11
202.825068
 21
480.239899
 31
0.0
  0
LINE
  8
LC-006-005-----0
  6
CONTINUOUS
  5
2F3
 10
205.067698
 20
482.239909
 30
0.0
 11
207.067692
 21
480.239918
 31
0.0
  0
LINE
  8
LC-006-005-----0
  6
CONTINUOUS
  5
2F4
 10
209.310322
 20
482.239929
 30
0.0
 11
211.310315
 21
480.239938
 31
0.0
  0
LINE
  8
LC-006-005-----0
  6
CONTINUOUS
  5
2F5
 10
213.552946
 20
482.239949
 30
0.0
 11
216.526414
 21
479.266484
 31
0.0
  0
ENDBLK
  8
0
  5
2F6
  0
BLOCK
  8
0
  5
2F8
  2
*X22
 70
    65
 10
308.12406
 20
221.842
 30
0.0
  3
*X22
  0
LINE
  8
LC-006-005-----0
  6
CONTINUOUS
  5
2F9
 10
315.62406
 20
225.171206
 30
0.0
 11
315.453266
 21
225.342
 31
0.0
  0
LINE
  8
LC-006-005-----0
  6
DASHED
  5
2FB
 10
315.62406
 20
224.039835
 30
0.0
 11
314.321895
 21
225.342
 31
0.0
  0
LINE
  8
LC-006-005-----0
  6
DASHED
  5
2FC
 10
315.62406
 20
223.47415
 30
0.0
 11
313.75621
 21
225.342
 31
0.0
  0
LINE
  8
LC-006-005-----0
  6
CONTINUOUS
  5
2FD
 10
315.62406
 20
222.342779
 30
0.0
 11
312.624839
 21
225.342
 31
0.0
  0
LINE
  8
LC-006-005-----0
  6
CONTINUOUS
  5
2FE
 10
315.559154
 20
221.842
 30
0.0
 11
312.059154
 21
225.342
 31
0.0
  0
LINE
  8
LC-006-005-----0
  6
DASHED
  5
2FF
 10
314.427783
 20
221.842
 30
0.0
 11
310.927783
 21
225.342
 31
0.0
  0
LINE
  8
LC-006-005-----0
  6
DASHED
  5
300
 10
313.862097
 20
221.842
 30
0.0
 11
310.362097
 21
225.342
 31
0.0
  0
LINE
  8
LC-006-005-----0
  6
CONTINUOUS
  5
301
 10
312.730727
 20
221.842
 30
0.0
 11
309.230727
 21
225.342
 31
0.0
  0
LINE
  8
LC-006-005-----0
  6
CONTINUOUS
  5
302
 10
312.165041
 20
221.842
 30
0.0
 11
308.665041
 21
225.342
 31
0.0
  0
LINE
  8
LC-006-005-----0
  6
DASHED
  5
303
 10
311.03367
 20
221.842
 30
0.0
 11
308.12406
 21
224.75161
 31
0.0
  0
LINE
  8
LC-006-005-----0
  6
DASHED
  5
304
 10
310.467985
 20
221.842
 30
0.0
 11
308.12406
 21
224.185925
 31
0.0
  0
LINE
  8
LC-006-005-----0
  6
CONTINUOUS
  5
305
 10
309.336614
 20
221.842
 30
0.0
 11
308.12406
 21
223.054554
 31
0.0
  0
LINE
  8
LC-006-005-----0
  6
CONTINUOUS
  5
306
 10
308.770929
 20
221.842
 30
0.0
 11
308.12406
 21
222.488869
 31
0.0
  0
ENDBLK
  8
0
  5
307
  0
BLOCK
  8
0
  5
309
  2
*X23
 70
    65
 10
308.12406
 20
182.142
 30
0.0
  3
*X23
  0
LINE
  8
LC-006-005-----0
  6
CONTINUOUS
  5
30A
 10
315.62406
 20
185.573227
 30
0.0
 11
315.555287
 21
185.642
 31
0.0
  0
LINE
  8
LC-006-005-----0
  6
DASHED
  5
30B
 10
315.62406
 20
184.441856
 30
0.0
 11
314.423916
 21
185.642
 31
0.0
  0
LINE
  8
LC-006-005-----0
  6
DASHED
  5
30C
 10
315.62406
 20
183.87617
 30
0.0
 11
313.85823
 21
185.642
 31
0.0
  0
LINE
  8
LC-006-005-----0
  6
CONTINUOUS
  5
30D
 10
315.62406
 20
182.744799
 30
0.0
 11
312.726859
 21
185.642
 31
0.0
  0
LINE
  8
LC-006-005-----0
  6
CONTINUOUS
  5
30E
 10
315.62406
 20
182.179114
 30
0.0
 11
312.161174
 21
185.642
 31
0.0
  0
LINE
  8
LC-006-005-----0
  6
DASHED
  5
30F
 10
314.529803
 20
182.142
 30
0.0
 11
311.029803
 21
185.642
 31
0.0
  0
LINE
  8
LC-006-005-----0
  6
DASHED
  5
310
 10
313.964118
 20
182.142
 30
0.0
 11
310.464118
 21
185.642
 31
0.0
  0
LINE
  8
LC-006-005-----0
  6
CONTINUOUS
  5
311
 10
312.832747
 20
182.142
 30
0.0
 11
309.332747
 21
185.642
 31
0.0
  0
LINE
  8
LC-006-005-----0
  6
CONTINUOUS
  5
312
 10
312.267061
 20
182.142
 30
0.0
 11
308.767061
 21
185.642
 31
0.0
  0
LINE
  8
LC-006-005-----0
  6
DASHED
  5
313
 10
311.135691
 20
182.142
 30
0.0
 11
308.12406
 21
185.153631
 31
0.0
  0
LINE
  8
LC-006-005-----0
  6
DASHED
  5
314
 10
310.570005
 20
182.142
 30
0.0
 11
308.12406
 21
184.587945
 31
0.0
  0
LINE
  8
LC-006-005-----0
  6
CONTINUOUS
  5
315
 10
309.438634
 20
182.142
 30
0.0
 11
308.12406
 21
183.456574
 31
0.0
  0
LINE
  8
LC-006-005-----0
  6
CONTINUOUS
  5
316
 10
308.872949
 20
182.142
 30
0.0
 11
308.12406
 21
182.890889
 31
0.0
  0
ENDBLK
  8
0
  5
317
  0
BLOCK
  8
0
  5
319
  2
*X24
 70
    65
 10
299.96156
 20
179.742
 30
0.0
  3
*X24
  0
LINE
  8
LC-006-005-----0
  6
CONTINUOUS
  5
31A
 10
322.972862
 20
225.742
 30
0.0
 11
320.972862
 21
227.742
 31
0.0
  0
LINE
  8
LC-006-005-----0
  6
CONTINUOUS
  5
31B
 10
320.144435
 20
225.742
 30
0.0
 11
318.144435
 21
227.742
 31
0.0
  0
LINE
  8
LC-006-005-----0
  6
CONTINUOUS
  5
31C
 10
318.02406
 20
225.033948
 30
0.0
 11
317.02406
 21
226.033948
 31
0.0
  0
LINE
  8
LC-006-005-----0
  6
CONTINUOUS
  5
31D
 10
318.02406
 20
222.205521
 30
0.0
 11
317.02406
 21
223.205521
 31
0.0
  0
LINE
  8
LC-006-005-----0
  6
CONTINUOUS
  5
31E
 10
318.02406
 20
219.377094
 30
0.0
 11
317.02406
 21
220.377094
 31
0.0
  0
LINE
  8
LC-006-005-----0
  6
CONTINUOUS
  5
31F
 10
318.02406
 20
216.548667
 30
0.0
 11
317.02406
 21
217.548667
 31
0.0
  0
LINE
  8
LC-006-005-----0
  6
CONTINUOUS
  5
320
 10
318.02406
 20
213.720239
 30
0.0
 11
317.02406
 21
214.720239
 31
0.0
  0
LINE
  8
LC-006-005-----0
  6
CONTINUOUS
  5
321
 10
321.33428
 20
207.581592
 30
0.0
 11
317.02406
 21
211.891812
 31
0.0
  0
LINE
  8
LC-006-005-----0
  6
CONTINUOUS
  5
322
 10
322.019236
 20
204.06821
 30
0.0
 11
319.593143
 21
206.494302
 31
0.0
  0
LINE
  8
LC-006-005-----0
  6
CONTINUOUS
  5
323
 10
321.787808
 20
201.47121
 30
0.0
 11
320.009377
 21
203.249641
 31
0.0
  0
LINE
  8
LC-006-005-----0
  6
CONTINUOUS
  5
324
 10
321.102502
 20
199.328089
 30
0.0
 11
319.555591
 21
200.875
 31
0.0
  0
LINE
  8
LC-006-005-----0
  6
CONTINUOUS
  5
325
 10
320.093873
 20
197.508291
 30
0.0
 11
318.648626
 21
198.953537
 31
0.0
  0
LINE
  8
LC-006-005-----0
  6
CONTINUOUS
  5
326
 10
318.812521
 20
195.961216
 30
0.0
 11
317.397418
 21
197.376319
 31
0.0
  0
LINE
  8
LC-006-005-----0
  6
CONTINUOUS
  5
327
 10
318.02406
 20
193.92125
 30
0.0
 11
317.02406
 21
194.92125
 31
0.0
  0
LINE
  8
LC-006-005-----0
  6
CONTINUOUS
  5
328
 10
318.02406
 20
191.092822
 30
0.0
 11
317.02406
 21
192.092822
 31
0.0
  0
LINE
  8
LC-006-005-----0
  6
CONTINUOUS
  5
329
 10
318.02406
 20
188.264395
 30
0.0
 11
317.02406
 21
189.264395
 31
0.0
  0
LINE
  8
LC-006-005-----0
  6
CONTINUOUS
  5
32A
 10
323.561396
 20
179.898632
 30
0.0
 11
321.718028
 21
181.742
 31
0.0
  0
LINE
  8
LC-006-005-----0
  6
CONTINUOUS
  5
32B
 10
318.02406
 20
185.435968
 30
0.0
 11
317.02406
 21
186.435968
 31
0.0
  0
LINE
  8
LC-006-005-----0
  6
CONTINUOUS
  5
32C
 10
320.889601
 20
179.742
 30
0.0
 11
318.889601
 21
181.742
 31
0.0
  0
LINE
  8
LC-006-005-----0
  6
CONTINUOUS
  5
32D
 10
318.02406
 20
182.607541
 30
0.0
 11
317.02406
 21
183.607541
 31
0.0
  0
LINE
  8
LC-006-005-----0
  6
CONTINUOUS
  5
32E
 10
318.061174
 20
179.742
 30
0.0
 11
317.02406
 21
180.779114
 31
0.0
  0
ENDBLK
  8
0
  5
32F
  0
BLOCK
  8
0
  5
331
  2
*X25
 70
    65
 10
310.02406
 20
210.462485
 30
0.0
  3
*X25
  0
LINE
  8
LC-006-005-----0
  6
CONTINUOUS
  5
332
 10
315.114289
 20
210.462485
 30
0.0
 11
315.893804
 21
211.242
 31
0.0
  0
LINE
  8
LC-006-005-----0
  6
CONTINUOUS
  5
333
 10
312.285862
 20
210.462485
 30
0.0
 11
313.065376
 21
211.242
 31
0.0
  0
LINE
  8
LC-006-005-----0
  6
CONTINUOUS
  5
334
 10
310.02406
 20
211.029111
 30
0.0
 11
310.236949
 21
211.242
 31
0.0
  0
ENDBLK
  8
0
  5
335
  0
BLOCK
  8
0
  5
337
  2
*X26
 70
    65
 10
310.02406
 20
196.242
 30
0.0
  3
*X26
  0
LINE
  8
LC-006-005-----0
  6
CONTINUOUS
  5
338
 10
315.035939
 20
196.242
 30
0.0
 11
315.815454
 21
197.021515
 31
0.0
  0
LINE
  8
LC-006-005-----0
  6
CONTINUOUS
  5
339
 10
312.207512
 20
196.242
 30
0.0
 11
312.987027
 21
197.021515
 31
0.0
  0
LINE
  8
LC-006-005-----0
  6
CONTINUOUS
  5
33A
 10
310.02406
 20
196.886975
 30
0.0
 11
310.1586
 21
197.021515
 31
0.0
  0
ENDBLK
  8
0
  5
33B
  0
BLOCK
  8
0
  5
33D
  2
*X27
 70
    65
 10
231.02406
 20
182.742
 30
0.0
  3
*X27
  0
LINE
  8
LC-006-005-----0
  6
CONTINUOUS
  5
33E
 10
307.192793
 20
182.742
 30
0.0
 11
308.02406
 21
183.573266
 31
0.0
  0
LINE
  8
LC-006-005-----0
  6
CONTINUOUS
  5
33F
 10
306.02406
 20
184.401694
 30
0.0
 11
309.364366
 21
187.742
 31
0.0
  0
LINE
  8
LC-006-005-----0
  6
CONTINUOUS
  5
340
 10
301.535939
 20
182.742
 30
0.0
 11
302.52406
 21
183.730121
 31
0.0
  0
LINE
  8
LC-006-005-----0
  6
CONTINUOUS
  5
341
 10
304.362572
 20
185.568633
 30
0.0
 11
306.535939
 21
187.742
 31
0.0
  0
LINE
  8
LC-006-005-----0
  6
CONTINUOUS
  5
342
 10
298.707512
 20
182.742
 30
0.0
 11
303.707512
 21
187.742
 31
0.0
  0
LINE
  8
LC-006-005-----0
  6
CONTINUOUS
  5
343
 10
309.207512
 20
193.242
 30
0.0
 11
310.02406
 21
194.058548
 31
0.0
  0
LINE
  8
LC-006-005-----0
  6
CONTINUOUS
  5
344
 10
295.879085
 20
182.742
 30
0.0
 11
297.879085
 21
184.742
 31
0.0
  0
LINE
  8
LC-006-005-----0
  6
CONTINUOUS
  5
345
 10
300.02406
 20
186.886975
 30
0.0
 11
302.02406
 21
188.886975
 31
0.0
  0
LINE
  8
LC-006-005-----0
  6
CONTINUOUS
  5
346
 10
306.379085
 20
193.242
 30
0.0
 11
308.379085
 21
195.242
 31
0.0
  0
LINE
  8
LC-006-005-----0
  6
CONTINUOUS
  5
347
 10
293.050658
 20
182.742
 30
0.0
 11
295.050658
 21
184.742
 31
0.0
  0
LINE
  8
LC-006-005-----0
  6
CONTINUOUS
  5
348
 10
300.02406
 20
189.715402
 30
0.0
 11
302.02406
 21
191.715402
 31
0.0
  0
LINE
  8
LC-006-005-----0
  6
CONTINUOUS
  5
349
 10
303.550658
 20
193.242
 30
0.0
 11
305.550658
 21
195.242
 31
0.0
  0
LINE
  8
LC-006-005-----0
  6
CONTINUOUS
  5
34A
 10
290.222231
 20
182.742
 30
0.0
 11
292.222231
 21
184.742
 31
0.0
  0
LINE
  8
LC-006-005-----0
  6
CONTINUOUS
  5
34B
 10
300.02406
 20
192.543829
 30
0.0
 11
302.722231
 21
195.242
 31
0.0
  0
LINE
  8
LC-006-005-----0
  6
CONTINUOUS
  5
34C
 10
287.393804
 20
182.742
 30
0.0
 11
289.393804
 21
184.742
 31
0.0
  0
LINE
  8
LC-006-005-----0
  6
CONTINUOUS
  5
34D
 10
300.02406
 20
195.372256
 30
0.0
 11
302.02406
 21
197.372256
 31
0.0
  0
LINE
  8
LC-006-005-----0
  6
CONTINUOUS
  5
34E
 10
284.565376
 20
182.742
 30
0.0
 11
286.565376
 21
184.742
 31
0.0
  0
LINE
  8
LC-006-005-----0
  6
CONTINUOUS
  5
34F
 10
300.02406
 20
198.200683
 30
0.0
 11
302.02406
 21
200.200683
 31
0.0
  0
LINE
  8
LC-006-005-----0
  6
CONTINUOUS
  5
350
 10
281.736949
 20
182.742
 30
0.0
 11
283.736949
 21
184.742
 31
0.0
  0
LINE
  8
LC-006-005-----0
  6
CONTINUOUS
  5
351
 10
300.02406
 20
201.029111
 30
0.0
 11
302.02406
 21
203.029111
 31
0.0
  0
LINE
  8
LC-006-005-----0
  6
CONTINUOUS
  5
352
 10
278.908522
 20
182.742
 30
0.0
 11
280.908522
 21
184.742
 31
0.0
  0
LINE
  8
LC-006-005-----0
  6
CONTINUOUS
  5
353
 10
300.02406
 20
203.857538
 30
0.0
 11
302.02406
 21
205.857538
 31
0.0
  0
LINE
  8
LC-006-005-----0
  6
CONTINUOUS
  5
354
 10
308.408522
 20
212.242
 30
0.0
 11
310.02406
 21
213.857538
 31
0.0
  0
LINE
  8
LC-006-005-----0
  6
CONTINUOUS
  5
355
 10
276.080095
 20
182.742
 30
0.0
 11
278.080095
 21
184.742
 31
0.0
  0
LINE
  8
LC-006-005-----0
  6
CONTINUOUS
  5
356
 10
300.02406
 20
206.685965
 30
0.0
 11
302.02406
 21
208.685965
 31
0.0
  0
LINE
  8
LC-006-005-----0
  6
CONTINUOUS
  5
357
 10
305.580095
 20
212.242
 30
0.0
 11
307.580095
 21
214.242
 31
0.0
  0
LINE
  8
LC-006-005-----0
  6
CONTINUOUS
  5
358
 10
273.251668
 20
182.742
 30
0.0
 11
275.251668
 21
184.742
 31
0.0
  0
LINE
  8
LC-006-005-----0
  6
CONTINUOUS
  5
359
 10
300.02406
 20
209.514392
 30
0.0
 11
304.751668
 21
214.242
 31
0.0
  0
LINE
  8
LC-006-005-----0
  6
CONTINUOUS
  5
35A
 10
270.423241
 20
182.742
 30
0.0
 11
272.423241
 21
184.742
 31
0.0
  0
LINE
  8
LC-006-005-----0
  6
CONTINUOUS
  5
35B
 10
301.485719
 20
213.804479
 30
0.0
 11
306.84544
 21
219.164199
 31
0.0
  0
LINE
  8
LC-006-005-----0
  6
CONTINUOUS
  5
35C
 10
307.423241
 20
219.742
 30
0.0
 11
309.423241
 21
221.742
 31
0.0
  0
LINE
  8
LC-006-005-----0
  6
CONTINUOUS
  5
35D
 10
267.594814
 20
182.742
 30
0.0
 11
269.594814
 21
184.742
 31
0.0
  0
LINE
  8
LC-006-005-----0
  6
CONTINUOUS
  5
35E
 10
305.241284
 20
220.38847
 30
0.0
 11
308.02406
 21
223.171246
 31
0.0
  0
LINE
  8
LC-006-005-----0
  6
CONTINUOUS
  5
35F
 10
264.766387
 20
182.742
 30
0.0
 11
266.766387
 21
184.742
 31
0.0
  0
LINE
  8
LC-006-005-----0
  6
CONTINUOUS
  5
360
 10
306.02406
 20
223.999673
 30
0.0
 11
306.766387
 21
224.742
 31
0.0
  0
LINE
  8
LC-006-005-----0
  6
CONTINUOUS
  5
361
 10
261.937959
 20
182.742
 30
0.0
 11
263.937959
 21
184.742
 31
0.0
  0
LINE
  8
LC-006-005-----0
  6
CONTINUOUS
  5
362
 10
259.109532
 20
182.742
 30
0.0
 11
261.109532
 21
184.742
 31
0.0
  0
LINE
  8
LC-006-005-----0
  6
CONTINUOUS
  5
363
 10
256.281105
 20
182.742
 30
0.0
 11
258.281105
 21
184.742
 31
0.0
  0
LINE
  8
LC-006-005-----0
  6
CONTINUOUS
  5
364
 10
253.452678
 20
182.742
 30
0.0
 11
255.452678
 21
184.742
 31
0.0
  0
LINE
  8
LC-006-005-----0
  6
CONTINUOUS
  5
365
 10
250.668075
 20
182.785824
 30
0.0
 11
252.624251
 21
184.742
 31
0.0
  0
LINE
  8
LC-006-005-----0
  6
CONTINUOUS
  5
366
 10
248.15527
 20
183.101446
 30
0.0
 11
249.913419
 21
184.859596
 31
0.0
  0
LINE
  8
LC-006-005-----0
  6
CONTINUOUS
  5
367
 10
245.884823
 20
183.659426
 30
0.0
 11
247.511137
 21
185.28574
 31
0.0
  0
LINE
  8
LC-006-005-----0
  6
CONTINUOUS
  5
368
 10
243.81145
 20
184.41448
 30
0.0
 11
245.349806
 21
185.952837
 31
0.0
  0
LINE
  8
LC-006-005-----0
  6
CONTINUOUS
  5
369
 10
241.907794
 20
185.339251
 30
0.0
 11
243.3871
 21
186.818557
 31
0.0
  0
LINE
  8
LC-006-005-----0
  6
CONTINUOUS
  5
36A
 10
240.156773
 20
186.416657
 30
0.0
 11
241.598149
 21
187.858034
 31
0.0
  0
LINE
  8
LC-006-005-----0
  6
CONTINUOUS
  5
36B
 10
238.547956
 20
187.636268
 30
0.0
 11
239.968337
 21
189.056649
 31
0.0
  0
LINE
  8
LC-006-005-----0
  6
CONTINUOUS
  5
36C
 10
237.075751
 20
188.99249
 30
0.0
 11
238.489999
 21
190.406738
 31
0.0
  0
LINE
  8
LC-006-005-----0
  6
CONTINUOUS
  5
36D
 10
235.738549
 20
190.483715
 30
0.0
 11
237.160954
 21
191.90612
 31
0.0
  0
LINE
  8
LC-006-005-----0
  6
CONTINUOUS
  5
36E
 10
234.538492
 20
192.112085
 30
0.0
 11
235.984108
 21
193.557701
 31
0.0
  0
LINE
  8
LC-006-005-----0
  6
CONTINUOUS
  5
36F
 10
233.481784
 20
193.883805
 30
0.0
 11
234.967985
 21
195.370005
 31
0.0
  0
LINE
  8
LC-006-005-----0
  6
CONTINUOUS
  5
370
 10
232.579653
 20
195.8101
 30
0.0
 11
234.128385
 21
197.358833
 31
0.0
  0
LINE
  8
LC-006-005-----0
  6
CONTINUOUS
  5
371
 10
231.850347
 20
197.909222
 30
0.0
 11
233.492061
 21
199.550936
 31
0.0
  0
LINE
  8
LC-006-005-----0
  6
CONTINUOUS
  5
372
 10
231.32314
 20
200.210441
 30
0.0
 11
233.104813
 21
201.992115
 31
0.0
  0
LINE
  8
LC-006-005-----0
  6
CONTINUOUS
  5
373
 10
231.046909
 20
202.762638
 30
0.0
 11
232.026271
 21
203.742
 31
0.0
  0
ENDBLK
  8
0
  5
374
  0
BLOCK
  8
0
  5
376
  2
*X28
 70
    65
 10
302.02406
 20
195.08469
 30
0.0
  3
*X28
  0
LINE
  8
LC-006-005-----0
  6
CONTINUOUS
  5
377
 10
319.649112
 20
203.609906
 30
0.0
 11
317.517018
 21
205.742
 31
0.0
  0
LINE
  8
LC-006-005-----0
  6
CONTINUOUS
  5
378
 10
318.688591
 20
201.742
 30
0.0
 11
314.688591
 21
205.742
 31
0.0
  0
LINE
  8
LC-006-005-----0
  6
CONTINUOUS
  5
379
 10
315.860164
 20
201.742
 30
0.0
 11
311.860164
 21
205.742
 31
0.0
  0
LINE
  8
LC-006-005-----0
  6
CONTINUOUS
  5
37A
 10
313.031737
 20
201.742
 30
0.0
 11
309.031737
 21
205.742
 31
0.0
  0
LINE
  8
LC-006-005-----0
  6
CONTINUOUS
  5
37B
 10
310.20331
 20
201.742
 30
0.0
 11
306.20331
 21
205.742
 31
0.0
  0
LINE
  8
LC-006-005-----0
  6
CONTINUOUS
  5
37C
 10
307.374882
 20
201.742
 30
0.0
 11
303.374882
 21
205.742
 31
0.0
  0
LINE
  8
LC-006-005-----0
  6
CONTINUOUS
  5
37D
 10
304.546455
 20
201.742
 30
0.0
 11
302.02406
 21
204.264395
 31
0.0
  0
ENDBLK
  8
0
  5
37E
  0
BLOCK
  8
0
  5
380
  2
BLK3
 70
    64
 10
0.0
 20
0.0
 30
0.0
  3
BLK3
  0
ENDBLK
  8
0
  5
381
  0
BLOCK
  8
0
  5
383
  2
*D30
 70
    65
 10
0.0
 20
0.0
 30
0.0
  3
*D30
  0
LINE
  8
LC-003-003-MTH-0
  6
CONTINUOUS
  5
384
 10
554.02406
 20
255.242
 30
0.0
 11
626.8
 21
255.242
 31
0.0
  0
LINE
  8
LC-003-003-MTH-0
  6
CONTINUOUS
  5
385
 10
554.02406
 20
295.242
 30
0.0
 11
626.8
 21
295.242
 31
0.0
  0
LINE
  8
LC-002-003-----0
  6
CONTINUOUS
  5
386
 10
618.349471
 20
237.395992
 30
0.0
 11
616.0
 21
255.242
 31
0.0
  0
LINE
  8
LC-002-003-----0
  6
CONTINUOUS
  5
387
 10
616.0
 20
255.242
 30
0.0
 11
613.650529
 21
237.395992
 31
0.0
  0
LINE
  8
LC-002-003-----0
  6
CONTINUOUS
  5
388
 10
613.650529
 20
237.395992
 30
0.0
 11
618.349471
 21
237.395992
 31
0.0
  0
LINE
  8
LC-002-003-----0
  6
CONTINUOUS
  5
389
 10
617.738609
 20
237.355954
 30
0.0
 11
616.0
 21
250.562
 31
0.0
  0
LINE
  8
LC-002-003-----0
  6
CONTINUOUS
  5
38A
 10
616.0
 20
250.562
 30
0.0
 11
614.261391
 21
237.355954
 31
0.0
  0
LINE
  8
LC-002-003-----0
  6
CONTINUOUS
  5
38B
 10
617.127746
 20
237.315916
 30
0.0
 11
616.0
 21
245.882
 31
0.0
  0
LINE
  8
LC-002-003-----0
  6
CONTINUOUS
  5
38C
 10
616.0
 20
245.882
 30
0.0
 11
614.872254
 21
237.315916
 31
0.0
  0
LINE
  8
LC-002-003-----0
  6
CONTINUOUS
  5
38D
 10
616.516884
 20
237.275878
 30
0.0
 11
616.0
 21
241.202
 31
0.0
  0
LINE
  8
LC-002-003-----0
  6
CONTINUOUS
  5
38E
 10
616.0
 20
241.202
 30
0.0
 11
615.483116
 21
237.275878
 31
0.0
  0
LINE
  8
LC-002-003-----0
  6
CONTINUOUS
  5
38F
 10
613.650529
 20
313.088008
 30
0.0
 11
616.0
 21
295.242
 31
0.0
  0
LINE
  8
LC-002-003-----0
  6
CONTINUOUS
  5
390
 10
616.0
 20
295.242
 30
0.0
 11
618.349471
 21
313.088008
 31
0.0
  0
LINE
  8
LC-002-003-----0
  6
CONTINUOUS
  5
391
 10
618.349471
 20
313.088008
 30
0.0
 11
613.650529
 21
313.088008
 31
0.0
  0
LINE
  8
LC-002-003-----0
  6
CONTINUOUS
  5
392
 10
614.261391
 20
313.128046
 30
0.0
 11
616.0
 21
299.922
 31
0.0
  0
LINE
  8
LC-002-003-----0
  6
CONTINUOUS
  5
393
 10
616.0
 20
299.922
 30
0.0
 11
617.738609
 21
313.128046
 31
0.0
  0
LINE
  8
LC-002-003-----0
  6
CONTINUOUS
  5
394
 10
614.872254
 20
313.168084
 30
0.0
 11
616.0
 21
304.602
 31
0.0
  0
LINE
  8
LC-002-003-----0
  6
CONTINUOUS
  5
395
 10
616.0
 20
304.602
 30
0.0
 11
617.127746
 21
313.168084
 31
0.0
  0
LINE
  8
LC-002-003-----0
  6
CONTINUOUS
  5
396
 10
615.483116
 20
313.208122
 30
0.0
 11
616.0
 21
309.282
 31
0.0
  0
LINE
  8
LC-002-003-----0
  6
CONTINUOUS
  5
397
 10
616.0
 20
309.282
 30
0.0
 11
616.516884
 21
313.208122
 31
0.0
  0
LINE
  8
LC-004-003-MTG-0
  6
CONTINUOUS
  5
398
 10
616.0
 20
230.042
 30
0.0
 11
616.0
 21
385.64452
 31
0.0
  0
TEXT
  8
LC-002-003-----0
  6
CONTINUOUS
 62
     6
  5
399
 10
605.568001
 20
322.517246
 30
0.0
 40
18.0
  1
DN40
 50
90.0
 51
15.0
  7
LC-TXTSTYLE-150-400-0-0-D0
  0
ENDBLK
  8
0
  5
39A
  0
BLOCK
  8
0
  5
39C
  2
*D31
 70
    65
 10
0.0
 20
0.0
 30
0.0
  3
*D31
  0
LINE
  8
LC-003-003-MTH-0
  6
CONTINUOUS
  5
39D
 10
252.52406
 20
179.742
 30
0.0
 11
109.2
 21
179.742
 31
0.0
  0
LINE
  8
LC-003-003-MTH-0
  6
CONTINUOUS
  5
39E
 10
226.021943
 20
283.239664
 30
0.0
 11
109.2
 21
283.239664
 31
0.0
  0
LINE
  8
LC-004-003-MTG-0
  6
CONTINUOUS
  5
39F
 10
120.0
 20
179.742
 30
0.0
 11
120.0
 21
283.239664
 31
0.0
  0
LINE
  8
LC-002-003-----0
  6
CONTINUOUS
  5
3A0
 10
117.650529
 20
197.588008
 30
0.0
 11
120.0
 21
179.742
 31
0.0
  0
LINE
  8
LC-002-003-----0
  6
CONTINUOUS
  5
3A1
 10
120.0
 20
179.742
 30
0.0
 11
122.349471
 21
197.588008
 31
0.0
  0
LINE
  8
LC-002-003-----0
  6
CONTINUOUS
  5
3A2
 10
122.349471
 20
197.588008
 30
0.0
 11
117.650529
 21
197.588008
 31
0.0
  0
LINE
  8
LC-002-003-----0
  6
CONTINUOUS
  5
3A3
 10
118.261391
 20
197.628046
 30
0.0
 11
120.0
 21
184.422
 31
0.0
  0
LINE
  8
LC-002-003-----0
  6
CONTINUOUS
  5
3A4
 10
120.0
 20
184.422
 30
0.0
 11
121.738609
 21
197.628046
 31
0.0
  0
LINE
  8
LC-002-003-----0
  6
CONTINUOUS
  5
3A5
 10
118.872254
 20
197.668084
 30
0.0
 11
120.0
 21
189.102
 31
0.0
  0
LINE
  8
LC-002-003-----0
  6
CONTINUOUS
  5
3A6
 10
120.0
 20
189.102
 30
0.0
 11
121.127746
 21
197.668084
 31
0.0
  0
LINE
  8
LC-002-003-----0
  6
CONTINUOUS
  5
3A7
 10
119.483116
 20
197.708122
 30
0.0
 11
120.0
 21
193.782
 31
0.0
  0
LINE
  8
LC-002-003-----0
  6
CONTINUOUS
  5
3A8
 10
120.0
 20
193.782
 30
0.0
 11
120.516884
 21
197.708122
 31
0.0
  0
LINE
  8
LC-002-003-----0
  6
CONTINUOUS
  5
3A9
 10
122.349471
 20
265.393657
 30
0.0
 11
120.0
 21
283.239664
 31
0.0
  0
LINE
  8
LC-002-003-----0
  6
CONTINUOUS
  5
3AA
 10
120.0
 20
283.239664
 30
0.0
 11
117.650529
 21
265.393657
 31
0.0
  0
LINE
  8
LC-002-003-----0
  6
CONTINUOUS
  5
3AB
 10
117.650529
 20
265.393657
 30
0.0
 11
122.349471
 21
265.393657
 31
0.0
  0
LINE
  8
LC-002-003-----0
  6
CONTINUOUS
  5
3AC
 10
121.738609
 20
265.353619
 30
0.0
 11
120.0
 21
278.559664
 31
0.0
  0
LINE
  8
LC-002-003-----0
  6
CONTINUOUS
  5
3AD
 10
120.0
 20
278.559664
 30
0.0
 11
118.261391
 21
265.353619
 31
0.0
  0
LINE
  8
LC-002-003-----0
  6
CONTINUOUS
  5
3AE
 10
121.127746
 20
265.313581
 30
0.0
 11
120.0
 21
273.879664
 31
0.0
  0
LINE
  8
LC-002-003-----0
  6
CONTINUOUS
  5
3AF
 10
120.0
 20
273.879664
 30
0.0
 11
118.872254
 21
265.313581
 31
0.0
  0
LINE
  8
LC-002-003-----0
  6
CONTINUOUS
  5
3B0
 10
120.516884
 20
265.273543
 30
0.0
 11
120.0
 21
269.199664
 31
0.0
  0
LINE
  8
LC-002-003-----0
  6
CONTINUOUS
  5
3B1
 10
120.0
 20
269.199664
 30
0.0
 11
119.483116
 21
265.273543
 31
0.0
  0
TEXT
  8
LC-002-003-----0
  6
CONTINUOUS
 62
     6
  5
3B2
 10
109.568001
 20
215.15222
 30
0.0
 40
18.0
  1
106
 50
90.0
 51
15.0
  7
LC-TXTSTYLE-150-400-0-0-D0
 72
     1
 11
109.568001
 21
234.286078
 31
0.0
  0
ENDBLK
  8
0
  5
3B3
  0
BLOCK
  8
0
  5
3B5
  2
*D32
 70
    65
 10
0.0
 20
0.0
 30
0.0
  3
*D32
  0
LINE
  8
LC-003-003-MTH-0
  6
CONTINUOUS
  5
3B6
 10
226.021943
 20
283.239664
 30
0.0
 11
109.2
 21
283.239664
 31
0.0
  0
LINE
  8
LC-003-003-MTH-0
  6
CONTINUOUS
  5
3B7
 10
201.02406
 20
503.242
 30
0.0
 11
109.2
 21
503.242
 31
0.0
  0
LINE
  8
LC-004-003-MTG-0
  6
CONTINUOUS
  5
3B8
 10
120.0
 20
283.239664
 30
0.0
 11
120.0
 21
503.242
 31
0.0
  0
LINE
  8
LC-002-003-----0
  6
CONTINUOUS
  5
3B9
 10
117.650529
 20
301.085672
 30
0.0
 11
120.0
 21
283.239664
 31
0.0
  0
LINE
  8
LC-002-003-----0
  6
CONTINUOUS
  5
3BA
 10
120.0
 20
283.239664
 30
0.0
 11
122.349471
 21
301.085672
 31
0.0
  0
LINE
  8
LC-002-003-----0
  6
CONTINUOUS
  5
3BB
 10
122.349471
 20
301.085672
 30
0.0
 11
117.650529
 21
301.085672
 31
0.0
  0
LINE
  8
LC-002-003-----0
  6
CONTINUOUS
  5
3BC
 10
118.261391
 20
301.12571
 30
0.0
 11
120.0
 21
287.919664
 31
0.0
  0
LINE
  8
LC-002-003-----0
  6
CONTINUOUS
  5
3BD
 10
120.0
 20
287.919664
 30
0.0
 11
121.738609
 21
301.12571
 31
0.0
  0
LINE
  8
LC-002-003-----0
  6
CONTINUOUS
  5
3BE
 10
118.872254
 20
301.165748
 30
0.0
 11
120.0
 21
292.599664
 31
0.0
  0
LINE
  8
LC-002-003-----0
  6
CONTINUOUS
  5
3BF
 10
120.0
 20
292.599664
 30
0.0
 11
121.127746
 21
301.165748
 31
0.0
  0
LINE
  8
LC-002-003-----0
  6
CONTINUOUS
  5
3C0
 10
119.483116
 20
301.205786
 30
0.0
 11
120.0
 21
297.279664
 31
0.0
  0
LINE
  8
LC-002-003-----0
  6
CONTINUOUS
  5
3C1
 10
120.0
 20
297.279664
 30
0.0
 11
120.516884
 21
301.205786
 31
0.0
  0
LINE
  8
LC-002-003-----0
  6
CONTINUOUS
  5
3C2
 10
122.349471
 20
485.395992
 30
0.0
 11
120.0
 21
503.242
 31
0.0
  0
LINE
  8
LC-002-003-----0
  6
CONTINUOUS
  5
3C3
 10
120.0
 20
503.242
 30
0.0
 11
117.650529
 21
485.395992
 31
0.0
  0
LINE
  8
LC-002-003-----0
  6
CONTINUOUS
  5
3C4
 10
117.650529
 20
485.395992
 30
0.0
 11
122.349471
 21
485.395992
 31
0.0
  0
LINE
  8
LC-002-003-----0
  6
CONTINUOUS
  5
3C5
 10
121.738609
 20
485.355954
 30
0.0
 11
120.0
 21
498.562
 31
0.0
  0
LINE
  8
LC-002-003-----0
  6
CONTINUOUS
  5
3C6
 10
120.0
 20
498.562
 30
0.0
 11
118.261391
 21
485.355954
 31
0.0
  0
LINE
  8
LC-002-003-----0
  6
CONTINUOUS
  5
3C7
 10
121.127746
 20
485.315916
 30
0.0
 11
120.0
 21
493.882
 31
0.0
  0
LINE
  8
LC-002-003-----0
  6
CONTINUOUS
  5
3C8
 10
120.0
 20
493.882
 30
0.0
 11
118.872254
 21
485.315916
 31
0.0
  0
LINE
  8
LC-002-003-----0
  6
CONTINUOUS
  5
3C9
 10
120.516884
 20
485.275878
 30
0.0
 11
120.0
 21
489.202
 31
0.0
  0
LINE
  8
LC-002-003-----0
  6
CONTINUOUS
  5
3CA
 10
120.0
 20
489.202
 30
0.0
 11
119.483116
 21
485.275878
 31
0.0
  0
TEXT
  8
LC-002-003-----0
  6
CONTINUOUS
 62
     6
  5
3CB
 10
109.568001
 20
354.260487
 30
0.0
 40
18.0
  1
25-240
 50
90.0
 51
15.0
  7
LC-TXTSTYLE-150-400-0-0-D0
 72
     1
 11
109.568001
 21
396.036078
 31
0.0
  0
ENDBLK
  8
0
  5
3CC
  0
BLOCK
  8
0
  5
3CE
  2
*D33
 70
    65
 10
0.0
 20
0.0
 30
0.0
  3
*D33
  0
LINE
  8
LC-003-003-MTH-0
  6
CONTINUOUS
  5
3CF
 10
316.628131
 20
179.742
 30
0.0
 11
374.8
 21
179.742
 31
0.0
  0
LINE
  8
LC-003-003-MTH-0
  6
CONTINUOUS
  5
3D0
 10
290.52406
 20
275.242
 30
0.0
 11
374.8
 21
275.242
 31
0.0
  0
LINE
  8
LC-004-003-MTG-0
  6
CONTINUOUS
  5
3D1
 10
364.0
 20
179.742
 30
0.0
 11
364.0
 21
275.242
 31
0.0
  0
LINE
  8
LC-002-003-----0
  6
CONTINUOUS
  5
3D2
 10
361.650529
 20
197.588008
 30
0.0
 11
364.0
 21
179.742
 31
0.0
  0
LINE
  8
LC-002-003-----0
  6
CONTINUOUS
  5
3D3
 10
364.0
 20
179.742
 30
0.0
 11
366.349471
 21
197.588008
 31
0.0
  0
LINE
  8
LC-002-003-----0
  6
CONTINUOUS
  5
3D4
 10
366.349471
 20
197.588008
 30
0.0
 11
361.650529
 21
197.588008
 31
0.0
  0
LINE
  8
LC-002-003-----0
  6
CONTINUOUS
  5
3D5
 10
362.261391
 20
197.628046
 30
0.0
 11
364.0
 21
184.422
 31
0.0
  0
LINE
  8
LC-002-003-----0
  6
CONTINUOUS
  5
3D6
 10
364.0
 20
184.422
 30
0.0
 11
365.738609
 21
197.628046
 31
0.0
  0
LINE
  8
LC-002-003-----0
  6
CONTINUOUS
  5
3D7
 10
362.872254
 20
197.668084
 30
0.0
 11
364.0
 21
189.102
 31
0.0
  0
LINE
  8
LC-002-003-----0
  6
CONTINUOUS
  5
3D8
 10
364.0
 20
189.102
 30
0.0
 11
365.127746
 21
197.668084
 31
0.0
  0
LINE
  8
LC-002-003-----0
  6
CONTINUOUS
  5
3D9
 10
363.483116
 20
197.708122
 30
0.0
 11
364.0
 21
193.782
 31
0.0
  0
LINE
  8
LC-002-003-----0
  6
CONTINUOUS
  5
3DA
 10
364.0
 20
193.782
 30
0.0
 11
364.516884
 21
197.708122
 31
0.0
  0
LINE
  8
LC-002-003-----0
  6
CONTINUOUS
  5
3DB
 10
366.349471
 20
257.395992
 30
0.0
 11
364.0
 21
275.242
 31
0.0
  0
LINE
  8
LC-002-003-----0
  6
CONTINUOUS
  5
3DC
 10
364.0
 20
275.242
 30
0.0
 11
361.650529
 21
257.395992
 31
0.0
  0
LINE
  8
LC-002-003-----0
  6
CONTINUOUS
  5
3DD
 10
361.650529
 20
257.395992
 30
0.0
 11
366.349471
 21
257.395992
 31
0.0
  0
LINE
  8
LC-002-003-----0
  6
CONTINUOUS
  5
3DE
 10
365.738609
 20
257.355954
 30
0.0
 11
364.0
 21
270.562
 31
0.0
  0
LINE
  8
LC-002-003-----0
  6
CONTINUOUS
  5
3DF
 10
364.0
 20
270.562
 30
0.0
 11
362.261391
 21
257.355954
 31
0.0
  0
LINE
  8
LC-002-003-----0
  6
CONTINUOUS
  5
3E0
 10
365.127746
 20
257.315916
 30
0.0
 11
364.0
 21
265.882
 31
0.0
  0
LINE
  8
LC-002-003-----0
  6
CONTINUOUS
  5
3E1
 10
364.0
 20
265.882
 30
0.0
 11
362.872254
 21
257.315916
 31
0.0
  0
LINE
  8
LC-002-003-----0
  6
CONTINUOUS
  5
3E2
 10
364.516884
 20
257.275878
 30
0.0
 11
364.0
 21
261.202
 31
0.0
  0
LINE
  8
LC-002-003-----0
  6
CONTINUOUS
  5
3E3
 10
364.0
 20
261.202
 30
0.0
 11
363.483116
 21
257.275878
 31
0.0
  0
TEXT
  8
LC-002-003-----0
  6
CONTINUOUS
 62
     6
  5
3E4
 10
353.568001
 20
218.424254
 30
0.0
 40
18.0
  1
95
 50
90.0
 51
15.0
  7
LC-TXTSTYLE-150-400-0-0-D0
 72
     1
 11
353.568001
 21
230.287246
 31
0.0
  0
ENDBLK
  8
0
  5
3E5
  0
BLOCK
  8
0
  5
3E7
  2
*D34
 70
    65
 10
0.0
 20
0.0
 30
0.0
  3
*D34
  0
LINE
  8
LC-003-003-MTH-0
  6
CONTINUOUS
  5
3E8
 10
200.02623
 20
487.612953
 30
0.0
 11
149.2
 21
487.612953
 31
0.0
  0
LINE
  8
LC-003-003-MTH-0
  6
CONTINUOUS
  5
3E9
 10
200.026375
 20
518.871047
 30
0.0
 11
149.2
 21
518.871047
 31
0.0
  0
LINE
  8
LC-002-003-----0
  6
CONTINUOUS
  5
3EA
 10
162.349471
 20
469.766945
 30
0.0
 11
160.0
 21
487.612953
 31
0.0
  0
LINE
  8
LC-002-003-----0
  6
CONTINUOUS
  5
3EB
 10
160.0
 20
487.612953
 30
0.0
 11
157.650529
 21
469.766945
 31
0.0
  0
LINE
  8
LC-002-003-----0
  6
CONTINUOUS
  5
3EC
 10
157.650529
 20
469.766945
 30
0.0
 11
162.349471
 21
469.766945
 31
0.0
  0
LINE
  8
LC-002-003-----0
  6
CONTINUOUS
  5
3ED
 10
161.738609
 20
469.726907
 30
0.0
 11
160.0
 21
482.932953
 31
0.0
  0
LINE
  8
LC-002-003-----0
  6
CONTINUOUS
  5
3EE
 10
160.0
 20
482.932953
 30
0.0
 11
158.261391
 21
469.726907
 31
0.0
  0
LINE
  8
LC-002-003-----0
  6
CONTINUOUS
  5
3EF
 10
161.127746
 20
469.686869
 30
0.0
 11
160.0
 21
478.252953
 31
0.0
  0
LINE
  8
LC-002-003-----0
  6
CONTINUOUS
  5
3F0
 10
160.0
 20
478.252953
 30
0.0
 11
158.872254
 21
469.686869
 31
0.0
  0
LINE
  8
LC-002-003-----0
  6
CONTINUOUS
  5
3F1
 10
160.516884
 20
469.646831
 30
0.0
 11
160.0
 21
473.572953
 31
0.0
  0
LINE
  8
LC-002-003-----0
  6
CONTINUOUS
  5
3F2
 10
160.0
 20
473.572953
 30
0.0
 11
159.483116
 21
469.646831
 31
0.0
  0
LINE
  8
LC-002-003-----0
  6
CONTINUOUS
  5
3F3
 10
157.650529
 20
536.717055
 30
0.0
 11
160.0
 21
518.871047
 31
0.0
  0
LINE
  8
LC-002-003-----0
  6
CONTINUOUS
  5
3F4
 10
160.0
 20
518.871047
 30
0.0
 11
162.349471
 21
536.717055
 31
0.0
  0
LINE
  8
LC-002-003-----0
  6
CONTINUOUS
  5
3F5
 10
162.349471
 20
536.717055
 30
0.0
 11
157.650529
 21
536.717055
 31
0.0
  0
LINE
  8
LC-002-003-----0
  6
CONTINUOUS
  5
3F6
 10
158.261391
 20
536.757093
 30
0.0
 11
160.0
 21
523.551047
 31
0.0
  0
LINE
  8
LC-002-003-----0
  6
CONTINUOUS
  5
3F7
 10
160.0
 20
523.551047
 30
0.0
 11
161.738609
 21
536.757093
 31
0.0
  0
LINE
  8
LC-002-003-----0
  6
CONTINUOUS
  5
3F8
 10
158.872254
 20
536.797131
 30
0.0
 11
160.0
 21
528.231047
 31
0.0
  0
LINE
  8
LC-002-003-----0
  6
CONTINUOUS
  5
3F9
 10
160.0
 20
528.231047
 30
0.0
 11
161.127746
 21
536.797131
 31
0.0
  0
LINE
  8
LC-002-003-----0
  6
CONTINUOUS
  5
3FA
 10
159.483116
 20
536.837169
 30
0.0
 11
160.0
 21
532.911047
 31
0.0
  0
LINE
  8
LC-002-003-----0
  6
CONTINUOUS
  5
3FB
 10
160.0
 20
532.911047
 30
0.0
 11
160.516884
 21
536.837169
 31
0.0
  0
LINE
  8
LC-004-003-MTG-0
  6
CONTINUOUS
  5
3FC
 10
160.0
 20
364.810433
 30
0.0
 11
160.0
 21
544.071047
 31
0.0
  0
TEXT
  8
LC-002-003-----0
  6
CONTINUOUS
 62
     6
  5
3FD
 10
149.568001
 20
391.816387
 30
0.0
 40
18.0
  1
1 1/4"
 50
90.0
 51
15.0
  7
LC-TXTSTYLE-150-400-0-0-D0
 72
     2
 11
149.568001
 21
465.928198
 31
0.0
  0
ENDBLK
  8
0
  5
3FE
  0
ENDSEC
  0
SECTION
  2
ENTITIES
  0
VIEWPORT
  8
LC-000
  5
538
 67
     1
 68
     1
 10
420.0
 20
297.0
 30
0.0
 40
840.0
 41
594.0
 69
     1
1001
ACAD
1000
MVIEW
1002
{
1070
    16
1010
0.0
1020
0.0
1030
0.0
1010
0.0
1020
0.0
1030
1.0
1040
0.0
1040
594.0
1040
420.0
1040
297.0
1040
50.0
1040
0.0
1040
0.0
1070
     0
1070
   100
1070
     1
1070
     1
1070
     0
1070
     0
1070
     0
1070
     0
1040
0.0
1040
0.0
1040
0.0
1040
1.0
1040
1.0
1040
0.0
1040
0.0
1070
     0
1002
{
1002
}
1002
}
  0
VIEWPORT
  8
0
  5
539
 67
     1
 68
     1
 10
0.0
 20
0.0
 30
0.0
 40
0.0
 41
0.0
 69
     1
1001
ACAD
1000
MVIEW
1002
{
1070
    16
1010
0.0
1020
0.0
1030
0.0
1010
0.0
1020
0.0
1030
1.0
1040
0.0
1040
594.0
1040
0.0
1040
0.0
1040
50.0
1040
0.0
1040
0.0
1070
     0
1070
   100
1070
     0
1070
     1
1070
     0
1070
     0
1070
     0
1070
     0
1040
0.0
1040
0.0
1040
0.0
1040
0.5
1040
0.5
1040
0.5
1040
0.5
1070
     0
1002
{
1002
}
1002
}
  0
DIMENSION
  8
0
  5
3FF
  2
*D0
 10
402.52406
 20
140.0
 30
0.0
 11
402.52406
 21
140.0
 31
0.0
  1
140-310
 13
247.02406
 23
203.742
 33
0.0
 14
558.02406
 24
257.242
 34
0.0
  3
LC-DIM-L-0090-02-02
  0
INSERT
  8
0
  5
400
  2
*X1
 10
275.02406
 20
241.892
 30
0.0
  0
INSERT
  8
0
  5
401
  2
*X2
 10
304.32406
 20
241.892
 30
0.0
  0
INSERT
  8
0
  5
402
  2
*X3
 10
228.612517
 20
272.742
 30
0.0
  0
INSERT
  8
0
  5
403
  2
*X4
 10
263.02406
 20
272.742
 30
0.0
  0
INSERT
  8
0
  5
404
  2
*X5
 10
193.02406
 20
205.742
 30
0.0
  0
INSERT
  8
0
  5
405
  2
*X6
 10
265.024059
 20
265.241984
 30
0.0
  0
INSERT
  8
0
  5
406
  2
*X7
 10
222.022022
 20
265.239646
 30
0.0
  0
INSERT
  8
0
  5
407
  2
*X8
 10
203.02406
 20
205.742
 30
0.0
  0
INSERT
  8
0
  5
409
  2
BLK1
 10
0.0
 20
0.0
 30
0.0
  0
INSERT
  8
0
  5
40A
  2
*X10
 10
228.52406
 20
179.742
 30
0.0
  0
INSERT
  8
0
  5
40B
  2
*X11
 10
263.02406
 20
205.742
 30
0.0
  0
INSERT
  8
0
  5
40C
  2
*X12
 10
201.02406
 20
518.242
 30
0.0
  0
INSERT
  8
0
  5
40D
  2
*X13
 10
302.82406
 20
225.242
 30
0.0
  0
INSERT
  8
0
  5
40E
  2
*X14
 10
306.02406
 20
228.05277
 30
0.0
  0
INSERT
  8
0
  5
40F
  2
*X15
 10
273.02406
 20
225.242
 30
0.0
  0
INSERT
  8
0
  5
410
  2
*X16
 10
198.526384
 20
520.244107
 30
0.0
  0
INSERT
  8
0
  5
411
  2
BLK2
 10
0.0
 20
0.0
 30
0.0
  0
INSERT
  8
0
  5
412
  2
*X18
 10
200.12406
 20
518.242
 30
0.0
  0
INSERT
  8
0
  5
413
  2
*X19
 10
201.02406
 20
485.830457
 30
0.0
  0
INSERT
  8
0
  5
414
  2
*X20
 10
200.12406
 20
485.830457
 30
0.0
  0
INSERT
  8
0
  5
415
  2
*X21
 10
198.526384
 20
479.239958
 30
0.0
  0
INSERT
  8
0
  5
416
  2
*X22
 10
308.12406
 20
221.842
 30
0.0
  0
INSERT
  8
0
  5
417
  2
*X23
 10
308.12406
 20
182.142
 30
0.0
  0
INSERT
  8
0
  5
418
  2
*X24
 10
299.96156
 20
179.742
 30
0.0
  0
INSERT
  8
0
  5
419
  2
*X25
 10
310.02406
 20
210.462485
 30
0.0
  0
INSERT
  8
0
  5
41A
  2
*X26
 10
310.02406
 20
196.242
 30
0.0
  0
INSERT
  8
0
  5
41B
  2
*X27
 10
231.02406
 20
182.742
 30
0.0
  0
INSERT
  8
0
  5
41C
  2
*X28
 10
302.02406
 20
195.08469
 30
0.0
  0
INSERT
  8
0
  5
41E
  2
BLK3
 10
0.0
 20
0.0
 30
0.0
  0
DIMENSION
  8
0
  5
41F
  2
*D30
 10
616.0
 20
275.242
 30
0.0
 11
616.0
 21
275.242
 31
0.0
  1
DN40
 13
554.02406
 23
295.242
 33
0.0
 14
554.02406
 24
255.242
 34
0.0
 50
90.0
  3
LC-DIM-L-0090-02-02
  0
DIMENSION
  8
0
  5
420
  2
*D31
 10
120.0
 20
231.490832
 30
0.0
 11
120.0
 21
231.490832
 31
0.0
  1
106
 13
252.52406
 23
179.742
 33
0.0
 14
226.021943
 24
283.239664
 34
0.0
 50
90.0
  3
LC-DIM-L-0090-02-02
  0
DIMENSION
  8
0
  5
421
  2
*D32
 10
120.0
 20
393.240832
 30
0.0
 11
120.0
 21
393.240832
 31
0.0
  1
25-240
 13
226.021943
 23
283.239664
 33
0.0
 14
201.02406
 24
503.242
 34
0.0
 50
90.0
  3
LC-DIM-L-0090-02-02
  0
DIMENSION
  8
0
  5
422
  2
*D33
 10
364.0
 20
227.492
 30
0.0
 11
364.0
 21
227.492
 31
0.0
  1
95
 13
316.628131
 23
179.742
 33
0.0
 14
290.52406
 24
275.242
 34
0.0
 50
90.0
  3
LC-DIM-L-0090-02-02
  0
DIMENSION
  8
0
  5
423
  2
*D34
 10
160.0
 20
460.944
 30
0.0
 11
160.0
 21
460.944
 31
0.0
  1
1 1/4"
 13
200.026375
 23
518.871047
 33
0.0
 14
200.02623
 24
487.612953
 34
0.0
 50
90.0
  3
LC-DIM-L-0090-02-02
  0
LINE
  8
LC-001-002-----0
  5
426
 10
247.02406
 20
203.742
 30
0.0
 11
324.02406
 21
203.742
 31
0.0
  0
LINE
  8
LC-001-002-----0
  6
CONTINUOUS
 62
     1
  5
427
 10
265.52406
 20
227.742
 30
0.0
 11
276.72406
 21
227.742
 31
0.0
  0
LINE
  8
LC-001-002-----0
  6
CONTINUOUS
 62
     1
  5
428
 10
252.52406
 20
179.742
 30
0.0
 11
316.628131
 21
179.742
 31
0.0
  0
LINE
  8
LC-001-002-----0
  6
CONTINUOUS
 62
     1
  5
429
 10
265.52406
 20
225.242
 30
0.0
 11
278.22406
 21
225.242
 31
0.0
  0
LINE
  8
LC-001-002-----0
  6
CONTINUOUS
 62
     1
  5
42A
 10
252.52406
 20
182.242
 30
0.0
 11
316.628131
 21
182.242
 31
0.0
  0
LINE
  8
LC-001-002-----0
  6
CONTINUOUS
 62
     1
  5
42B
 10
228.52406
 20
279.742
 30
0.0
 11
228.52406
 21
203.742
 31
0.0
  0
LINE
  8
LC-001-002-----0
  6
CONTINUOUS
 62
     1
  5
42C
 10
265.52406
 20
279.742
 30
0.0
 11
265.52406
 21
227.742
 31
0.0
  0
LINE
  8
LC-001-002-----0
  6
CONTINUOUS
 62
     1
  5
42D
 10
231.02406
 20
272.742
 30
0.0
 11
231.02406
 21
205.742
 31
0.0
  0
LINE
  8
LC-001-002-----0
  6
CONTINUOUS
 62
     1
  5
42E
 10
263.02406
 20
272.742
 30
0.0
 11
263.02406
 21
205.742
 31
0.0
  0
ARC
  8
LC-005-002-RND-0
  6
CONTINUOUS
  5
430
 10
252.52406
 20
203.742
 30
0.0
 40
24.0
 50
180.0
 51
270.0
  0
ARC
  8
LC-005-002-RND-0
  6
CONTINUOUS
  5
431
 10
252.52406
 20
203.742
 30
0.0
 40
21.5
 50
180.0
 51
270.0
  0
LINE
  8
LC-001-002-----0
  6
CONTINUOUS
 62
     1
  5
432
 10
231.02406
 20
203.742
 30
0.0
 11
233.52406
 21
203.742
 31
0.0
  0
LINE
  8
LC-001-002-----0
  6
CONTINUOUS
 62
     1
  5
433
 10
233.52406
 20
205.742
 30
0.0
 11
233.52406
 21
203.742
 31
0.0
  0
LINE
  8
LC-001-002-----0
  6
CONTINUOUS
 62
     1
  5
434
 10
231.02406
 20
205.742
 30
0.0
 11
233.52406
 21
205.742
 31
0.0
  0
LINE
  8
LC-001-002-----0
  5
435
 10
290.52406
 20
275.242
 30
0.0
 11
290.52406
 21
221.854084
 31
0.0
  0
LINE
  8
LC-001-002-----0
  6
CONTINUOUS
 62
     1
  5
436
 10
308.02406
 20
255.242
 30
0.0
 11
554.02406
 21
255.242
 31
0.0
  0
LINE
  8
LC-001-002-----0
  6
CONTINUOUS
 62
     1
  5
437
 10
308.02406
 20
295.242
 30
0.0
 11
554.02406
 21
295.242
 31
0.0
  0
LINE
  8
LC-001-002-----0
  5
438
 10
290.52406
 20
275.242
 30
0.0
 11
558.02406
 21
275.242
 31
0.0
  0
LINE
  8
LC-001-002-----0
  6
CONTINUOUS
 62
     1
  5
439
 10
308.02406
 20
255.242
 30
0.0
 11
308.02406
 21
228.05277
 31
0.0
  0
LINE
  8
LC-001-002-----0
  6
CONTINUOUS
 62
     1
  5
43A
 10
273.02406
 20
260.242
 30
0.0
 11
273.02406
 21
228.05277
 31
0.0
  0
LINE
  8
LC-001-002-----0
  6
CONTINUOUS
 62
     1
  5
43B
 10
558.02406
 20
294.170203
 30
0.0
 11
558.02406
 21
256.313797
 31
0.0
  0
LINE
  8
LC-001-002-----0
  6
CONTINUOUS
 62
     1
  5
43C
 10
308.02406
 20
293.242
 30
0.0
 11
558.02406
 21
293.242
 31
0.0
  0
LINE
  8
LC-001-002-----0
  6
CONTINUOUS
 62
     1
  5
43D
 10
308.02406
 20
257.242
 30
0.0
 11
558.02406
 21
257.242
 31
0.0
  0
ARC
  8
LC-005-002-RND-0
  6
CONTINUOUS
  5
43E
 10
308.02406
 20
260.242
 30
0.0
 40
35.0
 50
90.0
 51
180.0
  0
LINE
  8
LC-001-002-----0
  6
CONTINUOUS
 62
     1
  5
43F
 10
554.02406
 20
255.242
 30
0.0
 11
558.02406
 21
256.313797
 31
0.0
  0
LINE
  8
LC-001-002-----0
  6
CONTINUOUS
 62
     1
  5
440
 10
554.02406
 20
295.242
 30
0.0
 11
558.02406
 21
294.170203
 31
0.0
  0
LINE
  8
LC-001-002-----0
  6
CONTINUOUS
 62
     1
  5
441
 10
275.02406
 20
260.242
 30
0.0
 11
275.02406
 21
228.05277
 31
0.0
  0
LINE
  8
LC-001-002-----0
  6
CONTINUOUS
 62
     1
  5
442
 10
306.02406
 20
265.242
 30
0.0
 11
306.02406
 21
228.05277
 31
0.0
  0
ARC
  8
LC-005-002-RND-0
  6
CONTINUOUS
  5
443
 10
308.02406
 20
260.242
 30
0.0
 40
33.0
 50
90.0
 51
180.0
  0
LINE
  8
LC-001-002-----0
  6
CONTINUOUS
 62
     1
  5
444
 10
300.840438
 20
265.242
 30
0.0
 11
307.962741
 21
265.242
 31
0.0
  0
LINE
  8
LC-001-002-----0
  6
CONTINUOUS
 62
     1
  5
445
 10
308.02406
 20
265.242
 30
0.0
 11
308.02406
 21
257.242
 31
0.0
  0
LINE
  8
LC-001-002-----0
  6
CONTINUOUS
 62
     1
  5
446
 10
304.32406
 20
227.742
 30
0.0
 11
316.628131
 21
227.742
 31
0.0
  0
LINE
  8
LC-001-002-----0
  6
CONTINUOUS
 62
     1
  5
447
 10
304.32406
 20
257.242
 30
0.0
 11
302.82406
 21
257.242
 31
0.0
  0
LINE
  8
LC-001-002-----0
  6
CONTINUOUS
 62
     1
  5
448
 10
273.02406
 20
228.05277
 30
0.0
 11
275.02406
 21
228.05277
 31
0.0
  0
LINE
  8
LC-001-002-----0
  6
CONTINUOUS
 62
     1
  5
449
 10
308.02406
 20
228.05277
 30
0.0
 11
306.02406
 21
228.05277
 31
0.0
  0
LINE
  8
LC-001-002-----0
  6
CONTINUOUS
 62
     1
  5
44A
 10
275.22406
 20
255.742
 30
0.0
 11
275.22406
 21
253.742
 31
0.0
  0
LINE
  8
LC-001-002-----0
  6
CONTINUOUS
 62
     1
  5
44B
 10
304.32406
 20
257.242
 30
0.0
 11
305.82406
 21
255.742
 31
0.0
  0
LINE
  8
LC-001-002-----0
  6
CONTINUOUS
 62
     1
  5
44C
 10
278.22406
 20
257.242
 30
0.0
 11
278.22406
 21
225.242
 31
0.0
  0
LINE
  8
LC-001-002-----0
  6
CONTINUOUS
 62
     1
  5
44D
 10
302.82406
 20
257.242
 30
0.0
 11
302.82406
 21
225.242
 31
0.0
  0
ARC
  8
LC-001-002-----0
  6
CONTINUOUS
 62
     1
  5
44E
 10
290.52406
 20
245.87593
 30
0.0
 40
24.021845
 50
239.200596
 51
300.799404
  0
LINE
  8
LC-001-002-----0
  6
CONTINUOUS
 62
     1
  5
44F
 10
302.82406
 20
225.242
 30
0.0
 11
316.628131
 21
225.242
 31
0.0
  0
LINE
  8
LC-001-002-----0
  6
CONTINUOUS
 62
     1
  5
450
 10
276.72406
 20
252.242
 30
0.0
 11
276.72406
 21
249.242
 31
0.0
  0
LINE
  8
LC-001-002-----0
  6
CONTINUOUS
 62
     1
  5
451
 10
276.72406
 20
257.242
 30
0.0
 11
275.22406
 21
255.742
 31
0.0
  0
LINE
  8
LC-001-002-----0
  6
CONTINUOUS
 62
     1
  5
452
 10
276.72406
 20
244.242
 30
0.0
 11
276.72406
 21
241.242
 31
0.0
  0
LINE
  8
LC-001-002-----0
  6
CONTINUOUS
 62
     1
  5
453
 10
276.72406
 20
236.242
 30
0.0
 11
276.72406
 21
233.242
 31
0.0
  0
LINE
  8
LC-001-002-----0
  6
CONTINUOUS
 62
     1
  5
454
 10
275.22406
 20
253.742
 30
0.0
 11
276.72406
 21
252.242
 31
0.0
  0
LINE
  8
LC-001-002-----0
  6
CONTINUOUS
 62
     1
  5
455
 10
276.72406
 20
249.242
 30
0.0
 11
275.22406
 21
247.742
 31
0.0
  0
LINE
  8
LC-001-002-----0
  6
CONTINUOUS
 62
     1
  5
456
 10
275.22406
 20
247.742
 30
0.0
 11
275.22406
 21
245.742
 31
0.0
  0
LINE
  8
LC-001-002-----0
  6
CONTINUOUS
 62
     1
  5
457
 10
275.22406
 20
245.742
 30
0.0
 11
276.72406
 21
244.242
 31
0.0
  0
LINE
  8
LC-001-002-----0
  6
CONTINUOUS
 62
     1
  5
458
 10
276.72406
 20
241.242
 30
0.0
 11
275.22406
 21
239.742
 31
0.0
  0
LINE
  8
LC-001-002-----0
  6
CONTINUOUS
 62
     1
  5
459
 10
275.22406
 20
239.742
 30
0.0
 11
275.22406
 21
237.742
 31
0.0
  0
LINE
  8
LC-001-002-----0
  6
CONTINUOUS
 62
     1
  5
45A
 10
275.22406
 20
237.742
 30
0.0
 11
276.72406
 21
236.242
 31
0.0
  0
LINE
  8
LC-001-002-----0
  6
CONTINUOUS
 62
     1
  5
45B
 10
276.72406
 20
233.242
 30
0.0
 11
275.22406
 21
231.742
 31
0.0
  0
LINE
  8
LC-001-002-----0
  6
CONTINUOUS
 62
     1
  5
45C
 10
275.22406
 20
231.742
 30
0.0
 11
275.22406
 21
229.742
 31
0.0
  0
LINE
  8
LC-001-002-----0
  6
CONTINUOUS
 62
     1
  5
45D
 10
275.22406
 20
229.742
 30
0.0
 11
276.72406
 21
228.242
 31
0.0
  0
LINE
  8
LC-001-002-----0
  6
CONTINUOUS
 62
     1
  5
45E
 10
276.72406
 20
228.242
 30
0.0
 11
276.72406
 21
227.742
 31
0.0
  0
LINE
  8
LC-001-002-----0
  6
CONTINUOUS
 62
     1
  5
45F
 10
305.82406
 20
255.742
 30
0.0
 11
305.82406
 21
253.742
 31
0.0
  0
LINE
  8
LC-001-002-----0
  6
CONTINUOUS
 62
     1
  5
460
 10
305.82406
 20
253.742
 30
0.0
 11
304.32406
 21
252.242
 31
0.0
  0
LINE
  8
LC-001-002-----0
  6
CONTINUOUS
 62
     1
  5
461
 10
304.32406
 20
252.242
 30
0.0
 11
304.32406
 21
249.242
 31
0.0
  0
LINE
  8
LC-001-002-----0
  6
CONTINUOUS
 62
     1
  5
462
 10
304.32406
 20
249.242
 30
0.0
 11
305.82406
 21
247.742
 31
0.0
  0
LINE
  8
LC-001-002-----0
  6
CONTINUOUS
 62
     1
  5
463
 10
305.82406
 20
247.742
 30
0.0
 11
305.82406
 21
245.742
 31
0.0
  0
LINE
  8
LC-001-002-----0
  6
CONTINUOUS
 62
     1
  5
464
 10
305.82406
 20
245.742
 30
0.0
 11
304.32406
 21
244.242
 31
0.0
  0
LINE
  8
LC-001-002-----0
  6
CONTINUOUS
 62
     1
  5
465
 10
304.32406
 20
244.242
 30
0.0
 11
304.32406
 21
241.242
 31
0.0
  0
LINE
  8
LC-001-002-----0
  6
CONTINUOUS
 62
     1
  5
466
 10
304.32406
 20
241.242
 30
0.0
 11
305.82406
 21
239.742
 31
0.0
  0
LINE
  8
LC-001-002-----0
  6
CONTINUOUS
 62
     1
  5
467
 10
305.82406
 20
239.742
 30
0.0
 11
305.82406
 21
237.742
 31
0.0
  0
LINE
  8
LC-001-002-----0
  6
CONTINUOUS
 62
     1
  5
468
 10
305.82406
 20
237.742
 30
0.0
 11
304.32406
 21
236.242
 31
0.0
  0
LINE
  8
LC-001-002-----0
  6
CONTINUOUS
 62
     1
  5
469
 10
304.32406
 20
236.242
 30
0.0
 11
304.32406
 21
233.242
 31
0.0
  0
LINE
  8
LC-001-002-----0
  6
CONTINUOUS
 62
     1
  5
46A
 10
304.32406
 20
233.242
 30
0.0
 11
305.82406
 21
231.742
 31
0.0
  0
LINE
  8
LC-001-002-----0
  6
CONTINUOUS
 62
     1
  5
46B
 10
305.82406
 20
231.742
 30
0.0
 11
305.82406
 21
229.742
 31
0.0
  0
LINE
  8
LC-001-002-----0
  6
CONTINUOUS
 62
     1
  5
46C
 10
305.82406
 20
229.742
 30
0.0
 11
304.32406
 21
228.242
 31
0.0
  0
LINE
  8
LC-001-002-----0
  6
CONTINUOUS
 62
     1
  5
46D
 10
304.32406
 20
228.242
 30
0.0
 11
304.32406
 21
227.742
 31
0.0
  0
CIRCLE
  8
LC-001-002-----0
  6
CONTINUOUS
 62
     1
  5
46E
 10
275.87406
 20
242.742
 30
0.0
 40
0.85
  0
CIRCLE
  8
LC-001-002-----0
  6
CONTINUOUS
 62
     1
  5
46F
 10
305.17406
 20
242.742
 30
0.0
 40
0.85
  0
LINE
  8
LC-001-002-----0
  6
CONTINUOUS
 62
     1
  5
470
 10
278.22406
 20
257.242
 30
0.0
 11
276.72406
 21
257.242
 31
0.0
  0
CIRCLE
  8
LC-001-002-----0
  6
CONTINUOUS
 62
     1
  5
471
 10
290.52406
 20
259.112371
 30
0.0
 40
12.0
  0
LINE
  8
LC-001-002-----0
  6
CONTINUOUS
 62
     1
  5
472
 10
228.52406
 20
279.742
 30
0.0
 11
229.148416
 21
279.742
 31
0.0
  0
LINE
  8
LC-001-002-----0
  6
CONTINUOUS
 62
     1
  5
473
 10
265.52406
 20
205.742
 30
0.0
 11
233.52406
 21
205.742
 31
0.0
  0
LINE
  8
LC-001-002-----0
  6
CONTINUOUS
 62
     1
  5
474
 10
231.02406
 20
272.742
 30
0.0
 11
229.148416
 21
279.742
 31
0.0
  0
LINE
  8
LC-001-002-----0
  6
CONTINUOUS
 62
     1
  5
475
 10
263.02406
 20
272.742
 30
0.0
 11
264.899704
 21
279.742
 31
0.0
  0
LINE
  8
LC-001-002-----0
  6
CONTINUOUS
 62
     1
  5
476
 10
228.52406
 20
279.742
 30
0.0
 11
227.02406
 21
278.242
 31
0.0
  0
LINE
  8
LC-001-002-----0
  6
CONTINUOUS
 62
     1
  5
477
 10
227.02406
 20
278.242
 30
0.0
 11
227.02406
 21
271.242
 31
0.0
  0
LINE
  8
LC-001-002-----0
  6
CONTINUOUS
 62
     1
  5
478
 10
228.52406
 20
269.742
 30
0.0
 11
227.02406
 21
271.242
 31
0.0
  0
LINE
  8
LC-001-002-----0
  6
CONTINUOUS
 62
     1
  5
479
 10
265.52406
 20
279.742
 30
0.0
 11
267.02406
 21
278.242
 31
0.0
  0
LINE
  8
LC-001-002-----0
  6
CONTINUOUS
 62
     1
  5
47A
 10
267.02406
 20
278.242
 30
0.0
 11
267.02406
 21
271.242
 31
0.0
  0
LINE
  8
LC-001-002-----0
  6
CONTINUOUS
 62
     1
  5
47B
 10
265.52406
 20
269.742
 30
0.0
 11
267.02406
 21
271.242
 31
0.0
  0
LINE
  8
LC-001-002-----0
  6
CONTINUOUS
 62
     1
  5
47C
 10
228.612517
 20
281.742
 30
0.0
 11
231.02406
 21
281.742
 31
0.0
  0
LINE
  8
LC-001-002-----0
  6
CONTINUOUS
 62
     1
  5
47D
 10
231.02406
 20
281.742
 30
0.0
 11
231.02406
 21
272.742
 31
0.0
  0
LINE
  8
LC-001-002-----0
  6
CONTINUOUS
 62
     1
  5
47E
 10
265.435603
 20
281.742
 30
0.0
 11
263.02406
 21
281.742
 31
0.0
  0
LINE
  8
LC-001-002-----0
  6
CONTINUOUS
 62
     1
  5
47F
 10
265.52406
 20
225.242
 30
0.0
 11
265.52406
 21
205.742
 31
0.0
  0
LINE
  8
LC-001-002-----0
  6
CONTINUOUS
 62
     1
  5
480
 10
231.02406
 20
272.742
 30
0.0
 11
228.612517
 21
281.742
 31
0.0
  0
LINE
  8
LC-001-002-----0
  6
CONTINUOUS
 62
     1
  5
481
 10
266.77406
 20
281.741997
 30
0.0
 11
266.77406
 21
281.741997
 31
0.0
  0
LINE
  8
LC-001-002-----0
  6
CONTINUOUS
 62
     1
  5
482
 10
263.02406
 20
272.742
 30
0.0
 11
265.435603
 21
281.742
 31
0.0
  0
LINE
  8
LC-001-002-----0
  6
CONTINUOUS
 62
     1
  5
483
 10
263.02406
 20
281.742
 30
0.0
 11
263.02406
 21
272.742
 31
0.0
  0
LINE
  8
LC-001-002-----0
  6
CONTINUOUS
 62
     1
  5
484
 10
264.899704
 20
279.742
 30
0.0
 11
265.52406
 21
279.742
 31
0.0
  0
LINE
  8
LC-001-002-----0
  6
CONTINUOUS
 62
     1
  5
485
 10
227.27406
 20
281.742003
 30
0.0
 11
227.27406
 21
281.742003
 31
0.0
  0
LINE
  8
LC-001-002-----0
  5
486
 10
247.02406
 20
484.242
 30
0.0
 11
247.02406
 21
205.742
 31
0.0
  0
LINE
  8
LC-001-002-----0
  6
CONTINUOUS
 62
     1
  5
487
 10
231.02406
 20
485.26965
 30
0.0
 11
231.02406
 21
209.242
 31
0.0
  0
LINE
  8
LC-001-002-----0
  6
CONTINUOUS
 62
     1
  5
488
 10
263.02406
 20
485.742
 30
0.0
 11
263.02406
 21
209.242
 31
0.0
  0
LINE
  8
LC-001-002-----0
  6
CONTINUOUS
 62
     1
  5
489
 10
266.77406
 20
281.741997
 30
0.0
 11
263.650993
 21
281.741997
 31
0.0
  0
LINE
  8
LC-001-002-----0
  6
CONTINUOUS
 62
     1
  5
48A
 10
233.02406
 20
487.742
 30
0.0
 11
233.02406
 21
205.742
 31
0.0
  0
LINE
  8
LC-001-002-----0
  6
CONTINUOUS
 62
     1
  5
48B
 10
261.02406
 20
485.742
 30
0.0
 11
261.02406
 21
205.742
 31
0.0
  0
LINE
  8
LC-001-002-----0
  6
CONTINUOUS
 62
     1
  5
48C
 10
231.961882
 20
205.742
 30
0.0
 11
262.086238
 21
205.742
 31
0.0
  0
LINE
  8
LC-001-002-----0
  6
CONTINUOUS
 62
     1
  5
48D
 10
203.02406
 20
520.742
 30
0.0
 11
228.02406
 21
520.742
 31
0.0
  0
LINE
  8
LC-001-002-----0
  6
CONTINUOUS
 62
     1
  5
48E
 10
231.02406
 20
209.242
 30
0.0
 11
231.961882
 21
205.742
 31
0.0
  0
LINE
  8
LC-001-002-----0
  6
CONTINUOUS
 62
     1
  5
48F
 10
263.02406
 20
209.242
 30
0.0
 11
262.086238
 21
205.742
 31
0.0
  0
LINE
  8
LC-001-002-----0
  6
CONTINUOUS
 62
     1
  5
490
 10
203.02406
 20
485.742
 30
0.0
 11
231.02406
 21
485.742
 31
0.0
  0
LINE
  8
LC-001-002-----0
  5
491
 10
198.526382
 20
503.242
 30
0.0
 11
228.02406
 21
503.242
 31
0.0
  0
LINE
  8
LC-001-002-----0
  6
CONTINUOUS
 62
     1
  5
492
 10
208.158035
 20
518.742
 30
0.0
 11
228.02406
 21
518.742
 31
0.0
  0
LINE
  8
LC-001-002-----0
  6
CONTINUOUS
 62
     1
  5
493
 10
208.158035
 20
487.742
 30
0.0
 11
233.02406
 21
487.742
 31
0.0
  0
ARC
  8
LC-005-002-RND-0
  6
CONTINUOUS
  5
494
 10
228.02406
 20
485.742
 30
0.0
 40
35.0
 50
0.0
 51
90.0
  0
ARC
  8
LC-005-002-RND-0
  6
CONTINUOUS
  5
495
 10
228.02406
 20
485.742
 30
0.0
 40
33.0
 50
0.0
 51
90.0
  0
ARC
  8
LC-005-002-RND-0
  6
DASHDOT
 62
     2
  5
496
 10
228.02406
 20
484.242
 30
0.0
 40
19.0
 50
0.0
 51
90.0
  0
LINE
  8
LC-001-002-----0
  6
CONTINUOUS
 62
     1
  5
497
 10
203.02406
 20
520.742
 30
0.0
 11
203.02406
 21
520.117644
 31
0.0
  0
LINE
  8
LC-001-002-----0
  6
CONTINUOUS
 62
     1
  5
498
 10
203.02406
 20
486.366356
 30
0.0
 11
203.02406
 21
485.742
 31
0.0
  0
LINE
  8
LC-001-002-----0
  6
CONTINUOUS
 62
     1
  5
499
 10
200.92406
 20
520.653543
 30
0.0
 11
200.92406
 21
518.242
 31
0.0
  0
LINE
  8
LC-001-002-----0
  6
CONTINUOUS
 62
     1
  5
49A
 10
203.02406
 20
520.742
 30
0.0
 11
204.52406
 21
522.242
 31
0.0
  0
LINE
  8
LC-001-002-----0
  6
CONTINUOUS
 62
     1
  5
49B
 10
269.024049
 20
265.241986
 30
0.0
 11
267.52405
 21
266.741985
 31
0.0
  0
LINE
  8
LC-001-002-----0
  6
CONTINUOUS
 62
     1
  5
49C
 10
269.024059
 20
280.741986
 30
0.0
 11
267.524058
 21
279.241985
 31
0.0
  0
LINE
  8
LC-001-002-----0
  6
CONTINUOUS
 62
     1
  5
49D
 10
267.524058
 20
279.241985
 30
0.0
 11
267.52405
 21
266.741985
 31
0.0
  0
LINE
  8
LC-001-002-----0
  6
CONTINUOUS
 62
     1
  5
49E
 10
204.52406
 20
522.242
 30
0.0
 11
211.52406
 21
522.242
 31
0.0
  0
LINE
  8
LC-001-002-----0
  6
CONTINUOUS
 62
     1
  5
49F
 10
213.02406
 20
520.742
 30
0.0
 11
211.52406
 21
522.242
 31
0.0
  0
LINE
  8
LC-001-002-----0
  6
CONTINUOUS
 62
     1
  5
4A0
 10
226.524058
 20
279.242011
 30
0.0
 11
226.52405
 21
266.742011
 31
0.0
  0
LINE
  8
LC-001-002-----0
  6
CONTINUOUS
 62
     1
  5
4A1
 10
225.024049
 20
265.242014
 30
0.0
 11
226.52405
 21
266.742011
 31
0.0
  0
LINE
  8
LC-001-002-----0
  6
CONTINUOUS
 62
     1
  5
4A2
 10
225.024059
 20
280.742014
 30
0.0
 11
226.524058
 21
279.242011
 31
0.0
  0
LINE
  8
LC-001-002-----0
  6
CONTINUOUS
 62
     1
  5
4A3
 10
271.024057
 20
277.739739
 30
0.0
 11
271.524057
 21
277.739739
 31
0.0
  0
LINE
  8
LC-001-002-----0
  6
CONTINUOUS
 62
     1
  5
4A4
 10
271.524057
 20
277.739739
 30
0.0
 11
271.52405
 21
266.241984
 31
0.0
  0
LINE
  8
LC-001-002-----0
  6
CONTINUOUS
 62
     1
  5
4A5
 10
223.024057
 20
277.73977
 30
0.0
 11
222.524057
 21
277.739771
 31
0.0
  0
LINE
  8
LC-001-002-----0
  6
CONTINUOUS
 62
     1
  5
4A6
 10
222.524057
 20
277.739771
 30
0.0
 11
222.52405
 21
266.242016
 31
0.0
  0
LINE
  8
LC-001-002-----0
  6
CONTINUOUS
 62
     1
  5
4A7
 10
271.02405
 20
266.241984
 30
0.0
 11
272.02405
 21
266.241984
 31
0.0
  0
LINE
  8
LC-001-002-----0
  6
CONTINUOUS
 62
     1
  5
4A8
 10
272.02405
 20
266.241984
 30
0.0
 11
272.024049
 21
265.241984
 31
0.0
  0
LINE
  8
LC-001-002-----0
  6
CONTINUOUS
 62
     1
  5
4A9
 10
272.024049
 20
265.241984
 30
0.0
 11
265.52406
 21
265.241988
 31
0.0
  0
LINE
  8
LC-001-002-----0
  6
CONTINUOUS
 62
     1
  5
4AA
 10
269.024049
 20
265.241986
 30
0.0
 11
269.02405
 21
266.241986
 31
0.0
  0
ARC
  8
LC-001-002-----0
  6
CONTINUOUS
 62
     1
  5
4AB
 10
268.024059
 20
280.241986
 30
0.0
 40
3.0
 50
359.999963
 51
89.999963
  0
LINE
  8
LC-001-002-----0
  6
CONTINUOUS
 62
     1
  5
4AC
 10
271.024059
 20
280.241984
 30
0.0
 11
271.02405
 21
266.241984
 31
0.0
  0
LINE
  8
LC-001-002-----0
  6
CONTINUOUS
 62
     1
  5
4AD
 10
265.52406
 20
281.741988
 30
0.0
 11
268.02406
 21
281.741986
 31
0.0
  0
ARC
  8
LC-001-002-----0
  6
CONTINUOUS
 62
     1
  5
4AE
 10
268.024059
 20
280.741986
 30
0.0
 40
1.0
 50
359.999963
 51
89.999963
  0
LINE
  8
LC-001-002-----0
  6
CONTINUOUS
 62
     1
  5
4AF
 10
269.024059
 20
280.741986
 30
0.0
 11
269.02405
 21
266.241986
 31
0.0
  0
LINE
  8
LC-001-002-----0
  6
CONTINUOUS
 62
     1
  5
4B0
 10
223.021957
 20
280.239651
 30
0.0
 11
223.022022
 21
266.239651
 31
0.0
  0
LINE
  8
LC-001-002-----0
  6
CONTINUOUS
 62
     1
  5
4B1
 10
223.022022
 20
266.239651
 30
0.0
 11
222.022022
 21
266.239646
 31
0.0
  0
LINE
  8
LC-001-002-----0
  6
CONTINUOUS
 62
     1
  5
4B2
 10
222.022022
 20
266.239646
 30
0.0
 11
222.022027
 21
265.239646
 31
0.0
  0
LINE
  8
LC-001-002-----0
  6
CONTINUOUS
 62
     1
  5
4B3
 10
222.022027
 20
265.239646
 30
0.0
 11
228.52406
 21
265.239668
 31
0.0
  0
LINE
  8
LC-001-002-----0
  6
CONTINUOUS
 62
     1
  5
4B4
 10
225.021955
 20
280.73966
 30
0.0
 11
225.022022
 21
266.23966
 31
0.0
  0
LINE
  8
LC-001-002-----0
  6
CONTINUOUS
 62
     1
  5
4B5
 10
225.022027
 20
265.23966
 30
0.0
 11
225.022022
 21
266.23966
 31
0.0
  0
ARC
  8
LC-001-002-----0
  6
CONTINUOUS
 62
     1
  5
4B6
 10
226.021957
 20
280.239664
 30
0.0
 40
3.0
 50
90.000267
 51
180.000229
  0
LINE
  8
LC-001-002-----0
  6
CONTINUOUS
 62
     1
  5
4B7
 10
230.395017
 20
281.739685
 30
0.0
 11
226.02195
 21
281.739664
 31
0.0
  0
ARC
  8
LC-001-002-----0
  6
CONTINUOUS
 62
     1
  5
4B8
 10
226.021955
 20
280.739664
 30
0.0
 40
1.0
 50
90.000267
 51
180.000229
  0
LINE
  8
LC-001-002-----0
  6
CONTINUOUS
 62
     1
  5
4B9
 10
265.150993
 20
283.241988
 30
0.0
 11
268.024061
 21
283.241986
 31
0.0
  0
ARC
  8
LC-001-002-----0
  6
CONTINUOUS
 62
     1
  5
4BA
 10
265.150993
 20
281.741987
 30
0.0
 40
1.5
 50
89.999963
 51
179.999811
  0
LINE
  8
LC-001-002-----0
  6
CONTINUOUS
 62
     1
  5
4BB
 10
265.52406
 20
281.741988
 30
0.0
 11
265.52406
 21
281.741988
 31
0.0
  0
LINE
  8
LC-001-002-----0
  6
CONTINUOUS
 62
     1
  5
4BC
 10
228.89501
 20
283.239678
 30
0.0
 11
226.021943
 21
283.239664
 31
0.0
  0
ARC
  8
LC-001-002-----0
  6
CONTINUOUS
 62
     1
  5
4BD
 10
228.895017
 20
281.739669
 30
0.0
 40
1.5
 50
0.000267
 51
90.000267
  0
LINE
  8
LC-001-002-----0
  6
CONTINUOUS
 62
     1
  5
4BE
 10
228.52195
 20
281.739676
 30
0.0
 11
228.52195
 21
281.739676
 31
0.0
  0
LINE
  8
LC-001-002-----0
  6
CONTINUOUS
 62
     1
  5
4BF
 10
201.02406
 20
520.653543
 30
0.0
 11
201.02406
 21
518.242
 31
0.0
  0
LINE
  8
LC-001-002-----0
  6
CONTINUOUS
 62
     1
  5
4C0
 10
201.02406
 20
518.242
 30
0.0
 11
210.02406
 21
518.242
 31
0.0
  0
LINE
  8
LC-001-002-----0
  6
CONTINUOUS
 62
     1
  5
4C1
 10
210.02406
 20
518.242
 30
0.0
 11
201.02406
 21
520.653543
 31
0.0
  0
LINE
  8
LC-001-002-----0
  5
4C2
 10
278.52406
 20
259.112371
 30
0.0
 11
302.52406
 21
259.112371
 31
0.0
  0
LINE
  8
LC-001-002-----0
  6
CONTINUOUS
 62
     1
  5
4C3
 10
317.02406
 20
227.742
 30
0.0
 11
323.02406
 21
227.742
 31
0.0
  0
LINE
  8
LC-001-002-----0
  6
CONTINUOUS
 62
     1
  5
4C4
 10
317.02406
 20
179.742
 30
0.0
 11
323.02406
 21
179.742
 31
0.0
  0
LINE
  8
LC-001-002-----0
  6
CONTINUOUS
 62
     1
  5
4C5
 10
324.02406
 20
226.742
 30
0.0
 11
324.02406
 21
180.742
 31
0.0
  0
LINE
  8
LC-001-002-----0
  6
CONTINUOUS
 62
     1
  5
4C6
 10
317.02406
 20
227.742
 30
0.0
 11
317.02406
 21
210.462485
 31
0.0
  0
LINE
  8
LC-001-002-----0
  6
CONTINUOUS
 62
     1
  5
4C7
 10
318.02406
 20
225.742
 30
0.0
 11
318.02406
 21
212.242
 31
0.0
  0
LINE
  8
LC-001-002-----0
  6
CONTINUOUS
 62
     1
  5
4C8
 10
318.02406
 20
225.742
 30
0.0
 11
324.02406
 21
225.742
 31
0.0
  0
ARC
  8
LC-005-002-RND-0
  6
CONTINUOUS
  5
4C9
 10
323.02406
 20
226.742
 30
0.0
 40
1.0
 50
0.0
 51
90.0
  0
LINE
  8
LC-001-002-----0
  6
CONTINUOUS
 62
     1
  5
4CA
 10
202.524049
 20
522.742006
 30
0.0
 11
215.024049
 21
522.742014
 31
0.0
  0
LINE
  8
LC-001-002-----0
  6
CONTINUOUS
 62
     1
  5
4CB
 10
216.524046
 20
524.242015
 30
0.0
 11
215.024049
 21
522.742014
 31
0.0
  0
LINE
  8
LC-001-002-----0
  6
CONTINUOUS
 62
     1
  5
4CC
 10
201.024046
 20
524.242005
 30
0.0
 11
202.524049
 21
522.742006
 31
0.0
  0
LINE
  8
LC-001-002-----0
  6
CONTINUOUS
 62
     1
  5
4CD
 10
318.02406
 20
181.742
 30
0.0
 11
324.02406
 21
181.742
 31
0.0
  0
LINE
  8
LC-001-002-----0
  6
CONTINUOUS
 62
     1
  5
4CE
 10
322.02406
 20
225.742
 30
0.0
 11
322.02406
 21
181.742
 31
0.0
  0
LINE
  8
LC-001-002-----0
  6
CONTINUOUS
 62
     1
  5
4CF
 10
204.02629
 20
526.242007
 30
0.0
 11
204.026289
 21
526.742007
 31
0.0
  0
LINE
  8
LC-001-002-----0
  6
CONTINUOUS
 62
     1
  5
4D0
 10
204.026289
 20
526.742007
 30
0.0
 11
215.524044
 21
526.742015
 31
0.0
  0
ARC
  8
LC-001-002-----0
  6
CONTINUOUS
 62
     1
  5
4D1
 10
310.99281
 20
203.742
 30
0.0
 40
11.03125
 50
309.597753
 51
50.402247
  0
ARC
  8
LC-005-002-RND-0
  6
CONTINUOUS
  5
4D2
 10
323.02406
 20
180.742
 30
0.0
 40
1.0
 50
270.0
 51
0.0
  0
LINE
  8
LC-001-002-----0
  6
CONTINUOUS
 62
     1
  5
4D3
 10
318.02406
 20
195.242
 30
0.0
 11
318.02406
 21
181.742
 31
0.0
  0
LINE
  8
LC-001-002-----0
  6
CONTINUOUS
 62
     1
  5
4D4
 10
310.02406
 20
221.742
 30
0.0
 11
310.02406
 21
205.742
 31
0.0
  0
LINE
  8
LC-001-002-----0
  6
CONTINUOUS
 62
     1
  5
4D5
 10
311.02406
 20
212.242
 30
0.0
 11
315.957123
 21
212.242
 31
0.0
  0
LINE
  8
LC-001-002-----0
  6
CONTINUOUS
 62
     1
  5
4D6
 10
306.02406
 20
185.568633
 30
0.0
 11
302.52406
 21
185.568633
 31
0.0
  0
LINE
  8
LC-001-002-----0
  6
CONTINUOUS
 62
     1
  5
4D7
 10
308.02406
 20
224.742
 30
0.0
 11
308.02406
 21
221.742
 31
0.0
  0
LINE
  8
LC-001-002-----0
  6
CONTINUOUS
 62
     1
  5
4D8
 10
307.175023
 20
219.742
 30
0.0
 11
310.02406
 21
219.742
 31
0.0
  0
LINE
  8
LC-001-002-----0
  6
CONTINUOUS
 62
     1
  5
4D9
 10
302.02406
 20
187.742
 30
0.0
 11
310.02406
 21
187.742
 31
0.0
  0
LINE
  8
LC-001-002-----0
  6
CONTINUOUS
 62
     1
  5
4DA
 10
201.526409
 20
526.244107
 30
0.0
 11
215.526409
 21
526.244042
 31
0.0
  0
LINE
  8
LC-001-002-----0
  6
CONTINUOUS
 62
     1
  5
4DB
 10
215.526409
 20
526.244042
 30
0.0
 11
215.526414
 21
527.244042
 31
0.0
  0
LINE
  8
LC-001-002-----0
  6
CONTINUOUS
 62
     1
  5
4DC
 10
215.526414
 20
527.244042
 30
0.0
 11
216.526414
 21
527.244038
 31
0.0
  0
LINE
  8
LC-001-002-----0
  6
CONTINUOUS
 62
     1
  5
4DD
 10
216.526414
 20
527.244038
 30
0.0
 11
216.526392
 21
520.742005
 31
0.0
  0
LINE
  8
LC-001-002-----0
  6
CONTINUOUS
 62
     1
  5
4DE
 10
201.0264
 20
524.24411
 30
0.0
 11
215.5264
 21
524.244042
 31
0.0
  0
LINE
  8
LC-001-002-----0
  6
CONTINUOUS
 62
     1
  5
4DF
 10
216.5264
 20
524.244038
 30
0.0
 11
215.5264
 21
524.244042
 31
0.0
  0
ARC
  8
LC-001-002-----0
  6
CONTINUOUS
 62
     1
  5
4E0
 10
201.526395
 20
523.244107
 30
0.0
 40
3.0
 50
89.999771
 51
179.999733
  0
LINE
  8
LC-001-002-----0
  6
CONTINUOUS
 62
     1
  5
4E1
 10
200.02623
 20
487.612953
 30
0.0
 11
200.026395
 21
523.244114
 31
0.0
  0
ARC
  8
LC-001-002-----0
  6
CONTINUOUS
 62
     1
  5
4E2
 10
201.026395
 20
523.24411
 30
0.0
 40
1.0
 50
89.999771
 51
179.999733
  0
LINE
  8
LC-001-002-----0
  6
CONTINUOUS
 62
     1
  5
4E3
 10
306.02406
 20
224.742
 30
0.0
 11
308.02406
 21
224.742
 31
0.0
  0
LINE
  8
LC-001-002-----0
  6
CONTINUOUS
 62
     1
  5
4E4
 10
306.02406
 20
182.742
 30
0.0
 11
306.02406
 21
185.568633
 31
0.0
  0
LINE
  8
LC-001-002-----0
  6
CONTINUOUS
 62
     1
  5
4E5
 10
306.02406
 20
224.742
 30
0.0
 11
306.02406
 21
221.760778
 31
0.0
  0
LINE
  8
LC-001-002-----0
  6
CONTINUOUS
 62
     1
  5
4E6
 10
308.02406
 20
221.742
 30
0.0
 11
310.02406
 21
221.742
 31
0.0
  0
LINE
  8
LC-001-002-----0
  6
CONTINUOUS
 62
     1
  5
4E7
 10
198.526223
 20
486.112953
 30
0.0
 11
198.526395
 21
523.244121
 31
0.0
  0
ARC
  8
LC-001-002-----0
  6
CONTINUOUS
 62
     1
  5
4E8
 10
200.026391
 20
520.371047
 30
0.0
 40
1.5
 50
179.999733
 51
269.999733
  0
LINE
  8
LC-001-002-----0
  6
CONTINUOUS
 62
     1
  5
4E9
 10
306.02406
 20
182.742
 30
0.0
 11
308.02406
 21
182.742
 31
0.0
  0
LINE
  8
LC-001-002-----0
  6
CONTINUOUS
 62
     1
  5
4EA
 10
200.12406
 20
520.653543
 30
0.0
 11
200.12406
 21
518.242
 31
0.0
  0
LINE
  8
LC-001-002-----0
  6
CONTINUOUS
 62
     1
  5
4EB
 10
200.92406
 20
520.653543
 30
0.0
 11
200.12406
 21
520.653543
 31
0.0
  0
LINE
  8
LC-001-002-----0
  6
CONTINUOUS
 62
     1
  5
4EC
 10
200.12406
 20
518.242
 30
0.0
 11
200.92406
 21
518.242
 31
0.0
  0
LINE
  8
LC-001-002-----0
  6
CONTINUOUS
 62
     1
  5
4ED
 10
213.02406
 20
485.742
 30
0.0
 11
211.52406
 21
484.242
 31
0.0
  0
LINE
  8
LC-001-002-----0
  6
CONTINUOUS
 62
     1
  5
4EE
 10
204.52406
 20
484.242
 30
0.0
 11
211.52406
 21
484.242
 31
0.0
  0
LINE
  8
LC-001-002-----0
  6
CONTINUOUS
 62
     1
  5
4EF
 10
203.02406
 20
485.742
 30
0.0
 11
204.52406
 21
484.242
 31
0.0
  0
LINE
  8
LC-001-002-----0
  6
CONTINUOUS
 62
     1
  5
4F0
 10
210.02406
 20
488.242
 30
0.0
 11
201.02406
 21
485.830457
 31
0.0
  0
LINE
  8
LC-001-002-----0
  6
CONTINUOUS
 62
     1
  5
4F1
 10
201.02406
 20
488.242
 30
0.0
 11
210.02406
 21
488.242
 31
0.0
  0
LINE
  8
LC-001-002-----0
  6
CONTINUOUS
 62
     1
  5
4F2
 10
201.02406
 20
485.830457
 30
0.0
 11
201.02406
 21
488.242
 31
0.0
  0
LINE
  8
LC-001-002-----0
  6
CONTINUOUS
 62
     1
  5
4F3
 10
200.92406
 20
485.830457
 30
0.0
 11
200.12406
 21
485.830457
 31
0.0
  0
LINE
  8
LC-001-002-----0
  6
CONTINUOUS
 62
     1
  5
4F4
 10
200.12406
 20
488.242
 30
0.0
 11
200.92406
 21
488.242
 31
0.0
  0
LINE
  8
LC-001-002-----0
  6
CONTINUOUS
 62
     1
  5
4F5
 10
200.12406
 20
485.830457
 30
0.0
 11
200.12406
 21
488.242
 31
0.0
  0
LINE
  8
LC-001-002-----0
  6
CONTINUOUS
 62
     1
  5
4F6
 10
200.92406
 20
485.830457
 30
0.0
 11
200.92406
 21
488.242
 31
0.0
  0
ARC
  8
LC-001-002-----0
  6
CONTINUOUS
 62
     1
  5
4F7
 10
200.026391
 20
486.112953
 30
0.0
 40
1.5
 50
90.000267
 51
180.000267
  0
LINE
  8
LC-001-002-----0
  6
CONTINUOUS
 62
     1
  5
4F8
 10
198.526382
 20
486.112946
 30
0.0
 11
198.526395
 21
483.239879
 31
0.0
  0
ARC
  8
LC-001-002-----0
  6
CONTINUOUS
 62
     1
  5
4F9
 10
201.526395
 20
483.239893
 30
0.0
 40
3.0
 50
180.000267
 51
270.000229
  0
LINE
  8
LC-001-002-----0
  6
CONTINUOUS
 62
     1
  5
4FA
 10
201.526409
 20
480.239893
 30
0.0
 11
215.526409
 21
480.239958
 31
0.0
  0
LINE
  8
LC-001-002-----0
  6
CONTINUOUS
 62
     1
  5
4FB
 10
204.02629
 20
480.241993
 30
0.0
 11
204.026289
 21
479.741993
 31
0.0
  0
LINE
  8
LC-001-002-----0
  6
CONTINUOUS
 62
     1
  5
4FC
 10
204.026289
 20
479.741993
 30
0.0
 11
215.524044
 21
479.741985
 31
0.0
  0
LINE
  8
LC-001-002-----0
  6
CONTINUOUS
 62
     1
  5
4FD
 10
215.526409
 20
480.239958
 30
0.0
 11
215.526414
 21
479.239958
 31
0.0
  0
LINE
  8
LC-001-002-----0
  6
CONTINUOUS
 62
     1
  5
4FE
 10
215.526414
 20
479.239958
 30
0.0
 11
216.526414
 21
479.239962
 31
0.0
  0
LINE
  8
LC-001-002-----0
  6
CONTINUOUS
 62
     1
  5
4FF
 10
216.526414
 20
479.239962
 30
0.0
 11
216.526392
 21
485.741995
 31
0.0
  0
LINE
  8
LC-001-002-----0
  6
CONTINUOUS
 62
     1
  5
500
 10
201.0264
 20
482.23989
 30
0.0
 11
215.5264
 21
482.239958
 31
0.0
  0
LINE
  8
LC-001-002-----0
  6
CONTINUOUS
 62
     1
  5
501
 10
216.5264
 20
482.239962
 30
0.0
 11
215.5264
 21
482.239958
 31
0.0
  0
LINE
  8
LC-001-002-----0
  6
CONTINUOUS
 62
     1
  5
502
 10
216.524046
 20
482.241985
 30
0.0
 11
215.024049
 21
483.741986
 31
0.0
  0
LINE
  8
LC-001-002-----0
  6
CONTINUOUS
 62
     1
  5
503
 10
202.524049
 20
483.741994
 30
0.0
 11
215.024049
 21
483.741986
 31
0.0
  0
LINE
  8
LC-001-002-----0
  6
CONTINUOUS
 62
     1
  5
504
 10
201.024046
 20
482.241995
 30
0.0
 11
202.524049
 21
483.741994
 31
0.0
  0
ARC
  8
LC-001-002-----0
  6
CONTINUOUS
 62
     1
  5
505
 10
201.026395
 20
483.23989
 30
0.0
 40
1.0
 50
180.000267
 51
270.000229
  0
LINE
  8
LC-001-002-----0
  6
CONTINUOUS
 62
     1
  5
506
 10
200.026375
 20
487.612953
 30
0.0
 11
200.026395
 21
483.239886
 31
0.0
  0
LINE
  8
LC-001-002-----0
  6
CONTINUOUS
 62
     1
  5
507
 10
210.02406
 20
518.242
 30
0.0
 11
210.02406
 21
488.242
 31
0.0
  0
LINE
  8
LC-001-002-----0
  6
CONTINUOUS
 62
     1
  5
508
 10
201.02406
 20
518.242
 30
0.0
 11
201.02406
 21
488.242
 31
0.0
  0
LINE
  8
LC-001-002-----0
  6
CONTINUOUS
 62
     1
  5
509
 10
308.02406
 20
182.742
 30
0.0
 11
308.02406
 21
185.742
 31
0.0
  0
LINE
  8
LC-001-002-----0
  6
CONTINUOUS
 62
     1
  5
50A
 10
308.02406
 20
185.742
 30
0.0
 11
310.02406
 21
185.742
 31
0.0
  0
LINE
  8
LC-001-002-----0
  6
CONTINUOUS
 62
     1
  5
50B
 10
302.52406
 20
185.568633
 30
0.0
 11
302.52406
 21
182.742
 31
0.0
  0
LINE
  8
LC-001-002-----0
  6
CONTINUOUS
 62
     1
  5
50C
 10
300.02406
 20
211.242
 30
0.0
 11
300.02406
 21
184.742
 31
0.0
  0
LINE
  8
LC-001-002-----0
  6
CONTINUOUS
 62
     1
  5
50D
 10
311.02406
 20
195.242
 30
0.0
 11
316.02406
 21
195.242
 31
0.0
  0
LINE
  8
LC-001-002-----0
  6
CONTINUOUS
 62
     1
  5
50E
 10
231.02406
 20
203.742
 30
0.0
 11
231.02406
 21
203.742
 31
0.0
  0
LINE
  8
LC-001-002-----0
  6
CONTINUOUS
 62
     1
  5
50F
 10
233.02406
 20
203.742
 30
0.0
 11
300.02406
 21
203.742
 31
0.0
  0
ARC
  8
LC-005-002-RND-0
  6
CONTINUOUS
  5
510
 10
252.02406
 20
203.742
 30
0.0
 40
21.0
 50
180.0
 51
270.0
  0
LINE
  8
LC-001-002-----0
  6
CONTINUOUS
 62
     1
  5
511
 10
233.02406
 20
203.742
 30
0.0
 11
231.02406
 21
203.742
 31
0.0
  0
LINE
  8
LC-001-002-----0
  6
CONTINUOUS
 62
     1
  5
512
 10
302.52406
 20
182.742
 30
0.0
 11
252.02406
 21
182.742
 31
0.0
  0
LINE
  8
LC-001-002-----0
  6
CONTINUOUS
 62
     1
  5
513
 10
300.02406
 20
184.742
 30
0.0
 11
252.02406
 21
184.742
 31
0.0
  0
LINE
  8
LC-001-002-----0
  6
CONTINUOUS
 62
     1
  5
514
 10
300.02406
 20
211.242
 30
0.0
 11
306.02406
 21
221.760778
 31
0.0
  0
ARC
  8
LC-005-002-RND-0
  6
CONTINUOUS
  5
515
 10
252.02406
 20
203.742
 30
0.0
 40
19.0
 50
180.0
 51
270.0
  0
LINE
  8
LC-001-002-----0
  6
CONTINUOUS
 62
     1
  5
516
 10
302.02406
 20
210.711695
 30
0.0
 11
302.02406
 21
195.242
 31
0.0
  0
LINE
  8
LC-001-002-----0
  6
CONTINUOUS
 62
     1
  5
517
 10
302.02406
 20
210.711695
 30
0.0
 11
302.896959
 21
212.242
 31
0.0
  0
LINE
  8
LC-001-002-----0
  6
CONTINUOUS
 62
     1
  5
518
 10
302.02406
 20
205.742
 30
0.0
 11
319.415934
 21
205.742
 31
0.0
  0
LINE
  8
LC-001-002-----0
  6
CONTINUOUS
 62
     1
  5
519
 10
302.02406
 20
201.742
 30
0.0
 11
319.415934
 21
201.742
 31
0.0
  0
LINE
  8
LC-001-002-----0
  6
CONTINUOUS
 62
     1
  5
51A
 10
310.02406
 20
201.742
 30
0.0
 11
310.02406
 21
185.742
 31
0.0
  0
LINE
  8
LC-001-002-----0
  6
CONTINUOUS
 62
     1
  5
51B
 10
310.02406
 20
212.242
 30
0.0
 11
302.896959
 21
212.242
 31
0.0
  0
LINE
  8
LC-001-002-----0
  6
CONTINUOUS
 62
     1
  5
51C
 10
310.02406
 20
214.242
 30
0.0
 11
304.037776
 21
214.242
 31
0.0
  0
LINE
  8
LC-001-002-----0
  6
CONTINUOUS
 62
     1
  5
51D
 10
304.037776
 20
214.242
 30
0.0
 11
307.175023
 21
219.742
 31
0.0
  0
LINE
  8
LC-001-002-----0
  6
CONTINUOUS
 62
     1
  5
51E
 10
310.02406
 20
195.242
 30
0.0
 11
302.02406
 21
195.242
 31
0.0
  0
LINE
  8
LC-001-002-----0
  6
CONTINUOUS
 62
     1
  5
51F
 10
310.02406
 20
193.242
 30
0.0
 11
302.02406
 21
193.242
 31
0.0
  0
LINE
  8
LC-001-002-----0
  6
CONTINUOUS
 62
     1
  5
520
 10
302.02406
 20
193.242
 30
0.0
 11
302.02406
 21
187.742
 31
0.0
  0
LINE
  8
LC-001-002-----0
  6
CONTINUOUS
 62
     1
  5
521
 10
317.02406
 20
210.462485
 30
0.0
 11
310.02406
 21
210.462485
 31
0.0
  0
ARC
  8
LC-001-002-----0
  6
CONTINUOUS
 62
     1
  5
522
 10
310.99281
 20
203.742
 30
0.0
 40
9.03
 50
311.906155
 51
48.093845
  0
LINE
  8
LC-001-002-----0
  6
CONTINUOUS
 62
     1
  5
523
 10
317.02406
 20
197.021515
 30
0.0
 11
317.02406
 21
179.742
 31
0.0
  0
ARC
  8
LC-001-002-----0
  6
CONTINUOUS
 62
     1
  5
524
 10
310.99281
 20
203.742
 30
0.0
 40
8.65731
 50
346.64295
 51
13.35705
  0
LINE
  8
LC-001-002-----0
  6
CONTINUOUS
 62
     1
  5
525
 10
317.02406
 20
197.021515
 30
0.0
 11
310.02406
 21
197.021515
 31
0.0
  0
LINE
  8
LC-001-002-----0
  6
CONTINUOUS
 62
     1
  5
526
 10
311.02406
 20
212.242
 30
0.0
 11
310.02406
 21
211.242
 31
0.0
  0
LINE
  8
LC-001-002-----0
  6
CONTINUOUS
 62
     1
  5
527
 10
316.02406
 20
212.242
 30
0.0
 11
317.02406
 21
211.242
 31
0.0
  0
LINE
  8
LC-001-002-----0
  6
CONTINUOUS
 62
     1
  5
528
 10
310.02406
 20
211.242
 30
0.0
 11
317.02406
 21
211.242
 31
0.0
  0
LINE
  8
LC-001-002-----0
  6
CONTINUOUS
 62
     1
  5
529
 10
310.02406
 20
196.242
 30
0.0
 11
317.008473
 21
196.242
 31
0.0
  0
LINE
  8
LC-001-002-----0
  6
CONTINUOUS
 62
     1
  5
52A
 10
311.02406
 20
195.242
 30
0.0
 11
310.02406
 21
196.242
 31
0.0
  0
LINE
  8
LC-001-002-----0
  6
CONTINUOUS
 62
     1
  5
52B
 10
311.02406
 20
195.242
 30
0.0
 11
315.957123
 21
195.242
 31
0.0
  0
LINE
  8
LC-001-002-----0
  6
CONTINUOUS
 62
     1
  5
52C
 10
316.02406
 20
195.242
 30
0.0
 11
317.02406
 21
196.242
 31
0.0
  0
LINE
  8
LC-001-002-----0
  6
CONTINUOUS
 62
     1
  5
52D
 10
308.12406
 20
221.842
 30
0.0
 11
315.62406
 21
221.842
 31
0.0
  0
LINE
  8
LC-001-002-----0
  6
CONTINUOUS
 62
     1
  5
52E
 10
308.12406
 20
225.342
 30
0.0
 11
308.12406
 21
221.842
 31
0.0
  0
LINE
  8
LC-001-002-----0
  6
CONTINUOUS
 62
     1
  5
52F
 10
315.62406
 20
225.342
 30
0.0
 11
315.62406
 21
221.842
 31
0.0
  0
LINE
  8
LC-001-002-----0
  6
CONTINUOUS
 62
     1
  5
530
 10
308.12406
 20
225.342
 30
0.0
 11
315.62406
 21
225.342
 31
0.0
  0
LINE
  8
LC-001-002-----0
  6
CONTINUOUS
 62
     1
  5
531
 10
308.12406
 20
185.642
 30
0.0
 11
315.62406
 21
185.642
 31
0.0
  0
LINE
  8
LC-001-002-----0
  6
CONTINUOUS
 62
     1
  5
532
 10
308.12406
 20
182.142
 30
0.0
 11
315.62406
 21
182.142
 31
0.0
  0
LINE
  8
LC-001-002-----0
  6
CONTINUOUS
 62
     1
  5
533
 10
315.62406
 20
182.142
 30
0.0
 11
315.62406
 21
185.642
 31
0.0
  0
LINE
  8
LC-001-002-----0
  6
CONTINUOUS
 62
     1
  5
534
 10
308.12406
 20
182.142
 30
0.0
 11
308.12406
 21
185.642
 31
0.0
  0
LINE
  8
LC-001-002-----0
  6
CONTINUOUS
 62
     1
  5
535
 10
316.628131
 20
182.242
 30
0.0
 11
316.628131
 21
179.742
 31
0.0
  0
LINE
  8
LC-001-002-----0
  6
CONTINUOUS
 62
     1
  5
536
 10
316.628131
 20
227.742
 30
0.0
 11
316.628131
 21
225.242
 31
0.0
  0
ENDSEC
  0
EOF
