  0
SECTION
  2
HEADER
  9
$ACADVER
  1
AC1009
  9
$INSBASE
 10
0.0
 20
0.0
 30
0.0
  9
$EXTMIN
 10
-210.0
 20
-148.5
 30
0.0
  9
$EXTMAX
 10
630.0
 20
445.5
 30
0.0
  9
$LIMMIN
 10
-210.0
 20
-148.5
  9
$LIMMAX
 10
630.0
 20
445.5
  9
$ORTHOMODE
 70
     0
  9
$REGENMODE
 70
     1
  9
$FILLMODE
 70
     1
  9
$QTEXTMODE
 70
     0
  9
$MIRRTEXT
 70
     1
  9
$DRAGMODE
 70
     2
  9
$LTSCALE
 40
2.0
  9
$OSMODE
 70
     0
  9
$ATTMODE
 70
     1
  9
$TEXTSIZE
 40
0.2
  9
$TRACEWID
 40
0.05
  9
$TEXTSTYLE
  7
STANDARD
  9
$CLAYER
  8
0
  9
$CELTYPE
  6
BYLAYER
  9
$CECOLOR
 62
     7
  9
$DIMSCALE
 40
2.0
  9
$DIMASZ
 40
3.5
  9
$DIMEXO
 40
0.0625
  9
$DIMDLI
 40
0.38
  9
$DIMRND
 40
0.0
  9
$DIMDLE
 40
0.0
  9
$DIMEXE
 40
0.18
  9
$DIMTP
 40
0.0
  9
$DIMTM
 40
0.0
  9
$DIMTXT
 40
3.5
  9
$DIMCEN
 40
0.09
  9
$DIMTSZ
 40
0.0
  9
$DIMTOL
 70
     0
  9
$DIMLIM
 70
     0
  9
$DIMTIH
 70
     1
  9
$DIMTOH
 70
     1
  9
$DIMSE1
 70
     0
  9
$DIMSE2
 70
     0
  9
$DIMTAD
 70
     1
  9
$DIMZIN
 70
     0
  9
$DIMBLK
  1

  9
$DIMASO
 70
     1
  9
$DIMSHO
 70
     1
  9
$DIMPOST
  1

  9
$DIMAPOST
  1

  9
$DIMALT
 70
     0
  9
$DIMALTD
 70
     2
  9
$DIMALTF
 40
25.4
  9
$DIMLFAC
 40
1.0
  9
$DIMTOFL
 70
     0
  9
$DIMTVP
 40
0.0
  9
$DIMTIX
 70
     0
  9
$DIMSOXD
 70
     0
  9
$DIMSAH
 70
     0
  9
$DIMBLK1
  1

  9
$DIMBLK2
  1

  9
$DIMSTYLE
  2
STANDARD
  9
$DIMCLRD
 70
     0
  9
$DIMCLRE
 70
     0
  9
$DIMCLRT
 70
     0
  9
$DIMTFAC
 40
1.0
  9
$DIMGAP
 40
0.09
  9
$LUNITS
 70
     2
  9
$LUPREC
 70
     2
  9
$AXISMODE
 70
     0
  9
$AXISUNIT
 10
0.0
 20
0.0
  9
$SKETCHINC
 40
0.1
  9
$FILLETRAD
 40
0.0
  9
$AUNITS
 70
     0
  9
$AUPREC
 70
     0
  9
$MENU
  1
acad
  9
$ELEVATION
 40
0.0
  9
$PELEVATION
 40
0.0
  9
$THICKNESS
 40
0.0
  9
$LIMCHECK
 70
     0
  9
$BLIPMODE
 70
     1
  9
$CHAMFERA
 40
0.0
  9
$CHAMFERB
 40
0.0
  9
$SKPOLY
 70
     0
  9
$TDCREATE
 40
0.000000000
  9
$TDUPDATE
 40
0.000000000
  9
$TDINDWG
 40
0.0000000000
  9
$TDUSRTIMER
 40
0.0000000000
  9
$USRTIMER
 70
     1
  9
$ANGBASE
 50
0.0
  9
$ANGDIR
 70
     0
  9
$PDMODE
 70
     0
  9
$PDSIZE
 40
0.0
  9
$PLINEWID
 40
0.0
  9
$COORDS
 70
     0
  9
$SPLFRAME
 70
     0
  9
$SPLINETYPE
 70
     6
  9
$SPLINESEGS
 70
     8
  9
$ATTDIA
 70
     0
  9
$ATTREQ
 70
     1
  9
$HANDLING
 70
     1
  9
$HANDSEED
  5
B9
  9
$SURFTAB1
 70
     6
  9
$SURFTAB2
 70
     6
  9
$SURFTYPE
 70
     6
  9
$SURFU
 70
     6
  9
$SURFV
 70
     6
  9
$UCSNAME
  2

  9
$UCSORG
 10
0.0
 20
0.0
 30
0.0
  9
$UCSXDIR
 10
1.0
 20
0.0
 30
0.0
  9
$UCSYDIR
 10
0.0
 20
1.0
 30
0.0
  9
$PUCSNAME
  2

  9
$PUCSORG
 10
0.0
 20
0.0
 30
0.0
  9
$PUCSXDIR
 10
1.0
 20
0.0
 30
0.0
  9
$PUCSYDIR
 10
0.0
 20
1.0
 30
0.0
  9
$USERI1
 70
     0
  9
$USERI2
 70
     0
  9
$USERI3
 70
     0
  9
$USERI4
 70
     0
  9
$USERI5
 70
     0
  9
$USERR1
 40
0.0
  9
$USERR2
 40
0.0
  9
$USERR3
 40
0.0
  9
$USERR4
 40
0.0
  9
$USERR5
 40
0.0
  9
$WORLDVIEW
 70
     1
  9
$SHADEDGE
 70
     3
  9
$SHADEDIF
 70
    70
  9
$TILEMODE
 70
     1
  9
$MAXACTVP
 70
    16
  9
$PINSBASE
 10
0.0
 20
0.0
 30
0.0
  9
$PLIMCHECK
 70
     0
  9
$PEXTMIN
 10
1.000000E+20
 20
1.000000E+20
 30
1.000000E+20
  9
$PEXTMAX
 10
-1.000000E+20
 20
-1.000000E+20
 30
-1.000000E+20
  9
$PLIMMIN
 10
-210.0
 20
-148.5
  9
$PLIMMAX
 10
630.0
 20
445.5
  9
$UNITMODE
 70
     0
  9
$VISRETAIN
 70
     0
  9
$PLINEGEN
 70
     1
  9
$PSLTSCALE
 70
     0
  9
$TREEDEPTH
 70
  3020
  9
$DWGCODEPAGE
  3
dos850
  0
ENDSEC
  0
SECTION
  2
TABLES
  0
TABLE
  2
VPORT
 70
     1
  0
VPORT
  2
*ACTIVE
 70
     0
 10
0.0
 20
0.0
 11
1.0
 21
1.0
 12
420.0
 22
297.0
 13
0.0
 23
0.0
 14
1.0
 24
1.0
 15
0.0
 25
0.0
 16
0.0
 26
0.0
 36
1.0
 17
-210.0
 27
-148.5
 37
0.0
 40
594.0
 41
1.604229
 42
50.0
 43
0.0
 44
0.0
 50
0.0
 51
0.0
 71
     0
 72
   100
 73
     1
 74
     1
 75
     0
 76
     0
 77
     0
 78
     0
  0
ENDTAB
  0
TABLE
  2
LTYPE
 70
     2
  0
LTYPE
  2
CONTINUOUS
 70
    64
  3
Solid line
 72
    65
 73
     0
 40
0.0
  0
LTYPE
  2
DASHDOT
 70
    64
  3
__ . __ . __ . __ . __
 72
    65
 73
     4
 40
7.5
 49
5.0
 49
-1.25
 49
0.0
 49
-1.25
  0
ENDTAB
  0
TABLE
  2
LAYER
 70
    10
  0
LAYER
  2
0
 70
     0
 62
     7
  6
CONTINUOUS
  0
LAYER
  2
LC-INFO-1-2-MM-A3-0
 70
     1
 62
    -1
  6
CONTINUOUS
  0
LAYER
  2
LC-003-003-MTH-0
 70
     0
 62
     2
  6
CONTINUOUS
  0
LAYER
  2
LC-002-003-----0
 70
     0
 62
     2
  6
CONTINUOUS
  0
LAYER
  2
LC-004-003-MTG-0
 70
     0
 62
     2
  6
CONTINUOUS
  0
LAYER
  2
LC-005-005-----0
 70
     0
 62
     2
  6
CONTINUOUS
  0
LAYER
  2
LC-007-000-----0
 70
     0
 62
     7
  6
CONTINUOUS
  0
LAYER
  2
LC-001-002-----0
 70
     0
 62
     1
  6
CONTINUOUS
  0
LAYER
  2
LC-006-002-RND-0
 70
     0
 62
     1
  6
CONTINUOUS
  0
LAYER
  2
LC-000
 70
     0
 62
     7
  6
CONTINUOUS
  0
ENDTAB
  0
TABLE
  2
STYLE
 70
     4
  0
STYLE
  2
STANDARD
 70
     0
 40
0.0
 41
1.0
 50
0.0
 71
     0
 42
0.0
  3
txt
  4

  0
STYLE
  2
LC-STANDARD
 70
    64
 40
0.0
 41
1.0
 50
0.0
 71
     0
 42
3.5
  3
MONOTXT
  4

  0
STYLE
  2
LC-TXTSTYLE-150-400-0-0-D2
 70
    64
 40
0.0
 41
1.0
 50
15.0
 71
     0
 42
3.5
  3
MONOTXT
  4

  0
STYLE
  2
LC-TXTSTYLE-150-400-0-0-D3
 70
    64
 40
0.0
 41
1.0
 50
15.0
 71
     0
 42
3.5
  3
LC-STANDARD
  4

  0
ENDTAB
  0
TABLE
  2
VIEW
 70
     0
  0
ENDTAB
  0
TABLE
  2
UCS
 70
     0
  0
ENDTAB
  0
TABLE
  2
APPID
 70
     1
  0
APPID
  2
ACAD
 70
     0
  0
ENDTAB
  0
TABLE
  2
DIMSTYLE
 70
     4
  0
DIMSTYLE
  2
STANDARD
 70
     0
  3

  4

  5

  6

  7

 40
1.0
 41
0.18
 42
0.0625
 43
0.38
 44
0.18
 45
0.0
 46
0.0
 47
0.0
 48
0.0
 71
     0
 72
     0
 73
     1
 74
     1
 75
     0
 76
     0
 77
     0
 78
     0
140
0.18
141
0.09
142
0.0
143
25.4
144
1.0
145
0.0
146
1.0
147
0.09
170
     0
171
     2
172
     0
173
     0
174
     0
175
     0
176
     0
177
     0
178
     0
  0
DIMSTYLE
  2
LC-STANDARD
 70
     0
  3

  4

  5

  6

  7

 40
1.0
 41
3.5
 42
0.0
 43
7.5
 44
1.8
 45
0.0
 46
0.0
 47
0.0
 48
0.0
 71
     0
 72
     0
 73
     0
 74
     0
 75
     0
 76
     0
 77
     1
 78
     8
140
3.5
141
0.0
142
0.0
143
25.4
144
1.0
145
0.0
146
0.71
147
1.5
170
     0
171
     2
172
     1
173
     0
174
     0
175
     0
176
     0
177
     0
178
     3
  0
DIMSTYLE
  2
LC-DIM-L-0090-02-02
 70
     0
  3

  4

  5

  6

  7

 40
2.0
 41
3.5
 42
0.0
 43
7.5
 44
1.8
 45
0.0
 46
0.0
 47
0.0
 48
0.0
 71
     0
 72
     0
 73
     0
 74
     0
 75
     0
 76
     0
 77
     1
 78
     8
140
9.0
141
0.0
142
0.0
143
25.4
144
1.0
145
0.0
146
0.71
147
1.5
170
     0
171
     2
172
     0
173
     0
174
     0
175
     0
176
     2
177
     2
178
     6
  0
DIMSTYLE
  2
LC-DIM-L-0090-01-02
 70
     0
  3

  4

  5

  6

  7

 40
2.0
 41
3.5
 42
0.0
 43
7.5
 44
1.8
 45
0.0
 46
0.0
 47
0.0
 48
0.0
 71
     0
 72
     0
 73
     0
 74
     0
 75
     0
 76
     0
 77
     1
 78
     8
140
9.0
141
0.0
142
0.0
143
25.4
144
1.0
145
0.0
146
0.71
147
1.5
170
     0
171
     2
172
     0
173
     0
174
     0
175
     0
176
     2
177
     2
178
     6
  0
ENDTAB
  0
ENDSEC
  0
SECTION
  2
BLOCKS
  0
BLOCK
  8
0
  5
24
  2
*D0
 70
    65
 10
0.0
 20
0.0
 30
0.0
  3
*D0
  0
LINE
  8
LC-003-003-MTH-0
  6
CONTINUOUS
  5
26
 10
220.171655
 20
163.7435
 30
0.0
 11
169.2
 21
163.7435
 31
0.0
  0
LINE
  8
LC-003-003-MTH-0
  6
CONTINUOUS
  5
27
 10
220.171655
 20
213.7435
 30
0.0
 11
169.2
 21
213.7435
 31
0.0
  0
LINE
  8
LC-002-003-----0
  6
CONTINUOUS
  5
29
 10
182.349471
 20
145.897492
 30
0.0
 11
180.0
 21
163.7435
 31
0.0
  0
LINE
  8
LC-002-003-----0
  6
CONTINUOUS
  5
2A
 10
180.0
 20
163.7435
 30
0.0
 11
177.650529
 21
145.897492
 31
0.0
  0
LINE
  8
LC-002-003-----0
  6
CONTINUOUS
  5
2B
 10
177.650529
 20
145.897492
 30
0.0
 11
182.349471
 21
145.897492
 31
0.0
  0
LINE
  8
LC-002-003-----0
  6
CONTINUOUS
  5
2C
 10
181.738609
 20
145.857454
 30
0.0
 11
180.0
 21
159.0635
 31
0.0
  0
LINE
  8
LC-002-003-----0
  6
CONTINUOUS
  5
2D
 10
180.0
 20
159.0635
 30
0.0
 11
178.261391
 21
145.857454
 31
0.0
  0
LINE
  8
LC-002-003-----0
  6
CONTINUOUS
  5
2E
 10
181.127746
 20
145.817416
 30
0.0
 11
180.0
 21
154.3835
 31
0.0
  0
LINE
  8
LC-002-003-----0
  6
CONTINUOUS
  5
2F
 10
180.0
 20
154.3835
 30
0.0
 11
178.872254
 21
145.817416
 31
0.0
  0
LINE
  8
LC-002-003-----0
  6
CONTINUOUS
  5
30
 10
180.516884
 20
145.777378
 30
0.0
 11
180.0
 21
149.7035
 31
0.0
  0
LINE
  8
LC-002-003-----0
  6
CONTINUOUS
  5
31
 10
180.0
 20
149.7035
 30
0.0
 11
179.483116
 21
145.777378
 31
0.0
  0
LINE
  8
LC-002-003-----0
  6
CONTINUOUS
  5
32
 10
177.650529
 20
231.589508
 30
0.0
 11
180.0
 21
213.7435
 31
0.0
  0
LINE
  8
LC-002-003-----0
  6
CONTINUOUS
  5
33
 10
180.0
 20
213.7435
 30
0.0
 11
182.349471
 21
231.589508
 31
0.0
  0
LINE
  8
LC-002-003-----0
  6
CONTINUOUS
  5
34
 10
182.349471
 20
231.589508
 30
0.0
 11
177.650529
 21
231.589508
 31
0.0
  0
LINE
  8
LC-002-003-----0
  6
CONTINUOUS
  5
35
 10
178.261391
 20
231.629546
 30
0.0
 11
180.0
 21
218.4235
 31
0.0
  0
LINE
  8
LC-002-003-----0
  6
CONTINUOUS
  5
36
 10
180.0
 20
218.4235
 30
0.0
 11
181.738609
 21
231.629546
 31
0.0
  0
LINE
  8
LC-002-003-----0
  6
CONTINUOUS
  5
37
 10
178.872254
 20
231.669584
 30
0.0
 11
180.0
 21
223.1035
 31
0.0
  0
LINE
  8
LC-002-003-----0
  6
CONTINUOUS
  5
38
 10
180.0
 20
223.1035
 30
0.0
 11
181.127746
 21
231.669584
 31
0.0
  0
LINE
  8
LC-002-003-----0
  6
CONTINUOUS
  5
39
 10
179.483116
 20
231.709622
 30
0.0
 11
180.0
 21
227.7835
 31
0.0
  0
LINE
  8
LC-002-003-----0
  6
CONTINUOUS
  5
3A
 10
180.0
 20
227.7835
 30
0.0
 11
180.516884
 21
231.709622
 31
0.0
  0
LINE
  8
LC-004-003-MTG-0
  6
CONTINUOUS
  5
3C
 10
180.0
 20
138.5435
 30
0.0
 11
180.0
 21
304.14602
 31
0.0
  0
TEXT
  8
LC-002-003-----0
  6
CONTINUOUS
 62
     6
  5
3E
 10
169.568001
 20
241.018746
 30
0.0
 40
18.0
  1
DN50
 50
90.0
 41
0.9
 51
15.0
  7
LC-TXTSTYLE-150-400-0-0-D0
  0
ENDBLK
  8
0
  5
3F
  0
BLOCK
  8
0
  5
41
  2
*X1
 70
    65
 10
219.671655
 20
144.7435
 30
0.0
  3
*X1
  0
LINE
  8
LC-005-005-----0
  6
CONTINUOUS
  5
43
 10
255.052158
 20
144.7435
 30
0.0
 11
256.552158
 21
146.2435
 31
0.0
  0
LINE
  8
LC-005-005-----0
  6
CONTINUOUS
  5
44
 10
246.566876
 20
144.7435
 30
0.0
 11
248.066876
 21
146.2435
 31
0.0
  0
LINE
  8
LC-005-005-----0
  6
CONTINUOUS
  5
45
 10
239.452345
 20
146.11425
 30
0.0
 11
240.542231
 21
147.204136
 31
0.0
  0
LINE
  8
LC-005-005-----0
  6
CONTINUOUS
  5
46
 10
234.206899
 20
149.354085
 30
0.0
 11
235.296785
 21
150.443971
 31
0.0
  0
LINE
  8
LC-005-005-----0
  6
CONTINUOUS
  5
47
 10
228.961452
 20
152.59392
 30
0.0
 11
230.051338
 21
153.683806
 31
0.0
  0
LINE
  8
LC-005-005-----0
  6
CONTINUOUS
  5
48
 10
224.070367
 20
156.188116
 30
0.0
 11
225.162547
 21
157.280296
 31
0.0
  0
LINE
  8
LC-005-005-----0
  6
CONTINUOUS
  5
49
 10
220.76997
 20
161.373001
 30
0.0
 11
221.845339
 21
162.448369
 31
0.0
  0
LINE
  8
LC-005-005-----0
  6
CONTINUOUS
  5
4A
 10
222.09511
 20
162.69814
 30
0.0
 11
223.445218
 21
164.048248
 31
0.0
  0
ENDBLK
  8
0
  5
4B
  0
BLOCK
  8
0
  5
4D
  2
*X2
 70
    65
 10
219.671655
 20
213.2435
 30
0.0
  3
*X2
  0
LINE
  8
LC-005-005-----0
  6
CONTINUOUS
  5
4E
 10
256.699344
 20
231.2435
 30
0.0
 11
258.199344
 21
232.7435
 31
0.0
  0
LINE
  8
LC-005-005-----0
  6
CONTINUOUS
  5
4F
 10
248.214063
 20
231.2435
 30
0.0
 11
249.714063
 21
232.7435
 31
0.0
  0
LINE
  8
LC-005-005-----0
  6
CONTINUOUS
  5
50
 10
221.771915
 20
213.286633
 30
0.0
 11
223.400335
 21
214.915054
 31
0.0
  0
LINE
  8
LC-005-005-----0
  6
CONTINUOUS
  5
51
 10
235.902314
 20
227.417032
 30
0.0
 11
240.51337
 21
232.028088
 31
0.0
  0
ENDBLK
  8
0
  5
52
  0
BLOCK
  8
0
  5
54
  2
*D3
 70
    65
 10
0.0
 20
0.0
 30
0.0
  3
*D3
  0
LINE
  8
LC-003-003-MTH-0
  6
CONTINUOUS
  5
55
 10
260.671655
 20
144.7435
 30
0.0
 11
334.8
 21
144.7435
 31
0.0
  0
LINE
  8
LC-003-003-MTH-0
  6
CONTINUOUS
  5
56
 10
260.671655
 20
232.7435
 30
0.0
 11
334.8
 21
232.7435
 31
0.0
  0
LINE
  8
LC-004-003-MTG-0
  6
CONTINUOUS
  5
57
 10
324.0
 20
144.7435
 30
0.0
 11
324.0
 21
232.7435
 31
0.0
  0
LINE
  8
LC-002-003-----0
  6
CONTINUOUS
  5
58
 10
321.650529
 20
162.589508
 30
0.0
 11
324.0
 21
144.7435
 31
0.0
  0
LINE
  8
LC-002-003-----0
  6
CONTINUOUS
  5
59
 10
324.0
 20
144.7435
 30
0.0
 11
326.349471
 21
162.589508
 31
0.0
  0
LINE
  8
LC-002-003-----0
  6
CONTINUOUS
  5
5A
 10
326.349471
 20
162.589508
 30
0.0
 11
321.650529
 21
162.589508
 31
0.0
  0
LINE
  8
LC-002-003-----0
  6
CONTINUOUS
  5
5B
 10
322.261391
 20
162.629546
 30
0.0
 11
324.0
 21
149.4235
 31
0.0
  0
LINE
  8
LC-002-003-----0
  6
CONTINUOUS
  5
5C
 10
324.0
 20
149.4235
 30
0.0
 11
325.738609
 21
162.629546
 31
0.0
  0
LINE
  8
LC-002-003-----0
  6
CONTINUOUS
  5
5D
 10
322.872254
 20
162.669584
 30
0.0
 11
324.0
 21
154.1035
 31
0.0
  0
LINE
  8
LC-002-003-----0
  6
CONTINUOUS
  5
5E
 10
324.0
 20
154.1035
 30
0.0
 11
325.127746
 21
162.669584
 31
0.0
  0
LINE
  8
LC-002-003-----0
  6
CONTINUOUS
  5
5F
 10
323.483116
 20
162.709622
 30
0.0
 11
324.0
 21
158.7835
 31
0.0
  0
LINE
  8
LC-002-003-----0
  6
CONTINUOUS
  5
60
 10
324.0
 20
158.7835
 30
0.0
 11
324.516884
 21
162.709622
 31
0.0
  0
LINE
  8
LC-002-003-----0
  6
CONTINUOUS
  5
61
 10
326.349471
 20
214.897492
 30
0.0
 11
324.0
 21
232.7435
 31
0.0
  0
LINE
  8
LC-002-003-----0
  6
CONTINUOUS
  5
62
 10
324.0
 20
232.7435
 30
0.0
 11
321.650529
 21
214.897492
 31
0.0
  0
LINE
  8
LC-002-003-----0
  6
CONTINUOUS
  5
63
 10
321.650529
 20
214.897492
 30
0.0
 11
326.349471
 21
214.897492
 31
0.0
  0
LINE
  8
LC-002-003-----0
  6
CONTINUOUS
  5
64
 10
325.738609
 20
214.857454
 30
0.0
 11
324.0
 21
228.0635
 31
0.0
  0
LINE
  8
LC-002-003-----0
  6
CONTINUOUS
  5
65
 10
324.0
 20
228.0635
 30
0.0
 11
322.261391
 21
214.857454
 31
0.0
  0
LINE
  8
LC-002-003-----0
  6
CONTINUOUS
  5
66
 10
325.127746
 20
214.817416
 30
0.0
 11
324.0
 21
223.3835
 31
0.0
  0
LINE
  8
LC-002-003-----0
  6
CONTINUOUS
  5
67
 10
324.0
 20
223.3835
 30
0.0
 11
322.872254
 21
214.817416
 31
0.0
  0
LINE
  8
LC-002-003-----0
  6
CONTINUOUS
  5
68
 10
324.516884
 20
214.777378
 30
0.0
 11
324.0
 21
218.7035
 31
0.0
  0
LINE
  8
LC-002-003-----0
  6
CONTINUOUS
  5
69
 10
324.0
 20
218.7035
 30
0.0
 11
323.483116
 21
214.777378
 31
0.0
  0
TEXT
  8
LC-002-003-----0
  6
CONTINUOUS
 62
     6
  5
6A
 10
313.568001
 20
171.496773
 30
0.0
 40
18.0
  1
Ø88
 50
90.0
 51
15.0
  7
LC-TXTSTYLE-150-400-0-0-D0
 72
     1
 11
313.568001
 21
188.717246
 31
0.0
  0
ENDBLK
  8
0
  5
6B
  0
BLOCK
  8
0
  5
6D
  2
*D4
 70
    65
 10
0.0
 20
0.0
 30
0.0
  3
*D4
  0
LINE
  8
LC-003-003-MTH-0
  6
CONTINUOUS
  5
6E
 10
219.671655
 20
214.38856
 30
0.0
 11
219.671655
 21
262.8
 31
0.0
  0
LINE
  8
LC-003-003-MTH-0
  6
CONTINUOUS
  5
6F
 10
260.671655
 20
232.7435
 30
0.0
 11
260.671655
 21
262.8
 31
0.0
  0
LINE
  8
LC-004-003-MTG-0
  6
CONTINUOUS
  5
70
 10
219.671655
 20
252.0
 30
0.0
 11
260.671655
 21
252.0
 31
0.0
  0
LINE
  8
LC-002-003-----0
  6
CONTINUOUS
  5
71
 10
237.517663
 20
254.349471
 30
0.0
 11
219.671655
 21
252.0
 31
0.0
  0
LINE
  8
LC-002-003-----0
  6
CONTINUOUS
  5
72
 10
219.671655
 20
252.0
 30
0.0
 11
237.517663
 21
249.650529
 31
0.0
  0
LINE
  8
LC-002-003-----0
  6
CONTINUOUS
  5
73
 10
237.517663
 20
249.650529
 30
0.0
 11
237.517663
 21
254.349471
 31
0.0
  0
LINE
  8
LC-002-003-----0
  6
CONTINUOUS
  5
74
 10
237.557701
 20
253.738609
 30
0.0
 11
224.351655
 21
252.0
 31
0.0
  0
LINE
  8
LC-002-003-----0
  6
CONTINUOUS
  5
75
 10
224.351655
 20
252.0
 30
0.0
 11
237.557701
 21
250.261391
 31
0.0
  0
LINE
  8
LC-002-003-----0
  6
CONTINUOUS
  5
76
 10
237.597739
 20
253.127746
 30
0.0
 11
229.031655
 21
252.0
 31
0.0
  0
LINE
  8
LC-002-003-----0
  6
CONTINUOUS
  5
77
 10
229.031655
 20
252.0
 30
0.0
 11
237.597739
 21
250.872254
 31
0.0
  0
LINE
  8
LC-002-003-----0
  6
CONTINUOUS
  5
78
 10
237.637777
 20
252.516884
 30
0.0
 11
233.711655
 21
252.0
 31
0.0
  0
LINE
  8
LC-002-003-----0
  6
CONTINUOUS
  5
79
 10
233.711655
 20
252.0
 30
0.0
 11
237.637777
 21
251.483116
 31
0.0
  0
LINE
  8
LC-002-003-----0
  6
CONTINUOUS
  5
7A
 10
242.825648
 20
249.650529
 30
0.0
 11
260.671655
 21
252.0
 31
0.0
  0
LINE
  8
LC-002-003-----0
  6
CONTINUOUS
  5
7B
 10
260.671655
 20
252.0
 30
0.0
 11
242.825648
 21
254.349471
 31
0.0
  0
LINE
  8
LC-002-003-----0
  6
CONTINUOUS
  5
7C
 10
242.825648
 20
254.349471
 30
0.0
 11
242.825648
 21
249.650529
 31
0.0
  0
LINE
  8
LC-002-003-----0
  6
CONTINUOUS
  5
7D
 10
242.78561
 20
250.261391
 30
0.0
 11
255.991655
 21
252.0
 31
0.0
  0
LINE
  8
LC-002-003-----0
  6
CONTINUOUS
  5
7E
 10
255.991655
 20
252.0
 30
0.0
 11
242.78561
 21
253.738609
 31
0.0
  0
LINE
  8
LC-002-003-----0
  6
CONTINUOUS
  5
7F
 10
242.745572
 20
250.872254
 30
0.0
 11
251.311655
 21
252.0
 31
0.0
  0
LINE
  8
LC-002-003-----0
  6
CONTINUOUS
  5
80
 10
251.311655
 20
252.0
 30
0.0
 11
242.745572
 21
253.127746
 31
0.0
  0
LINE
  8
LC-002-003-----0
  6
CONTINUOUS
  5
81
 10
242.705534
 20
251.483116
 30
0.0
 11
246.631655
 21
252.0
 31
0.0
  0
LINE
  8
LC-002-003-----0
  6
CONTINUOUS
  5
82
 10
246.631655
 20
252.0
 30
0.0
 11
242.705534
 21
252.516884
 31
0.0
  0
TEXT
  8
LC-002-003-----0
  6
CONTINUOUS
 62
     6
  5
83
 10
245.502741
 20
262.431999
 30
0.0
 40
18.0
  1
40
 51
15.0
  7
LC-TXTSTYLE-150-400-0-0-D0
 72
     1
 11
257.365733
 21
262.431999
 31
0.0
  0
ENDBLK
  8
0
  5
84
  0
BLOCK
  8
0
  5
86
  2
BLK1
 70
    64
 10
0.0
 20
0.0
 30
0.0
  3
BLK1
  0
ENDBLK
  8
0
  5
87
  0
ENDSEC
  0
SECTION
  2
ENTITIES
  0
VIEWPORT
  8
LC-000
  5
B4
 67
     1
 68
     1
 10
420.0
 20
297.0
 30
0.0
 40
840.0
 41
594.0
 69
     1
1001
ACAD
1000
MVIEW
1002
{
1070
    16
1010
0.0
1020
0.0
1030
0.0
1010
0.0
1020
0.0
1030
1.0
1040
0.0
1040
594.0
1040
420.0
1040
297.0
1040
50.0
1040
0.0
1040
0.0
1070
     0
1070
   100
1070
     1
1070
     1
1070
     0
1070
     0
1070
     0
1070
     0
1040
0.0
1040
0.0
1040
0.0
1040
1.0
1040
1.0
1040
0.0
1040
0.0
1070
     0
1002
{
1002
}
1002
}
  0
VIEWPORT
  8
0
  5
B5
 67
     1
 68
     1
 10
0.0
 20
0.0
 30
0.0
 40
0.0
 41
0.0
 69
     1
1001
ACAD
1000
MVIEW
1002
{
1070
    16
1010
0.0
1020
0.0
1030
0.0
1010
0.0
1020
0.0
1030
1.0
1040
0.0
1040
594.0
1040
0.0
1040
0.0
1040
50.0
1040
0.0
1040
0.0
1070
     0
1070
   100
1070
     0
1070
     1
1070
     0
1070
     0
1070
     0
1070
     0
1040
0.0
1040
0.0
1040
0.0
1040
0.5
1040
0.5
1040
0.5
1040
0.5
1070
     0
1002
{
1002
}
1002
}
  0
DIMENSION
  8
0
  5
88
  2
*D0
 10
180.0
 20
207.9
 30
0.0
 11
180.0
 21
207.9
 31
0.0
  1
DN50
 13
220.171655
 23
213.7435
 33
0.0
 14
220.171655
 24
163.7435
 34
0.0
 50
90.0
  3
LC-DIM-L-0090-02-02
  0
INSERT
  8
0
  5
89
  2
*X1
 10
219.671655
 20
144.7435
 30
0.0
  0
INSERT
  8
0
  5
8A
  2
*X2
 10
219.671655
 20
213.2435
 30
0.0
  0
DIMENSION
  8
0
  5
8B
  2
*D3
 10
324.0
 20
185.922
 30
0.0
 11
324.0
 21
185.922
 31
0.0
  1
%%c<>
 13
260.671655
 23
232.7435
 33
0.0
 14
260.671655
 24
144.7435
 34
0.0
 50
90.0
  3
LC-DIM-L-0090-01-02
  0
DIMENSION
  8
0
  5
8C
  2
*D4
 10
254.570488
 20
252.0
 30
0.0
 11
254.570488
 21
252.0
 31
0.0
  1
40
 13
219.671655
 23
214.38856
 33
0.0
 14
260.671655
 24
232.7435
 34
0.0
  3
LC-DIM-L-0090-01-02
  0
INSERT
  8
0
  5
8E
  2
BLK1
 10
0.0
 20
0.0
 30
0.0
  0
LINE
  8
LC-001-002-----0
  6
CONTINUOUS
  5
90
 10
260.671655
 20
231.2435
 30
0.0
 11
260.671655
 21
146.2435
 31
0.0
  0
LINE
  8
LC-001-002-----0
  6
CONTINUOUS
  5
91
 10
219.671655
 20
163.2435
 30
0.0
 11
219.671655
 21
214.2435
 31
0.0
  0
LINE
  8
LC-001-002-----0
  6
CONTINUOUS
  5
92
 10
221.297447
 20
163.7435
 30
0.0
 11
221.297447
 21
164.2435
 31
0.0
  0
LINE
  8
LC-001-002-----0
  6
CONTINUOUS
  5
93
 10
242.097547
 20
231.2435
 30
0.0
 11
242.097547
 21
146.2435
 31
0.0
  0
LINE
  8
LC-001-002-----0
  6
CONTINUOUS
  5
94
 10
221.297447
 20
164.2435
 30
0.0
 11
225.147447
 21
163.8935
 31
0.0
  0
LINE
  8
LC-001-002-----0
  6
CONTINUOUS
  5
95
 10
260.671655
 20
232.7435
 30
0.0
 11
241.671655
 21
232.7435
 31
0.0
  0
LINE
  8
LC-001-002-----0
  6
DASHDOT
 62
     2
  5
97
 10
219.671655
 20
188.7435
 30
0.0
 11
260.671655
 21
188.7435
 31
0.0
  0
LINE
  8
LC-001-002-----0
  6
CONTINUOUS
  5
98
 10
225.776112
 20
156.324386
 30
0.0
 11
225.776112
 21
162.2435
 31
0.0
  0
LINE
  8
LC-001-002-----0
  6
CONTINUOUS
  5
99
 10
241.671655
 20
232.7435
 30
0.0
 11
224.671655
 21
222.2435
 31
0.0
  0
LINE
  8
LC-001-002-----0
  6
CONTINUOUS
  5
9A
 10
220.171655
 20
163.7435
 30
0.0
 11
221.297447
 21
163.7435
 31
0.0
  0
LINE
  8
LC-001-002-----0
  6
CONTINUOUS
  5
9B
 10
260.671655
 20
144.7435
 30
0.0
 11
260.671655
 21
146.2435
 31
0.0
  0
LINE
  8
LC-001-002-----0
  6
CONTINUOUS
  5
9C
 10
260.671655
 20
231.2435
 30
0.0
 11
260.671655
 21
232.7435
 31
0.0
  0
LINE
  8
LC-001-002-----0
  6
CONTINUOUS
  5
9D
 10
219.740688
 20
162.98999
 30
0.0
 11
224.671655
 21
155.2435
 31
0.0
  0
LINE
  8
LC-001-002-----0
  6
CONTINUOUS
  5
9E
 10
224.671655
 20
155.2435
 30
0.0
 11
241.671655
 21
144.7435
 31
0.0
  0
LINE
  8
LC-001-002-----0
  6
CONTINUOUS
  5
9F
 10
241.671655
 20
144.7435
 30
0.0
 11
260.671655
 21
144.7435
 31
0.0
  0
LINE
  8
LC-001-002-----0
  6
CONTINUOUS
  5
A0
 10
242.097547
 20
146.2435
 30
0.0
 11
260.671655
 21
146.2435
 31
0.0
  0
LINE
  8
LC-001-002-----0
  6
CONTINUOUS
  5
A1
 10
225.147447
 20
163.8935
 30
0.0
 11
226.797447
 21
162.2435
 31
0.0
  0
LINE
  8
LC-001-002-----0
  6
CONTINUOUS
  5
A2
 10
260.671655
 20
231.2435
 30
0.0
 11
242.097547
 21
231.2435
 31
0.0
  0
LINE
  8
LC-001-002-----0
  6
CONTINUOUS
  5
A3
 10
242.097547
 20
231.2435
 30
0.0
 11
225.776112
 21
221.162614
 31
0.0
  0
LINE
  8
LC-001-002-----0
  6
CONTINUOUS
  5
A4
 10
221.657886
 20
162.740413
 30
0.0
 11
225.776112
 21
156.324386
 31
0.0
  0
LINE
  8
LC-001-002-----0
  6
CONTINUOUS
  5
A5
 10
225.776112
 20
156.324386
 30
0.0
 11
242.097547
 21
146.2435
 31
0.0
  0
LINE
  8
LC-001-002-----0
  6
CONTINUOUS
  5
A6
 10
226.797447
 20
162.2435
 30
0.0
 11
221.625954
 21
162.7435
 31
0.0
  0
ARC
  8
LC-006-002-RND-0
  6
CONTINUOUS
  5
A8
 10
220.171655
 20
163.2435
 30
0.0
 40
0.5
 50
90.0
 51
210.465545
  0
LINE
  8
LC-001-002-----0
  6
CONTINUOUS
  5
A9
 10
221.297447
 20
213.7435
 30
0.0
 11
221.297447
 21
213.2435
 31
0.0
  0
LINE
  8
LC-001-002-----0
  6
CONTINUOUS
  5
AA
 10
221.297447
 20
213.2435
 30
0.0
 11
225.147447
 21
213.5935
 31
0.0
  0
LINE
  8
LC-001-002-----0
  6
CONTINUOUS
  5
AB
 10
220.171655
 20
213.7435
 30
0.0
 11
221.297447
 21
213.7435
 31
0.0
  0
LINE
  8
LC-001-002-----0
  6
CONTINUOUS
  5
AC
 10
225.147447
 20
213.5935
 30
0.0
 11
226.797447
 21
215.2435
 31
0.0
  0
LINE
  8
LC-001-002-----0
  6
CONTINUOUS
  5
AD
 10
226.797447
 20
215.2435
 30
0.0
 11
221.625954
 21
214.7435
 31
0.0
  0
ARC
  8
LC-006-002-RND-0
  6
CONTINUOUS
  5
AE
 10
220.171655
 20
214.2435
 30
0.0
 40
0.5
 50
149.534455
 51
270.0
  0
LINE
  8
LC-001-002-----0
  6
CONTINUOUS
  5
AF
 10
219.740688
 20
214.49701
 30
0.0
 11
224.671655
 21
222.2435
 31
0.0
  0
LINE
  8
LC-001-002-----0
  6
CONTINUOUS
  5
B0
 10
221.657886
 20
214.746587
 30
0.0
 11
225.776112
 21
221.162614
 31
0.0
  0
LINE
  8
LC-001-002-----0
  6
CONTINUOUS
  5
B1
 10
225.776112
 20
221.162614
 30
0.0
 11
225.776112
 21
215.2435
 31
0.0
  0
LINE
  8
LC-001-002-----0
  6
CONTINUOUS
  5
B2
 10
226.797447
 20
215.2435
 30
0.0
 11
226.797447
 21
162.2435
 31
0.0
  0
ENDSEC
  0
EOF
