  0
SECTION
  2
HEADER
  9
$ACADVER
  1
AC1009
  9
$INSBASE
 10
0.0
 20
0.0
 30
0.0
  9
$EXTMIN
 10
0.0
 20
0.0
 30
0.0
  9
$EXTMAX
 10
840.0
 20
594.0
 30
0.0
  9
$LIMMIN
 10
0.0
 20
0.0
  9
$LIMMAX
 10
840.0
 20
594.0
  9
$ORTHOMODE
 70
     0
  9
$REGENMODE
 70
     1
  9
$FILLMODE
 70
     1
  9
$QTEXTMODE
 70
     0
  9
$MIRRTEXT
 70
     1
  9
$DRAGMODE
 70
     2
  9
$LTSCALE
 40
2.0
  9
$OSMODE
 70
     0
  9
$ATTMODE
 70
     1
  9
$TEXTSIZE
 40
0.2
  9
$TRACEWID
 40
0.05
  9
$TEXTSTYLE
  7
STANDARD
  9
$CLAYER
  8
0
  9
$CELTYPE
  6
BYLAYER
  9
$CECOLOR
 62
     7
  9
$DIMSCALE
 40
2.0
  9
$DIMASZ
 40
3.5
  9
$DIMEXO
 40
0.0625
  9
$DIMDLI
 40
0.38
  9
$DIMRND
 40
0.0
  9
$DIMDLE
 40
0.0
  9
$DIMEXE
 40
0.18
  9
$DIMTP
 40
0.0
  9
$DIMTM
 40
0.0
  9
$DIMTXT
 40
3.5
  9
$DIMCEN
 40
0.09
  9
$DIMTSZ
 40
0.0
  9
$DIMTOL
 70
     0
  9
$DIMLIM
 70
     0
  9
$DIMTIH
 70
     1
  9
$DIMTOH
 70
     1
  9
$DIMSE1
 70
     0
  9
$DIMSE2
 70
     0
  9
$DIMTAD
 70
     1
  9
$DIMZIN
 70
     0
  9
$DIMBLK
  1

  9
$DIMASO
 70
     1
  9
$DIMSHO
 70
     1
  9
$DIMPOST
  1

  9
$DIMAPOST
  1

  9
$DIMALT
 70
     0
  9
$DIMALTD
 70
     2
  9
$DIMALTF
 40
25.4
  9
$DIMLFAC
 40
1.0
  9
$DIMTOFL
 70
     0
  9
$DIMTVP
 40
0.0
  9
$DIMTIX
 70
     0
  9
$DIMSOXD
 70
     0
  9
$DIMSAH
 70
     0
  9
$DIMBLK1
  1

  9
$DIMBLK2
  1

  9
$DIMSTYLE
  2
STANDARD
  9
$DIMCLRD
 70
     0
  9
$DIMCLRE
 70
     0
  9
$DIMCLRT
 70
     0
  9
$DIMTFAC
 40
1.0
  9
$DIMGAP
 40
0.09
  9
$LUNITS
 70
     2
  9
$LUPREC
 70
     2
  9
$AXISMODE
 70
     0
  9
$AXISUNIT
 10
0.0
 20
0.0
  9
$SKETCHINC
 40
0.1
  9
$FILLETRAD
 40
0.0
  9
$AUNITS
 70
     0
  9
$AUPREC
 70
     0
  9
$MENU
  1
acad
  9
$ELEVATION
 40
0.0
  9
$PELEVATION
 40
0.0
  9
$THICKNESS
 40
0.0
  9
$LIMCHECK
 70
     0
  9
$BLIPMODE
 70
     1
  9
$CHAMFERA
 40
0.0
  9
$CHAMFERB
 40
0.0
  9
$SKPOLY
 70
     0
  9
$TDCREATE
 40
0.000000000
  9
$TDUPDATE
 40
0.000000000
  9
$TDINDWG
 40
0.0000000000
  9
$TDUSRTIMER
 40
0.0000000000
  9
$USRTIMER
 70
     1
  9
$ANGBASE
 50
0.0
  9
$ANGDIR
 70
     0
  9
$PDMODE
 70
     0
  9
$PDSIZE
 40
0.0
  9
$PLINEWID
 40
0.0
  9
$COORDS
 70
     0
  9
$SPLFRAME
 70
     0
  9
$SPLINETYPE
 70
     6
  9
$SPLINESEGS
 70
     8
  9
$ATTDIA
 70
     0
  9
$ATTREQ
 70
     1
  9
$HANDLING
 70
     1
  9
$HANDSEED
  5
3ED
  9
$SURFTAB1
 70
     6
  9
$SURFTAB2
 70
     6
  9
$SURFTYPE
 70
     6
  9
$SURFU
 70
     6
  9
$SURFV
 70
     6
  9
$UCSNAME
  2

  9
$UCSORG
 10
0.0
 20
0.0
 30
0.0
  9
$UCSXDIR
 10
1.0
 20
0.0
 30
0.0
  9
$UCSYDIR
 10
0.0
 20
1.0
 30
0.0
  9
$PUCSNAME
  2

  9
$PUCSORG
 10
0.0
 20
0.0
 30
0.0
  9
$PUCSXDIR
 10
1.0
 20
0.0
 30
0.0
  9
$PUCSYDIR
 10
0.0
 20
1.0
 30
0.0
  9
$USERI1
 70
     0
  9
$USERI2
 70
     0
  9
$USERI3
 70
     0
  9
$USERI4
 70
     0
  9
$USERI5
 70
     0
  9
$USERR1
 40
0.0
  9
$USERR2
 40
0.0
  9
$USERR3
 40
0.0
  9
$USERR4
 40
0.0
  9
$USERR5
 40
0.0
  9
$WORLDVIEW
 70
     1
  9
$SHADEDGE
 70
     3
  9
$SHADEDIF
 70
    70
  9
$TILEMODE
 70
     1
  9
$MAXACTVP
 70
    16
  9
$PINSBASE
 10
0.0
 20
0.0
 30
0.0
  9
$PLIMCHECK
 70
     0
  9
$PEXTMIN
 10
1.000000E+20
 20
1.000000E+20
 30
1.000000E+20
  9
$PEXTMAX
 10
-1.000000E+20
 20
-1.000000E+20
 30
-1.000000E+20
  9
$PLIMMIN
 10
0.0
 20
0.0
  9
$PLIMMAX
 10
840.0
 20
594.0
  9
$UNITMODE
 70
     0
  9
$VISRETAIN
 70
     0
  9
$PLINEGEN
 70
     1
  9
$PSLTSCALE
 70
     0
  9
$TREEDEPTH
 70
  3020
  9
$DWGCODEPAGE
  3
dos850
  0
ENDSEC
  0
SECTION
  2
TABLES
  0
TABLE
  2
VPORT
 70
     1
  0
VPORT
  2
*ACTIVE
 70
     0
 10
0.0
 20
0.0
 11
1.0
 21
1.0
 12
420.0
 22
297.0
 13
0.0
 23
0.0
 14
1.0
 24
1.0
 15
0.0
 25
0.0
 16
0.0
 26
0.0
 36
1.0
 17
0.0
 27
0.0
 37
0.0
 40
594.0
 41
1.604229
 42
50.0
 43
0.0
 44
0.0
 50
0.0
 51
0.0
 71
     0
 72
   100
 73
     1
 74
     1
 75
     0
 76
     0
 77
     0
 78
     0
  0
ENDTAB
  0
TABLE
  2
LTYPE
 70
     3
  0
LTYPE
  2
CONTINUOUS
 70
    64
  3
Solid line
 72
    65
 73
     0
 40
0.0
  0
LTYPE
  2
DASHDOT
 70
    64
  3
__ . __ . __ . __ . __
 72
    65
 73
     4
 40
7.5
 49
5.0
 49
-1.25
 49
0.0
 49
-1.25
  0
LTYPE
  2
CENTER
 70
    64
  3
__ . __ . __ . __ . __
 72
    65
 73
     4
 40
7.5
 49
5.0
 49
-1.25
 49
0.0
 49
-1.25
  0
ENDTAB
  0
TABLE
  2
LAYER
 70
    11
  0
LAYER
  2
0
 70
     0
 62
     7
  6
CONTINUOUS
  0
LAYER
  2
LC-INFO-1-2-MM-A3-0
 70
     1
 62
    -1
  6
CONTINUOUS
  0
LAYER
  2
LC-003-005-----0
 70
     0
 62
     2
  6
CONTINUOUS
  0
LAYER
  2
LC-006-003-MTH-0
 70
     0
 62
     2
  6
CONTINUOUS
  0
LAYER
  2
LC-007-003-MTG-0
 70
     0
 62
     2
  6
CONTINUOUS
  0
LAYER
  2
LC-005-003-----0
 70
     0
 62
     2
  6
CONTINUOUS
  0
LAYER
  2
LC-008-000-----0
 70
     0
 62
     7
  6
CONTINUOUS
  0
LAYER
  2
LC-001-002-----0
 70
     0
 62
     2
  6
DASHDOT
  0
LAYER
  2
LC-002-002-RND-0
 70
     0
 62
     1
  6
CONTINUOUS
  0
LAYER
  2
LC-004-006-MLN-0
 70
     0
 62
     2
  6
CENTER
  0
LAYER
  2
LC-000
 70
     0
 62
     7
  6
CONTINUOUS
  0
ENDTAB
  0
TABLE
  2
STYLE
 70
     4
  0
STYLE
  2
STANDARD
 70
     0
 40
0.0
 41
1.0
 50
0.0
 71
     0
 42
0.0
  3
txt
  4

  0
STYLE
  2
LC-STANDARD
 70
    64
 40
0.0
 41
1.0
 50
0.0
 71
     0
 42
3.5
  3
MONOTXT
  4

  0
STYLE
  2
LC-TXTSTYLE-150-400-0-0-D2
 70
    64
 40
0.0
 41
1.0
 50
15.0
 71
     0
 42
3.5
  3
MONOTXT
  4

  0
STYLE
  2
LC-TXTSTYLE-150-400-0-0-D3
 70
    64
 40
0.0
 41
1.0
 50
15.0
 71
     0
 42
3.5
  3
LC-STANDARD
  4

  0
ENDTAB
  0
TABLE
  2
VIEW
 70
     0
  0
ENDTAB
  0
TABLE
  2
UCS
 70
     0
  0
ENDTAB
  0
TABLE
  2
APPID
 70
     1
  0
APPID
  2
ACAD
 70
     0
  0
ENDTAB
  0
TABLE
  2
DIMSTYLE
 70
     3
  0
DIMSTYLE
  2
STANDARD
 70
     0
  3

  4

  5

  6

  7

 40
1.0
 41
0.18
 42
0.0625
 43
0.38
 44
0.18
 45
0.0
 46
0.0
 47
0.0
 48
0.0
 71
     0
 72
     0
 73
     1
 74
     1
 75
     0
 76
     0
 77
     0
 78
     0
140
0.18
141
0.09
142
0.0
143
25.4
144
1.0
145
0.0
146
1.0
147
0.09
170
     0
171
     2
172
     0
173
     0
174
     0
175
     0
176
     0
177
     0
178
     0
  0
DIMSTYLE
  2
LC-STANDARD
 70
     0
  3

  4

  5

  6

  7

 40
1.0
 41
3.5
 42
0.0
 43
7.5
 44
1.8
 45
0.0
 46
0.0
 47
0.0
 48
0.0
 71
     0
 72
     0
 73
     0
 74
     0
 75
     0
 76
     0
 77
     1
 78
     8
140
3.5
141
0.0
142
0.0
143
25.4
144
1.0
145
0.0
146
0.71
147
1.5
170
     0
171
     2
172
     1
173
     0
174
     0
175
     0
176
     0
177
     0
178
     3
  0
DIMSTYLE
  2
LC-DIM-L-0090-02-02
 70
     0
  3

  4

  5

  6

  7

 40
2.0
 41
3.5
 42
0.0
 43
7.5
 44
1.8
 45
0.0
 46
0.0
 47
0.0
 48
0.0
 71
     0
 72
     0
 73
     0
 74
     0
 75
     0
 76
     0
 77
     1
 78
     8
140
9.0
141
0.0
142
0.0
143
25.4
144
1.0
145
0.0
146
0.71
147
1.5
170
     0
171
     2
172
     0
173
     0
174
     0
175
     0
176
     2
177
     2
178
     6
  0
ENDTAB
  0
ENDSEC
  0
SECTION
  2
BLOCKS
  0
BLOCK
  8
0
  5
23
  2
*X0
 70
    65
 10
222.105754
 20
269.156
 30
0.0
  3
*X0
  0
LINE
  8
LC-003-005-----0
  6
CONTINUOUS
  5
25
 10
223.618323
 20
269.156
 30
0.0
 11
223.78086
 21
269.318537
 31
0.0
  0
LINE
  8
LC-003-005-----0
  6
CONTINUOUS
  5
26
 10
223.335481
 20
269.156
 30
0.0
 11
223.78086
 21
269.60138
 31
0.0
  0
LINE
  8
LC-003-005-----0
  6
CONTINUOUS
  5
27
 10
223.052638
 20
269.156
 30
0.0
 11
223.552638
 21
269.656
 31
0.0
  0
LINE
  8
LC-003-005-----0
  6
CONTINUOUS
  5
28
 10
222.769795
 20
269.156
 30
0.0
 11
223.269795
 21
269.656
 31
0.0
  0
LINE
  8
LC-003-005-----0
  6
CONTINUOUS
  5
29
 10
222.486952
 20
269.156
 30
0.0
 11
222.986952
 21
269.656
 31
0.0
  0
LINE
  8
LC-003-005-----0
  6
CONTINUOUS
  5
2A
 10
222.20411
 20
269.156
 30
0.0
 11
222.70411
 21
269.656
 31
0.0
  0
LINE
  8
LC-003-005-----0
  6
CONTINUOUS
  5
2B
 10
222.105754
 20
269.340487
 30
0.0
 11
222.421267
 21
269.656
 31
0.0
  0
LINE
  8
LC-003-005-----0
  6
CONTINUOUS
  5
2C
 10
222.105754
 20
269.62333
 30
0.0
 11
222.138424
 21
269.656
 31
0.0
  0
ENDBLK
  8
0
  5
2D
  0
BLOCK
  8
0
  5
2F
  2
*X1
 70
    65
 10
255.78086
 20
269.156
 30
0.0
  3
*X1
  0
LINE
  8
LC-003-005-----0
  6
CONTINUOUS
  5
30
 10
257.276606
 20
269.156
 30
0.0
 11
257.455966
 21
269.33536
 31
0.0
  0
LINE
  8
LC-003-005-----0
  6
CONTINUOUS
  5
31
 10
256.993763
 20
269.156
 30
0.0
 11
257.455966
 21
269.618203
 31
0.0
  0
LINE
  8
LC-003-005-----0
  6
CONTINUOUS
  5
32
 10
256.710921
 20
269.156
 30
0.0
 11
257.210921
 21
269.656
 31
0.0
  0
LINE
  8
LC-003-005-----0
  6
CONTINUOUS
  5
33
 10
256.428078
 20
269.156
 30
0.0
 11
256.928078
 21
269.656
 31
0.0
  0
LINE
  8
LC-003-005-----0
  6
CONTINUOUS
  5
34
 10
256.145235
 20
269.156
 30
0.0
 11
256.645235
 21
269.656
 31
0.0
  0
LINE
  8
LC-003-005-----0
  6
CONTINUOUS
  5
35
 10
255.862393
 20
269.156
 30
0.0
 11
256.362393
 21
269.656
 31
0.0
  0
LINE
  8
LC-003-005-----0
  6
CONTINUOUS
  5
36
 10
255.78086
 20
269.35731
 30
0.0
 11
256.07955
 21
269.656
 31
0.0
  0
LINE
  8
LC-003-005-----0
  6
CONTINUOUS
  5
37
 10
255.78086
 20
269.640153
 30
0.0
 11
255.796707
 21
269.656
 31
0.0
  0
ENDBLK
  8
0
  5
38
  0
BLOCK
  8
0
  5
3A
  2
*X2
 70
    65
 10
255.78086
 20
259.156
 30
0.0
  3
*X2
  0
LINE
  8
LC-003-005-----0
  6
CONTINUOUS
  5
3B
 10
257.452291
 20
268.635154
 30
0.0
 11
257.431445
 21
268.656
 31
0.0
  0
LINE
  8
LC-003-005-----0
  6
CONTINUOUS
  5
3C
 10
257.409894
 20
268.394709
 30
0.0
 11
257.148602
 21
268.656
 31
0.0
  0
LINE
  8
LC-003-005-----0
  6
CONTINUOUS
  5
3D
 10
257.367497
 20
268.154263
 30
0.0
 11
256.86576
 21
268.656
 31
0.0
  0
LINE
  8
LC-003-005-----0
  6
CONTINUOUS
  5
3E
 10
257.3251
 20
267.913817
 30
0.0
 11
256.582917
 21
268.656
 31
0.0
  0
LINE
  8
LC-003-005-----0
  6
CONTINUOUS
  5
3F
 10
257.282703
 20
267.673372
 30
0.0
 11
256.300074
 21
268.656
 31
0.0
  0
LINE
  8
LC-003-005-----0
  6
CONTINUOUS
  5
40
 10
257.240306
 20
267.432926
 30
0.0
 11
256.017232
 21
268.656
 31
0.0
  0
LINE
  8
LC-003-005-----0
  6
CONTINUOUS
  5
41
 10
257.197908
 20
267.19248
 30
0.0
 11
255.78086
 21
268.609529
 31
0.0
  0
LINE
  8
LC-003-005-----0
  6
CONTINUOUS
  5
42
 10
257.155511
 20
266.952035
 30
0.0
 11
255.78086
 21
268.326686
 31
0.0
  0
LINE
  8
LC-003-005-----0
  6
CONTINUOUS
  5
43
 10
257.113114
 20
266.711589
 30
0.0
 11
255.78086
 21
268.043843
 31
0.0
  0
LINE
  8
LC-003-005-----0
  6
CONTINUOUS
  5
44
 10
257.070717
 20
266.471143
 30
0.0
 11
255.78086
 21
267.761001
 31
0.0
  0
LINE
  8
LC-003-005-----0
  6
CONTINUOUS
  5
45
 10
257.02832
 20
266.230698
 30
0.0
 11
255.78086
 21
267.478158
 31
0.0
  0
LINE
  8
LC-003-005-----0
  6
CONTINUOUS
  5
46
 10
256.985923
 20
265.990252
 30
0.0
 11
255.78086
 21
267.195315
 31
0.0
  0
LINE
  8
LC-003-005-----0
  6
CONTINUOUS
  5
47
 10
256.943526
 20
265.749807
 30
0.0
 11
255.78086
 21
266.912473
 31
0.0
  0
LINE
  8
LC-003-005-----0
  6
CONTINUOUS
  5
48
 10
256.901129
 20
265.509361
 30
0.0
 11
255.78086
 21
266.62963
 31
0.0
  0
LINE
  8
LC-003-005-----0
  6
CONTINUOUS
  5
49
 10
256.858732
 20
265.268915
 30
0.0
 11
255.78086
 21
266.346787
 31
0.0
  0
LINE
  8
LC-003-005-----0
  6
CONTINUOUS
  5
4A
 10
256.816335
 20
265.02847
 30
0.0
 11
255.78086
 21
266.063944
 31
0.0
  0
LINE
  8
LC-003-005-----0
  6
CONTINUOUS
  5
4B
 10
256.773938
 20
264.788024
 30
0.0
 11
255.78086
 21
265.781102
 31
0.0
  0
LINE
  8
LC-003-005-----0
  6
CONTINUOUS
  5
4C
 10
256.731541
 20
264.547578
 30
0.0
 11
255.78086
 21
265.498259
 31
0.0
  0
LINE
  8
LC-003-005-----0
  6
CONTINUOUS
  5
4D
 10
256.689144
 20
264.307133
 30
0.0
 11
255.78086
 21
265.215416
 31
0.0
  0
LINE
  8
LC-003-005-----0
  6
CONTINUOUS
  5
4E
 10
256.646747
 20
264.066687
 30
0.0
 11
255.78086
 21
264.932574
 31
0.0
  0
LINE
  8
LC-003-005-----0
  6
CONTINUOUS
  5
4F
 10
256.60435
 20
263.826241
 30
0.0
 11
255.78086
 21
264.649731
 31
0.0
  0
LINE
  8
LC-003-005-----0
  6
CONTINUOUS
  5
50
 10
256.561953
 20
263.585796
 30
0.0
 11
255.78086
 21
264.366888
 31
0.0
  0
LINE
  8
LC-003-005-----0
  6
CONTINUOUS
  5
51
 10
256.519556
 20
263.34535
 30
0.0
 11
255.78086
 21
264.084045
 31
0.0
  0
LINE
  8
LC-003-005-----0
  6
CONTINUOUS
  5
52
 10
256.477159
 20
263.104904
 30
0.0
 11
255.78086
 21
263.801203
 31
0.0
  0
LINE
  8
LC-003-005-----0
  6
CONTINUOUS
  5
53
 10
256.434761
 20
262.864459
 30
0.0
 11
255.78086
 21
263.51836
 31
0.0
  0
LINE
  8
LC-003-005-----0
  6
CONTINUOUS
  5
54
 10
256.392364
 20
262.624013
 30
0.0
 11
255.78086
 21
263.235517
 31
0.0
  0
LINE
  8
LC-003-005-----0
  6
CONTINUOUS
  5
55
 10
256.349967
 20
262.383567
 30
0.0
 11
255.78086
 21
262.952675
 31
0.0
  0
LINE
  8
LC-003-005-----0
  6
CONTINUOUS
  5
56
 10
256.30757
 20
262.143122
 30
0.0
 11
255.78086
 21
262.669832
 31
0.0
  0
LINE
  8
LC-003-005-----0
  6
CONTINUOUS
  5
57
 10
256.265173
 20
261.902676
 30
0.0
 11
255.78086
 21
262.386989
 31
0.0
  0
LINE
  8
LC-003-005-----0
  6
CONTINUOUS
  5
58
 10
256.222776
 20
261.66223
 30
0.0
 11
255.78086
 21
262.104146
 31
0.0
  0
LINE
  8
LC-003-005-----0
  6
CONTINUOUS
  5
59
 10
256.180379
 20
261.421785
 30
0.0
 11
255.78086
 21
261.821304
 31
0.0
  0
LINE
  8
LC-003-005-----0
  6
CONTINUOUS
  5
5A
 10
256.137982
 20
261.181339
 30
0.0
 11
255.78086
 21
261.538461
 31
0.0
  0
LINE
  8
LC-003-005-----0
  6
CONTINUOUS
  5
5B
 10
256.095585
 20
260.940893
 30
0.0
 11
255.78086
 21
261.255618
 31
0.0
  0
LINE
  8
LC-003-005-----0
  6
CONTINUOUS
  5
5C
 10
256.053188
 20
260.700448
 30
0.0
 11
255.78086
 21
260.972776
 31
0.0
  0
LINE
  8
LC-003-005-----0
  6
CONTINUOUS
  5
5D
 10
256.010791
 20
260.460002
 30
0.0
 11
255.78086
 21
260.689933
 31
0.0
  0
LINE
  8
LC-003-005-----0
  6
CONTINUOUS
  5
5E
 10
255.968394
 20
260.219556
 30
0.0
 11
255.78086
 21
260.40709
 31
0.0
  0
LINE
  8
LC-003-005-----0
  6
CONTINUOUS
  5
5F
 10
255.925997
 20
259.979111
 30
0.0
 11
255.78086
 21
260.124247
 31
0.0
  0
LINE
  8
LC-003-005-----0
  6
CONTINUOUS
  5
60
 10
255.8836
 20
259.738665
 30
0.0
 11
255.78086
 21
259.841405
 31
0.0
  0
LINE
  8
LC-003-005-----0
  6
CONTINUOUS
  5
61
 10
255.841203
 20
259.498219
 30
0.0
 11
255.78086
 21
259.558562
 31
0.0
  0
LINE
  8
LC-003-005-----0
  6
CONTINUOUS
  5
62
 10
255.798806
 20
259.257774
 30
0.0
 11
255.78086
 21
259.275719
 31
0.0
  0
ENDBLK
  8
0
  5
63
  0
BLOCK
  8
0
  5
65
  2
*X3
 70
    65
 10
222.105754
 20
259.156
 30
0.0
  3
*X3
  0
LINE
  8
LC-003-005-----0
  6
CONTINUOUS
  5
66
 10
223.78086
 20
268.648302
 30
0.0
 11
223.773162
 21
268.656
 31
0.0
  0
LINE
  8
LC-003-005-----0
  6
CONTINUOUS
  5
67
 10
223.78086
 20
268.36546
 30
0.0
 11
223.49032
 21
268.656
 31
0.0
  0
LINE
  8
LC-003-005-----0
  6
CONTINUOUS
  5
68
 10
223.78086
 20
268.082617
 30
0.0
 11
223.207477
 21
268.656
 31
0.0
  0
LINE
  8
LC-003-005-----0
  6
CONTINUOUS
  5
69
 10
223.78086
 20
267.799774
 30
0.0
 11
222.924634
 21
268.656
 31
0.0
  0
LINE
  8
LC-003-005-----0
  6
CONTINUOUS
  5
6A
 10
223.78086
 20
267.516931
 30
0.0
 11
222.641792
 21
268.656
 31
0.0
  0
LINE
  8
LC-003-005-----0
  6
CONTINUOUS
  5
6B
 10
223.78086
 20
267.234089
 30
0.0
 11
222.358949
 21
268.656
 31
0.0
  0
LINE
  8
LC-003-005-----0
  6
CONTINUOUS
  5
6C
 10
223.78086
 20
266.951246
 30
0.0
 11
222.112101
 21
268.620006
 31
0.0
  0
LINE
  8
LC-003-005-----0
  6
CONTINUOUS
  5
6D
 10
223.78086
 20
266.668403
 30
0.0
 11
222.17265
 21
268.276614
 31
0.0
  0
LINE
  8
LC-003-005-----0
  6
CONTINUOUS
  5
6E
 10
223.78086
 20
266.385561
 30
0.0
 11
222.233199
 21
267.933222
 31
0.0
  0
LINE
  8
LC-003-005-----0
  6
CONTINUOUS
  5
6F
 10
223.78086
 20
266.102718
 30
0.0
 11
222.293748
 21
267.58983
 31
0.0
  0
LINE
  8
LC-003-005-----0
  6
CONTINUOUS
  5
70
 10
223.78086
 20
265.819875
 30
0.0
 11
222.354298
 21
267.246438
 31
0.0
  0
LINE
  8
LC-003-005-----0
  6
CONTINUOUS
  5
71
 10
223.78086
 20
265.537032
 30
0.0
 11
222.414847
 21
266.903046
 31
0.0
  0
LINE
  8
LC-003-005-----0
  6
CONTINUOUS
  5
72
 10
223.78086
 20
265.25419
 30
0.0
 11
222.475396
 21
266.559654
 31
0.0
  0
LINE
  8
LC-003-005-----0
  6
CONTINUOUS
  5
73
 10
223.78086
 20
264.971347
 30
0.0
 11
222.535946
 21
266.216262
 31
0.0
  0
LINE
  8
LC-003-005-----0
  6
CONTINUOUS
  5
74
 10
223.78086
 20
264.688504
 30
0.0
 11
222.596495
 21
265.87287
 31
0.0
  0
LINE
  8
LC-003-005-----0
  6
CONTINUOUS
  5
75
 10
223.78086
 20
264.405662
 30
0.0
 11
222.657044
 21
265.529478
 31
0.0
  0
LINE
  8
LC-003-005-----0
  6
CONTINUOUS
  5
76
 10
223.78086
 20
264.122819
 30
0.0
 11
222.717593
 21
265.186086
 31
0.0
  0
LINE
  8
LC-003-005-----0
  6
CONTINUOUS
  5
77
 10
223.78086
 20
263.839976
 30
0.0
 11
222.778143
 21
264.842694
 31
0.0
  0
LINE
  8
LC-003-005-----0
  6
CONTINUOUS
  5
78
 10
223.78086
 20
263.557133
 30
0.0
 11
222.838692
 21
264.499302
 31
0.0
  0
LINE
  8
LC-003-005-----0
  6
CONTINUOUS
  5
79
 10
223.78086
 20
263.274291
 30
0.0
 11
222.899241
 21
264.15591
 31
0.0
  0
LINE
  8
LC-003-005-----0
  6
CONTINUOUS
  5
7A
 10
223.78086
 20
262.991448
 30
0.0
 11
222.95979
 21
263.812518
 31
0.0
  0
LINE
  8
LC-003-005-----0
  6
CONTINUOUS
  5
7B
 10
223.78086
 20
262.708605
 30
0.0
 11
223.02034
 21
263.469126
 31
0.0
  0
LINE
  8
LC-003-005-----0
  6
CONTINUOUS
  5
7C
 10
223.78086
 20
262.425763
 30
0.0
 11
223.080889
 21
263.125734
 31
0.0
  0
LINE
  8
LC-003-005-----0
  6
CONTINUOUS
  5
7D
 10
223.78086
 20
262.14292
 30
0.0
 11
223.141438
 21
262.782342
 31
0.0
  0
LINE
  8
LC-003-005-----0
  6
CONTINUOUS
  5
7E
 10
223.78086
 20
261.860077
 30
0.0
 11
223.201988
 21
262.43895
 31
0.0
  0
LINE
  8
LC-003-005-----0
  6
CONTINUOUS
  5
7F
 10
223.78086
 20
261.577234
 30
0.0
 11
223.262537
 21
262.095558
 31
0.0
  0
LINE
  8
LC-003-005-----0
  6
CONTINUOUS
  5
80
 10
223.78086
 20
261.294392
 30
0.0
 11
223.323086
 21
261.752166
 31
0.0
  0
LINE
  8
LC-003-005-----0
  6
CONTINUOUS
  5
81
 10
223.78086
 20
261.011549
 30
0.0
 11
223.383635
 21
261.408774
 31
0.0
  0
LINE
  8
LC-003-005-----0
  6
CONTINUOUS
  5
82
 10
223.78086
 20
260.728706
 30
0.0
 11
223.444185
 21
261.065382
 31
0.0
  0
LINE
  8
LC-003-005-----0
  6
CONTINUOUS
  5
83
 10
223.78086
 20
260.445864
 30
0.0
 11
223.504734
 21
260.72199
 31
0.0
  0
LINE
  8
LC-003-005-----0
  6
CONTINUOUS
  5
84
 10
223.78086
 20
260.163021
 30
0.0
 11
223.565283
 21
260.378598
 31
0.0
  0
LINE
  8
LC-003-005-----0
  6
CONTINUOUS
  5
85
 10
223.78086
 20
259.880178
 30
0.0
 11
223.625832
 21
260.035206
 31
0.0
  0
LINE
  8
LC-003-005-----0
  6
CONTINUOUS
  5
86
 10
223.78086
 20
259.597335
 30
0.0
 11
223.686382
 21
259.691814
 31
0.0
  0
LINE
  8
LC-003-005-----0
  6
CONTINUOUS
  5
87
 10
223.78086
 20
259.314493
 30
0.0
 11
223.746931
 21
259.348422
 31
0.0
  0
ENDBLK
  8
0
  5
88
  0
BLOCK
  8
0
  5
8A
  2
*X4
 70
    65
 10
214.78086
 20
258.156
 30
0.0
  3
*X4
  0
LINE
  8
LC-003-005-----0
  6
CONTINUOUS
  5
8B
 10
218.55802
 20
258.156
 30
0.0
 11
218.78086
 21
258.37884
 31
0.0
  0
LINE
  8
LC-003-005-----0
  6
CONTINUOUS
  5
8C
 10
215.729593
 20
258.156
 30
0.0
 11
218.78086
 21
261.207267
 31
0.0
  0
LINE
  8
LC-003-005-----0
  6
CONTINUOUS
  5
8D
 10
214.78086
 20
260.035694
 30
0.0
 11
215.401166
 21
260.656
 31
0.0
  0
LINE
  8
LC-003-005-----0
  6
CONTINUOUS
  5
8E
 10
216.78086
 20
262.035694
 30
0.0
 11
218.78086
 21
264.035694
 31
0.0
  0
LINE
  8
LC-003-005-----0
  6
CONTINUOUS
  5
8F
 10
216.78086
 20
264.864121
 30
0.0
 11
218.78086
 21
266.864121
 31
0.0
  0
LINE
  8
LC-003-005-----0
  6
CONTINUOUS
  5
90
 10
222.072739
 20
270.156
 30
0.0
 11
223.615194
 21
271.698456
 31
0.0
  0
LINE
  8
LC-003-005-----0
  6
CONTINUOUS
  5
91
 10
216.78086
 20
267.692548
 30
0.0
 11
218.78086
 21
269.692548
 31
0.0
  0
LINE
  8
LC-003-005-----0
  6
CONTINUOUS
  5
92
 10
219.244312
 20
270.156
 30
0.0
 11
222.800246
 21
273.711934
 31
0.0
  0
LINE
  8
LC-003-005-----0
  6
CONTINUOUS
  5
93
 10
216.78086
 20
270.520976
 30
0.0
 11
220.902157
 21
274.642273
 31
0.0
  0
ENDBLK
  8
0
  5
94
  0
BLOCK
  8
0
  5
96
  2
*X5
 70
    65
 10
469.179786
 20
138.518535
 30
0.0
  3
*X5
  0
LINE
  8
LC-003-005-----0
  6
CONTINUOUS
  5
97
 10
472.915451
 20
238.156
 30
0.0
 11
473.179102
 21
238.41965
 31
0.0
  0
LINE
  8
LC-003-005-----0
  6
CONTINUOUS
  5
98
 10
470.087024
 20
238.156
 30
0.0
 11
471.587024
 21
239.656
 31
0.0
  0
LINE
  8
LC-003-005-----0
  6
CONTINUOUS
  5
99
 10
469.192127
 20
240.08953
 30
0.0
 11
470.728823
 21
241.626225
 31
0.0
  0
LINE
  8
LC-003-005-----0
  6
CONTINUOUS
  5
9A
 10
469.28054
 20
243.00637
 30
0.0
 11
470.867276
 21
244.593106
 31
0.0
  0
LINE
  8
LC-003-005-----0
  6
CONTINUOUS
  5
9B
 10
469.461202
 20
246.015459
 30
0.0
 11
471.104812
 21
247.659069
 31
0.0
  0
LINE
  8
LC-003-005-----0
  6
CONTINUOUS
  5
9C
 10
469.744047
 20
249.126732
 30
0.0
 11
471.452923
 21
250.835608
 31
0.0
  0
LINE
  8
LC-003-005-----0
  6
CONTINUOUS
  5
9D
 10
470.141288
 20
252.352399
 30
0.0
 11
471.925932
 21
254.137043
 31
0.0
  0
LINE
  8
LC-003-005-----0
  6
CONTINUOUS
  5
9E
 10
470.668208
 20
255.707747
 30
0.0
 11
472.542063
 21
257.581602
 31
0.0
  0
LINE
  8
LC-003-005-----0
  6
CONTINUOUS
  5
9F
 10
471.344383
 20
259.212349
 30
0.0
 11
473.325136
 21
261.193101
 31
0.0
  0
LINE
  8
LC-003-005-----0
  6
CONTINUOUS
  5
A0
 10
472.195585
 20
262.891978
 30
0.0
 11
474.307316
 21
265.003709
 31
0.0
  0
LINE
  8
LC-003-005-----0
  6
CONTINUOUS
  5
A1
 10
477.410188
 20
268.106581
 30
0.0
 11
477.4386
 21
268.134993
 31
0.0
  0
LINE
  8
LC-003-005-----0
  6
CONTINUOUS
  5
A2
 10
473.788345
 20
267.313165
 30
0.0
 11
475.098599
 21
268.623419
 31
0.0
  0
ENDBLK
  8
0
  5
A3
  0
BLOCK
  8
0
  5
A5
  2
*D6
 70
    65
 10
0.0
 20
0.0
 30
0.0
  3
*D6
  0
LINE
  8
LC-006-003-MTH-0
  6
CONTINUOUS
  5
A7
 10
239.78086
 20
241.782634
 30
0.0
 11
239.78086
 21
149.2
 31
0.0
  0
LINE
  8
LC-006-003-MTH-0
  6
CONTINUOUS
  5
A8
 10
539.78086
 20
222.156
 30
0.0
 11
539.78086
 21
149.2
 31
0.0
  0
LINE
  8
LC-007-003-MTG-0
  6
CONTINUOUS
  5
AA
 10
239.78086
 20
160.0
 30
0.0
 11
539.78086
 21
160.0
 31
0.0
  0
LINE
  8
LC-005-003-----0
  6
CONTINUOUS
  5
AC
 10
257.626868
 20
162.349471
 30
0.0
 11
239.78086
 21
160.0
 31
0.0
  0
LINE
  8
LC-005-003-----0
  6
CONTINUOUS
  5
AD
 10
239.78086
 20
160.0
 30
0.0
 11
257.626868
 21
157.650529
 31
0.0
  0
LINE
  8
LC-005-003-----0
  6
CONTINUOUS
  5
AE
 10
257.626868
 20
157.650529
 30
0.0
 11
257.626868
 21
162.349471
 31
0.0
  0
LINE
  8
LC-005-003-----0
  6
CONTINUOUS
  5
AF
 10
257.666906
 20
161.738609
 30
0.0
 11
244.46086
 21
160.0
 31
0.0
  0
LINE
  8
LC-005-003-----0
  6
CONTINUOUS
  5
B0
 10
244.46086
 20
160.0
 30
0.0
 11
257.666906
 21
158.261391
 31
0.0
  0
LINE
  8
LC-005-003-----0
  6
CONTINUOUS
  5
B1
 10
257.706944
 20
161.127746
 30
0.0
 11
249.14086
 21
160.0
 31
0.0
  0
LINE
  8
LC-005-003-----0
  6
CONTINUOUS
  5
B2
 10
249.14086
 20
160.0
 30
0.0
 11
257.706944
 21
158.872254
 31
0.0
  0
LINE
  8
LC-005-003-----0
  6
CONTINUOUS
  5
B3
 10
257.746982
 20
160.516884
 30
0.0
 11
253.82086
 21
160.0
 31
0.0
  0
LINE
  8
LC-005-003-----0
  6
CONTINUOUS
  5
B4
 10
253.82086
 20
160.0
 30
0.0
 11
257.746982
 21
159.483116
 31
0.0
  0
LINE
  8
LC-005-003-----0
  6
CONTINUOUS
  5
B5
 10
521.934853
 20
157.650529
 30
0.0
 11
539.78086
 21
160.0
 31
0.0
  0
LINE
  8
LC-005-003-----0
  6
CONTINUOUS
  5
B6
 10
539.78086
 20
160.0
 30
0.0
 11
521.934853
 21
162.349471
 31
0.0
  0
LINE
  8
LC-005-003-----0
  6
CONTINUOUS
  5
B7
 10
521.934853
 20
162.349471
 30
0.0
 11
521.934853
 21
157.650529
 31
0.0
  0
LINE
  8
LC-005-003-----0
  6
CONTINUOUS
  5
B8
 10
521.894815
 20
158.261391
 30
0.0
 11
535.10086
 21
160.0
 31
0.0
  0
LINE
  8
LC-005-003-----0
  6
CONTINUOUS
  5
B9
 10
535.10086
 20
160.0
 30
0.0
 11
521.894815
 21
161.738609
 31
0.0
  0
LINE
  8
LC-005-003-----0
  6
CONTINUOUS
  5
BA
 10
521.854777
 20
158.872254
 30
0.0
 11
530.42086
 21
160.0
 31
0.0
  0
LINE
  8
LC-005-003-----0
  6
CONTINUOUS
  5
BB
 10
530.42086
 20
160.0
 30
0.0
 11
521.854777
 21
161.127746
 31
0.0
  0
LINE
  8
LC-005-003-----0
  6
CONTINUOUS
  5
BC
 10
521.814738
 20
159.483116
 30
0.0
 11
525.74086
 21
160.0
 31
0.0
  0
LINE
  8
LC-005-003-----0
  6
CONTINUOUS
  5
BD
 10
525.74086
 20
160.0
 30
0.0
 11
521.814738
 21
160.516884
 31
0.0
  0
TEXT
  8
LC-005-003-----0
  6
CONTINUOUS
 62
     6
  5
BF
 10
342.00202
 20
170.431999
 30
0.0
 40
18.0
  1
300
 41
0.9
 51
15.0
  7
LC-TXTSTYLE-150-400-0-0-D0
 72
     1
 11
361.135878
 21
170.431999
 31
0.0
  0
ENDBLK
  8
0
  5
C0
  0
BLOCK
  8
0
  5
C2
  2
BLK1
 70
    64
 10
0.0
 20
0.0
 30
0.0
  3
BLK1
  0
ENDBLK
  8
0
  5
C3
  0
BLOCK
  8
0
  5
C5
  2
*X8
 70
    65
 10
469.179786
 20
105.793465
 30
0.0
  3
*X8
  0
LINE
  8
LC-003-005-----0
  6
CONTINUOUS
  5
C6
 10
477.322525
 20
174.680823
 30
0.0
 11
477.4386
 21
174.796898
 31
0.0
  0
LINE
  8
LC-003-005-----0
  6
CONTINUOUS
  5
C7
 10
475.336748
 20
175.523473
 30
0.0
 11
476.427514
 21
176.614238
 31
0.0
  0
LINE
  8
LC-003-005-----0
  6
CONTINUOUS
  5
C8
 10
473.871911
 20
176.887063
 30
0.0
 11
474.945
 21
177.960152
 31
0.0
  0
LINE
  8
LC-003-005-----0
  6
CONTINUOUS
  5
C9
 10
472.906893
 20
178.750472
 30
0.0
 11
474.12536
 21
179.968939
 31
0.0
  0
LINE
  8
LC-003-005-----0
  6
CONTINUOUS
  5
CA
 10
472.307387
 20
180.979393
 30
0.0
 11
473.543372
 21
182.215378
 31
0.0
  0
LINE
  8
LC-003-005-----0
  6
CONTINUOUS
  5
CB
 10
471.753132
 20
183.253565
 30
0.0
 11
473.007213
 21
184.507646
 31
0.0
  0
LINE
  8
LC-003-005-----0
  6
CONTINUOUS
  5
CC
 10
471.245232
 20
185.574092
 30
0.0
 11
472.518972
 21
186.847832
 31
0.0
  0
LINE
  8
LC-003-005-----0
  6
CONTINUOUS
  5
CD
 10
470.785854
 20
187.943141
 30
0.0
 11
472.080992
 21
189.23828
 31
0.0
  0
LINE
  8
LC-003-005-----0
  6
CONTINUOUS
  5
CE
 10
470.377432
 20
190.363146
 30
0.0
 11
471.695911
 21
191.681625
 31
0.0
  0
LINE
  8
LC-003-005-----0
  6
CONTINUOUS
  5
CF
 10
470.022708
 20
192.83685
 30
0.0
 11
471.366713
 21
194.180855
 31
0.0
  0
LINE
  8
LC-003-005-----0
  6
CONTINUOUS
  5
D0
 10
469.72479
 20
195.367359
 30
0.0
 11
471.096795
 21
196.739364
 31
0.0
  0
LINE
  8
LC-003-005-----0
  6
CONTINUOUS
  5
D1
 10
469.487215
 20
197.958211
 30
0.0
 11
470.890042
 21
199.361038
 31
0.0
  0
LINE
  8
LC-003-005-----0
  6
CONTINUOUS
  5
D2
 10
469.314039
 20
200.613462
 30
0.0
 11
470.750933
 21
202.050356
 31
0.0
  0
LINE
  8
LC-003-005-----0
  6
CONTINUOUS
  5
D3
 10
469.209942
 20
203.337793
 30
0.0
 11
472.02815
 21
206.156
 31
0.0
  0
ENDBLK
  8
0
  5
D4
  0
BLOCK
  8
0
  5
D6
  2
*D9
 70
    65
 10
0.0
 20
0.0
 30
0.0
  3
*D9
  0
LINE
  8
LC-006-003-MTH-0
  6
CONTINUOUS
  5
D7
 10
536.28086
 20
206.156
 30
0.0
 11
586.8
 21
206.156
 31
0.0
  0
LINE
  8
LC-006-003-MTH-0
  6
CONTINUOUS
  5
D8
 10
536.28086
 20
238.156
 30
0.0
 11
586.8
 21
238.156
 31
0.0
  0
LINE
  8
LC-005-003-----0
  6
CONTINUOUS
  5
D9
 10
578.349471
 20
188.309992
 30
0.0
 11
576.0
 21
206.156
 31
0.0
  0
LINE
  8
LC-005-003-----0
  6
CONTINUOUS
  5
DA
 10
576.0
 20
206.156
 30
0.0
 11
573.650529
 21
188.309992
 31
0.0
  0
LINE
  8
LC-005-003-----0
  6
CONTINUOUS
  5
DB
 10
573.650529
 20
188.309992
 30
0.0
 11
578.349471
 21
188.309992
 31
0.0
  0
LINE
  8
LC-005-003-----0
  6
CONTINUOUS
  5
DC
 10
577.738609
 20
188.269954
 30
0.0
 11
576.0
 21
201.476
 31
0.0
  0
LINE
  8
LC-005-003-----0
  6
CONTINUOUS
  5
DD
 10
576.0
 20
201.476
 30
0.0
 11
574.261391
 21
188.269954
 31
0.0
  0
LINE
  8
LC-005-003-----0
  6
CONTINUOUS
  5
DE
 10
577.127746
 20
188.229916
 30
0.0
 11
576.0
 21
196.796
 31
0.0
  0
LINE
  8
LC-005-003-----0
  6
CONTINUOUS
  5
DF
 10
576.0
 20
196.796
 30
0.0
 11
574.872254
 21
188.229916
 31
0.0
  0
LINE
  8
LC-005-003-----0
  6
CONTINUOUS
  5
E0
 10
576.516884
 20
188.189878
 30
0.0
 11
576.0
 21
192.116
 31
0.0
  0
LINE
  8
LC-005-003-----0
  6
CONTINUOUS
  5
E1
 10
576.0
 20
192.116
 30
0.0
 11
575.483116
 21
188.189878
 31
0.0
  0
LINE
  8
LC-005-003-----0
  6
CONTINUOUS
  5
E2
 10
573.650529
 20
256.002008
 30
0.0
 11
576.0
 21
238.156
 31
0.0
  0
LINE
  8
LC-005-003-----0
  6
CONTINUOUS
  5
E3
 10
576.0
 20
238.156
 30
0.0
 11
578.349471
 21
256.002008
 31
0.0
  0
LINE
  8
LC-005-003-----0
  6
CONTINUOUS
  5
E4
 10
578.349471
 20
256.002008
 30
0.0
 11
573.650529
 21
256.002008
 31
0.0
  0
LINE
  8
LC-005-003-----0
  6
CONTINUOUS
  5
E5
 10
574.261391
 20
256.042046
 30
0.0
 11
576.0
 21
242.836
 31
0.0
  0
LINE
  8
LC-005-003-----0
  6
CONTINUOUS
  5
E6
 10
576.0
 20
242.836
 30
0.0
 11
577.738609
 21
256.042046
 31
0.0
  0
LINE
  8
LC-005-003-----0
  6
CONTINUOUS
  5
E7
 10
574.872254
 20
256.082084
 30
0.0
 11
576.0
 21
247.516
 31
0.0
  0
LINE
  8
LC-005-003-----0
  6
CONTINUOUS
  5
E8
 10
576.0
 20
247.516
 30
0.0
 11
577.127746
 21
256.082084
 31
0.0
  0
LINE
  8
LC-005-003-----0
  6
CONTINUOUS
  5
E9
 10
575.483116
 20
256.122122
 30
0.0
 11
576.0
 21
252.196
 31
0.0
  0
LINE
  8
LC-005-003-----0
  6
CONTINUOUS
  5
EA
 10
576.0
 20
252.196
 30
0.0
 11
576.516884
 21
256.122122
 31
0.0
  0
LINE
  8
LC-007-003-MTG-0
  6
CONTINUOUS
  5
EB
 10
576.0
 20
180.956
 30
0.0
 11
576.0
 21
328.55852
 31
0.0
  0
TEXT
  8
LC-005-003-----0
  6
CONTINUOUS
 62
     6
  5
EC
 10
565.568001
 20
265.431246
 30
0.0
 40
18.0
  1
DN32
 50
90.0
 51
15.0
  7
LC-TXTSTYLE-150-400-0-0-D0
  0
ENDBLK
  8
0
  5
ED
  0
BLOCK
  8
0
  5
EF
  2
*X10
 70
    65
 10
255.970728
 20
484.29663
 30
0.0
  3
*X10
  0
LINE
  8
LC-003-005-----0
  6
CONTINUOUS
  5
F0
 10
261.189037
 20
484.63478
 30
0.0
 11
262.467213
 21
485.912955
 31
0.0
  0
LINE
  8
LC-003-005-----0
  6
CONTINUOUS
  5
F1
 10
258.139823
 20
484.413993
 30
0.0
 11
262.805363
 21
489.079533
 31
0.0
  0
LINE
  8
LC-003-005-----0
  6
CONTINUOUS
  5
F2
 10
256.49691
 20
485.599507
 30
0.0
 11
259.694033
 21
488.79663
 31
0.0
  0
LINE
  8
LC-003-005-----0
  6
CONTINUOUS
  5
F3
 10
260.805363
 20
489.90796
 30
0.0
 11
262.805363
 21
491.90796
 31
0.0
  0
LINE
  8
LC-003-005-----0
  6
CONTINUOUS
  5
F4
 10
255.970728
 20
487.901752
 30
0.0
 11
256.865606
 21
488.79663
 31
0.0
  0
LINE
  8
LC-003-005-----0
  6
CONTINUOUS
  5
F5
 10
260.805363
 20
492.736387
 30
0.0
 11
262.805363
 21
494.736387
 31
0.0
  0
LINE
  8
LC-003-005-----0
  6
CONTINUOUS
  5
F6
 10
260.805363
 20
495.564814
 30
0.0
 11
262.805363
 21
497.564814
 31
0.0
  0
LINE
  8
LC-003-005-----0
  6
CONTINUOUS
  5
F7
 10
263.537179
 20
498.29663
 30
0.0
 11
264.805363
 21
499.564814
 31
0.0
  0
LINE
  8
LC-003-005-----0
  6
CONTINUOUS
  5
F8
 10
260.805363
 20
498.393241
 30
0.0
 11
263.208752
 21
500.79663
 31
0.0
  0
ENDBLK
  8
0
  5
F9
  0
BLOCK
  8
0
  5
FB
  2
*X11
 70
    65
 10
222.105754
 20
491.932133
 30
0.0
  3
*X11
  0
LINE
  8
LC-003-005-----0
  6
CONTINUOUS
  5
FC
 10
224.64577
 20
491.932133
 30
0.0
 11
225.14577
 21
492.432133
 31
0.0
  0
LINE
  8
LC-003-005-----0
  6
CONTINUOUS
  5
FD
 10
223.231556
 20
491.932133
 30
0.0
 11
223.731556
 21
492.432133
 31
0.0
  0
LINE
  8
LC-003-005-----0
  6
CONTINUOUS
  5
FE
 10
222.105754
 20
492.220544
 30
0.0
 11
222.317342
 21
492.432133
 31
0.0
  0
ENDBLK
  8
0
  5
FF
  0
BLOCK
  8
0
  5
101
  2
*X12
 70
    65
 10
253.53086
 20
491.932133
 30
0.0
  3
*X12
  0
LINE
  8
LC-003-005-----0
  6
CONTINUOUS
  5
102
 10
257.172682
 20
491.932133
 30
0.0
 11
257.455966
 21
492.215418
 31
0.0
  0
LINE
  8
LC-003-005-----0
  6
CONTINUOUS
  5
103
 10
255.758468
 20
491.932133
 30
0.0
 11
256.258468
 21
492.432133
 31
0.0
  0
LINE
  8
LC-003-005-----0
  6
CONTINUOUS
  5
104
 10
254.344254
 20
491.932133
 30
0.0
 11
254.844254
 21
492.432133
 31
0.0
  0
ENDBLK
  8
0
  5
105
  0
BLOCK
  8
0
  5
107
  2
*D13
 70
    65
 10
0.0
 20
0.0
 30
0.0
  3
*D13
  0
LINE
  8
LC-006-003-MTH-0
  6
CONTINUOUS
  5
108
 10
253.78086
 20
222.156
 30
0.0
 11
171.2
 21
222.156
 31
0.0
  0
LINE
  8
LC-006-003-MTH-0
  6
CONTINUOUS
  5
109
 10
214.805363
 20
500.79663
 30
0.0
 11
171.2
 21
500.79663
 31
0.0
  0
LINE
  8
LC-007-003-MTG-0
  6
CONTINUOUS
  5
10A
 10
182.0
 20
222.156
 30
0.0
 11
182.0
 21
500.79663
 31
0.0
  0
LINE
  8
LC-005-003-----0
  6
CONTINUOUS
  5
10B
 10
179.650529
 20
240.002008
 30
0.0
 11
182.0
 21
222.156
 31
0.0
  0
LINE
  8
LC-005-003-----0
  6
CONTINUOUS
  5
10C
 10
182.0
 20
222.156
 30
0.0
 11
184.349471
 21
240.002008
 31
0.0
  0
LINE
  8
LC-005-003-----0
  6
CONTINUOUS
  5
10D
 10
184.349471
 20
240.002008
 30
0.0
 11
179.650529
 21
240.002008
 31
0.0
  0
LINE
  8
LC-005-003-----0
  6
CONTINUOUS
  5
10E
 10
180.261391
 20
240.042046
 30
0.0
 11
182.0
 21
226.836
 31
0.0
  0
LINE
  8
LC-005-003-----0
  6
CONTINUOUS
  5
10F
 10
182.0
 20
226.836
 30
0.0
 11
183.738609
 21
240.042046
 31
0.0
  0
LINE
  8
LC-005-003-----0
  6
CONTINUOUS
  5
110
 10
180.872254
 20
240.082084
 30
0.0
 11
182.0
 21
231.516
 31
0.0
  0
LINE
  8
LC-005-003-----0
  6
CONTINUOUS
  5
111
 10
182.0
 20
231.516
 30
0.0
 11
183.127746
 21
240.082084
 31
0.0
  0
LINE
  8
LC-005-003-----0
  6
CONTINUOUS
  5
112
 10
181.483116
 20
240.122122
 30
0.0
 11
182.0
 21
236.196
 31
0.0
  0
LINE
  8
LC-005-003-----0
  6
CONTINUOUS
  5
113
 10
182.0
 20
236.196
 30
0.0
 11
182.516884
 21
240.122122
 31
0.0
  0
LINE
  8
LC-005-003-----0
  6
CONTINUOUS
  5
114
 10
184.349471
 20
482.950623
 30
0.0
 11
182.0
 21
500.79663
 31
0.0
  0
LINE
  8
LC-005-003-----0
  6
CONTINUOUS
  5
115
 10
182.0
 20
500.79663
 30
0.0
 11
179.650529
 21
482.950623
 31
0.0
  0
LINE
  8
LC-005-003-----0
  6
CONTINUOUS
  5
116
 10
179.650529
 20
482.950623
 30
0.0
 11
184.349471
 21
482.950623
 31
0.0
  0
LINE
  8
LC-005-003-----0
  6
CONTINUOUS
  5
117
 10
183.738609
 20
482.910585
 30
0.0
 11
182.0
 21
496.11663
 31
0.0
  0
LINE
  8
LC-005-003-----0
  6
CONTINUOUS
  5
118
 10
182.0
 20
496.11663
 30
0.0
 11
180.261391
 21
482.910585
 31
0.0
  0
LINE
  8
LC-005-003-----0
  6
CONTINUOUS
  5
119
 10
183.127746
 20
482.870546
 30
0.0
 11
182.0
 21
491.43663
 31
0.0
  0
LINE
  8
LC-005-003-----0
  6
CONTINUOUS
  5
11A
 10
182.0
 20
491.43663
 30
0.0
 11
180.872254
 21
482.870546
 31
0.0
  0
LINE
  8
LC-005-003-----0
  6
CONTINUOUS
  5
11B
 10
182.516884
 20
482.830508
 30
0.0
 11
182.0
 21
486.75663
 31
0.0
  0
LINE
  8
LC-005-003-----0
  6
CONTINUOUS
  5
11C
 10
182.0
 20
486.75663
 30
0.0
 11
181.483116
 21
482.830508
 31
0.0
  0
TEXT
  8
LC-005-003-----0
  6
CONTINUOUS
 62
     6
  5
11D
 10
171.568001
 20
322.49597
 30
0.0
 40
18.0
  1
70-275
 50
90.0
 51
15.0
  7
LC-TXTSTYLE-150-400-0-0-D0
 72
     1
 11
171.568001
 21
364.271561
 31
0.0
  0
ENDBLK
  8
0
  5
11E
  0
BLOCK
  8
0
  5
120
  2
*X14
 70
    65
 10
255.946225
 20
258.156
 30
0.0
  3
*X14
  0
LINE
  8
LC-003-005-----0
  6
CONTINUOUS
  5
121
 10
263.812854
 20
258.156
 30
0.0
 11
264.78086
 21
259.124006
 31
0.0
  0
LINE
  8
LC-003-005-----0
  6
CONTINUOUS
  5
122
 10
260.984427
 20
258.156
 30
0.0
 11
263.484427
 21
260.656
 31
0.0
  0
LINE
  8
LC-003-005-----0
  6
CONTINUOUS
  5
123
 10
260.78086
 20
260.78086
 30
0.0
 11
262.78086
 21
262.78086
 31
0.0
  0
LINE
  8
LC-003-005-----0
  6
CONTINUOUS
  5
124
 10
260.78086
 20
263.609287
 30
0.0
 11
262.78086
 21
265.609287
 31
0.0
  0
LINE
  8
LC-003-005-----0
  6
CONTINUOUS
  5
125
 10
260.78086
 20
266.437714
 30
0.0
 11
262.78086
 21
268.437714
 31
0.0
  0
LINE
  8
LC-003-005-----0
  6
CONTINUOUS
  5
126
 10
260.78086
 20
269.266142
 30
0.0
 11
262.78086
 21
271.266142
 31
0.0
  0
LINE
  8
LC-003-005-----0
  6
CONTINUOUS
  5
127
 10
258.842292
 20
270.156
 30
0.0
 11
262.16424
 21
273.477949
 31
0.0
  0
LINE
  8
LC-003-005-----0
  6
CONTINUOUS
  5
128
 10
256.013864
 20
270.156
 30
0.0
 11
260.440455
 21
274.582591
 31
0.0
  0
ENDBLK
  8
0
  5
129
  0
BLOCK
  8
0
  5
12B
  2
*X15
 70
    65
 10
220.53086
 20
241.782634
 30
0.0
  3
*X15
  0
LINE
  8
LC-003-005-----0
  6
CONTINUOUS
  5
12C
 10
224.812071
 20
241.782634
 30
0.0
 11
226.03086
 21
243.001423
 31
0.0
  0
LINE
  8
LC-003-005-----0
  6
CONTINUOUS
  5
12D
 10
224.03086
 20
243.82985
 30
0.0
 11
226.03086
 21
245.82985
 31
0.0
  0
LINE
  8
LC-003-005-----0
  6
CONTINUOUS
  5
12E
 10
224.03086
 20
246.658277
 30
0.0
 11
226.03086
 21
248.658277
 31
0.0
  0
LINE
  8
LC-003-005-----0
  6
CONTINUOUS
  5
12F
 10
224.03086
 20
249.486704
 30
0.0
 11
226.03086
 21
251.486704
 31
0.0
  0
LINE
  8
LC-003-005-----0
  6
CONTINUOUS
  5
130
 10
224.03086
 20
252.315131
 30
0.0
 11
226.03086
 21
254.315131
 31
0.0
  0
LINE
  8
LC-003-005-----0
  6
CONTINUOUS
  5
131
 10
224.03086
 20
255.143559
 30
0.0
 11
226.03086
 21
257.143559
 31
0.0
  0
LINE
  8
LC-003-005-----0
  6
CONTINUOUS
  5
132
 10
224.03086
 20
257.971986
 30
0.0
 11
226.03086
 21
259.971986
 31
0.0
  0
LINE
  8
LC-003-005-----0
  6
CONTINUOUS
  5
133
 10
224.03086
 20
260.800413
 30
0.0
 11
226.03086
 21
262.800413
 31
0.0
  0
LINE
  8
LC-003-005-----0
  6
CONTINUOUS
  5
134
 10
224.03086
 20
263.62884
 30
0.0
 11
226.03086
 21
265.62884
 31
0.0
  0
LINE
  8
LC-003-005-----0
  6
CONTINUOUS
  5
135
 10
224.03086
 20
266.457267
 30
0.0
 11
226.03086
 21
268.457267
 31
0.0
  0
LINE
  8
LC-003-005-----0
  6
CONTINUOUS
  5
136
 10
224.03086
 20
269.285694
 30
0.0
 11
226.03086
 21
271.285694
 31
0.0
  0
LINE
  8
LC-003-005-----0
  6
CONTINUOUS
  5
137
 10
224.03086
 20
272.114121
 30
0.0
 11
226.03086
 21
274.114121
 31
0.0
  0
LINE
  8
LC-003-005-----0
  6
CONTINUOUS
  5
138
 10
224.03086
 20
274.942548
 30
0.0
 11
226.03086
 21
276.942548
 31
0.0
  0
LINE
  8
LC-003-005-----0
  6
CONTINUOUS
  5
139
 10
224.03086
 20
277.770976
 30
0.0
 11
226.03086
 21
279.770976
 31
0.0
  0
LINE
  8
LC-003-005-----0
  6
CONTINUOUS
  5
13A
 10
224.03086
 20
280.599403
 30
0.0
 11
226.03086
 21
282.599403
 31
0.0
  0
LINE
  8
LC-003-005-----0
  6
CONTINUOUS
  5
13B
 10
224.03086
 20
283.42783
 30
0.0
 11
226.03086
 21
285.42783
 31
0.0
  0
LINE
  8
LC-003-005-----0
  6
CONTINUOUS
  5
13C
 10
224.03086
 20
286.256257
 30
0.0
 11
226.03086
 21
288.256257
 31
0.0
  0
LINE
  8
LC-003-005-----0
  6
CONTINUOUS
  5
13D
 10
224.03086
 20
289.084684
 30
0.0
 11
226.03086
 21
291.084684
 31
0.0
  0
LINE
  8
LC-003-005-----0
  6
CONTINUOUS
  5
13E
 10
224.03086
 20
291.913111
 30
0.0
 11
226.03086
 21
293.913111
 31
0.0
  0
LINE
  8
LC-003-005-----0
  6
CONTINUOUS
  5
13F
 10
224.03086
 20
294.741538
 30
0.0
 11
226.03086
 21
296.741538
 31
0.0
  0
LINE
  8
LC-003-005-----0
  6
CONTINUOUS
  5
140
 10
224.03086
 20
297.569965
 30
0.0
 11
226.03086
 21
299.569965
 31
0.0
  0
LINE
  8
LC-003-005-----0
  6
CONTINUOUS
  5
141
 10
224.03086
 20
300.398393
 30
0.0
 11
226.03086
 21
302.398393
 31
0.0
  0
LINE
  8
LC-003-005-----0
  6
CONTINUOUS
  5
142
 10
224.03086
 20
303.22682
 30
0.0
 11
226.03086
 21
305.22682
 31
0.0
  0
LINE
  8
LC-003-005-----0
  6
CONTINUOUS
  5
143
 10
224.03086
 20
306.055247
 30
0.0
 11
226.03086
 21
308.055247
 31
0.0
  0
LINE
  8
LC-003-005-----0
  6
CONTINUOUS
  5
144
 10
224.03086
 20
308.883674
 30
0.0
 11
226.03086
 21
310.883674
 31
0.0
  0
LINE
  8
LC-003-005-----0
  6
CONTINUOUS
  5
145
 10
224.03086
 20
311.712101
 30
0.0
 11
226.03086
 21
313.712101
 31
0.0
  0
LINE
  8
LC-003-005-----0
  6
CONTINUOUS
  5
146
 10
224.03086
 20
314.540528
 30
0.0
 11
226.03086
 21
316.540528
 31
0.0
  0
LINE
  8
LC-003-005-----0
  6
CONTINUOUS
  5
147
 10
224.03086
 20
317.368955
 30
0.0
 11
226.03086
 21
319.368955
 31
0.0
  0
LINE
  8
LC-003-005-----0
  6
CONTINUOUS
  5
148
 10
224.03086
 20
320.197382
 30
0.0
 11
226.03086
 21
322.197382
 31
0.0
  0
LINE
  8
LC-003-005-----0
  6
CONTINUOUS
  5
149
 10
224.03086
 20
323.02581
 30
0.0
 11
226.03086
 21
325.02581
 31
0.0
  0
LINE
  8
LC-003-005-----0
  6
CONTINUOUS
  5
14A
 10
224.03086
 20
325.854237
 30
0.0
 11
226.03086
 21
327.854237
 31
0.0
  0
LINE
  8
LC-003-005-----0
  6
CONTINUOUS
  5
14B
 10
224.03086
 20
328.682664
 30
0.0
 11
226.03086
 21
330.682664
 31
0.0
  0
LINE
  8
LC-003-005-----0
  6
CONTINUOUS
  5
14C
 10
224.03086
 20
331.511091
 30
0.0
 11
226.03086
 21
333.511091
 31
0.0
  0
LINE
  8
LC-003-005-----0
  6
CONTINUOUS
  5
14D
 10
224.03086
 20
334.339518
 30
0.0
 11
226.03086
 21
336.339518
 31
0.0
  0
LINE
  8
LC-003-005-----0
  6
CONTINUOUS
  5
14E
 10
224.03086
 20
337.167945
 30
0.0
 11
226.03086
 21
339.167945
 31
0.0
  0
LINE
  8
LC-003-005-----0
  6
CONTINUOUS
  5
14F
 10
224.03086
 20
339.996372
 30
0.0
 11
226.03086
 21
341.996372
 31
0.0
  0
LINE
  8
LC-003-005-----0
  6
CONTINUOUS
  5
150
 10
224.03086
 20
342.824799
 30
0.0
 11
226.03086
 21
344.824799
 31
0.0
  0
LINE
  8
LC-003-005-----0
  6
CONTINUOUS
  5
151
 10
224.03086
 20
345.653227
 30
0.0
 11
226.03086
 21
347.653227
 31
0.0
  0
LINE
  8
LC-003-005-----0
  6
CONTINUOUS
  5
152
 10
224.03086
 20
348.481654
 30
0.0
 11
226.03086
 21
350.481654
 31
0.0
  0
LINE
  8
LC-003-005-----0
  6
CONTINUOUS
  5
153
 10
224.03086
 20
351.310081
 30
0.0
 11
226.03086
 21
353.310081
 31
0.0
  0
LINE
  8
LC-003-005-----0
  6
CONTINUOUS
  5
154
 10
224.03086
 20
354.138508
 30
0.0
 11
226.03086
 21
356.138508
 31
0.0
  0
LINE
  8
LC-003-005-----0
  6
CONTINUOUS
  5
155
 10
224.03086
 20
356.966935
 30
0.0
 11
226.03086
 21
358.966935
 31
0.0
  0
LINE
  8
LC-003-005-----0
  6
CONTINUOUS
  5
156
 10
224.03086
 20
359.795362
 30
0.0
 11
226.03086
 21
361.795362
 31
0.0
  0
LINE
  8
LC-003-005-----0
  6
CONTINUOUS
  5
157
 10
224.03086
 20
362.623789
 30
0.0
 11
226.03086
 21
364.623789
 31
0.0
  0
LINE
  8
LC-003-005-----0
  6
CONTINUOUS
  5
158
 10
224.03086
 20
365.452216
 30
0.0
 11
226.03086
 21
367.452216
 31
0.0
  0
LINE
  8
LC-003-005-----0
  6
CONTINUOUS
  5
159
 10
224.03086
 20
368.280644
 30
0.0
 11
226.03086
 21
370.280644
 31
0.0
  0
LINE
  8
LC-003-005-----0
  6
CONTINUOUS
  5
15A
 10
224.03086
 20
371.109071
 30
0.0
 11
226.03086
 21
373.109071
 31
0.0
  0
LINE
  8
LC-003-005-----0
  6
CONTINUOUS
  5
15B
 10
224.03086
 20
373.937498
 30
0.0
 11
226.03086
 21
375.937498
 31
0.0
  0
LINE
  8
LC-003-005-----0
  6
CONTINUOUS
  5
15C
 10
224.03086
 20
376.765925
 30
0.0
 11
226.03086
 21
378.765925
 31
0.0
  0
LINE
  8
LC-003-005-----0
  6
CONTINUOUS
  5
15D
 10
224.03086
 20
379.594352
 30
0.0
 11
226.03086
 21
381.594352
 31
0.0
  0
LINE
  8
LC-003-005-----0
  6
CONTINUOUS
  5
15E
 10
224.03086
 20
382.422779
 30
0.0
 11
226.03086
 21
384.422779
 31
0.0
  0
LINE
  8
LC-003-005-----0
  6
CONTINUOUS
  5
15F
 10
224.03086
 20
385.251206
 30
0.0
 11
226.03086
 21
387.251206
 31
0.0
  0
LINE
  8
LC-003-005-----0
  6
CONTINUOUS
  5
160
 10
224.03086
 20
388.079633
 30
0.0
 11
226.03086
 21
390.079633
 31
0.0
  0
LINE
  8
LC-003-005-----0
  6
CONTINUOUS
  5
161
 10
224.03086
 20
390.90806
 30
0.0
 11
226.03086
 21
392.90806
 31
0.0
  0
LINE
  8
LC-003-005-----0
  6
CONTINUOUS
  5
162
 10
224.03086
 20
393.736488
 30
0.0
 11
226.03086
 21
395.736488
 31
0.0
  0
LINE
  8
LC-003-005-----0
  6
CONTINUOUS
  5
163
 10
224.03086
 20
396.564915
 30
0.0
 11
226.03086
 21
398.564915
 31
0.0
  0
LINE
  8
LC-003-005-----0
  6
CONTINUOUS
  5
164
 10
224.03086
 20
399.393342
 30
0.0
 11
226.03086
 21
401.393342
 31
0.0
  0
LINE
  8
LC-003-005-----0
  6
CONTINUOUS
  5
165
 10
224.03086
 20
402.221769
 30
0.0
 11
226.03086
 21
404.221769
 31
0.0
  0
LINE
  8
LC-003-005-----0
  6
CONTINUOUS
  5
166
 10
224.03086
 20
405.050196
 30
0.0
 11
226.03086
 21
407.050196
 31
0.0
  0
LINE
  8
LC-003-005-----0
  6
CONTINUOUS
  5
167
 10
224.03086
 20
407.878623
 30
0.0
 11
226.03086
 21
409.878623
 31
0.0
  0
LINE
  8
LC-003-005-----0
  6
CONTINUOUS
  5
168
 10
224.03086
 20
410.70705
 30
0.0
 11
226.03086
 21
412.70705
 31
0.0
  0
LINE
  8
LC-003-005-----0
  6
CONTINUOUS
  5
169
 10
224.03086
 20
413.535477
 30
0.0
 11
226.03086
 21
415.535477
 31
0.0
  0
LINE
  8
LC-003-005-----0
  6
CONTINUOUS
  5
16A
 10
224.03086
 20
416.363905
 30
0.0
 11
226.03086
 21
418.363905
 31
0.0
  0
LINE
  8
LC-003-005-----0
  6
CONTINUOUS
  5
16B
 10
224.03086
 20
419.192332
 30
0.0
 11
226.03086
 21
421.192332
 31
0.0
  0
LINE
  8
LC-003-005-----0
  6
CONTINUOUS
  5
16C
 10
224.03086
 20
422.020759
 30
0.0
 11
226.03086
 21
424.020759
 31
0.0
  0
LINE
  8
LC-003-005-----0
  6
CONTINUOUS
  5
16D
 10
224.03086
 20
424.849186
 30
0.0
 11
226.03086
 21
426.849186
 31
0.0
  0
LINE
  8
LC-003-005-----0
  6
CONTINUOUS
  5
16E
 10
224.03086
 20
427.677613
 30
0.0
 11
226.03086
 21
429.677613
 31
0.0
  0
LINE
  8
LC-003-005-----0
  6
CONTINUOUS
  5
16F
 10
224.03086
 20
430.50604
 30
0.0
 11
226.03086
 21
432.50604
 31
0.0
  0
LINE
  8
LC-003-005-----0
  6
CONTINUOUS
  5
170
 10
224.03086
 20
433.334467
 30
0.0
 11
226.03086
 21
435.334467
 31
0.0
  0
LINE
  8
LC-003-005-----0
  6
CONTINUOUS
  5
171
 10
224.03086
 20
436.162894
 30
0.0
 11
226.03086
 21
438.162894
 31
0.0
  0
LINE
  8
LC-003-005-----0
  6
CONTINUOUS
  5
172
 10
224.03086
 20
438.991322
 30
0.0
 11
226.03086
 21
440.991322
 31
0.0
  0
LINE
  8
LC-003-005-----0
  6
CONTINUOUS
  5
173
 10
224.03086
 20
441.819749
 30
0.0
 11
226.03086
 21
443.819749
 31
0.0
  0
LINE
  8
LC-003-005-----0
  6
CONTINUOUS
  5
174
 10
224.03086
 20
444.648176
 30
0.0
 11
226.03086
 21
446.648176
 31
0.0
  0
LINE
  8
LC-003-005-----0
  6
CONTINUOUS
  5
175
 10
224.03086
 20
447.476603
 30
0.0
 11
226.03086
 21
449.476603
 31
0.0
  0
LINE
  8
LC-003-005-----0
  6
CONTINUOUS
  5
176
 10
224.03086
 20
450.30503
 30
0.0
 11
226.03086
 21
452.30503
 31
0.0
  0
LINE
  8
LC-003-005-----0
  6
CONTINUOUS
  5
177
 10
224.03086
 20
453.133457
 30
0.0
 11
226.03086
 21
455.133457
 31
0.0
  0
LINE
  8
LC-003-005-----0
  6
CONTINUOUS
  5
178
 10
224.03086
 20
455.961884
 30
0.0
 11
226.03086
 21
457.961884
 31
0.0
  0
LINE
  8
LC-003-005-----0
  6
CONTINUOUS
  5
179
 10
224.03086
 20
458.790311
 30
0.0
 11
226.03086
 21
460.790311
 31
0.0
  0
LINE
  8
LC-003-005-----0
  6
CONTINUOUS
  5
17A
 10
224.03086
 20
461.618739
 30
0.0
 11
226.03086
 21
463.618739
 31
0.0
  0
LINE
  8
LC-003-005-----0
  6
CONTINUOUS
  5
17B
 10
224.03086
 20
464.447166
 30
0.0
 11
226.03086
 21
466.447166
 31
0.0
  0
LINE
  8
LC-003-005-----0
  6
CONTINUOUS
  5
17C
 10
224.03086
 20
467.275593
 30
0.0
 11
226.03086
 21
469.275593
 31
0.0
  0
LINE
  8
LC-003-005-----0
  6
CONTINUOUS
  5
17D
 10
224.03086
 20
470.10402
 30
0.0
 11
226.03086
 21
472.10402
 31
0.0
  0
LINE
  8
LC-003-005-----0
  6
CONTINUOUS
  5
17E
 10
224.03086
 20
472.932447
 30
0.0
 11
226.03086
 21
474.932447
 31
0.0
  0
LINE
  8
LC-003-005-----0
  6
CONTINUOUS
  5
17F
 10
224.03086
 20
475.760874
 30
0.0
 11
226.03086
 21
477.760874
 31
0.0
  0
LINE
  8
LC-003-005-----0
  6
CONTINUOUS
  5
180
 10
224.03086
 20
478.589301
 30
0.0
 11
226.03086
 21
480.589301
 31
0.0
  0
LINE
  8
LC-003-005-----0
  6
CONTINUOUS
  5
181
 10
224.03086
 20
481.417728
 30
0.0
 11
226.03086
 21
483.417728
 31
0.0
  0
LINE
  8
LC-003-005-----0
  6
CONTINUOUS
  5
182
 10
224.03086
 20
484.246156
 30
0.0
 11
226.03086
 21
486.246156
 31
0.0
  0
LINE
  8
LC-003-005-----0
  6
CONTINUOUS
  5
183
 10
224.03086
 20
487.074583
 30
0.0
 11
226.03086
 21
489.074583
 31
0.0
  0
LINE
  8
LC-003-005-----0
  6
CONTINUOUS
  5
184
 10
223.410484
 20
489.282634
 30
0.0
 11
225.910484
 21
491.782634
 31
0.0
  0
LINE
  8
LC-003-005-----0
  6
CONTINUOUS
  5
185
 10
220.582057
 20
489.282634
 30
0.0
 11
223.082057
 21
491.782634
 31
0.0
  0
ENDBLK
  8
0
  5
186
  0
BLOCK
  8
0
  5
188
  2
*X16
 70
    65
 10
253.53086
 20
241.782634
 30
0.0
  3
*X16
  0
LINE
  8
LC-003-005-----0
  6
CONTINUOUS
  5
189
 10
253.53086
 20
242.217152
 30
0.0
 11
255.53086
 21
244.217152
 31
0.0
  0
LINE
  8
LC-003-005-----0
  6
CONTINUOUS
  5
18A
 10
253.53086
 20
245.045579
 30
0.0
 11
255.53086
 21
247.045579
 31
0.0
  0
LINE
  8
LC-003-005-----0
  6
CONTINUOUS
  5
18B
 10
253.53086
 20
247.874006
 30
0.0
 11
255.53086
 21
249.874006
 31
0.0
  0
LINE
  8
LC-003-005-----0
  6
CONTINUOUS
  5
18C
 10
253.53086
 20
250.702433
 30
0.0
 11
255.53086
 21
252.702433
 31
0.0
  0
LINE
  8
LC-003-005-----0
  6
CONTINUOUS
  5
18D
 10
253.53086
 20
253.53086
 30
0.0
 11
255.53086
 21
255.53086
 31
0.0
  0
LINE
  8
LC-003-005-----0
  6
CONTINUOUS
  5
18E
 10
253.53086
 20
256.359287
 30
0.0
 11
255.53086
 21
258.359287
 31
0.0
  0
LINE
  8
LC-003-005-----0
  6
CONTINUOUS
  5
18F
 10
253.53086
 20
259.187714
 30
0.0
 11
255.53086
 21
261.187714
 31
0.0
  0
LINE
  8
LC-003-005-----0
  6
CONTINUOUS
  5
190
 10
253.53086
 20
262.016142
 30
0.0
 11
255.53086
 21
264.016142
 31
0.0
  0
LINE
  8
LC-003-005-----0
  6
CONTINUOUS
  5
191
 10
253.53086
 20
264.844569
 30
0.0
 11
255.53086
 21
266.844569
 31
0.0
  0
LINE
  8
LC-003-005-----0
  6
CONTINUOUS
  5
192
 10
253.53086
 20
267.672996
 30
0.0
 11
255.53086
 21
269.672996
 31
0.0
  0
LINE
  8
LC-003-005-----0
  6
CONTINUOUS
  5
193
 10
253.53086
 20
270.501423
 30
0.0
 11
255.53086
 21
272.501423
 31
0.0
  0
LINE
  8
LC-003-005-----0
  6
CONTINUOUS
  5
194
 10
253.53086
 20
273.32985
 30
0.0
 11
255.53086
 21
275.32985
 31
0.0
  0
LINE
  8
LC-003-005-----0
  6
CONTINUOUS
  5
195
 10
253.53086
 20
276.158277
 30
0.0
 11
255.53086
 21
278.158277
 31
0.0
  0
LINE
  8
LC-003-005-----0
  6
CONTINUOUS
  5
196
 10
253.53086
 20
278.986704
 30
0.0
 11
255.53086
 21
280.986704
 31
0.0
  0
LINE
  8
LC-003-005-----0
  6
CONTINUOUS
  5
197
 10
253.53086
 20
281.815131
 30
0.0
 11
255.53086
 21
283.815131
 31
0.0
  0
LINE
  8
LC-003-005-----0
  6
CONTINUOUS
  5
198
 10
253.53086
 20
284.643559
 30
0.0
 11
255.53086
 21
286.643559
 31
0.0
  0
LINE
  8
LC-003-005-----0
  6
CONTINUOUS
  5
199
 10
253.53086
 20
287.471986
 30
0.0
 11
255.53086
 21
289.471986
 31
0.0
  0
LINE
  8
LC-003-005-----0
  6
CONTINUOUS
  5
19A
 10
253.53086
 20
290.300413
 30
0.0
 11
255.53086
 21
292.300413
 31
0.0
  0
LINE
  8
LC-003-005-----0
  6
CONTINUOUS
  5
19B
 10
253.53086
 20
293.12884
 30
0.0
 11
255.53086
 21
295.12884
 31
0.0
  0
LINE
  8
LC-003-005-----0
  6
CONTINUOUS
  5
19C
 10
253.53086
 20
295.957267
 30
0.0
 11
255.53086
 21
297.957267
 31
0.0
  0
LINE
  8
LC-003-005-----0
  6
CONTINUOUS
  5
19D
 10
253.53086
 20
298.785694
 30
0.0
 11
255.53086
 21
300.785694
 31
0.0
  0
LINE
  8
LC-003-005-----0
  6
CONTINUOUS
  5
19E
 10
253.53086
 20
301.614121
 30
0.0
 11
255.53086
 21
303.614121
 31
0.0
  0
LINE
  8
LC-003-005-----0
  6
CONTINUOUS
  5
19F
 10
253.53086
 20
304.442548
 30
0.0
 11
255.53086
 21
306.442548
 31
0.0
  0
LINE
  8
LC-003-005-----0
  6
CONTINUOUS
  5
1A0
 10
253.53086
 20
307.270976
 30
0.0
 11
255.53086
 21
309.270976
 31
0.0
  0
LINE
  8
LC-003-005-----0
  6
CONTINUOUS
  5
1A1
 10
253.53086
 20
310.099403
 30
0.0
 11
255.53086
 21
312.099403
 31
0.0
  0
LINE
  8
LC-003-005-----0
  6
CONTINUOUS
  5
1A2
 10
253.53086
 20
312.92783
 30
0.0
 11
255.53086
 21
314.92783
 31
0.0
  0
LINE
  8
LC-003-005-----0
  6
CONTINUOUS
  5
1A3
 10
253.53086
 20
315.756257
 30
0.0
 11
255.53086
 21
317.756257
 31
0.0
  0
LINE
  8
LC-003-005-----0
  6
CONTINUOUS
  5
1A4
 10
253.53086
 20
318.584684
 30
0.0
 11
255.53086
 21
320.584684
 31
0.0
  0
LINE
  8
LC-003-005-----0
  6
CONTINUOUS
  5
1A5
 10
253.53086
 20
321.413111
 30
0.0
 11
255.53086
 21
323.413111
 31
0.0
  0
LINE
  8
LC-003-005-----0
  6
CONTINUOUS
  5
1A6
 10
253.53086
 20
324.241538
 30
0.0
 11
255.53086
 21
326.241538
 31
0.0
  0
LINE
  8
LC-003-005-----0
  6
CONTINUOUS
  5
1A7
 10
253.53086
 20
327.069965
 30
0.0
 11
255.53086
 21
329.069965
 31
0.0
  0
LINE
  8
LC-003-005-----0
  6
CONTINUOUS
  5
1A8
 10
253.53086
 20
329.898393
 30
0.0
 11
255.53086
 21
331.898393
 31
0.0
  0
LINE
  8
LC-003-005-----0
  6
CONTINUOUS
  5
1A9
 10
253.53086
 20
332.72682
 30
0.0
 11
255.53086
 21
334.72682
 31
0.0
  0
LINE
  8
LC-003-005-----0
  6
CONTINUOUS
  5
1AA
 10
253.53086
 20
335.555247
 30
0.0
 11
255.53086
 21
337.555247
 31
0.0
  0
LINE
  8
LC-003-005-----0
  6
CONTINUOUS
  5
1AB
 10
253.53086
 20
338.383674
 30
0.0
 11
255.53086
 21
340.383674
 31
0.0
  0
LINE
  8
LC-003-005-----0
  6
CONTINUOUS
  5
1AC
 10
253.53086
 20
341.212101
 30
0.0
 11
255.53086
 21
343.212101
 31
0.0
  0
LINE
  8
LC-003-005-----0
  6
CONTINUOUS
  5
1AD
 10
253.53086
 20
344.040528
 30
0.0
 11
255.53086
 21
346.040528
 31
0.0
  0
LINE
  8
LC-003-005-----0
  6
CONTINUOUS
  5
1AE
 10
253.53086
 20
346.868955
 30
0.0
 11
255.53086
 21
348.868955
 31
0.0
  0
LINE
  8
LC-003-005-----0
  6
CONTINUOUS
  5
1AF
 10
253.53086
 20
349.697382
 30
0.0
 11
255.53086
 21
351.697382
 31
0.0
  0
LINE
  8
LC-003-005-----0
  6
CONTINUOUS
  5
1B0
 10
253.53086
 20
352.52581
 30
0.0
 11
255.53086
 21
354.52581
 31
0.0
  0
LINE
  8
LC-003-005-----0
  6
CONTINUOUS
  5
1B1
 10
253.53086
 20
355.354237
 30
0.0
 11
255.53086
 21
357.354237
 31
0.0
  0
LINE
  8
LC-003-005-----0
  6
CONTINUOUS
  5
1B2
 10
253.53086
 20
358.182664
 30
0.0
 11
255.53086
 21
360.182664
 31
0.0
  0
LINE
  8
LC-003-005-----0
  6
CONTINUOUS
  5
1B3
 10
253.53086
 20
361.011091
 30
0.0
 11
255.53086
 21
363.011091
 31
0.0
  0
LINE
  8
LC-003-005-----0
  6
CONTINUOUS
  5
1B4
 10
253.53086
 20
363.839518
 30
0.0
 11
255.53086
 21
365.839518
 31
0.0
  0
LINE
  8
LC-003-005-----0
  6
CONTINUOUS
  5
1B5
 10
253.53086
 20
366.667945
 30
0.0
 11
255.53086
 21
368.667945
 31
0.0
  0
LINE
  8
LC-003-005-----0
  6
CONTINUOUS
  5
1B6
 10
253.53086
 20
369.496372
 30
0.0
 11
255.53086
 21
371.496372
 31
0.0
  0
LINE
  8
LC-003-005-----0
  6
CONTINUOUS
  5
1B7
 10
253.53086
 20
372.324799
 30
0.0
 11
255.53086
 21
374.324799
 31
0.0
  0
LINE
  8
LC-003-005-----0
  6
CONTINUOUS
  5
1B8
 10
253.53086
 20
375.153227
 30
0.0
 11
255.53086
 21
377.153227
 31
0.0
  0
LINE
  8
LC-003-005-----0
  6
CONTINUOUS
  5
1B9
 10
253.53086
 20
377.981654
 30
0.0
 11
255.53086
 21
379.981654
 31
0.0
  0
LINE
  8
LC-003-005-----0
  6
CONTINUOUS
  5
1BA
 10
253.53086
 20
380.810081
 30
0.0
 11
255.53086
 21
382.810081
 31
0.0
  0
LINE
  8
LC-003-005-----0
  6
CONTINUOUS
  5
1BB
 10
253.53086
 20
383.638508
 30
0.0
 11
255.53086
 21
385.638508
 31
0.0
  0
LINE
  8
LC-003-005-----0
  6
CONTINUOUS
  5
1BC
 10
253.53086
 20
386.466935
 30
0.0
 11
255.53086
 21
388.466935
 31
0.0
  0
LINE
  8
LC-003-005-----0
  6
CONTINUOUS
  5
1BD
 10
253.53086
 20
389.295362
 30
0.0
 11
255.53086
 21
391.295362
 31
0.0
  0
LINE
  8
LC-003-005-----0
  6
CONTINUOUS
  5
1BE
 10
253.53086
 20
392.123789
 30
0.0
 11
255.53086
 21
394.123789
 31
0.0
  0
LINE
  8
LC-003-005-----0
  6
CONTINUOUS
  5
1BF
 10
253.53086
 20
394.952216
 30
0.0
 11
255.53086
 21
396.952216
 31
0.0
  0
LINE
  8
LC-003-005-----0
  6
CONTINUOUS
  5
1C0
 10
253.53086
 20
397.780644
 30
0.0
 11
255.53086
 21
399.780644
 31
0.0
  0
LINE
  8
LC-003-005-----0
  6
CONTINUOUS
  5
1C1
 10
253.53086
 20
400.609071
 30
0.0
 11
255.53086
 21
402.609071
 31
0.0
  0
LINE
  8
LC-003-005-----0
  6
CONTINUOUS
  5
1C2
 10
253.53086
 20
403.437498
 30
0.0
 11
255.53086
 21
405.437498
 31
0.0
  0
LINE
  8
LC-003-005-----0
  6
CONTINUOUS
  5
1C3
 10
253.53086
 20
406.265925
 30
0.0
 11
255.53086
 21
408.265925
 31
0.0
  0
LINE
  8
LC-003-005-----0
  6
CONTINUOUS
  5
1C4
 10
253.53086
 20
409.094352
 30
0.0
 11
255.53086
 21
411.094352
 31
0.0
  0
LINE
  8
LC-003-005-----0
  6
CONTINUOUS
  5
1C5
 10
253.53086
 20
411.922779
 30
0.0
 11
255.53086
 21
413.922779
 31
0.0
  0
LINE
  8
LC-003-005-----0
  6
CONTINUOUS
  5
1C6
 10
253.53086
 20
414.751206
 30
0.0
 11
255.53086
 21
416.751206
 31
0.0
  0
LINE
  8
LC-003-005-----0
  6
CONTINUOUS
  5
1C7
 10
253.53086
 20
417.579633
 30
0.0
 11
255.53086
 21
419.579633
 31
0.0
  0
LINE
  8
LC-003-005-----0
  6
CONTINUOUS
  5
1C8
 10
253.53086
 20
420.40806
 30
0.0
 11
255.53086
 21
422.40806
 31
0.0
  0
LINE
  8
LC-003-005-----0
  6
CONTINUOUS
  5
1C9
 10
253.53086
 20
423.236488
 30
0.0
 11
255.53086
 21
425.236488
 31
0.0
  0
LINE
  8
LC-003-005-----0
  6
CONTINUOUS
  5
1CA
 10
253.53086
 20
426.064915
 30
0.0
 11
255.53086
 21
428.064915
 31
0.0
  0
LINE
  8
LC-003-005-----0
  6
CONTINUOUS
  5
1CB
 10
253.53086
 20
428.893342
 30
0.0
 11
255.53086
 21
430.893342
 31
0.0
  0
LINE
  8
LC-003-005-----0
  6
CONTINUOUS
  5
1CC
 10
253.53086
 20
431.721769
 30
0.0
 11
255.53086
 21
433.721769
 31
0.0
  0
LINE
  8
LC-003-005-----0
  6
CONTINUOUS
  5
1CD
 10
253.53086
 20
434.550196
 30
0.0
 11
255.53086
 21
436.550196
 31
0.0
  0
LINE
  8
LC-003-005-----0
  6
CONTINUOUS
  5
1CE
 10
253.53086
 20
437.378623
 30
0.0
 11
255.53086
 21
439.378623
 31
0.0
  0
LINE
  8
LC-003-005-----0
  6
CONTINUOUS
  5
1CF
 10
253.53086
 20
440.20705
 30
0.0
 11
255.53086
 21
442.20705
 31
0.0
  0
LINE
  8
LC-003-005-----0
  6
CONTINUOUS
  5
1D0
 10
253.53086
 20
443.035477
 30
0.0
 11
255.53086
 21
445.035477
 31
0.0
  0
LINE
  8
LC-003-005-----0
  6
CONTINUOUS
  5
1D1
 10
253.53086
 20
445.863905
 30
0.0
 11
255.53086
 21
447.863905
 31
0.0
  0
LINE
  8
LC-003-005-----0
  6
CONTINUOUS
  5
1D2
 10
253.53086
 20
448.692332
 30
0.0
 11
255.53086
 21
450.692332
 31
0.0
  0
LINE
  8
LC-003-005-----0
  6
CONTINUOUS
  5
1D3
 10
253.53086
 20
451.520759
 30
0.0
 11
255.53086
 21
453.520759
 31
0.0
  0
LINE
  8
LC-003-005-----0
  6
CONTINUOUS
  5
1D4
 10
253.53086
 20
454.349186
 30
0.0
 11
255.53086
 21
456.349186
 31
0.0
  0
LINE
  8
LC-003-005-----0
  6
CONTINUOUS
  5
1D5
 10
253.53086
 20
457.177613
 30
0.0
 11
255.53086
 21
459.177613
 31
0.0
  0
LINE
  8
LC-003-005-----0
  6
CONTINUOUS
  5
1D6
 10
253.53086
 20
460.00604
 30
0.0
 11
255.53086
 21
462.00604
 31
0.0
  0
LINE
  8
LC-003-005-----0
  6
CONTINUOUS
  5
1D7
 10
253.53086
 20
462.834467
 30
0.0
 11
255.53086
 21
464.834467
 31
0.0
  0
LINE
  8
LC-003-005-----0
  6
CONTINUOUS
  5
1D8
 10
253.53086
 20
465.662894
 30
0.0
 11
255.53086
 21
467.662894
 31
0.0
  0
LINE
  8
LC-003-005-----0
  6
CONTINUOUS
  5
1D9
 10
253.53086
 20
468.491322
 30
0.0
 11
255.53086
 21
470.491322
 31
0.0
  0
LINE
  8
LC-003-005-----0
  6
CONTINUOUS
  5
1DA
 10
253.53086
 20
471.319749
 30
0.0
 11
255.53086
 21
473.319749
 31
0.0
  0
LINE
  8
LC-003-005-----0
  6
CONTINUOUS
  5
1DB
 10
253.53086
 20
474.148176
 30
0.0
 11
255.53086
 21
476.148176
 31
0.0
  0
LINE
  8
LC-003-005-----0
  6
CONTINUOUS
  5
1DC
 10
253.53086
 20
476.976603
 30
0.0
 11
255.53086
 21
478.976603
 31
0.0
  0
LINE
  8
LC-003-005-----0
  6
CONTINUOUS
  5
1DD
 10
253.53086
 20
479.80503
 30
0.0
 11
255.53086
 21
481.80503
 31
0.0
  0
LINE
  8
LC-003-005-----0
  6
CONTINUOUS
  5
1DE
 10
253.53086
 20
482.633457
 30
0.0
 11
255.53086
 21
484.633457
 31
0.0
  0
LINE
  8
LC-003-005-----0
  6
CONTINUOUS
  5
1DF
 10
253.53086
 20
485.461884
 30
0.0
 11
255.53086
 21
487.461884
 31
0.0
  0
LINE
  8
LC-003-005-----0
  6
CONTINUOUS
  5
1E0
 10
257.35161
 20
489.282634
 30
0.0
 11
259.03086
 21
490.961884
 31
0.0
  0
LINE
  8
LC-003-005-----0
  6
CONTINUOUS
  5
1E1
 10
253.53086
 20
488.290311
 30
0.0
 11
257.023183
 21
491.782634
 31
0.0
  0
LINE
  8
LC-003-005-----0
  6
CONTINUOUS
  5
1E2
 10
253.53086
 20
491.118739
 30
0.0
 11
254.194755
 21
491.782634
 31
0.0
  0
ENDBLK
  8
0
  5
1E3
  0
BLOCK
  8
0
  5
1E5
  2
*X17
 70
    65
 10
255.78086
 20
236.156
 30
0.0
  3
*X17
  0
LINE
  8
LC-003-005-----0
  6
CONTINUOUS
  5
1E6
 10
498.0857
 20
237.305352
 30
0.0
 11
497.235052
 21
238.156
 31
0.0
  0
LINE
  8
LC-003-005-----0
  6
CONTINUOUS
  5
1E7
 10
496.406625
 20
236.156
 30
0.0
 11
494.406625
 21
238.156
 31
0.0
  0
LINE
  8
LC-003-005-----0
  6
CONTINUOUS
  5
1E8
 10
493.578198
 20
236.156
 30
0.0
 11
491.578198
 21
238.156
 31
0.0
  0
LINE
  8
LC-003-005-----0
  6
CONTINUOUS
  5
1E9
 10
490.749771
 20
236.156
 30
0.0
 11
488.749771
 21
238.156
 31
0.0
  0
LINE
  8
LC-003-005-----0
  6
CONTINUOUS
  5
1EA
 10
487.921344
 20
236.156
 30
0.0
 11
485.921344
 21
238.156
 31
0.0
  0
LINE
  8
LC-003-005-----0
  6
CONTINUOUS
  5
1EB
 10
485.092917
 20
236.156
 30
0.0
 11
483.092917
 21
238.156
 31
0.0
  0
LINE
  8
LC-003-005-----0
  6
CONTINUOUS
  5
1EC
 10
482.26449
 20
236.156
 30
0.0
 11
480.26449
 21
238.156
 31
0.0
  0
LINE
  8
LC-003-005-----0
  6
CONTINUOUS
  5
1ED
 10
479.436063
 20
236.156
 30
0.0
 11
477.436063
 21
238.156
 31
0.0
  0
LINE
  8
LC-003-005-----0
  6
CONTINUOUS
  5
1EE
 10
476.607635
 20
236.156
 30
0.0
 11
474.607635
 21
238.156
 31
0.0
  0
LINE
  8
LC-003-005-----0
  6
CONTINUOUS
  5
1EF
 10
473.779208
 20
236.156
 30
0.0
 11
471.779208
 21
238.156
 31
0.0
  0
LINE
  8
LC-003-005-----0
  6
CONTINUOUS
  5
1F0
 10
470.950781
 20
236.156
 30
0.0
 11
468.950781
 21
238.156
 31
0.0
  0
LINE
  8
LC-003-005-----0
  6
CONTINUOUS
  5
1F1
 10
468.122354
 20
236.156
 30
0.0
 11
466.122354
 21
238.156
 31
0.0
  0
LINE
  8
LC-003-005-----0
  6
CONTINUOUS
  5
1F2
 10
465.293927
 20
236.156
 30
0.0
 11
463.293927
 21
238.156
 31
0.0
  0
LINE
  8
LC-003-005-----0
  6
CONTINUOUS
  5
1F3
 10
462.4655
 20
236.156
 30
0.0
 11
460.4655
 21
238.156
 31
0.0
  0
LINE
  8
LC-003-005-----0
  6
CONTINUOUS
  5
1F4
 10
459.637073
 20
236.156
 30
0.0
 11
457.637073
 21
238.156
 31
0.0
  0
LINE
  8
LC-003-005-----0
  6
CONTINUOUS
  5
1F5
 10
456.808646
 20
236.156
 30
0.0
 11
454.808646
 21
238.156
 31
0.0
  0
LINE
  8
LC-003-005-----0
  6
CONTINUOUS
  5
1F6
 10
453.980218
 20
236.156
 30
0.0
 11
451.980218
 21
238.156
 31
0.0
  0
LINE
  8
LC-003-005-----0
  6
CONTINUOUS
  5
1F7
 10
451.151791
 20
236.156
 30
0.0
 11
449.151791
 21
238.156
 31
0.0
  0
LINE
  8
LC-003-005-----0
  6
CONTINUOUS
  5
1F8
 10
448.323364
 20
236.156
 30
0.0
 11
446.323364
 21
238.156
 31
0.0
  0
LINE
  8
LC-003-005-----0
  6
CONTINUOUS
  5
1F9
 10
445.494937
 20
236.156
 30
0.0
 11
443.494937
 21
238.156
 31
0.0
  0
LINE
  8
LC-003-005-----0
  6
CONTINUOUS
  5
1FA
 10
442.66651
 20
236.156
 30
0.0
 11
440.66651
 21
238.156
 31
0.0
  0
LINE
  8
LC-003-005-----0
  6
CONTINUOUS
  5
1FB
 10
439.838083
 20
236.156
 30
0.0
 11
437.838083
 21
238.156
 31
0.0
  0
LINE
  8
LC-003-005-----0
  6
CONTINUOUS
  5
1FC
 10
437.009656
 20
236.156
 30
0.0
 11
435.009656
 21
238.156
 31
0.0
  0
LINE
  8
LC-003-005-----0
  6
CONTINUOUS
  5
1FD
 10
434.181229
 20
236.156
 30
0.0
 11
432.181229
 21
238.156
 31
0.0
  0
LINE
  8
LC-003-005-----0
  6
CONTINUOUS
  5
1FE
 10
431.352801
 20
236.156
 30
0.0
 11
429.352801
 21
238.156
 31
0.0
  0
LINE
  8
LC-003-005-----0
  6
CONTINUOUS
  5
1FF
 10
428.524374
 20
236.156
 30
0.0
 11
426.524374
 21
238.156
 31
0.0
  0
LINE
  8
LC-003-005-----0
  6
CONTINUOUS
  5
200
 10
425.695947
 20
236.156
 30
0.0
 11
423.695947
 21
238.156
 31
0.0
  0
LINE
  8
LC-003-005-----0
  6
CONTINUOUS
  5
201
 10
422.86752
 20
236.156
 30
0.0
 11
420.86752
 21
238.156
 31
0.0
  0
LINE
  8
LC-003-005-----0
  6
CONTINUOUS
  5
202
 10
420.039093
 20
236.156
 30
0.0
 11
418.039093
 21
238.156
 31
0.0
  0
LINE
  8
LC-003-005-----0
  6
CONTINUOUS
  5
203
 10
417.210666
 20
236.156
 30
0.0
 11
415.210666
 21
238.156
 31
0.0
  0
LINE
  8
LC-003-005-----0
  6
CONTINUOUS
  5
204
 10
414.382239
 20
236.156
 30
0.0
 11
412.382239
 21
238.156
 31
0.0
  0
LINE
  8
LC-003-005-----0
  6
CONTINUOUS
  5
205
 10
411.553812
 20
236.156
 30
0.0
 11
409.553812
 21
238.156
 31
0.0
  0
LINE
  8
LC-003-005-----0
  6
CONTINUOUS
  5
206
 10
408.725384
 20
236.156
 30
0.0
 11
406.725384
 21
238.156
 31
0.0
  0
LINE
  8
LC-003-005-----0
  6
CONTINUOUS
  5
207
 10
405.896957
 20
236.156
 30
0.0
 11
403.896957
 21
238.156
 31
0.0
  0
LINE
  8
LC-003-005-----0
  6
CONTINUOUS
  5
208
 10
403.06853
 20
236.156
 30
0.0
 11
401.06853
 21
238.156
 31
0.0
  0
LINE
  8
LC-003-005-----0
  6
CONTINUOUS
  5
209
 10
400.240103
 20
236.156
 30
0.0
 11
398.240103
 21
238.156
 31
0.0
  0
LINE
  8
LC-003-005-----0
  6
CONTINUOUS
  5
20A
 10
397.411676
 20
236.156
 30
0.0
 11
395.411676
 21
238.156
 31
0.0
  0
LINE
  8
LC-003-005-----0
  6
CONTINUOUS
  5
20B
 10
394.583249
 20
236.156
 30
0.0
 11
392.583249
 21
238.156
 31
0.0
  0
LINE
  8
LC-003-005-----0
  6
CONTINUOUS
  5
20C
 10
391.754822
 20
236.156
 30
0.0
 11
389.754822
 21
238.156
 31
0.0
  0
LINE
  8
LC-003-005-----0
  6
CONTINUOUS
  5
20D
 10
388.926395
 20
236.156
 30
0.0
 11
386.926395
 21
238.156
 31
0.0
  0
LINE
  8
LC-003-005-----0
  6
CONTINUOUS
  5
20E
 10
386.097967
 20
236.156
 30
0.0
 11
384.097967
 21
238.156
 31
0.0
  0
LINE
  8
LC-003-005-----0
  6
CONTINUOUS
  5
20F
 10
383.26954
 20
236.156
 30
0.0
 11
381.26954
 21
238.156
 31
0.0
  0
LINE
  8
LC-003-005-----0
  6
CONTINUOUS
  5
210
 10
380.441113
 20
236.156
 30
0.0
 11
378.441113
 21
238.156
 31
0.0
  0
LINE
  8
LC-003-005-----0
  6
CONTINUOUS
  5
211
 10
377.612686
 20
236.156
 30
0.0
 11
375.612686
 21
238.156
 31
0.0
  0
LINE
  8
LC-003-005-----0
  6
CONTINUOUS
  5
212
 10
374.784259
 20
236.156
 30
0.0
 11
372.784259
 21
238.156
 31
0.0
  0
LINE
  8
LC-003-005-----0
  6
CONTINUOUS
  5
213
 10
371.955832
 20
236.156
 30
0.0
 11
369.955832
 21
238.156
 31
0.0
  0
LINE
  8
LC-003-005-----0
  6
CONTINUOUS
  5
214
 10
369.127405
 20
236.156
 30
0.0
 11
367.127405
 21
238.156
 31
0.0
  0
LINE
  8
LC-003-005-----0
  6
CONTINUOUS
  5
215
 10
366.298978
 20
236.156
 30
0.0
 11
364.298978
 21
238.156
 31
0.0
  0
LINE
  8
LC-003-005-----0
  6
CONTINUOUS
  5
216
 10
363.47055
 20
236.156
 30
0.0
 11
361.47055
 21
238.156
 31
0.0
  0
LINE
  8
LC-003-005-----0
  6
CONTINUOUS
  5
217
 10
360.642123
 20
236.156
 30
0.0
 11
358.642123
 21
238.156
 31
0.0
  0
LINE
  8
LC-003-005-----0
  6
CONTINUOUS
  5
218
 10
357.813696
 20
236.156
 30
0.0
 11
355.813696
 21
238.156
 31
0.0
  0
LINE
  8
LC-003-005-----0
  6
CONTINUOUS
  5
219
 10
354.985269
 20
236.156
 30
0.0
 11
352.985269
 21
238.156
 31
0.0
  0
LINE
  8
LC-003-005-----0
  6
CONTINUOUS
  5
21A
 10
352.156842
 20
236.156
 30
0.0
 11
350.156842
 21
238.156
 31
0.0
  0
LINE
  8
LC-003-005-----0
  6
CONTINUOUS
  5
21B
 10
349.328415
 20
236.156
 30
0.0
 11
347.328415
 21
238.156
 31
0.0
  0
LINE
  8
LC-003-005-----0
  6
CONTINUOUS
  5
21C
 10
346.499988
 20
236.156
 30
0.0
 11
344.499988
 21
238.156
 31
0.0
  0
LINE
  8
LC-003-005-----0
  6
CONTINUOUS
  5
21D
 10
343.671561
 20
236.156
 30
0.0
 11
341.671561
 21
238.156
 31
0.0
  0
LINE
  8
LC-003-005-----0
  6
CONTINUOUS
  5
21E
 10
340.843133
 20
236.156
 30
0.0
 11
338.843133
 21
238.156
 31
0.0
  0
LINE
  8
LC-003-005-----0
  6
CONTINUOUS
  5
21F
 10
338.014706
 20
236.156
 30
0.0
 11
336.014706
 21
238.156
 31
0.0
  0
LINE
  8
LC-003-005-----0
  6
CONTINUOUS
  5
220
 10
335.186279
 20
236.156
 30
0.0
 11
333.186279
 21
238.156
 31
0.0
  0
LINE
  8
LC-003-005-----0
  6
CONTINUOUS
  5
221
 10
332.357852
 20
236.156
 30
0.0
 11
330.357852
 21
238.156
 31
0.0
  0
LINE
  8
LC-003-005-----0
  6
CONTINUOUS
  5
222
 10
329.529425
 20
236.156
 30
0.0
 11
327.529425
 21
238.156
 31
0.0
  0
LINE
  8
LC-003-005-----0
  6
CONTINUOUS
  5
223
 10
326.700998
 20
236.156
 30
0.0
 11
324.700998
 21
238.156
 31
0.0
  0
LINE
  8
LC-003-005-----0
  6
CONTINUOUS
  5
224
 10
323.872571
 20
236.156
 30
0.0
 11
321.872571
 21
238.156
 31
0.0
  0
LINE
  8
LC-003-005-----0
  6
CONTINUOUS
  5
225
 10
321.044144
 20
236.156
 30
0.0
 11
319.044144
 21
238.156
 31
0.0
  0
LINE
  8
LC-003-005-----0
  6
CONTINUOUS
  5
226
 10
318.215716
 20
236.156
 30
0.0
 11
316.215716
 21
238.156
 31
0.0
  0
LINE
  8
LC-003-005-----0
  6
CONTINUOUS
  5
227
 10
315.387289
 20
236.156
 30
0.0
 11
313.387289
 21
238.156
 31
0.0
  0
LINE
  8
LC-003-005-----0
  6
CONTINUOUS
  5
228
 10
312.558862
 20
236.156
 30
0.0
 11
310.558862
 21
238.156
 31
0.0
  0
LINE
  8
LC-003-005-----0
  6
CONTINUOUS
  5
229
 10
309.730435
 20
236.156
 30
0.0
 11
307.730435
 21
238.156
 31
0.0
  0
LINE
  8
LC-003-005-----0
  6
CONTINUOUS
  5
22A
 10
306.902008
 20
236.156
 30
0.0
 11
304.902008
 21
238.156
 31
0.0
  0
LINE
  8
LC-003-005-----0
  6
CONTINUOUS
  5
22B
 10
304.073581
 20
236.156
 30
0.0
 11
302.073581
 21
238.156
 31
0.0
  0
LINE
  8
LC-003-005-----0
  6
CONTINUOUS
  5
22C
 10
301.245154
 20
236.156
 30
0.0
 11
299.245154
 21
238.156
 31
0.0
  0
LINE
  8
LC-003-005-----0
  6
CONTINUOUS
  5
22D
 10
298.416727
 20
236.156
 30
0.0
 11
296.416727
 21
238.156
 31
0.0
  0
LINE
  8
LC-003-005-----0
  6
CONTINUOUS
  5
22E
 10
295.588299
 20
236.156
 30
0.0
 11
293.588299
 21
238.156
 31
0.0
  0
LINE
  8
LC-003-005-----0
  6
CONTINUOUS
  5
22F
 10
292.759872
 20
236.156
 30
0.0
 11
290.759872
 21
238.156
 31
0.0
  0
LINE
  8
LC-003-005-----0
  6
CONTINUOUS
  5
230
 10
289.931445
 20
236.156
 30
0.0
 11
287.931445
 21
238.156
 31
0.0
  0
LINE
  8
LC-003-005-----0
  6
CONTINUOUS
  5
231
 10
287.103018
 20
236.156
 30
0.0
 11
285.103018
 21
238.156
 31
0.0
  0
LINE
  8
LC-003-005-----0
  6
CONTINUOUS
  5
232
 10
284.274591
 20
236.156
 30
0.0
 11
282.274591
 21
238.156
 31
0.0
  0
LINE
  8
LC-003-005-----0
  6
CONTINUOUS
  5
233
 10
257.78086
 20
262.649731
 30
0.0
 11
256.60435
 21
263.826241
 31
0.0
  0
LINE
  8
LC-003-005-----0
  6
CONTINUOUS
  5
234
 10
281.446164
 20
236.156
 30
0.0
 11
279.446164
 21
238.156
 31
0.0
  0
LINE
  8
LC-003-005-----0
  6
CONTINUOUS
  5
235
 10
257.78086
 20
259.821304
 30
0.0
 11
256.180379
 21
261.421785
 31
0.0
  0
LINE
  8
LC-003-005-----0
  6
CONTINUOUS
  5
236
 10
278.617737
 20
236.156
 30
0.0
 11
276.617737
 21
238.156
 31
0.0
  0
LINE
  8
LC-003-005-----0
  6
CONTINUOUS
  5
237
 10
257.78086
 20
256.992877
 30
0.0
 11
255.78086
 21
258.992877
 31
0.0
  0
LINE
  8
LC-003-005-----0
  6
CONTINUOUS
  5
238
 10
275.78931
 20
236.156
 30
0.0
 11
273.78931
 21
238.156
 31
0.0
  0
LINE
  8
LC-003-005-----0
  6
CONTINUOUS
  5
239
 10
257.78086
 20
254.164449
 30
0.0
 11
255.78086
 21
256.164449
 31
0.0
  0
LINE
  8
LC-003-005-----0
  6
CONTINUOUS
  5
23A
 10
272.960882
 20
236.156
 30
0.0
 11
270.960882
 21
238.156
 31
0.0
  0
LINE
  8
LC-003-005-----0
  6
CONTINUOUS
  5
23B
 10
257.78086
 20
251.336022
 30
0.0
 11
255.78086
 21
253.336022
 31
0.0
  0
LINE
  8
LC-003-005-----0
  6
CONTINUOUS
  5
23C
 10
270.132455
 20
236.156
 30
0.0
 11
268.132455
 21
238.156
 31
0.0
  0
LINE
  8
LC-003-005-----0
  6
CONTINUOUS
  5
23D
 10
257.78086
 20
248.507595
 30
0.0
 11
255.78086
 21
250.507595
 31
0.0
  0
LINE
  8
LC-003-005-----0
  6
CONTINUOUS
  5
23E
 10
267.304028
 20
236.156
 30
0.0
 11
265.304028
 21
238.156
 31
0.0
  0
LINE
  8
LC-003-005-----0
  6
CONTINUOUS
  5
23F
 10
257.78086
 20
245.679168
 30
0.0
 11
255.78086
 21
247.679168
 31
0.0
  0
LINE
  8
LC-003-005-----0
  6
CONTINUOUS
  5
240
 10
264.475601
 20
236.156
 30
0.0
 11
262.475601
 21
238.156
 31
0.0
  0
LINE
  8
LC-003-005-----0
  6
CONTINUOUS
  5
241
 10
257.78086
 20
242.850741
 30
0.0
 11
255.78086
 21
244.850741
 31
0.0
  0
LINE
  8
LC-003-005-----0
  6
CONTINUOUS
  5
242
 10
261.647174
 20
236.156
 30
0.0
 11
259.647174
 21
238.156
 31
0.0
  0
LINE
  8
LC-003-005-----0
  6
CONTINUOUS
  5
243
 10
257.78086
 20
240.022314
 30
0.0
 11
255.78086
 21
242.022314
 31
0.0
  0
LINE
  8
LC-003-005-----0
  6
CONTINUOUS
  5
244
 10
258.818747
 20
236.156
 30
0.0
 11
255.78086
 21
239.193887
 31
0.0
  0
LINE
  8
LC-003-005-----0
  6
CONTINUOUS
  5
245
 10
255.99032
 20
236.156
 30
0.0
 11
255.78086
 21
236.36546
 31
0.0
  0
ENDBLK
  8
0
  5
246
  0
BLOCK
  8
0
  5
248
  2
*X18
 70
    65
 10
498.0857
 20
236.156
 30
0.0
  3
*X18
  0
LINE
  8
LC-003-005-----0
  6
CONTINUOUS
  5
249
 10
538.833032
 20
236.156
 30
0.0
 11
537.035141
 21
237.953891
 31
0.0
  0
LINE
  8
LC-003-005-----0
  6
CONTINUOUS
  5
24A
 10
536.004605
 20
236.156
 30
0.0
 11
534.004605
 21
238.156
 31
0.0
  0
LINE
  8
LC-003-005-----0
  6
CONTINUOUS
  5
24B
 10
533.176178
 20
236.156
 30
0.0
 11
531.176178
 21
238.156
 31
0.0
  0
LINE
  8
LC-003-005-----0
  6
CONTINUOUS
  5
24C
 10
530.347751
 20
236.156
 30
0.0
 11
528.347751
 21
238.156
 31
0.0
  0
LINE
  8
LC-003-005-----0
  6
CONTINUOUS
  5
24D
 10
527.519324
 20
236.156
 30
0.0
 11
525.519324
 21
238.156
 31
0.0
  0
LINE
  8
LC-003-005-----0
  6
CONTINUOUS
  5
24E
 10
524.690897
 20
236.156
 30
0.0
 11
522.690897
 21
238.156
 31
0.0
  0
LINE
  8
LC-003-005-----0
  6
CONTINUOUS
  5
24F
 10
521.862469
 20
236.156
 30
0.0
 11
519.862469
 21
238.156
 31
0.0
  0
LINE
  8
LC-003-005-----0
  6
CONTINUOUS
  5
250
 10
519.034042
 20
236.156
 30
0.0
 11
517.034042
 21
238.156
 31
0.0
  0
LINE
  8
LC-003-005-----0
  6
CONTINUOUS
  5
251
 10
516.205615
 20
236.156
 30
0.0
 11
514.205615
 21
238.156
 31
0.0
  0
LINE
  8
LC-003-005-----0
  6
CONTINUOUS
  5
252
 10
513.377188
 20
236.156
 30
0.0
 11
511.377188
 21
238.156
 31
0.0
  0
LINE
  8
LC-003-005-----0
  6
CONTINUOUS
  5
253
 10
510.548761
 20
236.156
 30
0.0
 11
508.548761
 21
238.156
 31
0.0
  0
LINE
  8
LC-003-005-----0
  6
CONTINUOUS
  5
254
 10
507.720334
 20
236.156
 30
0.0
 11
505.720334
 21
238.156
 31
0.0
  0
LINE
  8
LC-003-005-----0
  6
CONTINUOUS
  5
255
 10
504.891907
 20
236.156
 30
0.0
 11
502.891907
 21
238.156
 31
0.0
  0
LINE
  8
LC-003-005-----0
  6
CONTINUOUS
  5
256
 10
502.06348
 20
236.156
 30
0.0
 11
500.06348
 21
238.156
 31
0.0
  0
LINE
  8
LC-003-005-----0
  6
CONTINUOUS
  5
257
 10
499.235052
 20
236.156
 30
0.0
 11
498.0857
 21
237.305352
 31
0.0
  0
ENDBLK
  8
0
  5
258
  0
BLOCK
  8
0
  5
25A
  2
*X19
 70
    65
 10
221.78086
 20
205.281249
 30
0.0
  3
*X19
  0
LINE
  8
LC-003-005-----0
  6
CONTINUOUS
  5
25B
 10
498.0857
 20
206.192654
 30
0.0
 11
496.122354
 21
208.156
 31
0.0
  0
LINE
  8
LC-003-005-----0
  6
CONTINUOUS
  5
25C
 10
495.293927
 20
206.156
 30
0.0
 11
493.293927
 21
208.156
 31
0.0
  0
LINE
  8
LC-003-005-----0
  6
CONTINUOUS
  5
25D
 10
492.340199
 20
206.281301
 30
0.0
 11
490.4655
 21
208.156
 31
0.0
  0
LINE
  8
LC-003-005-----0
  6
CONTINUOUS
  5
25E
 10
489.637073
 20
206.156
 30
0.0
 11
487.637073
 21
208.156
 31
0.0
  0
LINE
  8
LC-003-005-----0
  6
CONTINUOUS
  5
25F
 10
486.808646
 20
206.156
 30
0.0
 11
484.808646
 21
208.156
 31
0.0
  0
LINE
  8
LC-003-005-----0
  6
CONTINUOUS
  5
260
 10
483.980218
 20
206.156
 30
0.0
 11
481.980218
 21
208.156
 31
0.0
  0
LINE
  8
LC-003-005-----0
  6
CONTINUOUS
  5
261
 10
481.151791
 20
206.156
 30
0.0
 11
479.151791
 21
208.156
 31
0.0
  0
LINE
  8
LC-003-005-----0
  6
CONTINUOUS
  5
262
 10
478.323364
 20
206.156
 30
0.0
 11
476.323364
 21
208.156
 31
0.0
  0
LINE
  8
LC-003-005-----0
  6
CONTINUOUS
  5
263
 10
475.494937
 20
206.156
 30
0.0
 11
473.494937
 21
208.156
 31
0.0
  0
LINE
  8
LC-003-005-----0
  6
CONTINUOUS
  5
264
 10
472.66651
 20
206.156
 30
0.0
 11
470.66651
 21
208.156
 31
0.0
  0
LINE
  8
LC-003-005-----0
  6
CONTINUOUS
  5
265
 10
469.838083
 20
206.156
 30
0.0
 11
467.838083
 21
208.156
 31
0.0
  0
LINE
  8
LC-003-005-----0
  6
CONTINUOUS
  5
266
 10
467.009656
 20
206.156
 30
0.0
 11
465.009656
 21
208.156
 31
0.0
  0
LINE
  8
LC-003-005-----0
  6
CONTINUOUS
  5
267
 10
464.181229
 20
206.156
 30
0.0
 11
462.181229
 21
208.156
 31
0.0
  0
LINE
  8
LC-003-005-----0
  6
CONTINUOUS
  5
268
 10
461.352801
 20
206.156
 30
0.0
 11
459.352801
 21
208.156
 31
0.0
  0
LINE
  8
LC-003-005-----0
  6
CONTINUOUS
  5
269
 10
458.524374
 20
206.156
 30
0.0
 11
456.524374
 21
208.156
 31
0.0
  0
LINE
  8
LC-003-005-----0
  6
CONTINUOUS
  5
26A
 10
455.695947
 20
206.156
 30
0.0
 11
453.695947
 21
208.156
 31
0.0
  0
LINE
  8
LC-003-005-----0
  6
CONTINUOUS
  5
26B
 10
452.86752
 20
206.156
 30
0.0
 11
450.86752
 21
208.156
 31
0.0
  0
LINE
  8
LC-003-005-----0
  6
CONTINUOUS
  5
26C
 10
450.039093
 20
206.156
 30
0.0
 11
448.039093
 21
208.156
 31
0.0
  0
LINE
  8
LC-003-005-----0
  6
CONTINUOUS
  5
26D
 10
447.210666
 20
206.156
 30
0.0
 11
445.210666
 21
208.156
 31
0.0
  0
LINE
  8
LC-003-005-----0
  6
CONTINUOUS
  5
26E
 10
444.382239
 20
206.156
 30
0.0
 11
442.382239
 21
208.156
 31
0.0
  0
LINE
  8
LC-003-005-----0
  6
CONTINUOUS
  5
26F
 10
441.553812
 20
206.156
 30
0.0
 11
439.553812
 21
208.156
 31
0.0
  0
LINE
  8
LC-003-005-----0
  6
CONTINUOUS
  5
270
 10
438.725384
 20
206.156
 30
0.0
 11
436.725384
 21
208.156
 31
0.0
  0
LINE
  8
LC-003-005-----0
  6
CONTINUOUS
  5
271
 10
435.896957
 20
206.156
 30
0.0
 11
433.896957
 21
208.156
 31
0.0
  0
LINE
  8
LC-003-005-----0
  6
CONTINUOUS
  5
272
 10
433.06853
 20
206.156
 30
0.0
 11
431.06853
 21
208.156
 31
0.0
  0
LINE
  8
LC-003-005-----0
  6
CONTINUOUS
  5
273
 10
430.240103
 20
206.156
 30
0.0
 11
428.240103
 21
208.156
 31
0.0
  0
LINE
  8
LC-003-005-----0
  6
CONTINUOUS
  5
274
 10
427.411676
 20
206.156
 30
0.0
 11
425.411676
 21
208.156
 31
0.0
  0
LINE
  8
LC-003-005-----0
  6
CONTINUOUS
  5
275
 10
424.583249
 20
206.156
 30
0.0
 11
422.583249
 21
208.156
 31
0.0
  0
LINE
  8
LC-003-005-----0
  6
CONTINUOUS
  5
276
 10
421.754822
 20
206.156
 30
0.0
 11
419.754822
 21
208.156
 31
0.0
  0
LINE
  8
LC-003-005-----0
  6
CONTINUOUS
  5
277
 10
418.926395
 20
206.156
 30
0.0
 11
416.926395
 21
208.156
 31
0.0
  0
LINE
  8
LC-003-005-----0
  6
CONTINUOUS
  5
278
 10
416.097967
 20
206.156
 30
0.0
 11
414.097967
 21
208.156
 31
0.0
  0
LINE
  8
LC-003-005-----0
  6
CONTINUOUS
  5
279
 10
413.26954
 20
206.156
 30
0.0
 11
411.26954
 21
208.156
 31
0.0
  0
LINE
  8
LC-003-005-----0
  6
CONTINUOUS
  5
27A
 10
410.441113
 20
206.156
 30
0.0
 11
408.441113
 21
208.156
 31
0.0
  0
LINE
  8
LC-003-005-----0
  6
CONTINUOUS
  5
27B
 10
407.612686
 20
206.156
 30
0.0
 11
405.612686
 21
208.156
 31
0.0
  0
LINE
  8
LC-003-005-----0
  6
CONTINUOUS
  5
27C
 10
404.784259
 20
206.156
 30
0.0
 11
402.784259
 21
208.156
 31
0.0
  0
LINE
  8
LC-003-005-----0
  6
CONTINUOUS
  5
27D
 10
401.955832
 20
206.156
 30
0.0
 11
399.955832
 21
208.156
 31
0.0
  0
LINE
  8
LC-003-005-----0
  6
CONTINUOUS
  5
27E
 10
399.127405
 20
206.156
 30
0.0
 11
397.127405
 21
208.156
 31
0.0
  0
LINE
  8
LC-003-005-----0
  6
CONTINUOUS
  5
27F
 10
396.298978
 20
206.156
 30
0.0
 11
394.298978
 21
208.156
 31
0.0
  0
LINE
  8
LC-003-005-----0
  6
CONTINUOUS
  5
280
 10
393.47055
 20
206.156
 30
0.0
 11
391.47055
 21
208.156
 31
0.0
  0
LINE
  8
LC-003-005-----0
  6
CONTINUOUS
  5
281
 10
390.642123
 20
206.156
 30
0.0
 11
388.642123
 21
208.156
 31
0.0
  0
LINE
  8
LC-003-005-----0
  6
CONTINUOUS
  5
282
 10
387.813696
 20
206.156
 30
0.0
 11
385.813696
 21
208.156
 31
0.0
  0
LINE
  8
LC-003-005-----0
  6
CONTINUOUS
  5
283
 10
384.985269
 20
206.156
 30
0.0
 11
382.985269
 21
208.156
 31
0.0
  0
LINE
  8
LC-003-005-----0
  6
CONTINUOUS
  5
284
 10
382.156842
 20
206.156
 30
0.0
 11
380.156842
 21
208.156
 31
0.0
  0
LINE
  8
LC-003-005-----0
  6
CONTINUOUS
  5
285
 10
379.328415
 20
206.156
 30
0.0
 11
377.328415
 21
208.156
 31
0.0
  0
LINE
  8
LC-003-005-----0
  6
CONTINUOUS
  5
286
 10
376.499988
 20
206.156
 30
0.0
 11
374.499988
 21
208.156
 31
0.0
  0
LINE
  8
LC-003-005-----0
  6
CONTINUOUS
  5
287
 10
373.671561
 20
206.156
 30
0.0
 11
371.671561
 21
208.156
 31
0.0
  0
LINE
  8
LC-003-005-----0
  6
CONTINUOUS
  5
288
 10
370.843133
 20
206.156
 30
0.0
 11
368.843133
 21
208.156
 31
0.0
  0
LINE
  8
LC-003-005-----0
  6
CONTINUOUS
  5
289
 10
368.014706
 20
206.156
 30
0.0
 11
366.014706
 21
208.156
 31
0.0
  0
LINE
  8
LC-003-005-----0
  6
CONTINUOUS
  5
28A
 10
365.186279
 20
206.156
 30
0.0
 11
363.186279
 21
208.156
 31
0.0
  0
LINE
  8
LC-003-005-----0
  6
CONTINUOUS
  5
28B
 10
362.357852
 20
206.156
 30
0.0
 11
360.357852
 21
208.156
 31
0.0
  0
LINE
  8
LC-003-005-----0
  6
CONTINUOUS
  5
28C
 10
359.529425
 20
206.156
 30
0.0
 11
357.529425
 21
208.156
 31
0.0
  0
LINE
  8
LC-003-005-----0
  6
CONTINUOUS
  5
28D
 10
356.700998
 20
206.156
 30
0.0
 11
354.700998
 21
208.156
 31
0.0
  0
LINE
  8
LC-003-005-----0
  6
CONTINUOUS
  5
28E
 10
353.872571
 20
206.156
 30
0.0
 11
351.872571
 21
208.156
 31
0.0
  0
LINE
  8
LC-003-005-----0
  6
CONTINUOUS
  5
28F
 10
351.044144
 20
206.156
 30
0.0
 11
349.044144
 21
208.156
 31
0.0
  0
LINE
  8
LC-003-005-----0
  6
CONTINUOUS
  5
290
 10
348.215716
 20
206.156
 30
0.0
 11
346.215716
 21
208.156
 31
0.0
  0
LINE
  8
LC-003-005-----0
  6
CONTINUOUS
  5
291
 10
345.387289
 20
206.156
 30
0.0
 11
343.387289
 21
208.156
 31
0.0
  0
LINE
  8
LC-003-005-----0
  6
CONTINUOUS
  5
292
 10
342.558862
 20
206.156
 30
0.0
 11
340.558862
 21
208.156
 31
0.0
  0
LINE
  8
LC-003-005-----0
  6
CONTINUOUS
  5
293
 10
339.730435
 20
206.156
 30
0.0
 11
337.730435
 21
208.156
 31
0.0
  0
LINE
  8
LC-003-005-----0
  6
CONTINUOUS
  5
294
 10
336.902008
 20
206.156
 30
0.0
 11
334.902008
 21
208.156
 31
0.0
  0
LINE
  8
LC-003-005-----0
  6
CONTINUOUS
  5
295
 10
334.073581
 20
206.156
 30
0.0
 11
332.073581
 21
208.156
 31
0.0
  0
LINE
  8
LC-003-005-----0
  6
CONTINUOUS
  5
296
 10
331.245154
 20
206.156
 30
0.0
 11
329.245154
 21
208.156
 31
0.0
  0
LINE
  8
LC-003-005-----0
  6
CONTINUOUS
  5
297
 10
328.416727
 20
206.156
 30
0.0
 11
326.416727
 21
208.156
 31
0.0
  0
LINE
  8
LC-003-005-----0
  6
CONTINUOUS
  5
298
 10
325.588299
 20
206.156
 30
0.0
 11
323.588299
 21
208.156
 31
0.0
  0
LINE
  8
LC-003-005-----0
  6
CONTINUOUS
  5
299
 10
322.759872
 20
206.156
 30
0.0
 11
320.759872
 21
208.156
 31
0.0
  0
LINE
  8
LC-003-005-----0
  6
CONTINUOUS
  5
29A
 10
319.931445
 20
206.156
 30
0.0
 11
317.931445
 21
208.156
 31
0.0
  0
LINE
  8
LC-003-005-----0
  6
CONTINUOUS
  5
29B
 10
317.103018
 20
206.156
 30
0.0
 11
315.103018
 21
208.156
 31
0.0
  0
LINE
  8
LC-003-005-----0
  6
CONTINUOUS
  5
29C
 10
314.274591
 20
206.156
 30
0.0
 11
312.274591
 21
208.156
 31
0.0
  0
LINE
  8
LC-003-005-----0
  6
CONTINUOUS
  5
29D
 10
311.446164
 20
206.156
 30
0.0
 11
309.446164
 21
208.156
 31
0.0
  0
LINE
  8
LC-003-005-----0
  6
CONTINUOUS
  5
29E
 10
308.617737
 20
206.156
 30
0.0
 11
306.617737
 21
208.156
 31
0.0
  0
LINE
  8
LC-003-005-----0
  6
CONTINUOUS
  5
29F
 10
305.78931
 20
206.156
 30
0.0
 11
303.78931
 21
208.156
 31
0.0
  0
LINE
  8
LC-003-005-----0
  6
CONTINUOUS
  5
2A0
 10
302.960882
 20
206.156
 30
0.0
 11
300.960882
 21
208.156
 31
0.0
  0
LINE
  8
LC-003-005-----0
  6
CONTINUOUS
  5
2A1
 10
300.132455
 20
206.156
 30
0.0
 11
298.132455
 21
208.156
 31
0.0
  0
LINE
  8
LC-003-005-----0
  6
CONTINUOUS
  5
2A2
 10
297.304028
 20
206.156
 30
0.0
 11
295.304028
 21
208.156
 31
0.0
  0
LINE
  8
LC-003-005-----0
  6
CONTINUOUS
  5
2A3
 10
294.475601
 20
206.156
 30
0.0
 11
292.475601
 21
208.156
 31
0.0
  0
LINE
  8
LC-003-005-----0
  6
CONTINUOUS
  5
2A4
 10
291.647174
 20
206.156
 30
0.0
 11
289.647174
 21
208.156
 31
0.0
  0
LINE
  8
LC-003-005-----0
  6
CONTINUOUS
  5
2A5
 10
288.818747
 20
206.156
 30
0.0
 11
286.818747
 21
208.156
 31
0.0
  0
LINE
  8
LC-003-005-----0
  6
CONTINUOUS
  5
2A6
 10
285.99032
 20
206.156
 30
0.0
 11
283.99032
 21
208.156
 31
0.0
  0
LINE
  8
LC-003-005-----0
  6
CONTINUOUS
  5
2A7
 10
283.161893
 20
206.156
 30
0.0
 11
281.161893
 21
208.156
 31
0.0
  0
LINE
  8
LC-003-005-----0
  6
CONTINUOUS
  5
2A8
 10
280.333465
 20
206.156
 30
0.0
 11
278.333465
 21
208.156
 31
0.0
  0
LINE
  8
LC-003-005-----0
  6
CONTINUOUS
  5
2A9
 10
223.02034
 20
263.469126
 30
0.0
 11
221.78086
 21
264.708605
 31
0.0
  0
LINE
  8
LC-003-005-----0
  6
CONTINUOUS
  5
2AA
 10
277.505038
 20
206.156
 30
0.0
 11
275.505038
 21
208.156
 31
0.0
  0
LINE
  8
LC-003-005-----0
  6
CONTINUOUS
  5
2AB
 10
223.625832
 20
260.035206
 30
0.0
 11
221.78086
 21
261.880178
 31
0.0
  0
LINE
  8
LC-003-005-----0
  6
CONTINUOUS
  5
2AC
 10
274.676611
 20
206.156
 30
0.0
 11
272.676611
 21
208.156
 31
0.0
  0
LINE
  8
LC-003-005-----0
  6
CONTINUOUS
  5
2AD
 10
223.78086
 20
257.051751
 30
0.0
 11
221.78086
 21
259.051751
 31
0.0
  0
LINE
  8
LC-003-005-----0
  6
CONTINUOUS
  5
2AE
 10
271.848184
 20
206.156
 30
0.0
 11
269.848184
 21
208.156
 31
0.0
  0
LINE
  8
LC-003-005-----0
  6
CONTINUOUS
  5
2AF
 10
223.78086
 20
254.223324
 30
0.0
 11
221.78086
 21
256.223324
 31
0.0
  0
LINE
  8
LC-003-005-----0
  6
CONTINUOUS
  5
2B0
 10
269.019757
 20
206.156
 30
0.0
 11
267.019757
 21
208.156
 31
0.0
  0
LINE
  8
LC-003-005-----0
  6
CONTINUOUS
  5
2B1
 10
223.78086
 20
251.394897
 30
0.0
 11
221.78086
 21
253.394897
 31
0.0
  0
LINE
  8
LC-003-005-----0
  6
CONTINUOUS
  5
2B2
 10
266.19133
 20
206.156
 30
0.0
 11
264.19133
 21
208.156
 31
0.0
  0
LINE
  8
LC-003-005-----0
  6
CONTINUOUS
  5
2B3
 10
223.78086
 20
248.56647
 30
0.0
 11
221.78086
 21
250.56647
 31
0.0
  0
LINE
  8
LC-003-005-----0
  6
CONTINUOUS
  5
2B4
 10
263.362903
 20
206.156
 30
0.0
 11
261.362903
 21
208.156
 31
0.0
  0
LINE
  8
LC-003-005-----0
  6
CONTINUOUS
  5
2B5
 10
223.78086
 20
245.738043
 30
0.0
 11
221.78086
 21
247.738043
 31
0.0
  0
LINE
  8
LC-003-005-----0
  6
CONTINUOUS
  5
2B6
 10
260.534476
 20
206.156
 30
0.0
 11
258.534476
 21
208.156
 31
0.0
  0
LINE
  8
LC-003-005-----0
  6
CONTINUOUS
  5
2B7
 10
223.78086
 20
242.909615
 30
0.0
 11
221.78086
 21
244.909615
 31
0.0
  0
LINE
  8
LC-003-005-----0
  6
CONTINUOUS
  5
2B8
 10
257.706048
 20
206.156
 30
0.0
 11
255.706048
 21
208.156
 31
0.0
  0
LINE
  8
LC-003-005-----0
  6
CONTINUOUS
  5
2B9
 10
223.78086
 20
240.081188
 30
0.0
 11
221.78086
 21
242.081188
 31
0.0
  0
LINE
  8
LC-003-005-----0
  6
CONTINUOUS
  5
2BA
 10
254.877621
 20
206.156
 30
0.0
 11
252.863595
 21
208.170026
 31
0.0
  0
LINE
  8
LC-003-005-----0
  6
CONTINUOUS
  5
2BB
 10
223.794886
 20
237.238735
 30
0.0
 11
221.78086
 21
239.252761
 31
0.0
  0
LINE
  8
LC-003-005-----0
  6
CONTINUOUS
  5
2BC
 10
251.999578
 20
206.205616
 30
0.0
 11
249.781405
 21
208.423789
 31
0.0
  0
LINE
  8
LC-003-005-----0
  6
CONTINUOUS
  5
2BD
 10
224.048649
 20
234.156545
 30
0.0
 11
221.830476
 21
236.374718
 31
0.0
  0
LINE
  8
LC-003-005-----0
  6
CONTINUOUS
  5
2BE
 10
248.836476
 20
206.540291
 30
0.0
 11
246.263708
 21
209.113059
 31
0.0
  0
LINE
  8
LC-003-005-----0
  6
CONTINUOUS
  5
2BF
 10
224.737919
 20
230.638848
 30
0.0
 11
222.165151
 21
233.211616
 31
0.0
  0
LINE
  8
LC-003-005-----0
  6
CONTINUOUS
  5
2C0
 10
245.228239
 20
207.320101
 30
0.0
 11
241.969247
 21
210.579093
 31
0.0
  0
LINE
  8
LC-003-005-----0
  6
CONTINUOUS
  5
2C1
 10
226.203953
 20
226.344387
 30
0.0
 11
222.944961
 21
229.603379
 31
0.0
  0
LINE
  8
LC-003-005-----0
  6
CONTINUOUS
  5
2C2
 10
240.82299
 20
208.896923
 30
0.0
 11
234.777699
 21
214.942214
 31
0.0
  0
LINE
  8
LC-003-005-----0
  6
CONTINUOUS
  5
2C3
 10
230.567074
 20
219.152839
 30
0.0
 11
224.521783
 21
225.19813
 31
0.0
  0
LINE
  8
LC-003-005-----0
  6
CONTINUOUS
  5
2C4
 10
233.432698
 20
213.458787
 30
0.0
 11
229.083648
 21
217.807838
 31
0.0
  0
ENDBLK
  8
0
  5
2C5
  0
BLOCK
  8
0
  5
2C7
  2
*X20
 70
    65
 10
498.0857
 20
206.156
 30
0.0
  3
*X20
  0
LINE
  8
LC-003-005-----0
  6
CONTINUOUS
  5
2C8
 10
539.646847
 20
207.057914
 30
0.0
 11
538.548761
 21
208.156
 31
0.0
  0
LINE
  8
LC-003-005-----0
  6
CONTINUOUS
  5
2C9
 10
537.416137
 20
206.460197
 30
0.0
 11
535.720334
 21
208.156
 31
0.0
  0
LINE
  8
LC-003-005-----0
  6
CONTINUOUS
  5
2CA
 10
534.891907
 20
206.156
 30
0.0
 11
532.891907
 21
208.156
 31
0.0
  0
LINE
  8
LC-003-005-----0
  6
CONTINUOUS
  5
2CB
 10
532.06348
 20
206.156
 30
0.0
 11
530.06348
 21
208.156
 31
0.0
  0
LINE
  8
LC-003-005-----0
  6
CONTINUOUS
  5
2CC
 10
529.235052
 20
206.156
 30
0.0
 11
527.235052
 21
208.156
 31
0.0
  0
LINE
  8
LC-003-005-----0
  6
CONTINUOUS
  5
2CD
 10
526.406625
 20
206.156
 30
0.0
 11
524.406625
 21
208.156
 31
0.0
  0
LINE
  8
LC-003-005-----0
  6
CONTINUOUS
  5
2CE
 10
523.578198
 20
206.156
 30
0.0
 11
521.578198
 21
208.156
 31
0.0
  0
LINE
  8
LC-003-005-----0
  6
CONTINUOUS
  5
2CF
 10
520.749771
 20
206.156
 30
0.0
 11
518.749771
 21
208.156
 31
0.0
  0
LINE
  8
LC-003-005-----0
  6
CONTINUOUS
  5
2D0
 10
517.921344
 20
206.156
 30
0.0
 11
515.921344
 21
208.156
 31
0.0
  0
LINE
  8
LC-003-005-----0
  6
CONTINUOUS
  5
2D1
 10
515.092917
 20
206.156
 30
0.0
 11
513.092917
 21
208.156
 31
0.0
  0
LINE
  8
LC-003-005-----0
  6
CONTINUOUS
  5
2D2
 10
512.26449
 20
206.156
 30
0.0
 11
510.26449
 21
208.156
 31
0.0
  0
LINE
  8
LC-003-005-----0
  6
CONTINUOUS
  5
2D3
 10
509.436063
 20
206.156
 30
0.0
 11
507.436063
 21
208.156
 31
0.0
  0
LINE
  8
LC-003-005-----0
  6
CONTINUOUS
  5
2D4
 10
506.607635
 20
206.156
 30
0.0
 11
504.607635
 21
208.156
 31
0.0
  0
LINE
  8
LC-003-005-----0
  6
CONTINUOUS
  5
2D5
 10
503.779208
 20
206.156
 30
0.0
 11
501.779208
 21
208.156
 31
0.0
  0
LINE
  8
LC-003-005-----0
  6
CONTINUOUS
  5
2D6
 10
500.950781
 20
206.156
 30
0.0
 11
498.950781
 21
208.156
 31
0.0
  0
LINE
  8
LC-003-005-----0
  6
CONTINUOUS
  5
2D7
 10
498.122354
 20
206.156
 30
0.0
 11
498.0857
 21
206.192654
 31
0.0
  0
ENDBLK
  8
0
  5
2D8
  0
BLOCK
  8
0
  5
2DA
  2
BLK2
 70
    64
 10
0.0
 20
0.0
 30
0.0
  3
BLK2
  0
ENDBLK
  8
0
  5
2DB
  0
BLOCK
  8
0
  5
2DD
  2
*D22
 70
    65
 10
0.0
 20
0.0
 30
0.0
  3
*D22
  0
LINE
  8
LC-006-003-MTH-0
  6
CONTINUOUS
  5
2DE
 10
477.4386
 20
174.656
 30
0.0
 11
421.2
 21
174.656
 31
0.0
  0
LINE
  8
LC-006-003-MTH-0
  6
CONTINUOUS
  5
2DF
 10
477.4386
 20
269.656
 30
0.0
 11
421.2
 21
269.656
 31
0.0
  0
LINE
  8
LC-005-003-----0
  6
CONTINUOUS
  5
2E0
 10
434.349471
 20
156.809992
 30
0.0
 11
432.0
 21
174.656
 31
0.0
  0
LINE
  8
LC-005-003-----0
  6
CONTINUOUS
  5
2E1
 10
432.0
 20
174.656
 30
0.0
 11
429.650529
 21
156.809992
 31
0.0
  0
LINE
  8
LC-005-003-----0
  6
CONTINUOUS
  5
2E2
 10
429.650529
 20
156.809992
 30
0.0
 11
434.349471
 21
156.809992
 31
0.0
  0
LINE
  8
LC-005-003-----0
  6
CONTINUOUS
  5
2E3
 10
433.738609
 20
156.769954
 30
0.0
 11
432.0
 21
169.976
 31
0.0
  0
LINE
  8
LC-005-003-----0
  6
CONTINUOUS
  5
2E4
 10
432.0
 20
169.976
 30
0.0
 11
430.261391
 21
156.769954
 31
0.0
  0
LINE
  8
LC-005-003-----0
  6
CONTINUOUS
  5
2E5
 10
433.127746
 20
156.729916
 30
0.0
 11
432.0
 21
165.296
 31
0.0
  0
LINE
  8
LC-005-003-----0
  6
CONTINUOUS
  5
2E6
 10
432.0
 20
165.296
 30
0.0
 11
430.872254
 21
156.729916
 31
0.0
  0
LINE
  8
LC-005-003-----0
  6
CONTINUOUS
  5
2E7
 10
432.516884
 20
156.689878
 30
0.0
 11
432.0
 21
160.616
 31
0.0
  0
LINE
  8
LC-005-003-----0
  6
CONTINUOUS
  5
2E8
 10
432.0
 20
160.616
 30
0.0
 11
431.483116
 21
156.689878
 31
0.0
  0
LINE
  8
LC-005-003-----0
  6
CONTINUOUS
  5
2E9
 10
429.650529
 20
287.502008
 30
0.0
 11
432.0
 21
269.656
 31
0.0
  0
LINE
  8
LC-005-003-----0
  6
CONTINUOUS
  5
2EA
 10
432.0
 20
269.656
 30
0.0
 11
434.349471
 21
287.502008
 31
0.0
  0
LINE
  8
LC-005-003-----0
  6
CONTINUOUS
  5
2EB
 10
434.349471
 20
287.502008
 30
0.0
 11
429.650529
 21
287.502008
 31
0.0
  0
LINE
  8
LC-005-003-----0
  6
CONTINUOUS
  5
2EC
 10
430.261391
 20
287.542046
 30
0.0
 11
432.0
 21
274.336
 31
0.0
  0
LINE
  8
LC-005-003-----0
  6
CONTINUOUS
  5
2ED
 10
432.0
 20
274.336
 30
0.0
 11
433.738609
 21
287.542046
 31
0.0
  0
LINE
  8
LC-005-003-----0
  6
CONTINUOUS
  5
2EE
 10
430.872254
 20
287.582084
 30
0.0
 11
432.0
 21
279.016
 31
0.0
  0
LINE
  8
LC-005-003-----0
  6
CONTINUOUS
  5
2EF
 10
432.0
 20
279.016
 30
0.0
 11
433.127746
 21
287.582084
 31
0.0
  0
LINE
  8
LC-005-003-----0
  6
CONTINUOUS
  5
2F0
 10
431.483116
 20
287.622122
 30
0.0
 11
432.0
 21
283.696
 31
0.0
  0
LINE
  8
LC-005-003-----0
  6
CONTINUOUS
  5
2F1
 10
432.0
 20
283.696
 30
0.0
 11
432.516884
 21
287.622122
 31
0.0
  0
LINE
  8
LC-007-003-MTG-0
  6
CONTINUOUS
  5
2F2
 10
432.0
 20
149.456
 30
0.0
 11
432.0
 21
345.29726
 31
0.0
  0
TEXT
  8
LC-005-003-----0
  6
CONTINUOUS
 62
     6
  5
2F3
 10
421.568001
 20
298.369986
 30
0.0
 40
18.0
  1
Ø95
 50
90.0
 51
15.0
  7
LC-TXTSTYLE-150-400-0-0-D0
  0
ENDBLK
  8
0
  5
2F4
  0
BLOCK
  8
0
  5
2F6
  2
*X23
 70
    65
 10
214.805363
 20
484.29663
 30
0.0
  3
*X23
  0
LINE
  8
LC-003-005-----0
  6
CONTINUOUS
  5
2F7
 10
221.334373
 20
484.378096
 30
0.0
 11
223.558532
 21
486.602254
 31
0.0
  0
LINE
  8
LC-003-005-----0
  6
CONTINUOUS
  5
2F8
 10
218.654153
 20
484.526302
 30
0.0
 11
222.92448
 21
488.79663
 31
0.0
  0
LINE
  8
LC-003-005-----0
  6
CONTINUOUS
  5
2F9
 10
217.167387
 20
485.867964
 30
0.0
 11
220.096053
 21
488.79663
 31
0.0
  0
LINE
  8
LC-003-005-----0
  6
CONTINUOUS
  5
2FA
 10
216.805363
 20
488.334367
 30
0.0
 11
218.805363
 21
490.334367
 31
0.0
  0
LINE
  8
LC-003-005-----0
  6
CONTINUOUS
  5
2FB
 10
216.805363
 20
491.162794
 30
0.0
 11
218.805363
 21
493.162794
 31
0.0
  0
LINE
  8
LC-003-005-----0
  6
CONTINUOUS
  5
2FC
 10
216.805363
 20
493.991221
 30
0.0
 11
218.805363
 21
495.991221
 31
0.0
  0
LINE
  8
LC-003-005-----0
  6
CONTINUOUS
  5
2FD
 10
216.805363
 20
496.819648
 30
0.0
 11
218.805363
 21
498.819648
 31
0.0
  0
LINE
  8
LC-003-005-----0
  6
CONTINUOUS
  5
2FE
 10
215.453918
 20
498.29663
 30
0.0
 11
217.953918
 21
500.79663
 31
0.0
  0
LINE
  8
LC-003-005-----0
  6
CONTINUOUS
  5
2FF
 10
214.805363
 20
500.476502
 30
0.0
 11
215.12549
 21
500.79663
 31
0.0
  0
ENDBLK
  8
0
  5
300
  0
BLOCK
  8
0
  5
302
  2
*D24
 70
    65
 10
0.0
 20
0.0
 30
0.0
  3
*D24
  0
LINE
  8
LC-006-003-MTH-0
  6
CONTINUOUS
  5
303
 10
218.805363
 20
500.79663
 30
0.0
 11
218.805363
 21
528.8
 31
0.0
  0
LINE
  8
LC-006-003-MTH-0
  6
CONTINUOUS
  5
304
 10
260.805363
 20
500.79663
 30
0.0
 11
260.805363
 21
528.8
 31
0.0
  0
LINE
  8
LC-005-003-----0
  6
CONTINUOUS
  5
305
 10
200.959355
 20
515.650529
 30
0.0
 11
218.805363
 21
518.0
 31
0.0
  0
LINE
  8
LC-005-003-----0
  6
CONTINUOUS
  5
306
 10
218.805363
 20
518.0
 30
0.0
 11
200.959355
 21
520.349471
 31
0.0
  0
LINE
  8
LC-005-003-----0
  6
CONTINUOUS
  5
307
 10
200.959355
 20
520.349471
 30
0.0
 11
200.959355
 21
515.650529
 31
0.0
  0
LINE
  8
LC-005-003-----0
  6
CONTINUOUS
  5
308
 10
200.919317
 20
516.261391
 30
0.0
 11
214.125363
 21
518.0
 31
0.0
  0
LINE
  8
LC-005-003-----0
  6
CONTINUOUS
  5
309
 10
214.125363
 20
518.0
 30
0.0
 11
200.919317
 21
519.738609
 31
0.0
  0
LINE
  8
LC-005-003-----0
  6
CONTINUOUS
  5
30A
 10
200.879279
 20
516.872254
 30
0.0
 11
209.445363
 21
518.0
 31
0.0
  0
LINE
  8
LC-005-003-----0
  6
CONTINUOUS
  5
30B
 10
209.445363
 20
518.0
 30
0.0
 11
200.879279
 21
519.127746
 31
0.0
  0
LINE
  8
LC-005-003-----0
  6
CONTINUOUS
  5
30C
 10
200.839241
 20
517.483116
 30
0.0
 11
204.765363
 21
518.0
 31
0.0
  0
LINE
  8
LC-005-003-----0
  6
CONTINUOUS
  5
30D
 10
204.765363
 20
518.0
 30
0.0
 11
200.839241
 21
518.516884
 31
0.0
  0
LINE
  8
LC-005-003-----0
  6
CONTINUOUS
  5
30E
 10
278.65137
 20
520.349471
 30
0.0
 11
260.805363
 21
518.0
 31
0.0
  0
LINE
  8
LC-005-003-----0
  6
CONTINUOUS
  5
30F
 10
260.805363
 20
518.0
 30
0.0
 11
278.65137
 21
515.650529
 31
0.0
  0
LINE
  8
LC-005-003-----0
  6
CONTINUOUS
  5
310
 10
278.65137
 20
515.650529
 30
0.0
 11
278.65137
 21
520.349471
 31
0.0
  0
LINE
  8
LC-005-003-----0
  6
CONTINUOUS
  5
311
 10
278.691408
 20
519.738609
 30
0.0
 11
265.485363
 21
518.0
 31
0.0
  0
LINE
  8
LC-005-003-----0
  6
CONTINUOUS
  5
312
 10
265.485363
 20
518.0
 30
0.0
 11
278.691408
 21
516.261391
 31
0.0
  0
LINE
  8
LC-005-003-----0
  6
CONTINUOUS
  5
313
 10
278.731446
 20
519.127746
 30
0.0
 11
270.165363
 21
518.0
 31
0.0
  0
LINE
  8
LC-005-003-----0
  6
CONTINUOUS
  5
314
 10
270.165363
 20
518.0
 30
0.0
 11
278.731446
 21
516.872254
 31
0.0
  0
LINE
  8
LC-005-003-----0
  6
CONTINUOUS
  5
315
 10
278.771484
 20
518.516884
 30
0.0
 11
274.845363
 21
518.0
 31
0.0
  0
LINE
  8
LC-005-003-----0
  6
CONTINUOUS
  5
316
 10
274.845363
 20
518.0
 30
0.0
 11
278.771484
 21
517.483116
 31
0.0
  0
LINE
  8
LC-007-003-MTG-0
  6
CONTINUOUS
  5
317
 10
193.605363
 20
518.0
 30
0.0
 11
383.607882
 21
518.0
 31
0.0
  0
TEXT
  8
LC-005-003-----0
  6
CONTINUOUS
 62
     6
  5
318
 10
288.080608
 20
528.431999
 30
0.0
 40
18.0
  1
1 1/4"
 51
15.0
  7
LC-TXTSTYLE-150-400-0-0-D0
  0
ENDBLK
  8
0
  5
319
  0
BLOCK
  8
0
  5
31B
  2
*D25
 70
    65
 10
0.0
 20
0.0
 30
0.0
  3
*D25
  0
LINE
  8
LC-006-003-MTH-0
  6
CONTINUOUS
  5
31C
 10
224.03086
 20
241.782634
 30
0.0
 11
224.03086
 21
304.8
 31
0.0
  0
LINE
  8
LC-006-003-MTH-0
  6
CONTINUOUS
  5
31D
 10
255.53086
 20
241.782634
 30
0.0
 11
255.53086
 21
304.8
 31
0.0
  0
LINE
  8
LC-005-003-----0
  6
CONTINUOUS
  5
31E
 10
206.184853
 20
291.650529
 30
0.0
 11
224.03086
 21
294.0
 31
0.0
  0
LINE
  8
LC-005-003-----0
  6
CONTINUOUS
  5
31F
 10
224.03086
 20
294.0
 30
0.0
 11
206.184853
 21
296.349471
 31
0.0
  0
LINE
  8
LC-005-003-----0
  6
CONTINUOUS
  5
320
 10
206.184853
 20
296.349471
 30
0.0
 11
206.184853
 21
291.650529
 31
0.0
  0
LINE
  8
LC-005-003-----0
  6
CONTINUOUS
  5
321
 10
206.144815
 20
292.261391
 30
0.0
 11
219.35086
 21
294.0
 31
0.0
  0
LINE
  8
LC-005-003-----0
  6
CONTINUOUS
  5
322
 10
219.35086
 20
294.0
 30
0.0
 11
206.144815
 21
295.738609
 31
0.0
  0
LINE
  8
LC-005-003-----0
  6
CONTINUOUS
  5
323
 10
206.104777
 20
292.872254
 30
0.0
 11
214.67086
 21
294.0
 31
0.0
  0
LINE
  8
LC-005-003-----0
  6
CONTINUOUS
  5
324
 10
214.67086
 20
294.0
 30
0.0
 11
206.104777
 21
295.127746
 31
0.0
  0
LINE
  8
LC-005-003-----0
  6
CONTINUOUS
  5
325
 10
206.064738
 20
293.483116
 30
0.0
 11
209.99086
 21
294.0
 31
0.0
  0
LINE
  8
LC-005-003-----0
  6
CONTINUOUS
  5
326
 10
209.99086
 20
294.0
 30
0.0
 11
206.064738
 21
294.516884
 31
0.0
  0
LINE
  8
LC-005-003-----0
  6
CONTINUOUS
  5
327
 10
273.376868
 20
296.349471
 30
0.0
 11
255.53086
 21
294.0
 31
0.0
  0
LINE
  8
LC-005-003-----0
  6
CONTINUOUS
  5
328
 10
255.53086
 20
294.0
 30
0.0
 11
273.376868
 21
291.650529
 31
0.0
  0
LINE
  8
LC-005-003-----0
  6
CONTINUOUS
  5
329
 10
273.376868
 20
291.650529
 30
0.0
 11
273.376868
 21
296.349471
 31
0.0
  0
LINE
  8
LC-005-003-----0
  6
CONTINUOUS
  5
32A
 10
273.416906
 20
295.738609
 30
0.0
 11
260.21086
 21
294.0
 31
0.0
  0
LINE
  8
LC-005-003-----0
  6
CONTINUOUS
  5
32B
 10
260.21086
 20
294.0
 30
0.0
 11
273.416906
 21
292.261391
 31
0.0
  0
LINE
  8
LC-005-003-----0
  6
CONTINUOUS
  5
32C
 10
273.456944
 20
295.127746
 30
0.0
 11
264.89086
 21
294.0
 31
0.0
  0
LINE
  8
LC-005-003-----0
  6
CONTINUOUS
  5
32D
 10
264.89086
 20
294.0
 30
0.0
 11
273.456944
 21
292.872254
 31
0.0
  0
LINE
  8
LC-005-003-----0
  6
CONTINUOUS
  5
32E
 10
273.496982
 20
294.516884
 30
0.0
 11
269.57086
 21
294.0
 31
0.0
  0
LINE
  8
LC-005-003-----0
  6
CONTINUOUS
  5
32F
 10
269.57086
 20
294.0
 30
0.0
 11
273.496982
 21
293.483116
 31
0.0
  0
LINE
  8
LC-007-003-MTG-0
  6
CONTINUOUS
  5
330
 10
198.83086
 20
294.0
 30
0.0
 11
345.93338
 21
294.0
 31
0.0
  0
TEXT
  8
LC-005-003-----0
  6
CONTINUOUS
 62
     6
  5
331
 10
282.806106
 20
304.431999
 30
0.0
 40
18.0
  1
DN32
 51
15.0
  7
LC-TXTSTYLE-150-400-0-0-D0
  0
ENDBLK
  8
0
  5
332
  0
ENDSEC
  0
SECTION
  2
ENTITIES
  0
VIEWPORT
  8
LC-000
  5
3E7
 67
     1
 68
     1
 10
420.0
 20
297.0
 30
0.0
 40
840.0
 41
594.0
 69
     1
1001
ACAD
1000
MVIEW
1002
{
1070
    16
1010
0.0
1020
0.0
1030
0.0
1010
0.0
1020
0.0
1030
1.0
1040
0.0
1040
594.0
1040
420.0
1040
297.0
1040
50.0
1040
0.0
1040
0.0
1070
     0
1070
   100
1070
     1
1070
     1
1070
     0
1070
     0
1070
     0
1070
     0
1040
0.0
1040
0.0
1040
0.0
1040
1.0
1040
1.0
1040
0.0
1040
0.0
1070
     0
1002
{
1002
}
1002
}
  0
VIEWPORT
  8
0
  5
3E8
 67
     1
 68
     1
 10
0.0
 20
0.0
 30
0.0
 40
0.0
 41
0.0
 69
     1
1001
ACAD
1000
MVIEW
1002
{
1070
    16
1010
0.0
1020
0.0
1030
0.0
1010
0.0
1020
0.0
1030
1.0
1040
0.0
1040
594.0
1040
0.0
1040
0.0
1040
50.0
1040
0.0
1040
0.0
1070
     0
1070
   100
1070
     0
1070
     1
1070
     0
1070
     0
1070
     0
1070
     0
1040
0.0
1040
0.0
1040
0.0
1040
0.5
1040
0.5
1040
0.5
1040
0.5
1070
     0
1002
{
1002
}
1002
}
  0
INSERT
  8
0
  5
333
  2
*X0
 10
222.105754
 20
269.156
 30
0.0
  0
INSERT
  8
0
  5
334
  2
*X1
 10
255.78086
 20
269.156
 30
0.0
  0
INSERT
  8
0
  5
335
  2
*X2
 10
255.78086
 20
259.156
 30
0.0
  0
INSERT
  8
0
  5
336
  2
*X3
 10
222.105754
 20
259.156
 30
0.0
  0
INSERT
  8
0
  5
337
  2
*X4
 10
214.78086
 20
258.156
 30
0.0
  0
INSERT
  8
0
  5
338
  2
*X5
 10
469.179786
 20
138.518535
 30
0.0
  0
DIMENSION
  8
0
  5
339
  2
*D6
 10
358.340632
 20
160.0
 30
0.0
 11
358.340632
 21
160.0
 31
0.0
  1
300
 13
239.78086
 23
241.782634
 33
0.0
 14
539.78086
 24
222.156
 34
0.0
  3
LC-DIM-L-0090-02-02
  0
INSERT
  8
0
  5
33B
  2
BLK1
 10
0.0
 20
0.0
 30
0.0
  0
INSERT
  8
0
  5
33C
  2
*X8
 10
469.179786
 20
105.793465
 30
0.0
  0
DIMENSION
  8
0
  5
33D
  2
*D9
 10
576.0
 20
263.736
 30
0.0
 11
576.0
 21
263.736
 31
0.0
  1
DN32
 13
536.28086
 23
238.156
 33
0.0
 14
536.28086
 24
206.156
 34
0.0
 50
90.0
  3
LC-DIM-L-0090-02-02
  0
INSERT
  8
0
  5
33E
  2
*X10
 10
255.970728
 20
484.29663
 30
0.0
  0
INSERT
  8
0
  5
33F
  2
*X11
 10
222.105754
 20
491.932133
 30
0.0
  0
INSERT
  8
0
  5
340
  2
*X12
 10
253.53086
 20
491.932133
 30
0.0
  0
DIMENSION
  8
0
  5
341
  2
*D13
 10
182.0
 20
361.476315
 30
0.0
 11
182.0
 21
361.476315
 31
0.0
  1
70-275
 13
253.78086
 23
222.156
 33
0.0
 14
214.805363
 24
500.79663
 34
0.0
 50
90.0
  3
LC-DIM-L-0090-02-02
  0
INSERT
  8
0
  5
342
  2
*X14
 10
255.946225
 20
258.156
 30
0.0
  0
INSERT
  8
0
  5
343
  2
*X15
 10
220.53086
 20
241.782634
 30
0.0
  0
INSERT
  8
0
  5
344
  2
*X16
 10
253.53086
 20
241.782634
 30
0.0
  0
INSERT
  8
0
  5
345
  2
*X17
 10
255.78086
 20
236.156
 30
0.0
  0
INSERT
  8
0
  5
346
  2
*X18
 10
498.0857
 20
236.156
 30
0.0
  0
INSERT
  8
0
  5
347
  2
*X19
 10
221.78086
 20
205.281249
 30
0.0
  0
INSERT
  8
0
  5
348
  2
*X20
 10
498.0857
 20
206.156
 30
0.0
  0
INSERT
  8
0
  5
349
  2
BLK2
 10
0.0
 20
0.0
 30
0.0
  0
DIMENSION
  8
0
  5
34A
  2
*D22
 10
432.0
 20
317.196
 30
0.0
 11
432.0
 21
317.196
 31
0.0
  1
%%c<>
 13
477.4386
 23
269.656
 33
0.0
 14
477.4386
 24
174.656
 34
0.0
 50
90.0
  3
LC-DIM-L-0090-02-02
  0
INSERT
  8
0
  5
34B
  2
*X23
 10
214.805363
 20
484.29663
 30
0.0
  0
DIMENSION
  8
0
  5
34C
  2
*D24
 10
239.805363
 20
518.0
 30
0.0
 11
239.805363
 21
518.0
 31
0.0
  1
1 1/4"
 13
218.805363
 23
500.79663
 33
0.0
 14
260.805363
 24
500.79663
 34
0.0
  3
LC-DIM-L-0090-02-02
  0
DIMENSION
  8
0
  5
34D
  2
*D25
 10
239.78086
 20
294.0
 30
0.0
 11
239.78086
 21
294.0
 31
0.0
  1
DN32
 13
224.03086
 23
241.782634
 33
0.0
 14
255.53086
 24
241.782634
 34
0.0
  3
LC-DIM-L-0090-02-02
  0
LINE
  8
LC-001-002-----0
  5
350
 10
253.78086
 20
222.156
 30
0.0
 11
430.120641
 21
222.156
 31
0.0
  0
LINE
  8
LC-001-002-----0
  5
351
 10
239.78086
 20
500.79663
 30
0.0
 11
239.78086
 21
236.156
 31
0.0
  0
LINE
  8
LC-001-002-----0
  6
CONTINUOUS
 62
     1
  5
352
 10
257.78086
 20
238.156
 30
0.0
 11
536.28086
 21
238.156
 31
0.0
  0
LINE
  8
LC-001-002-----0
  6
CONTINUOUS
 62
     1
  5
353
 10
253.78086
 20
206.156
 30
0.0
 11
536.28086
 21
206.156
 31
0.0
  0
LINE
  8
LC-001-002-----0
  6
CONTINUOUS
 62
     1
  5
354
 10
257.78086
 20
255.156
 30
0.0
 11
257.78086
 21
238.156
 31
0.0
  0
LINE
  8
LC-001-002-----0
  6
CONTINUOUS
 62
     1
  5
355
 10
221.78086
 20
255.156
 30
0.0
 11
221.78086
 21
238.156
 31
0.0
  0
LINE
  8
LC-001-002-----0
  6
CONTINUOUS
 62
     1
  5
356
 10
539.78086
 20
237.218178
 30
0.0
 11
539.78086
 21
207.093822
 31
0.0
  0
LINE
  8
LC-001-002-----0
  6
CONTINUOUS
 62
     1
  5
357
 10
253.78086
 20
208.156
 30
0.0
 11
539.78086
 21
208.156
 31
0.0
  0
LINE
  8
LC-001-002-----0
  6
CONTINUOUS
 62
     1
  5
358
 10
255.78086
 20
236.156
 30
0.0
 11
539.78086
 21
236.156
 31
0.0
  0
LINE
  8
LC-001-002-----0
  6
CONTINUOUS
 62
     1
  5
359
 10
536.28086
 20
238.156
 30
0.0
 11
539.78086
 21
237.218178
 31
0.0
  0
LINE
  8
LC-001-002-----0
  6
CONTINUOUS
 62
     1
  5
35A
 10
536.28086
 20
206.156
 30
0.0
 11
539.78086
 21
207.093822
 31
0.0
  0
LINE
  8
LC-001-002-----0
  6
CONTINUOUS
 62
     1
  5
35B
 10
222.105754
 20
268.656
 30
0.0
 11
223.78086
 21
268.656
 31
0.0
  0
LINE
  8
LC-001-002-----0
  6
CONTINUOUS
 62
     1
  5
35C
 10
221.78086
 20
265.156
 30
0.0
 11
222.722898
 21
265.156
 31
0.0
  0
LINE
  8
LC-001-002-----0
  6
CONTINUOUS
 62
     1
  5
35D
 10
260.28086
 20
262.656
 30
0.0
 11
260.28086
 21
257.656
 31
0.0
  0
LINE
  8
LC-001-002-----0
  6
CONTINUOUS
 62
     1
  5
35E
 10
219.28086
 20
262.656
 30
0.0
 11
219.28086
 21
257.656
 31
0.0
  0
LINE
  8
LC-001-002-----0
  6
CONTINUOUS
 62
     1
  5
35F
 10
223.78086
 20
265.156
 30
0.0
 11
223.78086
 21
265.156
 31
0.0
  0
LINE
  8
LC-001-002-----0
  6
CONTINUOUS
 62
     1
  5
360
 10
255.78086
 20
265.156
 30
0.0
 11
255.78086
 21
265.156
 31
0.0
  0
ARC
  8
LC-002-002-RND-0
  6
CONTINUOUS
  5
362
 10
253.78086
 20
238.156
 30
0.0
 40
32.0
 50
180.0
 51
270.0
  0
ARC
  8
LC-002-002-RND-0
  6
CONTINUOUS
  5
363
 10
253.78086
 20
238.156
 30
0.0
 40
30.0
 50
180.0
 51
270.0
  0
LINE
  8
LC-001-002-----0
  6
CONTINUOUS
 62
     1
  5
364
 10
221.78086
 20
255.156
 30
0.0
 11
219.28086
 21
257.656
 31
0.0
  0
LINE
  8
LC-001-002-----0
  6
CONTINUOUS
 62
     1
  5
365
 10
257.78086
 20
255.156
 30
0.0
 11
260.28086
 21
257.656
 31
0.0
  0
LINE
  8
LC-001-002-----0
  6
CONTINUOUS
 62
     1
  5
366
 10
257.78086
 20
265.156
 30
0.0
 11
260.28086
 21
262.656
 31
0.0
  0
LINE
  8
LC-001-002-----0
  6
CONTINUOUS
 62
     1
  5
367
 10
223.78086
 20
241.156
 30
0.0
 11
225.28086
 21
241.156
 31
0.0
  0
LINE
  8
LC-001-002-----0
  6
CONTINUOUS
 62
     1
  5
368
 10
222.105754
 20
269.656
 30
0.0
 11
223.78086
 21
269.656
 31
0.0
  0
LINE
  8
LC-001-002-----0
  6
CONTINUOUS
 62
     1
  5
369
 10
223.78086
 20
259.156
 30
0.0
 11
222.105754
 21
268.656
 31
0.0
  0
LINE
  8
LC-001-002-----0
  6
CONTINUOUS
 62
     1
  5
36A
 10
255.78086
 20
259.156
 30
0.0
 11
257.455966
 21
268.656
 31
0.0
  0
LINE
  8
LC-001-002-----0
  6
CONTINUOUS
 62
     1
  5
36B
 10
223.78086
 20
259.156
 30
0.0
 11
223.78086
 21
238.156
 31
0.0
  0
LINE
  8
LC-001-002-----0
  6
CONTINUOUS
 62
     1
  5
36C
 10
255.78086
 20
259.156
 30
0.0
 11
255.78086
 21
236.156
 31
0.0
  0
LINE
  8
LC-001-002-----0
  6
CONTINUOUS
 62
     1
  5
36D
 10
256.838822
 20
265.156
 30
0.0
 11
257.78086
 21
265.156
 31
0.0
  0
LINE
  8
LC-001-002-----0
  6
CONTINUOUS
 62
     1
  5
36E
 10
223.78086
 20
259.156
 30
0.0
 11
223.78086
 21
268.656
 31
0.0
  0
LINE
  8
LC-001-002-----0
  6
CONTINUOUS
 62
     1
  5
36F
 10
255.78086
 20
259.156
 30
0.0
 11
255.78086
 21
268.656
 31
0.0
  0
LINE
  8
LC-001-002-----0
  6
CONTINUOUS
 62
     1
  5
370
 10
222.105754
 20
269.156
 30
0.0
 11
223.78086
 21
269.156
 31
0.0
  0
LINE
  8
LC-001-002-----0
  6
CONTINUOUS
 62
     1
  5
371
 10
255.78086
 20
269.656
 30
0.0
 11
257.455966
 21
269.656
 31
0.0
  0
LINE
  8
LC-001-002-----0
  6
CONTINUOUS
 62
     1
  5
372
 10
222.105754
 20
269.656
 30
0.0
 11
222.105754
 21
269.156
 31
0.0
  0
LINE
  8
LC-001-002-----0
  6
CONTINUOUS
 62
     1
  5
373
 10
257.455966
 20
269.656
 30
0.0
 11
257.455966
 21
269.156
 31
0.0
  0
LINE
  8
LC-001-002-----0
  6
CONTINUOUS
 62
     1
  5
374
 10
255.78086
 20
269.156
 30
0.0
 11
255.78086
 21
269.656
 31
0.0
  0
LINE
  8
LC-001-002-----0
  6
CONTINUOUS
 62
     1
  5
375
 10
223.78086
 20
269.156
 30
0.0
 11
223.78086
 21
269.656
 31
0.0
  0
LINE
  8
LC-001-002-----0
  6
CONTINUOUS
 62
     1
  5
376
 10
223.78086
 20
238.156
 30
0.0
 11
225.28086
 21
238.156
 31
0.0
  0
LINE
  8
LC-001-002-----0
  6
CONTINUOUS
 62
     1
  5
377
 10
225.28086
 20
241.156
 30
0.0
 11
225.28086
 21
238.156
 31
0.0
  0
LINE
  8
LC-001-002-----0
  6
CONTINUOUS
 62
     1
  5
378
 10
255.78086
 20
268.656
 30
0.0
 11
257.455966
 21
268.656
 31
0.0
  0
LINE
  8
LC-001-002-----0
  6
CONTINUOUS
 62
     1
  5
379
 10
255.78086
 20
259.156
 30
0.0
 11
255.78086
 21
259.156
 31
0.0
  0
LINE
  8
LC-001-002-----0
  6
CONTINUOUS
 62
     1
  5
37A
 10
255.78086
 20
269.156
 30
0.0
 11
257.455966
 21
269.156
 31
0.0
  0
LINE
  8
LC-001-002-----0
  6
CONTINUOUS
 62
     1
  5
37B
 10
255.53086
 20
489.282634
 30
0.0
 11
255.53086
 21
241.782634
 31
0.0
  0
LINE
  8
LC-001-002-----0
  6
CONTINUOUS
 62
     1
  5
37C
 10
224.03086
 20
489.282634
 30
0.0
 11
224.03086
 21
241.782634
 31
0.0
  0
LINE
  8
LC-001-002-----0
  6
CONTINUOUS
 62
     1
  5
37D
 10
224.03086
 20
241.782634
 30
0.0
 11
255.53086
 21
241.782634
 31
0.0
  0
LINE
  8
LC-001-002-----0
  6
CONTINUOUS
 62
     1
  5
37E
 10
255.53086
 20
222.156
 30
0.0
 11
255.53086
 21
222.156
 31
0.0
  0
ARC
  8
LC-002-002-RND-0
  6
CONTINUOUS
  5
37F
 10
253.78086
 20
238.156
 30
0.0
 40
30.0
 50
180.0
 51
270.0
  0
LINE
  8
LC-001-002-----0
  6
CONTINUOUS
 62
     1
  5
380
 10
220.53086
 20
491.782634
 30
0.0
 11
259.03086
 21
491.782634
 31
0.0
  0
LINE
  8
LC-001-002-----0
  6
CONTINUOUS
 62
     1
  5
381
 10
220.53086
 20
489.282634
 30
0.0
 11
224.03086
 21
489.282634
 31
0.0
  0
LINE
  8
LC-001-002-----0
  6
CONTINUOUS
 62
     1
  5
382
 10
259.03086
 20
491.782634
 30
0.0
 11
259.03086
 21
489.282634
 31
0.0
  0
LINE
  8
LC-001-002-----0
  6
CONTINUOUS
 62
     1
  5
383
 10
220.53086
 20
491.782634
 30
0.0
 11
220.53086
 21
489.282634
 31
0.0
  0
LINE
  8
LC-001-002-----0
  6
CONTINUOUS
 62
     1
  5
384
 10
255.53086
 20
489.282634
 30
0.0
 11
259.03086
 21
489.282634
 31
0.0
  0
LINE
  8
LC-001-002-----0
  6
CONTINUOUS
 62
     1
  5
385
 10
226.03086
 20
491.782634
 30
0.0
 11
226.03086
 21
241.782634
 31
0.0
  0
LINE
  8
LC-001-002-----0
  6
CONTINUOUS
 62
     1
  5
386
 10
253.53086
 20
491.782634
 30
0.0
 11
253.53086
 21
241.782634
 31
0.0
  0
LINE
  8
LC-001-002-----0
  6
CONTINUOUS
 62
     1
  5
387
 10
221.78086
 20
265.156
 30
0.0
 11
219.28086
 21
262.656
 31
0.0
  0
ARC
  8
LC-002-002-RND-0
  6
DASHDOT
 62
     2
  5
388
 10
253.78086
 20
236.156
 30
0.0
 40
14.0
 50
180.0
 51
270.0
  0
LINE
  8
LC-001-002-----0
  6
CONTINUOUS
  5
389
 10
221.78086
 20
255.156
 30
0.0
 11
221.78086
 21
265.156
 31
0.0
  0
LINE
  8
LC-001-002-----0
  6
CONTINUOUS
  5
38A
 10
257.78086
 20
255.156
 30
0.0
 11
257.78086
 21
265.156
 31
0.0
  0
LINE
  8
LC-001-002-----0
  6
CONTINUOUS
 62
     1
  5
38B
 10
223.615495
 20
270.156
 30
0.0
 11
223.615495
 21
271.656
 31
0.0
  0
LINE
  8
LC-001-002-----0
  6
CONTINUOUS
 62
     1
  5
38C
 10
216.78086
 20
271.656
 30
0.0
 11
216.78086
 21
260.656
 31
0.0
  0
ARC
  8
LC-002-002-RND-0
  6
CONTINUOUS
  5
38D
 10
220.615495
 20
271.656
 30
0.0
 40
3.0
 50
0.0
 51
90.0
  0
LINE
  8
LC-001-002-----0
  6
CONTINUOUS
 62
     1
  5
38E
 10
214.78086
 20
260.656
 30
0.0
 11
214.78086
 21
258.156
 31
0.0
  0
LINE
  8
LC-001-002-----0
  6
CONTINUOUS
 62
     1
  5
38F
 10
218.78086
 20
258.156
 30
0.0
 11
214.78086
 21
258.156
 31
0.0
  0
LINE
  8
LC-001-002-----0
  6
CONTINUOUS
 62
     1
  5
390
 10
220.615495
 20
274.656
 30
0.0
 11
219.78086
 21
274.656
 31
0.0
  0
LINE
  8
LC-001-002-----0
  6
CONTINUOUS
 62
     1
  5
391
 10
216.78086
 20
260.656
 30
0.0
 11
214.78086
 21
260.656
 31
0.0
  0
LINE
  8
LC-001-002-----0
  6
CONTINUOUS
 62
     1
  5
392
 10
218.78086
 20
270.156
 30
0.0
 11
218.78086
 21
258.156
 31
0.0
  0
ARC
  8
LC-002-002-RND-0
  6
CONTINUOUS
  5
393
 10
219.78086
 20
271.656
 30
0.0
 40
3.0
 50
90.0
 51
180.0
  0
LINE
  8
LC-001-002-----0
  6
CONTINUOUS
 62
     1
  5
394
 10
223.615495
 20
270.156
 30
0.0
 11
218.78086
 21
270.156
 31
0.0
  0
LINE
  8
LC-001-002-----0
  6
CONTINUOUS
 62
     1
  5
395
 10
218.78086
 20
270.156
 30
0.0
 11
221.292317
 21
267.644543
 31
0.0
  0
LINE
  8
LC-001-002-----0
  6
CONTINUOUS
 62
     1
  5
396
 10
221.292317
 20
267.644543
 30
0.0
 11
221.292317
 21
264.667457
 31
0.0
  0
LINE
  8
LC-001-002-----0
  6
CONTINUOUS
 62
     1
  5
397
 10
218.78086
 20
258.156
 30
0.0
 11
219.28086
 21
258.656
 31
0.0
  0
LINE
  8
LC-001-002-----0
  6
CONTINUOUS
 62
     1
  5
398
 10
214.78086
 20
260.656
 30
0.0
 11
214.78086
 21
269.656
 31
0.0
  0
LINE
  8
LC-001-002-----0
  6
CONTINUOUS
 62
     1
  5
399
 10
216.78086
 20
271.656
 30
0.0
 11
216.78086
 21
271.656
 31
0.0
  0
LINE
  8
LC-001-002-----0
  6
CONTINUOUS
 62
     1
  5
39A
 10
216.78086
 20
271.656
 30
0.0
 11
214.78086
 21
269.656
 31
0.0
  0
ARC
  8
LC-001-002-----0
  6
CONTINUOUS
 62
     1
  5
39B
 10
569.179786
 20
238.518535
 30
0.0
 40
98.5
 50
164.34379
 51
179.338341
  0
ARC
  8
LC-002-002-RND-0
  6
CONTINUOUS
  5
39C
 10
469.679796
 20
238.656
 30
0.0
 40
0.5
 50
179.996015
 51
270.0
  0
LINE
  8
LC-001-002-----0
  6
CONTINUOUS
 62
     1
  5
39D
 10
473.179102
 20
238.156
 30
0.0
 11
473.179102
 21
239.656
 31
0.0
  0
ARC
  8
LC-001-002-----0
  6
CONTINUOUS
 62
     1
  5
39E
 10
478.635227
 20
263.776537
 30
0.0
 40
4.5
 50
105.421448
 51
162.893607
  0
LINE
  8
LC-001-002-----0
  6
CONTINUOUS
 62
     1
  5
39F
 10
473.179102
 20
238.156
 30
0.0
 11
469.679796
 21
238.156
 31
0.0
  0
LINE
  8
LC-001-002-----0
  6
CONTINUOUS
 62
     1
  5
3A0
 10
473.179102
 20
239.656
 30
0.0
 11
470.681467
 21
239.656
 31
0.0
  0
ARC
  8
LC-001-002-----0
  6
CONTINUOUS
 62
     1
  5
3A1
 10
478.635227
 20
263.776537
 30
0.0
 40
6.0
 50
101.504082
 51
163.487364
  0
ARC
  8
LC-001-002-----0
  6
CONTINUOUS
 62
     1
  5
3A2
 10
569.179786
 20
238.518535
 30
0.0
 40
100.0
 50
164.357533
 51
179.920842
  0
LINE
  8
LC-004-006-MLN-0
  6
DASHDOT
  5
3A5
 10
508.012724
 20
222.156
 30
0.0
 11
420.120641
 21
222.156
 31
0.0
  0
LINE
  8
LC-001-002-----0
  6
CONTINUOUS
 62
     1
  5
3A6
 10
477.4386
 20
238.156262
 30
0.0
 11
477.4386
 21
269.656
 31
0.0
  0
ARC
  8
LC-001-002-----0
  6
CONTINUOUS
 62
     1
  5
3A7
 10
569.179786
 20
205.793465
 30
0.0
 40
98.5
 50
180.661659
 51
195.65621
  0
ARC
  8
LC-002-002-RND-0
  6
CONTINUOUS
  5
3A8
 10
469.679796
 20
205.656
 30
0.0
 40
0.5
 50
90.0
 51
180.003985
  0
LINE
  8
LC-001-002-----0
  5
3A9
 10
498.012724
 20
222.156
 30
0.0
 11
539.78086
 21
222.156
 31
0.0
  0
LINE
  8
LC-001-002-----0
  6
CONTINUOUS
 62
     1
  5
3AA
 10
260.78086
 20
258.156
 30
0.0
 11
264.78086
 21
258.156
 31
0.0
  0
LINE
  8
LC-001-002-----0
  6
CONTINUOUS
 62
     1
  5
3AB
 10
264.78086
 20
260.656
 30
0.0
 11
264.78086
 21
258.156
 31
0.0
  0
LINE
  8
LC-001-002-----0
  6
CONTINUOUS
 62
     1
  5
3AC
 10
264.78086
 20
260.656
 30
0.0
 11
264.78086
 21
269.656
 31
0.0
  0
LINE
  8
LC-001-002-----0
  6
CONTINUOUS
 62
     1
  5
3AD
 10
262.78086
 20
271.656
 30
0.0
 11
262.78086
 21
260.656
 31
0.0
  0
LINE
  8
LC-001-002-----0
  6
CONTINUOUS
 62
     1
  5
3AE
 10
262.78086
 20
260.656
 30
0.0
 11
264.78086
 21
260.656
 31
0.0
  0
LINE
  8
LC-001-002-----0
  6
CONTINUOUS
 62
     1
  5
3AF
 10
262.78086
 20
271.656
 30
0.0
 11
264.78086
 21
269.656
 31
0.0
  0
ARC
  8
LC-002-002-RND-0
  6
CONTINUOUS
  5
3B0
 10
259.78086
 20
271.656
 30
0.0
 40
3.0
 50
0.0
 51
90.0
  0
LINE
  8
LC-001-002-----0
  6
CONTINUOUS
 62
     1
  5
3B1
 10
258.946225
 20
274.656
 30
0.0
 11
259.78086
 21
274.656
 31
0.0
  0
ARC
  8
LC-002-002-RND-0
  6
CONTINUOUS
  5
3B2
 10
258.946225
 20
271.656
 30
0.0
 40
3.0
 50
90.0
 51
180.0
  0
LINE
  8
LC-001-002-----0
  6
CONTINUOUS
 62
     1
  5
3B3
 10
260.78086
 20
270.156
 30
0.0
 11
260.78086
 21
258.156
 31
0.0
  0
LINE
  8
LC-001-002-----0
  6
CONTINUOUS
 62
     1
  5
3B4
 10
260.78086
 20
270.156
 30
0.0
 11
258.269403
 21
267.644543
 31
0.0
  0
LINE
  8
LC-001-002-----0
  6
CONTINUOUS
 62
     1
  5
3B5
 10
258.269403
 20
267.644543
 30
0.0
 11
258.269403
 21
264.667457
 31
0.0
  0
LINE
  8
LC-001-002-----0
  6
CONTINUOUS
 62
     1
  5
3B6
 10
255.946225
 20
270.156
 30
0.0
 11
260.78086
 21
270.156
 31
0.0
  0
LINE
  8
LC-001-002-----0
  6
CONTINUOUS
 62
     1
  5
3B7
 10
255.946225
 20
270.156
 30
0.0
 11
255.946225
 21
271.656
 31
0.0
  0
LINE
  8
LC-001-002-----0
  6
CONTINUOUS
 62
     1
  5
3B8
 10
226.03086
 20
492.432133
 30
0.0
 11
226.03086
 21
491.932133
 31
0.0
  0
LINE
  8
LC-001-002-----0
  6
CONTINUOUS
 62
     1
  5
3B9
 10
260.805363
 20
500.79663
 30
0.0
 11
258.293906
 21
498.285173
 31
0.0
  0
LINE
  8
LC-001-002-----0
  6
CONTINUOUS
 62
     1
  5
3BA
 10
253.563389
 20
492.432133
 30
0.0
 11
253.53086
 21
491.932133
 31
0.0
  0
LINE
  8
LC-001-002-----0
  6
CONTINUOUS
 62
     1
  5
3BB
 10
221.31682
 20
498.285173
 30
0.0
 11
258.293906
 21
498.285173
 31
0.0
  0
LINE
  8
LC-001-002-----0
  6
CONTINUOUS
 62
     1
  5
3BC
 10
473.179102
 20
206.156
 30
0.0
 11
473.179102
 21
204.656
 31
0.0
  0
ARC
  8
LC-001-002-----0
  6
CONTINUOUS
 62
     1
  5
3BD
 10
478.635227
 20
180.535463
 30
0.0
 40
4.5
 50
197.106393
 51
254.578552
  0
LINE
  8
LC-001-002-----0
  6
CONTINUOUS
 62
     1
  5
3BE
 10
222.105754
 20
491.932133
 30
0.0
 11
226.03086
 21
491.932133
 31
0.0
  0
LINE
  8
LC-001-002-----0
  6
CONTINUOUS
 62
     1
  5
3BF
 10
473.179102
 20
206.156
 30
0.0
 11
469.679796
 21
206.156
 31
0.0
  0
LINE
  8
LC-001-002-----0
  6
CONTINUOUS
 62
     1
  5
3C0
 10
473.179102
 20
204.656
 30
0.0
 11
470.681467
 21
204.656
 31
0.0
  0
LINE
  8
LC-001-002-----0
  6
CONTINUOUS
 62
     1
  5
3C1
 10
222.105754
 20
492.432133
 30
0.0
 11
226.03086
 21
492.432133
 31
0.0
  0
LINE
  8
LC-001-002-----0
  6
CONTINUOUS
 62
     1
  5
3C2
 10
253.53086
 20
491.932133
 30
0.0
 11
257.455966
 21
491.932133
 31
0.0
  0
LINE
  8
LC-001-002-----0
  6
CONTINUOUS
 62
     1
  5
3C3
 10
222.105754
 20
491.932133
 30
0.0
 11
222.105754
 21
492.432133
 31
0.0
  0
LINE
  8
LC-001-002-----0
  6
CONTINUOUS
 62
     1
  5
3C4
 10
257.455966
 20
491.932133
 30
0.0
 11
257.455966
 21
492.432133
 31
0.0
  0
ARC
  8
LC-001-002-----0
  6
CONTINUOUS
 62
     1
  5
3C5
 10
478.635227
 20
180.535463
 30
0.0
 40
6.0
 50
196.512636
 51
258.495918
  0
LINE
  8
LC-001-002-----0
  6
CONTINUOUS
 62
     1
  5
3C6
 10
253.563389
 20
492.432133
 30
0.0
 11
257.455966
 21
492.432133
 31
0.0
  0
ARC
  8
LC-001-002-----0
  6
CONTINUOUS
 62
     1
  5
3C7
 10
569.179786
 20
205.793465
 30
0.0
 40
100.0
 50
180.079158
 51
195.642467
  0
LINE
  8
LC-001-002-----0
  6
CONTINUOUS
 62
     1
  5
3C8
 10
223.639997
 20
488.79663
 30
0.0
 11
223.639997
 21
487.29663
 31
0.0
  0
LINE
  8
LC-001-002-----0
  6
CONTINUOUS
 62
     1
  5
3C9
 10
216.805363
 20
487.29663
 30
0.0
 11
216.805363
 21
498.29663
 31
0.0
  0
ARC
  8
LC-002-002-RND-0
  6
CONTINUOUS
  5
3CA
 10
220.639997
 20
487.29663
 30
0.0
 40
3.0
 50
270.0
 51
0.0
  0
LINE
  8
LC-001-002-----0
  6
CONTINUOUS
 62
     1
  5
3CB
 10
214.805363
 20
498.29663
 30
0.0
 11
214.805363
 21
500.79663
 31
0.0
  0
LINE
  8
LC-001-002-----0
  6
CONTINUOUS
 62
     1
  5
3CC
 10
260.805363
 20
500.79663
 30
0.0
 11
214.805363
 21
500.79663
 31
0.0
  0
LINE
  8
LC-001-002-----0
  6
CONTINUOUS
 62
     1
  5
3CD
 10
220.639997
 20
484.29663
 30
0.0
 11
219.805363
 21
484.29663
 31
0.0
  0
LINE
  8
LC-001-002-----0
  6
CONTINUOUS
 62
     1
  5
3CE
 10
216.805363
 20
498.29663
 30
0.0
 11
214.805363
 21
498.29663
 31
0.0
  0
LINE
  8
LC-001-002-----0
  6
CONTINUOUS
 62
     1
  5
3CF
 10
218.805363
 20
488.79663
 30
0.0
 11
218.805363
 21
500.79663
 31
0.0
  0
ARC
  8
LC-002-002-RND-0
  6
CONTINUOUS
  5
3D0
 10
219.805363
 20
487.29663
 30
0.0
 40
3.0
 50
180.0
 51
270.0
  0
LINE
  8
LC-001-002-----0
  6
CONTINUOUS
 62
     1
  5
3D1
 10
223.639997
 20
488.79663
 30
0.0
 11
218.805363
 21
488.79663
 31
0.0
  0
LINE
  8
LC-001-002-----0
  6
CONTINUOUS
 62
     1
  5
3D2
 10
218.805363
 20
488.79663
 30
0.0
 11
220.53086
 21
490.522127
 31
0.0
  0
LINE
  8
LC-001-002-----0
  6
CONTINUOUS
 62
     1
  5
3D3
 10
221.31682
 20
491.782634
 30
0.0
 11
221.31682
 21
498.285173
 31
0.0
  0
LINE
  8
LC-001-002-----0
  6
CONTINUOUS
 62
     1
  5
3D4
 10
218.805363
 20
500.79663
 30
0.0
 11
221.31682
 21
498.285173
 31
0.0
  0
LINE
  8
LC-001-002-----0
  6
CONTINUOUS
 62
     1
  5
3D5
 10
214.805363
 20
498.29663
 30
0.0
 11
214.805363
 21
489.29663
 31
0.0
  0
LINE
  8
LC-001-002-----0
  6
CONTINUOUS
 62
     1
  5
3D6
 10
477.4386
 20
206.156262
 30
0.0
 11
477.4386
 21
174.656
 31
0.0
  0
LINE
  8
LC-001-002-----0
  6
CONTINUOUS
 62
     1
  5
3D7
 10
216.805363
 20
487.29663
 30
0.0
 11
214.805363
 21
489.29663
 31
0.0
  0
LINE
  8
LC-001-002-----0
  6
CONTINUOUS
 62
     1
  5
3D8
 10
260.805363
 20
500.79663
 30
0.0
 11
264.805363
 21
500.79663
 31
0.0
  0
LINE
  8
LC-001-002-----0
  6
CONTINUOUS
 62
     1
  5
3D9
 10
264.805363
 20
498.29663
 30
0.0
 11
264.805363
 21
500.79663
 31
0.0
  0
LINE
  8
LC-001-002-----0
  6
CONTINUOUS
 62
     1
  5
3DA
 10
264.805363
 20
498.29663
 30
0.0
 11
264.805363
 21
489.29663
 31
0.0
  0
LINE
  8
LC-001-002-----0
  6
CONTINUOUS
 62
     1
  5
3DB
 10
262.805363
 20
487.29663
 30
0.0
 11
262.805363
 21
498.29663
 31
0.0
  0
LINE
  8
LC-001-002-----0
  6
CONTINUOUS
 62
     1
  5
3DC
 10
262.805363
 20
498.29663
 30
0.0
 11
264.805363
 21
498.29663
 31
0.0
  0
LINE
  8
LC-001-002-----0
  6
CONTINUOUS
 62
     1
  5
3DD
 10
262.805363
 20
487.29663
 30
0.0
 11
264.805363
 21
489.29663
 31
0.0
  0
ARC
  8
LC-002-002-RND-0
  6
CONTINUOUS
  5
3DE
 10
259.805363
 20
487.29663
 30
0.0
 40
3.0
 50
270.0
 51
0.0
  0
LINE
  8
LC-001-002-----0
  6
CONTINUOUS
 62
     1
  5
3DF
 10
258.970728
 20
484.29663
 30
0.0
 11
259.805363
 21
484.29663
 31
0.0
  0
ARC
  8
LC-002-002-RND-0
  6
CONTINUOUS
  5
3E0
 10
258.970728
 20
487.29663
 30
0.0
 40
3.0
 50
180.0
 51
270.0
  0
LINE
  8
LC-001-002-----0
  6
CONTINUOUS
 62
     1
  5
3E1
 10
260.805363
 20
488.79663
 30
0.0
 11
260.805363
 21
500.79663
 31
0.0
  0
LINE
  8
LC-001-002-----0
  6
CONTINUOUS
 62
     1
  5
3E2
 10
260.805363
 20
488.79663
 30
0.0
 11
259.03086
 21
490.571133
 31
0.0
  0
LINE
  8
LC-001-002-----0
  6
CONTINUOUS
 62
     1
  5
3E3
 10
258.293906
 20
491.782634
 30
0.0
 11
258.293906
 21
498.285173
 31
0.0
  0
LINE
  8
LC-001-002-----0
  6
CONTINUOUS
 62
     1
  5
3E4
 10
255.970728
 20
488.79663
 30
0.0
 11
260.805363
 21
488.79663
 31
0.0
  0
LINE
  8
LC-001-002-----0
  6
CONTINUOUS
 62
     1
  5
3E5
 10
255.970728
 20
488.79663
 30
0.0
 11
255.970728
 21
487.29663
 31
0.0
  0
ENDSEC
  0
EOF
