  0
SECTION
  2
HEADER
  9
$ACADVER
  1
AC1009
  9
$INSBASE
 10
0.0
 20
0.0
 30
0.0
  9
$EXTMIN
 10
0.0
 20
0.0
 30
0.0
  9
$EXTMAX
 10
840.0
 20
594.0
 30
0.0
  9
$LIMMIN
 10
0.0
 20
0.0
  9
$LIMMAX
 10
840.0
 20
594.0
  9
$ORTHOMODE
 70
     0
  9
$REGENMODE
 70
     1
  9
$FILLMODE
 70
     1
  9
$QTEXTMODE
 70
     0
  9
$MIRRTEXT
 70
     1
  9
$DRAGMODE
 70
     2
  9
$LTSCALE
 40
2.0
  9
$OSMODE
 70
     0
  9
$ATTMODE
 70
     1
  9
$TEXTSIZE
 40
0.2
  9
$TRACEWID
 40
0.05
  9
$TEXTSTYLE
  7
STANDARD
  9
$CLAYER
  8
0
  9
$CELTYPE
  6
BYLAYER
  9
$CECOLOR
 62
     7
  9
$DIMSCALE
 40
2.0
  9
$DIMASZ
 40
3.5
  9
$DIMEXO
 40
0.0625
  9
$DIMDLI
 40
0.38
  9
$DIMRND
 40
0.0
  9
$DIMDLE
 40
0.0
  9
$DIMEXE
 40
0.18
  9
$DIMTP
 40
0.0
  9
$DIMTM
 40
0.0
  9
$DIMTXT
 40
3.5
  9
$DIMCEN
 40
0.09
  9
$DIMTSZ
 40
0.0
  9
$DIMTOL
 70
     0
  9
$DIMLIM
 70
     0
  9
$DIMTIH
 70
     1
  9
$DIMTOH
 70
     1
  9
$DIMSE1
 70
     0
  9
$DIMSE2
 70
     0
  9
$DIMTAD
 70
     1
  9
$DIMZIN
 70
     0
  9
$DIMBLK
  1

  9
$DIMASO
 70
     1
  9
$DIMSHO
 70
     1
  9
$DIMPOST
  1

  9
$DIMAPOST
  1

  9
$DIMALT
 70
     0
  9
$DIMALTD
 70
     2
  9
$DIMALTF
 40
25.4
  9
$DIMLFAC
 40
1.0
  9
$DIMTOFL
 70
     0
  9
$DIMTVP
 40
0.0
  9
$DIMTIX
 70
     0
  9
$DIMSOXD
 70
     0
  9
$DIMSAH
 70
     0
  9
$DIMBLK1
  1

  9
$DIMBLK2
  1

  9
$DIMSTYLE
  2
STANDARD
  9
$DIMCLRD
 70
     0
  9
$DIMCLRE
 70
     0
  9
$DIMCLRT
 70
     0
  9
$DIMTFAC
 40
1.0
  9
$DIMGAP
 40
0.09
  9
$LUNITS
 70
     2
  9
$LUPREC
 70
     2
  9
$AXISMODE
 70
     0
  9
$AXISUNIT
 10
0.0
 20
0.0
  9
$SKETCHINC
 40
0.1
  9
$FILLETRAD
 40
0.0
  9
$AUNITS
 70
     0
  9
$AUPREC
 70
     0
  9
$MENU
  1
acad
  9
$ELEVATION
 40
0.0
  9
$PELEVATION
 40
0.0
  9
$THICKNESS
 40
0.0
  9
$LIMCHECK
 70
     0
  9
$BLIPMODE
 70
     1
  9
$CHAMFERA
 40
0.0
  9
$CHAMFERB
 40
0.0
  9
$SKPOLY
 70
     0
  9
$TDCREATE
 40
0.000000000
  9
$TDUPDATE
 40
0.000000000
  9
$TDINDWG
 40
0.0000000000
  9
$TDUSRTIMER
 40
0.0000000000
  9
$USRTIMER
 70
     1
  9
$ANGBASE
 50
0.0
  9
$ANGDIR
 70
     0
  9
$PDMODE
 70
     0
  9
$PDSIZE
 40
0.0
  9
$PLINEWID
 40
0.0
  9
$COORDS
 70
     0
  9
$SPLFRAME
 70
     0
  9
$SPLINETYPE
 70
     6
  9
$SPLINESEGS
 70
     8
  9
$ATTDIA
 70
     0
  9
$ATTREQ
 70
     1
  9
$HANDLING
 70
     1
  9
$HANDSEED
  5
2EC
  9
$SURFTAB1
 70
     6
  9
$SURFTAB2
 70
     6
  9
$SURFTYPE
 70
     6
  9
$SURFU
 70
     6
  9
$SURFV
 70
     6
  9
$UCSNAME
  2

  9
$UCSORG
 10
0.0
 20
0.0
 30
0.0
  9
$UCSXDIR
 10
1.0
 20
0.0
 30
0.0
  9
$UCSYDIR
 10
0.0
 20
1.0
 30
0.0
  9
$PUCSNAME
  2

  9
$PUCSORG
 10
0.0
 20
0.0
 30
0.0
  9
$PUCSXDIR
 10
1.0
 20
0.0
 30
0.0
  9
$PUCSYDIR
 10
0.0
 20
1.0
 30
0.0
  9
$USERI1
 70
     0
  9
$USERI2
 70
     0
  9
$USERI3
 70
     0
  9
$USERI4
 70
     0
  9
$USERI5
 70
     0
  9
$USERR1
 40
0.0
  9
$USERR2
 40
0.0
  9
$USERR3
 40
0.0
  9
$USERR4
 40
0.0
  9
$USERR5
 40
0.0
  9
$WORLDVIEW
 70
     1
  9
$SHADEDGE
 70
     3
  9
$SHADEDIF
 70
    70
  9
$TILEMODE
 70
     1
  9
$MAXACTVP
 70
    16
  9
$PINSBASE
 10
0.0
 20
0.0
 30
0.0
  9
$PLIMCHECK
 70
     0
  9
$PEXTMIN
 10
1.000000E+20
 20
1.000000E+20
 30
1.000000E+20
  9
$PEXTMAX
 10
-1.000000E+20
 20
-1.000000E+20
 30
-1.000000E+20
  9
$PLIMMIN
 10
0.0
 20
0.0
  9
$PLIMMAX
 10
840.0
 20
594.0
  9
$UNITMODE
 70
     0
  9
$VISRETAIN
 70
     0
  9
$PLINEGEN
 70
     1
  9
$PSLTSCALE
 70
     0
  9
$TREEDEPTH
 70
  3020
  9
$DWGCODEPAGE
  3
dos850
  0
ENDSEC
  0
SECTION
  2
TABLES
  0
TABLE
  2
VPORT
 70
     1
  0
VPORT
  2
*ACTIVE
 70
     0
 10
0.0
 20
0.0
 11
1.0
 21
1.0
 12
420.0
 22
297.0
 13
0.0
 23
0.0
 14
1.0
 24
1.0
 15
0.0
 25
0.0
 16
0.0
 26
0.0
 36
1.0
 17
0.0
 27
0.0
 37
0.0
 40
594.0
 41
1.604229
 42
50.0
 43
0.0
 44
0.0
 50
0.0
 51
0.0
 71
     0
 72
   100
 73
     1
 74
     1
 75
     0
 76
     0
 77
     0
 78
     0
  0
ENDTAB
  0
TABLE
  2
LTYPE
 70
     3
  0
LTYPE
  2
CONTINUOUS
 70
    64
  3
Solid line
 72
    65
 73
     0
 40
0.0
  0
LTYPE
  2
DASHED
 70
    64
  3
__ __ __ __ __
 72
    65
 73
     2
 40
6.25
 49
5.0
 49
-1.25
  0
LTYPE
  2
DASHDOT
 70
    64
  3
__ . __ . __ . __ . __
 72
    65
 73
     4
 40
7.5
 49
5.0
 49
-1.25
 49
0.0
 49
-1.25
  0
ENDTAB
  0
TABLE
  2
LAYER
 70
    11
  0
LAYER
  2
0
 70
     0
 62
     7
  6
CONTINUOUS
  0
LAYER
  2
LC-INFO-1-2-MM-A3-0
 70
     1
 62
    -1
  6
CONTINUOUS
  0
LAYER
  2
LC-003-003-MTH-0
 70
     0
 62
     2
  6
CONTINUOUS
  0
LAYER
  2
LC-002-003-----0
 70
     0
 62
     2
  6
CONTINUOUS
  0
LAYER
  2
LC-004-003-MTG-0
 70
     0
 62
     2
  6
CONTINUOUS
  0
LAYER
  2
LC-005-005-----0
 70
     0
 62
     2
  6
CONTINUOUS
  0
LAYER
  2
LC-007-000-----0
 70
     0
 62
     7
  6
CONTINUOUS
  0
LAYER
  2
LC-008-000-----0
 70
     0
 62
     7
  6
CONTINUOUS
  0
LAYER
  2
LC-001-002-----0
 70
     0
 62
     1
  6
CONTINUOUS
  0
LAYER
  2
LC-006-002-RND-0
 70
     0
 62
     1
  6
CONTINUOUS
  0
LAYER
  2
LC-000
 70
     0
 62
     7
  6
CONTINUOUS
  0
ENDTAB
  0
TABLE
  2
STYLE
 70
     4
  0
STYLE
  2
STANDARD
 70
     0
 40
0.0
 41
1.0
 50
0.0
 71
     0
 42
0.0
  3
txt
  4

  0
STYLE
  2
LC-STANDARD
 70
    64
 40
0.0
 41
1.0
 50
0.0
 71
     0
 42
3.5
  3
MONOTXT
  4

  0
STYLE
  2
LC-TXTSTYLE-150-400-0-0-D2
 70
    64
 40
0.0
 41
1.0
 50
15.0
 71
     0
 42
3.5
  3
MONOTXT
  4

  0
STYLE
  2
LC-TXTSTYLE-150-400-0-0-D3
 70
    64
 40
0.0
 41
1.0
 50
15.0
 71
     0
 42
3.5
  3
LC-STANDARD
  4

  0
ENDTAB
  0
TABLE
  2
VIEW
 70
     0
  0
ENDTAB
  0
TABLE
  2
UCS
 70
     0
  0
ENDTAB
  0
TABLE
  2
APPID
 70
     1
  0
APPID
  2
ACAD
 70
     0
  0
ENDTAB
  0
TABLE
  2
DIMSTYLE
 70
     3
  0
DIMSTYLE
  2
STANDARD
 70
     0
  3

  4

  5

  6

  7

 40
1.0
 41
0.18
 42
0.0625
 43
0.38
 44
0.18
 45
0.0
 46
0.0
 47
0.0
 48
0.0
 71
     0
 72
     0
 73
     1
 74
     1
 75
     0
 76
     0
 77
     0
 78
     0
140
0.18
141
0.09
142
0.0
143
25.4
144
1.0
145
0.0
146
1.0
147
0.09
170
     0
171
     2
172
     0
173
     0
174
     0
175
     0
176
     0
177
     0
178
     0
  0
DIMSTYLE
  2
LC-STANDARD
 70
     0
  3

  4

  5

  6

  7

 40
1.0
 41
3.5
 42
0.0
 43
7.5
 44
1.8
 45
0.0
 46
0.0
 47
0.0
 48
0.0
 71
     0
 72
     0
 73
     0
 74
     0
 75
     0
 76
     0
 77
     1
 78
     8
140
3.5
141
0.0
142
0.0
143
25.4
144
1.0
145
0.0
146
0.71
147
1.5
170
     0
171
     2
172
     1
173
     0
174
     0
175
     0
176
     0
177
     0
178
     3
  0
DIMSTYLE
  2
LC-DIM-L-0090-02-02
 70
     0
  3

  4

  5

  6

  7

 40
2.0
 41
3.5
 42
0.0
 43
7.5
 44
1.8
 45
0.0
 46
0.0
 47
0.0
 48
0.0
 71
     0
 72
     0
 73
     0
 74
     0
 75
     0
 76
     0
 77
     1
 78
     8
140
9.0
141
0.0
142
0.0
143
25.4
144
1.0
145
0.0
146
0.71
147
1.5
170
     0
171
     2
172
     0
173
     0
174
     0
175
     0
176
     2
177
     2
178
     6
  0
ENDTAB
  0
ENDSEC
  0
SECTION
  2
BLOCKS
  0
BLOCK
  8
0
  5
23
  2
*D0
 70
    65
 10
0.0
 20
0.0
 30
0.0
  3
*D0
  0
LINE
  8
LC-003-003-MTH-0
  6
CONTINUOUS
  5
25
 10
517.552558
 20
244.515989
 30
0.0
 11
556.8
 21
244.515989
 31
0.0
  0
LINE
  8
LC-003-003-MTH-0
  6
CONTINUOUS
  5
26
 10
517.552558
 20
276.515989
 30
0.0
 11
556.8
 21
276.515989
 31
0.0
  0
LINE
  8
LC-002-003-----0
  6
CONTINUOUS
  5
28
 10
548.349471
 20
226.669981
 30
0.0
 11
546.0
 21
244.515989
 31
0.0
  0
LINE
  8
LC-002-003-----0
  6
CONTINUOUS
  5
29
 10
546.0
 20
244.515989
 30
0.0
 11
543.650529
 21
226.669981
 31
0.0
  0
LINE
  8
LC-002-003-----0
  6
CONTINUOUS
  5
2A
 10
543.650529
 20
226.669981
 30
0.0
 11
548.349471
 21
226.669981
 31
0.0
  0
LINE
  8
LC-002-003-----0
  6
CONTINUOUS
  5
2B
 10
547.738609
 20
226.629943
 30
0.0
 11
546.0
 21
239.835989
 31
0.0
  0
LINE
  8
LC-002-003-----0
  6
CONTINUOUS
  5
2C
 10
546.0
 20
239.835989
 30
0.0
 11
544.261391
 21
226.629943
 31
0.0
  0
LINE
  8
LC-002-003-----0
  6
CONTINUOUS
  5
2D
 10
547.127746
 20
226.589905
 30
0.0
 11
546.0
 21
235.155989
 31
0.0
  0
LINE
  8
LC-002-003-----0
  6
CONTINUOUS
  5
2E
 10
546.0
 20
235.155989
 30
0.0
 11
544.872254
 21
226.589905
 31
0.0
  0
LINE
  8
LC-002-003-----0
  6
CONTINUOUS
  5
2F
 10
546.516884
 20
226.549867
 30
0.0
 11
546.0
 21
230.475989
 31
0.0
  0
LINE
  8
LC-002-003-----0
  6
CONTINUOUS
  5
30
 10
546.0
 20
230.475989
 30
0.0
 11
545.483116
 21
226.549867
 31
0.0
  0
LINE
  8
LC-002-003-----0
  6
CONTINUOUS
  5
31
 10
543.650529
 20
294.361996
 30
0.0
 11
546.0
 21
276.515989
 31
0.0
  0
LINE
  8
LC-002-003-----0
  6
CONTINUOUS
  5
32
 10
546.0
 20
276.515989
 30
0.0
 11
548.349471
 21
294.361996
 31
0.0
  0
LINE
  8
LC-002-003-----0
  6
CONTINUOUS
  5
33
 10
548.349471
 20
294.361996
 30
0.0
 11
543.650529
 21
294.361996
 31
0.0
  0
LINE
  8
LC-002-003-----0
  6
CONTINUOUS
  5
34
 10
544.261391
 20
294.402034
 30
0.0
 11
546.0
 21
281.195989
 31
0.0
  0
LINE
  8
LC-002-003-----0
  6
CONTINUOUS
  5
35
 10
546.0
 20
281.195989
 30
0.0
 11
547.738609
 21
294.402034
 31
0.0
  0
LINE
  8
LC-002-003-----0
  6
CONTINUOUS
  5
36
 10
544.872254
 20
294.442072
 30
0.0
 11
546.0
 21
285.875989
 31
0.0
  0
LINE
  8
LC-002-003-----0
  6
CONTINUOUS
  5
37
 10
546.0
 20
285.875989
 30
0.0
 11
547.127746
 21
294.442072
 31
0.0
  0
LINE
  8
LC-002-003-----0
  6
CONTINUOUS
  5
38
 10
545.483116
 20
294.48211
 30
0.0
 11
546.0
 21
290.555989
 31
0.0
  0
LINE
  8
LC-002-003-----0
  6
CONTINUOUS
  5
39
 10
546.0
 20
290.555989
 30
0.0
 11
546.516884
 21
294.48211
 31
0.0
  0
LINE
  8
LC-004-003-MTG-0
  6
CONTINUOUS
  5
3B
 10
546.0
 20
219.315989
 30
0.0
 11
546.0
 21
366.918508
 31
0.0
  0
TEXT
  8
LC-002-003-----0
  6
CONTINUOUS
 62
     6
  5
3D
 10
535.568001
 20
303.791234
 30
0.0
 40
18.0
  1
DN32
 50
90.0
 41
0.9
 51
15.0
  7
LC-TXTSTYLE-150-400-0-0-D0
  0
ENDBLK
  8
0
  5
3E
  0
BLOCK
  8
0
  5
40
  2
*D1
 70
    65
 10
0.0
 20
0.0
 30
0.0
  3
*D1
  0
LINE
  8
LC-003-003-MTH-0
  6
CONTINUOUS
  5
41
 10
217.552558
 20
290.515862
 30
0.0
 11
217.552558
 21
157.2
 31
0.0
  0
LINE
  8
LC-003-003-MTH-0
  6
CONTINUOUS
  5
42
 10
517.552558
 20
244.515989
 30
0.0
 11
517.552558
 21
157.2
 31
0.0
  0
LINE
  8
LC-004-003-MTG-0
  6
CONTINUOUS
  5
43
 10
217.552558
 20
168.0
 30
0.0
 11
517.552558
 21
168.0
 31
0.0
  0
LINE
  8
LC-002-003-----0
  6
CONTINUOUS
  5
44
 10
235.398566
 20
170.349471
 30
0.0
 11
217.552558
 21
168.0
 31
0.0
  0
LINE
  8
LC-002-003-----0
  6
CONTINUOUS
  5
45
 10
217.552558
 20
168.0
 30
0.0
 11
235.398566
 21
165.650529
 31
0.0
  0
LINE
  8
LC-002-003-----0
  6
CONTINUOUS
  5
46
 10
235.398566
 20
165.650529
 30
0.0
 11
235.398566
 21
170.349471
 31
0.0
  0
LINE
  8
LC-002-003-----0
  6
CONTINUOUS
  5
47
 10
235.438604
 20
169.738609
 30
0.0
 11
222.232558
 21
168.0
 31
0.0
  0
LINE
  8
LC-002-003-----0
  6
CONTINUOUS
  5
48
 10
222.232558
 20
168.0
 30
0.0
 11
235.438604
 21
166.261391
 31
0.0
  0
LINE
  8
LC-002-003-----0
  6
CONTINUOUS
  5
49
 10
235.478642
 20
169.127746
 30
0.0
 11
226.912558
 21
168.0
 31
0.0
  0
LINE
  8
LC-002-003-----0
  6
CONTINUOUS
  5
4A
 10
226.912558
 20
168.0
 30
0.0
 11
235.478642
 21
166.872254
 31
0.0
  0
LINE
  8
LC-002-003-----0
  6
CONTINUOUS
  5
4B
 10
235.51868
 20
168.516884
 30
0.0
 11
231.592558
 21
168.0
 31
0.0
  0
LINE
  8
LC-002-003-----0
  6
CONTINUOUS
  5
4C
 10
231.592558
 20
168.0
 30
0.0
 11
235.51868
 21
167.483116
 31
0.0
  0
LINE
  8
LC-002-003-----0
  6
CONTINUOUS
  5
4D
 10
499.706551
 20
165.650529
 30
0.0
 11
517.552558
 21
168.0
 31
0.0
  0
LINE
  8
LC-002-003-----0
  6
CONTINUOUS
  5
4E
 10
517.552558
 20
168.0
 30
0.0
 11
499.706551
 21
170.349471
 31
0.0
  0
LINE
  8
LC-002-003-----0
  6
CONTINUOUS
  5
4F
 10
499.706551
 20
170.349471
 30
0.0
 11
499.706551
 21
165.650529
 31
0.0
  0
LINE
  8
LC-002-003-----0
  6
CONTINUOUS
  5
50
 10
499.666513
 20
166.261391
 30
0.0
 11
512.872558
 21
168.0
 31
0.0
  0
LINE
  8
LC-002-003-----0
  6
CONTINUOUS
  5
51
 10
512.872558
 20
168.0
 30
0.0
 11
499.666513
 21
169.738609
 31
0.0
  0
LINE
  8
LC-002-003-----0
  6
CONTINUOUS
  5
52
 10
499.626475
 20
166.872254
 30
0.0
 11
508.192558
 21
168.0
 31
0.0
  0
LINE
  8
LC-002-003-----0
  6
CONTINUOUS
  5
53
 10
508.192558
 20
168.0
 30
0.0
 11
499.626475
 21
169.127746
 31
0.0
  0
LINE
  8
LC-002-003-----0
  6
CONTINUOUS
  5
54
 10
499.586437
 20
167.483116
 30
0.0
 11
503.512558
 21
168.0
 31
0.0
  0
LINE
  8
LC-002-003-----0
  6
CONTINUOUS
  5
55
 10
503.512558
 20
168.0
 30
0.0
 11
499.586437
 21
168.516884
 31
0.0
  0
TEXT
  8
LC-002-003-----0
  6
CONTINUOUS
 62
     6
  5
56
 10
351.213946
 20
178.431999
 30
0.0
 40
18.0
  1
300
 51
15.0
  7
LC-TXTSTYLE-150-400-0-0-D0
 72
     1
 11
370.347804
 21
178.431999
 31
0.0
  0
ENDBLK
  8
0
  5
57
  0
BLOCK
  8
0
  5
59
  2
*X2
 70
    65
 10
443.442346
 20
144.025599
 30
0.0
  3
*X2
  0
LINE
  8
LC-005-005-----0
  6
CONTINUOUS
  5
5B
 10
450.752215
 20
213.164336
 30
0.0
 11
451.70116
 21
214.113281
 31
0.0
  0
LINE
  8
LC-005-005-----0
  6
CONTINUOUS
  5
5C
 10
448.981459
 20
214.222007
 30
0.0
 11
450.04603
 21
215.286579
 31
0.0
  0
LINE
  8
LC-005-005-----0
  6
CONTINUOUS
  5
5D
 10
447.700531
 20
215.769507
 30
0.0
 11
448.81225
 21
216.881226
 31
0.0
  0
LINE
  8
LC-005-005-----0
  6
CONTINUOUS
  5
5E
 10
446.933986
 20
217.831389
 30
0.0
 11
448.159527
 21
219.05693
 31
0.0
  0
LINE
  8
LC-005-005-----0
  6
CONTINUOUS
  5
5F
 10
446.352127
 20
220.077957
 30
0.0
 11
447.594874
 21
221.320704
 31
0.0
  0
LINE
  8
LC-005-005-----0
  6
CONTINUOUS
  5
60
 10
445.815401
 20
222.369658
 30
0.0
 11
447.076824
 21
223.631082
 31
0.0
  0
LINE
  8
LC-005-005-----0
  6
CONTINUOUS
  5
61
 10
445.325832
 20
224.708516
 30
0.0
 11
446.607559
 21
225.990243
 31
0.0
  0
LINE
  8
LC-005-005-----0
  6
CONTINUOUS
  5
62
 10
444.885684
 20
227.096795
 30
0.0
 11
446.189527
 21
228.400639
 31
0.0
  0
LINE
  8
LC-005-005-----0
  6
CONTINUOUS
  5
63
 10
444.497504
 20
229.537042
 30
0.0
 11
445.825495
 21
230.865034
 31
0.0
  0
LINE
  8
LC-005-005-----0
  6
CONTINUOUS
  5
64
 10
444.164167
 20
232.032133
 30
0.0
 11
445.518595
 21
233.386561
 31
0.0
  0
LINE
  8
LC-005-005-----0
  6
CONTINUOUS
  5
65
 10
443.888936
 20
234.585329
 30
0.0
 11
445.272402
 21
235.968794
 31
0.0
  0
LINE
  8
LC-005-005-----0
  6
CONTINUOUS
  5
66
 10
443.675537
 20
237.200357
 30
0.0
 11
445.091014
 21
238.615834
 31
0.0
  0
LINE
  8
LC-005-005-----0
  6
CONTINUOUS
  5
67
 10
443.52825
 20
239.881497
 30
0.0
 11
444.979171
 21
241.332418
 31
0.0
  0
LINE
  8
LC-005-005-----0
  6
CONTINUOUS
  5
68
 10
446.534887
 20
242.888134
 30
0.0
 11
447.441661
 21
243.794908
 31
0.0
  0
LINE
  8
LC-005-005-----0
  6
CONTINUOUS
  5
69
 10
443.452033
 20
242.633707
 30
0.0
 11
445.206459
 21
244.388134
 31
0.0
  0
ENDBLK
  8
0
  5
6A
  0
BLOCK
  8
0
  5
6C
  2
*X3
 70
    65
 10
196.052558
 20
308.515989
 30
0.0
  3
*X3
  0
LINE
  8
LC-005-005-----0
  6
CONTINUOUS
  5
6D
 10
234.977244
 20
308.515989
 30
0.0
 11
238.977249
 21
312.515989
 31
0.0
  0
LINE
  8
LC-005-005-----0
  6
CONTINUOUS
  5
6E
 10
229.320386
 20
308.515989
 30
0.0
 11
233.320391
 21
312.515989
 31
0.0
  0
LINE
  8
LC-005-005-----0
  6
CONTINUOUS
  5
6F
 10
223.663528
 20
308.515989
 30
0.0
 11
227.663533
 21
312.515989
 31
0.0
  0
LINE
  8
LC-005-005-----0
  6
CONTINUOUS
  5
70
 10
218.00667
 20
308.515989
 30
0.0
 11
222.006675
 21
312.515989
 31
0.0
  0
LINE
  8
LC-005-005-----0
  6
CONTINUOUS
  5
71
 10
212.349812
 20
308.515989
 30
0.0
 11
216.349817
 21
312.515989
 31
0.0
  0
LINE
  8
LC-005-005-----0
  6
CONTINUOUS
  5
72
 10
206.692954
 20
308.515989
 30
0.0
 11
210.692959
 21
312.515989
 31
0.0
  0
LINE
  8
LC-005-005-----0
  6
CONTINUOUS
  5
73
 10
201.036096
 20
308.515989
 30
0.0
 11
205.036101
 21
312.515989
 31
0.0
  0
LINE
  8
LC-005-005-----0
  6
CONTINUOUS
  5
74
 10
196.052558
 20
309.189308
 30
0.0
 11
199.379243
 21
312.515989
 31
0.0
  0
ENDBLK
  8
0
  5
75
  0
BLOCK
  8
0
  5
77
  2
*X4
 70
    65
 10
196.052558
 20
379.517896
 30
0.0
  3
*X4
  0
LINE
  8
LC-005-005-----0
  6
CONTINUOUS
  5
78
 10
238.096949
 20
379.517896
 30
0.0
 11
239.052558
 21
380.473504
 31
0.0
  0
LINE
  8
LC-005-005-----0
  6
CONTINUOUS
  5
79
 10
232.440091
 20
379.517896
 30
0.0
 11
236.440096
 21
383.517896
 31
0.0
  0
LINE
  8
LC-005-005-----0
  6
CONTINUOUS
  5
7A
 10
226.783233
 20
379.517896
 30
0.0
 11
230.783238
 21
383.517896
 31
0.0
  0
LINE
  8
LC-005-005-----0
  6
CONTINUOUS
  5
7B
 10
221.126375
 20
379.517896
 30
0.0
 11
225.12638
 21
383.517896
 31
0.0
  0
LINE
  8
LC-005-005-----0
  6
CONTINUOUS
  5
7C
 10
215.469517
 20
379.517896
 30
0.0
 11
219.469522
 21
383.517896
 31
0.0
  0
LINE
  8
LC-005-005-----0
  6
CONTINUOUS
  5
7D
 10
209.812659
 20
379.517896
 30
0.0
 11
213.812664
 21
383.517896
 31
0.0
  0
LINE
  8
LC-005-005-----0
  6
CONTINUOUS
  5
7E
 10
204.155801
 20
379.517896
 30
0.0
 11
208.155806
 21
383.517896
 31
0.0
  0
LINE
  8
LC-005-005-----0
  6
CONTINUOUS
  5
7F
 10
198.498943
 20
379.517896
 30
0.0
 11
202.498948
 21
383.517896
 31
0.0
  0
LINE
  8
LC-005-005-----0
  6
CONTINUOUS
  5
80
 10
196.052558
 20
382.728365
 30
0.0
 11
196.84209
 21
383.517896
 31
0.0
  0
ENDBLK
  8
0
  5
81
  0
BLOCK
  8
0
  5
83
  2
*X5
 70
    65
 10
196.052558
 20
379.517896
 30
0.0
  3
*X5
  0
LINE
  8
LC-005-005-----0
  6
CONTINUOUS
  5
84
 10
196.052558
 20
380.946575
 30
0.0
 11
197.481238
 21
379.517896
 31
0.0
  0
LINE
  8
LC-005-005-----0
  6
CONTINUOUS
  5
85
 10
199.138092
 20
383.517896
 30
0.0
 11
203.138092
 21
379.517896
 31
0.0
  0
LINE
  8
LC-005-005-----0
  6
CONTINUOUS
  5
86
 10
204.794946
 20
383.517896
 30
0.0
 11
208.794946
 21
379.517896
 31
0.0
  0
LINE
  8
LC-005-005-----0
  6
CONTINUOUS
  5
87
 10
210.451801
 20
383.517896
 30
0.0
 11
214.451801
 21
379.517896
 31
0.0
  0
LINE
  8
LC-005-005-----0
  6
CONTINUOUS
  5
88
 10
216.108655
 20
383.517896
 30
0.0
 11
220.108655
 21
379.517896
 31
0.0
  0
LINE
  8
LC-005-005-----0
  6
CONTINUOUS
  5
89
 10
221.765509
 20
383.517896
 30
0.0
 11
225.765509
 21
379.517896
 31
0.0
  0
LINE
  8
LC-005-005-----0
  6
CONTINUOUS
  5
8A
 10
227.422363
 20
383.517896
 30
0.0
 11
231.422363
 21
379.517896
 31
0.0
  0
LINE
  8
LC-005-005-----0
  6
CONTINUOUS
  5
8B
 10
233.079217
 20
383.517896
 30
0.0
 11
237.079217
 21
379.517896
 31
0.0
  0
LINE
  8
LC-005-005-----0
  6
CONTINUOUS
  5
8C
 10
238.736072
 20
383.517896
 30
0.0
 11
239.052558
 21
383.201409
 31
0.0
  0
ENDBLK
  8
0
  5
8D
  0
BLOCK
  8
0
  5
8F
  2
*X6
 70
    65
 10
196.052558
 20
308.515989
 30
0.0
  3
*X6
  0
LINE
  8
LC-005-005-----0
  6
CONTINUOUS
  5
90
 10
196.600817
 20
312.515989
 30
0.0
 11
200.600822
 21
308.515989
 31
0.0
  0
LINE
  8
LC-005-005-----0
  6
CONTINUOUS
  5
91
 10
202.257675
 20
312.515989
 30
0.0
 11
206.25768
 21
308.515989
 31
0.0
  0
LINE
  8
LC-005-005-----0
  6
CONTINUOUS
  5
92
 10
207.914533
 20
312.515989
 30
0.0
 11
211.914538
 21
308.515989
 31
0.0
  0
LINE
  8
LC-005-005-----0
  6
CONTINUOUS
  5
93
 10
213.571391
 20
312.515989
 30
0.0
 11
217.571396
 21
308.515989
 31
0.0
  0
LINE
  8
LC-005-005-----0
  6
CONTINUOUS
  5
94
 10
219.228249
 20
312.515989
 30
0.0
 11
223.228254
 21
308.515989
 31
0.0
  0
LINE
  8
LC-005-005-----0
  6
CONTINUOUS
  5
95
 10
224.885107
 20
312.515989
 30
0.0
 11
228.885112
 21
308.515989
 31
0.0
  0
LINE
  8
LC-005-005-----0
  6
CONTINUOUS
  5
96
 10
230.541965
 20
312.515989
 30
0.0
 11
234.54197
 21
308.515989
 31
0.0
  0
LINE
  8
LC-005-005-----0
  6
CONTINUOUS
  5
97
 10
236.198823
 20
312.515989
 30
0.0
 11
239.052558
 21
309.662257
 31
0.0
  0
ENDBLK
  8
0
  5
98
  0
BLOCK
  8
0
  5
9A
  2
BLK1
 70
    64
 10
0.0
 20
0.0
 30
0.0
  3
BLK1
  0
ENDBLK
  8
0
  5
9B
  0
BLOCK
  8
0
  5
9D
  2
*X8
 70
    65
 10
443.442346
 20
176.750668
 30
0.0
  3
*X8
  0
LINE
  8
LC-005-005-----0
  6
CONTINUOUS
  5
9E
 10
446.093761
 20
276.388134
 30
0.0
 11
447.441661
 21
277.736033
 31
0.0
  0
LINE
  8
LC-005-005-----0
  6
CONTINUOUS
  5
9F
 10
443.51155
 20
276.634349
 30
0.0
 11
444.951236
 21
278.074035
 31
0.0
  0
LINE
  8
LC-005-005-----0
  6
CONTINUOUS
  5
A0
 10
443.478232
 20
279.429458
 30
0.0
 11
445.033384
 21
280.984611
 31
0.0
  0
LINE
  8
LC-005-005-----0
  6
CONTINUOUS
  5
A1
 10
443.600952
 20
282.380606
 30
0.0
 11
445.208608
 21
283.988262
 31
0.0
  0
LINE
  8
LC-005-005-----0
  6
CONTINUOUS
  5
A2
 10
443.819501
 20
285.427582
 30
0.0
 11
445.487038
 21
287.095119
 31
0.0
  0
LINE
  8
LC-005-005-----0
  6
CONTINUOUS
  5
A3
 10
444.144609
 20
288.581117
 30
0.0
 11
445.881151
 21
290.317659
 31
0.0
  0
LINE
  8
LC-005-005-----0
  6
CONTINUOUS
  5
A4
 10
444.589553
 20
291.854488
 30
0.0
 11
446.40661
 21
293.671546
 31
0.0
  0
LINE
  8
LC-005-005-----0
  6
CONTINUOUS
  5
A5
 10
445.171089
 20
295.264452
 30
0.0
 11
447.083543
 21
297.176905
 31
0.0
  0
LINE
  8
LC-005-005-----0
  6
CONTINUOUS
  5
A6
 10
445.91089
 20
298.83268
 30
0.0
 11
447.938559
 21
300.860348
 31
0.0
  0
LINE
  8
LC-005-005-----0
  6
CONTINUOUS
  5
A7
 10
446.837848
 20
302.588065
 30
0.0
 11
451.70116
 21
307.451376
 31
0.0
  0
ENDBLK
  8
0
  5
A8
  0
BLOCK
  8
0
  5
AA
  2
*D9
 70
    65
 10
0.0
 20
0.0
 30
0.0
  3
*D9
  0
LINE
  8
LC-003-003-MTH-0
  6
CONTINUOUS
  5
AB
 10
247.552501
 20
260.515862
 30
0.0
 11
169.2
 21
260.515862
 31
0.0
  0
LINE
  8
LC-003-003-MTH-0
  6
CONTINUOUS
  5
AC
 10
196.052558
 20
385.517896
 30
0.0
 11
169.2
 21
385.517896
 31
0.0
  0
LINE
  8
LC-004-003-MTG-0
  6
CONTINUOUS
  5
AD
 10
180.0
 20
260.515862
 30
0.0
 11
180.0
 21
385.517896
 31
0.0
  0
LINE
  8
LC-002-003-----0
  6
CONTINUOUS
  5
AE
 10
177.650529
 20
278.361869
 30
0.0
 11
180.0
 21
260.515862
 31
0.0
  0
LINE
  8
LC-002-003-----0
  6
CONTINUOUS
  5
AF
 10
180.0
 20
260.515862
 30
0.0
 11
182.349471
 21
278.361869
 31
0.0
  0
LINE
  8
LC-002-003-----0
  6
CONTINUOUS
  5
B0
 10
182.349471
 20
278.361869
 30
0.0
 11
177.650529
 21
278.361869
 31
0.0
  0
LINE
  8
LC-002-003-----0
  6
CONTINUOUS
  5
B1
 10
178.261391
 20
278.401907
 30
0.0
 11
180.0
 21
265.195862
 31
0.0
  0
LINE
  8
LC-002-003-----0
  6
CONTINUOUS
  5
B2
 10
180.0
 20
265.195862
 30
0.0
 11
181.738609
 21
278.401907
 31
0.0
  0
LINE
  8
LC-002-003-----0
  6
CONTINUOUS
  5
B3
 10
178.872254
 20
278.441945
 30
0.0
 11
180.0
 21
269.875862
 31
0.0
  0
LINE
  8
LC-002-003-----0
  6
CONTINUOUS
  5
B4
 10
180.0
 20
269.875862
 30
0.0
 11
181.127746
 21
278.441945
 31
0.0
  0
LINE
  8
LC-002-003-----0
  6
CONTINUOUS
  5
B5
 10
179.483116
 20
278.481984
 30
0.0
 11
180.0
 21
274.555862
 31
0.0
  0
LINE
  8
LC-002-003-----0
  6
CONTINUOUS
  5
B6
 10
180.0
 20
274.555862
 30
0.0
 11
180.516884
 21
278.481984
 31
0.0
  0
LINE
  8
LC-002-003-----0
  6
CONTINUOUS
  5
B7
 10
182.349471
 20
367.671888
 30
0.0
 11
180.0
 21
385.517896
 31
0.0
  0
LINE
  8
LC-002-003-----0
  6
CONTINUOUS
  5
B8
 10
180.0
 20
385.517896
 30
0.0
 11
177.650529
 21
367.671888
 31
0.0
  0
LINE
  8
LC-002-003-----0
  6
CONTINUOUS
  5
B9
 10
177.650529
 20
367.671888
 30
0.0
 11
182.349471
 21
367.671888
 31
0.0
  0
LINE
  8
LC-002-003-----0
  6
CONTINUOUS
  5
BA
 10
181.738609
 20
367.63185
 30
0.0
 11
180.0
 21
380.837896
 31
0.0
  0
LINE
  8
LC-002-003-----0
  6
CONTINUOUS
  5
BB
 10
180.0
 20
380.837896
 30
0.0
 11
178.261391
 21
367.63185
 31
0.0
  0
LINE
  8
LC-002-003-----0
  6
CONTINUOUS
  5
BC
 10
181.127746
 20
367.591812
 30
0.0
 11
180.0
 21
376.157896
 31
0.0
  0
LINE
  8
LC-002-003-----0
  6
CONTINUOUS
  5
BD
 10
180.0
 20
376.157896
 30
0.0
 11
178.872254
 21
367.591812
 31
0.0
  0
LINE
  8
LC-002-003-----0
  6
CONTINUOUS
  5
BE
 10
180.516884
 20
367.551774
 30
0.0
 11
180.0
 21
371.477896
 31
0.0
  0
LINE
  8
LC-002-003-----0
  6
CONTINUOUS
  5
BF
 10
180.0
 20
371.477896
 30
0.0
 11
179.483116
 21
367.551774
 31
0.0
  0
TEXT
  8
LC-002-003-----0
  6
CONTINUOUS
 62
     6
  5
C0
 10
169.568001
 20
275.839655
 30
0.0
 40
18.0
  1
70-165
 50
90.0
 51
15.0
  7
LC-TXTSTYLE-150-400-0-0-D0
 72
     1
 11
169.568001
 21
317.615246
 31
0.0
  0
ENDBLK
  8
0
  5
C1
  0
BLOCK
  8
0
  5
C3
  2
BLK2
 70
    64
 10
0.0
 20
0.0
 30
0.0
  3
BLK2
  0
ENDBLK
  8
0
  5
C4
  0
BLOCK
  8
0
  5
C6
  2
*D11
 70
    65
 10
0.0
 20
0.0
 30
0.0
  3
*D11
  0
LINE
  8
LC-003-003-MTH-0
  6
CONTINUOUS
  5
C7
 10
451.70116
 20
212.888134
 30
0.0
 11
421.2
 21
212.888134
 31
0.0
  0
LINE
  8
LC-003-003-MTH-0
  6
CONTINUOUS
  5
C8
 10
451.70116
 20
307.888134
 30
0.0
 11
421.2
 21
307.888134
 31
0.0
  0
LINE
  8
LC-002-003-----0
  6
CONTINUOUS
  5
C9
 10
434.349471
 20
195.042126
 30
0.0
 11
432.0
 21
212.888134
 31
0.0
  0
LINE
  8
LC-002-003-----0
  6
CONTINUOUS
  5
CA
 10
432.0
 20
212.888134
 30
0.0
 11
429.650529
 21
195.042126
 31
0.0
  0
LINE
  8
LC-002-003-----0
  6
CONTINUOUS
  5
CB
 10
429.650529
 20
195.042126
 30
0.0
 11
434.349471
 21
195.042126
 31
0.0
  0
LINE
  8
LC-002-003-----0
  6
CONTINUOUS
  5
CC
 10
433.738609
 20
195.002088
 30
0.0
 11
432.0
 21
208.208134
 31
0.0
  0
LINE
  8
LC-002-003-----0
  6
CONTINUOUS
  5
CD
 10
432.0
 20
208.208134
 30
0.0
 11
430.261391
 21
195.002088
 31
0.0
  0
LINE
  8
LC-002-003-----0
  6
CONTINUOUS
  5
CE
 10
433.127746
 20
194.96205
 30
0.0
 11
432.0
 21
203.528134
 31
0.0
  0
LINE
  8
LC-002-003-----0
  6
CONTINUOUS
  5
CF
 10
432.0
 20
203.528134
 30
0.0
 11
430.872254
 21
194.96205
 31
0.0
  0
LINE
  8
LC-002-003-----0
  6
CONTINUOUS
  5
D0
 10
432.516884
 20
194.922012
 30
0.0
 11
432.0
 21
198.848134
 31
0.0
  0
LINE
  8
LC-002-003-----0
  6
CONTINUOUS
  5
D1
 10
432.0
 20
198.848134
 30
0.0
 11
431.483116
 21
194.922012
 31
0.0
  0
LINE
  8
LC-002-003-----0
  6
CONTINUOUS
  5
D2
 10
429.650529
 20
325.734141
 30
0.0
 11
432.0
 21
307.888134
 31
0.0
  0
LINE
  8
LC-002-003-----0
  6
CONTINUOUS
  5
D3
 10
432.0
 20
307.888134
 30
0.0
 11
434.349471
 21
325.734141
 31
0.0
  0
LINE
  8
LC-002-003-----0
  6
CONTINUOUS
  5
D4
 10
434.349471
 20
325.734141
 30
0.0
 11
429.650529
 21
325.734141
 31
0.0
  0
LINE
  8
LC-002-003-----0
  6
CONTINUOUS
  5
D5
 10
430.261391
 20
325.774179
 30
0.0
 11
432.0
 21
312.568134
 31
0.0
  0
LINE
  8
LC-002-003-----0
  6
CONTINUOUS
  5
D6
 10
432.0
 20
312.568134
 30
0.0
 11
433.738609
 21
325.774179
 31
0.0
  0
LINE
  8
LC-002-003-----0
  6
CONTINUOUS
  5
D7
 10
430.872254
 20
325.814217
 30
0.0
 11
432.0
 21
317.248134
 31
0.0
  0
LINE
  8
LC-002-003-----0
  6
CONTINUOUS
  5
D8
 10
432.0
 20
317.248134
 30
0.0
 11
433.127746
 21
325.814217
 31
0.0
  0
LINE
  8
LC-002-003-----0
  6
CONTINUOUS
  5
D9
 10
431.483116
 20
325.854255
 30
0.0
 11
432.0
 21
321.928134
 31
0.0
  0
LINE
  8
LC-002-003-----0
  6
CONTINUOUS
  5
DA
 10
432.0
 20
321.928134
 30
0.0
 11
432.516884
 21
325.854255
 31
0.0
  0
LINE
  8
LC-004-003-MTG-0
  6
CONTINUOUS
  5
DB
 10
432.0
 20
187.688134
 30
0.0
 11
432.0
 21
382.090653
 31
0.0
  0
TEXT
  8
LC-002-003-----0
  6
CONTINUOUS
 62
     6
  5
DC
 10
421.568001
 20
335.163379
 30
0.0
 40
18.0
  1
Ø95
 50
90.0
 51
15.0
  7
LC-TXTSTYLE-150-400-0-0-D0
  0
ENDBLK
  8
0
  5
DD
  0
BLOCK
  8
0
  5
DF
  2
*X12
 70
    65
 10
182.552558
 20
390.864833
 30
0.0
  3
*X12
  0
LINE
  8
LC-005-005-----0
  6
CONTINUOUS
  5
E0
 10
198.541988
 20
390.875033
 30
0.0
 11
199.052558
 21
391.385603
 31
0.0
  0
LINE
  8
LC-005-005-----0
  6
CONTINUOUS
  5
E1
 10
196.625375
 20
391.786846
 30
0.0
 11
197.120481
 21
392.281953
 31
0.0
  0
LINE
  8
LC-005-005-----0
  6
CONTINUOUS
  5
E2
 10
195.791738
 20
393.781637
 30
0.0
 11
196.457282
 21
394.447181
 31
0.0
  0
LINE
  8
LC-005-005-----0
  6
CONTINUOUS
  5
E3
 10
195.650919
 20
396.469245
 30
0.0
 11
196.316463
 21
397.134789
 31
0.0
  0
LINE
  8
LC-005-005-----0
  6
CONTINUOUS
  5
E4
 10
195.5101
 20
399.156853
 30
0.0
 11
196.175644
 21
399.822397
 31
0.0
  0
LINE
  8
LC-005-005-----0
  6
CONTINUOUS
  5
E5
 10
195.369281
 20
401.844461
 30
0.0
 11
196.034825
 21
402.510005
 31
0.0
  0
LINE
  8
LC-005-005-----0
  6
CONTINUOUS
  5
E6
 10
195.228461
 20
404.532069
 30
0.0
 11
195.894005
 21
405.197613
 31
0.0
  0
LINE
  8
LC-005-005-----0
  6
CONTINUOUS
  5
E7
 10
195.087642
 20
407.219676
 30
0.0
 11
195.753186
 21
407.88522
 31
0.0
  0
LINE
  8
LC-005-005-----0
  6
CONTINUOUS
  5
E8
 10
194.946823
 20
409.907284
 30
0.0
 11
195.612367
 21
410.572828
 31
0.0
  0
LINE
  8
LC-005-005-----0
  6
CONTINUOUS
  5
E9
 10
194.768752
 20
412.55764
 30
0.0
 11
195.337985
 21
413.126873
 31
0.0
  0
LINE
  8
LC-005-005-----0
  6
CONTINUOUS
  5
EA
 10
193.7237
 20
414.341015
 30
0.0
 11
194.219491
 21
414.836807
 31
0.0
  0
LINE
  8
LC-005-005-----0
  6
CONTINUOUS
  5
EB
 10
191.714589
 20
415.160332
 30
0.0
 11
192.338954
 21
415.784697
 31
0.0
  0
LINE
  8
LC-005-005-----0
  6
CONTINUOUS
  5
EC
 10
188.890663
 20
415.164833
 30
0.0
 11
189.590663
 21
415.864833
 31
0.0
  0
LINE
  8
LC-005-005-----0
  6
CONTINUOUS
  5
ED
 10
186.062236
 20
415.164833
 30
0.0
 11
186.762236
 21
415.864833
 31
0.0
  0
LINE
  8
LC-005-005-----0
  6
CONTINUOUS
  5
EE
 10
183.233809
 20
415.164833
 30
0.0
 11
183.933809
 21
415.864833
 31
0.0
  0
ENDBLK
  8
0
  5
EF
  0
BLOCK
  8
0
  5
F1
  2
*X13
 70
    65
 10
220.578794
 20
385.564833
 30
0.0
  3
*X13
  0
LINE
  8
LC-005-005-----0
  6
CONTINUOUS
  5
F2
 10
223.984348
 20
390.861548
 30
0.0
 11
224.687633
 21
391.564833
 31
0.0
  0
ENDBLK
  8
0
  5
F3
  0
BLOCK
  8
0
  5
F5
  2
*X14
 70
    65
 10
233.315956
 20
390.864833
 30
0.0
  3
*X14
  0
LINE
  8
LC-005-005-----0
  6
CONTINUOUS
  5
F6
 10
238.634793
 20
394.198285
 30
0.0
 11
239.373937
 21
394.937429
 31
0.0
  0
LINE
  8
LC-005-005-----0
  6
CONTINUOUS
  5
F7
 10
238.791185
 20
397.183104
 30
0.0
 11
239.530329
 21
397.922248
 31
0.0
  0
LINE
  8
LC-005-005-----0
  6
CONTINUOUS
  5
F8
 10
238.947577
 20
400.167923
 30
0.0
 11
239.686721
 21
400.907067
 31
0.0
  0
LINE
  8
LC-005-005-----0
  6
CONTINUOUS
  5
F9
 10
239.103969
 20
403.152742
 30
0.0
 11
239.843113
 21
403.891886
 31
0.0
  0
LINE
  8
LC-005-005-----0
  6
CONTINUOUS
  5
FA
 10
251.11606
 20
415.164833
 30
0.0
 11
251.81606
 21
415.864833
 31
0.0
  0
LINE
  8
LC-005-005-----0
  6
CONTINUOUS
  5
FB
 10
239.260361
 20
406.137561
 30
0.0
 11
239.999505
 21
406.876705
 31
0.0
  0
LINE
  8
LC-005-005-----0
  6
CONTINUOUS
  5
FC
 10
248.287633
 20
415.164833
 30
0.0
 11
248.987633
 21
415.864833
 31
0.0
  0
LINE
  8
LC-005-005-----0
  6
CONTINUOUS
  5
FD
 10
239.416753
 20
409.12238
 30
0.0
 11
240.155896
 21
409.861524
 31
0.0
  0
LINE
  8
LC-005-005-----0
  6
CONTINUOUS
  5
FE
 10
245.459206
 20
415.164833
 30
0.0
 11
246.159206
 21
415.864833
 31
0.0
  0
LINE
  8
LC-005-005-----0
  6
CONTINUOUS
  5
FF
 10
239.573145
 20
412.107199
 30
0.0
 11
240.463207
 21
412.997262
 31
0.0
  0
LINE
  8
LC-005-005-----0
  6
CONTINUOUS
  5
100
 10
242.430392
 20
414.964447
 30
0.0
 11
243.32362
 21
415.857675
 31
0.0
  0
ENDBLK
  8
0
  5
101
  0
BLOCK
  8
0
  5
103
  2
*X15
 70
    65
 10
207.997887
 20
385.564833
 30
0.0
  3
*X15
  0
LINE
  8
LC-005-005-----0
  6
CONTINUOUS
  5
104
 10
213.702351
 20
389.064833
 30
0.0
 11
214.145082
 21
389.507564
 31
0.0
  0
LINE
  8
LC-005-005-----0
  6
CONTINUOUS
  5
105
 10
212.282047
 20
390.472956
 30
0.0
 11
212.784159
 21
390.975068
 31
0.0
  0
LINE
  8
LC-005-005-----0
  6
CONTINUOUS
  5
106
 10
209.845497
 20
390.864833
 30
0.0
 11
210.545497
 21
391.564833
 31
0.0
  0
ENDBLK
  8
0
  5
107
  0
BLOCK
  8
0
  5
109
  2
*X16
 70
    65
 10
239.444868
 20
375.853407
 30
0.0
  3
*X16
  0
LINE
  8
LC-005-005-----0
  6
DASHED
  5
10B
 10
253.452558
 20
397.08568
 30
0.0
 11
250.707507
 21
399.830732
 31
0.0
  0
LINE
  8
LC-005-005-----0
  6
DASHED
  5
10C
 10
253.452558
 20
395.671467
 30
0.0
 11
249.439386
 21
399.684639
 31
0.0
  0
LINE
  8
LC-005-005-----0
  6
CONTINUOUS
  5
10D
 10
252.942199
 20
393.353399
 30
0.0
 11
247.213111
 21
399.082487
 31
0.0
  0
LINE
  8
LC-005-005-----0
  6
CONTINUOUS
  5
10E
 10
251.527986
 20
393.353399
 30
0.0
 11
246.223482
 21
398.657903
 31
0.0
  0
LINE
  8
LC-005-005-----0
  6
DASHED
  5
10F
 10
248.747292
 20
393.305665
 30
0.0
 11
244.44946
 21
397.603497
 31
0.0
  0
LINE
  8
LC-005-005-----0
  6
DASHED
  5
110
 10
248.074943
 20
392.5638
 30
0.0
 11
243.656333
 21
396.982411
 31
0.0
  0
LINE
  8
LC-005-005-----0
  6
CONTINUOUS
  5
111
 10
247.53361
 20
390.276706
 30
0.0
 11
242.248286
 21
395.562031
 31
0.0
  0
LINE
  8
LC-005-005-----0
  6
CONTINUOUS
  5
112
 10
246.242705
 20
390.153399
 30
0.0
 11
242.652558
 21
393.743545
 31
0.0
  0
LINE
  8
LC-005-005-----0
  6
CONTINUOUS
  5
113
 10
242.542705
 20
393.853399
 30
0.0
 11
241.633498
 21
394.762605
 31
0.0
  0
LINE
  8
LC-005-005-----0
  6
DASHED
  5
114
 10
243.374981
 20
390.192695
 30
0.0
 11
242.691855
 21
390.875821
 31
0.0
  0
ENDBLK
  8
0
  5
115
  0
BLOCK
  8
0
  5
117
  2
*X17
 70
    65
 10
171.660249
 20
375.853407
 30
0.0
  3
*X17
  0
LINE
  8
LC-005-005-----0
  6
CONTINUOUS
  5
118
 10
193.262687
 20
395.050155
 30
0.0
 11
190.856997
 21
397.455845
 31
0.0
  0
LINE
  8
LC-005-005-----0
  6
DASHED
  5
119
 10
192.452558
 20
393.031856
 30
0.0
 11
185.828526
 21
399.655889
 31
0.0
  0
LINE
  8
LC-005-005-----0
  6
DASHED
  5
11A
 10
192.452558
 20
391.617643
 30
0.0
 11
184.230344
 21
399.839858
 31
0.0
  0
LINE
  8
LC-005-005-----0
  6
CONTINUOUS
  5
11B
 10
191.088376
 20
390.153399
 30
0.0
 11
181.652558
 21
399.589216
 31
0.0
  0
LINE
  8
LC-005-005-----0
  6
CONTINUOUS
  5
11C
 10
189.674162
 20
390.153399
 30
0.0
 11
181.652558
 21
398.175002
 31
0.0
  0
LINE
  8
LC-005-005-----0
  6
DASHED
  5
11D
 10
183.645735
 20
393.353399
 30
0.0
 11
181.652558
 21
395.346575
 31
0.0
  0
LINE
  8
LC-005-005-----0
  6
DASHED
  5
11E
 10
182.231521
 20
393.353399
 30
0.0
 11
181.652558
 21
393.932361
 31
0.0
  0
ENDBLK
  8
0
  5
11F
  0
BLOCK
  8
0
  5
121
  2
*D18
 70
    65
 10
0.0
 20
0.0
 30
0.0
  3
*D18
  0
LINE
  8
LC-003-003-MTH-0
  6
CONTINUOUS
  5
122
 10
193.052558
 20
424.885801
 30
0.0
 11
169.2
 21
424.885801
 31
0.0
  0
LINE
  8
LC-003-003-MTH-0
  6
CONTINUOUS
  5
123
 10
198.552558
 20
524.885801
 30
0.0
 11
169.2
 21
524.885801
 31
0.0
  0
LINE
  8
LC-004-003-MTG-0
  6
CONTINUOUS
  5
124
 10
180.0
 20
424.885801
 30
0.0
 11
180.0
 21
524.885801
 31
0.0
  0
LINE
  8
LC-002-003-----0
  6
CONTINUOUS
  5
125
 10
177.650529
 20
442.731808
 30
0.0
 11
180.0
 21
424.885801
 31
0.0
  0
LINE
  8
LC-002-003-----0
  6
CONTINUOUS
  5
126
 10
180.0
 20
424.885801
 30
0.0
 11
182.349471
 21
442.731808
 31
0.0
  0
LINE
  8
LC-002-003-----0
  6
CONTINUOUS
  5
127
 10
182.349471
 20
442.731808
 30
0.0
 11
177.650529
 21
442.731808
 31
0.0
  0
LINE
  8
LC-002-003-----0
  6
CONTINUOUS
  5
128
 10
178.261391
 20
442.771846
 30
0.0
 11
180.0
 21
429.565801
 31
0.0
  0
LINE
  8
LC-002-003-----0
  6
CONTINUOUS
  5
129
 10
180.0
 20
429.565801
 30
0.0
 11
181.738609
 21
442.771846
 31
0.0
  0
LINE
  8
LC-002-003-----0
  6
CONTINUOUS
  5
12A
 10
178.872254
 20
442.811884
 30
0.0
 11
180.0
 21
434.245801
 31
0.0
  0
LINE
  8
LC-002-003-----0
  6
CONTINUOUS
  5
12B
 10
180.0
 20
434.245801
 30
0.0
 11
181.127746
 21
442.811884
 31
0.0
  0
LINE
  8
LC-002-003-----0
  6
CONTINUOUS
  5
12C
 10
179.483116
 20
442.851922
 30
0.0
 11
180.0
 21
438.925801
 31
0.0
  0
LINE
  8
LC-002-003-----0
  6
CONTINUOUS
  5
12D
 10
180.0
 20
438.925801
 30
0.0
 11
180.516884
 21
442.851922
 31
0.0
  0
LINE
  8
LC-002-003-----0
  6
CONTINUOUS
  5
12E
 10
182.349471
 20
507.039793
 30
0.0
 11
180.0
 21
524.885801
 31
0.0
  0
LINE
  8
LC-002-003-----0
  6
CONTINUOUS
  5
12F
 10
180.0
 20
524.885801
 30
0.0
 11
177.650529
 21
507.039793
 31
0.0
  0
LINE
  8
LC-002-003-----0
  6
CONTINUOUS
  5
130
 10
177.650529
 20
507.039793
 30
0.0
 11
182.349471
 21
507.039793
 31
0.0
  0
LINE
  8
LC-002-003-----0
  6
CONTINUOUS
  5
131
 10
181.738609
 20
506.999755
 30
0.0
 11
180.0
 21
520.205801
 31
0.0
  0
LINE
  8
LC-002-003-----0
  6
CONTINUOUS
  5
132
 10
180.0
 20
520.205801
 30
0.0
 11
178.261391
 21
506.999755
 31
0.0
  0
LINE
  8
LC-002-003-----0
  6
CONTINUOUS
  5
133
 10
181.127746
 20
506.959717
 30
0.0
 11
180.0
 21
515.525801
 31
0.0
  0
LINE
  8
LC-002-003-----0
  6
CONTINUOUS
  5
134
 10
180.0
 20
515.525801
 30
0.0
 11
178.872254
 21
506.959717
 31
0.0
  0
LINE
  8
LC-002-003-----0
  6
CONTINUOUS
  5
135
 10
180.516884
 20
506.919679
 30
0.0
 11
180.0
 21
510.845801
 31
0.0
  0
LINE
  8
LC-002-003-----0
  6
CONTINUOUS
  5
136
 10
180.0
 20
510.845801
 30
0.0
 11
179.483116
 21
506.919679
 31
0.0
  0
TEXT
  8
LC-002-003-----0
  6
CONTINUOUS
 62
     6
  5
137
 10
169.568001
 20
448.241246
 30
0.0
 40
18.0
  1
100
 50
90.0
 51
15.0
  7
LC-TXTSTYLE-150-400-0-0-D0
  0
ENDBLK
  8
0
  5
138
  0
BLOCK
  8
0
  5
13A
  2
*X19
 70
    65
 10
190.052558
 20
406.885801
 30
0.0
  3
*X19
  0
LINE
  8
LC-005-005-----0
  6
CONTINUOUS
  5
13B
 10
197.582194
 20
406.885801
 30
0.0
 11
200.063071
 21
409.366678
 31
0.0
  0
LINE
  8
LC-005-005-----0
  6
CONTINUOUS
  5
13C
 10
196.541716
 20
408.67375
 30
0.0
 11
200.075107
 21
412.207141
 31
0.0
  0
LINE
  8
LC-005-005-----0
  6
CONTINUOUS
  5
13D
 10
197.552558
 20
412.51302
 30
0.0
 11
200.087142
 21
415.047604
 31
0.0
  0
LINE
  8
LC-005-005-----0
  6
CONTINUOUS
  5
13E
 10
196.096912
 20
413.885801
 30
0.0
 11
200.099178
 21
417.888067
 31
0.0
  0
LINE
  8
LC-005-005-----0
  6
CONTINUOUS
  5
13F
 10
196.052558
 20
416.669874
 30
0.0
 11
200.111214
 21
420.72853
 31
0.0
  0
LINE
  8
LC-005-005-----0
  6
CONTINUOUS
  5
140
 10
196.052558
 20
419.498301
 30
0.0
 11
200.12325
 21
423.568993
 31
0.0
  0
LINE
  8
LC-005-005-----0
  6
CONTINUOUS
  5
141
 10
195.611631
 20
421.885801
 30
0.0
 11
200.135286
 21
426.409456
 31
0.0
  0
LINE
  8
LC-005-005-----0
  6
CONTINUOUS
  5
142
 10
192.783204
 20
421.885801
 30
0.0
 11
195.783204
 21
424.885801
 31
0.0
  0
LINE
  8
LC-005-005-----0
  6
CONTINUOUS
  5
143
 10
198.552558
 20
427.655156
 30
0.0
 11
200.147322
 21
429.249919
 31
0.0
  0
LINE
  8
LC-005-005-----0
  6
CONTINUOUS
  5
144
 10
190.054207
 20
421.985231
 30
0.0
 11
192.953128
 21
424.884153
 31
0.0
  0
LINE
  8
LC-005-005-----0
  6
CONTINUOUS
  5
145
 10
198.552558
 20
430.483583
 30
0.0
 11
200.159358
 21
432.090382
 31
0.0
  0
LINE
  8
LC-005-005-----0
  6
CONTINUOUS
  5
146
 10
198.552558
 20
433.31201
 30
0.0
 11
200.171393
 21
434.930845
 31
0.0
  0
LINE
  8
LC-005-005-----0
  6
CONTINUOUS
  5
147
 10
198.552558
 20
436.140437
 30
0.0
 11
200.183429
 21
437.771308
 31
0.0
  0
LINE
  8
LC-005-005-----0
  6
CONTINUOUS
  5
148
 10
198.552558
 20
438.968864
 30
0.0
 11
200.195465
 21
440.611771
 31
0.0
  0
LINE
  8
LC-005-005-----0
  6
CONTINUOUS
  5
149
 10
198.552558
 20
441.797291
 30
0.0
 11
200.207501
 21
443.452234
 31
0.0
  0
LINE
  8
LC-005-005-----0
  6
CONTINUOUS
  5
14A
 10
198.552558
 20
444.625718
 30
0.0
 11
200.219537
 21
446.292697
 31
0.0
  0
LINE
  8
LC-005-005-----0
  6
CONTINUOUS
  5
14B
 10
198.552558
 20
447.454145
 30
0.0
 11
200.231573
 21
449.13316
 31
0.0
  0
LINE
  8
LC-005-005-----0
  6
CONTINUOUS
  5
14C
 10
198.552558
 20
450.282573
 30
0.0
 11
200.243609
 21
451.973623
 31
0.0
  0
LINE
  8
LC-005-005-----0
  6
CONTINUOUS
  5
14D
 10
198.552558
 20
453.111
 30
0.0
 11
200.255644
 21
454.814086
 31
0.0
  0
LINE
  8
LC-005-005-----0
  6
CONTINUOUS
  5
14E
 10
198.552558
 20
455.939427
 30
0.0
 11
200.26768
 21
457.654549
 31
0.0
  0
LINE
  8
LC-005-005-----0
  6
CONTINUOUS
  5
14F
 10
198.552558
 20
458.767854
 30
0.0
 11
200.279716
 21
460.495012
 31
0.0
  0
LINE
  8
LC-005-005-----0
  6
CONTINUOUS
  5
150
 10
198.552558
 20
461.596281
 30
0.0
 11
200.291752
 21
463.335475
 31
0.0
  0
LINE
  8
LC-005-005-----0
  6
CONTINUOUS
  5
151
 10
198.552558
 20
464.424708
 30
0.0
 11
200.303788
 21
466.175938
 31
0.0
  0
LINE
  8
LC-005-005-----0
  6
CONTINUOUS
  5
152
 10
198.552558
 20
467.253135
 30
0.0
 11
200.315824
 21
469.016401
 31
0.0
  0
LINE
  8
LC-005-005-----0
  6
CONTINUOUS
  5
153
 10
198.552558
 20
470.081562
 30
0.0
 11
200.32786
 21
471.856864
 31
0.0
  0
LINE
  8
LC-005-005-----0
  6
CONTINUOUS
  5
154
 10
198.552558
 20
472.90999
 30
0.0
 11
200.339895
 21
474.697327
 31
0.0
  0
LINE
  8
LC-005-005-----0
  6
CONTINUOUS
  5
155
 10
198.552558
 20
475.738417
 30
0.0
 11
200.351931
 21
477.53779
 31
0.0
  0
LINE
  8
LC-005-005-----0
  6
CONTINUOUS
  5
156
 10
198.552558
 20
478.566844
 30
0.0
 11
200.363967
 21
480.378253
 31
0.0
  0
LINE
  8
LC-005-005-----0
  6
CONTINUOUS
  5
157
 10
198.552558
 20
481.395271
 30
0.0
 11
200.376003
 21
483.218716
 31
0.0
  0
LINE
  8
LC-005-005-----0
  6
CONTINUOUS
  5
158
 10
198.552558
 20
484.223698
 30
0.0
 11
200.388039
 21
486.059179
 31
0.0
  0
LINE
  8
LC-005-005-----0
  6
CONTINUOUS
  5
159
 10
198.552558
 20
487.052125
 30
0.0
 11
200.400075
 21
488.899641
 31
0.0
  0
LINE
  8
LC-005-005-----0
  6
CONTINUOUS
  5
15A
 10
198.552558
 20
489.880552
 30
0.0
 11
200.412111
 21
491.740104
 31
0.0
  0
LINE
  8
LC-005-005-----0
  6
CONTINUOUS
  5
15B
 10
198.552558
 20
492.708979
 30
0.0
 11
200.424146
 21
494.580567
 31
0.0
  0
LINE
  8
LC-005-005-----0
  6
CONTINUOUS
  5
15C
 10
198.552558
 20
495.537407
 30
0.0
 11
200.436182
 21
497.42103
 31
0.0
  0
LINE
  8
LC-005-005-----0
  6
CONTINUOUS
  5
15D
 10
198.552558
 20
498.365834
 30
0.0
 11
200.448218
 21
500.261493
 31
0.0
  0
LINE
  8
LC-005-005-----0
  6
CONTINUOUS
  5
15E
 10
198.552558
 20
501.194261
 30
0.0
 11
200.460254
 21
503.101956
 31
0.0
  0
LINE
  8
LC-005-005-----0
  6
CONTINUOUS
  5
15F
 10
198.552558
 20
504.022688
 30
0.0
 11
200.47229
 21
505.942419
 31
0.0
  0
LINE
  8
LC-005-005-----0
  6
CONTINUOUS
  5
160
 10
198.552558
 20
506.851115
 30
0.0
 11
200.484326
 21
508.782882
 31
0.0
  0
LINE
  8
LC-005-005-----0
  6
CONTINUOUS
  5
161
 10
198.552558
 20
509.679542
 30
0.0
 11
200.496362
 21
511.623345
 31
0.0
  0
LINE
  8
LC-005-005-----0
  6
CONTINUOUS
  5
162
 10
198.552558
 20
512.507969
 30
0.0
 11
200.508398
 21
514.463808
 31
0.0
  0
LINE
  8
LC-005-005-----0
  6
CONTINUOUS
  5
163
 10
198.552558
 20
515.336396
 30
0.0
 11
200.520433
 21
517.304271
 31
0.0
  0
LINE
  8
LC-005-005-----0
  6
CONTINUOUS
  5
164
 10
198.552558
 20
518.164824
 30
0.0
 11
200.532469
 21
520.144734
 31
0.0
  0
LINE
  8
LC-005-005-----0
  6
CONTINUOUS
  5
165
 10
198.552558
 20
520.993251
 30
0.0
 11
200.544505
 21
522.985197
 31
0.0
  0
LINE
  8
LC-005-005-----0
  6
CONTINUOUS
  5
166
 10
198.552558
 20
523.821678
 30
0.0
 11
199.616681
 21
524.885801
 31
0.0
  0
ENDBLK
  8
0
  5
167
  0
BLOCK
  8
0
  5
169
  2
*X20
 70
    65
 10
234.552558
 20
406.885801
 30
0.0
  3
*X20
  0
LINE
  8
LC-005-005-----0
  6
CONTINUOUS
  5
16A
 10
237.180173
 20
406.885801
 30
0.0
 11
238.401513
 21
408.10714
 31
0.0
  0
LINE
  8
LC-005-005-----0
  6
CONTINUOUS
  5
16B
 10
235.049601
 20
407.583656
 30
0.0
 11
237.851746
 21
410.385801
 31
0.0
  0
LINE
  8
LC-005-005-----0
  6
CONTINUOUS
  5
16C
 10
235.037667
 20
410.400149
 30
0.0
 11
237.552558
 21
412.91504
 31
0.0
  0
LINE
  8
LC-005-005-----0
  6
CONTINUOUS
  5
16D
 10
238.523319
 20
413.885801
 30
0.0
 11
239.052558
 21
414.41504
 31
0.0
  0
LINE
  8
LC-005-005-----0
  6
CONTINUOUS
  5
16E
 10
235.025733
 20
413.216642
 30
0.0
 11
239.052558
 21
417.243467
 31
0.0
  0
LINE
  8
LC-005-005-----0
  6
CONTINUOUS
  5
16F
 10
243.694892
 20
421.885801
 30
0.0
 11
244.829661
 21
423.02057
 31
0.0
  0
LINE
  8
LC-005-005-----0
  6
CONTINUOUS
  5
170
 10
235.013799
 20
416.033135
 30
0.0
 11
239.052558
 21
420.071894
 31
0.0
  0
LINE
  8
LC-005-005-----0
  6
CONTINUOUS
  5
171
 10
240.866465
 20
421.885801
 30
0.0
 11
243.496248
 21
424.515584
 31
0.0
  0
LINE
  8
LC-005-005-----0
  6
CONTINUOUS
  5
172
 10
235.001864
 20
418.849627
 30
0.0
 11
241.038038
 21
424.885801
 31
0.0
  0
LINE
  8
LC-005-005-----0
  6
CONTINUOUS
  5
173
 10
234.98993
 20
421.66612
 30
0.0
 11
238.209611
 21
424.885801
 31
0.0
  0
LINE
  8
LC-005-005-----0
  6
CONTINUOUS
  5
174
 10
234.977996
 20
424.482613
 30
0.0
 11
236.552558
 21
426.057176
 31
0.0
  0
LINE
  8
LC-005-005-----0
  6
CONTINUOUS
  5
175
 10
234.966061
 20
427.299106
 30
0.0
 11
236.552558
 21
428.885603
 31
0.0
  0
LINE
  8
LC-005-005-----0
  6
CONTINUOUS
  5
176
 10
234.954127
 20
430.115599
 30
0.0
 11
236.552558
 21
431.71403
 31
0.0
  0
LINE
  8
LC-005-005-----0
  6
CONTINUOUS
  5
177
 10
234.942193
 20
432.932092
 30
0.0
 11
236.552558
 21
434.542457
 31
0.0
  0
LINE
  8
LC-005-005-----0
  6
CONTINUOUS
  5
178
 10
234.930259
 20
435.748584
 30
0.0
 11
236.552558
 21
437.370884
 31
0.0
  0
LINE
  8
LC-005-005-----0
  6
CONTINUOUS
  5
179
 10
234.918324
 20
438.565077
 30
0.0
 11
236.552558
 21
440.199311
 31
0.0
  0
LINE
  8
LC-005-005-----0
  6
CONTINUOUS
  5
17A
 10
234.90639
 20
441.38157
 30
0.0
 11
236.552558
 21
443.027739
 31
0.0
  0
LINE
  8
LC-005-005-----0
  6
CONTINUOUS
  5
17B
 10
234.894456
 20
444.198063
 30
0.0
 11
236.552558
 21
445.856166
 31
0.0
  0
LINE
  8
LC-005-005-----0
  6
CONTINUOUS
  5
17C
 10
234.882521
 20
447.014556
 30
0.0
 11
236.552558
 21
448.684593
 31
0.0
  0
LINE
  8
LC-005-005-----0
  6
CONTINUOUS
  5
17D
 10
234.870587
 20
449.831049
 30
0.0
 11
236.552558
 21
451.51302
 31
0.0
  0
LINE
  8
LC-005-005-----0
  6
CONTINUOUS
  5
17E
 10
234.858653
 20
452.647541
 30
0.0
 11
236.552558
 21
454.341447
 31
0.0
  0
LINE
  8
LC-005-005-----0
  6
CONTINUOUS
  5
17F
 10
234.846719
 20
455.464034
 30
0.0
 11
236.552558
 21
457.169874
 31
0.0
  0
LINE
  8
LC-005-005-----0
  6
CONTINUOUS
  5
180
 10
234.834784
 20
458.280527
 30
0.0
 11
236.552558
 21
459.998301
 31
0.0
  0
LINE
  8
LC-005-005-----0
  6
CONTINUOUS
  5
181
 10
234.82285
 20
461.09702
 30
0.0
 11
236.552558
 21
462.826728
 31
0.0
  0
LINE
  8
LC-005-005-----0
  6
CONTINUOUS
  5
182
 10
234.810916
 20
463.913513
 30
0.0
 11
236.552558
 21
465.655156
 31
0.0
  0
LINE
  8
LC-005-005-----0
  6
CONTINUOUS
  5
183
 10
234.798981
 20
466.730006
 30
0.0
 11
236.552558
 21
468.483583
 31
0.0
  0
LINE
  8
LC-005-005-----0
  6
CONTINUOUS
  5
184
 10
234.787047
 20
469.546498
 30
0.0
 11
236.552558
 21
471.31201
 31
0.0
  0
LINE
  8
LC-005-005-----0
  6
CONTINUOUS
  5
185
 10
234.775113
 20
472.362991
 30
0.0
 11
236.552558
 21
474.140437
 31
0.0
  0
LINE
  8
LC-005-005-----0
  6
CONTINUOUS
  5
186
 10
234.763178
 20
475.179484
 30
0.0
 11
236.552558
 21
476.968864
 31
0.0
  0
LINE
  8
LC-005-005-----0
  6
CONTINUOUS
  5
187
 10
234.751244
 20
477.995977
 30
0.0
 11
236.552558
 21
479.797291
 31
0.0
  0
LINE
  8
LC-005-005-----0
  6
CONTINUOUS
  5
188
 10
234.73931
 20
480.81247
 30
0.0
 11
236.552558
 21
482.625718
 31
0.0
  0
LINE
  8
LC-005-005-----0
  6
CONTINUOUS
  5
189
 10
234.727376
 20
483.628963
 30
0.0
 11
236.552558
 21
485.454145
 31
0.0
  0
LINE
  8
LC-005-005-----0
  6
CONTINUOUS
  5
18A
 10
234.715441
 20
486.445455
 30
0.0
 11
236.552558
 21
488.282573
 31
0.0
  0
LINE
  8
LC-005-005-----0
  6
CONTINUOUS
  5
18B
 10
234.703507
 20
489.261948
 30
0.0
 11
236.552558
 21
491.111
 31
0.0
  0
LINE
  8
LC-005-005-----0
  6
CONTINUOUS
  5
18C
 10
234.691573
 20
492.078441
 30
0.0
 11
236.552558
 21
493.939427
 31
0.0
  0
LINE
  8
LC-005-005-----0
  6
CONTINUOUS
  5
18D
 10
234.679638
 20
494.894934
 30
0.0
 11
236.552558
 21
496.767854
 31
0.0
  0
LINE
  8
LC-005-005-----0
  6
CONTINUOUS
  5
18E
 10
234.667704
 20
497.711427
 30
0.0
 11
236.552558
 21
499.596281
 31
0.0
  0
LINE
  8
LC-005-005-----0
  6
CONTINUOUS
  5
18F
 10
234.65577
 20
500.52792
 30
0.0
 11
236.552558
 21
502.424708
 31
0.0
  0
LINE
  8
LC-005-005-----0
  6
CONTINUOUS
  5
190
 10
234.643836
 20
503.344412
 30
0.0
 11
236.552558
 21
505.253135
 31
0.0
  0
LINE
  8
LC-005-005-----0
  6
CONTINUOUS
  5
191
 10
234.631901
 20
506.160905
 30
0.0
 11
236.552558
 21
508.081562
 31
0.0
  0
LINE
  8
LC-005-005-----0
  6
CONTINUOUS
  5
192
 10
234.619967
 20
508.977398
 30
0.0
 11
236.552558
 21
510.90999
 31
0.0
  0
LINE
  8
LC-005-005-----0
  6
CONTINUOUS
  5
193
 10
234.608033
 20
511.793891
 30
0.0
 11
236.552558
 21
513.738417
 31
0.0
  0
LINE
  8
LC-005-005-----0
  6
CONTINUOUS
  5
194
 10
234.596098
 20
514.610384
 30
0.0
 11
236.552558
 21
516.566844
 31
0.0
  0
LINE
  8
LC-005-005-----0
  6
CONTINUOUS
  5
195
 10
234.584164
 20
517.426877
 30
0.0
 11
236.552558
 21
519.395271
 31
0.0
  0
LINE
  8
LC-005-005-----0
  6
CONTINUOUS
  5
196
 10
234.57223
 20
520.243369
 30
0.0
 11
236.552558
 21
522.223698
 31
0.0
  0
LINE
  8
LC-005-005-----0
  6
CONTINUOUS
  5
197
 10
234.560296
 20
523.059862
 30
0.0
 11
236.386234
 21
524.885801
 31
0.0
  0
ENDBLK
  8
0
  5
198
  0
BLOCK
  8
0
  5
19A
  2
*X21
 70
    65
 10
195.552558
 20
410.685801
 30
0.0
  3
*X21
  0
LINE
  8
LC-005-005-----0
  6
CONTINUOUS
  5
19B
 10
197.422396
 20
410.685801
 30
0.0
 11
197.552558
 21
410.815964
 31
0.0
  0
LINE
  8
LC-005-005-----0
  6
CONTINUOUS
  5
19C
 10
197.139553
 20
410.685801
 30
0.0
 11
197.552558
 21
411.098806
 31
0.0
  0
LINE
  8
LC-005-005-----0
  6
CONTINUOUS
  5
19D
 10
196.85671
 20
410.685801
 30
0.0
 11
197.552558
 21
411.381649
 31
0.0
  0
LINE
  8
LC-005-005-----0
  6
CONTINUOUS
  5
19E
 10
196.573867
 20
410.685801
 30
0.0
 11
197.552558
 21
411.664492
 31
0.0
  0
LINE
  8
LC-005-005-----0
  6
CONTINUOUS
  5
19F
 10
196.291025
 20
410.685801
 30
0.0
 11
197.552558
 21
411.947335
 31
0.0
  0
LINE
  8
LC-005-005-----0
  6
CONTINUOUS
  5
1A0
 10
196.008182
 20
410.685801
 30
0.0
 11
197.552558
 21
412.230177
 31
0.0
  0
LINE
  8
LC-005-005-----0
  6
CONTINUOUS
  5
1A1
 10
195.802558
 20
410.76302
 30
0.0
 11
197.552558
 21
412.51302
 31
0.0
  0
LINE
  8
LC-005-005-----0
  6
CONTINUOUS
  5
1A2
 10
195.802558
 20
411.045863
 30
0.0
 11
197.552558
 21
412.795863
 31
0.0
  0
LINE
  8
LC-005-005-----0
  6
CONTINUOUS
  5
1A3
 10
195.802558
 20
411.328705
 30
0.0
 11
197.552558
 21
413.078705
 31
0.0
  0
LINE
  8
LC-005-005-----0
  6
CONTINUOUS
  5
1A4
 10
195.802558
 20
411.611548
 30
0.0
 11
197.552558
 21
413.361548
 31
0.0
  0
LINE
  8
LC-005-005-----0
  6
CONTINUOUS
  5
1A5
 10
195.802558
 20
411.894391
 30
0.0
 11
197.552558
 21
413.644391
 31
0.0
  0
LINE
  8
LC-005-005-----0
  6
CONTINUOUS
  5
1A6
 10
195.802558
 20
412.177234
 30
0.0
 11
197.511126
 21
413.885801
 31
0.0
  0
LINE
  8
LC-005-005-----0
  6
CONTINUOUS
  5
1A7
 10
195.802558
 20
412.460076
 30
0.0
 11
197.228283
 21
413.885801
 31
0.0
  0
LINE
  8
LC-005-005-----0
  6
CONTINUOUS
  5
1A8
 10
195.802558
 20
412.742919
 30
0.0
 11
196.94544
 21
413.885801
 31
0.0
  0
LINE
  8
LC-005-005-----0
  6
CONTINUOUS
  5
1A9
 10
195.802558
 20
413.025762
 30
0.0
 11
196.662598
 21
413.885801
 31
0.0
  0
LINE
  8
LC-005-005-----0
  6
CONTINUOUS
  5
1AA
 10
195.802558
 20
413.308604
 30
0.0
 11
196.379755
 21
413.885801
 31
0.0
  0
LINE
  8
LC-005-005-----0
  6
CONTINUOUS
  5
1AB
 10
195.596912
 20
413.385801
 30
0.0
 11
196.096912
 21
413.885801
 31
0.0
  0
LINE
  8
LC-005-005-----0
  6
CONTINUOUS
  5
1AC
 10
195.552558
 20
413.62429
 30
0.0
 11
195.814069
 21
413.885801
 31
0.0
  0
ENDBLK
  8
0
  5
1AD
  0
BLOCK
  8
0
  5
1AF
  2
*X22
 70
    65
 10
237.552558
 20
410.685801
 30
0.0
  3
*X22
  0
LINE
  8
LC-005-005-----0
  6
CONTINUOUS
  5
1B0
 10
239.283117
 20
410.685801
 30
0.0
 11
239.302558
 21
410.705242
 31
0.0
  0
LINE
  8
LC-005-005-----0
  6
CONTINUOUS
  5
1B1
 10
239.000274
 20
410.685801
 30
0.0
 11
239.302558
 21
410.988085
 31
0.0
  0
LINE
  8
LC-005-005-----0
  6
CONTINUOUS
  5
1B2
 10
238.717432
 20
410.685801
 30
0.0
 11
239.302558
 21
411.270928
 31
0.0
  0
LINE
  8
LC-005-005-----0
  6
CONTINUOUS
  5
1B3
 10
238.434589
 20
410.685801
 30
0.0
 11
239.302558
 21
411.55377
 31
0.0
  0
LINE
  8
LC-005-005-----0
  6
CONTINUOUS
  5
1B4
 10
238.151746
 20
410.685801
 30
0.0
 11
239.302558
 21
411.836613
 31
0.0
  0
LINE
  8
LC-005-005-----0
  6
CONTINUOUS
  5
1B5
 10
237.868903
 20
410.685801
 30
0.0
 11
239.302558
 21
412.119456
 31
0.0
  0
LINE
  8
LC-005-005-----0
  6
CONTINUOUS
  5
1B6
 10
237.586061
 20
410.685801
 30
0.0
 11
239.302558
 21
412.402299
 31
0.0
  0
LINE
  8
LC-005-005-----0
  6
CONTINUOUS
  5
1B7
 10
237.552558
 20
410.935141
 30
0.0
 11
239.302558
 21
412.685141
 31
0.0
  0
LINE
  8
LC-005-005-----0
  6
CONTINUOUS
  5
1B8
 10
237.552558
 20
411.217984
 30
0.0
 11
239.302558
 21
412.967984
 31
0.0
  0
LINE
  8
LC-005-005-----0
  6
CONTINUOUS
  5
1B9
 10
237.552558
 20
411.500827
 30
0.0
 11
239.302558
 21
413.250827
 31
0.0
  0
LINE
  8
LC-005-005-----0
  6
CONTINUOUS
  5
1BA
 10
239.437533
 20
413.385801
 30
0.0
 11
239.552558
 21
413.500827
 31
0.0
  0
LINE
  8
LC-005-005-----0
  6
CONTINUOUS
  5
1BB
 10
237.552558
 20
411.783669
 30
0.0
 11
239.552558
 21
413.783669
 31
0.0
  0
LINE
  8
LC-005-005-----0
  6
CONTINUOUS
  5
1BC
 10
237.552558
 20
412.066512
 30
0.0
 11
239.371847
 21
413.885801
 31
0.0
  0
LINE
  8
LC-005-005-----0
  6
CONTINUOUS
  5
1BD
 10
237.552558
 20
412.349355
 30
0.0
 11
239.089005
 21
413.885801
 31
0.0
  0
LINE
  8
LC-005-005-----0
  6
CONTINUOUS
  5
1BE
 10
237.552558
 20
412.632198
 30
0.0
 11
238.806162
 21
413.885801
 31
0.0
  0
LINE
  8
LC-005-005-----0
  6
CONTINUOUS
  5
1BF
 10
237.552558
 20
412.91504
 30
0.0
 11
238.523319
 21
413.885801
 31
0.0
  0
LINE
  8
LC-005-005-----0
  6
CONTINUOUS
  5
1C0
 10
237.552558
 20
413.197883
 30
0.0
 11
238.240476
 21
413.885801
 31
0.0
  0
LINE
  8
LC-005-005-----0
  6
CONTINUOUS
  5
1C1
 10
237.552558
 20
413.480726
 30
0.0
 11
237.957634
 21
413.885801
 31
0.0
  0
LINE
  8
LC-005-005-----0
  6
CONTINUOUS
  5
1C2
 10
237.552558
 20
413.763568
 30
0.0
 11
237.674791
 21
413.885801
 31
0.0
  0
ENDBLK
  8
0
  5
1C3
  0
BLOCK
  8
0
  5
1C5
  2
BLK3
 70
    64
 10
0.0
 20
0.0
 30
0.0
  3
BLK3
  0
ENDBLK
  8
0
  5
1C6
  0
BLOCK
  8
0
  5
1C8
  2
BLK4
 70
    64
 10
0.0
 20
0.0
 30
0.0
  3
BLK4
  0
ENDBLK
  8
0
  5
1C9
  0
BLOCK
  8
0
  5
1CB
  2
BLK5
 70
    64
 10
0.0
 20
0.0
 30
0.0
  3
BLK5
  0
ENDBLK
  8
0
  5
1CC
  0
BLOCK
  8
0
  5
1CE
  2
BLK6
 70
    64
 10
0.0
 20
0.0
 30
0.0
  3
BLK6
  0
ENDBLK
  8
0
  5
1CF
  0
BLOCK
  8
0
  5
1D1
  2
BLK7
 70
    64
 10
0.0
 20
0.0
 30
0.0
  3
BLK7
  0
ENDBLK
  8
0
  5
1D2
  0
BLOCK
  8
0
  5
1D4
  2
*D28
 70
    65
 10
0.0
 20
0.0
 30
0.0
  3
*D28
  0
LINE
  8
LC-003-003-MTH-0
  6
CONTINUOUS
  5
1D5
 10
200.552558
 20
316.515989
 30
0.0
 11
200.552558
 21
346.8
 31
0.0
  0
LINE
  8
LC-003-003-MTH-0
  6
CONTINUOUS
  5
1D6
 10
234.552558
 20
316.515989
 30
0.0
 11
234.552558
 21
346.8
 31
0.0
  0
LINE
  8
LC-002-003-----0
  6
CONTINUOUS
  5
1D7
 10
182.706551
 20
333.650529
 30
0.0
 11
200.552558
 21
336.0
 31
0.0
  0
LINE
  8
LC-002-003-----0
  6
CONTINUOUS
  5
1D8
 10
200.552558
 20
336.0
 30
0.0
 11
182.706551
 21
338.349471
 31
0.0
  0
LINE
  8
LC-002-003-----0
  6
CONTINUOUS
  5
1D9
 10
182.706551
 20
338.349471
 30
0.0
 11
182.706551
 21
333.650529
 31
0.0
  0
LINE
  8
LC-002-003-----0
  6
CONTINUOUS
  5
1DA
 10
182.666513
 20
334.261391
 30
0.0
 11
195.872558
 21
336.0
 31
0.0
  0
LINE
  8
LC-002-003-----0
  6
CONTINUOUS
  5
1DB
 10
195.872558
 20
336.0
 30
0.0
 11
182.666513
 21
337.738609
 31
0.0
  0
LINE
  8
LC-002-003-----0
  6
CONTINUOUS
  5
1DC
 10
182.626475
 20
334.872254
 30
0.0
 11
191.192558
 21
336.0
 31
0.0
  0
LINE
  8
LC-002-003-----0
  6
CONTINUOUS
  5
1DD
 10
191.192558
 20
336.0
 30
0.0
 11
182.626475
 21
337.127746
 31
0.0
  0
LINE
  8
LC-002-003-----0
  6
CONTINUOUS
  5
1DE
 10
182.586437
 20
335.483116
 30
0.0
 11
186.512558
 21
336.0
 31
0.0
  0
LINE
  8
LC-002-003-----0
  6
CONTINUOUS
  5
1DF
 10
186.512558
 20
336.0
 30
0.0
 11
182.586437
 21
336.516884
 31
0.0
  0
LINE
  8
LC-002-003-----0
  6
CONTINUOUS
  5
1E0
 10
252.398566
 20
338.349471
 30
0.0
 11
234.552558
 21
336.0
 31
0.0
  0
LINE
  8
LC-002-003-----0
  6
CONTINUOUS
  5
1E1
 10
234.552558
 20
336.0
 30
0.0
 11
252.398566
 21
333.650529
 31
0.0
  0
LINE
  8
LC-002-003-----0
  6
CONTINUOUS
  5
1E2
 10
252.398566
 20
333.650529
 30
0.0
 11
252.398566
 21
338.349471
 31
0.0
  0
LINE
  8
LC-002-003-----0
  6
CONTINUOUS
  5
1E3
 10
252.438604
 20
337.738609
 30
0.0
 11
239.232558
 21
336.0
 31
0.0
  0
LINE
  8
LC-002-003-----0
  6
CONTINUOUS
  5
1E4
 10
239.232558
 20
336.0
 30
0.0
 11
252.438604
 21
334.261391
 31
0.0
  0
LINE
  8
LC-002-003-----0
  6
CONTINUOUS
  5
1E5
 10
252.478642
 20
337.127746
 30
0.0
 11
243.912558
 21
336.0
 31
0.0
  0
LINE
  8
LC-002-003-----0
  6
CONTINUOUS
  5
1E6
 10
243.912558
 20
336.0
 30
0.0
 11
252.478642
 21
334.872254
 31
0.0
  0
LINE
  8
LC-002-003-----0
  6
CONTINUOUS
  5
1E7
 10
252.51868
 20
336.516884
 30
0.0
 11
248.592558
 21
336.0
 31
0.0
  0
LINE
  8
LC-002-003-----0
  6
CONTINUOUS
  5
1E8
 10
248.592558
 20
336.0
 30
0.0
 11
252.51868
 21
335.483116
 31
0.0
  0
LINE
  8
LC-004-003-MTG-0
  6
CONTINUOUS
  5
1E9
 10
175.352558
 20
336.0
 30
0.0
 11
324.955078
 21
336.0
 31
0.0
  0
TEXT
  8
LC-002-003-----0
  6
CONTINUOUS
 62
     6
  5
1EA
 10
261.827804
 20
346.431999
 30
0.0
 40
18.0
  1
DN32
 51
15.0
  7
LC-TXTSTYLE-150-400-0-0-D0
  0
ENDBLK
  8
0
  5
1EB
  0
ENDSEC
  0
SECTION
  2
ENTITIES
  0
VIEWPORT
  8
LC-000
  5
2E1
 67
     1
 68
     1
 10
420.0
 20
297.0
 30
0.0
 40
840.0
 41
594.0
 69
     1
1001
ACAD
1000
MVIEW
1002
{
1070
    16
1010
0.0
1020
0.0
1030
0.0
1010
0.0
1020
0.0
1030
1.0
1040
0.0
1040
594.0
1040
420.0
1040
297.0
1040
50.0
1040
0.0
1040
0.0
1070
     0
1070
   100
1070
     1
1070
     1
1070
     0
1070
     0
1070
     0
1070
     0
1040
0.0
1040
0.0
1040
0.0
1040
1.0
1040
1.0
1040
0.0
1040
0.0
1070
     0
1002
{
1002
}
1002
}
  0
VIEWPORT
  8
0
  5
2E2
 67
     1
 68
     1
 10
0.0
 20
0.0
 30
0.0
 40
0.0
 41
0.0
 69
     1
1001
ACAD
1000
MVIEW
1002
{
1070
    16
1010
0.0
1020
0.0
1030
0.0
1010
0.0
1020
0.0
1030
1.0
1040
0.0
1040
594.0
1040
0.0
1040
0.0
1040
50.0
1040
0.0
1040
0.0
1070
     0
1070
   100
1070
     0
1070
     1
1070
     0
1070
     0
1070
     0
1070
     0
1040
0.0
1040
0.0
1040
0.0
1040
0.5
1040
0.5
1040
0.5
1040
0.5
1070
     0
1002
{
1002
}
1002
}
  0
DIMENSION
  8
0
  5
1EC
  2
*D0
 10
546.0
 20
260.515989
 30
0.0
 11
546.0
 21
260.515989
 31
0.0
  1
DN32
 13
517.552558
 23
276.515989
 33
0.0
 14
517.552558
 24
244.515989
 34
0.0
 50
90.0
  3
LC-DIM-L-0090-02-02
  0
DIMENSION
  8
0
  5
1ED
  2
*D1
 10
367.552558
 20
168.0
 30
0.0
 11
367.552558
 21
168.0
 31
0.0
 13
217.552558
 23
290.515862
 33
0.0
 14
517.552558
 24
244.515989
 34
0.0
  3
LC-DIM-L-0090-02-02
  0
INSERT
  8
0
  5
1EE
  2
*X2
 10
443.442346
 20
144.025599
 30
0.0
  0
INSERT
  8
0
  5
1EF
  2
*X3
 10
196.052558
 20
308.515989
 30
0.0
  0
INSERT
  8
0
  5
1F0
  2
*X4
 10
196.052558
 20
379.517896
 30
0.0
  0
INSERT
  8
0
  5
1F1
  2
*X5
 10
196.052558
 20
379.517896
 30
0.0
  0
INSERT
  8
0
  5
1F2
  2
*X6
 10
196.052558
 20
308.515989
 30
0.0
  0
INSERT
  8
0
  5
1F4
  2
BLK1
 10
0.0
 20
0.0
 30
0.0
  0
INSERT
  8
0
  5
1F5
  2
*X8
 10
443.442346
 20
176.750668
 30
0.0
  0
DIMENSION
  8
0
  5
1F6
  2
*D9
 10
180.0
 20
314.82
 30
0.0
 11
180.0
 21
314.82
 31
0.0
  1
70-165
 13
196.052558
 23
385.517896
 33
0.0
 14
247.552501
 24
260.515862
 34
0.0
 50
90.0
  3
LC-DIM-L-0090-02-02
  0
INSERT
  8
0
  5
1F7
  2
BLK2
 10
0.0
 20
0.0
 30
0.0
  0
DIMENSION
  8
0
  5
1F8
  2
*D11
 10
432.0
 20
320.166
 30
0.0
 11
432.0
 21
320.166
 31
0.0
  1
%%c<>
 13
451.70116
 23
307.888134
 33
0.0
 14
451.70116
 24
212.888134
 34
0.0
 50
90.0
  3
LC-DIM-L-0090-02-02
  0
INSERT
  8
0
  5
1F9
  2
*X12
 10
182.552558
 20
390.864833
 30
0.0
  0
INSERT
  8
0
  5
1FA
  2
*X13
 10
220.578794
 20
385.564833
 30
0.0
  0
INSERT
  8
0
  5
1FB
  2
*X14
 10
233.315956
 20
390.864833
 30
0.0
  0
INSERT
  8
0
  5
1FC
  2
*X15
 10
207.997887
 20
385.564833
 30
0.0
  0
INSERT
  8
0
  5
1FD
  2
*X16
 10
239.444868
 20
375.853407
 30
0.0
  0
INSERT
  8
0
  5
1FE
  2
*X17
 10
171.660249
 20
375.853407
 30
0.0
  0
DIMENSION
  8
0
  5
1FF
  2
*D18
 10
180.0
 20
438.966
 30
0.0
 11
180.0
 21
438.966
 31
0.0
 13
198.552558
 23
524.885801
 33
0.0
 14
193.052558
 24
424.885801
 34
0.0
 50
90.0
  3
LC-DIM-L-0090-02-02
  0
INSERT
  8
0
  5
200
  2
*X19
 10
190.052558
 20
406.885801
 30
0.0
  0
INSERT
  8
0
  5
201
  2
*X20
 10
234.552558
 20
406.885801
 30
0.0
  0
INSERT
  8
0
  5
202
  2
*X21
 10
195.552558
 20
410.685801
 30
0.0
  0
INSERT
  8
0
  5
203
  2
*X22
 10
237.552558
 20
410.685801
 30
0.0
  0
INSERT
  8
0
  5
204
  2
BLK3
 10
0.0
 20
0.0
 30
0.0
  0
INSERT
  8
0
  5
206
  2
BLK4
 10
0.0
 20
0.0
 30
0.0
  0
INSERT
  8
0
  5
207
  2
BLK5
 10
0.0
 20
0.0
 30
0.0
  0
INSERT
  8
0
  5
208
  2
BLK6
 10
0.0
 20
0.0
 30
0.0
  0
INSERT
  8
0
  5
209
  2
BLK7
 10
0.0
 20
0.0
 30
0.0
  0
DIMENSION
  8
0
  5
20A
  2
*D28
 10
217.552558
 20
336.0
 30
0.0
 11
217.552558
 21
336.0
 31
0.0
  1
DN32
 13
200.552558
 23
316.515989
 33
0.0
 14
234.552558
 24
316.515989
 34
0.0
  3
LC-DIM-L-0090-02-02
  0
LINE
  8
LC-001-002-----0
  6
CONTINUOUS
  5
20C
 10
517.552558
 20
276.515989
 30
0.0
 11
517.552558
 21
244.515989
 31
0.0
  0
LINE
  8
LC-001-002-----0
  6
DASHDOT
 62
     2
  5
20E
 10
247.552501
 20
260.452011
 30
0.0
 11
517.552558
 21
260.452011
 31
0.0
  0
ARC
  8
LC-001-002-----0
  6
CONTINUOUS
  5
20F
 10
543.442346
 20
244.025599
 30
0.0
 40
98.5
 50
180.661659
 51
195.65621
  0
ARC
  8
LC-006-002-RND-0
  6
CONTINUOUS
  5
211
 10
443.942355
 20
243.888134
 30
0.0
 40
0.5
 50
90.0
 51
180.003985
  0
LINE
  8
LC-001-002-----0
  6
CONTINUOUS
  5
212
 10
447.441661
 20
244.388134
 30
0.0
 11
447.441661
 21
242.888134
 31
0.0
  0
ARC
  8
LC-001-002-----0
  6
CONTINUOUS
  5
213
 10
452.897786
 20
218.767597
 30
0.0
 40
4.5
 50
197.106393
 51
254.578552
  0
LINE
  8
LC-001-002-----0
  6
CONTINUOUS
  5
214
 10
447.441661
 20
244.388134
 30
0.0
 11
443.942355
 21
244.388134
 31
0.0
  0
LINE
  8
LC-001-002-----0
  6
CONTINUOUS
  5
215
 10
447.441661
 20
242.888134
 30
0.0
 11
444.944027
 21
242.888134
 31
0.0
  0
ARC
  8
LC-001-002-----0
  6
CONTINUOUS
  5
216
 10
452.897786
 20
218.767597
 30
0.0
 40
6.0
 50
196.512636
 51
258.495918
  0
LINE
  8
LC-001-002-----0
  6
CONTINUOUS
  5
217
 10
201.552558
 20
290.515989
 30
0.0
 11
233.552558
 21
290.515989
 31
0.0
  0
LINE
  8
LC-001-002-----0
  6
CONTINUOUS
  5
218
 10
234.552558
 20
306.515989
 30
0.0
 11
200.552558
 21
306.515989
 31
0.0
  0
LINE
  8
LC-001-002-----0
  6
CONTINUOUS
  5
219
 10
200.552558
 20
375.517896
 30
0.0
 11
200.552558
 21
316.515989
 31
0.0
  0
LINE
  8
LC-001-002-----0
  6
CONTINUOUS
  5
21A
 10
200.552558
 20
292.515989
 30
0.0
 11
234.552558
 21
292.515989
 31
0.0
  0
LINE
  8
LC-001-002-----0
  6
CONTINUOUS
  5
21B
 10
234.552558
 20
292.515989
 30
0.0
 11
234.552558
 21
306.515989
 31
0.0
  0
LINE
  8
LC-001-002-----0
  6
CONTINUOUS
  5
21C
 10
200.552558
 20
292.515989
 30
0.0
 11
201.552558
 21
290.515989
 31
0.0
  0
LINE
  8
LC-001-002-----0
  6
CONTINUOUS
  5
21D
 10
234.552558
 20
292.515989
 30
0.0
 11
233.552558
 21
290.515989
 31
0.0
  0
LINE
  8
LC-001-002-----0
  6
CONTINUOUS
  5
21E
 10
200.552558
 20
306.515989
 30
0.0
 11
196.052558
 21
306.515989
 31
0.0
  0
LINE
  8
LC-001-002-----0
  6
CONTINUOUS
  5
21F
 10
239.052558
 20
306.515989
 30
0.0
 11
234.552558
 21
306.515989
 31
0.0
  0
LINE
  8
LC-001-002-----0
  6
CONTINUOUS
  5
220
 10
196.052558
 20
308.515989
 30
0.0
 11
239.052558
 21
308.515989
 31
0.0
  0
LINE
  8
LC-001-002-----0
  6
CONTINUOUS
  5
221
 10
196.052558
 20
312.515989
 30
0.0
 11
239.052558
 21
312.515989
 31
0.0
  0
LINE
  8
LC-001-002-----0
  6
CONTINUOUS
  5
222
 10
196.052558
 20
306.515989
 30
0.0
 11
196.052558
 21
312.515989
 31
0.0
  0
LINE
  8
LC-001-002-----0
  6
CONTINUOUS
  5
223
 10
239.052558
 20
312.515989
 30
0.0
 11
239.052558
 21
306.515989
 31
0.0
  0
LINE
  8
LC-001-002-----0
  6
CONTINUOUS
  5
224
 10
200.052558
 20
316.515989
 30
0.0
 11
235.052558
 21
316.515989
 31
0.0
  0
LINE
  8
LC-001-002-----0
  6
CONTINUOUS
  5
225
 10
214.595247
 20
388.984793
 30
0.0
 11
214.595247
 21
385.517896
 31
0.0
  0
LINE
  8
LC-001-002-----0
  6
CONTINUOUS
  5
226
 10
196.052558
 20
383.517896
 30
0.0
 11
239.052558
 21
383.517896
 31
0.0
  0
LINE
  8
LC-001-002-----0
  6
CONTINUOUS
  5
227
 10
196.052558
 20
379.517896
 30
0.0
 11
239.052558
 21
379.517896
 31
0.0
  0
LINE
  8
LC-001-002-----0
  6
CONTINUOUS
  5
228
 10
196.052558
 20
379.517896
 30
0.0
 11
196.052558
 21
385.517896
 31
0.0
  0
LINE
  8
LC-001-002-----0
  6
CONTINUOUS
  5
229
 10
239.052558
 20
385.517896
 30
0.0
 11
239.052558
 21
379.517896
 31
0.0
  0
LINE
  8
LC-001-002-----0
  6
CONTINUOUS
  5
22A
 10
200.552558
 20
306.515989
 30
0.0
 11
200.552558
 21
292.515989
 31
0.0
  0
LINE
  8
LC-001-002-----0
  6
CONTINUOUS
  5
22B
 10
234.552558
 20
316.515989
 30
0.0
 11
234.552558
 21
375.517896
 31
0.0
  0
ARC
  8
LC-001-002-----0
  6
CONTINUOUS
  5
22C
 10
247.552558
 20
290.515989
 30
0.0
 40
14.0
 50
180.0
 51
270.000058
  0
LINE
  8
LC-001-002-----0
  6
CONTINUOUS
  5
22D
 10
247.552558
 20
276.515989
 30
0.0
 11
517.552558
 21
276.515989
 31
0.0
  0
ARC
  8
LC-001-002-----0
  6
CONTINUOUS
  5
22E
 10
247.552558
 20
290.515989
 30
0.0
 40
46.0
 50
180.0
 51
270.000058
  0
LINE
  8
LC-001-002-----0
  6
CONTINUOUS
  5
22F
 10
247.552558
 20
244.515989
 30
0.0
 11
517.552558
 21
244.515989
 31
0.0
  0
LINE
  8
LC-001-002-----0
  6
CONTINUOUS
  5
230
 10
200.052558
 20
375.517896
 30
0.0
 11
235.052558
 21
375.517896
 31
0.0
  0
ARC
  8
LC-006-002-RND-0
  6
DASHDOT
 62
     2
  5
231
 10
247.552558
 20
290.515862
 30
0.0
 40
30.0
 50
180.0
 51
269.99989
  0
ARC
  8
LC-006-002-RND-0
  6
CONTINUOUS
  5
232
 10
235.052558
 20
312.515989
 30
0.0
 40
4.0
 50
0.0
 51
90.0
  0
ARC
  8
LC-006-002-RND-0
  6
CONTINUOUS
  5
233
 10
200.052558
 20
312.515989
 30
0.0
 40
4.0
 50
90.0
 51
180.0
  0
ARC
  8
LC-006-002-RND-0
  6
CONTINUOUS
  5
234
 10
200.052558
 20
379.517896
 30
0.0
 40
4.0
 50
180.0
 51
270.0
  0
ARC
  8
LC-006-002-RND-0
  6
CONTINUOUS
  5
235
 10
235.052558
 20
379.517896
 30
0.0
 40
4.0
 50
270.0
 51
0.0
  0
LINE
  8
LC-001-002-----0
  6
DASHDOT
 62
     2
  5
236
 10
217.552558
 20
385.517896
 30
0.0
 11
217.552558
 21
290.515862
 31
0.0
  0
ARC
  8
LC-001-002-----0
  6
CONTINUOUS
  5
237
 10
543.442346
 20
244.025599
 30
0.0
 40
100.0
 50
180.079158
 51
195.642467
  0
LINE
  8
LC-001-002-----0
  6
CONTINUOUS
  5
238
 10
451.70116
 20
244.452111
 30
0.0
 11
451.70116
 21
212.888134
 31
0.0
  0
ARC
  8
LC-001-002-----0
  6
CONTINUOUS
  5
239
 10
543.442346
 20
276.750668
 30
0.0
 40
98.5
 50
164.34379
 51
179.338341
  0
ARC
  8
LC-006-002-RND-0
  6
CONTINUOUS
  5
23A
 10
443.942355
 20
276.888134
 30
0.0
 40
0.5
 50
179.996015
 51
270.0
  0
LINE
  8
LC-001-002-----0
  6
CONTINUOUS
  5
23B
 10
447.441661
 20
276.388134
 30
0.0
 11
447.441661
 21
277.888134
 31
0.0
  0
ARC
  8
LC-001-002-----0
  6
CONTINUOUS
  5
23C
 10
452.897786
 20
302.008671
 30
0.0
 40
4.5
 50
105.421448
 51
162.893607
  0
LINE
  8
LC-001-002-----0
  6
CONTINUOUS
  5
23D
 10
447.441661
 20
276.388134
 30
0.0
 11
443.942355
 21
276.388134
 31
0.0
  0
LINE
  8
LC-001-002-----0
  6
CONTINUOUS
  5
23E
 10
447.441661
 20
277.888134
 30
0.0
 11
444.944027
 21
277.888134
 31
0.0
  0
ARC
  8
LC-001-002-----0
  6
CONTINUOUS
  5
23F
 10
452.897786
 20
302.008671
 30
0.0
 40
6.0
 50
101.504082
 51
163.487364
  0
ARC
  8
LC-001-002-----0
  6
CONTINUOUS
  5
240
 10
543.442346
 20
276.750668
 30
0.0
 40
100.0
 50
164.357533
 51
179.920842
  0
LINE
  8
LC-001-002-----0
  6
CONTINUOUS
  5
241
 10
451.70116
 20
276.452111
 30
0.0
 11
451.70116
 21
307.888134
 31
0.0
  0
LINE
  8
LC-001-002-----0
  6
CONTINUOUS
  5
242
 10
199.936734
 20
385.517896
 30
0.0
 11
199.704622
 21
388.318586
 31
0.0
  0
LINE
  8
LC-001-002-----0
  6
CONTINUOUS
  5
243
 10
195.552558
 20
413.885801
 30
0.0
 11
195.552558
 21
413.385801
 31
0.0
  0
LINE
  8
LC-001-002-----0
  6
DASHDOT
 62
     2
  5
244
 10
217.552558
 20
415.164833
 30
0.0
 11
217.552558
 21
385.517896
 31
0.0
  0
LINE
  8
LC-001-002-----0
  6
CONTINUOUS
  5
245
 10
182.552558
 20
415.164833
 30
0.0
 11
191.542296
 21
415.164833
 31
0.0
  0
LINE
  8
LC-001-002-----0
  6
CONTINUOUS
  5
246
 10
182.552558
 20
415.864833
 30
0.0
 11
196.052558
 21
415.864833
 31
0.0
  0
LINE
  8
LC-001-002-----0
  6
CONTINUOUS
  5
247
 10
182.552558
 20
415.864833
 30
0.0
 11
182.552558
 21
415.164833
 31
0.0
  0
ARC
  8
LC-006-002-RND-0
  6
CONTINUOUS
  5
248
 10
191.542296
 20
411.864833
 30
0.0
 40
3.3
 50
5.257809
 51
90.0
  0
ARC
  8
LC-006-002-RND-0
  6
CONTINUOUS
  5
249
 10
191.542296
 20
411.864833
 30
0.0
 40
4.0
 50
5.257809
 51
90.0
  0
LINE
  8
LC-001-002-----0
  6
CONTINUOUS
  5
24A
 10
194.828411
 20
412.167236
 30
0.0
 11
195.801784
 21
393.589921
 31
0.0
  0
LINE
  8
LC-001-002-----0
  6
CONTINUOUS
  5
24B
 10
195.525466
 20
412.231382
 30
0.0
 11
196.498838
 21
393.654067
 31
0.0
  0
ARC
  8
LC-006-002-RND-0
  6
CONTINUOUS
  5
24C
 10
198.789161
 20
393.864833
 30
0.0
 40
3.0
 50
185.257809
 51
270.0
  0
ARC
  8
LC-006-002-RND-0
  6
CONTINUOUS
  5
24D
 10
198.789161
 20
393.864833
 30
0.0
 40
2.3
 50
185.257809
 51
270.0
  0
LINE
  8
LC-001-002-----0
  6
CONTINUOUS
  5
24E
 10
199.052558
 20
391.564833
 30
0.0
 11
199.052558
 21
390.864833
 31
0.0
  0
LINE
  8
LC-001-002-----0
  6
CONTINUOUS
  5
24F
 10
198.789161
 20
391.564833
 30
0.0
 11
210.997887
 21
391.564833
 31
0.0
  0
LINE
  8
LC-001-002-----0
  6
CONTINUOUS
  5
250
 10
198.789161
 20
390.864833
 30
0.0
 11
210.997887
 21
390.864833
 31
0.0
  0
LINE
  8
LC-001-002-----0
  6
CONTINUOUS
  5
251
 10
209.302558
 20
391.564833
 30
0.0
 11
209.302558
 21
390.864833
 31
0.0
  0
ARC
  8
LC-006-002-RND-0
  6
CONTINUOUS
  5
252
 10
210.997887
 20
388.564833
 30
0.0
 40
3.0
 50
40.732107
 51
90.0
  0
ARC
  8
LC-006-002-RND-0
  6
CONTINUOUS
  5
253
 10
210.997887
 20
388.564833
 30
0.0
 40
2.3
 50
40.732107
 51
90.0
  0
LINE
  8
LC-001-002-----0
  6
CONTINUOUS
  5
254
 10
213.602558
 20
389.064833
 30
0.0
 11
219.682012
 21
389.064833
 31
0.0
  0
LINE
  8
LC-001-002-----0
  6
CONTINUOUS
  5
255
 10
212.544715
 20
392.829539
 30
0.0
 11
214.552558
 21
389.064833
 31
0.0
  0
ARC
  8
LC-006-002-RND-0
  6
CONTINUOUS
  5
256
 10
212.985892
 20
393.064833
 30
0.0
 40
0.5
 50
90.0
 51
208.072487
  0
LINE
  8
LC-001-002-----0
  6
CONTINUOUS
  5
257
 10
212.985892
 20
393.564833
 30
0.0
 11
217.052558
 21
393.564833
 31
0.0
  0
LINE
  8
LC-001-002-----0
  6
CONTINUOUS
  5
258
 10
217.052558
 20
393.564833
 30
0.0
 11
217.052558
 21
392.564833
 31
0.0
  0
LINE
  8
LC-001-002-----0
  6
CONTINUOUS
  5
259
 10
217.052558
 20
392.564833
 30
0.0
 11
218.052558
 21
392.564833
 31
0.0
  0
LINE
  8
LC-001-002-----0
  6
CONTINUOUS
  5
25A
 10
218.052558
 20
393.564833
 30
0.0
 11
218.052558
 21
392.564833
 31
0.0
  0
LINE
  8
LC-001-002-----0
  6
CONTINUOUS
  5
25B
 10
218.052558
 20
393.564833
 30
0.0
 11
222.119225
 21
393.564833
 31
0.0
  0
ARC
  8
LC-006-002-RND-0
  6
CONTINUOUS
  5
25C
 10
222.119225
 20
393.064833
 30
0.0
 40
0.5
 50
331.927513
 51
90.0
  0
LINE
  8
LC-001-002-----0
  6
CONTINUOUS
  5
25D
 10
222.560402
 20
392.829539
 30
0.0
 11
220.552558
 21
389.064833
 31
0.0
  0
LINE
  8
LC-001-002-----0
  6
CONTINUOUS
  5
25E
 10
213.602558
 20
389.064833
 30
0.0
 11
219.682012
 21
389.064833
 31
0.0
  0
LINE
  8
LC-001-002-----0
  6
CONTINUOUS
  5
25F
 10
219.682012
 20
389.064833
 30
0.0
 11
221.502558
 21
389.064833
 31
0.0
  0
LINE
  8
LC-001-002-----0
  6
CONTINUOUS
  5
260
 10
221.502558
 20
389.064833
 30
0.0
 11
222.364361
 21
390.065636
 31
0.0
  0
LINE
  8
LC-001-002-----0
  6
CONTINUOUS
  5
261
 10
213.602558
 20
389.064833
 30
0.0
 11
212.740756
 21
390.065636
 31
0.0
  0
ARC
  8
LC-006-002-RND-0
  6
CONTINUOUS
  5
262
 10
224.107229
 20
388.564833
 30
0.0
 40
2.3
 50
90.0
 51
139.267893
  0
LINE
  8
LC-001-002-----0
  6
CONTINUOUS
  5
263
 10
224.107229
 20
391.564833
 30
0.0
 11
236.315956
 21
391.564833
 31
0.0
  0
LINE
  8
LC-001-002-----0
  6
CONTINUOUS
  5
264
 10
224.107229
 20
390.864833
 30
0.0
 11
236.315956
 21
390.864833
 31
0.0
  0
LINE
  8
LC-001-002-----0
  6
CONTINUOUS
  5
265
 10
225.802558
 20
391.564833
 30
0.0
 11
225.802558
 21
390.864833
 31
0.0
  0
LINE
  8
LC-001-002-----0
  6
CONTINUOUS
  5
266
 10
236.052558
 20
391.564833
 30
0.0
 11
236.052558
 21
390.864833
 31
0.0
  0
ARC
  8
LC-006-002-RND-0
  6
CONTINUOUS
  5
267
 10
236.315956
 20
393.864833
 30
0.0
 40
3.0
 50
270.0
 51
354.742191
  0
ARC
  8
LC-006-002-RND-0
  6
CONTINUOUS
  5
268
 10
236.315956
 20
393.864833
 30
0.0
 40
2.3
 50
270.0
 51
354.742191
  0
LINE
  8
LC-001-002-----0
  6
CONTINUOUS
  5
269
 10
238.606279
 20
393.654067
 30
0.0
 11
239.579651
 21
412.231382
 31
0.0
  0
LINE
  8
LC-001-002-----0
  6
CONTINUOUS
  5
26A
 10
239.303333
 20
393.589921
 30
0.0
 11
240.276706
 21
412.167236
 31
0.0
  0
ARC
  8
LC-006-002-RND-0
  6
CONTINUOUS
  5
26B
 10
243.562821
 20
411.864833
 30
0.0
 40
4.0
 50
90.0
 51
174.742191
  0
ARC
  8
LC-006-002-RND-0
  6
CONTINUOUS
  5
26C
 10
243.562821
 20
411.864833
 30
0.0
 40
3.3
 50
90.0
 51
174.742191
  0
LINE
  8
LC-001-002-----0
  6
CONTINUOUS
  5
26D
 10
243.562821
 20
415.164833
 30
0.0
 11
252.552558
 21
415.164833
 31
0.0
  0
LINE
  8
LC-001-002-----0
  6
CONTINUOUS
  5
26E
 10
252.552558
 20
415.864833
 30
0.0
 11
252.552558
 21
415.164833
 31
0.0
  0
LINE
  8
LC-001-002-----0
  6
CONTINUOUS
  5
26F
 10
214.526323
 20
389.064833
 30
0.0
 11
213.271194
 21
390.522402
 31
0.0
  0
ARC
  8
LC-006-002-RND-0
  6
CONTINUOUS
  5
270
 10
224.107229
 20
388.564833
 30
0.0
 40
3.0
 50
90.0
 51
139.267893
  0
LINE
  8
LC-001-002-----0
  6
CONTINUOUS
  5
271
 10
220.578794
 20
389.064833
 30
0.0
 11
221.833923
 21
390.522402
 31
0.0
  0
LINE
  8
LC-001-002-----0
  6
CONTINUOUS
  5
272
 10
239.052558
 20
415.864833
 30
0.0
 11
252.552558
 21
415.864833
 31
0.0
  0
LINE
  8
LC-001-002-----0
  6
CONTINUOUS
  5
273
 10
181.702558
 20
393.353399
 30
0.0
 11
186.068104
 21
393.353278
 31
0.0
  0
LINE
  8
LC-001-002-----0
  6
CONTINUOUS
  5
274
 10
249.052558
 20
393.353399
 30
0.0
 11
253.402558
 21
393.353399
 31
0.0
  0
LINE
  8
LC-001-002-----0
  6
DASHDOT
 62
     2
  5
275
 10
217.552558
 20
399.853399
 30
0.0
 11
217.552558
 21
390.153399
 31
0.0
  0
LINE
  8
LC-001-002-----0
  6
CONTINUOUS
  5
276
 10
185.052558
 20
391.653399
 30
0.0
 11
187.052558
 21
391.653399
 31
0.0
  0
LINE
  8
LC-001-002-----0
  6
CONTINUOUS
  5
277
 10
188.052558
 20
388.153399
 30
0.0
 11
197.29776
 21
388.153399
 31
0.0
  0
LINE
  8
LC-001-002-----0
  6
CONTINUOUS
  5
278
 10
250.052558
 20
391.653399
 30
0.0
 11
250.052558
 21
391.153399
 31
0.0
  0
LINE
  8
LC-001-002-----0
  6
CONTINUOUS
  5
279
 10
185.052558
 20
391.653399
 30
0.0
 11
185.052558
 21
391.153399
 31
0.0
  0
ARC
  8
LC-006-002-RND-0
  6
CONTINUOUS
  5
27A
 10
188.052558
 20
391.153399
 30
0.0
 40
3.0
 50
180.0
 51
270.0
  0
ARC
  8
LC-006-002-RND-0
  6
CONTINUOUS
  5
27B
 10
247.052558
 20
391.153399
 30
0.0
 40
3.0
 50
270.0
 51
0.0
  0
LINE
  8
LC-001-002-----0
  6
CONTINUOUS
  5
27C
 10
251.830459
 20
399.853399
 30
0.0
 11
251.844868
 21
399.853399
 31
0.0
  0
LINE
  8
LC-001-002-----0
  6
CONTINUOUS
  5
27D
 10
253.452558
 20
399.853399
 30
0.0
 11
239.631513
 21
399.853399
 31
0.0
  0
ARC
  8
LC-001-002-----0
  6
CONTINUOUS
  5
27E
 10
183.660249
 20
387.853407
 30
0.0
 40
12.0
 50
29.999952
 51
90.0
  0
ARC
  8
LC-001-002-----0
  6
CONTINUOUS
  5
27F
 10
251.444868
 20
387.853407
 30
0.0
 40
12.0
 50
90.0
 51
150.000048
  0
LINE
  8
LC-001-002-----0
  6
CONTINUOUS
  5
280
 10
181.652558
 20
399.853399
 30
0.0
 11
195.473604
 21
399.853399
 31
0.0
  0
LINE
  8
LC-001-002-----0
  6
CONTINUOUS
  5
281
 10
248.052558
 20
392.353399
 30
0.0
 11
248.052558
 21
391.153399
 31
0.0
  0
ARC
  8
LC-006-002-RND-0
  6
CONTINUOUS
  5
282
 10
249.052558
 20
392.353399
 30
0.0
 40
1.0
 50
90.0
 51
180.0
  0
ARC
  8
LC-006-002-RND-0
  6
CONTINUOUS
  5
283
 10
247.052558
 20
391.153399
 30
0.0
 40
1.0
 50
270.0
 51
0.0
  0
LINE
  8
LC-001-002-----0
  6
CONTINUOUS
  5
284
 10
244.052558
 20
390.153399
 30
0.0
 11
247.452558
 21
390.153399
 31
0.0
  0
LINE
  8
LC-001-002-----0
  6
CONTINUOUS
  5
285
 10
192.452558
 20
393.853399
 30
0.0
 11
192.452558
 21
391.153399
 31
0.0
  0
LINE
  8
LC-001-002-----0
  6
CONTINUOUS
  5
286
 10
187.052558
 20
392.353399
 30
0.0
 11
187.052558
 21
391.153399
 31
0.0
  0
LINE
  8
LC-001-002-----0
  6
CONTINUOUS
  5
287
 10
192.452558
 20
393.853399
 30
0.0
 11
195.789183
 21
393.853399
 31
0.0
  0
LINE
  8
LC-001-002-----0
  6
CONTINUOUS
  5
288
 10
242.652558
 20
393.853399
 30
0.0
 11
239.317139
 21
393.853399
 31
0.0
  0
ARC
  8
LC-006-002-RND-0
  6
CONTINUOUS
  5
289
 10
186.052558
 20
392.353399
 30
0.0
 40
1.0
 50
0.0
 51
89.109248
  0
LINE
  8
LC-001-002-----0
  6
CONTINUOUS
  5
28A
 10
242.652558
 20
393.853399
 30
0.0
 11
242.652558
 21
391.153399
 31
0.0
  0
LINE
  8
LC-001-002-----0
  6
CONTINUOUS
  5
28B
 10
220.50987
 20
388.984793
 30
0.0
 11
220.50987
 21
385.517896
 31
0.0
  0
ARC
  8
LC-006-002-RND-0
  6
CONTINUOUS
  5
28C
 10
243.652558
 20
391.153399
 30
0.0
 40
1.0
 50
180.0
 51
270.0
  0
ARC
  8
LC-006-002-RND-0
  6
CONTINUOUS
  5
28D
 10
188.052558
 20
391.153399
 30
0.0
 40
1.0
 50
180.0
 51
270.0
  0
ARC
  8
LC-006-002-RND-0
  6
CONTINUOUS
  5
28E
 10
191.452558
 20
391.153399
 30
0.0
 40
1.0
 50
270.0
 51
0.0
  0
ARC
  8
LC-006-002-RND-0
  6
CONTINUOUS
  5
28F
 10
197.711455
 20
388.153399
 30
0.0
 40
2.0
 50
4.737661
 51
90.0
  0
ARC
  8
LC-006-002-RND-0
  6
CONTINUOUS
  5
290
 10
197.29776
 20
387.153399
 30
0.0
 40
1.0
 50
4.737661
 51
90.0
  0
LINE
  8
LC-001-002-----0
  6
CONTINUOUS
  5
291
 10
181.702558
 20
399.853399
 30
0.0
 11
181.702558
 21
393.353399
 31
0.0
  0
LINE
  8
LC-001-002-----0
  6
CONTINUOUS
  5
292
 10
253.402558
 20
399.853399
 30
0.0
 11
253.402558
 21
393.353399
 31
0.0
  0
LINE
  8
LC-001-002-----0
  6
CONTINUOUS
  5
293
 10
198.552558
 20
516.885801
 30
0.0
 11
198.552558
 21
524.885801
 31
0.0
  0
LINE
  8
LC-001-002-----0
  6
DASHDOT
 62
     2
  5
294
 10
217.552558
 20
547.885801
 30
0.0
 11
217.552558
 21
406.885801
 31
0.0
  0
LINE
  8
LC-001-002-----0
  6
CONTINUOUS
  5
295
 10
200.552558
 20
524.885801
 30
0.0
 11
234.552558
 21
524.885801
 31
0.0
  0
LINE
  8
LC-001-002-----0
  6
CONTINUOUS
  5
296
 10
236.552558
 20
516.885801
 30
0.0
 11
236.552558
 21
424.885801
 31
0.0
  0
LINE
  8
LC-001-002-----0
  6
CONTINUOUS
  5
297
 10
198.552558
 20
516.885801
 30
0.0
 11
198.552558
 21
424.885801
 31
0.0
  0
LINE
  8
LC-001-002-----0
  6
CONTINUOUS
  5
298
 10
195.802558
 20
413.385801
 30
0.0
 11
195.802558
 21
410.685801
 31
0.0
  0
LINE
  8
LC-001-002-----0
  6
CONTINUOUS
  5
299
 10
190.052558
 20
421.885801
 30
0.0
 11
190.052558
 21
421.885801
 31
0.0
  0
LINE
  8
LC-001-002-----0
  6
CONTINUOUS
  5
29A
 10
193.052558
 20
424.885801
 30
0.0
 11
198.552558
 21
424.885801
 31
0.0
  0
LINE
  8
LC-001-002-----0
  6
CONTINUOUS
  5
29B
 10
190.052558
 20
421.885801
 30
0.0
 11
196.052558
 21
421.885801
 31
0.0
  0
LINE
  8
LC-001-002-----0
  6
CONTINUOUS
  5
29C
 10
236.552558
 20
424.885801
 30
0.0
 11
242.052558
 21
424.885801
 31
0.0
  0
LINE
  8
LC-001-002-----0
  6
CONTINUOUS
  5
29D
 10
239.052558
 20
421.885801
 30
0.0
 11
239.052558
 21
413.885801
 31
0.0
  0
LINE
  8
LC-001-002-----0
  6
CONTINUOUS
  5
29E
 10
196.052558
 20
421.885801
 30
0.0
 11
196.052558
 21
413.885801
 31
0.0
  0
LINE
  8
LC-001-002-----0
  6
CONTINUOUS
  5
29F
 10
195.552558
 20
413.885801
 30
0.0
 11
197.552558
 21
413.885801
 31
0.0
  0
LINE
  8
LC-001-002-----0
  6
CONTINUOUS
  5
2A0
 10
197.052558
 20
406.885801
 30
0.0
 11
238.052558
 21
406.885801
 31
0.0
  0
ARC
  8
LC-006-002-RND-0
  6
CONTINUOUS
  5
2A1
 10
193.052558
 20
421.885801
 30
0.0
 40
3.0
 50
90.0
 51
180.0
  0
LINE
  8
LC-001-002-----0
  6
CONTINUOUS
  5
2A2
 10
239.052558
 20
410.385801
 30
0.0
 11
238.052558
 21
406.885801
 31
0.0
  0
LINE
  8
LC-001-002-----0
  6
CONTINUOUS
  5
2A3
 10
196.052558
 20
410.385801
 30
0.0
 11
197.552558
 21
410.385801
 31
0.0
  0
ARC
  8
LC-001-002-----0
  6
CONTINUOUS
  5
2A4
 10
242.052558
 20
421.885801
 30
0.0
 40
3.0
 50
0.0
 51
90.0
  0
LINE
  8
LC-001-002-----0
  6
CONTINUOUS
  5
2A5
 10
196.052558
 20
410.385801
 30
0.0
 11
197.052558
 21
406.885801
 31
0.0
  0
LINE
  8
LC-001-002-----0
  6
CONTINUOUS
  5
2A6
 10
197.552558
 20
413.885801
 30
0.0
 11
197.552558
 21
410.385801
 31
0.0
  0
LINE
  8
LC-001-002-----0
  6
CONTINUOUS
  5
2A7
 10
237.552558
 20
410.385801
 30
0.0
 11
237.552558
 21
413.885801
 31
0.0
  0
LINE
  8
LC-001-002-----0
  6
CONTINUOUS
  5
2A8
 10
195.552558
 20
413.385801
 30
0.0
 11
195.802558
 21
413.385801
 31
0.0
  0
LINE
  8
LC-001-002-----0
  6
CONTINUOUS
  5
2A9
 10
195.802558
 20
410.685801
 30
0.0
 11
197.552558
 21
410.685801
 31
0.0
  0
LINE
  8
LC-001-002-----0
  6
CONTINUOUS
  5
2AA
 10
239.302558
 20
410.685801
 30
0.0
 11
237.552558
 21
410.685801
 31
0.0
  0
LINE
  8
LC-001-002-----0
  6
CONTINUOUS
  5
2AB
 10
239.302558
 20
413.385801
 30
0.0
 11
239.302558
 21
410.685801
 31
0.0
  0
LINE
  8
LC-001-002-----0
  6
CONTINUOUS
  5
2AC
 10
239.552558
 20
413.885801
 30
0.0
 11
239.552558
 21
413.385801
 31
0.0
  0
LINE
  8
LC-001-002-----0
  6
CONTINUOUS
  5
2AD
 10
239.552558
 20
413.385801
 30
0.0
 11
239.302558
 21
413.385801
 31
0.0
  0
LINE
  8
LC-001-002-----0
  6
CONTINUOUS
  5
2AE
 10
239.052558
 20
421.885801
 30
0.0
 11
245.052558
 21
421.885801
 31
0.0
  0
LINE
  8
LC-001-002-----0
  6
CONTINUOUS
  5
2AF
 10
237.552558
 20
413.885801
 30
0.0
 11
239.552558
 21
413.885801
 31
0.0
  0
LINE
  8
LC-001-002-----0
  6
CONTINUOUS
  5
2B0
 10
237.552558
 20
410.385801
 30
0.0
 11
239.052558
 21
410.385801
 31
0.0
  0
ARC
  8
LC-006-002-RND-0
  6
CONTINUOUS
  5
2B1
 10
217.552558
 20
526.885801
 30
0.0
 40
21.0
 50
0.0
 51
90.0
  0
LINE
  8
LC-001-002-----0
  6
CONTINUOUS
  5
2B2
 10
196.552558
 20
526.885801
 30
0.0
 11
196.552558
 21
518.385801
 31
0.0
  0
LINE
  8
LC-001-002-----0
  6
CONTINUOUS
  5
2B3
 10
198.052558
 20
516.885801
 30
0.0
 11
198.552558
 21
516.885801
 31
0.0
  0
ARC
  8
LC-006-002-RND-0
  6
CONTINUOUS
  5
2B4
 10
217.552558
 20
526.885801
 30
0.0
 40
21.0
 50
90.0
 51
180.0
  0
LINE
  8
LC-001-002-----0
  6
CONTINUOUS
  5
2B5
 10
238.552558
 20
526.885801
 30
0.0
 11
238.552558
 21
518.385801
 31
0.0
  0
LINE
  8
LC-001-002-----0
  6
CONTINUOUS
  5
2B6
 10
237.052558
 20
516.885801
 30
0.0
 11
236.552558
 21
516.885801
 31
0.0
  0
LINE
  8
LC-001-002-----0
  6
CONTINUOUS
  5
2B7
 10
200.552558
 20
526.885801
 30
0.0
 11
200.552558
 21
524.885801
 31
0.0
  0
ARC
  8
LC-001-002-----0
  6
CONTINUOUS
  5
2B8
 10
217.552558
 20
526.885801
 30
0.0
 40
17.0
 50
0.0
 51
180.0
  0
ARC
  8
LC-006-002-RND-0
  6
CONTINUOUS
  5
2B9
 10
198.052558
 20
518.385801
 30
0.0
 40
1.5
 50
180.0
 51
270.0
  0
ARC
  8
LC-006-002-RND-0
  6
CONTINUOUS
  5
2BA
 10
237.052558
 20
518.385801
 30
0.0
 40
1.5
 50
270.0
 51
0.0
  0
LINE
  8
LC-001-002-----0
  6
CONTINUOUS
  5
2BB
 10
234.552558
 20
526.885801
 30
0.0
 11
234.552558
 21
524.885801
 31
0.0
  0
LINE
  8
LC-001-002-----0
  6
CONTINUOUS
  5
2BC
 10
200.552558
 20
524.885801
 30
0.0
 11
200.052558
 21
406.885801
 31
0.0
  0
LINE
  8
LC-001-002-----0
  6
CONTINUOUS
  5
2BD
 10
234.552558
 20
524.885801
 30
0.0
 11
235.052558
 21
406.885801
 31
0.0
  0
LINE
  8
LC-001-002-----0
  6
CONTINUOUS
  5
2BE
 10
198.552558
 20
524.885801
 30
0.0
 11
200.552558
 21
524.885801
 31
0.0
  0
LINE
  8
LC-001-002-----0
  6
CONTINUOUS
  5
2BF
 10
236.552558
 20
516.885801
 30
0.0
 11
236.552558
 21
524.885801
 31
0.0
  0
LINE
  8
LC-001-002-----0
  6
CONTINUOUS
  5
2C0
 10
236.552558
 20
524.885801
 30
0.0
 11
234.552558
 21
524.885801
 31
0.0
  0
LINE
  8
LC-001-002-----0
  6
CONTINUOUS
  5
2C1
 10
239.052558
 20
385.517896
 30
0.0
 11
196.052558
 21
385.517896
 31
0.0
  0
LINE
  8
LC-001-002-----0
  6
CONTINUOUS
  5
2C2
 10
187.052558
 20
391.653399
 30
0.0
 11
187.052558
 21
391.153399
 31
0.0
  0
LINE
  8
LC-001-002-----0
  6
CONTINUOUS
  5
2C3
 10
198.232728
 20
387.297608
 30
0.0
 11
196.577061
 21
385.641942
 31
0.0
  0
LINE
  8
LC-001-002-----0
  6
CONTINUOUS
  5
2C4
 10
236.896892
 20
387.322111
 30
0.0
 11
238.577061
 21
385.641942
 31
0.0
  0
LINE
  8
LC-001-002-----0
  6
CONTINUOUS
  5
2C5
 10
188.052558
 20
390.153399
 30
0.0
 11
212.740756
 21
390.153399
 31
0.0
  0
ARC
  8
LC-006-002-RND-0
  6
CONTINUOUS
  5
2C6
 10
188.052558
 20
391.153399
 30
0.0
 40
1.0
 50
180.0
 51
270.0
  0
LINE
  8
LC-001-002-----0
  6
CONTINUOUS
  5
2C7
 10
237.639247
 20
388.153399
 30
0.0
 11
247.052558
 21
388.153399
 31
0.0
  0
LINE
  8
LC-001-002-----0
  6
CONTINUOUS
  5
2C8
 10
248.052558
 20
391.653399
 30
0.0
 11
250.052558
 21
391.653399
 31
0.0
  0
LINE
  8
LC-001-002-----0
  6
CONTINUOUS
  5
2C9
 10
235.168383
 20
385.517896
 30
0.0
 11
235.400495
 21
388.318586
 31
0.0
  0
LINE
  8
LC-001-002-----0
  6
CONTINUOUS
  5
2CA
 10
236.668383
 20
385.517896
 30
0.0
 11
236.810773
 21
387.235992
 31
0.0
  0
ARC
  8
LC-006-002-RND-0
  6
CONTINUOUS
  5
2CB
 10
237.807357
 20
387.153399
 30
0.0
 40
1.0
 50
90.0
 51
175.262339
  0
LINE
  8
LC-001-002-----0
  6
CONTINUOUS
  5
2CC
 10
248.052558
 20
391.653399
 30
0.0
 11
248.052558
 21
391.153399
 31
0.0
  0
ARC
  8
LC-006-002-RND-0
  6
CONTINUOUS
  5
2CD
 10
247.052558
 20
391.153399
 30
0.0
 40
1.0
 50
270.0
 51
0.0
  0
LINE
  8
LC-001-002-----0
  6
CONTINUOUS
  5
2CE
 10
222.443962
 20
390.153399
 30
0.0
 11
247.052558
 21
390.153399
 31
0.0
  0
LINE
  8
LC-001-002-----0
  6
CONTINUOUS
  5
2CF
 10
191.052558
 20
390.153399
 30
0.0
 11
187.652558
 21
390.153399
 31
0.0
  0
LINE
  8
LC-001-002-----0
  6
CONTINUOUS
  5
2D0
 10
198.436734
 20
385.517896
 30
0.0
 11
198.294344
 21
387.235992
 31
0.0
  0
LINE
  8
LC-005-005-----0
  6
CONTINUOUS
  5
2D1
 10
198.890548
 20
385.517896
 30
0.0
 11
199.856665
 21
386.484013
 31
0.0
  0
LINE
  8
LC-005-005-----0
  6
CONTINUOUS
  5
2D2
 10
198.175945
 20
387.63172
 30
0.0
 11
199.530008
 21
388.985783
 31
0.0
  0
LINE
  8
LC-005-005-----0
  6
CONTINUOUS
  5
2D3
 10
195.869196
 20
388.153399
 30
0.0
 11
197.869196
 21
390.153399
 31
0.0
  0
LINE
  8
LC-005-005-----0
  6
CONTINUOUS
  5
2D4
 10
193.040769
 20
388.153399
 30
0.0
 11
195.040769
 21
390.153399
 31
0.0
  0
LINE
  8
LC-005-005-----0
  6
CONTINUOUS
  5
2D5
 10
190.212342
 20
388.153399
 30
0.0
 11
192.212342
 21
390.153399
 31
0.0
  0
LINE
  8
LC-005-005-----0
  6
CONTINUOUS
  5
2D6
 10
187.445895
 20
388.215379
 30
0.0
 11
189.383915
 21
390.153399
 31
0.0
  0
LINE
  8
LC-005-005-----0
  6
CONTINUOUS
  5
2D7
 10
185.697312
 20
389.295223
 30
0.0
 11
187.142034
 21
390.739944
 31
0.0
  0
LINE
  8
LC-005-005-----0
  6
CONTINUOUS
  5
2D8
 10
185.052558
 20
391.478896
 30
0.0
 11
185.227061
 21
391.653399
 31
0.0
  0
ARC
  8
LC-006-002-RND-0
  6
CONTINUOUS
  5
2D9
 10
237.393662
 20
388.153399
 30
0.0
 40
2.0
 50
90.0
 51
175.262339
  0
LINE
  8
LC-005-005-----0
  6
CONTINUOUS
  5
2DA
 10
246.780885
 20
388.153399
 30
0.0
 11
250.052558
 21
391.425072
 31
0.0
  0
LINE
  8
LC-005-005-----0
  6
CONTINUOUS
  5
2DB
 10
243.952457
 20
388.153399
 30
0.0
 11
245.952457
 21
390.153399
 31
0.0
  0
LINE
  8
LC-005-005-----0
  6
CONTINUOUS
  5
2DC
 10
241.12403
 20
388.153399
 30
0.0
 11
243.12403
 21
390.153399
 31
0.0
  0
LINE
  8
LC-005-005-----0
  6
CONTINUOUS
  5
2DD
 10
235.6601
 20
385.517896
 30
0.0
 11
236.759498
 21
386.617293
 31
0.0
  0
LINE
  8
LC-005-005-----0
  6
CONTINUOUS
  5
2DE
 10
238.295603
 20
388.153399
 30
0.0
 11
240.295603
 21
390.153399
 31
0.0
  0
LINE
  8
LC-005-005-----0
  6
CONTINUOUS
  5
2DF
 10
235.379542
 20
388.065765
 30
0.0
 11
237.467176
 21
390.153399
 31
0.0
  0
ENDSEC
  0
EOF
